<?xml version="1.0" encoding="UTF-8"?>
<svg xmlns="http://www.w3.org/2000/svg" xmlns:xlink="http://www.w3.org/1999/xlink" version="1.2" >
<font id="Aludra Black Italic">
<font-face  font-family="Aludra" units-per-em="1024" ascent="975" descent="-300" font-style="italic" font-weight="900" font-stretch="normal" cap-height="750" x-height="500" underline-position="0" underline-thickness="0" />
<missing-glyph  horiz-adv-x="472" d="M0 700 C0 700 432 700 432 700 C432 700 432 0 432 0 C432 0 0 0 0 0 C0 0 0 700 0 700 L0 700 Z M50 50 C50 50 382 50 382 50 C382 50 382 650 382 650 C382 650 50 650 50 650 C50 650 50 50 50 50 L50 50 Z " />
<glyph glyph-name="NULL" d="" />
<glyph glyph-name="CR" unicode="&#xd;" horiz-adv-x="256" d="" />
<glyph glyph-name="space" unicode="&#x20;" horiz-adv-x="250" d="" />
<glyph glyph-name="exclam" unicode="&#x21;" horiz-adv-x="323" d="M161 -5 C214 -5 246 22 255 75 C265 128 242 155 189 155 C136 155 105 128 95 75 C86 22 108 -5 161 -5 L161 -5 Z M295 755 C191 755 176 707 178 612 C178 612 185 210 185 210 C185 210 213 210 213 210 C213 210 361 612 361 612 C396 707 398 755 295 755 L295 755 Z " />
<glyph glyph-name="quotedbl" unicode="&#x22;" horiz-adv-x="325" d="M865 750 C812 750 807 735 813 705 C813 705 840 560 840 560 C840 560 858 560 858 560 C858 560 936 705 936 705 C952 735 952 750 900 750 C900 750 865 750 865 750 L865 750 Z " />
<glyph glyph-name="numbersign" unicode="&#x23;" horiz-adv-x="579" d="M518 642 C518 642 476 518 476 518 C476 518 355 518 355 518 C355 518 397 642 397 642 C397 642 338 642 338 642 C338 642 296 518 296 518 C296 518 166 518 166 518 C166 518 129 402 129 402 C129 402 258 402 258 402 C258 402 209 258 209 258 C209 258 76 258 76 258 C76 258 39 142 39 142 C39 142 171 142 171 142 C171 142 123 0 123 0 C123 0 181 0 181 0 C181 0 229 142 229 142 C229 142 351 142 351 142 C351 142 303 0 303 0 C303 0 361 0 361 0 C361 0 409 142 409 142 C409 142 518 142 518 142 C518 142 555 258 555 258 C555 258 448 258 448 258 C448 258 496 402 496 402 C496 402 614 402 614 402 C614 402 651 518 651 518 C651 518 535 518 535 518 C535 518 577 642 577 642 C577 642 518 642 518 642 L518 642 Z M316 402 C316 402 438 402 438 402 C438 402 389 258 389 258 C389 258 268 258 268 258 C268 258 316 402 316 402 L316 402 Z " />
<glyph glyph-name="dollar" unicode="&#x24;" horiz-adv-x="559" d="M438 825 C438 825 426 760 426 760 C420 760 414 760 408 760 C401 760 395 760 388 760 C388 760 400 825 400 825 C400 825 358 825 358 825 C358 825 346 755 346 755 C235 736 168 664 147 540 C125 417 154 337 264 292 C264 292 222 53 222 53 C174 69 141 107 123 167 C123 167 116 164 116 164 C108 185 103 206 100 227 C100 227 85 227 85 227 C77 185 73 158 71 144 C71 144 70 144 70 144 C70 144 70 143 70 143 C69 138 69 135 69 135 C63 104 58 73 52 42 C52 42 67 42 67 42 C67 42 71 51 77 68 C79 73 99 64 135 35 C157 16 182 4 212 -3 C212 -3 199 -75 199 -75 C199 -75 241 -75 241 -75 C241 -75 253 -9 253 -9 C259 -10 265 -10 271 -10 C278 -10 284 -10 291 -10 C291 -10 279 -75 279 -75 C279 -75 321 -75 321 -75 C321 -75 333 -6 333 -6 C459 12 535 86 558 217 C577 330 541 406 415 458 C415 458 459 708 459 708 C490 697 514 679 532 656 C538 646 543 635 546 623 C546 623 551 625 551 625 C559 610 564 594 566 578 C568 568 568 563 569 563 C569 563 584 563 584 563 C588 590 593 618 598 645 C598 645 613 726 613 726 C613 726 598 726 598 726 C597 726 594 719 589 706 C587 701 572 705 547 722 C526 738 500 749 468 755 C468 755 480 825 480 825 C480 825 438 825 438 825 L438 825 Z M419 717 C419 717 376 474 376 474 C363 480 351 486 341 493 C341 493 381 717 381 717 C387 718 393 718 400 718 C406 718 413 718 419 717 C419 717 419 717 419 717 L419 717 Z M303 276 C316 270 328 265 338 259 C338 259 300 45 300 45 C294 44 287 44 280 44 C274 44 268 44 262 45 C262 45 303 276 303 276 L303 276 Z M376 237 C408 214 419 192 415 169 C405 113 381 76 344 58 C344 58 376 237 376 237 L376 237 Z M305 526 C288 549 284 575 289 604 C297 648 312 679 335 698 C335 698 305 526 305 526 L305 526 Z " />
<glyph glyph-name="ampersand" unicode="&#x26;" horiz-adv-x="324" d="M448 470 C563 509 627 555 637 609 C654 709 591 760 449 760 C327 760 255 703 235 590 C223 524 240 485 278 428 C150 381 76 302 57 194 C33 58 96 -10 243 -10 C333 -10 422 23 508 88 C508 88 519 72 519 72 C556 18 617 -10 698 -10 C781 -10 839 42 869 143 C869 143 844 152 844 152 C836 126 815 113 782 113 C722 113 682 126 665 152 C665 152 630 203 630 203 C698 281 765 380 830 500 C830 500 794 500 794 500 C734 388 671 302 605 240 C605 240 457 457 457 457 C454 461 451 466 448 470 C448 470 448 470 448 470 L448 470 Z M433 492 C389 557 368 597 381 669 C387 706 408 725 443 725 C503 725 528 689 515 617 C505 559 477 518 433 492 C433 492 433 492 433 492 L433 492 Z M466 150 C430 136 393 129 355 129 C254 129 209 166 222 239 C236 316 260 371 294 403 C300 395 306 386 312 377 C312 377 466 150 466 150 L466 150 Z " />
<glyph glyph-name="quotesingle" unicode="&#x27;" horiz-adv-x="204" d="" />
<glyph glyph-name="parenleft" unicode="&#x28;" horiz-adv-x="535" d="M454 760 C251 638 131 474 95 273 C62 82 122 -81 275 -214 C275 -214 287 -197 287 -197 C190 -113 161 45 201 273 C242 506 329 664 460 743 C460 743 454 760 454 760 L454 760 Z " />
<glyph glyph-name="parenright" unicode="&#x29;" horiz-adv-x="535" d="M152 743 C256 667 287 509 245 273 C203 34 118 -124 -7 -197 C-7 -197 -1 -214 -1 -214 C196 -100 314 64 351 273 C387 479 325 642 164 760 C164 760 152 743 152 743 L152 743 Z " />
<glyph glyph-name="asterisk" unicode="&#x2a;" horiz-adv-x="300" d="M127 630 C127 630 23 610 23 610 C-1 605 -3 586 16 552 C35 519 53 512 69 530 C69 530 140 612 140 612 C140 612 104 510 104 510 C96 487 111 475 150 475 C189 475 204 487 196 510 C196 510 160 612 160 612 C160 612 231 530 231 530 C247 512 265 519 284 552 C303 586 301 605 277 610 C277 610 173 630 173 630 C173 630 277 650 277 650 C301 655 303 674 284 707 C265 741 247 748 231 730 C231 730 160 648 160 648 C160 648 196 750 196 750 C204 773 189 785 150 785 C111 785 96 773 104 750 C104 750 140 648 140 648 C140 648 69 730 69 730 C53 748 35 741 16 707 C-3 674 -1 655 23 650 C23 650 127 630 127 630 L127 630 Z " />
<glyph glyph-name="plus" unicode="&#x2b;" horiz-adv-x="620" d="M333 460 C333 460 305 303 305 303 C305 303 153 303 153 303 C153 303 135 197 135 197 C135 197 287 197 287 197 C287 197 259 40 259 40 C259 40 375 40 375 40 C375 40 403 197 403 197 C403 197 555 197 555 197 C555 197 573 303 573 303 C573 303 421 303 421 303 C421 303 449 460 449 460 C449 460 333 460 333 460 L333 460 Z " />
<glyph glyph-name="comma" unicode="&#x2c;" horiz-adv-x="271" d="M138 -4 C137 -12 136 -22 134 -32 C128 -67 100 -84 50 -84 C50 -84 44 -119 44 -119 C134 -119 188 -72 205 21 C216 84 196 115 145 115 C105 115 82 95 75 55 C68 15 84 -5 124 -5 C129 -5 134 -5 138 -4 C138 -4 138 -4 138 -4 L138 -4 Z " />
<glyph glyph-name="hyphen" unicode="&#x2d;" horiz-adv-x="430" d="M120 226 C120 226 390 226 390 226 C390 226 411 344 411 344 C411 344 141 344 141 344 C141 344 120 226 120 226 L120 226 Z " />
<glyph glyph-name="period" unicode="&#x2e;" horiz-adv-x="195" d="M124 -5 C177 -5 209 22 218 75 C228 128 205 155 152 155 C99 155 68 128 58 75 C49 22 71 -5 124 -5 L124 -5 Z " />
<glyph glyph-name="slash" unicode="&#x2f;" horiz-adv-x="408" d="M426 770 C426 770 -6 -80 -6 -80 C-6 -80 82 -80 82 -80 C82 -80 514 770 514 770 C514 770 426 770 426 770 L426 770 Z " />
<glyph glyph-name="zero" unicode="0" horiz-adv-x="617" d="M314 52 C196 52 129 118 152 250 C173 368 253 448 384 448 C502 448 569 382 546 250 C525 132 445 52 314 52 L314 52 Z M81 250 C51 77 143 -10 303 -10 C481 -10 590 95 617 250 C647 423 555 510 395 510 C217 510 109 405 81 250 L81 250 Z " />
<glyph glyph-name="one" unicode="1" horiz-adv-x="370" d="M419 500 C419 500 128 500 128 500 C127 490 125 488 125 480 C125 480 135 480 135 480 C175 480 194 479 192 465 C192 465 116 35 116 35 C114 21 94 20 54 20 C54 20 44 20 44 20 C43 16 41 2 40 0 C40 0 331 0 331 0 C331 0 334 20 334 20 C334 20 323 20 323 20 C284 20 264 21 266 35 C266 35 342 465 342 465 C344 479 365 480 404 480 C404 480 415 480 415 480 C416 484 418 498 419 500 L419 500 Z " />
<glyph glyph-name="two" unicode="2" horiz-adv-x="567" d="M122 288 C152 370 210 411 295 411 C358 411 385 378 373 314 C352 191 222 113 35 26 C35 26 30 0 30 0 C30 0 277 0 277 0 C277 0 440 0 440 0 C468 33 495 68 522 102 C522 102 547 133 547 133 C547 133 547 133 547 133 C558 147 569 160 580 174 C579 174 564 179 564 179 C564 179 555 168 555 168 C537 145 520 133 417 133 C417 133 296 133 296 133 C431 209 517 278 529 349 C548 456 498 510 379 510 C242 510 145 438 92 295 C92 295 122 288 122 288 L122 288 Z " />
<glyph glyph-name="three" unicode="3" horiz-adv-x="482" d="M-21 -202 C-21 -202 -21 -232 -21 -232 C265 -203 422 -117 447 24 C469 148 428 219 326 234 C407 281 451 329 462 389 C477 469 427 510 313 510 C200 510 121 457 79 352 C79 352 110 343 110 343 C126 384 168 405 234 405 C281 405 302 382 294 337 C278 251 229 211 140 176 C140 176 135 146 135 146 C248 129 297 74 281 -18 C263 -122 161 -184 -21 -202 L-21 -202 Z " />
<glyph glyph-name="four" unicode="4" horiz-adv-x="620" d="M595 1 C611 55 628 108 646 160 C646 160 626 160 626 160 C626 160 622 150 622 150 C615 127 604 115 501 115 C501 115 435 115 435 115 C460 253 484 392 508 530 C508 530 489 530 489 530 C489 530 20 26 20 26 C20 26 15 0 15 0 C15 0 265 0 265 0 C265 0 226 -220 226 -220 C226 -220 376 -220 376 -220 C389 -147 402 -73 415 0 C415 0 515 0 515 0 C571 0 572 -9 566 -28 C566 -28 563 -39 563 -39 C563 -39 583 -39 583 -39 C587 -26 591 -13 595 0 C595 0 595 0 595 0 C595 0 595 1 595 1 L595 1 Z M172 115 C172 115 312 267 312 267 C312 267 312 267 312 267 C312 267 285 115 285 115 C285 115 172 115 172 115 C172 115 172 115 172 115 L172 115 Z " />
<glyph glyph-name="five" unicode="5" horiz-adv-x="449" d="M19 -237 C263 -208 401 -110 430 56 C458 214 363 294 148 294 C148 294 136 294 136 294 C136 294 159 365 159 365 C159 365 412 370 412 370 C432 426 452 483 472 540 C472 540 452 540 452 540 C442 509 440 500 338 500 C338 500 154 500 154 500 C154 500 39 160 39 160 C39 160 61 136 61 136 C61 136 104 136 104 136 C242 136 304 92 289 5 C267 -119 177 -190 21 -209 C21 -209 19 -237 19 -237 L19 -237 Z " />
<glyph glyph-name="six" unicode="6" horiz-adv-x="570" d="M682 750 C327 677 127 526 86 300 C50 94 116 -10 280 -10 C435 -10 528 73 557 238 C584 393 532 471 401 471 C358 471 321 460 291 437 C369 593 501 690 684 728 C684 728 682 750 682 750 L682 750 Z M222 220 C246 358 298 427 376 427 C419 427 430 366 409 246 C384 104 340 33 280 33 C219 33 200 96 222 220 L222 220 Z " />
<glyph glyph-name="seven" unicode="7" horiz-adv-x="469" d="M22 333 C22 333 42 333 42 333 C42 333 48 342 48 342 C63 366 74 378 120 378 C120 378 437 378 437 378 C437 378 60 -220 60 -220 C60 -220 174 -220 174 -220 C174 -220 550 485 550 485 C550 485 552 500 552 500 C552 500 233 500 233 500 C152 500 151 508 160 522 C160 522 165 532 165 532 C165 532 145 532 145 532 C105 466 63 398 22 333 L22 333 Z " />
<glyph glyph-name="eight" unicode="8" horiz-adv-x="540" d="M255 342 C264 337 274 333 284 328 C382 286 430 255 409 132 C396 61 348 25 267 25 C196 25 169 75 187 174 C200 252 223 308 255 342 C255 342 255 342 255 342 L255 342 Z M213 370 C123 320 70 255 56 174 C34 52 103 -10 261 -10 C418 -10 511 60 535 199 C559 330 523 385 441 431 C523 476 571 532 583 599 C602 706 538 760 394 760 C256 760 175 698 153 574 C137 479 158 416 213 370 C213 370 213 370 213 370 L213 370 Z M396 453 C386 458 376 462 365 467 C297 497 268 544 283 630 C294 693 330 725 388 725 C447 725 469 678 452 586 C442 527 423 483 396 453 C396 453 396 453 396 453 L396 453 Z " />
<glyph glyph-name="nine" unicode="9" horiz-adv-x="570" d="M-24 -250 C332 -177 532 -26 572 200 C608 406 543 510 378 510 C224 510 131 427 102 262 C74 107 127 29 258 29 C302 29 338 40 368 63 C290 -93 158 -190 -25 -228 C-25 -228 -24 -250 -24 -250 L-24 -250 Z M437 280 C413 142 361 73 283 73 C240 73 229 134 250 254 C275 396 319 467 379 467 C439 467 459 404 437 280 L437 280 Z " />
<glyph glyph-name="colon" unicode="&#x3a;" horiz-adv-x="135" d="M193 385 C246 385 278 412 287 465 C296 518 274 545 221 545 C168 545 136 518 127 465 C118 412 140 385 193 385 L193 385 Z M124 -5 C177 -5 209 22 218 75 C228 128 205 155 152 155 C99 155 68 128 58 75 C49 22 71 -5 124 -5 L124 -5 Z " />
<glyph glyph-name="semicolon" unicode="&#x3b;" horiz-adv-x="271" d="M193 385 C246 385 278 412 287 465 C296 518 274 545 221 545 C168 545 136 518 127 465 C118 412 140 385 193 385 L193 385 Z M138 -4 C137 -12 136 -22 134 -32 C128 -67 100 -84 50 -84 C50 -84 44 -119 44 -119 C134 -119 188 -72 205 21 C216 84 196 115 145 115 C105 115 82 95 75 55 C68 15 84 -5 124 -5 C129 -5 134 -5 138 -4 C138 -4 138 -4 138 -4 L138 -4 Z " />
<glyph glyph-name="equal" unicode="&#x3d;" horiz-adv-x="543" d="M134 233 C134 233 123 167 123 167 C123 167 503 167 503 167 C503 167 514 233 514 233 C514 233 134 233 134 233 L134 233 Z M152 333 C152 333 140 267 140 267 C140 267 520 267 520 267 C520 267 532 333 532 333 C532 333 152 333 152 333 L152 333 Z " />
<glyph glyph-name="question" unicode="&#x3f;" horiz-adv-x="289" d="M124 -5 C177 -5 209 22 218 75 C228 128 205 155 152 155 C99 155 68 128 58 75 C49 22 71 -5 124 -5 L124 -5 Z M179 275 C179 275 188 360 188 360 C308 360 328 383 368 429 C394 459 413 503 423 559 C446 693 398 760 279 760 C185 760 131 723 118 649 C110 600 133 575 186 575 C226 575 265 601 306 601 C359 601 382 581 375 541 C374 534 365 521 347 500 C312 460 294 440 175 440 C175 440 152 275 152 275 C152 275 179 275 179 275 L179 275 Z " />
<glyph glyph-name="at" unicode="&#x40;" horiz-adv-x="1198" d="M1036 0 C937 -154 787 -232 589 -232 C285 -232 161 -67 218 259 C276 585 448 750 732 750 C1016 750 1135 613 1087 343 C1049 124 974 13 865 13 C809 13 808 76 861 200 C861 200 980 480 980 480 C980 480 839 480 839 480 C839 480 817 428 817 428 C803 469 761 490 691 490 C471 490 341 387 305 183 C284 61 335 -1 459 -1 C558 -1 634 25 687 76 C684 0 732 -39 828 -39 C1033 -39 1159 89 1204 343 C1256 641 1100 791 739 791 C378 791 164 612 102 259 C39 -94 200 -273 581 -273 C800 -273 970 -181 1086 0 C1086 0 1036 0 1036 0 L1036 0 Z M786 357 C786 357 719 200 719 200 C686 122 630 82 551 82 C485 82 459 125 475 211 C502 369 571 448 680 448 C760 448 795 418 786 357 L786 357 Z " />
<glyph glyph-name="A" unicode="A" horiz-adv-x="821" d="M475 0 C475 0 570 0 570 0 C570 0 746 0 746 0 C746 0 806 0 806 0 C806 2 809 12 809 20 C809 20 785 20 785 20 C759 20 743 27 727 111 C727 111 627 697 627 697 C627 697 614 770 614 770 C614 770 599 770 599 770 C564 729 517 705 459 697 C459 697 461 686 461 686 C461 686 198 170 198 170 C198 170 198 170 198 170 C130 30 99 20 49 20 C49 20 27 20 27 20 C26 16 24 2 23 0 C23 0 112 0 112 0 C112 0 162 0 162 0 C162 0 278 0 278 0 C278 2 281 12 281 20 C281 20 261 20 261 20 C204 20 178 29 235 151 C235 151 290 265 290 265 C290 265 528 265 528 265 C528 265 551 118 551 118 C563 27 542 20 500 20 C500 20 479 20 479 20 C478 16 476 2 475 0 C475 0 475 0 475 0 L475 0 Z M311 309 C311 309 469 635 469 635 C469 635 521 309 521 309 C521 309 311 309 311 309 L311 309 Z " />
<glyph glyph-name="B" unicode="B" horiz-adv-x="762" d="M46 0 C46 0 287 0 287 0 C287 0 407 0 407 0 C616 0 726 21 757 200 C776 304 727 368 614 390 C706 420 761 480 777 572 C798 690 777 750 505 750 C505 750 420 750 420 750 C420 750 414 716 414 716 C414 716 431 716 431 716 C614 716 626 662 607 554 C589 452 536 400 450 400 C450 400 358 400 358 400 C358 400 353 370 353 370 C353 370 420 370 420 370 C541 362 591 305 573 200 C547 50 486 33 371 33 C371 33 321 33 321 33 C302 33 296 48 302 78 C302 78 287 0 287 0 C287 0 288 6 302 85 C302 85 405 665 405 665 C418 744 419 750 420 750 C420 750 178 750 178 750 C177 740 175 738 175 730 C175 730 185 730 185 730 C227 730 248 725 237 665 C237 665 135 85 135 85 C124 25 102 20 60 20 C60 20 50 20 50 20 C49 16 47 2 46 0 C46 0 46 0 46 0 L46 0 Z M302 78 C302 79 302 79 302 80 C302 80 302 78 302 78 L302 78 Z " />
<glyph glyph-name="C" unicode="C" horiz-adv-x="795" d="M852 533 C857 564 863 594 868 625 C868 625 874 656 885 717 C885 717 870 717 870 717 C869 717 867 710 861 696 C858 689 838 694 800 718 C761 746 703 760 595 760 C309 760 142 631 97 375 C52 119 170 -10 449 -10 C547 -10 613 3 666 29 C666 29 666 29 666 29 C666 29 707 40 747 51 C753 53 754 46 751 30 C751 30 763 30 763 30 C769 61 774 93 780 124 C780 124 785 155 796 217 C796 217 781 217 781 217 C781 217 779 212 774 202 C766 187 754 170 739 153 C739 153 735 157 735 157 C648 72 586 29 472 29 C305 29 241 145 281 375 C321 603 430 718 605 718 C637 718 662 715 683 709 C683 709 682 709 682 709 C691 707 699 704 707 701 C751 681 776 645 811 593 C811 593 818 598 818 598 C827 582 832 564 835 548 C836 538 837 533 837 533 C837 533 852 533 852 533 L852 533 Z " />
<glyph glyph-name="D" unicode="D" horiz-adv-x="902" d="M35 0 C35 0 109 0 109 0 C109 0 276 0 276 0 C276 0 356 0 356 0 C683 0 866 101 914 375 C958 624 859 750 529 750 C529 750 409 750 409 750 C409 750 403 717 403 717 C685 713 768 598 729 375 C685 126 549 34 312 34 C286 34 285 45 289 68 C289 68 276 0 276 0 C276 0 394 665 394 665 C394 665 394 665 394 665 C394 667 395 669 395 671 C395 671 403 716 403 716 C403 716 402 716 402 716 C402 716 403 717 403 717 C403 717 403 717 403 717 C403 717 409 750 409 750 C409 750 241 750 241 750 C241 750 167 750 167 750 C166 740 164 738 164 730 C164 730 174 730 174 730 C216 730 237 725 226 665 C226 665 226 665 226 665 C226 665 123 82 123 82 C112 25 90 20 49 20 C49 20 39 20 39 20 C38 16 36 2 35 0 C35 0 35 0 35 0 L35 0 Z M403 717 C403 717 403 716 403 716 C403 716 403 716 403 716 C403 716 403 717 403 717 C403 717 403 717 403 717 L403 717 Z M289 68 C289 72 290 76 291 80 C291 80 289 68 289 68 L289 68 Z " />
<glyph glyph-name="E" unicode="E" horiz-adv-x="674" d="M706 627 C708 667 713 710 719 750 C719 750 599 750 599 750 C599 750 409 750 409 750 C409 750 241 750 241 750 C241 750 167 750 167 750 C166 740 164 738 164 730 C164 730 174 730 174 730 C216 730 237 725 226 665 C226 665 226 665 226 665 C226 665 123 82 123 82 C112 25 90 20 49 20 C49 20 39 20 39 20 C38 16 36 2 35 0 C35 0 109 0 109 0 C109 0 276 0 276 0 C276 0 491 0 491 0 C491 0 611 0 611 0 C625 41 637 83 651 123 C651 123 631 123 631 123 C631 123 627 113 627 113 C611 62 595 36 503 36 C503 36 363 36 363 36 C294 36 286 47 289 69 C289 69 283 36 283 36 C283 36 276 0 276 0 C276 0 344 385 344 385 C344 385 474 385 474 385 C572 385 570 350 557 287 C557 287 577 287 577 287 C583 320 588 352 594 385 C594 385 594 385 594 385 C594 385 601 425 601 425 C601 425 601 425 601 425 C606 458 612 490 619 523 C619 523 599 523 599 523 C586 458 580 425 481 425 C481 425 351 425 351 425 C351 425 394 665 394 665 C394 665 394 665 394 665 C394 667 395 669 395 671 C395 671 403 714 403 714 C403 714 595 714 595 714 C706 714 692 688 686 636 C686 636 686 627 686 627 C686 627 706 627 706 627 L706 627 Z M289 69 C289 72 290 76 291 80 C291 80 289 69 289 69 L289 69 Z " />
<glyph glyph-name="F" unicode="F" horiz-adv-x="649" d="M688 634 C688 634 691 634 698 635 C698 635 708 635 708 635 C712 673 715 711 719 750 C719 750 599 750 599 750 C599 750 409 750 409 750 C409 750 241 750 241 750 C241 750 167 750 167 750 C166 740 164 738 164 730 C164 730 174 730 174 730 C216 730 237 725 226 665 C226 665 226 665 226 665 C226 665 123 82 123 82 C112 25 90 20 49 20 C49 20 39 20 39 20 C38 16 36 2 35 0 C35 0 109 0 109 0 C109 0 276 0 276 0 C276 0 350 0 350 0 C351 4 353 18 354 20 C354 20 343 20 343 20 C303 20 282 25 290 78 C290 78 337 345 337 345 C337 345 556 345 556 345 C557 336 557 326 556 315 C556 315 554 283 554 283 C554 283 566 283 566 283 C571 310 576 337 580 363 C580 363 584 385 584 385 C584 385 584 385 584 385 C588 406 591 426 595 447 C595 447 583 447 583 447 C583 447 574 415 574 415 C568 395 558 385 464 385 C464 385 344 385 344 385 C344 385 394 665 394 665 C394 665 394 665 394 665 C394 667 395 669 395 671 C395 671 404 722 404 722 C404 722 516 722 516 722 C691 722 694 696 688 634 C688 634 688 634 688 634 L688 634 Z " />
<glyph glyph-name="G" unicode="G" horiz-adv-x="856" d="M852 533 C857 564 863 594 868 625 C868 625 874 656 885 717 C885 717 870 717 870 717 C869 717 867 710 861 696 C858 689 838 694 800 718 C761 746 703 760 595 760 C309 760 142 631 97 375 C52 119 175 -10 464 -10 C503 -10 537 -9 567 -7 C567 -7 568 -7 568 -7 C568 -7 568 -7 568 -7 C568 -7 568 -7 568 -7 C568 -7 568 -7 568 -7 C568 -7 571 -6 571 -6 C674 2 739 23 818 57 C818 57 811 81 811 81 C789 71 767 63 743 56 C743 56 777 245 777 245 C787 301 804 305 836 305 C836 305 847 305 847 305 C847 305 850 325 851 325 C851 325 553 325 553 325 C553 325 550 305 549 305 C549 305 560 305 560 305 C600 305 619 301 609 245 C609 245 574 33 574 33 C574 33 574 33 574 33 C574 33 598 178 598 178 C581 80 543 31 486 31 C310 31 241 146 281 375 C321 603 430 718 605 718 C637 718 662 715 683 709 C683 709 682 709 682 709 C691 707 699 704 707 701 C751 681 776 645 811 593 C811 593 818 598 818 598 C827 582 832 564 835 548 C836 538 837 533 837 533 C837 533 852 533 852 533 L852 533 Z " />
<glyph glyph-name="H" unicode="H" horiz-adv-x="889" d="M970 750 C970 750 655 750 655 750 C654 740 652 738 652 730 C652 730 662 730 662 730 C704 730 725 726 715 670 C715 670 668 406 668 406 C668 406 384 406 384 406 C384 406 431 670 431 670 C440 726 462 730 504 730 C504 730 515 730 515 730 C516 740 518 742 518 750 C518 750 203 750 203 750 C202 740 200 738 200 730 C200 730 210 730 210 730 C252 730 273 726 263 670 C263 670 159 80 159 80 C149 24 127 20 85 20 C85 20 75 20 75 20 C74 16 72 2 71 0 C71 0 386 0 386 0 C387 4 389 18 390 20 C390 20 379 20 379 20 C337 20 316 24 327 80 C327 80 376 360 376 360 C376 360 660 360 660 360 C660 360 611 80 611 80 C601 24 579 20 537 20 C537 20 526 20 526 20 C526 18 526 8 523 0 C523 0 838 0 838 0 C839 4 841 18 842 20 C842 20 831 20 831 20 C789 20 768 24 778 80 C778 80 882 670 882 670 C892 726 914 730 956 730 C956 730 967 730 967 730 C968 740 970 742 970 750 L970 750 Z " />
<glyph glyph-name="I" unicode="I" horiz-adv-x="380" d="M461 750 C461 750 145 750 145 750 C145 750 142 730 142 730 C142 730 152 730 152 730 C194 730 215 726 205 670 C205 670 101 80 101 80 C91 24 69 20 27 20 C27 20 17 20 17 20 C16 16 14 2 13 0 C13 0 328 0 328 0 C329 4 331 18 332 20 C332 20 321 20 321 20 C279 20 258 24 269 80 C269 80 373 670 373 670 C382 726 404 730 446 730 C446 730 457 730 457 730 C457 730 460 750 461 750 L461 750 Z " />
<glyph glyph-name="J" unicode="J" horiz-adv-x="380" d="M461 750 C461 750 145 750 145 750 C145 750 142 730 142 730 C142 730 152 730 152 730 C194 730 215 726 205 670 C205 670 62 -136 62 -136 C58 -159 13 -161 -25 -161 C-119 -161 -39 -20 -133 -20 C-186 -20 -217 -47 -226 -99 C-240 -179 -190 -220 -77 -220 C59 -220 221 -192 287 180 C287 180 373 670 373 670 C382 726 404 730 446 730 C446 730 457 730 457 730 C457 730 460 750 461 750 L461 750 Z " />
<glyph glyph-name="K" unicode="K" horiz-adv-x="831" d="M814 20 C814 20 786 20 786 20 C765 20 742 43 723 74 C723 74 490 479 490 479 C490 479 655 640 655 640 C655 640 656 640 656 640 C659 644 663 647 666 650 C666 650 704 688 704 688 C747 727 766 730 791 730 C791 730 814 730 814 730 C815 730 818 750 818 750 C818 750 768 750 768 750 C768 750 701 750 701 750 C701 750 603 750 603 750 C603 750 599 730 599 730 C599 730 618 730 618 730 C660 730 674 722 567 610 C567 610 568 610 568 610 C568 610 343 375 343 375 C343 375 547 0 547 0 C547 0 765 0 765 0 C765 0 810 0 810 0 C811 4 813 18 814 20 C814 20 814 20 814 20 L814 20 Z M482 750 C482 750 409 750 409 750 C409 750 241 750 241 750 C241 750 167 750 167 750 C166 740 164 738 164 730 C164 730 174 730 174 730 C216 730 237 727 230 690 C230 690 230 690 230 690 C230 690 120 60 120 60 C120 60 119 60 119 60 C113 23 91 20 49 20 C49 20 39 20 39 20 C38 16 36 2 35 0 C35 0 109 0 109 0 C109 0 276 0 276 0 C276 0 350 0 350 0 C351 4 353 18 354 20 C354 20 343 20 343 20 C301 20 280 23 287 60 C287 60 287 60 287 60 C287 60 400 699 400 699 C408 728 430 730 468 730 C468 730 479 730 479 730 C480 740 482 742 482 750 L482 750 Z " />
<glyph glyph-name="L" unicode="L" horiz-adv-x="679" d="M47 0 C47 0 121 0 121 0 C121 0 288 0 288 0 C288 0 431 0 431 0 C431 0 616 0 616 0 C616 0 623 0 623 0 C623 0 629 29 629 29 C629 29 628 29 628 29 C645 67 661 105 679 142 C675 143 662 144 660 144 C660 144 655 134 655 134 C624 64 597 29 444 29 C444 29 374 29 374 29 C304 29 297 42 301 67 C301 67 288 0 288 0 C288 0 406 665 406 665 C406 665 406 665 406 665 C416 725 438 730 480 730 C480 730 491 730 491 730 C491 730 494 750 495 750 C495 750 421 750 421 750 C421 750 253 750 253 750 C253 750 179 750 179 750 C179 750 176 730 176 730 C176 730 186 730 186 730 C228 730 249 725 238 665 C238 665 238 665 238 665 C238 665 135 82 135 82 C124 25 102 20 61 20 C61 20 51 20 51 20 C50 16 48 2 47 0 C47 0 47 0 47 0 L47 0 Z M301 67 C301 71 302 75 303 80 C303 80 301 67 301 67 L301 67 Z " />
<glyph glyph-name="M" unicode="M" horiz-adv-x="961" d="M169 730 C169 730 193 730 193 730 C220 730 237 727 250 693 C250 693 137 150 137 150 C137 150 137 150 137 150 C112 29 89 20 45 20 C45 20 22 20 22 20 C22 18 22 8 19 0 C19 0 106 0 106 0 C106 0 165 0 165 0 C165 0 253 0 253 0 C253 0 256 20 256 20 C256 20 233 20 233 20 C193 20 172 26 184 104 C184 104 191 138 191 138 C191 139 191 139 191 140 C191 140 191 140 191 140 C191 140 276 597 276 597 C325 398 374 200 422 0 C422 0 464 0 464 0 C464 0 771 591 771 591 C771 591 693 85 693 85 C693 85 693 85 693 85 C684 25 662 20 619 20 C619 20 608 20 608 20 C607 16 605 2 604 0 C604 0 680 0 680 0 C680 0 848 0 848 0 C848 0 919 0 919 0 C919 0 922 20 922 20 C922 20 911 20 911 20 C873 20 853 24 858 73 C858 73 930 580 930 580 C930 580 930 580 930 580 C951 720 969 730 1001 730 C1001 730 1024 730 1024 730 C1024 730 1027 750 1028 750 C1028 750 954 750 954 750 C954 750 853 750 853 750 C853 750 795 750 795 750 C795 750 531 219 531 219 C531 219 439 750 439 750 C439 750 304 750 304 750 C304 750 262 750 262 750 C262 750 238 750 238 750 C238 750 173 750 173 750 C173 750 170 730 169 730 C169 730 169 730 169 730 L169 730 Z " />
<glyph glyph-name="N" unicode="N" horiz-adv-x="781" d="M93 730 C93 730 119 730 119 730 C132 730 140 728 161 695 C161 695 161 695 161 695 C161 695 225 597 225 597 C225 597 142 133 142 133 C121 28 98 20 57 20 C57 20 34 20 34 20 C33 16 31 2 30 0 C30 0 118 0 118 0 C118 0 168 0 168 0 C168 0 256 0 256 0 C257 4 259 18 260 20 C260 20 237 20 237 20 C193 20 172 28 192 140 C192 140 192 140 192 140 C192 140 259 543 259 543 C259 543 456 238 456 238 C456 238 610 0 610 0 C610 0 644 0 644 0 C644 0 765 630 765 630 C765 630 765 630 765 630 C765 631 765 632 765 632 C765 632 768 645 768 645 C784 724 812 730 860 730 C860 730 871 730 871 730 C871 730 874 750 874 750 C874 750 788 750 788 750 C788 750 738 750 738 750 C738 750 651 750 651 750 C651 750 648 730 647 730 C647 730 658 730 658 730 C705 730 730 724 721 651 C721 651 656 268 656 268 C656 268 606 341 606 341 C606 341 333 750 333 750 C333 750 294 750 294 750 C294 750 252 750 252 750 C252 750 126 750 126 750 C126 750 96 750 96 750 C96 750 93 730 93 730 L93 730 Z " />
<glyph glyph-name="O" unicode="O" horiz-adv-x="901" d="M454 35 C303 35 247 149 287 375 C327 601 421 715 567 715 C731 715 793 601 753 375 C713 149 613 35 454 35 L454 35 Z M95 375 C50 119 165 -10 437 -10 C730 -10 900 119 945 375 C990 631 869 760 583 760 C304 760 140 631 95 375 L95 375 Z " />
<glyph glyph-name="P" unicode="P" horiz-adv-x="681" d="M195 730 C195 730 205 730 205 730 C247 730 268 725 257 665 C257 665 257 665 257 665 C257 665 154 82 154 82 C143 25 121 20 80 20 C80 20 69 20 69 20 C69 18 69 8 66 0 C66 0 140 0 140 0 C140 0 307 0 307 0 C307 0 381 0 381 0 C382 4 384 18 385 20 C385 20 374 20 374 20 C334 20 313 25 321 78 C321 78 365 329 365 329 C365 329 415 329 415 329 C618 329 729 378 756 536 C781 678 709 750 540 750 C540 750 440 750 440 750 C440 750 272 750 272 750 C272 750 198 750 198 750 C197 740 195 738 195 730 C195 730 195 730 195 730 L195 730 Z M369 349 C369 349 425 665 425 665 C425 665 425 665 425 665 C425 667 426 669 426 671 C426 671 435 722 435 722 C454 722 473 721 492 721 C584 721 622 668 604 564 C577 412 519 365 422 365 C422 365 372 365 372 365 C372 365 369 349 369 349 L369 349 Z " />
<glyph glyph-name="Q" unicode="Q" horiz-adv-x="928" d="M1223 -35 C1223 -35 1213 -21 1213 -21 C1164 -57 1050 -75 871 -75 C722 -75 596 -53 496 -8 C753 9 903 137 945 375 C990 631 869 760 583 760 C304 760 140 631 95 375 C70 236 134 134 218 70 C449 -119 652 -215 821 -215 C924 -215 1059 -155 1223 -35 L1223 -35 Z M454 35 C430 35 400 46 373 69 C371 71 369 72 367 74 C367 74 367 74 367 74 C309 125 261 225 287 375 C327 601 421 715 567 715 C731 715 793 601 753 375 C713 149 613 35 454 35 C454 35 454 35 454 35 L454 35 Z " />
<glyph glyph-name="R" unicode="R" horiz-adv-x="851" d="M164 730 C164 730 174 730 174 730 C216 730 237 725 226 665 C226 665 124 85 124 85 C113 25 91 20 49 20 C49 20 39 20 39 20 C38 16 36 2 35 0 C35 0 350 0 350 0 C351 4 353 18 354 20 C354 20 343 20 343 20 C301 20 280 25 291 85 C291 85 337 344 337 344 C337 344 336 338 336 338 C336 338 378 338 378 338 C396 299 446 213 527 80 C579 -5 561 0 816 0 C816 0 822 34 822 34 C748 34 754 31 723 80 C641 214 585 305 556 352 C671 374 737 429 755 535 C780 678 681 750 458 750 C458 750 409 750 409 750 C409 750 403 716 403 716 C535 716 593 666 576 567 C551 424 493 380 393 380 C393 380 343 380 343 380 C343 380 394 665 394 665 C407 744 408 750 409 750 C409 750 167 750 167 750 C166 740 164 738 164 730 C164 730 164 730 164 730 L164 730 Z " />
<glyph glyph-name="S" unicode="S" horiz-adv-x="559" d="M584 563 C588 590 593 618 598 645 C598 645 613 726 613 726 C613 726 598 726 598 726 C597 726 594 719 589 706 C587 701 572 705 547 722 C514 747 468 760 408 760 C260 760 172 686 147 540 C124 414 156 333 273 288 C384 245 422 209 415 169 C400 86 355 44 280 44 C200 44 147 85 123 167 C123 167 116 164 116 164 C108 185 103 206 100 227 C100 227 85 227 85 227 C77 185 73 158 71 144 C71 144 70 144 70 144 C70 144 70 143 70 143 C69 138 69 135 69 135 C63 104 58 73 52 42 C52 42 67 42 67 42 C67 42 71 51 77 68 C79 73 99 64 135 35 C170 5 215 -10 271 -10 C435 -10 531 66 558 217 C578 333 539 410 404 462 C308 499 278 544 289 604 C302 680 339 718 400 718 C458 718 504 692 532 656 C538 646 543 635 546 623 C546 623 551 625 551 625 C559 610 564 594 566 578 C568 568 568 563 569 563 C569 563 584 563 584 563 L584 563 Z " />
<glyph glyph-name="T" unicode="T" horiz-adv-x="775" d="M858 636 C854 660 850 684 845 708 C845 708 845 708 845 708 C845 708 852 750 852 750 C852 750 837 750 837 750 C834 763 832 776 830 789 C830 789 826 789 820 790 C820 790 809 790 809 790 C816 759 818 750 717 750 C717 750 604 750 604 750 C604 750 436 750 436 750 C436 750 322 750 322 750 C229 750 228 760 239 781 C239 781 244 790 244 790 C244 790 234 790 234 790 C227 789 224 789 224 789 C217 776 210 763 203 750 C203 750 187 750 187 750 C187 750 180 708 180 708 C180 708 180 708 180 708 C167 684 154 660 141 636 C145 635 158 634 160 634 C160 634 166 645 166 645 C188 687 207 708 300 708 C300 708 429 708 429 708 C429 708 318 80 318 80 C308 24 286 20 244 20 C244 20 233 20 233 20 C233 18 233 8 230 0 C230 0 545 0 545 0 C546 4 548 18 549 20 C549 20 538 20 538 20 C496 20 475 24 485 80 C485 80 597 708 597 708 C597 708 725 708 725 708 C818 708 829 687 837 645 C837 645 839 634 839 634 C843 635 856 636 858 636 C858 636 858 636 858 636 L858 636 Z " />
<glyph glyph-name="U" unicode="U" horiz-adv-x="822" d="M614 730 C614 730 625 730 625 730 C667 730 687 725 677 665 C677 665 591 179 591 179 C591 179 597 213 597 213 C548 136 484 98 406 98 C308 98 266 139 280 220 C280 220 359 665 359 665 C372 744 373 750 374 750 C374 750 132 750 132 750 C131 740 129 738 129 730 C129 730 139 730 139 730 C181 730 202 725 191 665 C191 665 113 220 113 220 C86 67 155 -10 319 -10 C432 -10 521 39 584 137 C584 137 579 110 579 110 C579 110 559 0 559 0 C559 0 586 0 586 0 C586 0 810 55 810 55 C810 55 812 65 812 65 C743 61 738 63 747 110 C747 110 844 665 844 665 C858 744 859 750 859 750 C859 750 618 750 618 750 C618 750 615 730 614 730 L614 730 Z " />
<glyph glyph-name="V" unicode="V" horiz-adv-x="868" d="M473 750 C473 750 358 750 358 750 C358 750 165 750 165 750 C165 750 129 750 129 750 C129 750 125 730 125 730 C125 730 151 730 151 730 C164 730 172 727 183 690 C183 690 184 690 184 690 C184 690 327 226 327 226 C327 226 401 -10 401 -10 C401 -10 434 -10 434 -10 C434 -10 849 677 849 677 C882 726 900 730 924 730 C924 730 947 730 947 730 C948 730 951 750 951 750 C951 750 893 750 893 750 C893 750 826 750 826 750 C826 750 710 750 710 750 C710 750 707 730 706 730 C706 730 727 730 727 730 C785 730 810 722 747 610 C747 610 748 610 748 610 C748 610 533 226 533 226 C533 226 398 630 398 630 C372 723 398 730 450 730 C450 730 470 730 470 730 C471 740 473 742 473 750 C473 750 473 750 473 750 L473 750 Z " />
<glyph glyph-name="W" unicode="W" horiz-adv-x="1192" d="M1278 750 C1278 750 1217 750 1217 750 C1217 750 1148 750 1148 750 C1148 750 1032 750 1032 750 C1031 740 1029 738 1029 730 C1029 730 1050 730 1050 730 C1109 730 1136 722 1087 610 C1087 610 1087 610 1087 610 C1087 610 929 244 929 244 C929 244 797 646 797 646 C773 724 795 730 841 730 C841 730 862 730 862 730 C862 730 865 750 865 750 C865 750 763 750 763 750 C763 750 569 750 569 750 C569 750 512 750 512 750 C512 750 509 730 509 730 C509 730 533 730 533 730 C559 730 575 727 586 698 C608 632 630 566 652 500 C652 500 651 500 651 500 C651 500 518 211 518 211 C518 211 518 212 518 212 C518 212 411 610 411 610 C411 610 411 610 411 610 C410 613 409 617 408 620 C408 620 402 641 402 641 C382 724 405 730 451 730 C451 730 472 730 472 730 C472 730 475 750 475 750 C475 750 373 750 373 750 C373 750 189 750 189 750 C189 750 153 750 153 750 C152 750 149 730 149 730 C149 730 175 730 175 730 C187 730 196 723 226 626 C290 414 353 202 416 -10 C416 -10 460 -10 460 -10 C460 -10 675 429 675 429 C723 283 771 137 819 -10 C819 -10 863 -10 863 -10 C863 -10 1152 610 1152 610 C1152 610 1152 610 1152 610 C1153 612 1154 614 1155 616 C1155 616 1178 665 1178 665 C1208 725 1225 730 1250 730 C1250 730 1274 730 1274 730 C1275 730 1278 750 1278 750 C1278 750 1278 750 1278 750 L1278 750 Z " />
<glyph glyph-name="X" unicode="X" horiz-adv-x="850" d="M939 750 C939 750 896 750 896 750 C896 750 821 750 821 750 C821 750 726 750 726 750 C726 750 723 730 722 730 C722 730 741 730 741 730 C781 730 793 721 681 600 C681 600 681 600 681 600 C681 600 541 449 541 449 C541 449 454 619 454 619 C404 722 418 730 453 730 C453 730 472 730 472 730 C473 730 476 750 476 750 C476 750 388 750 388 750 C388 750 190 750 190 750 C190 750 151 750 151 750 C150 740 148 738 148 730 C148 730 173 730 173 730 C189 730 202 723 246 639 C246 639 401 334 401 334 C401 334 171 93 171 93 C103 26 81 20 51 20 C51 20 28 20 28 20 C27 16 25 2 24 0 C24 0 82 0 82 0 C82 0 149 0 149 0 C149 0 279 0 279 0 C280 4 282 18 283 20 C283 20 264 20 264 20 C207 20 178 26 232 94 C232 94 417 302 417 302 C417 302 499 140 499 140 C499 140 499 140 499 140 C555 28 541 20 504 20 C504 20 485 20 485 20 C485 20 485 17 483 10 C483 3 482 0 482 0 C482 0 570 0 570 0 C570 0 769 0 769 0 C769 0 815 0 815 0 C816 4 818 18 819 20 C819 20 794 20 794 20 C771 20 754 28 698 140 C698 140 698 140 698 140 C698 140 557 418 557 418 C557 418 852 707 852 707 C879 727 894 730 911 730 C911 730 935 730 935 730 C936 730 939 750 939 750 C939 750 939 750 939 750 L939 750 Z " />
<glyph glyph-name="Y" unicode="Y" horiz-adv-x="919" d="M496 750 C496 750 422 750 422 750 C422 750 224 750 224 750 C224 750 193 750 193 750 C192 750 189 730 189 730 C189 730 215 730 215 730 C226 730 236 724 274 654 C274 654 453 309 453 309 C453 309 412 80 412 80 C402 24 380 20 339 20 C339 20 328 20 328 20 C327 16 325 2 324 0 C324 0 640 0 640 0 C640 0 643 20 643 20 C643 20 633 20 633 20 C591 20 570 24 580 80 C580 80 622 315 622 315 C622 315 836 610 836 610 C836 610 836 610 836 610 C917 722 935 730 958 730 C958 730 982 730 982 730 C983 730 986 750 986 750 C986 750 937 750 937 750 C937 750 853 750 853 750 C853 750 780 750 780 750 C779 750 776 730 776 730 C776 730 797 730 797 730 C819 730 833 727 821 700 C821 700 612 368 612 368 C612 368 492 610 492 610 C492 610 492 610 492 610 C434 722 444 730 473 730 C473 730 493 730 493 730 C493 730 496 750 496 750 L496 750 Z " />
<glyph glyph-name="Z" unicode="Z" horiz-adv-x="653" d="M664 157 C664 157 645 126 645 126 C618 82 596 56 522 50 C522 50 249 41 249 41 C249 41 747 715 747 715 C747 715 753 750 753 750 C753 750 589 750 589 750 C589 750 383 750 383 750 C383 750 213 750 213 750 C197 696 178 642 162 588 C167 587 185 586 187 586 C187 586 196 607 196 607 C223 672 245 705 369 705 C369 705 369 705 369 705 C369 705 558 710 558 710 C558 710 42 35 42 35 C42 35 36 0 36 0 C36 0 218 0 218 0 C218 0 457 0 457 0 C457 0 617 0 617 0 C628 26 639 52 650 77 C650 77 683 155 683 155 C679 156 666 157 664 157 C664 157 664 157 664 157 L664 157 Z " />
<glyph glyph-name="bracketleft" unicode="&#x5b;" horiz-adv-x="311" d="M125 -151 C125 -151 117 -195 117 -195 C117 -195 327 -195 327 -195 C327 -195 335 -151 335 -151 C335 -151 125 -151 125 -151 L125 -151 Z M276 706 C276 706 486 706 486 706 C486 706 494 750 494 750 C494 750 284 750 284 750 C284 750 231 750 231 750 C231 750 64 -195 64 -195 C64 -195 117 -195 117 -195 C117 -195 276 706 276 706 L276 706 Z " />
<glyph glyph-name="backslash" unicode="&#x5c;" horiz-adv-x="366" d="M144 770 C144 770 254 -80 254 -80 C254 -80 342 -80 342 -80 C342 -80 232 770 232 770 C232 770 144 770 144 770 L144 770 Z " />
<glyph glyph-name="bracketright" unicode="&#x5d;" horiz-adv-x="314" d="M125 -151 C125 -151 -85 -151 -85 -151 C-85 -151 -93 -195 -93 -195 C-93 -195 117 -195 117 -195 C117 -195 170 -195 170 -195 C170 -195 337 750 337 750 C337 750 284 750 284 750 C284 750 74 750 74 750 C74 750 66 706 66 706 C66 706 276 706 276 706 C276 706 284 750 284 750 C284 750 125 -151 125 -151 L125 -151 Z " />
<glyph glyph-name="underscore" unicode="&#x5f;" horiz-adv-x="455" d="M-4 -50 C-4 -50 -19 -133 -19 -133 C-19 -133 426 -133 426 -133 C426 -133 441 -50 441 -50 C441 -50 -4 -50 -4 -50 L-4 -50 Z " />
<glyph glyph-name="a" unicode="a" horiz-adv-x="515" d="M551 147 C551 147 532 158 532 158 C519 121 497 102 467 102 C434 102 420 115 424 140 C424 140 461 349 461 349 C483 472 440 510 342 510 C206 510 122 420 112 360 C102 307 126 280 182 280 C224 280 250 311 255 337 C259 362 241 372 247 406 C250 423 268 449 296 449 C318 449 327 438 322 404 C322 404 300 281 300 281 C90 220 65 211 46 101 C33 27 63 -10 136 -10 C174 -10 210 8 272 76 C280 22 318 -5 387 -5 C460 -5 515 46 551 147 L551 147 Z M293 245 C293 245 274 140 274 140 C272 128 271 117 270 106 C245 78 235 70 230 70 C204 70 194 86 200 117 C217 217 227 226 293 245 L293 245 Z " />
<glyph glyph-name="b" unicode="b" horiz-adv-x="660" d="M139 677 C139 677 150 681 150 681 C183 690 199 689 189 623 C153 415 116 207 79 0 C79 0 88 0 88 0 C88 0 165 65 165 65 C165 65 165 65 165 65 C174 15 229 -10 327 -10 C517 -10 629 79 660 254 C689 421 623 505 462 505 C397 505 347 492 311 464 C311 464 344 650 344 650 C360 743 361 750 361 750 C361 750 335 750 335 750 C335 750 142 697 142 697 C142 697 139 677 139 677 L139 677 Z M303 419 C326 435 355 443 390 443 C480 443 513 374 489 237 C464 95 415 24 342 24 C281 24 247 39 242 70 C242 70 264 195 264 195 C264 195 303 419 303 419 L303 419 Z " />
<glyph glyph-name="c" unicode="c" horiz-adv-x="556" d="M549 128 C549 128 530 137 530 137 C507 101 463 82 397 82 C267 82 213 148 236 279 C259 410 321 476 421 476 C436 476 448 452 457 405 C466 355 487 330 519 330 C587 330 616 355 607 405 C594 475 536 510 436 510 C221 510 97 417 64 234 C36 72 124 -10 328 -10 C418 -10 492 36 549 128 L549 128 Z " />
<glyph glyph-name="d" unicode="d" horiz-adv-x="573" d="M583 56 C583 56 572 53 572 53 C541 46 525 47 533 113 C533 113 630 665 630 665 C644 744 645 750 645 750 C645 750 619 750 619 750 C619 750 426 697 426 697 C426 697 423 677 423 677 C423 677 434 681 434 681 C466 689 483 690 476 641 C476 641 450 496 450 496 C419 505 379 510 330 510 C177 510 104 422 73 247 C44 79 93 -5 219 -5 C281 -5 333 15 373 55 C362 -5 361 -10 361 -10 C361 -10 388 -10 388 -10 C388 -10 579 36 579 36 C580 40 583 54 583 56 C583 56 583 56 583 56 L583 56 Z M383 109 C351 74 320 57 292 57 C226 57 207 134 234 288 C255 406 285 466 340 466 C383 466 416 440 434 401 C434 401 383 110 383 110 C383 110 383 109 383 109 C383 109 383 109 383 109 L383 109 Z " />
<glyph glyph-name="e" unicode="e" horiz-adv-x="535" d="M244 340 C244 340 400 340 400 340 C400 340 566 340 566 340 C566 476 503 510 379 510 C202 510 96 414 63 225 C35 69 102 -10 263 -10 C380 -10 465 37 515 130 C515 130 498 137 498 137 C481 105 420 89 317 89 C238 89 209 155 232 286 C236 305 240 323 244 340 L244 340 Z M495 383 C506 384 519 384 532 384 C532 384 495 383 495 383 L495 383 Z M399 380 C399 380 256 375 256 375 C281 442 317 476 364 476 C385 476 397 455 399 380 C399 380 399 380 399 380 L399 380 Z " />
<glyph glyph-name="f" unicode="f" horiz-adv-x="397" d="M24 0 C24 0 294 0 294 0 C294 2 297 12 297 20 C297 20 287 20 287 20 C254 20 238 21 240 35 C240 35 308 421 308 421 C308 421 461 421 461 421 C461 421 475 500 475 500 C475 500 322 500 322 500 C347 639 381 709 441 709 C513 709 511 635 571 635 C601 635 619 650 624 680 C633 730 592 755 502 755 C294 755 202 669 172 500 C172 500 84 438 84 438 C84 438 81 421 81 421 C81 421 158 421 158 421 C158 421 90 35 90 35 C88 21 71 20 39 20 C39 20 28 20 28 20 C27 16 25 2 24 0 L24 0 Z " />
<glyph glyph-name="g" unicode="g" horiz-adv-x="552" d="M270 350 C285 433 305 475 330 475 C356 475 361 433 347 350 C332 266 311 223 286 223 C261 223 256 266 270 350 L270 350 Z M154 -33 C156 -33 158 -33 160 -33 C160 -33 276 -33 276 -33 C339 -32 352 -49 346 -83 C333 -158 295 -196 233 -196 C159 -196 129 -151 145 -63 C147 -51 150 -41 154 -33 L154 -33 Z M104 -22 C51 -38 21 -64 15 -99 C-1 -186 67 -230 218 -230 C368 -230 455 -169 477 -48 C496 61 467 116 318 117 C318 117 195 117 195 117 C167 117 155 126 159 145 C164 173 204 188 280 188 C405 188 478 242 497 350 C501 371 501 390 499 407 C515 425 529 433 542 433 C534 433 530 429 528 422 C522 387 543 369 589 369 C630 369 654 393 663 440 C669 477 653 495 615 495 C566 495 524 476 491 439 C471 486 420 510 337 510 C212 510 139 456 120 350 C108 280 127 232 175 208 C110 191 73 155 63 100 C51 37 65 -4 104 -22 L104 -22 Z " />
<glyph glyph-name="h" unicode="h" horiz-adv-x="704" d="M140 677 C140 677 151 681 151 681 C184 690 200 689 190 623 C190 623 86 35 86 35 C84 21 67 20 35 20 C35 20 24 20 24 20 C23 16 21 2 20 0 C20 0 290 0 290 0 C290 2 293 12 293 20 C293 20 283 20 283 20 C250 20 234 21 236 35 C236 35 293 357 293 357 C316 388 366 404 440 404 C502 404 517 357 500 265 C500 265 460 35 460 35 C458 21 441 20 408 20 C408 20 397 20 397 20 C399 20 394 0 394 0 C394 0 663 0 663 0 C664 4 666 18 667 20 C667 20 656 20 656 20 C624 20 608 21 610 35 C610 35 650 265 650 265 C679 428 654 510 544 510 C437 510 355 473 301 401 C301 401 296 372 296 372 C296 372 345 650 345 650 C361 743 362 750 362 750 C362 750 336 750 336 750 C336 750 143 697 143 697 C143 697 140 677 140 677 L140 677 Z " />
<glyph glyph-name="i" unicode="i" horiz-adv-x="329" d="M273 615 C326 615 357 642 367 695 C376 748 354 775 301 775 C248 775 216 748 207 695 C197 642 219 615 273 615 L273 615 Z M36 0 C36 0 292 0 292 0 C292 2 295 12 295 20 C295 20 285 20 285 20 C257 20 243 21 245 35 C245 35 310 400 310 400 C326 493 327 500 327 500 C327 500 301 500 301 500 C301 500 108 447 108 447 C108 447 107 444 107 437 C105 431 105 427 105 427 C105 427 116 431 116 431 C150 440 166 439 153 365 C153 365 154 365 154 365 C154 365 95 35 95 35 C93 21 78 20 51 20 C51 20 40 20 40 20 C39 16 37 2 36 0 L36 0 Z " />
<glyph glyph-name="j" unicode="j" horiz-adv-x="319" d="M263 615 C316 615 347 642 357 695 C366 748 344 775 291 775 C238 775 206 748 197 695 C187 642 209 615 263 615 L263 615 Z M144 365 C144 365 95 88 95 88 C76 -19 42 -86 -5 -110 C-35 -110 -63 -100 -93 -100 C-123 -100 -141 -113 -146 -140 C-151 -173 -134 -188 -93 -185 C-86 -184 -48 -166 21 -130 C157 -59 232 14 245 88 C245 88 300 400 300 400 C316 493 317 500 317 500 C317 500 291 500 291 500 C291 500 98 447 98 447 C98 447 97 444 97 437 C95 431 95 427 95 427 C95 427 106 431 106 431 C140 440 156 439 143 365 C143 365 144 365 144 365 L144 365 Z " />
<glyph glyph-name="k" unicode="k" horiz-adv-x="737" d="M748 500 C748 500 734 500 734 500 C734 500 670 500 670 500 C670 500 540 500 540 500 C540 500 537 480 536 480 C536 480 553 480 553 480 C608 480 617 470 375 330 C375 330 378 331 378 331 C378 331 289 280 289 280 C289 280 471 35 471 35 C481 21 474 20 458 20 C458 20 441 20 441 20 C440 16 438 2 437 0 C437 0 497 0 497 0 C497 0 691 0 691 0 C691 0 712 0 712 0 C712 2 715 12 715 20 C715 20 688 20 688 20 C680 20 676 21 666 35 C666 35 666 35 666 35 C666 35 448 336 448 336 C448 336 682 470 682 470 C699 479 707 480 718 480 C718 480 745 480 745 480 C745 480 748 500 748 500 L748 500 Z M149 677 C149 677 160 681 160 681 C193 690 209 689 199 623 C199 623 95 35 95 35 C93 21 78 20 51 20 C51 20 40 20 40 20 C39 16 37 2 36 0 C36 0 292 0 292 0 C292 2 295 12 295 20 C295 20 285 20 285 20 C257 20 243 21 245 35 C245 35 354 650 354 650 C370 743 371 750 371 750 C371 750 345 750 345 750 C345 750 152 697 152 697 C152 697 149 677 149 677 L149 677 Z " />
<glyph glyph-name="l" unicode="l" horiz-adv-x="319" d="M139 677 C139 677 150 681 150 681 C183 690 199 689 189 623 C189 623 85 35 85 35 C83 21 67 20 37 20 C37 20 26 20 26 20 C28 20 23 0 23 0 C23 0 285 0 285 0 C286 4 288 18 289 20 C289 20 278 20 278 20 C248 20 233 21 235 35 C235 35 344 650 344 650 C360 743 361 750 361 750 C361 750 335 750 335 750 C335 750 142 697 142 697 C142 697 139 677 139 677 L139 677 Z " />
<glyph glyph-name="m" unicode="m" horiz-adv-x="956" d="M663 0 C663 0 926 0 926 0 C926 2 929 12 929 20 C929 20 919 20 919 20 C886 20 870 22 876 55 C876 55 876 55 876 55 C876 55 913 265 913 265 C941 428 927 510 811 510 C728 510 660 475 607 406 C607 406 604 387 604 387 C603 469 572 510 490 510 C412 510 347 475 295 406 C310 493 311 500 311 500 C311 500 285 500 285 500 C285 500 90 433 90 433 C89 429 86 415 86 413 C86 413 98 417 98 417 C132 429 149 429 136 358 C136 358 81 47 81 47 C74 22 57 20 28 20 C28 20 17 20 17 20 C16 16 14 2 13 0 C13 0 272 0 272 0 C273 4 275 18 276 20 C276 20 265 20 265 20 C240 20 227 22 233 55 C233 55 233 55 233 55 C233 55 287 362 287 362 C305 387 346 399 409 399 C454 399 457 354 441 265 C441 265 404 55 404 55 C404 55 404 55 404 55 C399 22 384 20 356 20 C356 20 346 20 346 20 C345 16 343 2 342 0 C342 0 590 0 590 0 C591 4 593 18 594 20 C594 20 583 20 583 20 C562 20 551 22 553 47 C553 47 591 265 591 265 C598 303 602 337 604 366 C623 388 666 399 730 399 C775 399 778 354 763 265 C763 265 724 46 724 46 C717 22 702 20 678 20 C678 20 667 20 667 20 C666 16 664 2 663 0 L663 0 Z " />
<glyph glyph-name="n" unicode="n" horiz-adv-x="635" d="M86 413 C86 413 98 417 98 417 C132 429 149 429 136 358 C136 358 79 35 79 35 C77 21 61 20 31 20 C31 20 20 20 20 20 C22 20 17 0 17 0 C17 0 279 0 279 0 C280 4 282 18 283 20 C283 20 272 20 272 20 C242 20 227 21 229 35 C229 35 286 358 286 358 C308 386 340 400 382 400 C443 400 457 355 441 265 C441 265 401 35 401 35 C399 21 383 20 353 20 C353 20 342 20 342 20 C341 16 339 2 338 0 C338 0 601 0 601 0 C601 2 604 12 604 20 C604 20 594 20 594 20 C564 20 549 21 551 35 C551 35 591 265 591 265 C620 428 596 510 490 510 C414 510 348 473 294 401 C310 493 311 500 311 500 C311 500 285 500 285 500 C285 500 90 433 90 433 C89 429 86 415 86 413 C86 413 86 413 86 413 L86 413 Z " />
<glyph glyph-name="o" unicode="o" horiz-adv-x="609" d="M300 35 C230 35 207 107 232 250 C257 393 305 465 375 465 C445 465 467 393 442 250 C417 107 369 35 300 35 L300 35 Z M67 250 C36 77 112 -10 292 -10 C471 -10 578 77 608 250 C639 423 563 510 383 510 C204 510 97 423 67 250 L67 250 Z " />
<glyph glyph-name="p" unicode="p" horiz-adv-x="659" d="M87 413 C87 413 99 417 99 417 C133 429 150 429 137 355 C137 355 137 355 137 355 C137 355 48 -150 48 -150 C48 -150 48 -150 48 -150 C39 -197 22 -200 -10 -200 C-10 -200 -21 -200 -21 -200 C-21 -200 -26 -220 -24 -220 C-24 -220 245 -220 245 -220 C246 -216 248 -202 249 -200 C249 -200 238 -200 238 -200 C208 -200 192 -197 196 -161 C196 -161 228 20 228 20 C263 4 313 -5 379 -5 C535 -5 632 102 660 262 C689 427 625 510 470 510 C401 510 345 490 304 450 C311 496 312 500 312 500 C312 500 286 500 286 500 C286 500 91 433 91 433 C90 429 87 415 87 413 C87 413 87 413 87 413 L87 413 Z M240 90 C240 90 293 390 293 390 C327 428 360 447 390 447 C482 447 515 369 488 215 C468 105 427 31 371 31 C307 31 264 51 240 90 C240 90 240 90 240 90 L240 90 Z " />
<glyph glyph-name="q" unicode="q" horiz-adv-x="606" d="M246 -220 C246 -220 516 -220 516 -220 C514 -220 519 -200 519 -200 C519 -200 509 -200 509 -200 C476 -200 460 -199 462 -185 C462 -185 563 390 563 390 C570 427 576 463 583 500 C583 500 574 500 574 500 C574 500 514 440 514 440 C497 487 446 510 363 510 C183 510 101 422 71 247 C41 79 91 -5 221 -5 C268 -5 313 14 354 52 C354 52 312 -185 312 -185 C310 -199 293 -200 260 -200 C260 -200 250 -200 250 -200 C249 -204 247 -218 246 -220 L246 -220 Z M413 390 C413 390 363 104 363 104 C333 73 309 57 294 57 C226 57 206 135 233 288 C255 413 288 476 348 476 C371 476 393 447 413 390 C413 390 413 390 413 390 L413 390 Z " />
<glyph glyph-name="r" unicode="r" horiz-adv-x="536" d="M92 413 C92 413 104 417 104 417 C138 429 155 429 142 358 C142 358 85 35 85 35 C83 21 68 20 41 20 C41 20 30 20 30 20 C29 16 27 2 26 0 C26 0 289 0 289 0 C289 2 292 12 292 20 C292 20 282 20 282 20 C249 20 233 21 235 35 C235 35 290 344 290 344 C323 408 354 440 382 440 C412 440 426 428 421 405 C411 347 436 317 494 317 C553 317 588 347 598 405 C611 475 566 510 464 510 C394 510 339 480 304 421 C316 494 317 500 317 500 C317 500 291 500 291 500 C291 500 96 433 96 433 C95 429 92 415 92 413 C92 413 92 413 92 413 L92 413 Z " />
<glyph glyph-name="s" unicode="s" horiz-adv-x="448" d="M421 363 C421 363 441 363 441 363 C445 388 450 412 454 436 C454 436 458 460 467 509 C467 509 447 509 447 509 C445 502 444 495 443 488 C442 483 426 485 395 497 C376 505 352 510 324 510 C207 510 139 461 122 363 C106 271 128 216 211 193 C284 172 307 144 300 104 C291 52 262 25 214 25 C172 25 143 54 126 110 C126 110 112 104 112 104 C110 117 110 130 112 144 C113 148 114 152 114 156 C114 156 94 156 94 156 C87 115 84 94 84 94 C84 93 84 92 83 91 C83 91 83 91 83 91 C83 91 83 90 83 90 C80 71 76 52 73 32 C73 32 93 32 93 32 C93 37 94 42 95 47 C93 34 113 14 158 -1 C172 -7 189 -10 208 -10 C333 -10 406 43 424 147 C438 226 405 277 297 307 C243 322 228 357 238 415 C245 455 272 475 318 475 C366 475 396 453 409 409 C409 409 421 414 421 414 C426 399 425 381 421 363 C421 363 421 363 421 363 L421 363 Z " />
<glyph glyph-name="t" unicode="t" horiz-adv-x="450" d="M484 500 C484 500 333 500 333 500 C333 500 354 620 354 620 C354 620 344 620 344 620 C344 620 106 431 106 431 C106 431 104 421 104 421 C104 421 169 421 169 421 C169 421 133 217 133 217 C101 36 151 -10 266 -10 C381 -10 449 45 468 154 C468 154 448 154 448 154 C437 92 396 61 325 61 C275 61 255 86 274 184 C289 263 304 342 319 421 C319 421 470 421 470 421 C470 421 484 500 484 500 L484 500 Z " />
<glyph glyph-name="u" unicode="u" horiz-adv-x="622" d="M606 56 C606 56 595 53 595 53 C564 46 548 46 555 102 C555 102 619 465 619 465 C625 498 625 500 625 500 C625 500 428 500 428 500 C428 500 425 480 425 480 C425 480 435 480 435 480 C459 480 471 479 469 465 C469 465 415 159 415 159 C388 116 351 94 305 94 C256 94 236 116 243 160 C243 160 297 465 297 465 C303 498 303 500 303 500 C303 500 107 500 107 500 C107 500 103 480 103 480 C103 480 114 480 114 480 C138 480 149 479 147 465 C147 465 93 160 93 160 C73 47 115 -10 217 -10 C295 -10 359 33 408 116 C408 116 403 90 403 90 C386 -3 385 -10 385 -10 C385 -10 411 -10 411 -10 C411 -10 603 36 603 36 C601 36 606 56 606 56 C606 56 606 56 606 56 L606 56 Z " />
<glyph glyph-name="v" unicode="v" horiz-adv-x="632" d="M677 500 C677 500 626 500 626 500 C626 500 557 500 557 500 C557 500 490 500 490 500 C490 500 487 480 486 480 C486 480 508 480 508 480 C532 480 544 478 535 457 C535 457 289 -10 289 -10 C289 -10 334 -10 334 -10 C334 -10 600 455 600 455 C616 478 629 480 649 480 C649 480 674 480 674 480 C675 490 677 492 677 500 L677 500 Z M351 500 C351 500 298 500 298 500 C298 500 134 500 134 500 C134 500 94 500 94 500 C93 490 91 488 91 480 C91 480 116 480 116 480 C132 480 140 478 148 453 C148 453 148 453 148 453 C148 453 289 -10 289 -10 C289 -10 394 190 394 190 C394 190 310 461 310 461 C307 478 314 480 327 480 C327 480 347 480 347 480 C347 480 350 500 351 500 C351 500 351 500 351 500 L351 500 Z " />
<glyph glyph-name="w" unicode="w" horiz-adv-x="960" d="M1013 500 C1013 500 962 500 962 500 C962 500 891 500 891 500 C891 500 824 500 824 500 C824 500 821 480 821 480 C821 480 842 480 842 480 C867 480 879 478 865 453 C865 453 865 453 865 453 C865 453 610 -10 610 -10 C610 -10 654 -10 654 -10 C654 -10 933 452 933 452 C951 478 964 480 985 480 C985 480 1009 480 1009 480 C1009 480 1013 500 1013 500 C1013 500 1013 500 1013 500 L1013 500 Z M660 500 C660 500 613 500 613 500 C613 500 446 500 446 500 C446 500 409 500 409 500 C409 500 406 480 406 480 C406 480 432 480 432 480 C446 480 453 479 458 460 C458 460 459 460 459 460 C459 460 494 350 494 350 C494 350 494 350 494 350 C494 350 399 186 399 186 C399 186 289 466 289 466 C286 479 290 480 299 480 C299 480 319 480 319 480 C319 480 322 500 322 500 C322 500 276 500 276 500 C276 500 108 500 108 500 C108 500 72 500 72 500 C71 490 69 488 69 480 C69 480 95 480 95 480 C107 480 114 479 121 463 C121 463 285 -10 285 -10 C285 -10 329 -10 329 -10 C329 -10 514 289 514 289 C514 289 610 -10 610 -10 C610 -10 719 188 719 188 C719 188 627 460 627 460 C627 460 627 460 627 460 C621 479 626 480 636 480 C636 480 656 480 656 480 C657 484 659 498 660 500 C660 500 660 500 660 500 L660 500 Z " />
<glyph glyph-name="x" unicode="x" horiz-adv-x="655" d="M17 0 C17 0 54 0 54 0 C54 0 123 0 123 0 C123 0 193 0 193 0 C194 4 196 18 197 20 C197 20 177 20 177 20 C156 20 144 22 155 39 C155 39 174 62 174 62 C175 63 175 63 176 64 C176 64 176 64 176 64 C176 64 286 197 286 197 C286 197 356 53 356 53 C370 22 362 20 348 20 C348 20 329 20 329 20 C329 18 329 8 326 0 C326 0 382 0 382 0 C382 0 566 0 566 0 C566 0 598 0 598 0 C598 2 601 12 601 20 C601 20 575 20 575 20 C564 20 557 22 545 44 C545 44 430 277 430 277 C430 277 578 436 578 436 C578 436 579 436 579 436 C582 439 584 442 586 444 C586 444 599 458 599 458 C619 478 631 480 647 480 C647 480 672 480 672 480 C672 480 675 500 676 500 C676 500 638 500 638 500 C638 500 569 500 569 500 C569 500 506 500 506 500 C505 490 503 488 503 480 C503 480 522 480 522 480 C539 480 547 478 530 453 C530 453 412 313 412 313 C412 313 352 436 352 436 C352 436 353 436 353 436 C333 477 340 480 355 480 C355 480 374 480 374 480 C375 484 377 498 378 500 C378 500 321 500 321 500 C321 500 138 500 138 500 C138 500 113 500 113 500 C112 500 109 480 109 480 C109 480 137 480 137 480 C143 480 148 478 159 456 C159 456 270 229 270 229 C270 229 114 64 114 64 C114 64 114 64 114 64 C75 23 63 20 45 20 C45 20 20 20 20 20 C19 10 17 8 17 0 C17 0 17 0 17 0 L17 0 Z " />
<glyph glyph-name="y" unicode="y" horiz-adv-x="628" d="M689 500 C689 500 638 500 638 500 C638 500 569 500 569 500 C569 500 502 500 502 500 C502 500 499 480 498 480 C498 480 520 480 520 480 C545 480 557 478 542 450 C542 450 542 450 542 450 C542 450 402 189 402 189 C402 189 307 453 307 453 C307 453 307 453 307 453 C298 478 305 480 319 480 C319 480 339 480 339 480 C339 480 342 500 343 500 C343 500 290 500 290 500 C290 500 126 500 126 500 C126 500 87 500 87 500 C87 500 83 480 83 480 C83 480 109 480 109 480 C125 480 133 478 141 453 C141 453 142 453 142 453 C142 453 295 -10 295 -10 C295 -10 225 -140 225 -140 C216 -157 205 -165 191 -165 C151 -165 154 -112 115 -112 C58 -112 25 -137 16 -187 C5 -248 29 -279 88 -279 C157 -279 210 -246 246 -181 C246 -181 339 -10 339 -10 C339 -10 611 455 611 455 C628 478 641 480 661 480 C661 480 686 480 686 480 C686 480 689 500 689 500 L689 500 Z " />
<glyph glyph-name="z" unicode="z" horiz-adv-x="475" d="M127 384 C127 384 139 384 139 384 C139 384 151 395 151 395 C190 426 216 445 264 452 C264 452 339 456 339 456 C339 456 46 35 46 35 C46 35 40 0 40 0 C40 0 198 0 198 0 C198 0 282 0 282 0 C282 0 430 0 430 0 C442 39 455 78 467 116 C467 116 457 116 457 116 C457 116 443 105 443 105 C404 74 376 55 327 48 C327 48 228 43 228 43 C228 43 517 465 517 465 C517 465 523 500 523 500 C523 500 370 500 370 500 C370 500 223 500 223 500 C212 500 201 506 207 519 C207 519 211 528 211 528 C211 528 191 528 191 528 C169 480 147 432 127 384 L127 384 Z " />
<glyph glyph-name="bar" unicode="&#x7c;" horiz-adv-x="236" d="M201 800 C201 800 16 -250 16 -250 C16 -250 133 -250 133 -250 C133 -250 318 800 318 800 C318 800 201 800 201 800 L201 800 Z " />
<glyph glyph-name="exclamdown" unicode="&#xa1;" horiz-adv-x="323" d="M251 505 C198 505 166 478 157 425 C147 372 169 345 223 345 C276 345 307 372 317 425 C326 478 304 505 251 505 L251 505 Z M117 -255 C220 -255 236 -207 234 -112 C234 -112 227 290 227 290 C227 290 199 290 199 290 C199 290 50 -112 50 -112 C15 -207 14 -255 117 -255 L117 -255 Z " />
<glyph glyph-name="cent" unicode="&#xa2;" horiz-adv-x="556" d="M411 575 C411 575 399 509 399 509 C207 499 95 406 64 234 C37 77 118 -5 308 -10 C308 -10 297 -75 297 -75 C297 -75 339 -75 339 -75 C339 -75 351 -9 351 -9 C430 -2 497 44 549 128 C549 128 530 137 530 137 C507 101 463 82 397 82 C387 82 377 82 367 83 C367 83 435 468 435 468 C444 457 451 436 457 405 C466 355 487 330 519 330 C587 330 616 355 607 405 C594 473 539 508 442 510 C442 510 454 575 454 575 C454 575 411 575 411 575 L411 575 Z M326 90 C248 112 218 175 236 279 C257 397 309 463 393 474 C393 474 326 90 326 90 L326 90 Z " />
<glyph glyph-name="questiondown" unicode="&#xbf;" horiz-adv-x="289" d="M254 505 C201 505 169 478 160 425 C150 372 173 345 226 345 C279 345 310 372 320 425 C329 478 307 505 254 505 L254 505 Z M199 225 C199 225 190 140 190 140 C70 140 50 117 10 71 C-16 41 -35 -3 -45 -59 C-68 -193 -20 -260 99 -260 C193 -260 247 -223 260 -149 C268 -100 246 -75 192 -75 C152 -75 113 -101 72 -101 C19 -101 -4 -81 3 -41 C4 -34 13 -21 31 0 C66 40 84 60 203 60 C203 60 226 225 226 225 C226 225 199 225 199 225 L199 225 Z " />
<glyph glyph-name="Agrave" unicode="&#xc0;" horiz-adv-x="809" d="M463 0 C463 0 558 0 558 0 C558 0 734 0 734 0 C734 0 794 0 794 0 C794 2 797 12 797 20 C797 20 773 20 773 20 C747 20 731 27 715 111 C715 111 615 697 615 697 C615 697 602 770 602 770 C602 770 587 770 587 770 C552 729 505 705 447 697 C447 697 449 686 449 686 C449 686 186 170 186 170 C186 170 186 170 186 170 C118 30 87 20 37 20 C37 20 15 20 15 20 C14 16 12 2 11 0 C11 0 100 0 100 0 C100 0 150 0 150 0 C150 0 266 0 266 0 C266 2 269 12 269 20 C269 20 249 20 249 20 C192 20 166 29 223 151 C223 151 278 265 278 265 C278 265 516 265 516 265 C516 265 539 118 539 118 C551 27 530 20 488 20 C488 20 467 20 467 20 C466 16 464 2 463 0 C463 0 463 0 463 0 L463 0 Z M505 993 C488 1034 477 1054 468 1054 C423 1054 388 1024 380 980 C378 969 393 952 424 925 C424 925 551 810 551 810 C551 810 573 829 573 829 C573 829 505 993 505 993 L505 993 Z M299 309 C299 309 457 635 457 635 C457 635 509 309 509 309 C509 309 299 309 299 309 L299 309 Z " />
<glyph glyph-name="Aacute" unicode="&#xc1;" horiz-adv-x="809" d="M561 810 C561 810 728 925 728 925 C769 954 790 970 792 980 C800 1024 775 1054 730 1054 C722 1054 704 1034 672 993 C672 993 545 829 545 829 C545 829 561 810 561 810 L561 810 Z M463 0 C463 0 558 0 558 0 C558 0 734 0 734 0 C734 0 794 0 794 0 C794 2 797 12 797 20 C797 20 773 20 773 20 C747 20 731 27 715 111 C715 111 615 697 615 697 C615 697 602 770 602 770 C602 770 587 770 587 770 C552 729 505 705 447 697 C447 697 449 686 449 686 C449 686 186 170 186 170 C186 170 186 170 186 170 C118 30 87 20 37 20 C37 20 15 20 15 20 C14 16 12 2 11 0 C11 0 100 0 100 0 C100 0 150 0 150 0 C150 0 266 0 266 0 C266 2 269 12 269 20 C269 20 249 20 249 20 C192 20 166 29 223 151 C223 151 278 265 278 265 C278 265 516 265 516 265 C516 265 539 118 539 118 C551 27 530 20 488 20 C488 20 467 20 467 20 C466 16 464 2 463 0 C463 0 463 0 463 0 L463 0 Z M299 309 C299 309 457 635 457 635 C457 635 509 309 509 309 C509 309 299 309 299 309 L299 309 Z " />
<glyph glyph-name="Acircumflex" unicode="&#xc2;" horiz-adv-x="809" d="M463 0 C463 0 558 0 558 0 C558 0 734 0 734 0 C734 0 794 0 794 0 C794 2 797 12 797 20 C797 20 773 20 773 20 C747 20 731 27 715 111 C715 111 615 697 615 697 C615 697 602 770 602 770 C602 770 587 770 587 770 C552 729 505 705 447 697 C447 697 449 686 449 686 C449 686 186 170 186 170 C186 170 186 170 186 170 C118 30 87 20 37 20 C37 20 15 20 15 20 C14 16 12 2 11 0 C11 0 100 0 100 0 C100 0 150 0 150 0 C150 0 266 0 266 0 C266 2 269 12 269 20 C269 20 249 20 249 20 C192 20 166 29 223 151 C223 151 278 265 278 265 C278 265 516 265 516 265 C516 265 539 118 539 118 C551 27 530 20 488 20 C488 20 467 20 467 20 C466 16 464 2 463 0 C463 0 463 0 463 0 L463 0 Z M566 897 C566 897 687 803 687 803 C687 803 710 820 710 820 C710 820 635 985 635 985 C627 1003 610 1039 591 1039 C572 1039 544 1004 529 986 C529 986 396 820 396 820 C396 820 413 803 413 803 C413 803 566 897 566 897 L566 897 Z M299 309 C299 309 457 635 457 635 C457 635 509 309 509 309 C509 309 299 309 299 309 L299 309 Z " />
<glyph glyph-name="Atilde" unicode="&#xc3;" horiz-adv-x="809" d="M424 870 C430 903 445 919 467 919 C530 919 556 854 618 854 C688 854 732 909 752 1019 C752 1019 725 1019 725 1019 C718 979 700 959 671 959 C609 959 583 1024 520 1024 C457 1024 416 972 398 870 C398 870 424 870 424 870 L424 870 Z M463 0 C463 0 558 0 558 0 C558 0 734 0 734 0 C734 0 794 0 794 0 C794 2 797 12 797 20 C797 20 773 20 773 20 C747 20 731 27 715 111 C715 111 615 697 615 697 C615 697 602 770 602 770 C602 770 587 770 587 770 C552 729 505 705 447 697 C447 697 449 686 449 686 C449 686 186 170 186 170 C186 170 186 170 186 170 C118 30 87 20 37 20 C37 20 15 20 15 20 C14 16 12 2 11 0 C11 0 100 0 100 0 C100 0 150 0 150 0 C150 0 266 0 266 0 C266 2 269 12 269 20 C269 20 249 20 249 20 C192 20 166 29 223 151 C223 151 278 265 278 265 C278 265 516 265 516 265 C516 265 539 118 539 118 C551 27 530 20 488 20 C488 20 467 20 467 20 C466 16 464 2 463 0 C463 0 463 0 463 0 L463 0 Z M299 309 C299 309 457 635 457 635 C457 635 509 309 509 309 C509 309 299 309 299 309 L299 309 Z " />
<glyph glyph-name="Adieresis" unicode="&#xc4;" horiz-adv-x="809" d="M647 865 C701 865 732 892 741 945 C751 998 729 1025 675 1025 C622 1025 591 998 581 945 C572 892 594 865 647 865 L647 865 Z M474 865 C528 865 559 892 568 945 C578 998 556 1025 502 1025 C449 1025 418 998 408 945 C399 892 421 865 474 865 L474 865 Z M463 0 C463 0 558 0 558 0 C558 0 734 0 734 0 C734 0 794 0 794 0 C794 2 797 12 797 20 C797 20 773 20 773 20 C747 20 731 27 715 111 C715 111 615 697 615 697 C615 697 602 770 602 770 C602 770 587 770 587 770 C552 729 505 705 447 697 C447 697 449 686 449 686 C449 686 186 170 186 170 C186 170 186 170 186 170 C118 30 87 20 37 20 C37 20 15 20 15 20 C14 16 12 2 11 0 C11 0 100 0 100 0 C100 0 150 0 150 0 C150 0 266 0 266 0 C266 2 269 12 269 20 C269 20 249 20 249 20 C192 20 166 29 223 151 C223 151 278 265 278 265 C278 265 516 265 516 265 C516 265 539 118 539 118 C551 27 530 20 488 20 C488 20 467 20 467 20 C466 16 464 2 463 0 C463 0 463 0 463 0 L463 0 Z M299 309 C299 309 457 635 457 635 C457 635 509 309 509 309 C509 309 299 309 299 309 L299 309 Z " />
<glyph glyph-name="Aring" unicode="&#xc5;" horiz-adv-x="809" d="M557 845 C524 845 506 869 512 905 C520 945 542 965 578 965 C615 965 630 945 623 905 C616 869 590 845 557 845 L557 845 Z M468 905 C458 848 492 810 551 810 C610 810 657 848 667 905 C678 968 650 1000 584 1000 C519 1000 480 968 468 905 L468 905 Z M463 0 C463 0 558 0 558 0 C558 0 734 0 734 0 C734 0 794 0 794 0 C794 2 797 12 797 20 C797 20 773 20 773 20 C747 20 731 27 715 111 C715 111 615 697 615 697 C615 697 602 770 602 770 C602 770 587 770 587 770 C552 729 505 705 447 697 C447 697 449 686 449 686 C449 686 186 170 186 170 C186 170 186 170 186 170 C118 30 87 20 37 20 C37 20 15 20 15 20 C14 16 12 2 11 0 C11 0 100 0 100 0 C100 0 150 0 150 0 C150 0 266 0 266 0 C266 2 269 12 269 20 C269 20 249 20 249 20 C192 20 166 29 223 151 C223 151 278 265 278 265 C278 265 516 265 516 265 C516 265 539 118 539 118 C551 27 530 20 488 20 C488 20 467 20 467 20 C466 16 464 2 463 0 C463 0 463 0 463 0 L463 0 Z M299 309 C299 309 457 635 457 635 C457 635 509 309 509 309 C509 309 299 309 299 309 L299 309 Z " />
<glyph glyph-name="Egrave" unicode="&#xc8;" horiz-adv-x="674" d="M706 627 C708 667 713 710 719 750 C719 750 599 750 599 750 C599 750 409 750 409 750 C409 750 241 750 241 750 C241 750 167 750 167 750 C166 740 164 738 164 730 C164 730 174 730 174 730 C216 730 237 725 226 665 C226 665 226 665 226 665 C226 665 123 82 123 82 C112 25 90 20 49 20 C49 20 39 20 39 20 C38 16 36 2 35 0 C35 0 109 0 109 0 C109 0 276 0 276 0 C276 0 491 0 491 0 C491 0 611 0 611 0 C625 41 637 83 651 123 C651 123 631 123 631 123 C631 123 627 113 627 113 C611 62 595 36 503 36 C503 36 363 36 363 36 C294 36 286 47 289 69 C289 69 283 36 283 36 C283 36 276 0 276 0 C276 0 344 385 344 385 C344 385 474 385 474 385 C572 385 570 350 557 287 C557 287 577 287 577 287 C583 320 588 352 594 385 C594 385 594 385 594 385 C594 385 601 425 601 425 C601 425 601 425 601 425 C606 458 612 490 619 523 C619 523 599 523 599 523 C586 458 580 425 481 425 C481 425 351 425 351 425 C351 425 394 665 394 665 C394 665 394 665 394 665 C394 667 395 669 395 671 C395 671 403 714 403 714 C403 714 595 714 595 714 C706 714 692 688 686 636 C686 636 686 627 686 627 C686 627 706 627 706 627 L706 627 Z M444 993 C428 1034 417 1054 407 1054 C362 1054 327 1024 319 980 C317 969 332 952 363 925 C363 925 491 810 491 810 C491 810 513 829 513 829 C513 829 444 993 444 993 L444 993 Z M289 69 C289 72 290 76 291 80 C291 80 289 69 289 69 L289 69 Z " />
<glyph glyph-name="Eacute" unicode="&#xc9;" horiz-adv-x="674" d="M500 810 C500 810 668 925 668 925 C709 954 730 970 731 980 C739 1024 715 1054 670 1054 C661 1054 643 1034 611 993 C611 993 485 829 485 829 C485 829 500 810 500 810 L500 810 Z M706 627 C708 667 713 710 719 750 C719 750 599 750 599 750 C599 750 409 750 409 750 C409 750 241 750 241 750 C241 750 167 750 167 750 C166 740 164 738 164 730 C164 730 174 730 174 730 C216 730 237 725 226 665 C226 665 226 665 226 665 C226 665 123 82 123 82 C112 25 90 20 49 20 C49 20 39 20 39 20 C38 16 36 2 35 0 C35 0 109 0 109 0 C109 0 276 0 276 0 C276 0 491 0 491 0 C491 0 611 0 611 0 C625 41 637 83 651 123 C651 123 631 123 631 123 C631 123 627 113 627 113 C611 62 595 36 503 36 C503 36 363 36 363 36 C294 36 286 47 289 69 C289 69 283 36 283 36 C283 36 276 0 276 0 C276 0 344 385 344 385 C344 385 474 385 474 385 C572 385 570 350 557 287 C557 287 577 287 577 287 C583 320 588 352 594 385 C594 385 594 385 594 385 C594 385 601 425 601 425 C601 425 601 425 601 425 C606 458 612 490 619 523 C619 523 599 523 599 523 C586 458 580 425 481 425 C481 425 351 425 351 425 C351 425 394 665 394 665 C394 665 394 665 394 665 C394 667 395 669 395 671 C395 671 403 714 403 714 C403 714 595 714 595 714 C706 714 692 688 686 636 C686 636 686 627 686 627 C686 627 706 627 706 627 L706 627 Z M289 69 C289 72 290 76 291 80 C291 80 289 69 289 69 L289 69 Z " />
<glyph glyph-name="Ecircumflex" unicode="&#xca;" horiz-adv-x="674" d="M706 627 C708 667 713 710 719 750 C719 750 599 750 599 750 C599 750 409 750 409 750 C409 750 241 750 241 750 C241 750 167 750 167 750 C166 740 164 738 164 730 C164 730 174 730 174 730 C216 730 237 725 226 665 C226 665 226 665 226 665 C226 665 123 82 123 82 C112 25 90 20 49 20 C49 20 39 20 39 20 C38 16 36 2 35 0 C35 0 109 0 109 0 C109 0 276 0 276 0 C276 0 491 0 491 0 C491 0 611 0 611 0 C625 41 637 83 651 123 C651 123 631 123 631 123 C631 123 627 113 627 113 C611 62 595 36 503 36 C503 36 363 36 363 36 C294 36 286 47 289 69 C289 69 283 36 283 36 C283 36 276 0 276 0 C276 0 344 385 344 385 C344 385 474 385 474 385 C572 385 570 350 557 287 C557 287 577 287 577 287 C583 320 588 352 594 385 C594 385 594 385 594 385 C594 385 601 425 601 425 C601 425 601 425 601 425 C606 458 612 490 619 523 C619 523 599 523 599 523 C586 458 580 425 481 425 C481 425 351 425 351 425 C351 425 394 665 394 665 C394 665 394 665 394 665 C394 667 395 669 395 671 C395 671 403 714 403 714 C403 714 595 714 595 714 C706 714 692 688 686 636 C686 636 686 627 686 627 C686 627 706 627 706 627 L706 627 Z M506 897 C506 897 626 803 626 803 C626 803 649 820 649 820 C649 820 574 985 574 985 C566 1003 550 1039 531 1039 C511 1039 483 1004 469 986 C469 986 335 820 335 820 C335 820 352 803 352 803 C352 803 506 897 506 897 L506 897 Z M289 69 C289 72 290 76 291 80 C291 80 289 69 289 69 L289 69 Z " />
<glyph glyph-name="Edieresis" unicode="&#xcb;" horiz-adv-x="674" d="M587 865 C640 865 671 892 681 945 C690 998 668 1025 615 1025 C562 1025 530 998 521 945 C511 892 533 865 587 865 L587 865 Z M414 865 C467 865 498 892 508 945 C517 998 495 1025 442 1025 C389 1025 357 998 348 945 C338 892 360 865 414 865 L414 865 Z M706 627 C708 667 713 710 719 750 C719 750 599 750 599 750 C599 750 409 750 409 750 C409 750 241 750 241 750 C241 750 167 750 167 750 C166 740 164 738 164 730 C164 730 174 730 174 730 C216 730 237 725 226 665 C226 665 226 665 226 665 C226 665 123 82 123 82 C112 25 90 20 49 20 C49 20 39 20 39 20 C38 16 36 2 35 0 C35 0 109 0 109 0 C109 0 276 0 276 0 C276 0 491 0 491 0 C491 0 611 0 611 0 C625 41 637 83 651 123 C651 123 631 123 631 123 C631 123 627 113 627 113 C611 62 595 36 503 36 C503 36 363 36 363 36 C294 36 286 47 289 69 C289 69 283 36 283 36 C283 36 276 0 276 0 C276 0 344 385 344 385 C344 385 474 385 474 385 C572 385 570 350 557 287 C557 287 577 287 577 287 C583 320 588 352 594 385 C594 385 594 385 594 385 C594 385 601 425 601 425 C601 425 601 425 601 425 C606 458 612 490 619 523 C619 523 599 523 599 523 C586 458 580 425 481 425 C481 425 351 425 351 425 C351 425 394 665 394 665 C394 665 394 665 394 665 C394 667 395 669 395 671 C395 671 403 714 403 714 C403 714 595 714 595 714 C706 714 692 688 686 636 C686 636 686 627 686 627 C686 627 706 627 706 627 L706 627 Z M289 69 C289 72 290 76 291 80 C291 80 289 69 289 69 L289 69 Z " />
<glyph glyph-name="Igrave" unicode="&#xcc;" horiz-adv-x="380" d="M461 750 C461 750 145 750 145 750 C145 750 142 730 142 730 C142 730 152 730 152 730 C194 730 215 726 205 670 C205 670 101 80 101 80 C91 24 69 20 27 20 C27 20 17 20 17 20 C16 16 14 2 13 0 C13 0 328 0 328 0 C329 4 331 18 332 20 C332 20 321 20 321 20 C279 20 258 24 269 80 C269 80 373 670 373 670 C382 726 404 730 446 730 C446 730 457 730 457 730 C457 730 460 750 461 750 L461 750 Z M267 993 C251 1034 240 1054 230 1054 C186 1054 150 1024 142 980 C141 969 156 952 187 925 C187 925 314 810 314 810 C314 810 336 829 336 829 C336 829 267 993 267 993 L267 993 Z " />
<glyph glyph-name="Iacute" unicode="&#xcd;" horiz-adv-x="380" d="M323 810 C323 810 491 925 491 925 C532 954 553 970 554 980 C562 1024 538 1054 493 1054 C484 1054 466 1034 434 993 C434 993 308 829 308 829 C308 829 323 810 323 810 L323 810 Z M461 750 C461 750 145 750 145 750 C145 750 142 730 142 730 C142 730 152 730 152 730 C194 730 215 726 205 670 C205 670 101 80 101 80 C91 24 69 20 27 20 C27 20 17 20 17 20 C16 16 14 2 13 0 C13 0 328 0 328 0 C329 4 331 18 332 20 C332 20 321 20 321 20 C279 20 258 24 269 80 C269 80 373 670 373 670 C382 726 404 730 446 730 C446 730 457 730 457 730 C457 730 460 750 461 750 L461 750 Z " />
<glyph glyph-name="Icircumflex" unicode="&#xce;" horiz-adv-x="380" d="M461 750 C461 750 145 750 145 750 C145 750 142 730 142 730 C142 730 152 730 152 730 C194 730 215 726 205 670 C205 670 101 80 101 80 C91 24 69 20 27 20 C27 20 17 20 17 20 C16 16 14 2 13 0 C13 0 328 0 328 0 C329 4 331 18 332 20 C332 20 321 20 321 20 C279 20 258 24 269 80 C269 80 373 670 373 670 C382 726 404 730 446 730 C446 730 457 730 457 730 C457 730 460 750 461 750 L461 750 Z M329 897 C329 897 449 803 449 803 C449 803 472 820 472 820 C472 820 398 985 398 985 C389 1003 373 1039 354 1039 C334 1039 306 1004 292 986 C292 986 158 820 158 820 C158 820 175 803 175 803 C175 803 329 897 329 897 L329 897 Z " />
<glyph glyph-name="Idieresis" unicode="&#xcf;" horiz-adv-x="380" d="M410 865 C463 865 494 892 504 945 C513 998 491 1025 438 1025 C385 1025 353 998 344 945 C334 892 356 865 410 865 L410 865 Z M237 865 C290 865 321 892 331 945 C340 998 318 1025 265 1025 C212 1025 180 998 171 945 C161 892 183 865 237 865 L237 865 Z M461 750 C461 750 145 750 145 750 C145 750 142 730 142 730 C142 730 152 730 152 730 C194 730 215 726 205 670 C205 670 101 80 101 80 C91 24 69 20 27 20 C27 20 17 20 17 20 C16 16 14 2 13 0 C13 0 328 0 328 0 C329 4 331 18 332 20 C332 20 321 20 321 20 C279 20 258 24 269 80 C269 80 373 670 373 670 C382 726 404 730 446 730 C446 730 457 730 457 730 C457 730 460 750 461 750 L461 750 Z " />
<glyph glyph-name="Ntilde" unicode="&#xd1;" horiz-adv-x="776" d="M398 870 C404 903 419 919 441 919 C504 919 530 854 592 854 C662 854 706 909 726 1019 C726 1019 699 1019 699 1019 C692 979 674 959 645 959 C583 959 557 1024 494 1024 C431 1024 390 972 372 870 C372 870 398 870 398 870 L398 870 Z M88 730 C88 730 114 730 114 730 C127 730 135 728 156 695 C156 695 156 695 156 695 C156 695 220 597 220 597 C220 597 137 133 137 133 C116 28 93 20 52 20 C52 20 29 20 29 20 C28 16 26 2 25 0 C25 0 113 0 113 0 C113 0 163 0 163 0 C163 0 251 0 251 0 C252 4 254 18 255 20 C255 20 232 20 232 20 C188 20 167 28 187 140 C187 140 187 140 187 140 C187 140 254 543 254 543 C254 543 451 238 451 238 C451 238 605 0 605 0 C605 0 639 0 639 0 C639 0 760 630 760 630 C760 630 760 630 760 630 C760 631 760 632 760 632 C760 632 763 645 763 645 C779 724 807 730 855 730 C855 730 866 730 866 730 C866 730 869 750 869 750 C869 750 783 750 783 750 C783 750 733 750 733 750 C733 750 646 750 646 750 C646 750 643 730 642 730 C642 730 653 730 653 730 C700 730 725 724 716 651 C716 651 651 268 651 268 C651 268 601 341 601 341 C601 341 328 750 328 750 C328 750 289 750 289 750 C289 750 247 750 247 750 C247 750 121 750 121 750 C121 750 91 750 91 750 C91 750 88 730 88 730 L88 730 Z " />
<glyph glyph-name="Ograve" unicode="&#xd2;" horiz-adv-x="933" d="M454 35 C303 35 247 149 287 375 C327 601 421 715 567 715 C731 715 793 601 753 375 C713 149 613 35 454 35 L454 35 Z M95 375 C50 119 165 -10 437 -10 C730 -10 900 119 945 375 C990 631 869 760 583 760 C304 760 140 631 95 375 L95 375 Z M546 993 C529 1034 518 1054 509 1054 C464 1054 429 1024 421 980 C419 969 434 952 465 925 C465 925 592 810 592 810 C592 810 614 829 614 829 C614 829 546 993 546 993 L546 993 Z " />
<glyph glyph-name="Oacute" unicode="&#xd3;" horiz-adv-x="933" d="M602 810 C602 810 769 925 769 925 C810 954 831 970 833 980 C841 1024 816 1054 771 1054 C762 1054 744 1034 713 993 C713 993 586 829 586 829 C586 829 602 810 602 810 L602 810 Z M454 35 C303 35 247 149 287 375 C327 601 421 715 567 715 C731 715 793 601 753 375 C713 149 613 35 454 35 L454 35 Z M95 375 C50 119 165 -10 437 -10 C730 -10 900 119 945 375 C990 631 869 760 583 760 C304 760 140 631 95 375 L95 375 Z " />
<glyph glyph-name="Ocircumflex" unicode="&#xd4;" horiz-adv-x="933" d="M454 35 C303 35 247 149 287 375 C327 601 421 715 567 715 C731 715 793 601 753 375 C713 149 613 35 454 35 L454 35 Z M95 375 C50 119 165 -10 437 -10 C730 -10 900 119 945 375 C990 631 869 760 583 760 C304 760 140 631 95 375 L95 375 Z M607 897 C607 897 727 803 727 803 C727 803 751 820 751 820 C751 820 676 985 676 985 C668 1003 651 1039 632 1039 C613 1039 584 1004 570 986 C570 986 436 820 436 820 C436 820 454 803 454 803 C454 803 607 897 607 897 L607 897 Z " />
<glyph glyph-name="Otilde" unicode="&#xd5;" horiz-adv-x="933" d="M465 870 C471 903 486 919 508 919 C571 919 596 854 659 854 C729 854 773 909 793 1019 C793 1019 766 1019 766 1019 C759 979 741 959 712 959 C650 959 624 1024 561 1024 C498 1024 456 972 438 870 C438 870 465 870 465 870 L465 870 Z M454 35 C303 35 247 149 287 375 C327 601 421 715 567 715 C731 715 793 601 753 375 C713 149 613 35 454 35 L454 35 Z M95 375 C50 119 165 -10 437 -10 C730 -10 900 119 945 375 C990 631 869 760 583 760 C304 760 140 631 95 375 L95 375 Z " />
<glyph glyph-name="Odieresis" unicode="&#xd6;" horiz-adv-x="933" d="M688 865 C741 865 772 892 782 945 C791 998 769 1025 716 1025 C663 1025 631 998 622 945 C612 892 635 865 688 865 L688 865 Z M515 865 C568 865 599 892 609 945 C618 998 596 1025 543 1025 C490 1025 458 998 449 945 C439 892 462 865 515 865 L515 865 Z M454 35 C303 35 247 149 287 375 C327 601 421 715 567 715 C731 715 793 601 753 375 C713 149 613 35 454 35 L454 35 Z M95 375 C50 119 165 -10 437 -10 C730 -10 900 119 945 375 C990 631 869 760 583 760 C304 760 140 631 95 375 L95 375 Z " />
<glyph glyph-name="Oslash" unicode="&#xd8;" horiz-adv-x="933" d="M48 -38 C48 -38 174 61 174 61 C233 14 321 -10 437 -10 C730 -10 900 119 945 375 C964 486 953 573 910 636 C910 636 1033 732 1033 732 C1033 732 992 788 992 788 C992 788 863 687 863 687 C801 736 707 760 583 760 C304 760 140 631 95 375 C75 263 86 175 127 112 C127 112 7 18 7 18 C7 18 48 -38 48 -38 L48 -38 Z M454 35 C367 35 311 73 287 149 C287 149 764 522 764 522 C767 480 763 431 753 375 C713 149 613 35 454 35 C454 35 454 35 454 35 L454 35 Z M275 227 C273 270 277 319 287 375 C327 601 421 715 567 715 C663 715 724 676 750 599 C750 599 275 227 275 227 L275 227 Z " />
<glyph glyph-name="Ugrave" unicode="&#xd9;" horiz-adv-x="822" d="M614 730 C614 730 625 730 625 730 C667 730 687 725 677 665 C677 665 591 179 591 179 C591 179 597 213 597 213 C548 136 484 98 406 98 C308 98 266 139 280 220 C280 220 359 665 359 665 C372 744 373 750 374 750 C374 750 132 750 132 750 C131 740 129 738 129 730 C129 730 139 730 139 730 C181 730 202 725 191 665 C191 665 113 220 113 220 C86 67 155 -10 319 -10 C432 -10 521 39 584 137 C584 137 579 110 579 110 C579 110 559 0 559 0 C559 0 586 0 586 0 C586 0 810 55 810 55 C810 55 812 65 812 65 C743 61 738 63 747 110 C747 110 844 665 844 665 C858 744 859 750 859 750 C859 750 618 750 618 750 C618 750 615 730 614 730 L614 730 Z M497 993 C481 1034 470 1054 460 1054 C415 1054 380 1024 372 980 C370 969 385 952 416 925 C416 925 544 810 544 810 C544 810 566 829 566 829 C566 829 497 993 497 993 L497 993 Z " />
<glyph glyph-name="Uacute" unicode="&#xda;" horiz-adv-x="822" d="M553 810 C553 810 721 925 721 925 C762 954 783 970 784 980 C792 1024 768 1054 723 1054 C714 1054 696 1034 664 993 C664 993 538 829 538 829 C538 829 553 810 553 810 L553 810 Z M614 730 C614 730 625 730 625 730 C667 730 687 725 677 665 C677 665 591 179 591 179 C591 179 597 213 597 213 C548 136 484 98 406 98 C308 98 266 139 280 220 C280 220 359 665 359 665 C372 744 373 750 374 750 C374 750 132 750 132 750 C131 740 129 738 129 730 C129 730 139 730 139 730 C181 730 202 725 191 665 C191 665 113 220 113 220 C86 67 155 -10 319 -10 C432 -10 521 39 584 137 C584 137 579 110 579 110 C579 110 559 0 559 0 C559 0 586 0 586 0 C586 0 810 55 810 55 C810 55 812 65 812 65 C743 61 738 63 747 110 C747 110 844 665 844 665 C858 744 859 750 859 750 C859 750 618 750 618 750 C618 750 615 730 614 730 L614 730 Z " />
<glyph glyph-name="Ucircumflex" unicode="&#xdb;" horiz-adv-x="822" d="M614 730 C614 730 625 730 625 730 C667 730 687 725 677 665 C677 665 591 179 591 179 C591 179 597 213 597 213 C548 136 484 98 406 98 C308 98 266 139 280 220 C280 220 359 665 359 665 C372 744 373 750 374 750 C374 750 132 750 132 750 C131 740 129 738 129 730 C129 730 139 730 139 730 C181 730 202 725 191 665 C191 665 113 220 113 220 C86 67 155 -10 319 -10 C432 -10 521 39 584 137 C584 137 579 110 579 110 C579 110 559 0 559 0 C559 0 586 0 586 0 C586 0 810 55 810 55 C810 55 812 65 812 65 C743 61 738 63 747 110 C747 110 844 665 844 665 C858 744 859 750 859 750 C859 750 618 750 618 750 C618 750 615 730 614 730 L614 730 Z M559 897 C559 897 679 803 679 803 C679 803 702 820 702 820 C702 820 627 985 627 985 C619 1003 603 1039 584 1039 C564 1039 536 1004 522 986 C522 986 388 820 388 820 C388 820 405 803 405 803 C405 803 559 897 559 897 L559 897 Z " />
<glyph glyph-name="Udieresis" unicode="&#xdc;" horiz-adv-x="822" d="M639 865 C693 865 724 892 734 945 C743 998 721 1025 668 1025 C615 1025 583 998 574 945 C564 892 586 865 639 865 L639 865 Z M467 865 C520 865 551 892 561 945 C570 998 548 1025 495 1025 C442 1025 410 998 401 945 C391 892 413 865 467 865 L467 865 Z M614 730 C614 730 625 730 625 730 C667 730 687 725 677 665 C677 665 591 179 591 179 C591 179 597 213 597 213 C548 136 484 98 406 98 C308 98 266 139 280 220 C280 220 359 665 359 665 C372 744 373 750 374 750 C374 750 132 750 132 750 C131 740 129 738 129 730 C129 730 139 730 139 730 C181 730 202 725 191 665 C191 665 113 220 113 220 C86 67 155 -10 319 -10 C432 -10 521 39 584 137 C584 137 579 110 579 110 C579 110 559 0 559 0 C559 0 586 0 586 0 C586 0 810 55 810 55 C810 55 812 65 812 65 C743 61 738 63 747 110 C747 110 844 665 844 665 C858 744 859 750 859 750 C859 750 618 750 618 750 C618 750 615 730 614 730 L614 730 Z " />
<glyph glyph-name="Yacute" unicode="&#xdd;" horiz-adv-x="809" d="M569 810 C569 810 736 925 736 925 C777 954 798 970 800 980 C808 1024 783 1054 738 1054 C730 1054 712 1034 680 993 C680 993 553 829 553 829 C553 829 569 810 569 810 L569 810 Z M430 750 C430 750 356 750 356 750 C356 750 158 750 158 750 C158 750 127 750 127 750 C126 750 123 730 123 730 C123 730 149 730 149 730 C160 730 170 724 208 654 C208 654 387 309 387 309 C387 309 346 80 346 80 C336 24 314 20 273 20 C273 20 262 20 262 20 C261 16 259 2 258 0 C258 0 574 0 574 0 C574 0 577 20 577 20 C577 20 567 20 567 20 C525 20 504 24 514 80 C514 80 556 315 556 315 C556 315 770 610 770 610 C770 610 770 610 770 610 C851 722 869 730 892 730 C892 730 916 730 916 730 C917 730 920 750 920 750 C920 750 871 750 871 750 C871 750 787 750 787 750 C787 750 714 750 714 750 C713 750 710 730 710 730 C710 730 731 730 731 730 C753 730 767 727 755 700 C755 700 546 368 546 368 C546 368 426 610 426 610 C426 610 426 610 426 610 C368 722 378 730 407 730 C407 730 427 730 427 730 C427 730 430 750 430 750 L430 750 Z " />
<glyph glyph-name="agrave" unicode="&#xe0;" horiz-adv-x="515" d="M551 147 C551 147 532 158 532 158 C519 121 497 102 467 102 C434 102 420 115 424 140 C424 140 461 349 461 349 C483 472 440 510 342 510 C206 510 122 420 112 360 C102 307 126 280 182 280 C224 280 250 311 255 337 C259 362 241 372 247 406 C250 423 268 449 296 449 C318 449 327 438 322 404 C322 404 300 281 300 281 C90 220 65 211 46 101 C33 27 63 -10 136 -10 C174 -10 210 8 272 76 C280 22 318 -5 387 -5 C460 -5 515 46 551 147 L551 147 Z M305 743 C288 784 277 804 268 804 C223 804 188 774 180 730 C178 719 193 702 224 675 C224 675 351 560 351 560 C351 560 373 579 373 579 C373 579 305 743 305 743 L305 743 Z M293 245 C293 245 274 140 274 140 C272 128 271 117 270 106 C245 78 235 70 230 70 C204 70 194 86 200 117 C217 217 227 226 293 245 L293 245 Z " />
<glyph glyph-name="aacute" unicode="&#xe1;" horiz-adv-x="515" d="M361 560 C361 560 528 675 528 675 C569 704 590 720 592 730 C600 774 575 804 530 804 C522 804 504 784 472 743 C472 743 345 579 345 579 C345 579 361 560 361 560 L361 560 Z M551 147 C551 147 532 158 532 158 C519 121 497 102 467 102 C434 102 420 115 424 140 C424 140 461 349 461 349 C483 472 440 510 342 510 C206 510 122 420 112 360 C102 307 126 280 182 280 C224 280 250 311 255 337 C259 362 241 372 247 406 C250 423 268 449 296 449 C318 449 327 438 322 404 C322 404 300 281 300 281 C90 220 65 211 46 101 C33 27 63 -10 136 -10 C174 -10 210 8 272 76 C280 22 318 -5 387 -5 C460 -5 515 46 551 147 L551 147 Z M293 245 C293 245 274 140 274 140 C272 128 271 117 270 106 C245 78 235 70 230 70 C204 70 194 86 200 117 C217 217 227 226 293 245 L293 245 Z " />
<glyph glyph-name="acircumflex" unicode="&#xe2;" horiz-adv-x="515" d="M551 147 C551 147 532 158 532 158 C519 121 497 102 467 102 C434 102 420 115 424 140 C424 140 461 349 461 349 C483 472 440 510 342 510 C206 510 122 420 112 360 C102 307 126 280 182 280 C224 280 250 311 255 337 C259 362 241 372 247 406 C250 423 268 449 296 449 C318 449 327 438 322 404 C322 404 300 281 300 281 C90 220 65 211 46 101 C33 27 63 -10 136 -10 C174 -10 210 8 272 76 C280 22 318 -5 387 -5 C460 -5 515 46 551 147 L551 147 Z M366 647 C366 647 487 553 487 553 C487 553 510 570 510 570 C510 570 435 735 435 735 C427 753 410 789 391 789 C372 789 344 754 329 736 C329 736 196 570 196 570 C196 570 213 553 213 553 C213 553 366 647 366 647 L366 647 Z M293 245 C293 245 274 140 274 140 C272 128 271 117 270 106 C245 78 235 70 230 70 C204 70 194 86 200 117 C217 217 227 226 293 245 L293 245 Z " />
<glyph glyph-name="atilde" unicode="&#xe3;" horiz-adv-x="515" d="M224 620 C230 653 245 669 267 669 C330 669 356 604 418 604 C487 604 532 659 552 769 C552 769 525 769 525 769 C518 729 500 709 471 709 C409 709 383 774 320 774 C257 774 215 722 198 620 C198 620 224 620 224 620 L224 620 Z M551 147 C551 147 532 158 532 158 C519 121 497 102 467 102 C434 102 420 115 424 140 C424 140 461 349 461 349 C483 472 440 510 342 510 C206 510 122 420 112 360 C102 307 126 280 182 280 C224 280 250 311 255 337 C259 362 241 372 247 406 C250 423 268 449 296 449 C318 449 327 438 322 404 C322 404 300 281 300 281 C90 220 65 211 46 101 C33 27 63 -10 136 -10 C174 -10 210 8 272 76 C280 22 318 -5 387 -5 C460 -5 515 46 551 147 L551 147 Z M293 245 C293 245 274 140 274 140 C272 128 271 117 270 106 C245 78 235 70 230 70 C204 70 194 86 200 117 C217 217 227 226 293 245 L293 245 Z " />
<glyph glyph-name="adieresis" unicode="&#xe4;" horiz-adv-x="515" d="M447 615 C500 615 532 642 541 695 C551 748 529 775 475 775 C422 775 391 748 381 695 C372 642 394 615 447 615 L447 615 Z M274 615 C327 615 359 642 368 695 C378 748 356 775 302 775 C249 775 218 748 208 695 C199 642 221 615 274 615 L274 615 Z M551 147 C551 147 532 158 532 158 C519 121 497 102 467 102 C434 102 420 115 424 140 C424 140 461 349 461 349 C483 472 440 510 342 510 C206 510 122 420 112 360 C102 307 126 280 182 280 C224 280 250 311 255 337 C259 362 241 372 247 406 C250 423 268 449 296 449 C318 449 327 438 322 404 C322 404 300 281 300 281 C90 220 65 211 46 101 C33 27 63 -10 136 -10 C174 -10 210 8 272 76 C280 22 318 -5 387 -5 C460 -5 515 46 551 147 L551 147 Z M293 245 C293 245 274 140 274 140 C272 128 271 117 270 106 C245 78 235 70 230 70 C204 70 194 86 200 117 C217 217 227 226 293 245 L293 245 Z " />
<glyph glyph-name="aring" unicode="&#xe5;" horiz-adv-x="515" d="M357 595 C324 595 306 619 312 655 C319 695 342 715 378 715 C415 715 430 695 423 655 C416 619 390 595 357 595 L357 595 Z M268 655 C258 598 292 560 351 560 C411 560 457 598 467 655 C478 718 451 750 384 750 C319 750 280 718 268 655 L268 655 Z M551 147 C551 147 532 158 532 158 C519 121 497 102 467 102 C434 102 420 115 424 140 C424 140 461 349 461 349 C483 472 440 510 342 510 C206 510 122 420 112 360 C102 307 126 280 182 280 C224 280 250 311 255 337 C259 362 241 372 247 406 C250 423 268 449 296 449 C318 449 327 438 322 404 C322 404 300 281 300 281 C90 220 65 211 46 101 C33 27 63 -10 136 -10 C174 -10 210 8 272 76 C280 22 318 -5 387 -5 C460 -5 515 46 551 147 L551 147 Z M293 245 C293 245 274 140 274 140 C272 128 271 117 270 106 C245 78 235 70 230 70 C204 70 194 86 200 117 C217 217 227 226 293 245 L293 245 Z " />
<glyph glyph-name="egrave" unicode="&#xe8;" horiz-adv-x="535" d="M342 743 C325 784 314 804 305 804 C260 804 224 774 217 730 C215 719 230 702 261 675 C261 675 388 560 388 560 C388 560 410 579 410 579 C410 579 342 743 342 743 L342 743 Z M244 340 C244 340 400 340 400 340 C400 340 566 340 566 340 C566 476 503 510 379 510 C202 510 96 414 63 225 C35 69 102 -10 263 -10 C380 -10 465 37 515 130 C515 130 498 137 498 137 C481 105 420 89 317 89 C238 89 209 155 232 286 C236 305 240 323 244 340 L244 340 Z M495 383 C506 384 519 384 532 384 C532 384 495 383 495 383 L495 383 Z M399 380 C399 380 256 375 256 375 C281 442 317 476 364 476 C385 476 397 455 399 380 C399 380 399 380 399 380 L399 380 Z " />
<glyph glyph-name="eacute" unicode="&#xe9;" horiz-adv-x="535" d="M398 560 C398 560 565 675 565 675 C606 704 627 720 629 730 C637 774 612 804 567 804 C559 804 541 784 509 743 C509 743 382 579 382 579 C382 579 398 560 398 560 L398 560 Z M244 340 C244 340 400 340 400 340 C400 340 566 340 566 340 C566 476 503 510 379 510 C202 510 96 414 63 225 C35 69 102 -10 263 -10 C380 -10 465 37 515 130 C515 130 498 137 498 137 C481 105 420 89 317 89 C238 89 209 155 232 286 C236 305 240 323 244 340 L244 340 Z M495 383 C506 384 519 384 532 384 C532 384 495 383 495 383 L495 383 Z M399 380 C399 380 256 375 256 375 C281 442 317 476 364 476 C385 476 397 455 399 380 C399 380 399 380 399 380 L399 380 Z " />
<glyph glyph-name="ecircumflex" unicode="&#xea;" horiz-adv-x="535" d="M403 647 C403 647 524 553 524 553 C524 553 547 570 547 570 C547 570 472 735 472 735 C464 753 447 789 428 789 C409 789 380 754 366 736 C366 736 232 570 232 570 C232 570 250 553 250 553 C250 553 403 647 403 647 L403 647 Z M244 340 C244 340 400 340 400 340 C400 340 566 340 566 340 C566 476 503 510 379 510 C202 510 96 414 63 225 C35 69 102 -10 263 -10 C380 -10 465 37 515 130 C515 130 498 137 498 137 C481 105 420 89 317 89 C238 89 209 155 232 286 C236 305 240 323 244 340 L244 340 Z M495 383 C506 384 519 384 532 384 C532 384 495 383 495 383 L495 383 Z M399 380 C399 380 256 375 256 375 C281 442 317 476 364 476 C385 476 397 455 399 380 C399 380 399 380 399 380 L399 380 Z " />
<glyph glyph-name="edieresis" unicode="&#xeb;" horiz-adv-x="535" d="M484 615 C537 615 569 642 578 695 C588 748 566 775 512 775 C459 775 428 748 418 695 C409 642 431 615 484 615 L484 615 Z M311 615 C364 615 396 642 405 695 C415 748 393 775 339 775 C286 775 255 748 245 695 C236 642 258 615 311 615 L311 615 Z M244 340 C244 340 400 340 400 340 C400 340 566 340 566 340 C566 476 503 510 379 510 C202 510 96 414 63 225 C35 69 102 -10 263 -10 C380 -10 465 37 515 130 C515 130 498 137 498 137 C481 105 420 89 317 89 C238 89 209 155 232 286 C236 305 240 323 244 340 L244 340 Z M495 383 C506 384 519 384 532 384 C532 384 495 383 495 383 L495 383 Z M399 380 C399 380 256 375 256 375 C281 442 317 476 364 476 C385 476 397 455 399 380 C399 380 399 380 399 380 L399 380 Z " />
<glyph glyph-name="igrave" unicode="&#xec;" horiz-adv-x="339" d="M42 0 C42 0 307 0 307 0 C307 2 310 12 310 20 C310 20 300 20 300 20 C268 20 253 21 255 35 C255 35 317 390 317 390 C317 390 337 500 337 500 C337 500 310 500 310 500 C310 500 120 445 120 445 C120 445 118 435 118 435 C172 438 176 436 167 390 C167 390 105 35 105 35 C103 21 87 20 56 20 C56 20 46 20 46 20 C45 16 43 2 42 0 L42 0 Z M226 743 C210 784 199 804 189 804 C144 804 109 774 101 730 C99 719 114 702 145 675 C145 675 273 560 273 560 C273 560 295 579 295 579 C295 579 226 743 226 743 L226 743 Z " />
<glyph glyph-name="iacute" unicode="&#xed;" horiz-adv-x="339" d="M42 0 C42 0 307 0 307 0 C307 2 310 12 310 20 C310 20 300 20 300 20 C268 20 253 21 255 35 C255 35 317 390 317 390 C317 390 337 500 337 500 C337 500 310 500 310 500 C310 500 120 445 120 445 C120 445 118 435 118 435 C172 438 176 436 167 390 C167 390 105 35 105 35 C103 21 87 20 56 20 C56 20 46 20 46 20 C45 16 43 2 42 0 L42 0 Z M226 743 C210 784 199 804 189 804 C144 804 109 774 101 730 C99 719 114 702 145 675 C145 675 273 560 273 560 C273 560 295 579 295 579 C295 579 226 743 226 743 L226 743 Z " />
<glyph glyph-name="icircumflex" unicode="&#xee;" horiz-adv-x="339" d="M42 0 C42 0 307 0 307 0 C307 2 310 12 310 20 C310 20 300 20 300 20 C268 20 253 21 255 35 C255 35 317 390 317 390 C317 390 337 500 337 500 C337 500 310 500 310 500 C310 500 120 445 120 445 C120 445 118 435 118 435 C172 438 176 436 167 390 C167 390 105 35 105 35 C103 21 87 20 56 20 C56 20 46 20 46 20 C45 16 43 2 42 0 L42 0 Z M288 647 C288 647 408 553 408 553 C408 553 431 570 431 570 C431 570 356 735 356 735 C348 753 332 789 313 789 C293 789 265 754 251 736 C251 736 117 570 117 570 C117 570 134 553 134 553 C134 553 288 647 288 647 L288 647 Z " />
<glyph glyph-name="idieresis" unicode="&#xef;" horiz-adv-x="339" d="M368 615 C422 615 453 642 463 695 C472 748 450 775 397 775 C343 775 312 748 303 695 C293 642 315 615 368 615 L368 615 Z M195 615 C249 615 280 642 290 695 C299 748 277 775 224 775 C171 775 139 748 130 695 C120 642 142 615 195 615 L195 615 Z M42 0 C42 0 307 0 307 0 C307 2 310 12 310 20 C310 20 300 20 300 20 C268 20 253 21 255 35 C255 35 317 390 317 390 C317 390 337 500 337 500 C337 500 310 500 310 500 C310 500 120 445 120 445 C120 445 118 435 118 435 C172 438 176 436 167 390 C167 390 105 35 105 35 C103 21 87 20 56 20 C56 20 46 20 46 20 C45 16 43 2 42 0 L42 0 Z " />
<glyph glyph-name="ntilde" unicode="&#xf1;" horiz-adv-x="635" d="M281 620 C287 653 301 669 324 669 C386 669 412 604 475 604 C544 604 589 659 608 769 C608 769 582 769 582 769 C575 729 557 709 528 709 C466 709 440 774 377 774 C314 774 272 722 254 620 C254 620 281 620 281 620 L281 620 Z M86 413 C86 413 98 417 98 417 C132 429 149 429 136 358 C136 358 79 35 79 35 C77 21 61 20 31 20 C31 20 20 20 20 20 C22 20 17 0 17 0 C17 0 279 0 279 0 C280 4 282 18 283 20 C283 20 272 20 272 20 C242 20 227 21 229 35 C229 35 286 358 286 358 C308 386 340 400 382 400 C443 400 457 355 441 265 C441 265 401 35 401 35 C399 21 383 20 353 20 C353 20 342 20 342 20 C341 16 339 2 338 0 C338 0 601 0 601 0 C601 2 604 12 604 20 C604 20 594 20 594 20 C564 20 549 21 551 35 C551 35 591 265 591 265 C620 428 596 510 490 510 C414 510 348 473 294 401 C310 493 311 500 311 500 C311 500 285 500 285 500 C285 500 90 433 90 433 C89 429 86 415 86 413 C86 413 86 413 86 413 L86 413 Z " />
<glyph glyph-name="ograve" unicode="&#xf2;" horiz-adv-x="609" d="M300 35 C230 35 207 107 232 250 C257 393 305 465 375 465 C445 465 467 393 442 250 C417 107 369 35 300 35 L300 35 Z M67 250 C36 77 112 -10 292 -10 C471 -10 578 77 608 250 C639 423 563 510 383 510 C204 510 97 423 67 250 L67 250 Z M346 743 C329 784 318 804 309 804 C264 804 229 774 221 730 C219 719 234 702 265 675 C265 675 392 560 392 560 C392 560 414 579 414 579 C414 579 346 743 346 743 L346 743 Z " />
<glyph glyph-name="oacute" unicode="&#xf3;" horiz-adv-x="609" d="M402 560 C402 560 569 675 569 675 C610 704 631 720 633 730 C641 774 616 804 571 804 C563 804 545 784 513 743 C513 743 386 579 386 579 C386 579 402 560 402 560 L402 560 Z M300 35 C230 35 207 107 232 250 C257 393 305 465 375 465 C445 465 467 393 442 250 C417 107 369 35 300 35 L300 35 Z M67 250 C36 77 112 -10 292 -10 C471 -10 578 77 608 250 C639 423 563 510 383 510 C204 510 97 423 67 250 L67 250 Z " />
<glyph glyph-name="ocircumflex" unicode="&#xf4;" horiz-adv-x="609" d="M300 35 C230 35 207 107 232 250 C257 393 305 465 375 465 C445 465 467 393 442 250 C417 107 369 35 300 35 L300 35 Z M67 250 C36 77 112 -10 292 -10 C471 -10 578 77 608 250 C639 423 563 510 383 510 C204 510 97 423 67 250 L67 250 Z M407 647 C407 647 528 553 528 553 C528 553 551 570 551 570 C551 570 476 735 476 735 C468 753 451 789 432 789 C413 789 385 754 370 736 C370 736 237 570 237 570 C237 570 254 553 254 553 C254 553 407 647 407 647 L407 647 Z " />
<glyph glyph-name="otilde" unicode="&#xf5;" horiz-adv-x="609" d="M265 620 C271 653 286 669 309 669 C371 669 397 604 459 604 C529 604 573 659 593 769 C593 769 566 769 566 769 C559 729 541 709 512 709 C450 709 424 774 362 774 C298 774 257 722 239 620 C239 620 265 620 265 620 L265 620 Z M300 35 C230 35 207 107 232 250 C257 393 305 465 375 465 C445 465 467 393 442 250 C417 107 369 35 300 35 L300 35 Z M67 250 C36 77 112 -10 292 -10 C471 -10 578 77 608 250 C639 423 563 510 383 510 C204 510 97 423 67 250 L67 250 Z " />
<glyph glyph-name="odieresis" unicode="&#xf6;" horiz-adv-x="609" d="M488 615 C542 615 573 642 582 695 C592 748 570 775 516 775 C463 775 432 748 422 695 C413 642 435 615 488 615 L488 615 Z M315 615 C369 615 400 642 409 695 C419 748 397 775 343 775 C290 775 259 748 249 695 C240 642 262 615 315 615 L315 615 Z M300 35 C230 35 207 107 232 250 C257 393 305 465 375 465 C445 465 467 393 442 250 C417 107 369 35 300 35 L300 35 Z M67 250 C36 77 112 -10 292 -10 C471 -10 578 77 608 250 C639 423 563 510 383 510 C204 510 97 423 67 250 L67 250 Z " />
<glyph glyph-name="oslash" unicode="&#xf8;" horiz-adv-x="609" d="M36 -29 C36 -29 118 38 118 38 C156 6 215 -10 292 -10 C471 -10 578 77 608 250 C621 324 615 383 589 425 C589 425 669 491 669 491 C669 491 639 529 639 529 C639 529 557 462 557 462 C519 494 460 510 383 510 C204 510 97 423 67 250 C54 176 60 117 86 75 C86 75 6 9 6 9 C6 9 36 -29 36 -29 L36 -29 Z M300 35 C255 35 229 65 223 125 C223 125 450 311 450 311 C449 293 446 272 442 250 C417 107 369 35 300 35 L300 35 Z M224 188 C225 207 228 228 232 250 C257 393 305 465 375 465 C420 465 446 435 451 374 C451 374 224 188 224 188 L224 188 Z " />
<glyph glyph-name="ugrave" unicode="&#xf9;" horiz-adv-x="614" d="M598 56 C598 56 587 53 587 53 C556 46 540 46 547 102 C547 102 611 465 611 465 C617 498 617 500 617 500 C617 500 420 500 420 500 C420 500 417 480 417 480 C417 480 427 480 427 480 C451 480 463 479 461 465 C461 465 407 159 407 159 C380 116 343 94 297 94 C248 94 228 116 235 160 C235 160 289 465 289 465 C295 498 295 500 295 500 C295 500 99 500 99 500 C99 500 95 480 95 480 C95 480 106 480 106 480 C130 480 141 479 139 465 C139 465 85 160 85 160 C65 47 107 -10 209 -10 C287 -10 351 33 400 116 C400 116 395 90 395 90 C378 -3 377 -10 377 -10 C377 -10 403 -10 403 -10 C403 -10 595 36 595 36 C593 36 598 56 598 56 C598 56 598 56 598 56 L598 56 Z M345 743 C329 784 318 804 309 804 C264 804 228 774 220 730 C219 719 234 702 265 675 C265 675 392 560 392 560 C392 560 414 579 414 579 C414 579 345 743 345 743 L345 743 Z " />
<glyph glyph-name="uacute" unicode="&#xfa;" horiz-adv-x="614" d="M401 560 C401 560 569 675 569 675 C610 704 631 720 633 730 C640 774 616 804 571 804 C562 804 544 784 513 743 C513 743 386 579 386 579 C386 579 401 560 401 560 L401 560 Z M598 56 C598 56 587 53 587 53 C556 46 540 46 547 102 C547 102 611 465 611 465 C617 498 617 500 617 500 C617 500 420 500 420 500 C420 500 417 480 417 480 C417 480 427 480 427 480 C451 480 463 479 461 465 C461 465 407 159 407 159 C380 116 343 94 297 94 C248 94 228 116 235 160 C235 160 289 465 289 465 C295 498 295 500 295 500 C295 500 99 500 99 500 C99 500 95 480 95 480 C95 480 106 480 106 480 C130 480 141 479 139 465 C139 465 85 160 85 160 C65 47 107 -10 209 -10 C287 -10 351 33 400 116 C400 116 395 90 395 90 C378 -3 377 -10 377 -10 C377 -10 403 -10 403 -10 C403 -10 595 36 595 36 C593 36 598 56 598 56 C598 56 598 56 598 56 L598 56 Z " />
<glyph glyph-name="ucircumflex" unicode="&#xfb;" horiz-adv-x="614" d="M598 56 C598 56 587 53 587 53 C556 46 540 46 547 102 C547 102 611 465 611 465 C617 498 617 500 617 500 C617 500 420 500 420 500 C420 500 417 480 417 480 C417 480 427 480 427 480 C451 480 463 479 461 465 C461 465 407 159 407 159 C380 116 343 94 297 94 C248 94 228 116 235 160 C235 160 289 465 289 465 C295 498 295 500 295 500 C295 500 99 500 99 500 C99 500 95 480 95 480 C95 480 106 480 106 480 C130 480 141 479 139 465 C139 465 85 160 85 160 C65 47 107 -10 209 -10 C287 -10 351 33 400 116 C400 116 395 90 395 90 C378 -3 377 -10 377 -10 C377 -10 403 -10 403 -10 C403 -10 595 36 595 36 C593 36 598 56 598 56 C598 56 598 56 598 56 L598 56 Z M407 647 C407 647 527 553 527 553 C527 553 551 570 551 570 C551 570 476 735 476 735 C468 753 451 789 432 789 C413 789 384 754 370 736 C370 736 236 570 236 570 C236 570 254 553 254 553 C254 553 407 647 407 647 L407 647 Z " />
<glyph glyph-name="udieresis" unicode="&#xfc;" horiz-adv-x="614" d="M488 615 C541 615 572 642 582 695 C591 748 569 775 516 775 C463 775 431 748 422 695 C412 642 434 615 488 615 L488 615 Z M315 615 C368 615 399 642 409 695 C418 748 396 775 343 775 C290 775 258 748 249 695 C239 642 261 615 315 615 L315 615 Z M598 56 C598 56 587 53 587 53 C556 46 540 46 547 102 C547 102 611 465 611 465 C617 498 617 500 617 500 C617 500 420 500 420 500 C420 500 417 480 417 480 C417 480 427 480 427 480 C451 480 463 479 461 465 C461 465 407 159 407 159 C380 116 343 94 297 94 C248 94 228 116 235 160 C235 160 289 465 289 465 C295 498 295 500 295 500 C295 500 99 500 99 500 C99 500 95 480 95 480 C95 480 106 480 106 480 C130 480 141 479 139 465 C139 465 85 160 85 160 C65 47 107 -10 209 -10 C287 -10 351 33 400 116 C400 116 395 90 395 90 C378 -3 377 -10 377 -10 C377 -10 403 -10 403 -10 C403 -10 595 36 595 36 C593 36 598 56 598 56 C598 56 598 56 598 56 L598 56 Z " />
<glyph glyph-name="ydieresis" unicode="&#xff;" horiz-adv-x="612" d="M528 615 C581 615 613 642 622 695 C632 748 610 775 556 775 C503 775 472 748 462 695 C453 642 475 615 528 615 L528 615 Z M355 615 C408 615 440 642 449 695 C459 748 437 775 383 775 C330 775 299 748 289 695 C280 642 302 615 355 615 L355 615 Z M681 500 C681 500 630 500 630 500 C630 500 561 500 561 500 C561 500 494 500 494 500 C494 500 491 480 490 480 C490 480 512 480 512 480 C537 480 549 478 534 450 C534 450 534 450 534 450 C534 450 394 189 394 189 C394 189 299 453 299 453 C299 453 299 453 299 453 C290 478 297 480 311 480 C311 480 331 480 331 480 C331 480 334 500 335 500 C335 500 282 500 282 500 C282 500 118 500 118 500 C118 500 79 500 79 500 C79 500 75 480 75 480 C75 480 101 480 101 480 C117 480 125 478 133 453 C133 453 134 453 134 453 C134 453 287 -10 287 -10 C287 -10 217 -140 217 -140 C208 -157 197 -165 183 -165 C143 -165 146 -112 107 -112 C50 -112 17 -137 8 -187 C-3 -248 21 -279 80 -279 C149 -279 202 -246 238 -181 C238 -181 331 -10 331 -10 C331 -10 603 455 603 455 C620 478 633 480 653 480 C653 480 678 480 678 480 C678 480 681 500 681 500 L681 500 Z " />
<glyph glyph-name="Amacron" unicode="&#x100;" horiz-adv-x="809" d="M414 884 C414 884 714 884 714 884 C714 884 732 988 732 988 C732 988 432 988 432 988 C432 988 414 884 414 884 L414 884 Z M463 0 C463 0 558 0 558 0 C558 0 734 0 734 0 C734 0 794 0 794 0 C794 2 797 12 797 20 C797 20 773 20 773 20 C747 20 731 27 715 111 C715 111 615 697 615 697 C615 697 602 770 602 770 C602 770 587 770 587 770 C552 729 505 705 447 697 C447 697 449 686 449 686 C449 686 186 170 186 170 C186 170 186 170 186 170 C118 30 87 20 37 20 C37 20 15 20 15 20 C14 16 12 2 11 0 C11 0 100 0 100 0 C100 0 150 0 150 0 C150 0 266 0 266 0 C266 2 269 12 269 20 C269 20 249 20 249 20 C192 20 166 29 223 151 C223 151 278 265 278 265 C278 265 516 265 516 265 C516 265 539 118 539 118 C551 27 530 20 488 20 C488 20 467 20 467 20 C466 16 464 2 463 0 C463 0 463 0 463 0 L463 0 Z M299 309 C299 309 457 635 457 635 C457 635 509 309 509 309 C509 309 299 309 299 309 L299 309 Z " />
<glyph glyph-name="amacron" unicode="&#x101;" horiz-adv-x="515" d="M214 634 C214 634 514 634 514 634 C514 634 532 738 532 738 C532 738 232 738 232 738 C232 738 214 634 214 634 L214 634 Z M551 147 C551 147 532 158 532 158 C519 121 497 102 467 102 C434 102 420 115 424 140 C424 140 461 349 461 349 C483 472 440 510 342 510 C206 510 122 420 112 360 C102 307 126 280 182 280 C224 280 250 311 255 337 C259 362 241 372 247 406 C250 423 268 449 296 449 C318 449 327 438 322 404 C322 404 300 281 300 281 C90 220 65 211 46 101 C33 27 63 -10 136 -10 C174 -10 210 8 272 76 C280 22 318 -5 387 -5 C460 -5 515 46 551 147 L551 147 Z M293 245 C293 245 274 140 274 140 C272 128 271 117 270 106 C245 78 235 70 230 70 C204 70 194 86 200 117 C217 217 227 226 293 245 L293 245 Z " />
<glyph glyph-name="Abreve" unicode="&#x102;" horiz-adv-x="809" d="M430 994 C428 889 470 836 555 836 C641 836 702 888 736 991 C736 991 705 995 705 995 C693 959 649 941 574 941 C499 941 461 960 462 998 C462 998 430 994 430 994 L430 994 Z M463 0 C463 0 558 0 558 0 C558 0 734 0 734 0 C734 0 794 0 794 0 C794 2 797 12 797 20 C797 20 773 20 773 20 C747 20 731 27 715 111 C715 111 615 697 615 697 C615 697 602 770 602 770 C602 770 587 770 587 770 C552 729 505 705 447 697 C447 697 449 686 449 686 C449 686 186 170 186 170 C186 170 186 170 186 170 C118 30 87 20 37 20 C37 20 15 20 15 20 C14 16 12 2 11 0 C11 0 100 0 100 0 C100 0 150 0 150 0 C150 0 266 0 266 0 C266 2 269 12 269 20 C269 20 249 20 249 20 C192 20 166 29 223 151 C223 151 278 265 278 265 C278 265 516 265 516 265 C516 265 539 118 539 118 C551 27 530 20 488 20 C488 20 467 20 467 20 C466 16 464 2 463 0 C463 0 463 0 463 0 L463 0 Z M299 309 C299 309 457 635 457 635 C457 635 509 309 509 309 C509 309 299 309 299 309 L299 309 Z " />
<glyph glyph-name="abreve" unicode="&#x103;" horiz-adv-x="515" d="M230 744 C228 639 270 586 355 586 C441 586 502 638 536 741 C536 741 505 745 505 745 C494 709 450 691 374 691 C299 691 261 710 262 748 C262 748 230 744 230 744 L230 744 Z M551 147 C551 147 532 158 532 158 C519 121 497 102 467 102 C434 102 420 115 424 140 C424 140 461 349 461 349 C483 472 440 510 342 510 C206 510 122 420 112 360 C102 307 126 280 182 280 C224 280 250 311 255 337 C259 362 241 372 247 406 C250 423 268 449 296 449 C318 449 327 438 322 404 C322 404 300 281 300 281 C90 220 65 211 46 101 C33 27 63 -10 136 -10 C174 -10 210 8 272 76 C280 22 318 -5 387 -5 C460 -5 515 46 551 147 L551 147 Z M293 245 C293 245 274 140 274 140 C272 128 271 117 270 106 C245 78 235 70 230 70 C204 70 194 86 200 117 C217 217 227 226 293 245 L293 245 Z " />
<glyph glyph-name="Cacute" unicode="&#x106;" horiz-adv-x="795" d="M614 810 C614 810 781 925 781 925 C822 954 843 970 845 980 C853 1024 828 1054 783 1054 C775 1054 757 1034 725 993 C725 993 598 829 598 829 C598 829 614 810 614 810 L614 810 Z M852 533 C857 564 863 594 868 625 C868 625 874 656 885 717 C885 717 870 717 870 717 C869 717 867 710 861 696 C858 689 838 694 800 718 C761 746 703 760 595 760 C309 760 142 631 97 375 C52 119 170 -10 449 -10 C547 -10 613 3 666 29 C666 29 666 29 666 29 C666 29 707 40 747 51 C753 53 754 46 751 30 C751 30 763 30 763 30 C769 61 774 93 780 124 C780 124 785 155 796 217 C796 217 781 217 781 217 C781 217 779 212 774 202 C766 187 754 170 739 153 C739 153 735 157 735 157 C648 72 586 29 472 29 C305 29 241 145 281 375 C321 603 430 718 605 718 C637 718 662 715 683 709 C683 709 682 709 682 709 C691 707 699 704 707 701 C751 681 776 645 811 593 C811 593 818 598 818 598 C827 582 832 564 835 548 C836 538 837 533 837 533 C837 533 852 533 852 533 L852 533 Z " />
<glyph glyph-name="Ccircumflex" unicode="&#x108;" horiz-adv-x="795" d="M852 533 C857 564 863 594 868 625 C868 625 874 656 885 717 C885 717 870 717 870 717 C869 717 867 710 861 696 C858 689 838 694 800 718 C761 746 703 760 595 760 C309 760 142 631 97 375 C52 119 170 -10 449 -10 C547 -10 613 3 666 29 C666 29 666 29 666 29 C666 29 707 40 747 51 C753 53 754 46 751 30 C751 30 763 30 763 30 C769 61 774 93 780 124 C780 124 785 155 796 217 C796 217 781 217 781 217 C781 217 779 212 774 202 C766 187 754 170 739 153 C739 153 735 157 735 157 C648 72 586 29 472 29 C305 29 241 145 281 375 C321 603 430 718 605 718 C637 718 662 715 683 709 C683 709 682 709 682 709 C691 707 699 704 707 701 C751 681 776 645 811 593 C811 593 818 598 818 598 C827 582 832 564 835 548 C836 538 837 533 837 533 C837 533 852 533 852 533 L852 533 Z M619 897 C619 897 740 803 740 803 C740 803 763 820 763 820 C763 820 688 985 688 985 C680 1003 663 1039 644 1039 C625 1039 597 1004 582 986 C582 986 449 820 449 820 C449 820 466 803 466 803 C466 803 619 897 619 897 L619 897 Z " />
<glyph glyph-name="Cdotaccent" unicode="&#x10a;" horiz-adv-x="795" d="M614 865 C667 865 698 892 708 945 C717 998 695 1025 642 1025 C589 1025 557 998 548 945 C538 892 560 865 614 865 L614 865 Z M852 533 C857 564 863 594 868 625 C868 625 874 656 885 717 C885 717 870 717 870 717 C869 717 867 710 861 696 C858 689 838 694 800 718 C761 746 703 760 595 760 C309 760 142 631 97 375 C52 119 170 -10 449 -10 C547 -10 613 3 666 29 C666 29 666 29 666 29 C666 29 707 40 747 51 C753 53 754 46 751 30 C751 30 763 30 763 30 C769 61 774 93 780 124 C780 124 785 155 796 217 C796 217 781 217 781 217 C781 217 779 212 774 202 C766 187 754 170 739 153 C739 153 735 157 735 157 C648 72 586 29 472 29 C305 29 241 145 281 375 C321 603 430 718 605 718 C637 718 662 715 683 709 C683 709 682 709 682 709 C691 707 699 704 707 701 C751 681 776 645 811 593 C811 593 818 598 818 598 C827 582 832 564 835 548 C836 538 837 533 837 533 C837 533 852 533 852 533 L852 533 Z " />
<glyph glyph-name="cdotaccent" unicode="&#x10b;" horiz-adv-x="556" d="M454 615 C508 615 539 642 549 695 C558 748 536 775 483 775 C430 775 398 748 389 695 C379 642 401 615 454 615 L454 615 Z M549 128 C549 128 530 137 530 137 C507 101 463 82 397 82 C267 82 213 148 236 279 C259 410 321 476 421 476 C436 476 448 452 457 405 C466 355 487 330 519 330 C587 330 616 355 607 405 C594 475 536 510 436 510 C221 510 97 417 64 234 C36 72 124 -10 328 -10 C418 -10 492 36 549 128 L549 128 Z " />
<glyph glyph-name="Ccaron" unicode="&#x10c;" horiz-adv-x="795" d="M852 533 C857 564 863 594 868 625 C868 625 874 656 885 717 C885 717 870 717 870 717 C869 717 867 710 861 696 C858 689 838 694 800 718 C761 746 703 760 595 760 C309 760 142 631 97 375 C52 119 170 -10 449 -10 C547 -10 613 3 666 29 C666 29 666 29 666 29 C666 29 707 40 747 51 C753 53 754 46 751 30 C751 30 763 30 763 30 C769 61 774 93 780 124 C780 124 785 155 796 217 C796 217 781 217 781 217 C781 217 779 212 774 202 C766 187 754 170 739 153 C739 153 735 157 735 157 C648 72 586 29 472 29 C305 29 241 145 281 375 C321 603 430 718 605 718 C637 718 662 715 683 709 C683 709 682 709 682 709 C691 707 699 704 707 701 C751 681 776 645 811 593 C811 593 818 598 818 598 C827 582 832 564 835 548 C836 538 837 533 837 533 C837 533 852 533 852 533 L852 533 Z M629 953 C629 953 783 1047 783 1047 C783 1047 800 1030 800 1030 C800 1030 667 865 667 865 C652 847 623 811 604 811 C585 811 569 846 561 864 C561 864 485 1030 485 1030 C485 1030 509 1047 509 1047 C509 1047 629 953 629 953 L629 953 Z " />
<glyph glyph-name="ccaron" unicode="&#x10d;" horiz-adv-x="556" d="M549 128 C549 128 530 137 530 137 C507 101 463 82 397 82 C267 82 213 148 236 279 C259 410 321 476 421 476 C436 476 448 452 457 405 C466 355 487 330 519 330 C587 330 616 355 607 405 C594 475 536 510 436 510 C221 510 97 417 64 234 C36 72 124 -10 328 -10 C418 -10 492 36 549 128 L549 128 Z M470 703 C470 703 623 797 623 797 C623 797 641 780 641 780 C641 780 508 615 508 615 C493 597 464 561 445 561 C426 561 410 596 402 614 C402 614 326 780 326 780 C326 780 350 797 350 797 C350 797 470 703 470 703 L470 703 Z " />
<glyph glyph-name="Dcaron" unicode="&#x10e;" horiz-adv-x="902" d="M35 0 C35 0 109 0 109 0 C109 0 276 0 276 0 C276 0 356 0 356 0 C683 0 866 101 914 375 C958 624 859 750 529 750 C529 750 409 750 409 750 C409 750 403 717 403 717 C685 713 768 598 729 375 C685 126 549 34 312 34 C286 34 285 45 289 68 C289 68 276 0 276 0 C276 0 394 665 394 665 C394 665 394 665 394 665 C394 667 395 669 395 671 C395 671 403 716 403 716 C403 716 402 716 402 716 C402 716 403 717 403 717 C403 717 403 717 403 717 C403 717 409 750 409 750 C409 750 241 750 241 750 C241 750 167 750 167 750 C166 740 164 738 164 730 C164 730 174 730 174 730 C216 730 237 725 226 665 C226 665 226 665 226 665 C226 665 123 82 123 82 C112 25 90 20 49 20 C49 20 39 20 39 20 C38 16 36 2 35 0 C35 0 35 0 35 0 L35 0 Z M554 953 C554 953 707 1047 707 1047 C707 1047 725 1030 725 1030 C725 1030 592 865 592 865 C577 847 548 811 529 811 C510 811 494 846 486 864 C486 864 410 1030 410 1030 C410 1030 434 1047 434 1047 C434 1047 554 953 554 953 L554 953 Z M403 717 C403 717 403 716 403 716 C403 716 403 716 403 716 C403 716 403 717 403 717 C403 717 403 717 403 717 L403 717 Z M289 68 C289 72 290 76 291 80 C291 80 289 68 289 68 L289 68 Z " />
<glyph glyph-name="dcaron" unicode="&#x10f;" horiz-adv-x="573" d="M583 56 C583 56 572 53 572 53 C541 46 525 47 533 113 C533 113 630 665 630 665 C644 744 645 750 645 750 C645 750 619 750 619 750 C619 750 426 697 426 697 C426 697 423 677 423 677 C423 677 434 681 434 681 C466 689 483 690 476 641 C476 641 450 496 450 496 C419 505 379 510 330 510 C177 510 104 422 73 247 C44 79 93 -5 219 -5 C281 -5 333 15 373 55 C362 -5 361 -10 361 -10 C361 -10 388 -10 388 -10 C388 -10 579 36 579 36 C580 40 583 54 583 56 C583 56 583 56 583 56 L583 56 Z M750 630 C777 668 794 703 800 734 C803 752 781 756 737 756 C703 756 685 698 675 647 C675 647 651 534 651 534 C651 534 676 529 676 529 C676 529 750 630 750 630 L750 630 Z M383 109 C351 74 320 57 292 57 C226 57 207 134 234 288 C255 406 285 466 340 466 C383 466 416 440 434 401 C434 401 383 110 383 110 C383 110 383 109 383 109 C383 109 383 109 383 109 L383 109 Z " />
<glyph glyph-name="Emacron" unicode="&#x112;" horiz-adv-x="674" d="M353 884 C353 884 653 884 653 884 C653 884 672 988 672 988 C672 988 372 988 372 988 C372 988 353 884 353 884 L353 884 Z M706 627 C708 667 713 710 719 750 C719 750 599 750 599 750 C599 750 409 750 409 750 C409 750 241 750 241 750 C241 750 167 750 167 750 C166 740 164 738 164 730 C164 730 174 730 174 730 C216 730 237 725 226 665 C226 665 226 665 226 665 C226 665 123 82 123 82 C112 25 90 20 49 20 C49 20 39 20 39 20 C38 16 36 2 35 0 C35 0 109 0 109 0 C109 0 276 0 276 0 C276 0 491 0 491 0 C491 0 611 0 611 0 C625 41 637 83 651 123 C651 123 631 123 631 123 C631 123 627 113 627 113 C611 62 595 36 503 36 C503 36 363 36 363 36 C294 36 286 47 289 69 C289 69 283 36 283 36 C283 36 276 0 276 0 C276 0 344 385 344 385 C344 385 474 385 474 385 C572 385 570 350 557 287 C557 287 577 287 577 287 C583 320 588 352 594 385 C594 385 594 385 594 385 C594 385 601 425 601 425 C601 425 601 425 601 425 C606 458 612 490 619 523 C619 523 599 523 599 523 C586 458 580 425 481 425 C481 425 351 425 351 425 C351 425 394 665 394 665 C394 665 394 665 394 665 C394 667 395 669 395 671 C395 671 403 714 403 714 C403 714 595 714 595 714 C706 714 692 688 686 636 C686 636 686 627 686 627 C686 627 706 627 706 627 L706 627 Z M289 69 C289 72 290 76 291 80 C291 80 289 69 289 69 L289 69 Z " />
<glyph glyph-name="emacron" unicode="&#x113;" horiz-adv-x="535" d="M251 634 C251 634 551 634 551 634 C551 634 569 738 569 738 C569 738 269 738 269 738 C269 738 251 634 251 634 L251 634 Z M244 340 C244 340 400 340 400 340 C400 340 566 340 566 340 C566 476 503 510 379 510 C202 510 96 414 63 225 C35 69 102 -10 263 -10 C380 -10 465 37 515 130 C515 130 498 137 498 137 C481 105 420 89 317 89 C238 89 209 155 232 286 C236 305 240 323 244 340 L244 340 Z M495 383 C506 384 519 384 532 384 C532 384 495 383 495 383 L495 383 Z M399 380 C399 380 256 375 256 375 C281 442 317 476 364 476 C385 476 397 455 399 380 C399 380 399 380 399 380 L399 380 Z " />
<glyph glyph-name="Ebreve" unicode="&#x114;" horiz-adv-x="674" d="M370 994 C368 889 410 836 495 836 C581 836 642 888 675 991 C675 991 645 995 645 995 C633 959 589 941 514 941 C439 941 401 960 402 998 C402 998 370 994 370 994 L370 994 Z M706 627 C708 667 713 710 719 750 C719 750 599 750 599 750 C599 750 409 750 409 750 C409 750 241 750 241 750 C241 750 167 750 167 750 C166 740 164 738 164 730 C164 730 174 730 174 730 C216 730 237 725 226 665 C226 665 226 665 226 665 C226 665 123 82 123 82 C112 25 90 20 49 20 C49 20 39 20 39 20 C38 16 36 2 35 0 C35 0 109 0 109 0 C109 0 276 0 276 0 C276 0 491 0 491 0 C491 0 611 0 611 0 C625 41 637 83 651 123 C651 123 631 123 631 123 C631 123 627 113 627 113 C611 62 595 36 503 36 C503 36 363 36 363 36 C294 36 286 47 289 69 C289 69 283 36 283 36 C283 36 276 0 276 0 C276 0 344 385 344 385 C344 385 474 385 474 385 C572 385 570 350 557 287 C557 287 577 287 577 287 C583 320 588 352 594 385 C594 385 594 385 594 385 C594 385 601 425 601 425 C601 425 601 425 601 425 C606 458 612 490 619 523 C619 523 599 523 599 523 C586 458 580 425 481 425 C481 425 351 425 351 425 C351 425 394 665 394 665 C394 665 394 665 394 665 C394 667 395 669 395 671 C395 671 403 714 403 714 C403 714 595 714 595 714 C706 714 692 688 686 636 C686 636 686 627 686 627 C686 627 706 627 706 627 L706 627 Z M289 69 C289 72 290 76 291 80 C291 80 289 69 289 69 L289 69 Z " />
<glyph glyph-name="ebreve" unicode="&#x115;" horiz-adv-x="535" d="M267 744 C265 639 307 586 392 586 C478 586 539 638 573 741 C573 741 542 745 542 745 C530 709 486 691 411 691 C336 691 298 710 299 748 C299 748 267 744 267 744 L267 744 Z M244 340 C244 340 400 340 400 340 C400 340 566 340 566 340 C566 476 503 510 379 510 C202 510 96 414 63 225 C35 69 102 -10 263 -10 C380 -10 465 37 515 130 C515 130 498 137 498 137 C481 105 420 89 317 89 C238 89 209 155 232 286 C236 305 240 323 244 340 L244 340 Z M495 383 C506 384 519 384 532 384 C532 384 495 383 495 383 L495 383 Z M399 380 C399 380 256 375 256 375 C281 442 317 476 364 476 C385 476 397 455 399 380 C399 380 399 380 399 380 L399 380 Z " />
<glyph glyph-name="Edotaccent" unicode="&#x116;" horiz-adv-x="674" d="M500 865 C554 865 585 892 594 945 C604 998 582 1025 528 1025 C475 1025 444 998 434 945 C425 892 447 865 500 865 L500 865 Z M706 627 C708 667 713 710 719 750 C719 750 599 750 599 750 C599 750 409 750 409 750 C409 750 241 750 241 750 C241 750 167 750 167 750 C166 740 164 738 164 730 C164 730 174 730 174 730 C216 730 237 725 226 665 C226 665 226 665 226 665 C226 665 123 82 123 82 C112 25 90 20 49 20 C49 20 39 20 39 20 C38 16 36 2 35 0 C35 0 109 0 109 0 C109 0 276 0 276 0 C276 0 491 0 491 0 C491 0 611 0 611 0 C625 41 637 83 651 123 C651 123 631 123 631 123 C631 123 627 113 627 113 C611 62 595 36 503 36 C503 36 363 36 363 36 C294 36 286 47 289 69 C289 69 283 36 283 36 C283 36 276 0 276 0 C276 0 344 385 344 385 C344 385 474 385 474 385 C572 385 570 350 557 287 C557 287 577 287 577 287 C583 320 588 352 594 385 C594 385 594 385 594 385 C594 385 601 425 601 425 C601 425 601 425 601 425 C606 458 612 490 619 523 C619 523 599 523 599 523 C586 458 580 425 481 425 C481 425 351 425 351 425 C351 425 394 665 394 665 C394 665 394 665 394 665 C394 667 395 669 395 671 C395 671 403 714 403 714 C403 714 595 714 595 714 C706 714 692 688 686 636 C686 636 686 627 686 627 C686 627 706 627 706 627 L706 627 Z M289 69 C289 72 290 76 291 80 C291 80 289 69 289 69 L289 69 Z " />
<glyph glyph-name="edotaccent" unicode="&#x117;" horiz-adv-x="535" d="M398 615 C451 615 482 642 492 695 C501 748 479 775 426 775 C373 775 341 748 332 695 C322 642 344 615 398 615 L398 615 Z M244 340 C244 340 400 340 400 340 C400 340 566 340 566 340 C566 476 503 510 379 510 C202 510 96 414 63 225 C35 69 102 -10 263 -10 C380 -10 465 37 515 130 C515 130 498 137 498 137 C481 105 420 89 317 89 C238 89 209 155 232 286 C236 305 240 323 244 340 L244 340 Z M495 383 C506 384 519 384 532 384 C532 384 495 383 495 383 L495 383 Z M399 380 C399 380 256 375 256 375 C281 442 317 476 364 476 C385 476 397 455 399 380 C399 380 399 380 399 380 L399 380 Z " />
<glyph glyph-name="Ecaron" unicode="&#x11a;" horiz-adv-x="674" d="M706 627 C708 667 713 710 719 750 C719 750 599 750 599 750 C599 750 409 750 409 750 C409 750 241 750 241 750 C241 750 167 750 167 750 C166 740 164 738 164 730 C164 730 174 730 174 730 C216 730 237 725 226 665 C226 665 226 665 226 665 C226 665 123 82 123 82 C112 25 90 20 49 20 C49 20 39 20 39 20 C38 16 36 2 35 0 C35 0 109 0 109 0 C109 0 276 0 276 0 C276 0 491 0 491 0 C491 0 611 0 611 0 C625 41 637 83 651 123 C651 123 631 123 631 123 C631 123 627 113 627 113 C611 62 595 36 503 36 C503 36 363 36 363 36 C294 36 286 47 289 69 C289 69 283 36 283 36 C283 36 276 0 276 0 C276 0 344 385 344 385 C344 385 474 385 474 385 C572 385 570 350 557 287 C557 287 577 287 577 287 C583 320 588 352 594 385 C594 385 594 385 594 385 C594 385 601 425 601 425 C601 425 601 425 601 425 C606 458 612 490 619 523 C619 523 599 523 599 523 C586 458 580 425 481 425 C481 425 351 425 351 425 C351 425 394 665 394 665 C394 665 394 665 394 665 C394 667 395 669 395 671 C395 671 403 714 403 714 C403 714 595 714 595 714 C706 714 692 688 686 636 C686 636 686 627 686 627 C686 627 706 627 706 627 L706 627 Z M515 953 C515 953 669 1047 669 1047 C669 1047 686 1030 686 1030 C686 1030 553 865 553 865 C539 847 510 811 491 811 C471 811 455 846 447 864 C447 864 372 1030 372 1030 C372 1030 395 1047 395 1047 C395 1047 515 953 515 953 L515 953 Z M289 69 C289 72 290 76 291 80 C291 80 289 69 289 69 L289 69 Z " />
<glyph glyph-name="ecaron" unicode="&#x11b;" horiz-adv-x="535" d="M413 703 C413 703 566 797 566 797 C566 797 584 780 584 780 C584 780 451 615 451 615 C436 597 407 561 388 561 C369 561 353 596 345 614 C345 614 269 780 269 780 C269 780 293 797 293 797 C293 797 413 703 413 703 L413 703 Z M244 340 C244 340 400 340 400 340 C400 340 566 340 566 340 C566 476 503 510 379 510 C202 510 96 414 63 225 C35 69 102 -10 263 -10 C380 -10 465 37 515 130 C515 130 498 137 498 137 C481 105 420 89 317 89 C238 89 209 155 232 286 C236 305 240 323 244 340 L244 340 Z M495 383 C506 384 519 384 532 384 C532 384 495 383 495 383 L495 383 Z M399 380 C399 380 256 375 256 375 C281 442 317 476 364 476 C385 476 397 455 399 380 C399 380 399 380 399 380 L399 380 Z " />
<glyph glyph-name="Gcircumflex" unicode="&#x11c;" horiz-adv-x="856" d="M852 533 C857 564 863 594 868 625 C868 625 874 656 885 717 C885 717 870 717 870 717 C869 717 867 710 861 696 C858 689 838 694 800 718 C761 746 703 760 595 760 C309 760 142 631 97 375 C52 119 175 -10 464 -10 C503 -10 537 -9 567 -7 C567 -7 568 -7 568 -7 C568 -7 568 -7 568 -7 C568 -7 568 -7 568 -7 C568 -7 568 -7 568 -7 C568 -7 571 -6 571 -6 C674 2 739 23 818 57 C818 57 811 81 811 81 C789 71 767 63 743 56 C743 56 777 245 777 245 C787 301 804 305 836 305 C836 305 847 305 847 305 C847 305 850 325 851 325 C851 325 553 325 553 325 C553 325 550 305 549 305 C549 305 560 305 560 305 C600 305 619 301 609 245 C609 245 574 33 574 33 C574 33 574 33 574 33 C574 33 598 178 598 178 C581 80 543 31 486 31 C310 31 241 146 281 375 C321 603 430 718 605 718 C637 718 662 715 683 709 C683 709 682 709 682 709 C691 707 699 704 707 701 C751 681 776 645 811 593 C811 593 818 598 818 598 C827 582 832 564 835 548 C836 538 837 533 837 533 C837 533 852 533 852 533 L852 533 Z M619 897 C619 897 740 803 740 803 C740 803 763 820 763 820 C763 820 688 985 688 985 C680 1003 663 1039 644 1039 C625 1039 597 1004 582 986 C582 986 449 820 449 820 C449 820 466 803 466 803 C466 803 619 897 619 897 L619 897 Z " />
<glyph glyph-name="Gbreve" unicode="&#x11e;" horiz-adv-x="856" d="M483 994 C481 889 523 836 608 836 C694 836 755 888 789 991 C789 991 758 995 758 995 C746 959 702 941 627 941 C552 941 514 960 515 998 C515 998 483 994 483 994 L483 994 Z M852 533 C857 564 863 594 868 625 C868 625 874 656 885 717 C885 717 870 717 870 717 C869 717 867 710 861 696 C858 689 838 694 800 718 C761 746 703 760 595 760 C309 760 142 631 97 375 C52 119 175 -10 464 -10 C503 -10 537 -9 567 -7 C567 -7 568 -7 568 -7 C568 -7 568 -7 568 -7 C568 -7 568 -7 568 -7 C568 -7 568 -7 568 -7 C568 -7 571 -6 571 -6 C674 2 739 23 818 57 C818 57 811 81 811 81 C789 71 767 63 743 56 C743 56 777 245 777 245 C787 301 804 305 836 305 C836 305 847 305 847 305 C847 305 850 325 851 325 C851 325 553 325 553 325 C553 325 550 305 549 305 C549 305 560 305 560 305 C600 305 619 301 609 245 C609 245 574 33 574 33 C574 33 574 33 574 33 C574 33 598 178 598 178 C581 80 543 31 486 31 C310 31 241 146 281 375 C321 603 430 718 605 718 C637 718 662 715 683 709 C683 709 682 709 682 709 C691 707 699 704 707 701 C751 681 776 645 811 593 C811 593 818 598 818 598 C827 582 832 564 835 548 C836 538 837 533 837 533 C837 533 852 533 852 533 L852 533 Z " />
<glyph glyph-name="gbreve" unicode="&#x11f;" horiz-adv-x="520" d="M225 744 C222 639 265 586 350 586 C436 586 497 638 530 741 C530 741 500 745 500 745 C488 709 444 691 369 691 C294 691 256 710 257 748 C257 748 225 744 225 744 L225 744 Z M270 350 C285 433 305 475 330 475 C356 475 361 433 347 350 C332 266 311 223 286 223 C261 223 256 266 270 350 L270 350 Z M154 -33 C156 -33 158 -33 160 -33 C160 -33 276 -33 276 -33 C339 -32 352 -49 346 -83 C333 -158 295 -196 233 -196 C159 -196 129 -151 145 -63 C147 -51 150 -41 154 -33 L154 -33 Z M104 -22 C51 -38 21 -64 15 -99 C-1 -186 67 -230 218 -230 C368 -230 455 -169 477 -48 C496 61 467 116 318 117 C318 117 195 117 195 117 C167 117 155 126 159 145 C164 173 204 188 280 188 C405 188 478 242 497 350 C501 371 501 390 499 407 C515 425 529 433 542 433 C534 433 530 429 528 422 C522 387 543 369 589 369 C630 369 654 393 663 440 C669 477 653 495 615 495 C566 495 524 476 491 439 C471 486 420 510 337 510 C212 510 139 456 120 350 C108 280 127 232 175 208 C110 191 73 155 63 100 C51 37 65 -4 104 -22 L104 -22 Z " />
<glyph glyph-name="Gdotaccent" unicode="&#x120;" horiz-adv-x="856" d="M614 865 C667 865 698 892 708 945 C717 998 695 1025 642 1025 C589 1025 557 998 548 945 C538 892 560 865 614 865 L614 865 Z M852 533 C857 564 863 594 868 625 C868 625 874 656 885 717 C885 717 870 717 870 717 C869 717 867 710 861 696 C858 689 838 694 800 718 C761 746 703 760 595 760 C309 760 142 631 97 375 C52 119 175 -10 464 -10 C503 -10 537 -9 567 -7 C567 -7 568 -7 568 -7 C568 -7 568 -7 568 -7 C568 -7 568 -7 568 -7 C568 -7 568 -7 568 -7 C568 -7 571 -6 571 -6 C674 2 739 23 818 57 C818 57 811 81 811 81 C789 71 767 63 743 56 C743 56 777 245 777 245 C787 301 804 305 836 305 C836 305 847 305 847 305 C847 305 850 325 851 325 C851 325 553 325 553 325 C553 325 550 305 549 305 C549 305 560 305 560 305 C600 305 619 301 609 245 C609 245 574 33 574 33 C574 33 574 33 574 33 C574 33 598 178 598 178 C581 80 543 31 486 31 C310 31 241 146 281 375 C321 603 430 718 605 718 C637 718 662 715 683 709 C683 709 682 709 682 709 C691 707 699 704 707 701 C751 681 776 645 811 593 C811 593 818 598 818 598 C827 582 832 564 835 548 C836 538 837 533 837 533 C837 533 852 533 852 533 L852 533 Z " />
<glyph glyph-name="gdotaccent" unicode="&#x121;" horiz-adv-x="520" d="M355 615 C409 615 440 642 449 695 C459 748 437 775 383 775 C330 775 299 748 289 695 C280 642 302 615 355 615 L355 615 Z M270 350 C285 433 305 475 330 475 C356 475 361 433 347 350 C332 266 311 223 286 223 C261 223 256 266 270 350 L270 350 Z M154 -33 C156 -33 158 -33 160 -33 C160 -33 276 -33 276 -33 C339 -32 352 -49 346 -83 C333 -158 295 -196 233 -196 C159 -196 129 -151 145 -63 C147 -51 150 -41 154 -33 L154 -33 Z M104 -22 C51 -38 21 -64 15 -99 C-1 -186 67 -230 218 -230 C368 -230 455 -169 477 -48 C496 61 467 116 318 117 C318 117 195 117 195 117 C167 117 155 126 159 145 C164 173 204 188 280 188 C405 188 478 242 497 350 C501 371 501 390 499 407 C515 425 529 433 542 433 C534 433 530 429 528 422 C522 387 543 369 589 369 C630 369 654 393 663 440 C669 477 653 495 615 495 C566 495 524 476 491 439 C471 486 420 510 337 510 C212 510 139 456 120 350 C108 280 127 232 175 208 C110 191 73 155 63 100 C51 37 65 -4 104 -22 L104 -22 Z " />
<glyph glyph-name="Hcircumflex" unicode="&#x124;" horiz-adv-x="889" d="M970 750 C970 750 655 750 655 750 C654 740 652 738 652 730 C652 730 662 730 662 730 C704 730 725 726 715 670 C715 670 668 406 668 406 C668 406 384 406 384 406 C384 406 431 670 431 670 C440 726 462 730 504 730 C504 730 515 730 515 730 C516 740 518 742 518 750 C518 750 203 750 203 750 C202 740 200 738 200 730 C200 730 210 730 210 730 C252 730 273 726 263 670 C263 670 159 80 159 80 C149 24 127 20 85 20 C85 20 75 20 75 20 C74 16 72 2 71 0 C71 0 386 0 386 0 C387 4 389 18 390 20 C390 20 379 20 379 20 C337 20 316 24 327 80 C327 80 376 360 376 360 C376 360 660 360 660 360 C660 360 611 80 611 80 C601 24 579 20 537 20 C537 20 526 20 526 20 C526 18 526 8 523 0 C523 0 838 0 838 0 C839 4 841 18 842 20 C842 20 831 20 831 20 C789 20 768 24 778 80 C778 80 882 670 882 670 C892 726 914 730 956 730 C956 730 967 730 967 730 C968 740 970 742 970 750 L970 750 Z M613 897 C613 897 733 803 733 803 C733 803 756 820 756 820 C756 820 681 985 681 985 C673 1003 657 1039 638 1039 C618 1039 590 1004 576 986 C576 986 442 820 442 820 C442 820 459 803 459 803 C459 803 613 897 613 897 L613 897 Z " />
<glyph glyph-name="Itilde" unicode="&#x128;" horiz-adv-x="380" d="M187 870 C192 903 207 919 230 919 C292 919 318 854 381 854 C450 854 495 909 514 1019 C514 1019 488 1019 488 1019 C481 979 463 959 434 959 C372 959 346 1024 283 1024 C220 1024 178 972 160 870 C160 870 187 870 187 870 L187 870 Z M461 750 C461 750 145 750 145 750 C145 750 142 730 142 730 C142 730 152 730 152 730 C194 730 215 726 205 670 C205 670 101 80 101 80 C91 24 69 20 27 20 C27 20 17 20 17 20 C16 16 14 2 13 0 C13 0 328 0 328 0 C329 4 331 18 332 20 C332 20 321 20 321 20 C279 20 258 24 269 80 C269 80 373 670 373 670 C382 726 404 730 446 730 C446 730 457 730 457 730 C457 730 460 750 461 750 L461 750 Z " />
<glyph glyph-name="itilde" unicode="&#x129;" horiz-adv-x="339" d="M145 620 C151 653 166 669 189 669 C251 669 277 604 340 604 C409 604 453 659 473 769 C473 769 447 769 447 769 C440 729 421 709 393 709 C330 709 304 774 242 774 C178 774 137 722 119 620 C119 620 145 620 145 620 L145 620 Z M42 0 C42 0 307 0 307 0 C307 2 310 12 310 20 C310 20 300 20 300 20 C268 20 253 21 255 35 C255 35 317 390 317 390 C317 390 337 500 337 500 C337 500 310 500 310 500 C310 500 120 445 120 445 C120 445 118 435 118 435 C172 438 176 436 167 390 C167 390 105 35 105 35 C103 21 87 20 56 20 C56 20 46 20 46 20 C45 16 43 2 42 0 L42 0 Z " />
<glyph glyph-name="Imacron" unicode="&#x12a;" horiz-adv-x="380" d="M177 884 C177 884 477 884 477 884 C477 884 495 988 495 988 C495 988 195 988 195 988 C195 988 177 884 177 884 L177 884 Z M461 750 C461 750 145 750 145 750 C145 750 142 730 142 730 C142 730 152 730 152 730 C194 730 215 726 205 670 C205 670 101 80 101 80 C91 24 69 20 27 20 C27 20 17 20 17 20 C16 16 14 2 13 0 C13 0 328 0 328 0 C329 4 331 18 332 20 C332 20 321 20 321 20 C279 20 258 24 269 80 C269 80 373 670 373 670 C382 726 404 730 446 730 C446 730 457 730 457 730 C457 730 460 750 461 750 L461 750 Z " />
<glyph glyph-name="imacron" unicode="&#x12b;" horiz-adv-x="339" d="M135 634 C135 634 435 634 435 634 C435 634 454 738 454 738 C454 738 154 738 154 738 C154 738 135 634 135 634 L135 634 Z M42 0 C42 0 307 0 307 0 C307 2 310 12 310 20 C310 20 300 20 300 20 C268 20 253 21 255 35 C255 35 317 390 317 390 C317 390 337 500 337 500 C337 500 310 500 310 500 C310 500 120 445 120 445 C120 445 118 435 118 435 C172 438 176 436 167 390 C167 390 105 35 105 35 C103 21 87 20 56 20 C56 20 46 20 46 20 C45 16 43 2 42 0 L42 0 Z " />
<glyph glyph-name="Ibreve" unicode="&#x12c;" horiz-adv-x="380" d="M193 994 C191 889 233 836 318 836 C404 836 465 888 498 991 C498 991 468 995 468 995 C456 959 412 941 337 941 C262 941 224 960 225 998 C225 998 193 994 193 994 L193 994 Z M461 750 C461 750 145 750 145 750 C145 750 142 730 142 730 C142 730 152 730 152 730 C194 730 215 726 205 670 C205 670 101 80 101 80 C91 24 69 20 27 20 C27 20 17 20 17 20 C16 16 14 2 13 0 C13 0 328 0 328 0 C329 4 331 18 332 20 C332 20 321 20 321 20 C279 20 258 24 269 80 C269 80 373 670 373 670 C382 726 404 730 446 730 C446 730 457 730 457 730 C457 730 460 750 461 750 L461 750 Z " />
<glyph glyph-name="ibreve" unicode="&#x12d;" horiz-adv-x="339" d="M152 744 C149 639 191 586 277 586 C363 586 423 638 457 741 C457 741 427 745 427 745 C415 709 371 691 295 691 C221 691 183 710 184 748 C184 748 152 744 152 744 L152 744 Z M42 0 C42 0 307 0 307 0 C307 2 310 12 310 20 C310 20 300 20 300 20 C268 20 253 21 255 35 C255 35 317 390 317 390 C317 390 337 500 337 500 C337 500 310 500 310 500 C310 500 120 445 120 445 C120 445 118 435 118 435 C172 438 176 436 167 390 C167 390 105 35 105 35 C103 21 87 20 56 20 C56 20 46 20 46 20 C45 16 43 2 42 0 L42 0 Z " />
<glyph glyph-name="Idotaccent" unicode="&#x130;" horiz-adv-x="380" d="M323 865 C377 865 408 892 417 945 C427 998 405 1025 351 1025 C298 1025 267 998 257 945 C248 892 270 865 323 865 L323 865 Z M461 750 C461 750 145 750 145 750 C145 750 142 730 142 730 C142 730 152 730 152 730 C194 730 215 726 205 670 C205 670 101 80 101 80 C91 24 69 20 27 20 C27 20 17 20 17 20 C16 16 14 2 13 0 C13 0 328 0 328 0 C329 4 331 18 332 20 C332 20 321 20 321 20 C279 20 258 24 269 80 C269 80 373 670 373 670 C382 726 404 730 446 730 C446 730 457 730 457 730 C457 730 460 750 461 750 L461 750 Z " />
<glyph glyph-name="dotlessi" unicode="&#x131;" horiz-adv-x="339" d="M42 0 C42 0 307 0 307 0 C307 2 310 12 310 20 C310 20 300 20 300 20 C268 20 253 21 255 35 C255 35 317 390 317 390 C317 390 337 500 337 500 C337 500 310 500 310 500 C310 500 120 445 120 445 C120 445 118 435 118 435 C172 438 176 436 167 390 C167 390 105 35 105 35 C103 21 87 20 56 20 C56 20 46 20 46 20 C45 16 43 2 42 0 L42 0 Z " />
<glyph glyph-name="Jcircumflex" unicode="&#x134;" horiz-adv-x="380" d="M461 750 C461 750 145 750 145 750 C145 750 142 730 142 730 C142 730 152 730 152 730 C194 730 215 726 205 670 C205 670 62 -136 62 -136 C58 -159 13 -161 -25 -161 C-119 -161 -39 -20 -133 -20 C-186 -20 -217 -47 -226 -99 C-240 -179 -190 -220 -77 -220 C59 -220 221 -192 287 180 C287 180 373 670 373 670 C382 726 404 730 446 730 C446 730 457 730 457 730 C457 730 460 750 461 750 L461 750 Z M329 897 C329 897 449 803 449 803 C449 803 472 820 472 820 C472 820 398 985 398 985 C389 1003 373 1039 354 1039 C334 1039 306 1004 292 986 C292 986 158 820 158 820 C158 820 175 803 175 803 C175 803 329 897 329 897 L329 897 Z " />
<glyph glyph-name="Lacute" unicode="&#x139;" horiz-adv-x="645" d="M323 810 C323 810 491 925 491 925 C532 954 553 970 554 980 C562 1024 538 1054 493 1054 C484 1054 466 1034 434 993 C434 993 308 829 308 829 C308 829 323 810 323 810 L323 810 Z M13 0 C13 0 87 0 87 0 C87 0 254 0 254 0 C254 0 397 0 397 0 C397 0 582 0 582 0 C582 0 589 0 589 0 C589 0 595 29 595 29 C595 29 594 29 594 29 C611 67 627 105 645 142 C641 143 628 144 626 144 C626 144 621 134 621 134 C590 64 563 29 410 29 C410 29 340 29 340 29 C270 29 263 42 267 67 C267 67 254 0 254 0 C254 0 372 665 372 665 C372 665 372 665 372 665 C382 725 404 730 446 730 C446 730 457 730 457 730 C457 730 460 750 461 750 C461 750 387 750 387 750 C387 750 219 750 219 750 C219 750 145 750 145 750 C145 750 142 730 142 730 C142 730 152 730 152 730 C194 730 215 725 204 665 C204 665 204 665 204 665 C204 665 101 82 101 82 C90 25 68 20 27 20 C27 20 17 20 17 20 C16 16 14 2 13 0 C13 0 13 0 13 0 L13 0 Z M267 67 C267 71 268 75 269 80 C269 80 267 67 267 67 L267 67 Z " />
<glyph glyph-name="Lcaron" unicode="&#x13d;" horiz-adv-x="645" d="M13 0 C13 0 87 0 87 0 C87 0 254 0 254 0 C254 0 397 0 397 0 C397 0 582 0 582 0 C582 0 589 0 589 0 C589 0 595 29 595 29 C595 29 594 29 594 29 C611 67 627 105 645 142 C641 143 628 144 626 144 C626 144 621 134 621 134 C590 64 563 29 410 29 C410 29 340 29 340 29 C270 29 263 42 267 67 C267 67 254 0 254 0 C254 0 372 665 372 665 C372 665 372 665 372 665 C382 725 404 730 446 730 C446 730 457 730 457 730 C457 730 460 750 461 750 C461 750 387 750 387 750 C387 750 219 750 219 750 C219 750 145 750 145 750 C145 750 142 730 142 730 C142 730 152 730 152 730 C194 730 215 725 204 665 C204 665 204 665 204 665 C204 665 101 82 101 82 C90 25 68 20 27 20 C27 20 17 20 17 20 C16 16 14 2 13 0 C13 0 13 0 13 0 L13 0 Z M580 680 C608 718 625 753 631 784 C633 802 612 806 567 806 C534 806 516 748 506 697 C506 697 482 584 482 584 C482 584 507 579 507 579 C507 579 580 680 580 680 L580 680 Z M267 67 C267 71 268 75 269 80 C269 80 267 67 267 67 L267 67 Z " />
<glyph glyph-name="lcaron" unicode="&#x13e;" horiz-adv-x="319" d="M139 677 C139 677 150 681 150 681 C183 690 199 689 189 623 C189 623 85 35 85 35 C83 21 67 20 37 20 C37 20 26 20 26 20 C28 20 23 0 23 0 C23 0 285 0 285 0 C286 4 288 18 289 20 C289 20 278 20 278 20 C248 20 233 21 235 35 C235 35 344 650 344 650 C360 743 361 750 361 750 C361 750 335 750 335 750 C335 750 142 697 142 697 C142 697 139 677 139 677 L139 677 Z M466 630 C493 668 510 703 516 734 C519 752 497 756 453 756 C419 756 401 698 391 647 C391 647 367 534 367 534 C367 534 392 529 392 529 C392 529 466 630 466 630 L466 630 Z " />
<glyph glyph-name="Nacute" unicode="&#x143;" horiz-adv-x="776" d="M435 810 C435 810 602 925 602 925 C643 954 664 970 666 980 C674 1024 649 1054 604 1054 C596 1054 578 1034 546 993 C546 993 419 829 419 829 C419 829 435 810 435 810 L435 810 Z M88 730 C88 730 114 730 114 730 C127 730 135 728 156 695 C156 695 156 695 156 695 C156 695 220 597 220 597 C220 597 137 133 137 133 C116 28 93 20 52 20 C52 20 29 20 29 20 C28 16 26 2 25 0 C25 0 113 0 113 0 C113 0 163 0 163 0 C163 0 251 0 251 0 C252 4 254 18 255 20 C255 20 232 20 232 20 C188 20 167 28 187 140 C187 140 187 140 187 140 C187 140 254 543 254 543 C254 543 451 238 451 238 C451 238 605 0 605 0 C605 0 639 0 639 0 C639 0 760 630 760 630 C760 630 760 630 760 630 C760 631 760 632 760 632 C760 632 763 645 763 645 C779 724 807 730 855 730 C855 730 866 730 866 730 C866 730 869 750 869 750 C869 750 783 750 783 750 C783 750 733 750 733 750 C733 750 646 750 646 750 C646 750 643 730 642 730 C642 730 653 730 653 730 C700 730 725 724 716 651 C716 651 651 268 651 268 C651 268 601 341 601 341 C601 341 328 750 328 750 C328 750 289 750 289 750 C289 750 247 750 247 750 C247 750 121 750 121 750 C121 750 91 750 91 750 C91 750 88 730 88 730 L88 730 Z " />
<glyph glyph-name="Ncaron" unicode="&#x147;" horiz-adv-x="776" d="M88 730 C88 730 114 730 114 730 C127 730 135 728 156 695 C156 695 156 695 156 695 C156 695 220 597 220 597 C220 597 137 133 137 133 C116 28 93 20 52 20 C52 20 29 20 29 20 C28 16 26 2 25 0 C25 0 113 0 113 0 C113 0 163 0 163 0 C163 0 251 0 251 0 C252 4 254 18 255 20 C255 20 232 20 232 20 C188 20 167 28 187 140 C187 140 187 140 187 140 C187 140 254 543 254 543 C254 543 451 238 451 238 C451 238 605 0 605 0 C605 0 639 0 639 0 C639 0 760 630 760 630 C760 630 760 630 760 630 C760 631 760 632 760 632 C760 632 763 645 763 645 C779 724 807 730 855 730 C855 730 866 730 866 730 C866 730 869 750 869 750 C869 750 783 750 783 750 C783 750 733 750 733 750 C733 750 646 750 646 750 C646 750 643 730 642 730 C642 730 653 730 653 730 C700 730 725 724 716 651 C716 651 651 268 651 268 C651 268 601 341 601 341 C601 341 328 750 328 750 C328 750 289 750 289 750 C289 750 247 750 247 750 C247 750 121 750 121 750 C121 750 91 750 91 750 C91 750 88 730 88 730 L88 730 Z M550 953 C550 953 704 1047 704 1047 C704 1047 721 1030 721 1030 C721 1030 588 865 588 865 C573 847 544 811 525 811 C506 811 490 846 482 864 C482 864 407 1030 407 1030 C407 1030 430 1047 430 1047 C430 1047 550 953 550 953 L550 953 Z " />
<glyph glyph-name="ncaron" unicode="&#x148;" horiz-adv-x="635" d="M86 413 C86 413 98 417 98 417 C132 429 149 429 136 358 C136 358 79 35 79 35 C77 21 61 20 31 20 C31 20 20 20 20 20 C22 20 17 0 17 0 C17 0 279 0 279 0 C280 4 282 18 283 20 C283 20 272 20 272 20 C242 20 227 21 229 35 C229 35 286 358 286 358 C308 386 340 400 382 400 C443 400 457 355 441 265 C441 265 401 35 401 35 C399 21 383 20 353 20 C353 20 342 20 342 20 C341 16 339 2 338 0 C338 0 601 0 601 0 C601 2 604 12 604 20 C604 20 594 20 594 20 C564 20 549 21 551 35 C551 35 591 265 591 265 C620 428 596 510 490 510 C414 510 348 473 294 401 C310 493 311 500 311 500 C311 500 285 500 285 500 C285 500 90 433 90 433 C89 429 86 415 86 413 C86 413 86 413 86 413 L86 413 Z M433 703 C433 703 586 797 586 797 C586 797 604 780 604 780 C604 780 470 615 470 615 C456 597 427 561 408 561 C389 561 373 596 364 614 C364 614 289 780 289 780 C289 780 313 797 313 797 C313 797 433 703 433 703 L433 703 Z " />
<glyph glyph-name="Omacron" unicode="&#x14c;" horiz-adv-x="933" d="M455 884 C455 884 755 884 755 884 C755 884 773 988 773 988 C773 988 473 988 473 988 C473 988 455 884 455 884 L455 884 Z M454 35 C303 35 247 149 287 375 C327 601 421 715 567 715 C731 715 793 601 753 375 C713 149 613 35 454 35 L454 35 Z M95 375 C50 119 165 -10 437 -10 C730 -10 900 119 945 375 C990 631 869 760 583 760 C304 760 140 631 95 375 L95 375 Z " />
<glyph glyph-name="omacron" unicode="&#x14d;" horiz-adv-x="609" d="M255 634 C255 634 555 634 555 634 C555 634 573 738 573 738 C573 738 273 738 273 738 C273 738 255 634 255 634 L255 634 Z M300 35 C230 35 207 107 232 250 C257 393 305 465 375 465 C445 465 467 393 442 250 C417 107 369 35 300 35 L300 35 Z M67 250 C36 77 112 -10 292 -10 C471 -10 578 77 608 250 C639 423 563 510 383 510 C204 510 97 423 67 250 L67 250 Z " />
<glyph glyph-name="Obreve" unicode="&#x14e;" horiz-adv-x="933" d="M471 994 C469 889 511 836 596 836 C682 836 743 888 777 991 C777 991 746 995 746 995 C734 959 690 941 615 941 C540 941 502 960 503 998 C503 998 471 994 471 994 L471 994 Z M454 35 C303 35 247 149 287 375 C327 601 421 715 567 715 C731 715 793 601 753 375 C713 149 613 35 454 35 L454 35 Z M95 375 C50 119 165 -10 437 -10 C730 -10 900 119 945 375 C990 631 869 760 583 760 C304 760 140 631 95 375 L95 375 Z " />
<glyph glyph-name="obreve" unicode="&#x14f;" horiz-adv-x="609" d="M271 744 C269 639 311 586 397 586 C482 586 543 638 577 741 C577 741 546 745 546 745 C535 709 491 691 415 691 C340 691 302 710 304 748 C304 748 271 744 271 744 L271 744 Z M300 35 C230 35 207 107 232 250 C257 393 305 465 375 465 C445 465 467 393 442 250 C417 107 369 35 300 35 L300 35 Z M67 250 C36 77 112 -10 292 -10 C471 -10 578 77 608 250 C639 423 563 510 383 510 C204 510 97 423 67 250 L67 250 Z " />
<glyph glyph-name="Racute" unicode="&#x154;" horiz-adv-x="826" d="M445 810 C445 810 612 925 612 925 C653 954 674 970 676 980 C684 1024 659 1054 614 1054 C606 1054 588 1034 556 993 C556 993 429 829 429 829 C429 829 445 810 445 810 L445 810 Z M164 730 C164 730 174 730 174 730 C216 730 237 725 226 665 C226 665 124 85 124 85 C113 25 91 20 49 20 C49 20 39 20 39 20 C38 16 36 2 35 0 C35 0 350 0 350 0 C351 4 353 18 354 20 C354 20 343 20 343 20 C301 20 280 25 291 85 C291 85 337 344 337 344 C337 344 336 338 336 338 C336 338 378 338 378 338 C396 299 446 213 527 80 C579 -5 561 0 816 0 C816 0 822 34 822 34 C748 34 754 31 723 80 C641 214 585 305 556 352 C671 374 737 429 755 535 C780 678 681 750 458 750 C458 750 409 750 409 750 C409 750 403 716 403 716 C535 716 593 666 576 567 C551 424 493 380 393 380 C393 380 343 380 343 380 C343 380 394 665 394 665 C407 744 408 750 409 750 C409 750 167 750 167 750 C166 740 164 738 164 730 C164 730 164 730 164 730 L164 730 Z " />
<glyph glyph-name="Rcaron" unicode="&#x158;" horiz-adv-x="826" d="M164 730 C164 730 174 730 174 730 C216 730 237 725 226 665 C226 665 124 85 124 85 C113 25 91 20 49 20 C49 20 39 20 39 20 C38 16 36 2 35 0 C35 0 350 0 350 0 C351 4 353 18 354 20 C354 20 343 20 343 20 C301 20 280 25 291 85 C291 85 337 344 337 344 C337 344 336 338 336 338 C336 338 378 338 378 338 C396 299 446 213 527 80 C579 -5 561 0 816 0 C816 0 822 34 822 34 C748 34 754 31 723 80 C641 214 585 305 556 352 C671 374 737 429 755 535 C780 678 681 750 458 750 C458 750 409 750 409 750 C409 750 403 716 403 716 C535 716 593 666 576 567 C551 424 493 380 393 380 C393 380 343 380 343 380 C343 380 394 665 394 665 C407 744 408 750 409 750 C409 750 167 750 167 750 C166 740 164 738 164 730 C164 730 164 730 164 730 L164 730 Z M460 953 C460 953 614 1047 614 1047 C614 1047 631 1030 631 1030 C631 1030 498 865 498 865 C483 847 454 811 435 811 C416 811 400 846 392 864 C392 864 317 1030 317 1030 C317 1030 340 1047 340 1047 C340 1047 460 953 460 953 L460 953 Z " />
<glyph glyph-name="rcaron" unicode="&#x159;" horiz-adv-x="536" d="M92 413 C92 413 104 417 104 417 C138 429 155 429 142 358 C142 358 85 35 85 35 C83 21 68 20 41 20 C41 20 30 20 30 20 C29 16 27 2 26 0 C26 0 289 0 289 0 C289 2 292 12 292 20 C292 20 282 20 282 20 C249 20 233 21 235 35 C235 35 290 344 290 344 C323 408 354 440 382 440 C412 440 426 428 421 405 C411 347 436 317 494 317 C553 317 588 347 598 405 C611 475 566 510 464 510 C394 510 339 480 304 421 C316 494 317 500 317 500 C317 500 291 500 291 500 C291 500 96 433 96 433 C95 429 92 415 92 413 C92 413 92 413 92 413 L92 413 Z M413 703 C413 703 567 797 567 797 C567 797 584 780 584 780 C584 780 451 615 451 615 C437 597 408 561 388 561 C369 561 353 596 345 614 C345 614 270 780 270 780 C270 780 293 797 293 797 C293 797 413 703 413 703 L413 703 Z " />
<glyph glyph-name="Sacute" unicode="&#x15a;" horiz-adv-x="559" d="M426 810 C426 810 593 925 593 925 C634 954 655 970 657 980 C665 1024 640 1054 595 1054 C587 1054 569 1034 537 993 C537 993 410 829 410 829 C410 829 426 810 426 810 L426 810 Z M584 563 C588 590 593 618 598 645 C598 645 613 726 613 726 C613 726 598 726 598 726 C597 726 594 719 589 706 C587 701 572 705 547 722 C514 747 468 760 408 760 C260 760 172 686 147 540 C124 414 156 333 273 288 C384 245 422 209 415 169 C400 86 355 44 280 44 C200 44 147 85 123 167 C123 167 116 164 116 164 C108 185 103 206 100 227 C100 227 85 227 85 227 C77 185 73 158 71 144 C71 144 70 144 70 144 C70 144 70 143 70 143 C69 138 69 135 69 135 C63 104 58 73 52 42 C52 42 67 42 67 42 C67 42 71 51 77 68 C79 73 99 64 135 35 C170 5 215 -10 271 -10 C435 -10 531 66 558 217 C578 333 539 410 404 462 C308 499 278 544 289 604 C302 680 339 718 400 718 C458 718 504 692 532 656 C538 646 543 635 546 623 C546 623 551 625 551 625 C559 610 564 594 566 578 C568 568 568 563 569 563 C569 563 584 563 584 563 L584 563 Z " />
<glyph glyph-name="Scircumflex" unicode="&#x15c;" horiz-adv-x="559" d="M584 563 C588 590 593 618 598 645 C598 645 613 726 613 726 C613 726 598 726 598 726 C597 726 594 719 589 706 C587 701 572 705 547 722 C514 747 468 760 408 760 C260 760 172 686 147 540 C124 414 156 333 273 288 C384 245 422 209 415 169 C400 86 355 44 280 44 C200 44 147 85 123 167 C123 167 116 164 116 164 C108 185 103 206 100 227 C100 227 85 227 85 227 C77 185 73 158 71 144 C71 144 70 144 70 144 C70 144 70 143 70 143 C69 138 69 135 69 135 C63 104 58 73 52 42 C52 42 67 42 67 42 C67 42 71 51 77 68 C79 73 99 64 135 35 C170 5 215 -10 271 -10 C435 -10 531 66 558 217 C578 333 539 410 404 462 C308 499 278 544 289 604 C302 680 339 718 400 718 C458 718 504 692 532 656 C538 646 543 635 546 623 C546 623 551 625 551 625 C559 610 564 594 566 578 C568 568 568 563 569 563 C569 563 584 563 584 563 L584 563 Z M431 897 C431 897 552 803 552 803 C552 803 575 820 575 820 C575 820 500 985 500 985 C492 1003 475 1039 457 1039 C437 1039 409 1004 394 986 C394 986 261 820 261 820 C261 820 278 803 278 803 C278 803 431 897 431 897 L431 897 Z " />
<glyph glyph-name="Scaron" unicode="&#x160;" horiz-adv-x="559" d="M584 563 C588 590 593 618 598 645 C598 645 613 726 613 726 C613 726 598 726 598 726 C597 726 594 719 589 706 C587 701 572 705 547 722 C514 747 468 760 408 760 C260 760 172 686 147 540 C124 414 156 333 273 288 C384 245 422 209 415 169 C400 86 355 44 280 44 C200 44 147 85 123 167 C123 167 116 164 116 164 C108 185 103 206 100 227 C100 227 85 227 85 227 C77 185 73 158 71 144 C71 144 70 144 70 144 C70 144 70 143 70 143 C69 138 69 135 69 135 C63 104 58 73 52 42 C52 42 67 42 67 42 C67 42 71 51 77 68 C79 73 99 64 135 35 C170 5 215 -10 271 -10 C435 -10 531 66 558 217 C578 333 539 410 404 462 C308 499 278 544 289 604 C302 680 339 718 400 718 C458 718 504 692 532 656 C538 646 543 635 546 623 C546 623 551 625 551 625 C559 610 564 594 566 578 C568 568 568 563 569 563 C569 563 584 563 584 563 L584 563 Z M441 953 C441 953 595 1047 595 1047 C595 1047 612 1030 612 1030 C612 1030 479 865 479 865 C464 847 435 811 416 811 C397 811 381 846 373 864 C373 864 298 1030 298 1030 C298 1030 321 1047 321 1047 C321 1047 441 953 441 953 L441 953 Z " />
<glyph glyph-name="scaron" unicode="&#x161;" horiz-adv-x="448" d="M421 363 C421 363 441 363 441 363 C445 388 450 412 454 436 C454 436 458 460 467 509 C467 509 447 509 447 509 C445 502 444 495 443 488 C442 483 426 485 395 497 C376 505 352 510 324 510 C207 510 139 461 122 363 C106 271 128 216 211 193 C284 172 307 144 300 104 C291 52 262 25 214 25 C172 25 143 54 126 110 C126 110 112 104 112 104 C110 117 110 130 112 144 C113 148 114 152 114 156 C114 156 94 156 94 156 C87 115 84 94 84 94 C84 93 84 92 83 91 C83 91 83 91 83 91 C83 91 83 90 83 90 C80 71 76 52 73 32 C73 32 93 32 93 32 C93 37 94 42 95 47 C93 34 113 14 158 -1 C172 -7 189 -10 208 -10 C333 -10 406 43 424 147 C438 226 405 277 297 307 C243 322 228 357 238 415 C245 455 272 475 318 475 C366 475 396 453 409 409 C409 409 421 414 421 414 C426 399 425 381 421 363 C421 363 421 363 421 363 L421 363 Z M333 703 C333 703 487 797 487 797 C487 797 504 780 504 780 C504 780 371 615 371 615 C357 597 328 561 309 561 C289 561 273 596 265 614 C265 614 190 780 190 780 C190 780 213 797 213 797 C213 797 333 703 333 703 L333 703 Z " />
<glyph glyph-name="Tcaron" unicode="&#x164;" horiz-adv-x="775" d="M858 636 C854 660 850 684 845 708 C845 708 845 708 845 708 C845 708 852 750 852 750 C852 750 837 750 837 750 C834 763 832 776 830 789 C830 789 826 789 820 790 C820 790 809 790 809 790 C816 759 818 750 717 750 C717 750 604 750 604 750 C604 750 436 750 436 750 C436 750 322 750 322 750 C229 750 228 760 239 781 C239 781 244 790 244 790 C244 790 234 790 234 790 C227 789 224 789 224 789 C217 776 210 763 203 750 C203 750 187 750 187 750 C187 750 180 708 180 708 C180 708 180 708 180 708 C167 684 154 660 141 636 C145 635 158 634 160 634 C160 634 166 645 166 645 C188 687 207 708 300 708 C300 708 429 708 429 708 C429 708 318 80 318 80 C308 24 286 20 244 20 C244 20 233 20 233 20 C233 18 233 8 230 0 C230 0 545 0 545 0 C546 4 548 18 549 20 C549 20 538 20 538 20 C496 20 475 24 485 80 C485 80 597 708 597 708 C597 708 725 708 725 708 C818 708 829 687 837 645 C837 645 839 634 839 634 C843 635 856 636 858 636 C858 636 858 636 858 636 L858 636 Z M555 953 C555 953 709 1047 709 1047 C709 1047 726 1030 726 1030 C726 1030 593 865 593 865 C579 847 550 811 530 811 C511 811 495 846 487 864 C487 864 412 1030 412 1030 C412 1030 435 1047 435 1047 C435 1047 555 953 555 953 L555 953 Z " />
<glyph glyph-name="tcaron" unicode="&#x165;" horiz-adv-x="450" d="M484 500 C484 500 333 500 333 500 C333 500 354 620 354 620 C354 620 344 620 344 620 C344 620 106 431 106 431 C106 431 104 421 104 421 C104 421 169 421 169 421 C169 421 133 217 133 217 C101 36 151 -10 266 -10 C381 -10 449 45 468 154 C468 154 448 154 448 154 C437 92 396 61 325 61 C275 61 255 86 274 184 C289 263 304 342 319 421 C319 421 470 421 470 421 C470 421 484 500 484 500 L484 500 Z M647 630 C675 668 692 703 697 734 C701 752 679 756 634 756 C600 756 582 698 572 647 C572 647 548 534 548 534 C548 534 573 529 573 529 C573 529 647 630 647 630 L647 630 Z " />
<glyph glyph-name="Utilde" unicode="&#x168;" horiz-adv-x="822" d="M416 870 C422 903 437 919 460 919 C522 919 548 854 611 854 C680 854 724 909 744 1019 C744 1019 718 1019 718 1019 C711 979 692 959 664 959 C601 959 575 1024 513 1024 C450 1024 408 972 390 870 C390 870 416 870 416 870 L416 870 Z M614 730 C614 730 625 730 625 730 C667 730 687 725 677 665 C677 665 591 179 591 179 C591 179 597 213 597 213 C548 136 484 98 406 98 C308 98 266 139 280 220 C280 220 359 665 359 665 C372 744 373 750 374 750 C374 750 132 750 132 750 C131 740 129 738 129 730 C129 730 139 730 139 730 C181 730 202 725 191 665 C191 665 113 220 113 220 C86 67 155 -10 319 -10 C432 -10 521 39 584 137 C584 137 579 110 579 110 C579 110 559 0 559 0 C559 0 586 0 586 0 C586 0 810 55 810 55 C810 55 812 65 812 65 C743 61 738 63 747 110 C747 110 844 665 844 665 C858 744 859 750 859 750 C859 750 618 750 618 750 C618 750 615 730 614 730 L614 730 Z " />
<glyph glyph-name="utilde" unicode="&#x169;" horiz-adv-x="614" d="M265 620 C271 653 285 669 308 669 C370 669 396 604 459 604 C528 604 573 659 592 769 C592 769 566 769 566 769 C559 729 541 709 512 709 C450 709 424 774 361 774 C298 774 256 722 238 620 C238 620 265 620 265 620 L265 620 Z M598 56 C598 56 587 53 587 53 C556 46 540 46 547 102 C547 102 611 465 611 465 C617 498 617 500 617 500 C617 500 420 500 420 500 C420 500 417 480 417 480 C417 480 427 480 427 480 C451 480 463 479 461 465 C461 465 407 159 407 159 C380 116 343 94 297 94 C248 94 228 116 235 160 C235 160 289 465 289 465 C295 498 295 500 295 500 C295 500 99 500 99 500 C99 500 95 480 95 480 C95 480 106 480 106 480 C130 480 141 479 139 465 C139 465 85 160 85 160 C65 47 107 -10 209 -10 C287 -10 351 33 400 116 C400 116 395 90 395 90 C378 -3 377 -10 377 -10 C377 -10 403 -10 403 -10 C403 -10 595 36 595 36 C593 36 598 56 598 56 C598 56 598 56 598 56 L598 56 Z " />
<glyph glyph-name="Umacron" unicode="&#x16a;" horiz-adv-x="822" d="M406 884 C406 884 706 884 706 884 C706 884 725 988 725 988 C725 988 425 988 425 988 C425 988 406 884 406 884 L406 884 Z M614 730 C614 730 625 730 625 730 C667 730 687 725 677 665 C677 665 591 179 591 179 C591 179 597 213 597 213 C548 136 484 98 406 98 C308 98 266 139 280 220 C280 220 359 665 359 665 C372 744 373 750 374 750 C374 750 132 750 132 750 C131 740 129 738 129 730 C129 730 139 730 139 730 C181 730 202 725 191 665 C191 665 113 220 113 220 C86 67 155 -10 319 -10 C432 -10 521 39 584 137 C584 137 579 110 579 110 C579 110 559 0 559 0 C559 0 586 0 586 0 C586 0 810 55 810 55 C810 55 812 65 812 65 C743 61 738 63 747 110 C747 110 844 665 844 665 C858 744 859 750 859 750 C859 750 618 750 618 750 C618 750 615 730 614 730 L614 730 Z " />
<glyph glyph-name="umacron" unicode="&#x16b;" horiz-adv-x="614" d="M255 634 C255 634 555 634 555 634 C555 634 573 738 573 738 C573 738 273 738 273 738 C273 738 255 634 255 634 L255 634 Z M598 56 C598 56 587 53 587 53 C556 46 540 46 547 102 C547 102 611 465 611 465 C617 498 617 500 617 500 C617 500 420 500 420 500 C420 500 417 480 417 480 C417 480 427 480 427 480 C451 480 463 479 461 465 C461 465 407 159 407 159 C380 116 343 94 297 94 C248 94 228 116 235 160 C235 160 289 465 289 465 C295 498 295 500 295 500 C295 500 99 500 99 500 C99 500 95 480 95 480 C95 480 106 480 106 480 C130 480 141 479 139 465 C139 465 85 160 85 160 C65 47 107 -10 209 -10 C287 -10 351 33 400 116 C400 116 395 90 395 90 C378 -3 377 -10 377 -10 C377 -10 403 -10 403 -10 C403 -10 595 36 595 36 C593 36 598 56 598 56 C598 56 598 56 598 56 L598 56 Z " />
<glyph glyph-name="Ubreve" unicode="&#x16c;" horiz-adv-x="822" d="M423 994 C420 889 463 836 548 836 C634 836 694 888 728 991 C728 991 698 995 698 995 C686 959 642 941 566 941 C492 941 454 960 455 998 C455 998 423 994 423 994 L423 994 Z M614 730 C614 730 625 730 625 730 C667 730 687 725 677 665 C677 665 591 179 591 179 C591 179 597 213 597 213 C548 136 484 98 406 98 C308 98 266 139 280 220 C280 220 359 665 359 665 C372 744 373 750 374 750 C374 750 132 750 132 750 C131 740 129 738 129 730 C129 730 139 730 139 730 C181 730 202 725 191 665 C191 665 113 220 113 220 C86 67 155 -10 319 -10 C432 -10 521 39 584 137 C584 137 579 110 579 110 C579 110 559 0 559 0 C559 0 586 0 586 0 C586 0 810 55 810 55 C810 55 812 65 812 65 C743 61 738 63 747 110 C747 110 844 665 844 665 C858 744 859 750 859 750 C859 750 618 750 618 750 C618 750 615 730 614 730 L614 730 Z " />
<glyph glyph-name="ubreve" unicode="&#x16d;" horiz-adv-x="614" d="M271 744 C269 639 311 586 396 586 C482 586 543 638 577 741 C577 741 546 745 546 745 C534 709 490 691 415 691 C340 691 302 710 303 748 C303 748 271 744 271 744 L271 744 Z M598 56 C598 56 587 53 587 53 C556 46 540 46 547 102 C547 102 611 465 611 465 C617 498 617 500 617 500 C617 500 420 500 420 500 C420 500 417 480 417 480 C417 480 427 480 427 480 C451 480 463 479 461 465 C461 465 407 159 407 159 C380 116 343 94 297 94 C248 94 228 116 235 160 C235 160 289 465 289 465 C295 498 295 500 295 500 C295 500 99 500 99 500 C99 500 95 480 95 480 C95 480 106 480 106 480 C130 480 141 479 139 465 C139 465 85 160 85 160 C65 47 107 -10 209 -10 C287 -10 351 33 400 116 C400 116 395 90 395 90 C378 -3 377 -10 377 -10 C377 -10 403 -10 403 -10 C403 -10 595 36 595 36 C593 36 598 56 598 56 C598 56 598 56 598 56 L598 56 Z " />
<glyph glyph-name="Uring" unicode="&#x16e;" horiz-adv-x="822" d="M549 845 C516 845 498 869 505 905 C512 945 534 965 571 965 C607 965 623 945 615 905 C609 869 583 845 549 845 L549 845 Z M461 905 C451 848 484 810 543 810 C603 810 650 848 659 905 C671 968 643 1000 577 1000 C511 1000 472 968 461 905 L461 905 Z M614 730 C614 730 625 730 625 730 C667 730 687 725 677 665 C677 665 591 179 591 179 C591 179 597 213 597 213 C548 136 484 98 406 98 C308 98 266 139 280 220 C280 220 359 665 359 665 C372 744 373 750 374 750 C374 750 132 750 132 750 C131 740 129 738 129 730 C129 730 139 730 139 730 C181 730 202 725 191 665 C191 665 113 220 113 220 C86 67 155 -10 319 -10 C432 -10 521 39 584 137 C584 137 579 110 579 110 C579 110 559 0 559 0 C559 0 586 0 586 0 C586 0 810 55 810 55 C810 55 812 65 812 65 C743 61 738 63 747 110 C747 110 844 665 844 665 C858 744 859 750 859 750 C859 750 618 750 618 750 C618 750 615 730 614 730 L614 730 Z " />
<glyph glyph-name="uring" unicode="&#x16f;" horiz-adv-x="614" d="M398 595 C365 595 347 619 353 655 C360 695 382 715 419 715 C456 715 471 695 464 655 C457 619 431 595 398 595 L398 595 Z M309 655 C299 598 333 560 392 560 C451 560 498 598 508 655 C519 718 491 750 425 750 C359 750 320 718 309 655 L309 655 Z M598 56 C598 56 587 53 587 53 C556 46 540 46 547 102 C547 102 611 465 611 465 C617 498 617 500 617 500 C617 500 420 500 420 500 C420 500 417 480 417 480 C417 480 427 480 427 480 C451 480 463 479 461 465 C461 465 407 159 407 159 C380 116 343 94 297 94 C248 94 228 116 235 160 C235 160 289 465 289 465 C295 498 295 500 295 500 C295 500 99 500 99 500 C99 500 95 480 95 480 C95 480 106 480 106 480 C130 480 141 479 139 465 C139 465 85 160 85 160 C65 47 107 -10 209 -10 C287 -10 351 33 400 116 C400 116 395 90 395 90 C378 -3 377 -10 377 -10 C377 -10 403 -10 403 -10 C403 -10 595 36 595 36 C593 36 598 56 598 56 C598 56 598 56 598 56 L598 56 Z " />
<glyph glyph-name="Wcircumflex" unicode="&#x174;" horiz-adv-x="1148" d="M1256 750 C1256 750 1195 750 1195 750 C1195 750 1126 750 1126 750 C1126 750 1010 750 1010 750 C1009 740 1007 738 1007 730 C1007 730 1028 730 1028 730 C1087 730 1114 722 1065 610 C1065 610 1065 610 1065 610 C1065 610 907 244 907 244 C907 244 775 646 775 646 C751 724 773 730 819 730 C819 730 840 730 840 730 C840 730 843 750 843 750 C843 750 741 750 741 750 C741 750 547 750 547 750 C547 750 490 750 490 750 C490 750 487 730 487 730 C487 730 511 730 511 730 C537 730 553 727 564 698 C586 632 608 566 630 500 C630 500 629 500 629 500 C629 500 496 211 496 211 C496 211 496 212 496 212 C496 212 389 610 389 610 C389 610 389 610 389 610 C388 613 387 617 386 620 C386 620 380 641 380 641 C360 724 383 730 429 730 C429 730 450 730 450 730 C450 730 453 750 453 750 C453 750 351 750 351 750 C351 750 167 750 167 750 C167 750 131 750 131 750 C130 750 127 730 127 730 C127 730 153 730 153 730 C165 730 174 723 204 626 C268 414 331 202 394 -10 C394 -10 438 -10 438 -10 C438 -10 653 429 653 429 C701 283 749 137 797 -10 C797 -10 841 -10 841 -10 C841 -10 1130 610 1130 610 C1130 610 1130 610 1130 610 C1131 612 1132 614 1133 616 C1133 616 1156 665 1156 665 C1186 725 1203 730 1228 730 C1228 730 1252 730 1252 730 C1253 730 1256 750 1256 750 C1256 750 1256 750 1256 750 L1256 750 Z M707 897 C707 897 827 803 827 803 C827 803 850 820 850 820 C850 820 775 985 775 985 C767 1003 751 1039 732 1039 C712 1039 684 1004 670 986 C670 986 536 820 536 820 C536 820 553 803 553 803 C553 803 707 897 707 897 L707 897 Z " />
<glyph glyph-name="Ycircumflex" unicode="&#x176;" horiz-adv-x="809" d="M430 750 C430 750 356 750 356 750 C356 750 158 750 158 750 C158 750 127 750 127 750 C126 750 123 730 123 730 C123 730 149 730 149 730 C160 730 170 724 208 654 C208 654 387 309 387 309 C387 309 346 80 346 80 C336 24 314 20 273 20 C273 20 262 20 262 20 C261 16 259 2 258 0 C258 0 574 0 574 0 C574 0 577 20 577 20 C577 20 567 20 567 20 C525 20 504 24 514 80 C514 80 556 315 556 315 C556 315 770 610 770 610 C770 610 770 610 770 610 C851 722 869 730 892 730 C892 730 916 730 916 730 C917 730 920 750 920 750 C920 750 871 750 871 750 C871 750 787 750 787 750 C787 750 714 750 714 750 C713 750 710 730 710 730 C710 730 731 730 731 730 C753 730 767 727 755 700 C755 700 546 368 546 368 C546 368 426 610 426 610 C426 610 426 610 426 610 C368 722 378 730 407 730 C407 730 427 730 427 730 C427 730 430 750 430 750 L430 750 Z M574 897 C574 897 695 803 695 803 C695 803 718 820 718 820 C718 820 643 985 643 985 C635 1003 618 1039 599 1039 C580 1039 552 1004 537 986 C537 986 404 820 404 820 C404 820 421 803 421 803 C421 803 574 897 574 897 L574 897 Z " />
<glyph glyph-name="Ydieresis" unicode="&#x178;" horiz-adv-x="809" d="M655 865 C709 865 740 892 749 945 C759 998 737 1025 683 1025 C630 1025 599 998 589 945 C580 892 602 865 655 865 L655 865 Z M482 865 C536 865 567 892 576 945 C586 998 564 1025 510 1025 C457 1025 426 998 416 945 C407 892 429 865 482 865 L482 865 Z M430 750 C430 750 356 750 356 750 C356 750 158 750 158 750 C158 750 127 750 127 750 C126 750 123 730 123 730 C123 730 149 730 149 730 C160 730 170 724 208 654 C208 654 387 309 387 309 C387 309 346 80 346 80 C336 24 314 20 273 20 C273 20 262 20 262 20 C261 16 259 2 258 0 C258 0 574 0 574 0 C574 0 577 20 577 20 C577 20 567 20 567 20 C525 20 504 24 514 80 C514 80 556 315 556 315 C556 315 770 610 770 610 C770 610 770 610 770 610 C851 722 869 730 892 730 C892 730 916 730 916 730 C917 730 920 750 920 750 C920 750 871 750 871 750 C871 750 787 750 787 750 C787 750 714 750 714 750 C713 750 710 730 710 730 C710 730 731 730 731 730 C753 730 767 727 755 700 C755 700 546 368 546 368 C546 368 426 610 426 610 C426 610 426 610 426 610 C368 722 378 730 407 730 C407 730 427 730 427 730 C427 730 430 750 430 750 L430 750 Z " />
<glyph glyph-name="Zacute" unicode="&#x179;" horiz-adv-x="642" d="M493 810 C493 810 660 925 660 925 C701 954 722 970 724 980 C732 1024 707 1054 662 1054 C654 1054 636 1034 604 993 C604 993 477 829 477 829 C477 829 493 810 493 810 L493 810 Z M653 157 C653 157 634 126 634 126 C607 82 585 56 511 50 C511 50 238 41 238 41 C238 41 736 715 736 715 C736 715 742 750 742 750 C742 750 578 750 578 750 C578 750 372 750 372 750 C372 750 202 750 202 750 C186 696 167 642 151 588 C156 587 174 586 176 586 C176 586 185 607 185 607 C212 672 234 705 358 705 C358 705 358 705 358 705 C358 705 547 710 547 710 C547 710 31 35 31 35 C31 35 25 0 25 0 C25 0 207 0 207 0 C207 0 446 0 446 0 C446 0 606 0 606 0 C617 26 628 52 639 77 C639 77 672 155 672 155 C668 156 655 157 653 157 C653 157 653 157 653 157 L653 157 Z " />
<glyph glyph-name="Zdotaccent" unicode="&#x17b;" horiz-adv-x="642" d="M493 865 C546 865 577 892 587 945 C596 998 574 1025 521 1025 C468 1025 436 998 427 945 C417 892 439 865 493 865 L493 865 Z M653 157 C653 157 634 126 634 126 C607 82 585 56 511 50 C511 50 238 41 238 41 C238 41 736 715 736 715 C736 715 742 750 742 750 C742 750 578 750 578 750 C578 750 372 750 372 750 C372 750 202 750 202 750 C186 696 167 642 151 588 C156 587 174 586 176 586 C176 586 185 607 185 607 C212 672 234 705 358 705 C358 705 358 705 358 705 C358 705 547 710 547 710 C547 710 31 35 31 35 C31 35 25 0 25 0 C25 0 207 0 207 0 C207 0 446 0 446 0 C446 0 606 0 606 0 C617 26 628 52 639 77 C639 77 672 155 672 155 C668 156 655 157 653 157 C653 157 653 157 653 157 L653 157 Z " />
<glyph glyph-name="zdotaccent" unicode="&#x17c;" horiz-adv-x="475" d="M373 615 C427 615 458 642 468 695 C477 748 455 775 402 775 C349 775 317 748 308 695 C298 642 320 615 373 615 L373 615 Z M127 384 C127 384 139 384 139 384 C139 384 151 395 151 395 C190 426 216 445 264 452 C264 452 339 456 339 456 C339 456 46 35 46 35 C46 35 40 0 40 0 C40 0 198 0 198 0 C198 0 282 0 282 0 C282 0 430 0 430 0 C442 39 455 78 467 116 C467 116 457 116 457 116 C457 116 443 105 443 105 C404 74 376 55 327 48 C327 48 228 43 228 43 C228 43 517 465 517 465 C517 465 523 500 523 500 C523 500 370 500 370 500 C370 500 223 500 223 500 C212 500 201 506 207 519 C207 519 211 528 211 528 C211 528 191 528 191 528 C169 480 147 432 127 384 L127 384 Z " />
<glyph glyph-name="Zcaron" unicode="&#x17d;" horiz-adv-x="642" d="M653 157 C653 157 634 126 634 126 C607 82 585 56 511 50 C511 50 238 41 238 41 C238 41 736 715 736 715 C736 715 742 750 742 750 C742 750 578 750 578 750 C578 750 372 750 372 750 C372 750 202 750 202 750 C186 696 167 642 151 588 C156 587 174 586 176 586 C176 586 185 607 185 607 C212 672 234 705 358 705 C358 705 358 705 358 705 C358 705 547 710 547 710 C547 710 31 35 31 35 C31 35 25 0 25 0 C25 0 207 0 207 0 C207 0 446 0 446 0 C446 0 606 0 606 0 C617 26 628 52 639 77 C639 77 672 155 672 155 C668 156 655 157 653 157 C653 157 653 157 653 157 L653 157 Z M508 953 C508 953 661 1047 661 1047 C661 1047 679 1030 679 1030 C679 1030 546 865 546 865 C531 847 502 811 483 811 C464 811 448 846 440 864 C440 864 364 1030 364 1030 C364 1030 388 1047 388 1047 C388 1047 508 953 508 953 L508 953 Z " />
<glyph glyph-name="zcaron" unicode="&#x17e;" horiz-adv-x="475" d="M127 384 C127 384 139 384 139 384 C139 384 151 395 151 395 C190 426 216 445 264 452 C264 452 339 456 339 456 C339 456 46 35 46 35 C46 35 40 0 40 0 C40 0 198 0 198 0 C198 0 282 0 282 0 C282 0 430 0 430 0 C442 39 455 78 467 116 C467 116 457 116 457 116 C457 116 443 105 443 105 C404 74 376 55 327 48 C327 48 228 43 228 43 C228 43 517 465 517 465 C517 465 523 500 523 500 C523 500 370 500 370 500 C370 500 223 500 223 500 C212 500 201 506 207 519 C207 519 211 528 211 528 C211 528 191 528 191 528 C169 480 147 432 127 384 L127 384 Z M389 703 C389 703 542 797 542 797 C542 797 560 780 560 780 C560 780 427 615 427 615 C412 597 383 561 364 561 C345 561 329 596 321 614 C321 614 245 780 245 780 C245 780 269 797 269 797 C269 797 389 703 389 703 L389 703 Z " />
<glyph glyph-name="SmallLetterOwithogon" unicode="&#x1eb;" horiz-adv-x="834" d="M1053 -37 C1053 -37 1045 -24 1045 -24 C997 -59 898 -77 751 -77 C631 -77 525 -54 436 -9 C669 2 803 103 836 292 C872 492 762 593 509 593 C263 593 121 492 85 292 C68 196 110 123 171 73 C171 73 171 73 171 73 C394 -110 574 -203 707 -203 C785 -203 902 -147 1053 -37 L1053 -37 Z M407 30 C385 30 357 40 331 61 C328 63 326 66 323 68 C323 68 323 68 323 68 C277 109 239 184 258 292 C289 465 368 553 495 553 C637 553 694 465 663 292 C633 118 547 30 407 30 L407 30 Z " />
<glyph glyph-name="CapitalLetterAwithdo" unicode="&#x226;" horiz-adv-x="809" d="M561 865 C614 865 645 892 655 945 C664 998 642 1025 589 1025 C536 1025 504 998 495 945 C485 892 507 865 561 865 L561 865 Z M463 0 C463 0 558 0 558 0 C558 0 734 0 734 0 C734 0 794 0 794 0 C794 2 797 12 797 20 C797 20 773 20 773 20 C747 20 731 27 715 111 C715 111 615 697 615 697 C615 697 602 770 602 770 C602 770 587 770 587 770 C552 729 505 705 447 697 C447 697 449 686 449 686 C449 686 186 170 186 170 C186 170 186 170 186 170 C118 30 87 20 37 20 C37 20 15 20 15 20 C14 16 12 2 11 0 C11 0 100 0 100 0 C100 0 150 0 150 0 C150 0 266 0 266 0 C266 2 269 12 269 20 C269 20 249 20 249 20 C192 20 166 29 223 151 C223 151 278 265 278 265 C278 265 516 265 516 265 C516 265 539 118 539 118 C551 27 530 20 488 20 C488 20 467 20 467 20 C466 16 464 2 463 0 C463 0 463 0 463 0 L463 0 Z M299 309 C299 309 457 635 457 635 C457 635 509 309 509 309 C509 309 299 309 299 309 L299 309 Z " />
<glyph glyph-name="LETTERSMALLCAPITALG" unicode="&#x262;" horiz-adv-x="766" d="M738 397 C743 427 749 457 754 487 C754 487 759 517 770 577 C770 577 755 577 755 577 C755 577 746 556 746 556 C743 550 719 552 677 571 C677 571 677 571 677 571 C644 586 596 593 516 593 C267 593 123 492 87 292 C52 91 163 -10 418 -10 C444 -10 468 -9 490 -7 C490 -7 495 -11 495 -11 C495 -11 527 -3 527 -3 C568 2 604 11 640 23 C640 23 648 25 648 25 C648 25 648 26 648 26 C674 35 700 46 729 58 C729 58 723 79 723 79 C699 69 676 60 653 53 C653 53 674 173 674 173 C684 229 702 233 734 233 C734 233 745 233 745 233 C745 233 746 236 746 243 C748 250 748 253 748 253 C748 253 467 253 467 253 C469 253 464 233 464 233 C464 233 474 233 474 233 C514 233 533 229 523 173 C523 173 518 140 518 140 C502 65 476 27 438 27 C284 27 222 116 253 292 C284 467 375 556 525 556 C539 556 551 555 563 554 C563 554 560 554 560 554 C597 551 627 538 652 520 C670 504 685 483 702 457 C702 457 705 459 705 459 C713 444 718 428 721 412 C722 402 723 397 723 397 C723 397 738 397 738 397 L738 397 Z " />
<glyph glyph-name="LETTERSMALLCAPITALI" unicode="&#x26a;" horiz-adv-x="371" d="M423 583 C423 583 124 583 124 583 C124 583 123 580 123 573 C121 566 120 563 121 563 C121 563 131 563 131 563 C173 563 194 559 184 503 C184 503 109 80 109 80 C99 24 77 20 36 20 C36 20 25 20 25 20 C24 16 22 2 21 0 C21 0 320 0 320 0 C320 2 323 12 323 20 C323 20 313 20 313 20 C271 20 250 24 260 80 C260 80 335 503 335 503 C345 559 367 563 409 563 C409 563 419 563 419 563 C420 567 422 581 423 583 L423 583 Z " />
<glyph glyph-name="LETTERSMALLCAPITALN" unicode="&#x274;" horiz-adv-x="694" d="M757 583 C757 583 671 583 671 583 C671 583 626 583 626 583 C626 583 539 583 539 583 C539 583 534 563 536 563 C536 563 546 563 546 563 C594 563 618 557 608 478 C608 478 556 170 556 170 C556 170 509 243 509 243 C509 243 292 583 292 583 C292 583 257 583 257 583 C257 583 219 583 219 583 C219 583 105 583 105 583 C105 583 77 583 77 583 C77 583 76 580 76 573 C74 566 73 563 74 563 C74 563 100 563 100 563 C112 563 119 561 139 536 C139 536 196 457 196 457 C196 457 141 150 141 150 C141 150 141 150 141 150 C119 29 96 20 53 20 C53 20 30 20 30 20 C29 10 27 8 27 0 C27 0 114 0 114 0 C114 0 160 0 160 0 C160 0 247 0 247 0 C248 4 250 18 251 20 C251 20 228 20 228 20 C188 20 167 26 178 110 C178 110 229 412 229 412 C229 412 406 167 406 167 C406 167 527 0 527 0 C527 0 557 0 557 0 C557 0 648 463 648 463 C648 463 648 463 648 463 C664 556 691 563 743 563 C743 563 753 563 753 563 C754 567 756 581 757 583 L757 583 Z " />
<glyph glyph-name="LETTERSMALLCAPITALR" unicode="&#x280;" horiz-adv-x="683" d="M39 0 C39 0 338 0 338 0 C338 0 341 20 341 20 C341 20 330 20 330 20 C289 20 268 25 279 85 C279 85 309 256 309 256 C326 224 366 159 430 62 C474 -4 458 0 673 0 C673 0 678 30 678 30 C624 30 629 28 606 62 C540 162 495 231 470 269 C571 288 628 331 643 415 C663 527 572 583 371 583 C371 583 367 583 367 583 C367 583 142 583 142 583 C142 583 137 563 139 563 C139 563 149 563 149 563 C191 563 211 558 201 498 C201 498 128 85 128 85 C117 25 95 20 53 20 C53 20 43 20 43 20 C42 16 40 2 39 0 L39 0 Z M361 551 C453 544 493 508 482 444 C462 331 411 296 321 296 C321 296 316 296 316 296 C316 296 352 498 352 498 C356 522 359 539 361 551 L361 551 Z " />
<glyph glyph-name="LETTERSMALLCAPITALY" unicode="&#x28f;" horiz-adv-x="713" d="M386 583 C386 583 312 583 312 583 C312 583 134 583 134 583 C134 583 103 583 103 583 C103 583 102 580 102 573 C100 566 99 563 100 563 C100 563 126 563 126 563 C139 563 150 555 214 443 C214 443 214 443 214 443 C214 443 333 236 333 236 C333 236 333 236 333 236 C333 236 306 80 306 80 C296 24 274 20 232 20 C232 20 221 20 221 20 C223 20 218 0 218 0 C218 0 516 0 516 0 C517 4 519 18 520 20 C520 20 509 20 509 20 C468 20 447 24 457 80 C457 80 485 241 485 241 C485 241 660 470 660 470 C727 556 744 563 766 563 C766 563 790 563 790 563 C791 567 793 581 794 583 C794 583 746 583 746 583 C746 583 670 583 670 583 C670 583 596 583 596 583 C598 583 593 563 593 563 C593 563 613 563 613 563 C636 563 649 560 638 535 C638 535 476 287 476 287 C476 287 390 443 390 443 C390 443 390 443 390 443 C326 555 335 563 364 563 C364 563 382 563 382 563 C383 567 385 581 386 583 C386 583 386 583 386 583 L386 583 Z " />
<glyph glyph-name="LETTERSMALLCAPITALB" unicode="&#x299;" horiz-adv-x="644" d="M39 0 C39 0 264 0 264 0 C264 0 264 2 267 16 C267 16 264 0 264 0 C264 0 384 0 384 0 C530 0 607 16 632 156 C646 238 614 288 537 306 C594 330 629 376 641 445 C658 537 641 583 426 583 C426 583 367 583 367 583 C367 583 142 583 142 583 C142 583 137 563 139 563 C139 563 149 563 149 563 C191 563 211 558 201 498 C201 498 128 85 128 85 C117 25 95 20 53 20 C53 20 43 20 43 20 C42 16 40 2 39 0 L39 0 Z M362 553 C495 553 503 512 489 430 C475 352 449 313 412 313 C412 313 319 313 319 313 C319 313 352 498 352 498 C356 523 360 541 362 553 C362 553 362 553 362 553 L362 553 Z M362 286 C446 286 481 242 466 156 C446 43 412 30 351 30 C351 30 301 30 301 30 C281 30 273 45 277 74 C278 77 278 81 279 85 C279 85 315 286 315 286 C315 286 362 286 362 286 L362 286 Z M278 78 C278 79 278 79 278 80 C278 80 278 78 278 78 L278 78 Z " />
<glyph glyph-name="LETTERSMALLCAPITALH" unicode="&#x29c;" horiz-adv-x="802" d="M854 583 C854 583 555 583 555 583 C555 583 550 563 552 563 C552 563 562 563 562 563 C604 563 625 559 615 503 C615 503 582 318 582 318 C582 318 356 318 356 318 C356 318 389 503 389 503 C399 559 420 563 462 563 C462 563 473 563 473 563 C473 563 478 583 476 583 C476 583 178 583 178 583 C178 583 173 563 175 563 C175 563 185 563 185 563 C227 563 248 559 238 503 C238 503 163 80 163 80 C153 24 131 20 89 20 C89 20 79 20 79 20 C78 16 76 2 75 0 C75 0 374 0 374 0 C374 0 377 20 377 20 C377 20 366 20 366 20 C325 20 304 24 314 80 C314 80 349 277 349 277 C349 277 575 277 575 277 C575 277 540 80 540 80 C530 24 508 20 467 20 C467 20 456 20 456 20 C455 16 453 2 452 0 C452 0 751 0 751 0 C751 2 754 12 754 20 C754 20 744 20 744 20 C702 20 681 24 691 80 C691 80 766 503 766 503 C776 559 797 563 839 563 C839 563 850 563 850 563 C851 567 853 581 854 583 L854 583 Z " />
<glyph glyph-name="LETTERSMALLCAPITALL" unicode="&#x29f;" horiz-adv-x="561" d="M21 0 C21 0 95 0 95 0 C95 0 246 0 246 0 C246 0 258 67 258 67 C258 67 251 26 251 26 C251 26 246 0 246 0 C246 0 314 0 314 0 C314 0 499 0 499 0 C499 0 506 0 506 0 C506 0 511 26 511 26 C511 26 510 26 510 26 C527 64 544 101 561 139 C559 139 549 140 542 142 C542 142 537 131 537 131 C506 61 479 26 329 26 C258 26 254 41 259 71 C259 71 334 498 334 498 C334 498 334 498 334 498 C344 558 367 563 409 563 C409 563 419 563 419 563 C420 567 422 581 423 583 C423 583 349 583 349 583 C349 583 198 583 198 583 C198 583 124 583 124 583 C124 583 123 580 123 573 C121 566 120 563 121 563 C121 563 131 563 131 563 C173 563 193 558 183 499 C183 499 110 85 110 85 C110 85 110 85 110 85 C99 25 77 20 36 20 C36 20 25 20 25 20 C24 16 22 2 21 0 C21 0 21 0 21 0 L21 0 Z " />
<glyph glyph-name="LETTERSMALLCAPITALA" unicode="&#x1d00;" horiz-adv-x="723" d="M394 0 C394 0 489 0 489 0 C489 0 647 0 647 0 C647 0 707 0 707 0 C707 0 710 20 710 20 C710 20 686 20 686 20 C657 20 641 28 619 140 C619 140 619 140 619 140 C619 140 537 546 537 546 C537 546 526 603 526 603 C526 603 511 603 511 603 C485 573 443 554 386 546 C386 546 388 536 388 536 C388 536 192 170 192 170 C192 170 192 170 192 170 C192 170 192 169 191 169 C191 169 171 131 171 131 C114 28 84 20 39 20 C39 20 17 20 17 20 C16 16 14 2 13 0 C13 0 101 0 101 0 C101 0 146 0 146 0 C146 0 262 0 262 0 C263 4 265 18 266 20 C266 20 245 20 245 20 C189 20 164 29 221 148 C221 148 249 202 249 202 C249 202 451 202 451 202 C451 202 467 116 467 116 C481 27 460 20 418 20 C418 20 398 20 398 20 C397 16 395 2 394 0 C394 0 394 0 394 0 L394 0 Z M269 242 C269 242 396 493 396 493 C396 493 443 242 443 242 C443 242 269 242 269 242 L269 242 Z " />
<glyph glyph-name="LETTERSMALLCAPITALC" unicode="&#x1d04;" horiz-adv-x="706" d="M738 397 C743 427 749 457 754 487 C754 487 759 517 770 577 C770 577 755 577 755 577 C755 577 746 556 746 556 C743 550 719 552 677 571 C677 571 677 571 677 571 C644 586 596 593 516 593 C267 593 123 492 87 292 C52 91 158 -10 401 -10 C477 -10 531 -2 573 13 C573 13 573 13 573 13 C573 13 613 19 652 25 C658 26 659 19 657 4 C657 4 669 4 669 4 C674 34 679 64 685 95 C685 95 690 125 701 186 C701 186 686 186 686 186 C686 186 683 181 678 171 C670 156 659 140 646 124 C646 124 644 126 644 126 C576 59 525 25 422 25 C278 25 221 115 253 292 C284 467 375 556 525 556 C539 556 551 555 563 554 C563 554 560 554 560 554 C597 551 627 538 652 520 C670 504 685 483 702 457 C702 457 705 459 705 459 C713 444 718 428 721 412 C722 402 723 397 723 397 C723 397 738 397 738 397 L738 397 Z " />
<glyph glyph-name="LETTERSMALLCAPITALD" unicode="&#x1d05;" horiz-adv-x="810" d="M39 0 C39 0 113 0 113 0 C113 0 264 0 264 0 C264 0 320 0 320 0 C609 0 769 79 807 292 C841 485 748 583 451 583 C451 583 367 583 367 583 C367 583 216 583 216 583 C216 583 142 583 142 583 C142 583 137 563 139 563 C139 563 149 563 149 563 C191 563 211 558 201 499 C201 499 128 85 128 85 C128 85 128 85 128 85 C117 25 95 20 53 20 C53 20 43 20 43 20 C42 16 40 2 39 0 L39 0 Z M362 552 C597 544 670 457 641 292 C607 100 489 30 280 30 C272 30 271 39 274 56 C274 56 352 498 352 498 C352 498 352 498 352 498 C356 522 359 540 362 552 C362 552 362 552 362 552 L362 552 Z " />
<glyph glyph-name="LETTERSMALLCAPITALE" unicode="&#x1d07;" horiz-adv-x="601" d="M584 463 C584 463 604 463 604 463 C604 463 610 523 610 523 C613 543 615 563 617 583 C617 583 497 583 497 583 C497 583 367 583 367 583 C367 583 216 583 216 583 C216 583 142 583 142 583 C142 583 137 563 139 563 C139 563 149 563 149 563 C191 563 211 558 201 499 C201 499 128 85 128 85 C128 85 128 85 128 85 C117 25 95 20 53 20 C53 20 43 20 43 20 C42 16 40 2 39 0 C39 0 113 0 113 0 C113 0 264 0 264 0 C264 0 419 0 419 0 C419 0 539 0 539 0 C551 40 565 80 577 120 C577 120 557 120 557 120 C557 120 553 109 553 109 C537 58 522 32 429 32 C429 32 349 32 349 32 C281 32 273 44 276 68 C276 68 320 316 320 316 C320 316 317 299 317 299 C317 299 387 299 387 299 C480 299 482 270 471 212 C471 212 469 201 469 201 C469 201 489 201 489 201 C495 234 501 266 507 299 C507 299 507 299 507 299 C507 299 508 306 508 306 C516 348 523 391 530 434 C530 434 510 434 510 434 C510 434 508 423 508 423 C498 365 486 335 393 335 C393 335 323 335 323 335 C323 335 352 498 352 498 C352 498 352 498 352 498 C356 522 359 539 361 551 C361 551 493 551 493 551 C611 551 590 522 584 463 L584 463 Z " />
<glyph glyph-name="LETTERSMALLCAPITALJ" unicode="&#x1d0a;" horiz-adv-x="371" d="M423 583 C423 583 124 583 124 583 C124 583 123 580 123 573 C121 566 120 563 121 563 C121 563 131 563 131 563 C173 563 194 559 184 503 C184 503 74 -121 74 -121 C66 -164 26 -167 -8 -167 C-93 -167 -21 -40 -105 -40 C-153 -40 -181 -64 -189 -111 C-202 -184 -157 -220 -55 -220 C67 -220 213 -193 275 165 C275 165 335 503 335 503 C345 559 367 563 409 563 C409 563 419 563 419 563 C420 567 422 581 423 583 L423 583 Z " />
<glyph glyph-name="LETTERSMALLCAPITALK" unicode="&#x1d0b;" horiz-adv-x="725" d="M709 20 C709 20 681 20 681 20 C660 20 634 48 614 84 C614 84 446 387 446 387 C446 387 533 473 533 473 C533 473 534 473 534 473 C536 475 539 478 541 480 C541 480 592 530 592 530 C627 560 645 563 668 563 C668 563 692 563 692 563 C693 567 695 581 696 583 C696 583 646 583 646 583 C646 583 590 583 590 583 C590 583 491 583 491 583 C493 583 488 563 488 563 C488 563 507 563 507 563 C548 563 562 556 474 460 C474 460 316 293 316 293 C316 293 358 530 358 530 C366 560 387 563 426 563 C426 563 437 563 437 563 C437 563 442 583 440 583 C440 583 367 583 367 583 C367 583 216 583 216 583 C216 583 142 583 142 583 C142 583 137 563 139 563 C139 563 149 563 149 563 C191 563 212 560 205 523 C205 523 205 523 205 523 C205 523 122 53 122 53 C114 23 92 20 53 20 C53 20 43 20 43 20 C42 16 40 2 39 0 C39 0 113 0 113 0 C113 0 264 0 264 0 C264 0 338 0 338 0 C338 0 341 20 341 20 C341 20 330 20 330 20 C293 20 272 23 273 51 C273 51 315 291 315 291 C315 291 431 85 431 85 C431 85 430 85 430 85 C479 -2 478 0 478 0 C478 0 660 0 660 0 C660 0 705 0 705 0 C706 4 708 18 709 20 C709 20 709 20 709 20 L709 20 Z " />
<glyph glyph-name="LETTERSMALLCAPITALM" unicode="&#x1d0d;" horiz-adv-x="832" d="M142 563 C142 563 166 563 166 563 C191 563 208 560 223 532 C223 532 134 124 134 124 C110 28 87 20 47 20 C47 20 24 20 24 20 C23 16 21 2 20 0 C20 0 107 0 107 0 C107 0 160 0 160 0 C160 0 248 0 248 0 C249 4 251 18 252 20 C252 20 229 20 229 20 C189 20 168 26 180 103 C180 103 186 136 186 136 C186 138 187 139 187 140 C187 140 187 140 187 140 C187 140 248 456 248 456 C293 304 338 152 383 0 C383 0 421 0 421 0 C421 0 672 453 672 453 C672 453 616 70 616 70 C606 24 584 20 544 20 C544 20 533 20 533 20 C533 18 533 8 530 0 C530 0 606 0 606 0 C606 0 757 0 757 0 C757 0 827 0 827 0 C828 4 830 18 831 20 C831 20 820 20 820 20 C783 20 763 24 766 70 C766 70 812 414 812 414 C812 414 812 413 812 413 C832 553 849 563 881 563 C881 563 905 563 905 563 C903 563 908 583 908 583 C908 583 834 583 834 583 C834 583 744 583 744 583 C744 583 691 583 691 583 C691 583 492 206 492 206 C492 206 391 583 391 583 C391 583 272 583 272 583 C272 583 234 583 234 583 C234 583 210 583 210 583 C210 583 146 583 146 583 C145 579 143 565 142 563 C142 563 142 563 142 563 L142 563 Z " />
<glyph glyph-name="LETTERSMALLCAPITALO" unicode="&#x1d0f;" horiz-adv-x="839" d="M407 30 C278 30 228 118 258 292 C289 465 368 553 495 553 C637 553 694 465 663 292 C633 118 547 30 407 30 L407 30 Z M85 292 C50 91 153 -10 392 -10 C652 -10 801 91 836 292 C872 492 762 593 509 593 C263 593 121 492 85 292 L85 292 Z " />
<glyph glyph-name="LETTERSMALLCAPITALP" unicode="&#x1d18;" horiz-adv-x="577" d="M176 563 C176 563 187 563 187 563 C229 563 249 558 239 499 C239 499 166 85 166 85 C166 85 166 85 166 85 C155 25 133 20 91 20 C91 20 80 20 80 20 C80 18 80 8 77 0 C77 0 151 0 151 0 C151 0 302 0 302 0 C302 0 375 0 375 0 C376 4 378 18 379 20 C379 20 368 20 368 20 C327 20 306 25 317 85 C317 85 317 85 317 85 C317 85 346 252 346 252 C346 252 381 252 381 252 C527 252 608 291 631 416 C650 527 598 583 474 583 C474 583 404 583 404 583 C404 583 254 583 254 583 C254 583 180 583 180 583 C179 579 177 565 176 563 L176 563 Z M400 558 C400 558 432 558 432 558 C487 558 507 519 494 441 C473 321 439 284 387 284 C387 284 352 284 352 284 C352 284 347 259 347 259 C347 259 391 507 391 507 C395 530 398 547 400 558 C400 558 400 558 400 558 L400 558 Z " />
<glyph glyph-name="LETTERSMALLCAPITALT" unicode="&#x1d1b;" horiz-adv-x="715" d="M722 623 C726 591 730 583 629 583 C629 583 536 583 536 583 C536 583 385 583 385 583 C385 583 292 583 292 583 C198 583 197 593 208 614 C208 614 213 623 213 623 C213 623 193 623 193 623 C186 610 178 596 171 583 C171 583 158 583 158 583 C158 583 151 546 151 546 C151 546 151 546 151 546 C139 522 126 497 112 473 C112 473 122 473 122 473 C128 472 131 472 131 472 C131 472 137 483 137 483 C160 525 178 546 271 546 C271 546 378 546 378 546 C378 546 296 80 296 80 C286 24 264 20 222 20 C222 20 212 20 212 20 C211 16 209 2 208 0 C208 0 507 0 507 0 C507 0 510 20 510 20 C510 20 500 20 500 20 C458 20 437 24 447 80 C447 80 529 546 529 546 C529 546 636 546 636 546 C729 546 740 525 748 483 C748 483 750 472 750 472 C750 472 753 472 760 473 C760 473 770 473 770 473 C765 497 760 522 756 546 C756 546 756 546 756 546 C756 546 763 583 763 583 C763 583 749 583 749 583 C746 596 744 610 742 623 C742 623 722 623 722 623 L722 623 Z " />
<glyph glyph-name="LETTERSMALLCAPITALU" unicode="&#x1d1c;" horiz-adv-x="722" d="M646 110 C646 110 715 498 715 498 C729 577 730 583 730 583 C730 583 505 583 505 583 C505 583 500 563 502 563 C502 563 512 563 512 563 C554 563 574 558 564 498 C564 498 496 110 496 110 C496 110 476 0 476 0 C476 0 500 0 500 0 C500 0 710 55 710 55 C710 55 712 65 712 65 C643 61 638 63 646 110 L646 110 Z M166 498 C166 498 114 202 114 202 C89 61 141 -10 270 -10 C365 -10 441 34 497 121 C497 121 509 189 509 189 C466 121 412 87 348 87 C279 87 251 126 264 202 C264 202 317 498 317 498 C331 577 332 583 332 583 C332 583 107 583 107 583 C107 583 102 563 104 563 C104 563 114 563 114 563 C156 563 176 558 166 498 L166 498 Z " />
<glyph glyph-name="LETTERSMALLCAPITALV" unicode="&#x1d20;" horiz-adv-x="751" d="M430 583 C430 583 314 583 314 583 C314 583 140 583 140 583 C140 583 105 583 105 583 C105 583 104 580 104 573 C102 566 101 563 102 563 C102 563 128 563 128 563 C141 563 148 560 162 523 C162 523 162 523 162 523 C162 523 270 229 270 229 C270 229 357 -10 357 -10 C357 -10 387 -10 387 -10 C387 -10 679 443 679 443 C679 443 679 443 679 443 C680 444 680 445 681 446 C681 446 723 512 723 512 C757 559 775 563 799 563 C799 563 823 563 823 563 C822 563 823 566 825 573 C825 580 826 583 826 583 C826 583 769 583 769 583 C769 583 709 583 709 583 C709 583 593 583 593 583 C592 579 590 565 589 563 C589 563 610 563 610 563 C666 563 690 555 629 449 C629 449 357 -10 357 -10 C357 -10 498 229 498 229 C498 229 384 448 384 448 C346 555 365 563 407 563 C407 563 426 563 426 563 C427 567 429 581 430 583 C430 583 430 583 430 583 L430 583 Z " />
<glyph glyph-name="LETTERSMALLCAPITALW" unicode="&#x1d21;" horiz-adv-x="1009" d="M1087 583 C1087 583 1026 583 1026 583 C1026 583 965 583 965 583 C965 583 849 583 849 583 C848 579 846 565 845 563 C845 563 866 563 866 563 C925 563 951 555 900 443 C900 443 900 443 900 443 C900 443 797 219 797 219 C797 219 686 474 686 474 C654 557 673 563 717 563 C717 563 736 563 736 563 C737 567 739 581 740 583 C740 583 638 583 638 583 C638 583 463 583 463 583 C463 583 410 583 410 583 C410 583 408 583 408 583 C408 583 308 583 308 583 C308 583 142 583 142 583 C142 583 107 583 107 583 C106 579 104 565 103 563 C103 563 130 563 130 563 C143 563 152 555 191 443 C191 443 192 443 192 443 C245 292 299 142 351 -10 C351 -10 391 -10 391 -10 C391 -10 560 330 560 330 C604 216 647 103 691 -10 C691 -10 731 -10 731 -10 C731 -10 956 443 956 443 C956 443 957 443 957 443 C960 450 963 457 966 463 C966 463 980 491 980 491 C1015 557 1033 563 1059 563 C1059 563 1083 563 1083 563 C1084 567 1086 581 1087 583 C1087 583 1087 583 1087 583 L1087 583 Z M404 563 C404 563 406 563 406 563 C406 563 428 563 428 563 C457 563 472 560 486 523 C486 523 486 523 486 523 C503 478 521 433 538 389 C538 389 445 190 445 190 C445 190 445 191 445 191 C445 191 357 443 357 443 C357 443 357 443 357 443 C317 555 338 563 386 563 C386 563 404 563 404 563 L404 563 Z " />
<glyph glyph-name="LETTERSMALLCAPITALZ" unicode="&#x1d22;" horiz-adv-x="582" d="M189 0 C189 0 386 0 386 0 C386 0 546 0 546 0 C566 50 587 100 610 149 C608 149 599 152 591 152 C591 152 571 121 571 121 C544 77 522 51 449 45 C449 45 220 38 220 38 C220 38 647 552 647 552 C647 552 653 583 653 583 C653 583 505 583 505 583 C505 583 343 583 343 583 C343 583 173 583 173 583 C157 530 139 480 123 426 C128 425 146 424 148 424 C148 424 157 445 157 445 C184 510 206 543 330 543 C330 543 330 543 330 543 C330 543 474 547 474 547 C474 547 31 32 31 32 C31 32 25 0 25 0 C25 0 189 0 189 0 L189 0 Z " />
<glyph glyph-name="Wgrave" unicode="&#x1e80;" horiz-adv-x="1148" d="M1256 750 C1256 750 1195 750 1195 750 C1195 750 1126 750 1126 750 C1126 750 1010 750 1010 750 C1009 740 1007 738 1007 730 C1007 730 1028 730 1028 730 C1087 730 1114 722 1065 610 C1065 610 1065 610 1065 610 C1065 610 907 244 907 244 C907 244 775 646 775 646 C751 724 773 730 819 730 C819 730 840 730 840 730 C840 730 843 750 843 750 C843 750 741 750 741 750 C741 750 547 750 547 750 C547 750 490 750 490 750 C490 750 487 730 487 730 C487 730 511 730 511 730 C537 730 553 727 564 698 C586 632 608 566 630 500 C630 500 629 500 629 500 C629 500 496 211 496 211 C496 211 496 212 496 212 C496 212 389 610 389 610 C389 610 389 610 389 610 C388 613 387 617 386 620 C386 620 380 641 380 641 C360 724 383 730 429 730 C429 730 450 730 450 730 C450 730 453 750 453 750 C453 750 351 750 351 750 C351 750 167 750 167 750 C167 750 131 750 131 750 C130 750 127 730 127 730 C127 730 153 730 153 730 C165 730 174 723 204 626 C268 414 331 202 394 -10 C394 -10 438 -10 438 -10 C438 -10 653 429 653 429 C701 283 749 137 797 -10 C797 -10 841 -10 841 -10 C841 -10 1130 610 1130 610 C1130 610 1130 610 1130 610 C1131 612 1132 614 1133 616 C1133 616 1156 665 1156 665 C1186 725 1203 730 1228 730 C1228 730 1252 730 1252 730 C1253 730 1256 750 1256 750 C1256 750 1256 750 1256 750 L1256 750 Z M645 993 C629 1034 618 1054 608 1054 C563 1054 528 1024 520 980 C518 969 533 952 564 925 C564 925 692 810 692 810 C692 810 714 829 714 829 C714 829 645 993 645 993 L645 993 Z " />
<glyph glyph-name="Wacute" unicode="&#x1e82;" horiz-adv-x="1148" d="M701 810 C701 810 869 925 869 925 C910 954 931 970 932 980 C940 1024 916 1054 871 1054 C862 1054 844 1034 812 993 C812 993 686 829 686 829 C686 829 701 810 701 810 L701 810 Z M1256 750 C1256 750 1195 750 1195 750 C1195 750 1126 750 1126 750 C1126 750 1010 750 1010 750 C1009 740 1007 738 1007 730 C1007 730 1028 730 1028 730 C1087 730 1114 722 1065 610 C1065 610 1065 610 1065 610 C1065 610 907 244 907 244 C907 244 775 646 775 646 C751 724 773 730 819 730 C819 730 840 730 840 730 C840 730 843 750 843 750 C843 750 741 750 741 750 C741 750 547 750 547 750 C547 750 490 750 490 750 C490 750 487 730 487 730 C487 730 511 730 511 730 C537 730 553 727 564 698 C586 632 608 566 630 500 C630 500 629 500 629 500 C629 500 496 211 496 211 C496 211 496 212 496 212 C496 212 389 610 389 610 C389 610 389 610 389 610 C388 613 387 617 386 620 C386 620 380 641 380 641 C360 724 383 730 429 730 C429 730 450 730 450 730 C450 730 453 750 453 750 C453 750 351 750 351 750 C351 750 167 750 167 750 C167 750 131 750 131 750 C130 750 127 730 127 730 C127 730 153 730 153 730 C165 730 174 723 204 626 C268 414 331 202 394 -10 C394 -10 438 -10 438 -10 C438 -10 653 429 653 429 C701 283 749 137 797 -10 C797 -10 841 -10 841 -10 C841 -10 1130 610 1130 610 C1130 610 1130 610 1130 610 C1131 612 1132 614 1133 616 C1133 616 1156 665 1156 665 C1186 725 1203 730 1228 730 C1228 730 1252 730 1252 730 C1253 730 1256 750 1256 750 C1256 750 1256 750 1256 750 L1256 750 Z " />
<glyph glyph-name="Wdieresis" unicode="&#x1e84;" horiz-adv-x="1148" d="M788 865 C841 865 872 892 882 945 C891 998 869 1025 816 1025 C763 1025 731 998 722 945 C712 892 734 865 788 865 L788 865 Z M615 865 C668 865 699 892 709 945 C718 998 696 1025 643 1025 C590 1025 558 998 549 945 C539 892 561 865 615 865 L615 865 Z M1256 750 C1256 750 1195 750 1195 750 C1195 750 1126 750 1126 750 C1126 750 1010 750 1010 750 C1009 740 1007 738 1007 730 C1007 730 1028 730 1028 730 C1087 730 1114 722 1065 610 C1065 610 1065 610 1065 610 C1065 610 907 244 907 244 C907 244 775 646 775 646 C751 724 773 730 819 730 C819 730 840 730 840 730 C840 730 843 750 843 750 C843 750 741 750 741 750 C741 750 547 750 547 750 C547 750 490 750 490 750 C490 750 487 730 487 730 C487 730 511 730 511 730 C537 730 553 727 564 698 C586 632 608 566 630 500 C630 500 629 500 629 500 C629 500 496 211 496 211 C496 211 496 212 496 212 C496 212 389 610 389 610 C389 610 389 610 389 610 C388 613 387 617 386 620 C386 620 380 641 380 641 C360 724 383 730 429 730 C429 730 450 730 450 730 C450 730 453 750 453 750 C453 750 351 750 351 750 C351 750 167 750 167 750 C167 750 131 750 131 750 C130 750 127 730 127 730 C127 730 153 730 153 730 C165 730 174 723 204 626 C268 414 331 202 394 -10 C394 -10 438 -10 438 -10 C438 -10 653 429 653 429 C701 283 749 137 797 -10 C797 -10 841 -10 841 -10 C841 -10 1130 610 1130 610 C1130 610 1130 610 1130 610 C1131 612 1132 614 1133 616 C1133 616 1156 665 1156 665 C1186 725 1203 730 1228 730 C1228 730 1252 730 1252 730 C1253 730 1256 750 1256 750 C1256 750 1256 750 1256 750 L1256 750 Z " />
<glyph glyph-name="CapitalLetterEWITHTI" unicode="&#x1ebc;" horiz-adv-x="674" d="M364 870 C369 903 384 919 407 919 C469 919 495 854 558 854 C627 854 672 909 691 1019 C691 1019 665 1019 665 1019 C658 979 640 959 611 959 C548 959 522 1024 460 1024 C397 1024 355 972 337 870 C337 870 364 870 364 870 L364 870 Z M706 627 C708 667 713 710 719 750 C719 750 599 750 599 750 C599 750 409 750 409 750 C409 750 241 750 241 750 C241 750 167 750 167 750 C166 740 164 738 164 730 C164 730 174 730 174 730 C216 730 237 725 226 665 C226 665 226 665 226 665 C226 665 123 82 123 82 C112 25 90 20 49 20 C49 20 39 20 39 20 C38 16 36 2 35 0 C35 0 109 0 109 0 C109 0 276 0 276 0 C276 0 491 0 491 0 C491 0 611 0 611 0 C625 41 637 83 651 123 C651 123 631 123 631 123 C631 123 627 113 627 113 C611 62 595 36 503 36 C503 36 363 36 363 36 C294 36 286 47 289 69 C289 69 283 36 283 36 C283 36 276 0 276 0 C276 0 344 385 344 385 C344 385 474 385 474 385 C572 385 570 350 557 287 C557 287 577 287 577 287 C583 320 588 352 594 385 C594 385 594 385 594 385 C594 385 601 425 601 425 C601 425 601 425 601 425 C606 458 612 490 619 523 C619 523 599 523 599 523 C586 458 580 425 481 425 C481 425 351 425 351 425 C351 425 394 665 394 665 C394 665 394 665 394 665 C394 667 395 669 395 671 C395 671 403 714 403 714 C403 714 595 714 595 714 C706 714 692 688 686 636 C686 636 686 627 686 627 C686 627 706 627 706 627 L706 627 Z M289 69 C289 72 290 76 291 80 C291 80 289 69 289 69 L289 69 Z " />
<glyph glyph-name="Ygrave" unicode="&#x1ef2;" horiz-adv-x="809" d="M430 750 C430 750 356 750 356 750 C356 750 158 750 158 750 C158 750 127 750 127 750 C126 750 123 730 123 730 C123 730 149 730 149 730 C160 730 170 724 208 654 C208 654 387 309 387 309 C387 309 346 80 346 80 C336 24 314 20 273 20 C273 20 262 20 262 20 C261 16 259 2 258 0 C258 0 574 0 574 0 C574 0 577 20 577 20 C577 20 567 20 567 20 C525 20 504 24 514 80 C514 80 556 315 556 315 C556 315 770 610 770 610 C770 610 770 610 770 610 C851 722 869 730 892 730 C892 730 916 730 916 730 C917 730 920 750 920 750 C920 750 871 750 871 750 C871 750 787 750 787 750 C787 750 714 750 714 750 C713 750 710 730 710 730 C710 730 731 730 731 730 C753 730 767 727 755 700 C755 700 546 368 546 368 C546 368 426 610 426 610 C426 610 426 610 426 610 C368 722 378 730 407 730 C407 730 427 730 427 730 C427 730 430 750 430 750 L430 750 Z M513 993 C496 1034 485 1054 476 1054 C431 1054 396 1024 388 980 C386 969 401 952 432 925 C432 925 559 810 559 810 C559 810 581 829 581 829 C581 829 513 993 513 993 L513 993 Z " />
<glyph glyph-name="quoteleft" unicode="&#x2018;" horiz-adv-x="708" d="" />
<glyph glyph-name="quoteright" unicode="&#x2019;" horiz-adv-x="248" d="" />
<glyph glyph-name="quotedblleft" unicode="&#x201c;" horiz-adv-x="708" d="M452 640 C433 640 417 633 405 620 C419 691 454 734 511 749 C511 749 503 760 503 760 C421 739 371 682 355 590 C345 530 369 499 427 499 C474 499 502 523 510 569 C519 616 499 640 452 640 L452 640 Z " />
<glyph glyph-name="quotedblright" unicode="&#x201d;" horiz-adv-x="708" d="M494 637 C479 571 436 528 363 509 C363 509 372 499 372 499 C472 524 531 583 546 673 C557 731 532 760 473 760 C427 760 399 736 390 689 C382 643 402 619 448 619 C467 619 483 625 494 637 C494 637 494 637 494 637 L494 637 Z " />
<glyph glyph-name="Euro" unicode="&#x20ac;" horiz-adv-x="845" d="M902 533 C907 564 913 594 918 625 C918 625 924 656 935 717 C935 717 920 717 920 717 C919 717 917 710 911 696 C908 689 888 694 850 718 C811 746 753 760 645 760 C413 760 260 675 186 507 C186 507 160 507 160 507 C160 507 126 400 126 400 C126 400 152 400 152 400 C150 392 148 383 147 375 C146 367 144 358 143 350 C143 350 117 350 117 350 C117 350 83 243 83 243 C83 243 139 243 139 243 C153 75 273 -10 499 -10 C597 -10 663 3 716 29 C716 29 716 29 716 29 C716 29 757 40 797 51 C803 53 804 46 801 30 C801 30 813 30 813 30 C819 61 824 93 830 124 C830 124 835 155 846 217 C846 217 831 217 831 217 C831 217 829 212 824 202 C816 187 804 170 789 153 C789 153 785 157 785 157 C698 72 636 29 522 29 C391 29 323 101 320 243 C320 243 598 243 598 243 C598 243 632 350 632 350 C632 350 327 350 327 350 C328 358 330 367 331 375 C332 383 334 392 336 400 C336 400 641 400 641 400 C641 400 675 507 675 507 C675 507 367 507 367 507 C421 647 518 718 655 718 C687 718 712 715 733 709 C733 709 732 709 732 709 C741 707 749 704 757 701 C801 681 826 645 861 593 C861 593 868 598 868 598 C877 582 882 564 885 548 C886 538 887 533 887 533 C887 533 902 533 902 533 L902 533 Z " />
<glyph glyph-name="LETTERSMALLCAPITALF" unicode="&#xa730;" horiz-adv-x="576" d="M607 472 C611 508 613 547 617 583 C617 583 497 583 497 583 C497 583 367 583 367 583 C367 583 216 583 216 583 C216 583 142 583 142 583 C142 583 137 563 139 563 C139 563 149 563 149 563 C191 563 211 558 201 499 C201 499 128 85 128 85 C128 85 128 85 128 85 C117 25 95 20 53 20 C53 20 43 20 43 20 C42 16 40 2 39 0 C39 0 113 0 113 0 C113 0 264 0 264 0 C264 0 338 0 338 0 C338 0 341 20 341 20 C341 20 330 20 330 20 C290 20 269 25 278 80 C278 80 311 264 311 264 C311 264 467 264 467 264 C469 255 469 243 468 230 C468 230 467 198 467 198 C467 198 479 198 479 198 C483 223 488 248 492 273 C492 273 497 299 497 299 C497 299 496 299 496 299 C496 299 508 365 508 365 C508 365 496 365 496 365 C496 365 487 333 487 333 C480 311 470 299 377 299 C377 299 317 299 317 299 C317 299 315 292 315 292 C315 292 352 498 352 498 C352 498 352 498 352 498 C357 526 360 545 363 558 C363 558 414 558 414 558 C582 558 592 532 588 481 C588 481 587 470 587 470 C591 471 605 472 607 472 C607 472 607 472 607 472 L607 472 Z " />
<glyph glyph-name="LETTERSMALLCAPITALS" unicode="&#xa731;" horiz-adv-x="497" d="M496 423 C500 449 505 476 510 503 C510 503 515 530 524 584 C524 584 509 584 509 584 C509 584 500 563 500 563 C498 558 483 558 459 569 C432 585 396 593 350 593 C224 593 149 534 128 417 C111 316 137 251 234 213 C330 176 363 151 359 128 C349 68 312 38 249 38 C242 38 235 38 229 39 C229 39 229 39 229 39 C180 43 142 74 120 113 C117 119 115 125 113 132 C113 132 111 131 111 131 C104 146 99 162 97 177 C96 187 95 192 95 192 C95 192 80 192 80 192 C69 131 64 101 64 101 C58 70 53 40 48 10 C48 10 63 10 63 10 C63 10 66 18 72 35 C74 41 95 36 134 16 C162 -1 198 -10 240 -10 C383 -10 466 51 488 172 C503 262 468 325 352 370 C274 401 248 433 256 474 C265 529 295 556 343 556 C397 556 438 527 460 489 C461 487 461 484 462 482 C462 482 463 483 463 483 C471 468 476 453 478 438 C478 438 481 423 481 423 C481 423 496 423 496 423 L496 423 Z " />
<glyph glyph-name="[namenotfound]" unicode="&#xf078;" horiz-adv-x="726" d="M795 583 C795 583 754 583 754 583 C754 583 686 583 686 583 C686 583 591 583 591 583 C590 579 588 565 587 563 C587 563 606 563 606 563 C645 563 656 554 536 433 C536 433 456 353 456 353 C456 353 406 443 406 443 C406 443 406 443 406 443 C343 555 356 563 392 563 C392 563 411 563 411 563 C412 567 414 581 415 583 C415 583 327 583 327 583 C327 583 149 583 149 583 C149 583 111 583 111 583 C110 579 108 565 107 563 C107 563 132 563 132 563 C151 563 165 555 227 443 C227 443 228 443 228 443 C228 443 331 258 331 258 C331 258 161 93 161 93 C89 26 66 20 36 20 C36 20 12 20 12 20 C12 18 12 8 9 0 C9 0 65 0 65 0 C65 0 126 0 126 0 C126 0 256 0 256 0 C256 2 259 12 259 20 C259 20 240 20 240 20 C185 20 158 25 207 85 C207 85 268 149 268 149 C268 149 269 150 269 150 C269 150 269 150 269 150 C269 150 346 231 346 231 C346 231 397 140 397 140 C397 140 397 140 397 140 C460 28 446 20 411 20 C411 20 392 20 392 20 C391 16 389 2 388 0 C388 0 476 0 476 0 C476 0 655 0 655 0 C655 0 700 0 700 0 C701 4 703 18 704 20 C704 20 680 20 680 20 C656 20 639 28 577 140 C577 140 576 140 576 140 C576 140 471 327 471 327 C471 327 566 413 566 413 C566 413 566 413 566 413 C567 414 568 415 569 416 C569 416 709 542 709 542 C736 561 751 563 767 563 C767 563 791 563 791 563 C792 567 794 581 795 583 C795 583 795 583 795 583 L795 583 Z " />
</font>
</svg>
