<?xml version="1.0" encoding="UTF-8"?>
<svg xmlns="http://www.w3.org/2000/svg" xmlns:xlink="http://www.w3.org/1999/xlink" version="1.2" >
<font id="Aludra Bold">
<font-face  font-family="Aludra" units-per-em="1024" ascent="975" descent="-300" font-style="normal" font-weight="700" font-stretch="normal" cap-height="750" x-height="500" underline-position="0" underline-thickness="0" />
<missing-glyph  horiz-adv-x="472" d="M0 700 C0 700 432 700 432 700 C432 700 432 0 432 0 C432 0 0 0 0 0 C0 0 0 700 0 700 L0 700 Z M50 50 C50 50 382 50 382 50 C382 50 382 650 382 650 C382 650 50 650 50 650 C50 650 50 50 50 50 L50 50 Z " />
<glyph glyph-name="NULL" d="" />
<glyph glyph-name="CR" unicode="&#xd;" horiz-adv-x="256" d="" />
<glyph glyph-name="space" unicode="&#x20;" horiz-adv-x="250" d="" />
<glyph glyph-name="exclam" unicode="&#x21;" horiz-adv-x="280" d="M140 -5 C193 -5 220 22 220 75 C220 128 193 155 140 155 C87 155 60 128 60 75 C60 22 87 -5 140 -5 L140 -5 Z M140 755 C65 755 59 714 70 632 C70 632 130 210 130 210 C130 210 151 210 151 210 C151 210 211 632 211 632 C222 714 216 755 140 755 L140 755 Z " />
<glyph glyph-name="quotedbl" unicode="&#x22;" horiz-adv-x="325" d="M736 750 C696 750 694 735 703 705 C703 705 743 560 743 560 C743 560 757 560 757 560 C757 560 797 705 797 705 C806 735 804 750 764 750 C764 750 736 750 736 750 L736 750 Z " />
<glyph glyph-name="numbersign" unicode="&#x23;" horiz-adv-x="553" d="M390 656 C390 656 367 504 367 504 C367 504 237 504 237 504 C237 504 260 656 260 656 C260 656 215 656 215 656 C215 656 192 504 192 504 C192 504 71 504 71 504 C71 504 59 416 59 416 C59 416 178 416 178 416 C178 416 152 244 152 244 C152 244 28 244 28 244 C28 244 16 156 16 156 C16 156 139 156 139 156 C139 156 115 0 115 0 C115 0 159 0 159 0 C159 0 183 156 183 156 C183 156 314 156 314 156 C314 156 290 0 290 0 C290 0 334 0 334 0 C334 0 358 156 358 156 C358 156 473 156 473 156 C473 156 486 244 486 244 C486 244 372 244 372 244 C372 244 398 416 398 416 C398 416 522 416 522 416 C522 416 534 504 534 504 C534 504 412 504 412 504 C412 504 435 656 435 656 C435 656 390 656 390 656 L390 656 Z M223 416 C223 416 353 416 353 416 C353 416 327 244 327 244 C327 244 197 244 197 244 C197 244 223 416 223 416 L223 416 Z " />
<glyph glyph-name="dollar" unicode="&#x24;" horiz-adv-x="554" d="M293 825 C293 825 293 759 293 759 C284 760 274 760 264 760 C261 760 257 760 254 760 C254 760 254 825 254 825 C254 825 213 825 213 825 C213 825 213 756 213 756 C111 740 59 673 59 553 C59 445 101 371 213 321 C213 321 213 41 213 41 C209 42 206 44 202 45 C202 45 203 45 203 45 C136 70 85 155 68 227 C65 241 63 248 63 248 C63 248 48 248 48 248 C48 248 48 146 48 146 C48 146 48 1 48 1 C48 1 63 1 63 1 C63 1 65 13 68 37 C70 57 94 63 136 33 C136 33 137 33 137 33 C160 17 185 5 213 -2 C213 -2 213 -75 213 -75 C213 -75 254 -75 254 -75 C254 -75 254 -9 254 -9 C263 -10 273 -10 283 -10 C286 -10 290 -10 293 -10 C293 -10 293 -75 293 -75 C293 -75 334 -75 334 -75 C334 -75 334 -7 334 -7 C453 8 514 79 514 205 C514 313 465 386 334 437 C334 437 334 715 334 715 C398 689 442 625 457 563 C460 549 462 542 462 542 C462 542 477 542 477 542 C477 542 477 644 477 644 C477 644 477 759 477 759 C477 759 462 759 462 759 C462 759 460 749 457 731 C454 713 437 705 410 723 C410 723 410 723 410 723 C388 737 363 747 334 753 C334 753 334 825 334 825 C334 825 293 825 293 825 L293 825 Z M293 727 C293 727 293 453 293 453 C279 459 266 465 254 471 C254 471 254 728 254 728 C257 728 261 728 264 728 C274 728 283 728 292 727 C292 727 293 727 293 727 C293 727 293 727 293 727 L293 727 Z M254 304 C268 299 281 294 293 288 C293 288 293 31 293 31 C290 31 286 31 283 31 C273 31 263 32 254 33 C254 33 254 304 254 304 L254 304 Z M334 268 C390 237 412 205 412 168 C412 97 386 54 334 38 C334 38 334 268 334 268 L334 268 Z M213 498 C175 528 159 562 159 602 C159 662 177 701 213 718 C213 718 213 498 213 498 L213 498 Z " />
<glyph glyph-name="ampersand" unicode="&#x26;" horiz-adv-x="339" d="M344 467 C453 504 508 552 508 610 C508 710 443 760 315 760 C198 760 139 705 139 595 C139 538 166 498 220 434 C95 389 32 309 32 196 C32 59 103 -10 245 -10 C340 -10 427 28 505 102 C505 102 522 82 522 82 C574 21 634 -10 700 -10 C780 -10 827 42 839 145 C839 145 819 152 819 152 C814 107 790 84 748 84 C697 84 655 104 622 142 C622 142 580 191 580 191 C637 270 689 373 735 500 C735 500 708 500 708 500 C664 380 613 286 555 220 C555 220 361 447 361 447 C355 454 349 461 344 467 C344 467 344 467 344 467 L344 467 Z M332 482 C271 554 240 595 240 655 C240 707 265 733 315 733 C380 733 413 694 413 617 C413 551 386 506 332 482 L332 482 Z M469 144 C421 113 368 97 312 97 C206 97 153 142 153 231 C153 326 179 390 232 421 C241 410 251 399 261 387 C261 387 469 144 469 144 L469 144 Z " />
<glyph glyph-name="quotesingle" unicode="&#x27;" horiz-adv-x="204" d="" />
<glyph glyph-name="parenleft" unicode="&#x28;" horiz-adv-x="500" d="M320 760 C147 643 59 480 59 273 C59 76 144 -87 313 -214 C313 -214 320 -201 320 -201 C201 -111 141 48 141 273 C141 504 203 663 327 747 C327 747 320 760 320 760 L320 760 Z " />
<glyph glyph-name="parenright" unicode="&#x29;" horiz-adv-x="500" d="M23 747 C147 667 209 507 209 273 C209 35 149 -124 30 -201 C30 -201 37 -214 37 -214 C206 -105 291 58 291 273 C291 484 203 648 30 760 C30 760 23 747 23 747 L23 747 Z " />
<glyph glyph-name="asterisk" unicode="&#x2a;" horiz-adv-x="300" d="M137 630 C137 630 29 600 29 600 C5 594 1 578 16 552 C30 527 46 523 64 540 C64 540 144 619 144 619 C144 619 115 510 115 510 C109 487 121 475 150 475 C179 475 191 487 185 510 C185 510 156 619 156 619 C156 619 236 540 236 540 C254 523 270 527 284 552 C299 578 295 594 271 600 C271 600 163 630 163 630 C163 630 271 660 271 660 C295 666 299 682 284 707 C270 733 254 737 236 720 C236 720 156 641 156 641 C156 641 185 750 185 750 C191 773 179 785 150 785 C121 785 109 773 115 750 C115 750 144 641 144 641 C144 641 64 720 64 720 C46 737 30 733 16 707 C1 682 5 666 29 660 C29 660 137 630 137 630 L137 630 Z " />
<glyph glyph-name="plus" unicode="&#x2b;" horiz-adv-x="620" d="M265 460 C265 460 265 291 265 291 C265 291 100 291 100 291 C100 291 100 209 100 209 C100 209 265 209 265 209 C265 209 265 40 265 40 C265 40 355 40 355 40 C355 40 355 209 355 209 C355 209 520 209 520 209 C520 209 520 291 520 291 C520 291 355 291 355 291 C355 291 355 460 355 460 C355 460 265 460 265 460 L265 460 Z " />
<glyph glyph-name="comma" unicode="&#x2c;" horiz-adv-x="267" d="M150 0 C151 -7 151 -15 151 -23 C151 -67 122 -90 65 -90 C65 -90 65 -117 65 -117 C153 -117 198 -72 198 18 C198 83 173 115 125 115 C85 115 65 95 65 55 C65 15 85 -5 125 -5 C135 -5 143 -3 150 0 L150 0 Z " />
<glyph glyph-name="hyphen" unicode="&#x2d;" horiz-adv-x="430" d="M80 240 C80 240 350 240 350 240 C350 240 350 330 350 330 C350 330 80 330 80 330 C80 330 80 240 80 240 L80 240 Z " />
<glyph glyph-name="period" unicode="&#x2e;" horiz-adv-x="195" d="M125 -5 C178 -5 205 22 205 75 C205 128 178 155 125 155 C72 155 45 128 45 75 C45 22 72 -5 125 -5 L125 -5 Z " />
<glyph glyph-name="slash" unicode="&#x2f;" horiz-adv-x="397" d="M300 770 C300 770 18 -80 18 -80 C18 -80 86 -80 86 -80 C86 -80 368 770 368 770 C368 770 300 770 300 770 L300 770 Z " />
<glyph glyph-name="zero" unicode="0" horiz-adv-x="613" d="M305 37 C180 37 96 108 96 250 C96 377 166 463 305 463 C430 463 514 392 514 250 C514 123 444 37 305 37 L305 37 Z M41 250 C41 77 147 -10 305 -10 C480 -10 569 95 569 250 C569 423 463 510 305 510 C130 510 41 405 41 250 L41 250 Z " />
<glyph glyph-name="one" unicode="1" horiz-adv-x="395" d="M355 500 C355 500 40 500 40 500 C40 500 40 480 40 480 C40 480 70 480 70 480 C117 480 140 479 140 465 C140 465 140 35 140 35 C140 21 117 20 70 20 C70 20 40 20 40 20 C40 20 40 0 40 0 C40 0 355 0 355 0 C355 0 355 20 355 20 C355 20 325 20 325 20 C278 20 255 21 255 35 C255 35 255 465 255 465 C255 479 278 480 325 480 C325 480 355 480 355 480 C355 480 355 500 355 500 L355 500 Z " />
<glyph glyph-name="two" unicode="2" horiz-adv-x="553" d="M519 167 C519 167 501 137 501 137 C486 114 471 102 369 102 C369 102 220 102 220 102 C365 187 454 265 454 347 C454 455 395 510 279 510 C149 510 70 438 42 294 C42 294 66 289 66 289 C83 378 135 423 220 423 C299 423 339 388 339 320 C339 197 215 114 30 20 C30 20 30 0 30 0 C30 0 291 0 291 0 C291 0 435 0 435 0 C469 54 503 107 535 161 C535 161 519 167 519 167 L519 167 Z " />
<glyph glyph-name="three" unicode="3" horiz-adv-x="456" d="M16 -209 C16 -209 20 -232 20 -232 C284 -204 417 -121 417 15 C417 133 359 201 246 218 C246 218 245 217 245 217 C339 270 386 321 386 387 C386 469 330 510 220 510 C110 510 43 457 19 352 C19 352 44 345 44 345 C56 401 100 429 174 429 C234 429 264 402 264 348 C264 263 210 218 104 173 C104 173 104 150 104 150 C231 132 295 76 295 -18 C295 -126 201 -190 16 -209 C16 -209 16 -209 16 -209 L16 -209 Z " />
<glyph glyph-name="four" unicode="4" horiz-adv-x="620" d="M616 153 C616 153 596 153 596 153 C596 153 592 123 592 123 C589 100 580 88 477 88 C477 88 415 88 415 88 C415 88 415 530 415 530 C415 530 400 530 400 530 C400 530 15 20 15 20 C15 20 15 0 15 0 C15 0 300 0 300 0 C300 0 300 -220 300 -220 C300 -220 415 -220 415 -220 C415 -220 415 0 415 0 C415 0 515 0 515 0 C571 0 574 -8 571 -25 C571 -25 567 -55 567 -55 C567 -55 587 -55 587 -55 C597 14 608 83 616 153 L616 153 Z M120 88 C120 88 300 328 300 328 C300 328 300 88 300 88 C300 88 120 88 120 88 C120 88 120 88 120 88 L120 88 Z " />
<glyph glyph-name="five" unicode="5" horiz-adv-x="442" d="M61 -235 C294 -207 412 -110 412 53 C412 207 306 285 95 285 C95 285 78 285 78 285 C78 285 97 397 97 397 C97 397 345 400 345 400 C353 447 361 493 369 540 C369 540 349 540 349 540 C349 540 347 527 347 527 C344 509 335 500 242 500 C242 500 75 500 75 500 C75 500 20 182 20 182 C20 182 40 164 40 164 C40 164 82 164 82 164 C234 164 311 114 311 14 C311 -117 226 -193 58 -214 C58 -214 61 -235 61 -235 L61 -235 Z " />
<glyph glyph-name="six" unicode="6" horiz-adv-x="569" d="M550 750 C213 678 42 526 42 295 C42 92 124 -10 286 -10 C438 -10 515 73 515 238 C515 392 445 469 306 469 C252 469 211 453 182 422 C232 587 357 691 554 733 C554 733 550 750 550 750 L550 750 Z M157 234 C157 367 202 434 292 434 C364 434 400 370 400 245 C400 97 360 23 280 23 C198 23 157 94 157 234 L157 234 Z " />
<glyph glyph-name="seven" unicode="7" horiz-adv-x="461" d="M145 500 C75 500 74 508 81 525 C81 525 88 540 88 540 C88 540 68 540 68 540 C68 540 23 441 23 441 C9 408 -6 375 -21 342 C-21 342 -1 342 -1 342 C-1 342 8 362 8 362 C22 392 32 407 78 407 C78 407 388 407 388 407 C388 407 105 -220 105 -220 C105 -220 192 -220 192 -220 C192 -220 456 485 456 485 C456 485 456 500 456 500 C456 500 145 500 145 500 L145 500 Z " />
<glyph glyph-name="eight" unicode="8" horiz-adv-x="540" d="M203 360 C214 355 225 350 237 345 C354 297 413 264 413 144 C413 60 364 17 267 17 C178 17 133 70 133 174 C133 263 156 325 203 360 C203 360 203 360 203 360 L203 360 Z M171 377 C79 327 33 259 33 174 C33 52 111 -10 267 -10 C422 -10 501 59 501 195 C501 324 450 375 348 422 C433 468 477 528 477 599 C477 706 406 760 265 760 C128 760 59 699 59 577 C59 483 97 422 171 377 L171 377 Z M316 436 C304 441 292 446 280 451 C194 486 151 535 151 620 C151 695 189 733 265 733 C340 733 378 684 378 588 C378 519 357 468 316 436 C316 436 316 436 316 436 L316 436 Z " />
<glyph glyph-name="nine" unicode="9" horiz-adv-x="569" d="M19 -250 C357 -178 527 -26 527 205 C527 408 445 510 283 510 C131 510 54 427 54 262 C54 108 125 31 264 31 C318 31 358 47 386 77 C336 -87 212 -191 15 -233 C15 -233 19 -250 19 -250 L19 -250 Z M412 266 C412 133 367 66 277 66 C205 66 169 130 169 255 C169 403 210 477 289 477 C371 477 412 406 412 266 L412 266 Z " />
<glyph glyph-name="colon" unicode="&#x3a;" horiz-adv-x="135" d="M125 385 C178 385 205 412 205 465 C205 518 178 545 125 545 C72 545 45 518 45 465 C45 412 72 385 125 385 L125 385 Z M125 -5 C178 -5 205 22 205 75 C205 128 178 155 125 155 C72 155 45 128 45 75 C45 22 72 -5 125 -5 L125 -5 Z " />
<glyph glyph-name="semicolon" unicode="&#x3b;" horiz-adv-x="267" d="M125 385 C178 385 205 412 205 465 C205 518 178 545 125 545 C72 545 45 518 45 465 C45 412 72 385 125 385 L125 385 Z M150 0 C151 -7 151 -15 151 -23 C151 -67 122 -90 65 -90 C65 -90 65 -117 65 -117 C153 -117 198 -72 198 18 C198 83 173 115 125 115 C85 115 65 95 65 55 C65 15 85 -5 125 -5 C135 -5 143 -3 150 0 L150 0 Z " />
<glyph glyph-name="equal" unicode="&#x3d;" horiz-adv-x="537" d="M88 226 C88 226 88 174 88 174 C88 174 468 174 468 174 C468 174 468 226 468 226 C468 226 88 226 88 226 L88 226 Z M88 326 C88 326 88 274 88 274 C88 274 468 274 468 274 C468 274 468 326 468 326 C468 326 88 326 88 326 L88 326 Z " />
<glyph glyph-name="question" unicode="&#x3f;" horiz-adv-x="295" d="M125 -5 C178 -5 205 22 205 75 C205 128 178 155 125 155 C72 155 45 128 45 75 C45 22 72 -5 125 -5 L125 -5 Z M127 240 C127 240 125 360 125 360 C236 360 254 386 288 437 C309 467 319 507 319 557 C319 692 261 760 145 760 C73 760 37 731 37 675 C37 637 58 618 99 618 C130 618 156 638 187 638 C252 638 285 606 285 543 C285 531 277 514 263 492 C240 457 228 440 97 440 C97 440 107 240 107 240 C107 240 127 240 127 240 L127 240 Z " />
<glyph glyph-name="at" unicode="&#x40;" horiz-adv-x="1177" d="M1039 0 C967 -155 823 -234 611 -234 C301 -234 145 -69 145 259 C145 587 294 752 589 752 C884 752 1033 615 1033 343 C1033 122 975 10 859 10 C777 10 751 74 782 200 C782 200 852 480 852 480 C852 480 744 480 744 480 C744 480 728 417 728 417 C711 466 666 490 594 490 C387 490 282 388 282 188 C282 66 343 4 463 4 C556 4 623 33 663 91 C672 10 731 -30 838 -30 C1027 -30 1123 95 1123 343 C1123 636 944 784 589 784 C235 784 56 608 56 259 C56 -90 242 -266 611 -266 C838 -266 995 -177 1077 0 C1077 0 1039 0 1039 0 L1039 0 Z M713 356 C713 356 674 200 674 200 C652 112 601 68 522 68 C446 68 408 116 408 210 C408 375 470 458 591 458 C672 458 713 423 713 356 L713 356 Z " />
<glyph glyph-name="A" unicode="A" horiz-adv-x="824" d="M459 0 C459 0 594 0 594 0 C594 0 729 0 729 0 C729 0 818 0 818 0 C818 0 818 20 818 20 C818 20 788 20 788 20 C744 20 719 28 683 140 C683 140 683 140 683 140 C683 140 494 709 494 709 C494 709 474 770 474 770 C474 770 460 770 460 770 C436 735 404 715 365 709 C365 709 369 698 369 698 C369 698 181 134 181 134 C141 28 103 20 39 20 C39 20 9 20 9 20 C9 20 9 0 9 0 C9 0 137 0 137 0 C137 0 176 0 176 0 C176 0 341 0 341 0 C341 0 341 20 341 20 C341 20 317 20 317 20 C230 20 187 29 225 157 C225 157 261 273 261 273 C261 273 506 273 506 273 C506 273 553 126 553 126 C582 27 550 20 484 20 C484 20 459 20 459 20 C459 20 459 0 459 0 L459 0 Z M271 306 C271 306 381 658 381 658 C381 658 495 306 495 306 C495 306 271 306 271 306 L271 306 Z " />
<glyph glyph-name="B" unicode="B" horiz-adv-x="720" d="M33 0 C33 0 266 0 266 0 C266 0 386 0 386 0 C582 0 681 20 681 198 C681 305 621 369 502 389 C597 415 645 476 645 571 C645 690 615 750 351 750 C351 750 266 750 266 750 C266 750 33 750 33 750 C33 750 33 730 33 730 C33 730 63 730 63 730 C113 730 138 725 138 665 C138 665 138 85 138 85 C138 25 113 20 63 20 C63 20 33 20 33 20 C33 20 33 0 33 0 L33 0 Z M266 724 C266 724 300 724 300 724 C496 724 518 668 518 557 C518 450 465 396 360 396 C360 396 266 396 266 396 C266 396 266 665 266 665 C266 665 266 724 266 724 L266 724 Z M328 374 C468 374 539 315 539 198 C539 43 477 25 354 25 C354 25 304 25 304 25 C279 25 266 43 266 80 C266 80 266 85 266 85 C266 85 266 374 266 374 C266 374 328 374 328 374 L328 374 Z " />
<glyph glyph-name="C" unicode="C" horiz-adv-x="763" d="M723 515 C723 515 723 633 723 633 C723 633 723 748 723 748 C723 748 708 748 708 748 C708 748 706 738 703 720 C699 701 674 696 632 720 C588 747 531 760 433 760 C173 760 42 631 42 375 C42 119 170 -10 423 -10 C516 -10 576 3 624 29 C624 29 624 29 624 29 C669 54 697 47 703 27 C708 7 711 -3 711 -3 C711 -3 723 -3 723 -3 C723 -3 723 117 723 117 C723 117 723 235 723 235 C723 235 708 235 708 235 C708 235 706 228 703 213 C695 178 673 137 640 102 C585 48 530 20 435 20 C268 20 183 139 183 375 C183 610 271 728 446 728 C557 728 601 694 659 628 C681 599 696 566 703 536 C706 522 708 515 708 515 C708 515 723 515 723 515 L723 515 Z " />
<glyph glyph-name="D" unicode="D" horiz-adv-x="881" d="M33 0 C33 0 138 0 138 0 C138 0 266 0 266 0 C266 0 346 0 346 0 C666 0 827 101 827 375 C827 624 708 750 386 750 C386 750 266 750 266 750 C266 750 138 750 138 750 C138 750 33 750 33 750 C33 750 33 730 33 730 C33 730 63 730 63 730 C113 730 138 725 138 665 C138 665 138 85 138 85 C138 25 113 20 63 20 C63 20 33 20 33 20 C33 20 33 0 33 0 L33 0 Z M266 724 C266 724 284 725 284 725 C577 725 685 608 685 375 C685 120 558 26 308 26 C266 26 266 44 266 80 C266 80 266 85 266 85 C266 85 266 665 266 665 C266 665 266 724 266 724 L266 724 Z " />
<glyph glyph-name="E" unicode="E" horiz-adv-x="673" d="M587 598 C583 649 580 700 576 750 C576 750 456 750 456 750 C456 750 266 750 266 750 C266 750 138 750 138 750 C138 750 33 750 33 750 C33 750 33 730 33 730 C33 730 63 730 63 730 C113 730 138 725 138 665 C138 665 138 85 138 85 C138 25 113 20 63 20 C63 20 33 20 33 20 C33 20 33 0 33 0 C33 0 138 0 138 0 C138 0 266 0 266 0 C266 0 481 0 481 0 C481 0 601 0 601 0 C609 51 615 101 623 152 C623 152 603 152 603 152 C603 152 599 122 599 122 C589 59 578 27 485 27 C485 27 346 27 346 27 C266 27 266 45 266 80 C266 80 266 85 266 85 C266 85 266 385 266 385 C266 385 396 385 396 385 C489 385 496 348 496 275 C496 275 496 245 496 245 C496 245 516 245 516 245 C516 245 516 385 516 385 C516 385 516 416 516 416 C516 416 516 556 516 556 C516 556 496 556 496 556 C496 556 496 526 496 526 C496 453 489 416 396 416 C396 416 266 416 266 416 C266 416 266 665 266 665 C266 665 266 723 266 723 C266 723 458 723 458 723 C569 723 561 687 566 616 C566 616 567 598 567 598 C567 598 587 598 587 598 L587 598 Z " />
<glyph glyph-name="F" unicode="F" horiz-adv-x="648" d="M589 606 C589 606 583 678 583 678 C580 702 578 726 576 750 C576 750 456 750 456 750 C456 750 266 750 266 750 C266 750 138 750 138 750 C138 750 33 750 33 750 C33 750 33 730 33 730 C33 730 63 730 63 730 C113 730 138 725 138 665 C138 665 138 85 138 85 C138 25 113 20 63 20 C63 20 33 20 33 20 C33 20 33 0 33 0 C33 0 138 0 138 0 C138 0 266 0 266 0 C266 0 371 0 371 0 C371 0 371 20 371 20 C371 20 341 20 341 20 C291 20 266 25 266 85 C266 85 266 354 266 354 C266 354 474 354 474 354 C485 338 488 315 490 286 C490 286 494 240 494 240 C494 240 506 240 506 240 C506 240 506 354 506 354 C506 354 506 385 506 385 C506 385 506 499 506 499 C506 499 494 499 494 499 C494 499 490 454 490 454 C486 408 477 385 386 385 C386 385 266 385 266 385 C266 385 266 665 266 665 C266 665 266 728 266 728 C266 728 378 728 378 728 C545 728 561 696 567 633 C567 633 569 603 569 603 C571 603 577 603 589 606 L589 606 Z " />
<glyph glyph-name="G" unicode="G" horiz-adv-x="841" d="M723 515 C723 515 723 633 723 633 C723 633 723 748 723 748 C723 748 708 748 708 748 C708 748 706 738 703 720 C699 701 674 696 632 720 C588 747 531 760 433 760 C173 760 42 631 42 375 C42 119 174 -10 434 -10 C602 -10 678 13 775 58 C775 58 767 77 767 77 C744 66 722 57 699 50 C699 50 699 245 699 245 C699 301 718 305 754 305 C754 305 784 305 784 305 C784 305 784 325 784 325 C784 325 471 325 471 325 C471 325 471 305 471 305 C471 305 501 305 501 305 C547 305 571 301 571 245 C571 245 572 136 572 136 C569 60 527 21 445 21 C271 21 183 140 183 375 C183 610 271 728 446 728 C557 728 601 694 659 628 C681 599 696 566 703 536 C706 522 708 515 708 515 C708 515 723 515 723 515 L723 515 Z " />
<glyph glyph-name="H" unicode="H" horiz-adv-x="889" d="M850 750 C850 750 511 750 511 750 C511 750 511 730 511 730 C511 730 541 730 541 730 C591 730 616 726 616 670 C616 670 616 400 616 400 C616 400 302 400 302 400 C302 400 302 670 302 670 C302 726 327 730 377 730 C377 730 407 730 407 730 C407 730 407 750 407 750 C407 750 69 750 69 750 C69 750 69 730 69 730 C69 730 99 730 99 730 C149 730 174 726 174 670 C174 670 174 80 174 80 C174 24 149 20 99 20 C99 20 69 20 69 20 C69 20 69 0 69 0 C69 0 407 0 407 0 C407 0 407 20 407 20 C407 20 377 20 377 20 C327 20 302 24 302 80 C302 80 302 366 302 366 C302 366 616 366 616 366 C616 366 616 80 616 80 C616 24 591 20 541 20 C541 20 511 20 511 20 C511 20 511 0 511 0 C511 0 850 0 850 0 C850 0 850 20 850 20 C850 20 820 20 820 20 C770 20 745 24 745 80 C745 80 745 670 745 670 C745 726 770 730 820 730 C820 730 850 730 850 730 C850 730 850 750 850 750 L850 750 Z " />
<glyph glyph-name="I" unicode="I" horiz-adv-x="399" d="M359 750 C359 750 21 750 21 750 C21 750 21 730 21 730 C21 730 51 730 51 730 C101 730 126 726 126 670 C126 670 126 80 126 80 C126 24 101 20 51 20 C51 20 21 20 21 20 C21 20 21 0 21 0 C21 0 359 0 359 0 C359 0 359 20 359 20 C359 20 329 20 329 20 C279 20 254 24 254 80 C254 80 254 670 254 670 C254 726 279 730 329 730 C329 730 359 730 359 730 C359 730 359 750 359 750 L359 750 Z " />
<glyph glyph-name="J" unicode="J" horiz-adv-x="399" d="M359 750 C359 750 21 750 21 750 C21 750 21 730 21 730 C21 730 51 730 51 730 C101 730 126 726 126 670 C126 670 125 -99 125 -99 C125 -170 75 -175 32 -175 C-40 -175 3 -66 -69 -66 C-110 -66 -130 -87 -130 -127 C-130 -189 -86 -220 1 -220 C119 -220 255 -195 255 143 C255 143 254 670 254 670 C254 726 279 730 329 730 C329 730 359 730 359 730 C359 730 359 750 359 750 L359 750 Z " />
<glyph glyph-name="K" unicode="K" horiz-adv-x="814" d="M799 20 C799 20 761 20 761 20 C731 20 695 45 668 78 C668 78 367 455 367 455 C367 455 558 679 558 679 C602 726 629 730 666 730 C666 730 696 730 696 730 C696 730 696 750 696 750 C696 750 618 750 618 750 C618 750 567 750 567 750 C567 750 427 750 427 750 C427 750 427 730 427 730 C427 730 449 730 449 730 C514 730 541 723 467 626 C467 626 266 375 266 375 C266 375 266 690 266 690 C266 727 291 730 341 730 C341 730 371 730 371 730 C371 730 371 750 371 750 C371 750 266 750 266 750 C266 750 138 750 138 750 C138 750 33 750 33 750 C33 750 33 730 33 730 C33 730 63 730 63 730 C113 730 138 727 138 690 C138 690 138 60 138 60 C138 23 113 20 63 20 C63 20 33 20 33 20 C33 20 33 0 33 0 C33 0 138 0 138 0 C138 0 266 0 266 0 C266 0 371 0 371 0 C371 0 371 20 371 20 C371 20 341 20 341 20 C291 20 266 23 266 60 C266 60 266 375 266 375 C266 375 563 0 563 0 C563 0 563 0 563 0 C563 0 563 0 563 0 C563 0 563 0 563 0 C563 0 730 0 730 0 C730 0 799 0 799 0 C799 0 799 20 799 20 L799 20 Z " />
<glyph glyph-name="L" unicode="L" horiz-adv-x="664" d="M589 22 C589 22 589 22 589 22 C603 76 617 129 633 184 C632 184 613 187 613 187 C613 187 605 157 605 157 C581 67 558 22 404 22 C404 22 334 22 334 22 C254 22 254 41 254 80 C254 80 254 85 254 85 C254 85 254 665 254 665 C254 725 279 730 329 730 C329 730 359 730 359 730 C359 730 359 750 359 750 C359 750 254 750 254 750 C254 750 126 750 126 750 C126 750 21 750 21 750 C21 750 21 730 21 730 C21 730 51 730 51 730 C101 730 126 725 126 665 C126 665 126 85 126 85 C126 25 101 20 51 20 C51 20 21 20 21 20 C21 20 21 0 21 0 C21 0 126 0 126 0 C126 0 254 0 254 0 C254 0 398 0 398 0 C398 0 583 0 583 0 C583 0 589 22 589 22 L589 22 Z " />
<glyph glyph-name="M" unicode="M" horiz-adv-x="925" d="M32 730 C32 730 62 730 62 730 C103 730 129 727 150 692 C150 692 134 150 134 150 C134 150 133 150 133 150 C129 29 97 20 34 20 C34 20 4 20 4 20 C4 20 4 0 4 0 C4 0 129 0 129 0 C129 0 174 0 174 0 C174 0 299 0 299 0 C299 0 299 20 299 20 C299 20 269 20 269 20 C205 20 172 28 176 140 C176 140 176 140 176 140 C176 140 182 621 182 621 C267 414 353 207 438 0 C438 0 470 0 470 0 C470 0 687 628 687 628 C687 628 700 82 700 82 C700 25 674 20 625 20 C625 20 595 20 595 20 C595 20 595 0 595 0 C595 0 702 0 702 0 C702 0 830 0 830 0 C830 0 933 0 933 0 C933 0 933 20 933 20 C933 20 903 20 903 20 C854 20 829 25 828 85 C828 85 827 85 827 85 C827 85 811 601 811 601 C811 721 836 730 881 730 C881 730 911 730 911 730 C911 730 911 750 911 750 C911 750 806 750 806 750 C806 750 729 750 729 750 C729 750 684 750 684 750 C684 750 493 167 493 167 C493 167 283 750 283 750 C283 750 184 750 184 750 C184 750 152 750 152 750 C152 750 129 750 129 750 C129 750 32 750 32 750 C32 750 32 730 32 730 L32 730 Z " />
<glyph glyph-name="N" unicode="N" horiz-adv-x="797" d="M-10 730 C-10 730 27 730 27 730 C46 730 57 728 82 695 C82 695 82 695 82 695 C82 695 137 625 137 625 C137 625 135 126 135 126 C130 28 99 20 40 20 C40 20 10 20 10 20 C10 20 10 0 10 0 C10 0 135 0 135 0 C135 0 174 0 174 0 C174 0 299 0 299 0 C299 0 299 20 299 20 C299 20 269 20 269 20 C208 20 176 27 173 127 C173 127 170 581 170 581 C170 581 477 183 477 183 C477 183 617 0 617 0 C617 0 643 0 643 0 C643 0 652 652 652 652 C657 724 688 730 746 730 C746 730 776 730 776 730 C776 730 776 750 776 750 C776 750 653 750 653 750 C653 750 614 750 614 750 C614 750 490 750 490 750 C490 750 490 730 490 730 C490 730 520 730 520 730 C578 730 610 724 614 647 C614 647 616 212 616 212 C616 212 580 259 580 259 C580 259 199 750 199 750 C199 750 169 750 169 750 C169 750 137 750 137 750 C137 750 40 750 40 750 C40 750 -10 750 -10 750 C-10 750 -10 730 -10 730 L-10 730 Z " />
<glyph glyph-name="O" unicode="O" horiz-adv-x="889" d="M429 24 C268 24 187 142 187 375 C187 608 267 726 426 726 C599 726 687 608 687 375 C687 142 600 24 429 24 L429 24 Z M40 375 C40 119 168 -10 422 -10 C696 -10 834 119 834 375 C834 631 699 760 432 760 C172 760 40 631 40 375 L40 375 Z " />
<glyph glyph-name="P" unicode="P" horiz-adv-x="663" d="M65 730 C65 730 95 730 95 730 C145 730 170 725 170 665 C170 665 170 85 170 85 C170 25 145 20 95 20 C95 20 65 20 65 20 C65 20 65 0 65 0 C65 0 170 0 170 0 C170 0 299 0 299 0 C299 0 404 0 404 0 C404 0 404 20 404 20 C404 20 374 20 374 20 C324 20 299 25 299 85 C299 85 299 338 299 338 C299 338 349 338 349 338 C545 338 644 385 644 538 C644 679 562 750 399 750 C399 750 299 750 299 750 C299 750 170 750 170 750 C170 750 65 750 65 750 C65 750 65 730 65 730 L65 730 Z M299 365 C299 365 299 665 299 665 C299 665 299 728 299 728 C299 728 366 728 366 728 C470 728 523 671 523 559 C523 411 464 365 349 365 C349 365 299 365 299 365 L299 365 Z " />
<glyph glyph-name="Q" unicode="Q" horiz-adv-x="884" d="M1184 -40 C1184 -40 1175 -29 1175 -29 C1134 -63 1028 -80 858 -80 C720 -80 591 -56 472 -8 C713 7 834 135 834 375 C834 631 699 760 432 760 C172 760 40 631 40 375 C40 216 138 106 243 46 C506 -109 706 -187 839 -187 C951 -187 1067 -138 1184 -40 L1184 -40 Z M429 24 C412 24 391 29 369 40 C365 42 362 44 358 46 C358 46 357 46 357 46 C278 90 187 200 187 375 C187 608 267 726 426 726 C599 726 687 608 687 375 C687 142 600 24 429 24 L429 24 Z " />
<glyph glyph-name="R" unicode="R" horiz-adv-x="824" d="M33 730 C33 730 63 730 63 730 C113 730 138 725 138 665 C138 665 138 85 138 85 C138 25 113 20 63 20 C63 20 33 20 33 20 C33 20 33 0 33 0 C33 0 371 0 371 0 C371 0 371 20 371 20 C371 20 341 20 341 20 C291 20 266 25 266 85 C266 85 266 348 266 348 C266 348 343 348 343 348 C364 312 429 222 537 80 C602 -5 584 0 815 0 C815 0 815 26 815 26 C724 26 732 23 687 80 C580 221 510 314 476 357 C585 377 640 429 640 537 C640 678 542 750 348 750 C348 750 266 750 266 750 C266 750 33 750 33 750 C33 750 33 730 33 730 L33 730 Z M266 724 C266 724 310 724 310 724 C435 724 498 670 498 562 C498 423 448 380 348 380 C348 380 266 380 266 380 C266 380 266 665 266 665 C266 665 266 724 266 724 L266 724 Z " />
<glyph glyph-name="S" unicode="S" horiz-adv-x="554" d="M477 542 C477 542 477 644 477 644 C477 644 477 759 477 759 C477 759 462 759 462 759 C462 759 460 749 457 731 C454 713 437 705 410 723 C410 723 410 723 410 723 C372 748 324 760 264 760 C128 760 59 691 59 553 C59 435 109 358 244 308 C367 263 412 220 412 168 C412 77 369 31 283 31 C253 31 227 36 202 45 C202 45 203 45 203 45 C136 70 85 155 68 227 C65 241 63 248 63 248 C63 248 48 248 48 248 C48 248 48 146 48 146 C48 146 48 1 48 1 C48 1 63 1 63 1 C63 1 65 13 68 37 C70 57 94 63 136 33 C136 33 137 33 137 33 C177 4 226 -10 283 -10 C436 -10 514 62 514 205 C514 316 462 391 321 442 C203 485 159 535 159 602 C159 686 194 728 264 728 C274 728 283 728 292 727 C378 715 439 638 457 563 C460 549 462 542 462 542 C462 542 477 542 477 542 L477 542 Z " />
<glyph glyph-name="T" unicode="T" horiz-adv-x="775" d="M757 615 C745 649 733 684 720 718 C720 718 720 718 720 718 C720 718 720 750 720 750 C720 750 708 750 708 750 C703 763 699 776 694 789 C694 789 691 789 684 790 C684 790 674 790 674 790 C674 790 678 777 678 777 C685 759 681 750 588 750 C588 750 452 750 452 750 C452 750 323 750 323 750 C323 750 187 750 187 750 C94 750 90 759 97 777 C97 777 101 790 101 790 C101 790 91 790 91 790 C84 789 81 789 81 789 C76 776 72 763 67 750 C67 750 55 750 55 750 C55 750 55 718 55 718 C55 718 55 718 55 718 C42 684 30 649 18 615 C22 614 35 613 37 613 C37 613 48 643 48 643 C66 693 82 718 175 718 C175 718 323 718 323 718 C323 718 323 80 323 80 C323 24 298 20 248 20 C248 20 218 20 218 20 C218 20 218 0 218 0 C218 0 557 0 557 0 C557 0 557 20 557 20 C557 20 527 20 527 20 C477 20 452 24 452 80 C452 80 452 718 452 718 C452 718 600 718 600 718 C693 718 709 693 727 643 C727 643 738 613 738 613 C742 614 755 615 757 615 C757 615 757 615 757 615 L757 615 Z " />
<glyph glyph-name="U" unicode="U" horiz-adv-x="802" d="M454 730 C454 730 484 730 484 730 C534 730 559 725 559 665 C559 665 559 199 559 199 C520 115 455 73 365 73 C276 73 231 122 231 220 C231 220 231 665 231 665 C231 665 231 750 231 750 C231 750 -2 750 -2 750 C-2 750 -2 730 -2 730 C-2 730 28 730 28 730 C78 730 103 725 103 665 C103 665 103 220 103 220 C103 67 174 -10 313 -10 C430 -10 513 41 559 142 C559 142 559 110 559 110 C559 110 559 0 559 0 C559 0 580 0 580 0 C580 0 792 55 792 55 C792 55 792 65 792 65 C695 60 688 62 688 110 C688 110 688 665 688 665 C688 665 688 750 688 750 C688 750 454 750 454 750 C454 750 454 730 454 730 L454 730 Z " />
<glyph glyph-name="V" unicode="V" horiz-adv-x="861" d="M376 750 C376 750 211 750 211 750 C211 750 63 750 63 750 C63 750 7 750 7 750 C7 750 7 730 7 730 C7 730 44 730 44 730 C63 730 73 727 89 690 C89 690 90 690 90 690 C90 690 317 174 317 174 C317 174 398 -10 398 -10 C398 -10 423 -10 423 -10 C423 -10 677 610 677 610 C677 610 677 610 677 610 C678 614 680 617 681 621 C681 621 691 644 691 644 C725 724 750 730 791 730 C791 730 821 730 821 730 C821 730 821 750 821 750 C821 750 734 750 734 750 C734 750 683 750 683 750 C683 750 518 750 518 750 C518 750 518 730 518 730 C518 730 541 730 541 730 C630 730 672 722 630 610 C630 610 630 610 630 610 C630 610 467 174 467 174 C467 174 268 621 268 621 C227 723 268 730 353 730 C353 730 376 730 376 730 C376 730 376 750 376 750 L376 750 Z " />
<glyph glyph-name="W" unicode="W" horiz-adv-x="1186" d="M1149 750 C1149 750 1060 750 1060 750 C1060 750 1007 750 1007 750 C1007 750 842 750 842 750 C842 750 842 730 842 730 C842 730 866 730 866 730 C956 730 999 722 969 610 C969 610 969 610 969 610 C969 610 856 187 856 187 C856 187 657 657 657 657 C633 725 669 730 739 730 C739 730 763 730 763 730 C763 730 763 750 763 750 C763 750 618 750 618 750 C618 750 469 750 469 750 C469 750 383 750 383 750 C383 750 383 730 383 730 C383 730 413 730 413 730 C452 730 475 727 492 698 C521 632 550 566 579 500 C579 500 579 500 579 500 C579 500 466 162 466 162 C466 162 285 610 285 610 C285 610 285 610 285 610 C238 722 273 730 349 730 C349 730 373 730 373 730 C373 730 373 750 373 750 C373 750 228 750 228 750 C228 750 87 750 87 750 C87 750 30 750 30 750 C30 750 30 730 30 730 C30 730 67 730 67 730 C86 730 99 722 146 610 C146 610 146 610 146 610 C233 403 320 196 408 -10 C408 -10 441 -10 441 -10 C441 -10 604 444 604 444 C670 293 737 142 803 -10 C803 -10 837 -10 837 -10 C837 -10 1019 610 1019 610 C1019 610 1019 610 1019 610 C1019 611 1020 612 1020 613 C1020 613 1028 641 1028 641 C1054 724 1079 730 1119 730 C1119 730 1149 730 1149 730 C1149 730 1149 750 1149 750 L1149 750 Z " />
<glyph glyph-name="X" unicode="X" horiz-adv-x="850" d="M815 750 C815 750 746 750 746 750 C746 750 688 750 688 750 C688 750 553 750 553 750 C553 750 553 730 553 730 C553 730 576 730 576 730 C640 730 666 721 579 600 C579 600 580 600 580 600 C580 600 461 435 461 435 C461 435 345 610 345 610 C345 610 345 610 345 610 C272 722 295 730 354 730 C354 730 377 730 377 730 C377 730 377 750 377 750 C377 750 252 750 252 750 C252 750 101 750 101 750 C101 750 39 750 39 750 C39 750 39 730 39 730 C39 730 72 730 72 730 C100 730 120 722 193 610 C193 610 194 610 194 610 C194 610 370 344 370 344 C370 344 192 105 192 105 C130 26 100 20 53 20 C53 20 23 20 23 20 C23 20 23 0 23 0 C23 0 113 0 113 0 C113 0 165 0 165 0 C165 0 350 0 350 0 C350 0 350 20 350 20 C350 20 328 20 328 20 C236 20 190 27 243 113 C243 113 386 319 386 319 C386 319 504 140 504 140 C504 140 504 140 504 140 C577 28 554 20 495 20 C495 20 472 20 472 20 C472 20 472 0 472 0 C472 0 597 0 597 0 C597 0 750 0 750 0 C750 0 821 0 821 0 C821 0 821 20 821 20 C821 20 790 20 790 20 C757 20 734 27 673 116 C673 116 477 411 477 411 C477 411 695 685 695 685 C734 726 756 730 784 730 C784 730 815 730 815 730 C815 730 815 750 815 750 L815 750 Z " />
<glyph glyph-name="Y" unicode="Y" horiz-adv-x="908" d="M380 750 C380 750 275 750 275 750 C275 750 123 750 123 750 C123 750 71 750 71 750 C71 750 71 730 71 730 C71 730 108 730 108 730 C125 730 138 724 191 647 C191 647 410 316 410 316 C410 316 410 80 410 80 C410 24 385 20 335 20 C335 20 305 20 305 20 C305 20 305 0 305 0 C305 0 644 0 644 0 C644 0 644 20 644 20 C644 20 614 20 614 20 C564 20 539 24 539 80 C539 80 539 320 539 320 C539 320 710 631 710 631 C762 723 784 730 818 730 C818 730 849 730 849 730 C849 730 849 750 849 750 C849 750 775 750 775 750 C775 750 711 750 711 750 C711 750 606 750 606 750 C606 750 606 730 606 730 C606 730 631 730 631 730 C671 730 693 725 676 676 C676 676 525 361 525 361 C525 361 351 632 351 632 C294 723 312 730 355 730 C355 730 380 730 380 730 C380 730 380 750 380 750 L380 750 Z " />
<glyph glyph-name="Z" unicode="Z" horiz-adv-x="663" d="M175 0 C175 0 457 0 457 0 C457 0 617 0 617 0 C633 62 648 126 664 189 C662 189 652 190 645 192 C645 192 628 148 628 148 C603 81 582 45 497 38 C497 38 194 31 194 31 C194 31 621 723 621 723 C621 723 621 750 621 750 C621 750 495 750 495 750 C495 750 251 750 251 750 C251 750 81 750 81 750 C71 684 61 615 53 549 C56 549 68 546 78 546 C78 546 85 576 85 576 C102 660 119 707 213 715 C213 715 476 720 476 720 C476 720 36 27 36 27 C36 27 36 0 36 0 C36 0 175 0 175 0 L175 0 Z " />
<glyph glyph-name="bracketleft" unicode="&#x5b;" horiz-adv-x="302" d="M142 716 C142 716 352 716 352 716 C352 716 352 750 352 750 C352 750 142 750 142 750 C142 750 102 750 102 750 C102 750 102 -195 102 -195 C102 -195 142 -195 142 -195 C142 -195 352 -195 352 -195 C352 -195 352 -161 352 -161 C352 -161 142 -161 142 -161 C142 -161 142 716 142 716 L142 716 Z " />
<glyph glyph-name="backslash" unicode="&#x5c;" horiz-adv-x="355" d="M18 770 C18 770 278 -80 278 -80 C278 -80 346 -80 346 -80 C346 -80 86 770 86 770 C86 770 18 770 18 770 L18 770 Z " />
<glyph glyph-name="bracketright" unicode="&#x5d;" horiz-adv-x="305" d="M155 716 C155 716 155 -161 155 -161 C155 -161 -55 -161 -55 -161 C-55 -161 -55 -195 -55 -195 C-55 -195 155 -195 155 -195 C155 -195 195 -195 195 -195 C195 -195 195 750 195 750 C195 750 155 750 155 750 C155 750 -55 750 -55 750 C-55 750 -55 716 -55 716 C-55 716 155 716 155 716 L155 716 Z " />
<glyph glyph-name="underscore" unicode="&#x5f;" horiz-adv-x="455" d="M5 -50 C5 -50 5 -114 5 -114 C5 -114 450 -114 450 -114 C450 -114 450 -50 450 -50 C450 -50 5 -50 5 -50 L5 -50 Z " />
<glyph glyph-name="a" unicode="a" horiz-adv-x="514" d="M524 123 C524 123 507 131 507 131 C500 95 482 77 452 77 C417 77 400 91 400 120 C400 120 400 353 400 353 C400 473 352 510 256 510 C124 510 57 420 57 360 C57 307 81 280 129 280 C166 280 185 311 185 337 C185 360 165 372 165 399 C165 425 186 463 229 463 C266 463 285 447 285 394 C285 394 285 278 285 278 C63 210 37 200 37 94 C37 25 74 -10 149 -10 C198 -10 238 8 289 77 C302 23 340 -5 405 -5 C469 -5 509 38 524 123 C524 123 524 123 524 123 L524 123 Z M285 250 C285 250 285 120 285 120 C285 114 285 108 286 103 C256 62 235 51 210 51 C172 51 153 70 153 106 C153 207 167 214 285 250 L285 250 Z " />
<glyph glyph-name="b" unicode="b" horiz-adv-x="683" d="M62 678 C62 678 92 687 92 687 C129 698 147 697 147 623 C147 623 147 0 147 0 C147 0 154 0 154 0 C154 0 198 65 198 65 C198 65 198 65 198 65 C216 15 277 -10 379 -10 C551 -10 638 78 638 253 C638 421 560 505 405 505 C343 505 295 487 262 450 C262 450 262 650 262 650 C262 650 262 750 262 750 C262 750 242 750 242 750 C242 750 62 698 62 698 C62 698 62 678 62 678 L62 678 Z M262 417 C287 444 319 458 357 458 C459 458 510 385 510 240 C510 91 468 16 386 16 C317 16 275 34 262 70 C262 70 262 195 262 195 C262 195 262 417 262 417 L262 417 Z " />
<glyph glyph-name="c" unicode="c" horiz-adv-x="525" d="M496 128 C496 128 480 135 480 135 C457 85 411 60 342 60 C218 60 156 133 156 277 C156 415 208 484 311 484 C343 484 369 457 388 405 C402 367 421 348 445 348 C498 348 517 367 503 405 C478 475 416 510 318 510 C129 510 33 417 33 234 C33 72 123 -10 302 -10 C390 -10 455 36 496 128 L496 128 Z " />
<glyph glyph-name="d" unicode="d" horiz-adv-x="593" d="M598 55 C598 55 568 47 568 47 C532 38 513 41 513 134 C513 134 513 665 513 665 C513 665 513 750 513 750 C513 750 493 750 493 750 C493 750 313 698 313 698 C313 698 313 678 313 678 C313 678 343 687 343 687 C380 697 398 698 398 638 C398 638 398 486 398 486 C364 501 320 510 267 510 C100 510 39 422 39 249 C39 80 108 -5 244 -5 C311 -5 363 17 398 61 C398 61 398 -10 398 -10 C398 -10 419 -10 419 -10 C419 -10 598 35 598 35 C598 35 598 55 598 55 L598 55 Z M398 101 C368 63 333 43 292 43 C202 43 156 123 156 281 C156 411 189 477 280 477 C329 477 371 446 398 398 C398 398 398 110 398 110 C398 110 398 101 398 101 L398 101 Z " />
<glyph glyph-name="e" unicode="e" horiz-adv-x="535" d="M158 340 C158 340 378 340 378 340 C378 340 505 340 505 340 C482 476 415 510 293 510 C120 510 33 415 33 228 C33 70 112 -10 269 -10 C383 -10 458 37 492 131 C492 131 478 136 478 136 C462 90 401 66 297 66 C202 66 154 136 154 275 C154 299 155 320 158 340 L158 340 Z M452 374 C459 374 466 374 474 374 C474 374 452 374 452 374 L452 374 Z M372 372 C372 372 162 367 162 367 C179 445 220 484 286 484 C327 484 352 460 372 372 C372 372 372 372 372 372 L372 372 Z " />
<glyph glyph-name="f" unicode="f" horiz-adv-x="390" d="M27 0 C27 0 312 0 312 0 C312 0 312 20 312 20 C312 20 282 20 282 20 C246 20 227 21 227 35 C227 35 227 439 227 439 C227 439 380 439 380 439 C380 439 380 500 380 500 C380 500 227 500 227 500 C227 645 252 719 321 719 C395 719 391 635 452 635 C482 635 497 650 497 680 C497 730 452 755 362 755 C179 755 112 669 112 500 C112 500 26 453 26 453 C26 453 26 439 26 439 C26 439 112 439 112 439 C112 439 112 35 112 35 C112 21 94 20 57 20 C57 20 27 20 27 20 C27 20 27 0 27 0 L27 0 Z " />
<glyph glyph-name="g" unicode="g" horiz-adv-x="520" d="M182 350 C182 438 205 483 251 483 C297 483 320 438 320 350 C320 260 297 215 251 215 C205 215 182 260 182 350 L182 350 Z M154 -14 C160 -15 166 -15 172 -15 C172 -15 287 -15 287 -15 C369 -15 390 -39 390 -86 C390 -164 349 -204 269 -204 C179 -204 134 -159 134 -70 C134 -44 141 -26 154 -14 L154 -14 Z M122 -9 C67 -26 39 -55 39 -97 C39 -185 114 -230 262 -230 C410 -230 485 -172 485 -59 C485 46 447 99 299 99 C299 99 178 99 178 99 C138 100 118 112 118 137 C118 171 163 188 251 188 C373 188 435 242 435 350 C435 371 432 391 428 408 C444 434 462 447 482 447 C484 447 485 440 485 426 C485 399 503 386 538 386 C569 386 585 404 585 440 C585 477 567 495 530 495 C481 495 444 474 418 432 C392 484 336 510 251 510 C129 510 67 456 67 350 C67 276 96 227 154 204 C85 189 50 155 50 102 C50 42 74 5 122 -9 L122 -9 Z " />
<glyph glyph-name="h" unicode="h" horiz-adv-x="690" d="M23 678 C23 678 53 687 53 687 C90 698 108 697 108 623 C108 623 108 35 108 35 C108 21 90 20 53 20 C53 20 23 20 23 20 C23 20 23 0 23 0 C23 0 308 0 308 0 C308 0 308 20 308 20 C308 20 278 20 278 20 C242 20 223 21 223 35 C223 35 223 359 223 359 C250 405 298 429 366 429 C432 429 456 386 456 300 C456 300 456 35 456 35 C456 21 437 20 401 20 C401 20 371 20 371 20 C371 20 371 0 371 0 C371 0 656 0 656 0 C656 0 656 20 656 20 C656 20 626 20 626 20 C589 20 571 21 571 35 C571 35 571 300 571 300 C571 440 533 510 432 510 C338 510 268 471 223 393 C223 393 223 650 223 650 C223 650 223 750 223 750 C223 750 203 750 203 750 C203 750 23 698 23 698 C23 698 23 678 23 678 L23 678 Z " />
<glyph glyph-name="i" unicode="i" horiz-adv-x="342" d="M175 615 C224 615 249 640 249 689 C249 739 224 764 175 764 C125 764 100 739 100 689 C100 640 125 615 175 615 L175 615 Z M32 428 C32 428 62 437 62 437 C99 448 117 447 117 373 C117 373 117 35 117 35 C117 21 102 20 72 20 C72 20 42 20 42 20 C42 20 42 0 42 0 C42 0 307 0 307 0 C307 0 307 20 307 20 C307 20 277 20 277 20 C247 20 232 21 232 35 C232 35 232 400 232 400 C232 400 232 500 232 500 C232 500 212 500 212 500 C212 500 32 448 32 448 C32 448 32 428 32 428 L32 428 Z " />
<glyph glyph-name="j" unicode="j" horiz-adv-x="312" d="M165 615 C214 615 239 640 239 689 C239 739 214 764 165 764 C115 764 90 739 90 689 C90 640 115 615 165 615 L165 615 Z M22 428 C22 428 52 437 52 437 C89 448 107 447 107 373 C107 373 107 68 107 68 C107 -32 88 -93 50 -115 C17 -115 -15 -100 -48 -100 C-78 -100 -93 -113 -93 -140 C-93 -173 -73 -188 -33 -185 C-26 -184 10 -166 72 -130 C172 -72 222 -6 222 68 C222 68 222 400 222 400 C222 400 222 500 222 500 C222 500 202 500 202 500 C202 500 22 448 22 448 C22 448 22 428 22 428 L22 428 Z " />
<glyph glyph-name="k" unicode="k" horiz-adv-x="692" d="M628 500 C628 500 591 500 591 500 C591 500 543 500 543 500 C543 500 358 500 358 500 C358 500 358 480 358 480 C358 480 378 480 378 480 C465 480 497 471 325 346 C325 346 232 280 232 280 C232 280 232 650 232 650 C232 650 232 750 232 750 C232 750 212 750 212 750 C212 750 32 698 32 698 C32 698 32 678 32 678 C32 678 62 687 62 687 C99 698 117 697 117 623 C117 623 117 35 117 35 C117 21 102 20 72 20 C72 20 42 20 42 20 C42 20 42 0 42 0 C42 0 307 0 307 0 C307 0 307 20 307 20 C307 20 277 20 277 20 C247 20 232 21 232 35 C232 35 232 280 232 280 C232 280 447 35 447 35 C447 35 447 35 447 35 C459 21 446 20 417 20 C417 20 393 20 393 20 C393 20 393 0 393 0 C393 0 478 0 478 0 C478 0 627 0 627 0 C627 0 664 0 664 0 C664 0 664 20 664 20 C664 20 620 20 620 20 C615 20 611 21 604 27 C604 27 345 325 345 325 C345 325 540 464 540 464 C540 464 542 465 542 465 C562 479 572 480 591 480 C591 480 628 480 628 480 C628 480 628 500 628 500 L628 500 Z " />
<glyph glyph-name="l" unicode="l" horiz-adv-x="332" d="M22 678 C22 678 52 687 52 687 C89 698 107 697 107 623 C107 623 107 35 107 35 C107 21 90 20 57 20 C57 20 27 20 27 20 C27 20 27 0 27 0 C27 0 302 0 302 0 C302 0 302 20 302 20 C302 20 272 20 272 20 C239 20 222 21 222 35 C222 35 222 650 222 650 C222 650 222 750 222 750 C222 750 202 750 202 750 C202 750 22 698 22 698 C22 698 22 678 22 678 L22 678 Z " />
<glyph glyph-name="m" unicode="m" horiz-adv-x="951" d="M652 0 C652 0 927 0 927 0 C927 0 927 20 927 20 C927 20 897 20 897 20 C860 20 842 22 842 55 C842 55 842 300 842 300 C842 440 813 510 701 510 C625 510 565 472 522 398 C522 398 522 396 522 396 C508 472 471 510 388 510 C317 510 259 472 216 398 C216 398 216 400 216 400 C216 400 216 500 216 500 C216 500 196 500 196 500 C196 500 16 435 16 435 C16 435 16 415 16 415 C16 415 46 426 46 426 C83 439 101 440 101 366 C101 366 101 55 101 55 C101 22 83 20 46 20 C46 20 16 20 16 20 C16 20 16 0 16 0 C16 0 286 0 286 0 C286 0 286 20 286 20 C286 20 256 20 256 20 C230 20 216 22 216 55 C216 55 216 364 216 364 C240 404 282 425 341 425 C399 425 414 383 414 300 C414 300 414 55 414 55 C414 22 399 20 369 20 C369 20 339 20 339 20 C339 20 339 0 339 0 C339 0 594 0 594 0 C594 0 594 20 594 20 C594 20 564 20 564 20 C541 20 529 22 529 55 C529 55 529 300 529 300 C529 326 528 349 526 370 C550 406 593 425 654 425 C712 425 727 383 727 300 C727 300 727 55 727 55 C727 22 712 20 682 20 C682 20 652 20 652 20 C652 20 652 0 652 0 L652 0 Z " />
<glyph glyph-name="n" unicode="n" horiz-adv-x="639" d="M16 415 C16 415 46 426 46 426 C83 439 101 440 101 366 C101 366 101 35 101 35 C101 21 84 20 51 20 C51 20 21 20 21 20 C21 20 21 0 21 0 C21 0 296 0 296 0 C296 0 296 20 296 20 C296 20 266 20 266 20 C233 20 216 21 216 35 C216 35 216 359 216 359 C242 403 277 426 320 426 C389 426 414 384 414 300 C414 300 414 35 414 35 C414 21 397 20 364 20 C364 20 334 20 334 20 C334 20 334 0 334 0 C334 0 609 0 609 0 C609 0 609 20 609 20 C609 20 579 20 579 20 C546 20 529 21 529 35 C529 35 529 300 529 300 C529 440 491 510 388 510 C319 510 261 471 216 393 C216 393 216 400 216 400 C216 400 216 500 216 500 C216 500 196 500 196 500 C196 500 16 435 16 435 C16 435 16 415 16 415 L16 415 Z " />
<glyph glyph-name="o" unicode="o" horiz-adv-x="609" d="M298 25 C206 25 159 101 159 250 C159 399 206 475 298 475 C390 475 437 399 437 250 C437 101 390 25 298 25 L298 25 Z M32 250 C32 77 121 -10 298 -10 C475 -10 564 77 564 250 C564 423 475 510 298 510 C121 510 32 423 32 250 L32 250 Z " />
<glyph glyph-name="p" unicode="p" horiz-adv-x="642" d="M17 415 C17 415 47 426 47 426 C84 439 102 440 102 366 C102 366 102 -150 102 -150 C102 -197 84 -200 47 -200 C47 -200 17 -200 17 -200 C17 -200 17 -220 17 -220 C17 -220 302 -220 302 -220 C302 -220 302 -200 302 -200 C302 -200 272 -200 272 -200 C236 -200 217 -197 217 -150 C217 -150 217 32 217 32 C253 7 304 -5 369 -5 C521 -5 598 101 598 259 C598 426 521 510 369 510 C302 510 250 488 217 445 C217 445 217 500 217 500 C217 500 197 500 197 500 C197 500 17 435 17 435 C17 435 17 415 17 415 L17 415 Z M217 96 C217 96 217 399 217 399 C246 441 280 462 316 462 C420 462 472 382 472 223 C472 103 434 23 358 23 C295 23 248 48 217 96 C217 96 217 96 217 96 L217 96 Z " />
<glyph glyph-name="q" unicode="q" horiz-adv-x="626" d="M295 -220 C295 -220 580 -220 580 -220 C580 -220 580 -200 580 -200 C580 -200 550 -200 550 -200 C513 -200 495 -199 495 -185 C495 -185 495 500 495 500 C495 500 488 500 488 500 C488 500 450 440 450 440 C418 487 362 510 285 510 C103 510 36 422 36 249 C36 80 106 -5 243 -5 C298 -5 345 16 380 57 C380 57 380 -185 380 -185 C380 -199 362 -200 325 -200 C325 -200 295 -200 295 -200 C295 -200 295 -220 295 -220 L295 -220 Z M380 390 C380 390 380 97 380 97 C351 61 321 43 291 43 C201 43 155 123 155 281 C155 416 188 484 278 484 C313 484 347 452 380 390 L380 390 Z " />
<glyph glyph-name="r" unicode="r" horiz-adv-x="498" d="M22 415 C22 415 52 426 52 426 C89 439 107 440 107 366 C107 366 107 35 107 35 C107 21 92 20 62 20 C62 20 32 20 32 20 C32 20 32 0 32 0 C32 0 307 0 307 0 C307 0 307 20 307 20 C307 20 277 20 277 20 C241 20 222 21 222 35 C222 35 222 351 222 351 C246 420 277 456 314 456 C340 456 353 444 353 421 C353 377 376 354 421 354 C466 354 489 377 489 421 C489 480 448 510 367 510 C296 510 248 477 222 411 C222 411 222 500 222 500 C222 500 202 500 202 500 C202 500 22 435 22 435 C22 435 22 415 22 415 L22 415 Z " />
<glyph glyph-name="s" unicode="s" horiz-adv-x="443" d="M370 347 C370 347 370 427 370 427 C370 427 370 510 370 510 C370 510 350 510 350 510 C350 510 350 481 350 481 C350 479 332 484 299 497 C277 505 252 510 224 510 C119 510 65 464 65 372 C65 285 100 232 195 206 C275 185 305 153 305 105 C305 47 276 17 220 17 C168 17 128 47 100 107 C100 107 97 106 97 106 C92 122 89 139 89 156 C89 156 89 172 89 172 C89 172 69 172 69 172 C69 172 69 93 69 93 C69 93 69 8 69 8 C69 8 89 8 89 8 C89 8 89 29 89 29 C89 25 116 14 169 -3 C169 -3 170 -3 170 -3 C185 -8 202 -10 220 -10 C336 -10 394 40 394 138 C394 215 354 265 245 294 C173 314 146 351 146 412 C146 459 172 483 224 483 C255 483 280 475 300 462 C316 450 330 433 340 412 C340 412 340 412 340 412 C347 397 350 380 350 364 C350 364 350 347 350 347 C350 347 370 347 370 347 L370 347 Z " />
<glyph glyph-name="t" unicode="t" horiz-adv-x="411" d="M362 500 C362 500 210 500 210 500 C210 500 210 620 210 620 C210 620 202 620 202 620 C202 620 30 449 30 449 C30 449 30 439 30 439 C30 439 95 439 95 439 C95 439 95 186 95 186 C95 30 146 -10 248 -10 C336 -10 387 34 402 122 C402 122 387 125 387 125 C378 71 344 44 284 44 C232 44 206 68 207 161 C207 161 210 439 210 439 C210 439 362 439 362 439 C362 439 362 500 362 500 L362 500 Z " />
<glyph glyph-name="u" unicode="u" horiz-adv-x="626" d="M606 55 C606 55 576 47 576 47 C539 38 521 39 521 114 C521 114 521 465 521 465 C521 465 521 500 521 500 C521 500 340 500 340 500 C340 500 340 480 340 480 C340 480 370 480 370 480 C394 480 406 479 406 465 C406 465 406 150 406 150 C382 97 343 70 292 70 C236 70 208 100 208 160 C208 160 208 465 208 465 C208 465 208 500 208 500 C208 500 27 500 27 500 C27 500 27 480 27 480 C27 480 57 480 57 480 C81 480 93 479 93 465 C93 465 93 160 93 160 C93 47 142 -10 238 -10 C315 -10 371 33 406 117 C406 117 406 90 406 90 C406 90 406 -10 406 -10 C406 -10 426 -10 426 -10 C426 -10 606 35 606 35 C606 35 606 55 606 55 L606 55 Z " />
<glyph glyph-name="v" unicode="v" horiz-adv-x="629" d="M593 500 C593 500 516 500 516 500 C516 500 463 500 463 500 C463 500 368 500 368 500 C368 500 368 480 368 480 C368 480 395 480 395 480 C435 480 454 478 447 452 C447 452 289 -10 289 -10 C289 -10 322 -10 322 -10 C322 -10 491 434 491 434 C491 434 491 434 491 434 C506 477 526 480 562 480 C562 480 593 480 593 480 C593 480 593 500 593 500 L593 500 Z M275 500 C275 500 200 500 200 500 C200 500 75 500 75 500 C75 500 13 500 13 500 C13 500 13 480 13 480 C13 480 48 480 48 480 C71 480 84 478 94 453 C94 453 95 453 95 453 C95 453 289 -10 289 -10 C289 -10 341 144 341 144 C341 144 219 453 219 453 C219 453 219 453 219 453 C209 478 221 480 246 480 C246 480 275 480 275 480 C275 480 275 500 275 500 L275 500 Z " />
<glyph glyph-name="w" unicode="w" horiz-adv-x="929" d="M900 500 C900 500 823 500 823 500 C823 500 769 500 769 500 C769 500 674 500 674 500 C674 500 674 480 674 480 C674 480 701 480 701 480 C740 480 759 478 753 456 C753 456 639 143 639 143 C639 143 511 463 511 463 C505 479 513 480 529 480 C529 480 562 480 562 480 C562 480 562 500 562 500 C562 500 496 500 496 500 C496 500 367 500 367 500 C367 500 310 500 310 500 C310 500 310 480 310 480 C310 480 346 480 346 480 C364 480 375 479 382 465 C382 465 431 349 431 349 C431 349 294 -10 294 -10 C294 -10 328 -10 328 -10 C328 -10 453 297 453 297 C453 297 583 -10 583 -10 C583 -10 617 -10 617 -10 C617 -10 796 434 796 434 C796 434 797 434 797 434 C812 477 832 480 869 480 C869 480 900 480 900 480 C900 480 900 500 900 500 L900 500 Z M263 500 C263 500 197 500 197 500 C197 500 69 500 69 500 C69 500 12 500 12 500 C12 500 12 480 12 480 C12 480 48 480 48 480 C67 480 78 479 86 460 C86 460 87 460 87 460 C87 460 294 -10 294 -10 C294 -10 351 142 351 142 C351 142 213 463 213 463 C208 479 215 480 231 480 C231 480 263 480 263 480 C263 480 263 500 263 500 L263 500 Z " />
<glyph glyph-name="x" unicode="x" horiz-adv-x="657" d="M25 0 C25 0 85 0 85 0 C85 0 138 0 138 0 C138 0 238 0 238 0 C238 0 238 20 238 20 C238 20 213 20 213 20 C176 20 156 22 168 47 C168 47 272 207 272 207 C272 207 366 64 366 64 C366 64 366 64 366 64 C393 23 381 20 355 20 C355 20 328 20 328 20 C328 20 328 0 328 0 C328 0 408 0 408 0 C408 0 549 0 549 0 C549 0 601 0 601 0 C601 0 601 20 601 20 C601 20 563 20 563 20 C547 20 536 22 515 52 C515 52 364 281 364 281 C364 281 492 454 492 454 C511 478 527 480 552 480 C552 480 585 480 585 480 C585 480 585 500 585 500 C585 500 525 500 525 500 C525 500 472 500 472 500 C472 500 382 500 382 500 C382 500 382 480 382 480 C382 480 408 480 408 480 C438 480 453 478 439 450 C439 450 346 309 346 309 C346 309 254 450 254 450 C239 478 251 480 274 480 C274 480 301 480 301 480 C301 480 301 500 301 500 C301 500 221 500 221 500 C221 500 80 500 80 500 C80 500 38 500 38 500 C38 500 38 480 38 480 C38 480 82 480 82 480 C89 480 95 478 116 445 C116 445 116 445 116 445 C116 445 256 232 256 232 C256 232 132 64 132 64 C132 64 132 64 132 64 C102 23 86 20 59 20 C59 20 25 20 25 20 C25 20 25 0 25 0 L25 0 Z " />
<glyph glyph-name="y" unicode="y" horiz-adv-x="625" d="M605 500 C605 500 528 500 528 500 C528 500 475 500 475 500 C475 500 380 500 380 500 C380 500 380 480 380 480 C380 480 407 480 407 480 C448 480 467 478 457 450 C457 450 457 450 457 450 C457 450 349 144 349 144 C349 144 213 453 213 453 C213 453 213 453 213 453 C202 478 213 480 238 480 C238 480 267 480 267 480 C267 480 267 500 267 500 C267 500 192 500 192 500 C192 500 67 500 67 500 C67 500 5 500 5 500 C5 500 5 480 5 480 C5 480 40 480 40 480 C63 480 76 478 87 453 C87 453 88 453 88 453 C88 453 294 -10 294 -10 C294 -10 248 -140 248 -140 C242 -157 232 -165 218 -165 C188 -165 183 -124 152 -124 C109 -124 87 -143 87 -182 C87 -229 110 -253 154 -253 C211 -253 250 -226 269 -171 C269 -171 328 -10 328 -10 C328 -10 507 447 507 447 C522 478 541 480 574 480 C574 480 605 480 605 480 C605 480 605 500 605 500 L605 500 Z " />
<glyph glyph-name="z" unicode="z" horiz-adv-x="475" d="M54 365 C54 365 66 365 66 365 C66 365 82 395 82 395 C102 432 119 455 177 462 C177 462 299 467 299 467 C299 467 40 27 40 27 C40 27 40 0 40 0 C40 0 161 0 161 0 C161 0 318 0 318 0 C318 0 430 0 430 0 C436 46 443 90 449 135 C449 135 439 135 439 135 C439 135 425 105 425 105 C407 66 390 44 321 37 C321 37 180 32 180 32 C180 32 435 473 435 473 C435 473 435 500 435 500 C435 500 318 500 318 500 C318 500 135 500 135 500 C123 500 112 508 116 523 C116 523 121 540 121 540 C121 540 101 540 101 540 C85 481 70 424 54 365 L54 365 Z " />
<glyph glyph-name="bar" unicode="&#x7c;" horiz-adv-x="209" d="M60 800 C60 800 60 -250 60 -250 C60 -250 149 -250 149 -250 C149 -250 149 800 149 800 C149 800 60 800 60 800 L60 800 Z " />
<glyph glyph-name="exclamdown" unicode="&#xa1;" horiz-adv-x="280" d="M140 505 C87 505 61 478 60 425 C61 372 87 345 140 345 C194 345 221 372 220 425 C221 478 194 505 140 505 L140 505 Z M140 -255 C216 -255 222 -214 211 -132 C211 -132 151 290 151 290 C151 290 130 290 130 290 C130 290 70 -132 70 -132 C59 -214 65 -255 140 -255 L140 -255 Z " />
<glyph glyph-name="cent" unicode="&#xa2;" horiz-adv-x="525" d="M283 575 C283 575 283 509 283 509 C117 498 33 405 33 234 C33 78 117 -4 283 -10 C283 -10 283 -75 283 -75 C283 -75 323 -75 323 -75 C323 -75 323 -9 323 -9 C400 -2 458 43 496 128 C496 128 480 135 480 135 C457 85 411 60 342 60 C335 60 329 60 323 61 C323 61 323 483 323 483 C350 477 371 450 388 405 C402 367 421 348 445 348 C498 348 517 367 503 405 C478 474 418 509 323 510 C323 510 323 575 323 575 C323 575 283 575 283 575 L283 575 Z M283 67 C198 87 156 158 156 277 C156 402 199 470 283 482 C283 482 283 67 283 67 L283 67 Z " />
<glyph glyph-name="questiondown" unicode="&#xbf;" horiz-adv-x="295" d="M170 505 C117 505 90 478 90 425 C90 372 117 345 170 345 C223 345 250 372 250 425 C250 478 223 505 170 505 L170 505 Z M168 260 C168 260 170 140 170 140 C59 140 42 114 7 63 C-14 33 -24 -7 -24 -57 C-24 -192 34 -260 150 -260 C222 -260 258 -231 258 -175 C258 -137 237 -118 196 -118 C166 -118 139 -138 108 -138 C43 -138 10 -106 10 -43 C10 -31 18 -14 32 8 C55 43 68 60 198 60 C198 60 188 260 188 260 C188 260 168 260 168 260 L168 260 Z " />
<glyph glyph-name="Agrave" unicode="&#xc0;" horiz-adv-x="824" d="M459 0 C459 0 594 0 594 0 C594 0 729 0 729 0 C729 0 818 0 818 0 C818 0 818 20 818 20 C818 20 788 20 788 20 C744 20 719 28 683 140 C683 140 683 140 683 140 C683 140 494 709 494 709 C494 709 474 770 474 770 C474 770 460 770 460 770 C436 735 404 715 365 709 C365 709 369 698 369 698 C369 698 181 134 181 134 C141 28 103 20 39 20 C39 20 9 20 9 20 C9 20 9 0 9 0 C9 0 137 0 137 0 C137 0 176 0 176 0 C176 0 341 0 341 0 C341 0 341 20 341 20 C341 20 317 20 317 20 C230 20 187 29 225 157 C225 157 261 273 261 273 C261 273 506 273 506 273 C506 273 553 126 553 126 C582 27 550 20 484 20 C484 20 459 20 459 20 C459 20 459 0 459 0 L459 0 Z M339 981 C310 1024 294 1046 285 1046 C250 1046 227 1023 227 988 C227 978 247 960 287 929 C287 929 431 811 431 811 C431 811 445 826 445 826 C445 826 339 981 339 981 L339 981 Z M271 306 C271 306 381 658 381 658 C381 658 495 306 495 306 C495 306 271 306 271 306 L271 306 Z " />
<glyph glyph-name="Aacute" unicode="&#xc1;" horiz-adv-x="824" d="M438 811 C438 811 583 929 583 929 C622 962 642 980 642 988 C642 1023 619 1046 585 1046 C577 1046 560 1024 530 981 C530 981 424 826 424 826 C424 826 438 811 438 811 L438 811 Z M459 0 C459 0 594 0 594 0 C594 0 729 0 729 0 C729 0 818 0 818 0 C818 0 818 20 818 20 C818 20 788 20 788 20 C744 20 719 28 683 140 C683 140 683 140 683 140 C683 140 494 709 494 709 C494 709 474 770 474 770 C474 770 460 770 460 770 C436 735 404 715 365 709 C365 709 369 698 369 698 C369 698 181 134 181 134 C141 28 103 20 39 20 C39 20 9 20 9 20 C9 20 9 0 9 0 C9 0 137 0 137 0 C137 0 176 0 176 0 C176 0 341 0 341 0 C341 0 341 20 341 20 C341 20 317 20 317 20 C230 20 187 29 225 157 C225 157 261 273 261 273 C261 273 506 273 506 273 C506 273 553 126 553 126 C582 27 550 20 484 20 C484 20 459 20 459 20 C459 20 459 0 459 0 L459 0 Z M271 306 C271 306 381 658 381 658 C381 658 495 306 495 306 C495 306 271 306 271 306 L271 306 Z " />
<glyph glyph-name="Acircumflex" unicode="&#xc2;" horiz-adv-x="824" d="M459 0 C459 0 594 0 594 0 C594 0 729 0 729 0 C729 0 818 0 818 0 C818 0 818 20 818 20 C818 20 788 20 788 20 C744 20 719 28 683 140 C683 140 683 140 683 140 C683 140 494 709 494 709 C494 709 474 770 474 770 C474 770 460 770 460 770 C436 735 404 715 365 709 C365 709 369 698 369 698 C369 698 181 134 181 134 C141 28 103 20 39 20 C39 20 9 20 9 20 C9 20 9 0 9 0 C9 0 137 0 137 0 C137 0 176 0 176 0 C176 0 341 0 341 0 C341 0 341 20 341 20 C341 20 317 20 317 20 C230 20 187 29 225 157 C225 157 261 273 261 273 C261 273 506 273 506 273 C506 273 553 126 553 126 C582 27 550 20 484 20 C484 20 459 20 459 20 C459 20 459 0 459 0 L459 0 Z M430 922 C430 922 569 805 569 805 C569 805 584 818 584 818 C584 818 470 996 470 996 C462 1009 444 1037 430 1037 C415 1037 398 1010 389 996 C389 996 275 818 275 818 C275 818 291 805 291 805 C291 805 430 922 430 922 L430 922 Z M271 306 C271 306 381 658 381 658 C381 658 495 306 495 306 C495 306 271 306 271 306 L271 306 Z " />
<glyph glyph-name="Atilde" unicode="&#xc3;" horiz-adv-x="824" d="M291 870 C291 907 304 925 329 925 C393 925 433 860 497 860 C558 860 589 907 589 1001 C589 1001 569 1001 569 1001 C569 961 554 941 524 941 C459 941 420 1006 355 1006 C299 1006 271 960 271 870 C271 870 291 870 291 870 L291 870 Z M459 0 C459 0 594 0 594 0 C594 0 729 0 729 0 C729 0 818 0 818 0 C818 0 818 20 818 20 C818 20 788 20 788 20 C744 20 719 28 683 140 C683 140 683 140 683 140 C683 140 494 709 494 709 C494 709 474 770 474 770 C474 770 460 770 460 770 C436 735 404 715 365 709 C365 709 369 698 369 698 C369 698 181 134 181 134 C141 28 103 20 39 20 C39 20 9 20 9 20 C9 20 9 0 9 0 C9 0 137 0 137 0 C137 0 176 0 176 0 C176 0 341 0 341 0 C341 0 341 20 341 20 C341 20 317 20 317 20 C230 20 187 29 225 157 C225 157 261 273 261 273 C261 273 506 273 506 273 C506 273 553 126 553 126 C582 27 550 20 484 20 C484 20 459 20 459 20 C459 20 459 0 459 0 L459 0 Z M271 306 C271 306 381 658 381 658 C381 658 495 306 495 306 C495 306 271 306 271 306 L271 306 Z " />
<glyph glyph-name="Adieresis" unicode="&#xc4;" horiz-adv-x="824" d="M510 865 C559 865 584 890 584 939 C584 989 559 1014 510 1014 C461 1014 436 989 436 939 C436 890 461 865 510 865 L510 865 Z M349 865 C399 865 424 890 424 939 C424 989 399 1014 349 1014 C300 1014 275 989 275 939 C275 890 300 865 349 865 L349 865 Z M459 0 C459 0 594 0 594 0 C594 0 729 0 729 0 C729 0 818 0 818 0 C818 0 818 20 818 20 C818 20 788 20 788 20 C744 20 719 28 683 140 C683 140 683 140 683 140 C683 140 494 709 494 709 C494 709 474 770 474 770 C474 770 460 770 460 770 C436 735 404 715 365 709 C365 709 369 698 369 698 C369 698 181 134 181 134 C141 28 103 20 39 20 C39 20 9 20 9 20 C9 20 9 0 9 0 C9 0 137 0 137 0 C137 0 176 0 176 0 C176 0 341 0 341 0 C341 0 341 20 341 20 C341 20 317 20 317 20 C230 20 187 29 225 157 C225 157 261 273 261 273 C261 273 506 273 506 273 C506 273 553 126 553 126 C582 27 550 20 484 20 C484 20 459 20 459 20 C459 20 459 0 459 0 L459 0 Z M271 306 C271 306 381 658 381 658 C381 658 495 306 495 306 C495 306 271 306 271 306 L271 306 Z " />
<glyph glyph-name="Aring" unicode="&#xc5;" horiz-adv-x="824" d="M430 837 C391 837 365 864 365 905 C365 950 387 973 430 973 C472 973 494 950 494 905 C494 864 468 837 430 837 L430 837 Z M331 905 C331 848 371 810 430 810 C488 810 528 848 528 905 C528 968 495 1000 430 1000 C364 1000 331 968 331 905 L331 905 Z M459 0 C459 0 594 0 594 0 C594 0 729 0 729 0 C729 0 818 0 818 0 C818 0 818 20 818 20 C818 20 788 20 788 20 C744 20 719 28 683 140 C683 140 683 140 683 140 C683 140 494 709 494 709 C494 709 474 770 474 770 C474 770 460 770 460 770 C436 735 404 715 365 709 C365 709 369 698 369 698 C369 698 181 134 181 134 C141 28 103 20 39 20 C39 20 9 20 9 20 C9 20 9 0 9 0 C9 0 137 0 137 0 C137 0 176 0 176 0 C176 0 341 0 341 0 C341 0 341 20 341 20 C341 20 317 20 317 20 C230 20 187 29 225 157 C225 157 261 273 261 273 C261 273 506 273 506 273 C506 273 553 126 553 126 C582 27 550 20 484 20 C484 20 459 20 459 20 C459 20 459 0 459 0 L459 0 Z M271 306 C271 306 381 658 381 658 C381 658 495 306 495 306 C495 306 271 306 271 306 L271 306 Z " />
<glyph glyph-name="Egrave" unicode="&#xc8;" horiz-adv-x="673" d="M587 598 C583 649 580 700 576 750 C576 750 456 750 456 750 C456 750 266 750 266 750 C266 750 138 750 138 750 C138 750 33 750 33 750 C33 750 33 730 33 730 C33 730 63 730 63 730 C113 730 138 725 138 665 C138 665 138 85 138 85 C138 25 113 20 63 20 C63 20 33 20 33 20 C33 20 33 0 33 0 C33 0 138 0 138 0 C138 0 266 0 266 0 C266 0 481 0 481 0 C481 0 601 0 601 0 C609 51 615 101 623 152 C623 152 603 152 603 152 C603 152 599 122 599 122 C589 59 578 27 485 27 C485 27 346 27 346 27 C266 27 266 45 266 80 C266 80 266 85 266 85 C266 85 266 385 266 385 C266 385 396 385 396 385 C489 385 496 348 496 275 C496 275 496 245 496 245 C496 245 516 245 516 245 C516 245 516 385 516 385 C516 385 516 416 516 416 C516 416 516 556 516 556 C516 556 496 556 496 556 C496 556 496 526 496 526 C496 453 489 416 396 416 C396 416 266 416 266 416 C266 416 266 665 266 665 C266 665 266 723 266 723 C266 723 458 723 458 723 C569 723 561 687 566 616 C566 616 567 598 567 598 C567 598 587 598 587 598 L587 598 Z M267 981 C238 1024 222 1046 212 1046 C178 1046 155 1023 155 988 C155 978 175 960 214 929 C214 929 359 811 359 811 C359 811 373 826 373 826 C373 826 267 981 267 981 L267 981 Z " />
<glyph glyph-name="Eacute" unicode="&#xc9;" horiz-adv-x="673" d="M366 811 C366 811 510 929 510 929 C549 962 569 980 569 988 C569 1023 546 1046 512 1046 C504 1046 487 1024 458 981 C458 981 351 826 351 826 C351 826 366 811 366 811 L366 811 Z M587 598 C583 649 580 700 576 750 C576 750 456 750 456 750 C456 750 266 750 266 750 C266 750 138 750 138 750 C138 750 33 750 33 750 C33 750 33 730 33 730 C33 730 63 730 63 730 C113 730 138 725 138 665 C138 665 138 85 138 85 C138 25 113 20 63 20 C63 20 33 20 33 20 C33 20 33 0 33 0 C33 0 138 0 138 0 C138 0 266 0 266 0 C266 0 481 0 481 0 C481 0 601 0 601 0 C609 51 615 101 623 152 C623 152 603 152 603 152 C603 152 599 122 599 122 C589 59 578 27 485 27 C485 27 346 27 346 27 C266 27 266 45 266 80 C266 80 266 85 266 85 C266 85 266 385 266 385 C266 385 396 385 396 385 C489 385 496 348 496 275 C496 275 496 245 496 245 C496 245 516 245 516 245 C516 245 516 385 516 385 C516 385 516 416 516 416 C516 416 516 556 516 556 C516 556 496 556 496 556 C496 556 496 526 496 526 C496 453 489 416 396 416 C396 416 266 416 266 416 C266 416 266 665 266 665 C266 665 266 723 266 723 C266 723 458 723 458 723 C569 723 561 687 566 616 C566 616 567 598 567 598 C567 598 587 598 587 598 L587 598 Z " />
<glyph glyph-name="Ecircumflex" unicode="&#xca;" horiz-adv-x="673" d="M587 598 C583 649 580 700 576 750 C576 750 456 750 456 750 C456 750 266 750 266 750 C266 750 138 750 138 750 C138 750 33 750 33 750 C33 750 33 730 33 730 C33 730 63 730 63 730 C113 730 138 725 138 665 C138 665 138 85 138 85 C138 25 113 20 63 20 C63 20 33 20 33 20 C33 20 33 0 33 0 C33 0 138 0 138 0 C138 0 266 0 266 0 C266 0 481 0 481 0 C481 0 601 0 601 0 C609 51 615 101 623 152 C623 152 603 152 603 152 C603 152 599 122 599 122 C589 59 578 27 485 27 C485 27 346 27 346 27 C266 27 266 45 266 80 C266 80 266 85 266 85 C266 85 266 385 266 385 C266 385 396 385 396 385 C489 385 496 348 496 275 C496 275 496 245 496 245 C496 245 516 245 516 245 C516 245 516 385 516 385 C516 385 516 416 516 416 C516 416 516 556 516 556 C516 556 496 556 496 556 C496 556 496 526 496 526 C496 453 489 416 396 416 C396 416 266 416 266 416 C266 416 266 665 266 665 C266 665 266 723 266 723 C266 723 458 723 458 723 C569 723 561 687 566 616 C566 616 567 598 567 598 C567 598 587 598 587 598 L587 598 Z M357 921 C357 921 496 805 496 805 C496 805 511 818 511 818 C511 818 398 996 398 996 C389 1009 372 1037 357 1037 C343 1037 325 1010 317 996 C317 996 203 818 203 818 C203 818 218 805 218 805 C218 805 357 921 357 921 L357 921 Z " />
<glyph glyph-name="Edieresis" unicode="&#xcb;" horiz-adv-x="673" d="M437 865 C487 865 512 890 512 939 C512 989 487 1014 437 1014 C388 1014 363 989 363 939 C363 890 388 865 437 865 L437 865 Z M277 865 C326 865 351 890 351 939 C351 989 326 1014 277 1014 C227 1014 202 989 202 939 C202 890 227 865 277 865 L277 865 Z M587 598 C583 649 580 700 576 750 C576 750 456 750 456 750 C456 750 266 750 266 750 C266 750 138 750 138 750 C138 750 33 750 33 750 C33 750 33 730 33 730 C33 730 63 730 63 730 C113 730 138 725 138 665 C138 665 138 85 138 85 C138 25 113 20 63 20 C63 20 33 20 33 20 C33 20 33 0 33 0 C33 0 138 0 138 0 C138 0 266 0 266 0 C266 0 481 0 481 0 C481 0 601 0 601 0 C609 51 615 101 623 152 C623 152 603 152 603 152 C603 152 599 122 599 122 C589 59 578 27 485 27 C485 27 346 27 346 27 C266 27 266 45 266 80 C266 80 266 85 266 85 C266 85 266 385 266 385 C266 385 396 385 396 385 C489 385 496 348 496 275 C496 275 496 245 496 245 C496 245 516 245 516 245 C516 245 516 385 516 385 C516 385 516 416 516 416 C516 416 516 556 516 556 C516 556 496 556 496 556 C496 556 496 526 496 526 C496 453 489 416 396 416 C396 416 266 416 266 416 C266 416 266 665 266 665 C266 665 266 723 266 723 C266 723 458 723 458 723 C569 723 561 687 566 616 C566 616 567 598 567 598 C567 598 587 598 587 598 L587 598 Z " />
<glyph glyph-name="Igrave" unicode="&#xcc;" horiz-adv-x="399" d="M359 750 C359 750 21 750 21 750 C21 750 21 730 21 730 C21 730 51 730 51 730 C101 730 126 726 126 670 C126 670 126 80 126 80 C126 24 101 20 51 20 C51 20 21 20 21 20 C21 20 21 0 21 0 C21 0 359 0 359 0 C359 0 359 20 359 20 C359 20 329 20 329 20 C279 20 254 24 254 80 C254 80 254 670 254 670 C254 726 279 730 329 730 C329 730 359 730 359 730 C359 730 359 750 359 750 L359 750 Z M99 981 C71 1024 55 1046 45 1046 C11 1046 -12 1023 -12 988 C-12 978 8 960 47 929 C47 929 191 811 191 811 C191 811 206 826 206 826 C206 826 99 981 99 981 L99 981 Z " />
<glyph glyph-name="Iacute" unicode="&#xcd;" horiz-adv-x="399" d="M199 811 C199 811 343 929 343 929 C382 962 402 980 402 988 C402 1023 379 1046 345 1046 C337 1046 320 1024 291 981 C291 981 184 826 184 826 C184 826 199 811 199 811 L199 811 Z M359 750 C359 750 21 750 21 750 C21 750 21 730 21 730 C21 730 51 730 51 730 C101 730 126 726 126 670 C126 670 126 80 126 80 C126 24 101 20 51 20 C51 20 21 20 21 20 C21 20 21 0 21 0 C21 0 359 0 359 0 C359 0 359 20 359 20 C359 20 329 20 329 20 C279 20 254 24 254 80 C254 80 254 670 254 670 C254 726 279 730 329 730 C329 730 359 730 359 730 C359 730 359 750 359 750 L359 750 Z " />
<glyph glyph-name="Icircumflex" unicode="&#xce;" horiz-adv-x="399" d="M359 750 C359 750 21 750 21 750 C21 750 21 730 21 730 C21 730 51 730 51 730 C101 730 126 726 126 670 C126 670 126 80 126 80 C126 24 101 20 51 20 C51 20 21 20 21 20 C21 20 21 0 21 0 C21 0 359 0 359 0 C359 0 359 20 359 20 C359 20 329 20 329 20 C279 20 254 24 254 80 C254 80 254 670 254 670 C254 726 279 730 329 730 C329 730 359 730 359 730 C359 730 359 750 359 750 L359 750 Z M190 922 C190 922 329 805 329 805 C329 805 344 818 344 818 C344 818 231 996 231 996 C222 1009 204 1037 190 1037 C176 1037 158 1010 150 996 C150 996 36 818 36 818 C36 818 51 805 51 805 C51 805 190 922 190 922 L190 922 Z " />
<glyph glyph-name="Idieresis" unicode="&#xcf;" horiz-adv-x="399" d="M270 865 C320 865 345 890 345 939 C345 989 320 1014 270 1014 C221 1014 196 989 196 939 C196 890 221 865 270 865 L270 865 Z M110 865 C159 865 184 890 184 939 C184 989 159 1014 110 1014 C60 1014 35 989 35 939 C35 890 60 865 110 865 L110 865 Z M359 750 C359 750 21 750 21 750 C21 750 21 730 21 730 C21 730 51 730 51 730 C101 730 126 726 126 670 C126 670 126 80 126 80 C126 24 101 20 51 20 C51 20 21 20 21 20 C21 20 21 0 21 0 C21 0 359 0 359 0 C359 0 359 20 359 20 C359 20 329 20 329 20 C279 20 254 24 254 80 C254 80 254 670 254 670 C254 726 279 730 329 730 C329 730 359 730 359 730 C359 730 359 750 359 750 L359 750 Z " />
<glyph glyph-name="Ntilde" unicode="&#xd1;" horiz-adv-x="797" d="M255 870 C255 907 268 925 294 925 C358 925 397 860 462 860 C522 860 553 907 553 1001 C553 1001 533 1001 533 1001 C533 961 518 941 488 941 C424 941 384 1006 320 1006 C263 1006 235 960 235 870 C235 870 255 870 255 870 L255 870 Z M-10 730 C-10 730 27 730 27 730 C46 730 57 728 82 695 C82 695 82 695 82 695 C82 695 137 625 137 625 C137 625 135 126 135 126 C130 28 99 20 40 20 C40 20 10 20 10 20 C10 20 10 0 10 0 C10 0 135 0 135 0 C135 0 174 0 174 0 C174 0 299 0 299 0 C299 0 299 20 299 20 C299 20 269 20 269 20 C208 20 176 27 173 127 C173 127 170 581 170 581 C170 581 477 183 477 183 C477 183 617 0 617 0 C617 0 643 0 643 0 C643 0 652 652 652 652 C657 724 688 730 746 730 C746 730 776 730 776 730 C776 730 776 750 776 750 C776 750 653 750 653 750 C653 750 614 750 614 750 C614 750 490 750 490 750 C490 750 490 730 490 730 C490 730 520 730 520 730 C578 730 610 724 614 647 C614 647 616 212 616 212 C616 212 580 259 580 259 C580 259 199 750 199 750 C199 750 169 750 169 750 C169 750 137 750 137 750 C137 750 40 750 40 750 C40 750 -10 750 -10 750 C-10 750 -10 730 -10 730 L-10 730 Z " />
<glyph glyph-name="Ograve" unicode="&#xd2;" horiz-adv-x="889" d="M429 24 C268 24 187 142 187 375 C187 608 267 726 426 726 C599 726 687 608 687 375 C687 142 600 24 429 24 L429 24 Z M40 375 C40 119 168 -10 422 -10 C696 -10 834 119 834 375 C834 631 699 760 432 760 C172 760 40 631 40 375 L40 375 Z M342 981 C313 1024 297 1046 287 1046 C253 1046 230 1023 230 988 C230 978 250 960 289 929 C289 929 434 811 434 811 C434 811 448 826 448 826 C448 826 342 981 342 981 L342 981 Z " />
<glyph glyph-name="Oacute" unicode="&#xd3;" horiz-adv-x="889" d="M441 811 C441 811 585 929 585 929 C625 962 645 980 645 988 C645 1023 622 1046 587 1046 C580 1046 563 1024 533 981 C533 981 426 826 426 826 C426 826 441 811 441 811 L441 811 Z M429 24 C268 24 187 142 187 375 C187 608 267 726 426 726 C599 726 687 608 687 375 C687 142 600 24 429 24 L429 24 Z M40 375 C40 119 168 -10 422 -10 C696 -10 834 119 834 375 C834 631 699 760 432 760 C172 760 40 631 40 375 L40 375 Z " />
<glyph glyph-name="Ocircumflex" unicode="&#xd4;" horiz-adv-x="889" d="M429 24 C268 24 187 142 187 375 C187 608 267 726 426 726 C599 726 687 608 687 375 C687 142 600 24 429 24 L429 24 Z M40 375 C40 119 168 -10 422 -10 C696 -10 834 119 834 375 C834 631 699 760 432 760 C172 760 40 631 40 375 L40 375 Z M432 921 C432 921 571 805 571 805 C571 805 586 818 586 818 C586 818 473 996 473 996 C464 1009 447 1037 432 1037 C418 1037 400 1010 392 996 C392 996 278 818 278 818 C278 818 293 805 293 805 C293 805 432 921 432 921 L432 921 Z " />
<glyph glyph-name="Otilde" unicode="&#xd5;" horiz-adv-x="889" d="M293 870 C293 907 306 925 332 925 C396 925 435 860 500 860 C560 860 591 907 591 1001 C591 1001 571 1001 571 1001 C571 961 556 941 526 941 C462 941 422 1006 358 1006 C302 1006 273 960 273 870 C273 870 293 870 293 870 L293 870 Z M429 24 C268 24 187 142 187 375 C187 608 267 726 426 726 C599 726 687 608 687 375 C687 142 600 24 429 24 L429 24 Z M40 375 C40 119 168 -10 422 -10 C696 -10 834 119 834 375 C834 631 699 760 432 760 C172 760 40 631 40 375 L40 375 Z " />
<glyph glyph-name="Odieresis" unicode="&#xd6;" horiz-adv-x="889" d="M512 865 C562 865 587 890 587 939 C587 989 562 1014 512 1014 C463 1014 438 989 438 939 C438 890 463 865 512 865 L512 865 Z M352 865 C401 865 426 890 426 939 C426 989 401 1014 352 1014 C302 1014 277 989 277 939 C277 890 302 865 352 865 L352 865 Z M429 24 C268 24 187 142 187 375 C187 608 267 726 426 726 C599 726 687 608 687 375 C687 142 600 24 429 24 L429 24 Z M40 375 C40 119 168 -10 422 -10 C696 -10 834 119 834 375 C834 631 699 760 432 760 C172 760 40 631 40 375 L40 375 Z " />
<glyph glyph-name="Oslash" unicode="&#xd8;" horiz-adv-x="889" d="M60 -31 C60 -31 159 65 159 65 C222 15 310 -10 422 -10 C696 -10 834 119 834 375 C834 489 807 578 754 642 C754 642 854 739 854 739 C854 739 814 781 814 781 C814 781 712 682 712 682 C645 734 552 760 432 760 C172 760 40 631 40 375 C40 259 66 170 118 106 C118 106 20 11 20 11 C20 11 60 -31 60 -31 L60 -31 Z M429 24 C338 24 273 62 233 137 C233 137 663 554 663 554 C679 505 687 445 687 375 C687 142 600 24 429 24 L429 24 Z M209 195 C194 244 187 304 187 375 C187 608 267 726 426 726 C525 726 596 687 639 611 C639 611 209 195 209 195 L209 195 Z " />
<glyph glyph-name="Ugrave" unicode="&#xd9;" horiz-adv-x="802" d="M454 730 C454 730 484 730 484 730 C534 730 559 725 559 665 C559 665 559 199 559 199 C520 115 455 73 365 73 C276 73 231 122 231 220 C231 220 231 665 231 665 C231 665 231 750 231 750 C231 750 -2 750 -2 750 C-2 750 -2 730 -2 730 C-2 730 28 730 28 730 C78 730 103 725 103 665 C103 665 103 220 103 220 C103 67 174 -10 313 -10 C430 -10 513 41 559 142 C559 142 559 110 559 110 C559 110 559 0 559 0 C559 0 580 0 580 0 C580 0 792 55 792 55 C792 55 792 65 792 65 C695 60 688 62 688 110 C688 110 688 665 688 665 C688 665 688 750 688 750 C688 750 454 750 454 750 C454 750 454 730 454 730 L454 730 Z M305 981 C276 1024 260 1046 250 1046 C216 1046 193 1023 193 988 C193 978 213 960 252 929 C252 929 397 811 397 811 C397 811 411 826 411 826 C411 826 305 981 305 981 L305 981 Z " />
<glyph glyph-name="Uacute" unicode="&#xda;" horiz-adv-x="802" d="M404 811 C404 811 548 929 548 929 C588 962 608 980 608 988 C608 1023 585 1046 550 1046 C543 1046 526 1024 496 981 C496 981 390 826 390 826 C390 826 404 811 404 811 L404 811 Z M454 730 C454 730 484 730 484 730 C534 730 559 725 559 665 C559 665 559 199 559 199 C520 115 455 73 365 73 C276 73 231 122 231 220 C231 220 231 665 231 665 C231 665 231 750 231 750 C231 750 -2 750 -2 750 C-2 750 -2 730 -2 730 C-2 730 28 730 28 730 C78 730 103 725 103 665 C103 665 103 220 103 220 C103 67 174 -10 313 -10 C430 -10 513 41 559 142 C559 142 559 110 559 110 C559 110 559 0 559 0 C559 0 580 0 580 0 C580 0 792 55 792 55 C792 55 792 65 792 65 C695 60 688 62 688 110 C688 110 688 665 688 665 C688 665 688 750 688 750 C688 750 454 750 454 750 C454 750 454 730 454 730 L454 730 Z " />
<glyph glyph-name="Ucircumflex" unicode="&#xdb;" horiz-adv-x="802" d="M454 730 C454 730 484 730 484 730 C534 730 559 725 559 665 C559 665 559 199 559 199 C520 115 455 73 365 73 C276 73 231 122 231 220 C231 220 231 665 231 665 C231 665 231 750 231 750 C231 750 -2 750 -2 750 C-2 750 -2 730 -2 730 C-2 730 28 730 28 730 C78 730 103 725 103 665 C103 665 103 220 103 220 C103 67 174 -10 313 -10 C430 -10 513 41 559 142 C559 142 559 110 559 110 C559 110 559 0 559 0 C559 0 580 0 580 0 C580 0 792 55 792 55 C792 55 792 65 792 65 C695 60 688 62 688 110 C688 110 688 665 688 665 C688 665 688 750 688 750 C688 750 454 750 454 750 C454 750 454 730 454 730 L454 730 Z M396 921 C396 921 534 805 534 805 C534 805 550 818 550 818 C550 818 436 996 436 996 C427 1009 410 1037 395 1037 C381 1037 364 1010 355 996 C355 996 241 818 241 818 C241 818 257 805 257 805 C257 805 396 921 396 921 L396 921 Z " />
<glyph glyph-name="Udieresis" unicode="&#xdc;" horiz-adv-x="802" d="M476 865 C525 865 550 890 550 939 C550 989 525 1014 476 1014 C426 1014 401 989 401 939 C401 890 426 865 476 865 L476 865 Z M315 865 C364 865 389 890 389 939 C389 989 364 1014 315 1014 C266 1014 241 989 241 939 C241 890 266 865 315 865 L315 865 Z M454 730 C454 730 484 730 484 730 C534 730 559 725 559 665 C559 665 559 199 559 199 C520 115 455 73 365 73 C276 73 231 122 231 220 C231 220 231 665 231 665 C231 665 231 750 231 750 C231 750 -2 750 -2 750 C-2 750 -2 730 -2 730 C-2 730 28 730 28 730 C78 730 103 725 103 665 C103 665 103 220 103 220 C103 67 174 -10 313 -10 C430 -10 513 41 559 142 C559 142 559 110 559 110 C559 110 559 0 559 0 C559 0 580 0 580 0 C580 0 792 55 792 55 C792 55 792 65 792 65 C695 60 688 62 688 110 C688 110 688 665 688 665 C688 665 688 750 688 750 C688 750 454 750 454 750 C454 750 454 730 454 730 L454 730 Z " />
<glyph glyph-name="Yacute" unicode="&#xdd;" horiz-adv-x="798" d="M417 811 C417 811 562 929 562 929 C601 962 621 980 621 988 C621 1023 598 1046 564 1046 C556 1046 539 1024 509 981 C509 981 403 826 403 826 C403 826 417 811 417 811 L417 811 Z M314 750 C314 750 209 750 209 750 C209 750 57 750 57 750 C57 750 5 750 5 750 C5 750 5 730 5 730 C5 730 42 730 42 730 C59 730 72 724 125 647 C125 647 344 316 344 316 C344 316 344 80 344 80 C344 24 319 20 269 20 C269 20 239 20 239 20 C239 20 239 0 239 0 C239 0 578 0 578 0 C578 0 578 20 578 20 C578 20 548 20 548 20 C498 20 473 24 473 80 C473 80 473 320 473 320 C473 320 644 631 644 631 C696 723 718 730 752 730 C752 730 783 730 783 730 C783 730 783 750 783 750 C783 750 709 750 709 750 C709 750 645 750 645 750 C645 750 540 750 540 750 C540 750 540 730 540 730 C540 730 565 730 565 730 C605 730 627 725 610 676 C610 676 459 361 459 361 C459 361 285 632 285 632 C228 723 246 730 289 730 C289 730 314 730 314 730 C314 730 314 750 314 750 L314 750 Z " />
<glyph glyph-name="agrave" unicode="&#xe0;" horiz-adv-x="514" d="M524 123 C524 123 507 131 507 131 C500 95 482 77 452 77 C417 77 400 91 400 120 C400 120 400 353 400 353 C400 473 352 510 256 510 C124 510 57 420 57 360 C57 307 81 280 129 280 C166 280 185 311 185 337 C185 360 165 372 165 399 C165 425 186 463 229 463 C266 463 285 447 285 394 C285 394 285 278 285 278 C63 210 37 200 37 94 C37 25 74 -10 149 -10 C198 -10 238 8 289 77 C302 23 340 -5 405 -5 C469 -5 509 38 524 123 C524 123 524 123 524 123 L524 123 Z M165 731 C137 774 120 796 111 796 C77 796 54 773 54 738 C54 728 74 710 113 679 C113 679 257 561 257 561 C257 561 272 576 272 576 C272 576 165 731 165 731 L165 731 Z M285 250 C285 250 285 120 285 120 C285 114 285 108 286 103 C256 62 235 51 210 51 C172 51 153 70 153 106 C153 207 167 214 285 250 L285 250 Z " />
<glyph glyph-name="aacute" unicode="&#xe1;" horiz-adv-x="514" d="M264 561 C264 561 409 679 409 679 C448 712 468 730 468 738 C468 773 445 796 411 796 C403 796 386 774 356 731 C356 731 250 576 250 576 C250 576 264 561 264 561 L264 561 Z M524 123 C524 123 507 131 507 131 C500 95 482 77 452 77 C417 77 400 91 400 120 C400 120 400 353 400 353 C400 473 352 510 256 510 C124 510 57 420 57 360 C57 307 81 280 129 280 C166 280 185 311 185 337 C185 360 165 372 165 399 C165 425 186 463 229 463 C266 463 285 447 285 394 C285 394 285 278 285 278 C63 210 37 200 37 94 C37 25 74 -10 149 -10 C198 -10 238 8 289 77 C302 23 340 -5 405 -5 C469 -5 509 38 524 123 C524 123 524 123 524 123 L524 123 Z M285 250 C285 250 285 120 285 120 C285 114 285 108 286 103 C256 62 235 51 210 51 C172 51 153 70 153 106 C153 207 167 214 285 250 L285 250 Z " />
<glyph glyph-name="acircumflex" unicode="&#xe2;" horiz-adv-x="514" d="M524 123 C524 123 507 131 507 131 C500 95 482 77 452 77 C417 77 400 91 400 120 C400 120 400 353 400 353 C400 473 352 510 256 510 C124 510 57 420 57 360 C57 307 81 280 129 280 C166 280 185 311 185 337 C185 360 165 372 165 399 C165 425 186 463 229 463 C266 463 285 447 285 394 C285 394 285 278 285 278 C63 210 37 200 37 94 C37 25 74 -10 149 -10 C198 -10 238 8 289 77 C302 23 340 -5 405 -5 C469 -5 509 38 524 123 C524 123 524 123 524 123 L524 123 Z M256 672 C256 672 395 555 395 555 C395 555 410 568 410 568 C410 568 297 746 297 746 C288 759 270 787 256 787 C241 787 224 760 215 746 C215 746 102 568 102 568 C102 568 117 555 117 555 C117 555 256 672 256 672 L256 672 Z M285 250 C285 250 285 120 285 120 C285 114 285 108 286 103 C256 62 235 51 210 51 C172 51 153 70 153 106 C153 207 167 214 285 250 L285 250 Z " />
<glyph glyph-name="atilde" unicode="&#xe3;" horiz-adv-x="514" d="M117 620 C117 657 130 675 155 675 C220 675 259 610 324 610 C384 610 415 657 415 751 C415 751 395 751 395 751 C395 711 380 691 350 691 C286 691 246 756 182 756 C125 756 97 710 97 620 C97 620 117 620 117 620 L117 620 Z M524 123 C524 123 507 131 507 131 C500 95 482 77 452 77 C417 77 400 91 400 120 C400 120 400 353 400 353 C400 473 352 510 256 510 C124 510 57 420 57 360 C57 307 81 280 129 280 C166 280 185 311 185 337 C185 360 165 372 165 399 C165 425 186 463 229 463 C266 463 285 447 285 394 C285 394 285 278 285 278 C63 210 37 200 37 94 C37 25 74 -10 149 -10 C198 -10 238 8 289 77 C302 23 340 -5 405 -5 C469 -5 509 38 524 123 C524 123 524 123 524 123 L524 123 Z M285 250 C285 250 285 120 285 120 C285 114 285 108 286 103 C256 62 235 51 210 51 C172 51 153 70 153 106 C153 207 167 214 285 250 L285 250 Z " />
<glyph glyph-name="adieresis" unicode="&#xe4;" horiz-adv-x="514" d="M336 615 C386 615 411 640 411 689 C411 739 386 764 336 764 C287 764 262 739 262 689 C262 640 287 615 336 615 L336 615 Z M176 615 C225 615 250 640 250 689 C250 739 225 764 176 764 C126 764 101 739 101 689 C101 640 126 615 176 615 L176 615 Z M524 123 C524 123 507 131 507 131 C500 95 482 77 452 77 C417 77 400 91 400 120 C400 120 400 353 400 353 C400 473 352 510 256 510 C124 510 57 420 57 360 C57 307 81 280 129 280 C166 280 185 311 185 337 C185 360 165 372 165 399 C165 425 186 463 229 463 C266 463 285 447 285 394 C285 394 285 278 285 278 C63 210 37 200 37 94 C37 25 74 -10 149 -10 C198 -10 238 8 289 77 C302 23 340 -5 405 -5 C469 -5 509 38 524 123 C524 123 524 123 524 123 L524 123 Z M285 250 C285 250 285 120 285 120 C285 114 285 108 286 103 C256 62 235 51 210 51 C172 51 153 70 153 106 C153 207 167 214 285 250 L285 250 Z " />
<glyph glyph-name="aring" unicode="&#xe5;" horiz-adv-x="514" d="M256 587 C217 587 191 614 191 655 C191 700 213 723 256 723 C298 723 320 700 320 655 C320 614 294 587 256 587 L256 587 Z M157 655 C157 598 197 560 256 560 C315 560 354 598 354 655 C354 718 321 750 256 750 C190 750 157 718 157 655 L157 655 Z M524 123 C524 123 507 131 507 131 C500 95 482 77 452 77 C417 77 400 91 400 120 C400 120 400 353 400 353 C400 473 352 510 256 510 C124 510 57 420 57 360 C57 307 81 280 129 280 C166 280 185 311 185 337 C185 360 165 372 165 399 C165 425 186 463 229 463 C266 463 285 447 285 394 C285 394 285 278 285 278 C63 210 37 200 37 94 C37 25 74 -10 149 -10 C198 -10 238 8 289 77 C302 23 340 -5 405 -5 C469 -5 509 38 524 123 C524 123 524 123 524 123 L524 123 Z M285 250 C285 250 285 120 285 120 C285 114 285 108 286 103 C256 62 235 51 210 51 C172 51 153 70 153 106 C153 207 167 214 285 250 L285 250 Z " />
<glyph glyph-name="egrave" unicode="&#xe8;" horiz-adv-x="535" d="M202 731 C174 774 158 796 148 796 C114 796 91 773 91 738 C91 728 111 710 150 679 C150 679 294 561 294 561 C294 561 309 576 309 576 C309 576 202 731 202 731 L202 731 Z M158 340 C158 340 378 340 378 340 C378 340 505 340 505 340 C482 476 415 510 293 510 C120 510 33 415 33 228 C33 70 112 -10 269 -10 C383 -10 458 37 492 131 C492 131 478 136 478 136 C462 90 401 66 297 66 C202 66 154 136 154 275 C154 299 155 320 158 340 L158 340 Z M452 374 C459 374 466 374 474 374 C474 374 452 374 452 374 L452 374 Z M372 372 C372 372 162 367 162 367 C179 445 220 484 286 484 C327 484 352 460 372 372 C372 372 372 372 372 372 L372 372 Z " />
<glyph glyph-name="eacute" unicode="&#xe9;" horiz-adv-x="535" d="M302 561 C302 561 446 679 446 679 C485 712 505 730 505 738 C505 773 482 796 448 796 C440 796 423 774 394 731 C394 731 287 576 287 576 C287 576 302 561 302 561 L302 561 Z M158 340 C158 340 378 340 378 340 C378 340 505 340 505 340 C482 476 415 510 293 510 C120 510 33 415 33 228 C33 70 112 -10 269 -10 C383 -10 458 37 492 131 C492 131 478 136 478 136 C462 90 401 66 297 66 C202 66 154 136 154 275 C154 299 155 320 158 340 L158 340 Z M452 374 C459 374 466 374 474 374 C474 374 452 374 452 374 L452 374 Z M372 372 C372 372 162 367 162 367 C179 445 220 484 286 484 C327 484 352 460 372 372 C372 372 372 372 372 372 L372 372 Z " />
<glyph glyph-name="ecircumflex" unicode="&#xea;" horiz-adv-x="535" d="M293 672 C293 672 432 555 432 555 C432 555 447 568 447 568 C447 568 334 746 334 746 C325 759 307 787 293 787 C278 787 261 760 253 746 C253 746 139 568 139 568 C139 568 154 555 154 555 C154 555 293 672 293 672 L293 672 Z M158 340 C158 340 378 340 378 340 C378 340 505 340 505 340 C482 476 415 510 293 510 C120 510 33 415 33 228 C33 70 112 -10 269 -10 C383 -10 458 37 492 131 C492 131 478 136 478 136 C462 90 401 66 297 66 C202 66 154 136 154 275 C154 299 155 320 158 340 L158 340 Z M452 374 C459 374 466 374 474 374 C474 374 452 374 452 374 L452 374 Z M372 372 C372 372 162 367 162 367 C179 445 220 484 286 484 C327 484 352 460 372 372 C372 372 372 372 372 372 L372 372 Z " />
<glyph glyph-name="edieresis" unicode="&#xeb;" horiz-adv-x="535" d="M373 615 C423 615 448 640 448 689 C448 739 423 764 373 764 C324 764 299 739 299 689 C299 640 324 615 373 615 L373 615 Z M213 615 C262 615 287 640 287 689 C287 739 262 764 213 764 C163 764 138 739 138 689 C138 640 163 615 213 615 L213 615 Z M158 340 C158 340 378 340 378 340 C378 340 505 340 505 340 C482 476 415 510 293 510 C120 510 33 415 33 228 C33 70 112 -10 269 -10 C383 -10 458 37 492 131 C492 131 478 136 478 136 C462 90 401 66 297 66 C202 66 154 136 154 275 C154 299 155 320 158 340 L158 340 Z M452 374 C459 374 466 374 474 374 C474 374 452 374 452 374 L452 374 Z M372 372 C372 372 162 367 162 367 C179 445 220 484 286 484 C327 484 352 460 372 372 C372 372 372 372 372 372 L372 372 Z " />
<glyph glyph-name="igrave" unicode="&#xec;" horiz-adv-x="332" d="M27 0 C27 0 305 0 305 0 C305 0 305 20 305 20 C305 20 275 20 275 20 C240 20 222 21 222 35 C222 35 222 390 222 390 C222 390 222 500 222 500 C222 500 202 500 202 500 C202 500 26 445 26 445 C26 445 26 435 26 435 C101 439 107 437 107 390 C107 390 107 35 107 35 C107 21 90 20 57 20 C57 20 27 20 27 20 C27 20 27 0 27 0 L27 0 Z M74 731 C46 774 29 796 20 796 C-15 796 -38 773 -38 738 C-38 728 -18 710 22 679 C22 679 166 561 166 561 C166 561 181 576 181 576 C181 576 74 731 74 731 L74 731 Z " />
<glyph glyph-name="iacute" unicode="&#xed;" horiz-adv-x="332" d="M27 0 C27 0 305 0 305 0 C305 0 305 20 305 20 C305 20 275 20 275 20 C240 20 222 21 222 35 C222 35 222 390 222 390 C222 390 222 500 222 500 C222 500 202 500 202 500 C202 500 26 445 26 445 C26 445 26 435 26 435 C101 439 107 437 107 390 C107 390 107 35 107 35 C107 21 90 20 57 20 C57 20 27 20 27 20 C27 20 27 0 27 0 L27 0 Z M74 731 C46 774 29 796 20 796 C-15 796 -38 773 -38 738 C-38 728 -18 710 22 679 C22 679 166 561 166 561 C166 561 181 576 181 576 C181 576 74 731 74 731 L74 731 Z " />
<glyph glyph-name="icircumflex" unicode="&#xee;" horiz-adv-x="332" d="M27 0 C27 0 305 0 305 0 C305 0 305 20 305 20 C305 20 275 20 275 20 C240 20 222 21 222 35 C222 35 222 390 222 390 C222 390 222 500 222 500 C222 500 202 500 202 500 C202 500 26 445 26 445 C26 445 26 435 26 435 C101 439 107 437 107 390 C107 390 107 35 107 35 C107 21 90 20 57 20 C57 20 27 20 27 20 C27 20 27 0 27 0 L27 0 Z M165 672 C165 672 304 555 304 555 C304 555 319 568 319 568 C319 568 205 746 205 746 C197 759 179 787 165 787 C150 787 133 760 124 746 C124 746 10 568 10 568 C10 568 26 555 26 555 C26 555 165 672 165 672 L165 672 Z " />
<glyph glyph-name="idieresis" unicode="&#xef;" horiz-adv-x="332" d="M245 615 C294 615 319 640 319 689 C319 739 294 764 245 764 C196 764 171 739 171 689 C171 640 196 615 245 615 L245 615 Z M84 615 C134 615 159 640 159 689 C159 739 134 764 84 764 C35 764 10 739 10 689 C10 640 35 615 84 615 L84 615 Z M27 0 C27 0 305 0 305 0 C305 0 305 20 305 20 C305 20 275 20 275 20 C240 20 222 21 222 35 C222 35 222 390 222 390 C222 390 222 500 222 500 C222 500 202 500 202 500 C202 500 26 445 26 445 C26 445 26 435 26 435 C101 439 107 437 107 390 C107 390 107 35 107 35 C107 21 90 20 57 20 C57 20 27 20 27 20 C27 20 27 0 27 0 L27 0 Z " />
<glyph glyph-name="ntilde" unicode="&#xf1;" horiz-adv-x="639" d="M176 620 C176 657 189 675 215 675 C279 675 318 610 383 610 C443 610 474 657 474 751 C474 751 454 751 454 751 C454 711 439 691 409 691 C345 691 305 756 241 756 C184 756 156 710 156 620 C156 620 176 620 176 620 L176 620 Z M16 415 C16 415 46 426 46 426 C83 439 101 440 101 366 C101 366 101 35 101 35 C101 21 84 20 51 20 C51 20 21 20 21 20 C21 20 21 0 21 0 C21 0 296 0 296 0 C296 0 296 20 296 20 C296 20 266 20 266 20 C233 20 216 21 216 35 C216 35 216 359 216 359 C242 403 277 426 320 426 C389 426 414 384 414 300 C414 300 414 35 414 35 C414 21 397 20 364 20 C364 20 334 20 334 20 C334 20 334 0 334 0 C334 0 609 0 609 0 C609 0 609 20 609 20 C609 20 579 20 579 20 C546 20 529 21 529 35 C529 35 529 300 529 300 C529 440 491 510 388 510 C319 510 261 471 216 393 C216 393 216 400 216 400 C216 400 216 500 216 500 C216 500 196 500 196 500 C196 500 16 435 16 435 C16 435 16 415 16 415 L16 415 Z " />
<glyph glyph-name="ograve" unicode="&#xf2;" horiz-adv-x="609" d="M298 25 C206 25 159 101 159 250 C159 399 206 475 298 475 C390 475 437 399 437 250 C437 101 390 25 298 25 L298 25 Z M32 250 C32 77 121 -10 298 -10 C475 -10 564 77 564 250 C564 423 475 510 298 510 C121 510 32 423 32 250 L32 250 Z M208 731 C179 774 163 796 153 796 C119 796 96 773 96 738 C96 728 116 710 155 679 C155 679 300 561 300 561 C300 561 314 576 314 576 C314 576 208 731 208 731 L208 731 Z " />
<glyph glyph-name="oacute" unicode="&#xf3;" horiz-adv-x="609" d="M307 561 C307 561 451 679 451 679 C490 712 510 730 510 738 C510 773 487 796 453 796 C445 796 428 774 399 731 C399 731 292 576 292 576 C292 576 307 561 307 561 L307 561 Z M298 25 C206 25 159 101 159 250 C159 399 206 475 298 475 C390 475 437 399 437 250 C437 101 390 25 298 25 L298 25 Z M32 250 C32 77 121 -10 298 -10 C475 -10 564 77 564 250 C564 423 475 510 298 510 C121 510 32 423 32 250 L32 250 Z " />
<glyph glyph-name="ocircumflex" unicode="&#xf4;" horiz-adv-x="609" d="M298 25 C206 25 159 101 159 250 C159 399 206 475 298 475 C390 475 437 399 437 250 C437 101 390 25 298 25 L298 25 Z M32 250 C32 77 121 -10 298 -10 C475 -10 564 77 564 250 C564 423 475 510 298 510 C121 510 32 423 32 250 L32 250 Z M298 671 C298 671 437 555 437 555 C437 555 452 568 452 568 C452 568 339 746 339 746 C330 759 312 787 298 787 C284 787 266 760 258 746 C258 746 144 568 144 568 C144 568 159 555 159 555 C159 555 298 671 298 671 L298 671 Z " />
<glyph glyph-name="otilde" unicode="&#xf5;" horiz-adv-x="609" d="M159 620 C159 657 172 675 198 675 C262 675 301 610 366 610 C426 610 457 657 457 751 C457 751 437 751 437 751 C437 711 422 691 392 691 C328 691 288 756 224 756 C167 756 139 710 139 620 C139 620 159 620 159 620 L159 620 Z M298 25 C206 25 159 101 159 250 C159 399 206 475 298 475 C390 475 437 399 437 250 C437 101 390 25 298 25 L298 25 Z M32 250 C32 77 121 -10 298 -10 C475 -10 564 77 564 250 C564 423 475 510 298 510 C121 510 32 423 32 250 L32 250 Z " />
<glyph glyph-name="odieresis" unicode="&#xf6;" horiz-adv-x="609" d="M378 615 C428 615 453 640 453 689 C453 739 428 764 378 764 C329 764 304 739 304 689 C304 640 329 615 378 615 L378 615 Z M218 615 C267 615 292 640 292 689 C292 739 267 764 218 764 C168 764 143 739 143 689 C143 640 168 615 218 615 L218 615 Z M298 25 C206 25 159 101 159 250 C159 399 206 475 298 475 C390 475 437 399 437 250 C437 101 390 25 298 25 L298 25 Z M32 250 C32 77 121 -10 298 -10 C475 -10 564 77 564 250 C564 423 475 510 298 510 C121 510 32 423 32 250 L32 250 Z " />
<glyph glyph-name="oslash" unicode="&#xf8;" horiz-adv-x="609" d="M46 -25 C46 -25 114 42 114 42 C158 7 219 -10 298 -10 C475 -10 564 77 564 250 C564 327 546 387 511 430 C511 430 578 495 578 495 C578 495 550 525 550 525 C550 525 482 458 482 458 C438 493 377 510 298 510 C121 510 32 423 32 250 C32 173 50 113 85 70 C85 70 18 5 18 5 C18 5 46 -25 46 -25 L46 -25 Z M298 25 C243 25 203 53 181 107 C181 107 428 348 428 348 C434 320 437 287 437 250 C437 101 390 25 298 25 C298 25 298 25 298 25 L298 25 Z M168 152 C162 180 159 213 159 250 C159 399 206 475 298 475 C353 475 393 447 415 393 C415 393 168 152 168 152 L168 152 Z " />
<glyph glyph-name="ugrave" unicode="&#xf9;" horiz-adv-x="618" d="M598 55 C598 55 568 47 568 47 C531 38 513 39 513 114 C513 114 513 465 513 465 C513 465 513 500 513 500 C513 500 332 500 332 500 C332 500 332 480 332 480 C332 480 362 480 362 480 C386 480 398 479 398 465 C398 465 398 150 398 150 C374 97 335 70 284 70 C228 70 200 100 200 160 C200 160 200 465 200 465 C200 465 200 500 200 500 C200 500 19 500 19 500 C19 500 19 480 19 480 C19 480 49 480 49 480 C73 480 85 479 85 465 C85 465 85 160 85 160 C85 47 134 -10 230 -10 C307 -10 363 33 398 117 C398 117 398 90 398 90 C398 90 398 -10 398 -10 C398 -10 418 -10 418 -10 C418 -10 598 35 598 35 C598 35 598 55 598 55 L598 55 Z M209 731 C180 774 164 796 154 796 C120 796 97 773 97 738 C97 728 117 710 156 679 C156 679 301 561 301 561 C301 561 315 576 315 576 C315 576 209 731 209 731 L209 731 Z " />
<glyph glyph-name="uacute" unicode="&#xfa;" horiz-adv-x="618" d="M308 561 C308 561 452 679 452 679 C491 712 511 730 511 738 C511 773 488 796 454 796 C446 796 429 774 400 731 C400 731 293 576 293 576 C293 576 308 561 308 561 L308 561 Z M598 55 C598 55 568 47 568 47 C531 38 513 39 513 114 C513 114 513 465 513 465 C513 465 513 500 513 500 C513 500 332 500 332 500 C332 500 332 480 332 480 C332 480 362 480 362 480 C386 480 398 479 398 465 C398 465 398 150 398 150 C374 97 335 70 284 70 C228 70 200 100 200 160 C200 160 200 465 200 465 C200 465 200 500 200 500 C200 500 19 500 19 500 C19 500 19 480 19 480 C19 480 49 480 49 480 C73 480 85 479 85 465 C85 465 85 160 85 160 C85 47 134 -10 230 -10 C307 -10 363 33 398 117 C398 117 398 90 398 90 C398 90 398 -10 398 -10 C398 -10 418 -10 418 -10 C418 -10 598 35 598 35 C598 35 598 55 598 55 L598 55 Z " />
<glyph glyph-name="ucircumflex" unicode="&#xfb;" horiz-adv-x="618" d="M598 55 C598 55 568 47 568 47 C531 38 513 39 513 114 C513 114 513 465 513 465 C513 465 513 500 513 500 C513 500 332 500 332 500 C332 500 332 480 332 480 C332 480 362 480 362 480 C386 480 398 479 398 465 C398 465 398 150 398 150 C374 97 335 70 284 70 C228 70 200 100 200 160 C200 160 200 465 200 465 C200 465 200 500 200 500 C200 500 19 500 19 500 C19 500 19 480 19 480 C19 480 49 480 49 480 C73 480 85 479 85 465 C85 465 85 160 85 160 C85 47 134 -10 230 -10 C307 -10 363 33 398 117 C398 117 398 90 398 90 C398 90 398 -10 398 -10 C398 -10 418 -10 418 -10 C418 -10 598 35 598 35 C598 35 598 55 598 55 L598 55 Z M299 671 C299 671 438 555 438 555 C438 555 453 568 453 568 C453 568 340 746 340 746 C331 759 313 787 299 787 C285 787 267 760 259 746 C259 746 145 568 145 568 C145 568 160 555 160 555 C160 555 299 671 299 671 L299 671 Z " />
<glyph glyph-name="udieresis" unicode="&#xfc;" horiz-adv-x="618" d="M379 615 C429 615 454 640 454 689 C454 739 429 764 379 764 C330 764 305 739 305 689 C305 640 330 615 379 615 L379 615 Z M219 615 C268 615 293 640 293 689 C293 739 268 764 219 764 C169 764 144 739 144 689 C144 640 169 615 219 615 L219 615 Z M598 55 C598 55 568 47 568 47 C531 38 513 39 513 114 C513 114 513 465 513 465 C513 465 513 500 513 500 C513 500 332 500 332 500 C332 500 332 480 332 480 C332 480 362 480 362 480 C386 480 398 479 398 465 C398 465 398 150 398 150 C374 97 335 70 284 70 C228 70 200 100 200 160 C200 160 200 465 200 465 C200 465 200 500 200 500 C200 500 19 500 19 500 C19 500 19 480 19 480 C19 480 49 480 49 480 C73 480 85 479 85 465 C85 465 85 160 85 160 C85 47 134 -10 230 -10 C307 -10 363 33 398 117 C398 117 398 90 398 90 C398 90 398 -10 398 -10 C398 -10 418 -10 418 -10 C418 -10 598 35 598 35 C598 35 598 55 598 55 L598 55 Z " />
<glyph glyph-name="ydieresis" unicode="&#xff;" horiz-adv-x="609" d="M406 615 C455 615 480 640 480 689 C480 739 455 764 406 764 C357 764 332 739 332 689 C332 640 357 615 406 615 L406 615 Z M245 615 C295 615 320 640 320 689 C320 739 295 764 245 764 C196 764 171 739 171 689 C171 640 196 615 245 615 L245 615 Z M597 500 C597 500 520 500 520 500 C520 500 467 500 467 500 C467 500 372 500 372 500 C372 500 372 480 372 480 C372 480 399 480 399 480 C440 480 459 478 449 450 C449 450 449 450 449 450 C449 450 341 144 341 144 C341 144 205 453 205 453 C205 453 205 453 205 453 C194 478 205 480 230 480 C230 480 259 480 259 480 C259 480 259 500 259 500 C259 500 184 500 184 500 C184 500 59 500 59 500 C59 500 -3 500 -3 500 C-3 500 -3 480 -3 480 C-3 480 32 480 32 480 C55 480 68 478 79 453 C79 453 80 453 80 453 C80 453 286 -10 286 -10 C286 -10 240 -140 240 -140 C234 -157 224 -165 210 -165 C180 -165 175 -124 144 -124 C101 -124 79 -143 79 -182 C79 -229 102 -253 146 -253 C203 -253 242 -226 261 -171 C261 -171 320 -10 320 -10 C320 -10 499 447 499 447 C514 478 533 480 566 480 C566 480 597 480 597 480 C597 480 597 500 597 500 L597 500 Z " />
<glyph glyph-name="Amacron" unicode="&#x100;" horiz-adv-x="824" d="M280 890 C280 890 580 890 580 890 C580 890 580 970 580 970 C580 970 280 970 280 970 C280 970 280 890 280 890 L280 890 Z M459 0 C459 0 594 0 594 0 C594 0 729 0 729 0 C729 0 818 0 818 0 C818 0 818 20 818 20 C818 20 788 20 788 20 C744 20 719 28 683 140 C683 140 683 140 683 140 C683 140 494 709 494 709 C494 709 474 770 474 770 C474 770 460 770 460 770 C436 735 404 715 365 709 C365 709 369 698 369 698 C369 698 181 134 181 134 C141 28 103 20 39 20 C39 20 9 20 9 20 C9 20 9 0 9 0 C9 0 137 0 137 0 C137 0 176 0 176 0 C176 0 341 0 341 0 C341 0 341 20 341 20 C341 20 317 20 317 20 C230 20 187 29 225 157 C225 157 261 273 261 273 C261 273 506 273 506 273 C506 273 553 126 553 126 C582 27 550 20 484 20 C484 20 459 20 459 20 C459 20 459 0 459 0 L459 0 Z M271 306 C271 306 381 658 381 658 C381 658 495 306 495 306 C495 306 271 306 271 306 L271 306 Z " />
<glyph glyph-name="amacron" unicode="&#x101;" horiz-adv-x="514" d="M106 640 C106 640 406 640 406 640 C406 640 406 720 406 720 C406 720 106 720 106 720 C106 720 106 640 106 640 L106 640 Z M524 123 C524 123 507 131 507 131 C500 95 482 77 452 77 C417 77 400 91 400 120 C400 120 400 353 400 353 C400 473 352 510 256 510 C124 510 57 420 57 360 C57 307 81 280 129 280 C166 280 185 311 185 337 C185 360 165 372 165 399 C165 425 186 463 229 463 C266 463 285 447 285 394 C285 394 285 278 285 278 C63 210 37 200 37 94 C37 25 74 -10 149 -10 C198 -10 238 8 289 77 C302 23 340 -5 405 -5 C469 -5 509 38 524 123 C524 123 524 123 524 123 L524 123 Z M285 250 C285 250 285 120 285 120 C285 114 285 108 286 103 C256 62 235 51 210 51 C172 51 153 70 153 106 C153 207 167 214 285 250 L285 250 Z " />
<glyph glyph-name="Abreve" unicode="&#x102;" horiz-adv-x="824" d="M287 994 C298 901 346 854 430 854 C514 854 562 900 573 992 C573 992 549 995 549 995 C544 955 504 935 430 935 C356 935 316 956 311 998 C311 998 287 994 287 994 L287 994 Z M459 0 C459 0 594 0 594 0 C594 0 729 0 729 0 C729 0 818 0 818 0 C818 0 818 20 818 20 C818 20 788 20 788 20 C744 20 719 28 683 140 C683 140 683 140 683 140 C683 140 494 709 494 709 C494 709 474 770 474 770 C474 770 460 770 460 770 C436 735 404 715 365 709 C365 709 369 698 369 698 C369 698 181 134 181 134 C141 28 103 20 39 20 C39 20 9 20 9 20 C9 20 9 0 9 0 C9 0 137 0 137 0 C137 0 176 0 176 0 C176 0 341 0 341 0 C341 0 341 20 341 20 C341 20 317 20 317 20 C230 20 187 29 225 157 C225 157 261 273 261 273 C261 273 506 273 506 273 C506 273 553 126 553 126 C582 27 550 20 484 20 C484 20 459 20 459 20 C459 20 459 0 459 0 L459 0 Z M271 306 C271 306 381 658 381 658 C381 658 495 306 495 306 C495 306 271 306 271 306 L271 306 Z " />
<glyph glyph-name="abreve" unicode="&#x103;" horiz-adv-x="514" d="M113 744 C124 651 172 604 256 604 C340 604 388 650 399 742 C399 742 375 745 375 745 C370 705 330 685 256 685 C182 685 142 706 137 748 C137 748 113 744 113 744 L113 744 Z M524 123 C524 123 507 131 507 131 C500 95 482 77 452 77 C417 77 400 91 400 120 C400 120 400 353 400 353 C400 473 352 510 256 510 C124 510 57 420 57 360 C57 307 81 280 129 280 C166 280 185 311 185 337 C185 360 165 372 165 399 C165 425 186 463 229 463 C266 463 285 447 285 394 C285 394 285 278 285 278 C63 210 37 200 37 94 C37 25 74 -10 149 -10 C198 -10 238 8 289 77 C302 23 340 -5 405 -5 C469 -5 509 38 524 123 C524 123 524 123 524 123 L524 123 Z M285 250 C285 250 285 120 285 120 C285 114 285 108 286 103 C256 62 235 51 210 51 C172 51 153 70 153 106 C153 207 167 214 285 250 L285 250 Z " />
<glyph glyph-name="Cacute" unicode="&#x106;" horiz-adv-x="763" d="M442 811 C442 811 586 929 586 929 C626 962 646 980 646 988 C646 1023 623 1046 588 1046 C581 1046 564 1024 534 981 C534 981 428 826 428 826 C428 826 442 811 442 811 L442 811 Z M723 515 C723 515 723 633 723 633 C723 633 723 748 723 748 C723 748 708 748 708 748 C708 748 706 738 703 720 C699 701 674 696 632 720 C588 747 531 760 433 760 C173 760 42 631 42 375 C42 119 170 -10 423 -10 C516 -10 576 3 624 29 C624 29 624 29 624 29 C669 54 697 47 703 27 C708 7 711 -3 711 -3 C711 -3 723 -3 723 -3 C723 -3 723 117 723 117 C723 117 723 235 723 235 C723 235 708 235 708 235 C708 235 706 228 703 213 C695 178 673 137 640 102 C585 48 530 20 435 20 C268 20 183 139 183 375 C183 610 271 728 446 728 C557 728 601 694 659 628 C681 599 696 566 703 536 C706 522 708 515 708 515 C708 515 723 515 723 515 L723 515 Z " />
<glyph glyph-name="Ccircumflex" unicode="&#x108;" horiz-adv-x="763" d="M723 515 C723 515 723 633 723 633 C723 633 723 748 723 748 C723 748 708 748 708 748 C708 748 706 738 703 720 C699 701 674 696 632 720 C588 747 531 760 433 760 C173 760 42 631 42 375 C42 119 170 -10 423 -10 C516 -10 576 3 624 29 C624 29 624 29 624 29 C669 54 697 47 703 27 C708 7 711 -3 711 -3 C711 -3 723 -3 723 -3 C723 -3 723 117 723 117 C723 117 723 235 723 235 C723 235 708 235 708 235 C708 235 706 228 703 213 C695 178 673 137 640 102 C585 48 530 20 435 20 C268 20 183 139 183 375 C183 610 271 728 446 728 C557 728 601 694 659 628 C681 599 696 566 703 536 C706 522 708 515 708 515 C708 515 723 515 723 515 L723 515 Z M434 922 C434 922 572 805 572 805 C572 805 588 818 588 818 C588 818 474 996 474 996 C465 1009 448 1037 433 1037 C419 1037 402 1010 393 996 C393 996 279 818 279 818 C279 818 294 805 294 805 C294 805 434 922 434 922 L434 922 Z " />
<glyph glyph-name="Cdotaccent" unicode="&#x10a;" horiz-adv-x="763" d="M433 865 C483 865 508 890 508 939 C508 989 483 1014 433 1014 C384 1014 359 989 359 939 C359 890 384 865 433 865 L433 865 Z M723 515 C723 515 723 633 723 633 C723 633 723 748 723 748 C723 748 708 748 708 748 C708 748 706 738 703 720 C699 701 674 696 632 720 C588 747 531 760 433 760 C173 760 42 631 42 375 C42 119 170 -10 423 -10 C516 -10 576 3 624 29 C624 29 624 29 624 29 C669 54 697 47 703 27 C708 7 711 -3 711 -3 C711 -3 723 -3 723 -3 C723 -3 723 117 723 117 C723 117 723 235 723 235 C723 235 708 235 708 235 C708 235 706 228 703 213 C695 178 673 137 640 102 C585 48 530 20 435 20 C268 20 183 139 183 375 C183 610 271 728 446 728 C557 728 601 694 659 628 C681 599 696 566 703 536 C706 522 708 515 708 515 C708 515 723 515 723 515 L723 515 Z " />
<glyph glyph-name="cdotaccent" unicode="&#x10b;" horiz-adv-x="525" d="M318 615 C367 615 392 640 392 689 C392 739 367 764 318 764 C268 764 243 739 243 689 C243 640 268 615 318 615 L318 615 Z M496 128 C496 128 480 135 480 135 C457 85 411 60 342 60 C218 60 156 133 156 277 C156 415 208 484 311 484 C343 484 369 457 388 405 C402 367 421 348 445 348 C498 348 517 367 503 405 C478 475 416 510 318 510 C129 510 33 417 33 234 C33 72 123 -10 302 -10 C390 -10 455 36 496 128 L496 128 Z " />
<glyph glyph-name="Ccaron" unicode="&#x10c;" horiz-adv-x="763" d="M723 515 C723 515 723 633 723 633 C723 633 723 748 723 748 C723 748 708 748 708 748 C708 748 706 738 703 720 C699 701 674 696 632 720 C588 747 531 760 433 760 C173 760 42 631 42 375 C42 119 170 -10 423 -10 C516 -10 576 3 624 29 C624 29 624 29 624 29 C669 54 697 47 703 27 C708 7 711 -3 711 -3 C711 -3 723 -3 723 -3 C723 -3 723 117 723 117 C723 117 723 235 723 235 C723 235 708 235 708 235 C708 235 706 228 703 213 C695 178 673 137 640 102 C585 48 530 20 435 20 C268 20 183 139 183 375 C183 610 271 728 446 728 C557 728 601 694 659 628 C681 599 696 566 703 536 C706 522 708 515 708 515 C708 515 723 515 723 515 L723 515 Z M434 928 C434 928 572 1045 572 1045 C572 1045 588 1032 588 1032 C588 1032 474 854 474 854 C465 841 448 813 433 813 C419 813 402 840 393 854 C393 854 279 1032 279 1032 C279 1032 294 1045 294 1045 C294 1045 434 928 434 928 L434 928 Z " />
<glyph glyph-name="ccaron" unicode="&#x10d;" horiz-adv-x="525" d="M496 128 C496 128 480 135 480 135 C457 85 411 60 342 60 C218 60 156 133 156 277 C156 415 208 484 311 484 C343 484 369 457 388 405 C402 367 421 348 445 348 C498 348 517 367 503 405 C478 475 416 510 318 510 C129 510 33 417 33 234 C33 72 123 -10 302 -10 C390 -10 455 36 496 128 L496 128 Z M318 678 C318 678 457 795 457 795 C457 795 472 782 472 782 C472 782 359 604 359 604 C350 591 332 563 318 563 C303 563 286 590 277 604 C277 604 163 782 163 782 C163 782 179 795 179 795 C179 795 318 678 318 678 L318 678 Z " />
<glyph glyph-name="Dcaron" unicode="&#x10e;" horiz-adv-x="881" d="M33 0 C33 0 138 0 138 0 C138 0 266 0 266 0 C266 0 346 0 346 0 C666 0 827 101 827 375 C827 624 708 750 386 750 C386 750 266 750 266 750 C266 750 138 750 138 750 C138 750 33 750 33 750 C33 750 33 730 33 730 C33 730 63 730 63 730 C113 730 138 725 138 665 C138 665 138 85 138 85 C138 25 113 20 63 20 C63 20 33 20 33 20 C33 20 33 0 33 0 L33 0 Z M412 929 C412 929 550 1045 550 1045 C550 1045 566 1032 566 1032 C566 1032 452 854 452 854 C444 841 426 813 412 813 C397 813 380 840 371 854 C371 854 257 1032 257 1032 C257 1032 273 1045 273 1045 C273 1045 412 929 412 929 L412 929 Z M266 724 C266 724 284 725 284 725 C577 725 685 608 685 375 C685 120 558 26 308 26 C266 26 266 44 266 80 C266 80 266 85 266 85 C266 85 266 665 266 665 C266 665 266 724 266 724 L266 724 Z " />
<glyph glyph-name="dcaron" unicode="&#x10f;" horiz-adv-x="593" d="M598 55 C598 55 568 47 568 47 C532 38 513 41 513 134 C513 134 513 665 513 665 C513 665 513 750 513 750 C513 750 493 750 493 750 C493 750 313 698 313 698 C313 698 313 678 313 678 C313 678 343 687 343 687 C380 697 398 698 398 638 C398 638 398 486 398 486 C364 501 320 510 267 510 C100 510 39 422 39 249 C39 80 108 -5 244 -5 C311 -5 363 17 398 61 C398 61 398 -10 398 -10 C398 -10 419 -10 419 -10 C419 -10 598 35 598 35 C598 35 598 55 598 55 L598 55 Z M625 636 C644 676 653 711 653 740 C653 754 636 757 602 757 C575 757 568 699 565 649 C565 649 558 536 558 536 C558 536 578 533 578 533 C578 533 625 636 625 636 L625 636 Z M398 101 C368 63 333 43 292 43 C202 43 156 123 156 281 C156 411 189 477 280 477 C329 477 371 446 398 398 C398 398 398 110 398 110 C398 110 398 101 398 101 L398 101 Z " />
<glyph glyph-name="Emacron" unicode="&#x112;" horiz-adv-x="673" d="M207 890 C207 890 507 890 507 890 C507 890 507 970 507 970 C507 970 207 970 207 970 C207 970 207 890 207 890 L207 890 Z M587 598 C583 649 580 700 576 750 C576 750 456 750 456 750 C456 750 266 750 266 750 C266 750 138 750 138 750 C138 750 33 750 33 750 C33 750 33 730 33 730 C33 730 63 730 63 730 C113 730 138 725 138 665 C138 665 138 85 138 85 C138 25 113 20 63 20 C63 20 33 20 33 20 C33 20 33 0 33 0 C33 0 138 0 138 0 C138 0 266 0 266 0 C266 0 481 0 481 0 C481 0 601 0 601 0 C609 51 615 101 623 152 C623 152 603 152 603 152 C603 152 599 122 599 122 C589 59 578 27 485 27 C485 27 346 27 346 27 C266 27 266 45 266 80 C266 80 266 85 266 85 C266 85 266 385 266 385 C266 385 396 385 396 385 C489 385 496 348 496 275 C496 275 496 245 496 245 C496 245 516 245 516 245 C516 245 516 385 516 385 C516 385 516 416 516 416 C516 416 516 556 516 556 C516 556 496 556 496 556 C496 556 496 526 496 526 C496 453 489 416 396 416 C396 416 266 416 266 416 C266 416 266 665 266 665 C266 665 266 723 266 723 C266 723 458 723 458 723 C569 723 561 687 566 616 C566 616 567 598 567 598 C567 598 587 598 587 598 L587 598 Z " />
<glyph glyph-name="emacron" unicode="&#x113;" horiz-adv-x="535" d="M143 640 C143 640 443 640 443 640 C443 640 443 720 443 720 C443 720 143 720 143 720 C143 720 143 640 143 640 L143 640 Z M158 340 C158 340 378 340 378 340 C378 340 505 340 505 340 C482 476 415 510 293 510 C120 510 33 415 33 228 C33 70 112 -10 269 -10 C383 -10 458 37 492 131 C492 131 478 136 478 136 C462 90 401 66 297 66 C202 66 154 136 154 275 C154 299 155 320 158 340 L158 340 Z M452 374 C459 374 466 374 474 374 C474 374 452 374 452 374 L452 374 Z M372 372 C372 372 162 367 162 367 C179 445 220 484 286 484 C327 484 352 460 372 372 C372 372 372 372 372 372 L372 372 Z " />
<glyph glyph-name="Ebreve" unicode="&#x114;" horiz-adv-x="673" d="M214 994 C225 901 273 854 357 854 C441 854 489 900 500 992 C500 992 476 995 476 995 C471 955 431 935 357 935 C283 935 243 956 238 998 C238 998 214 994 214 994 L214 994 Z M587 598 C583 649 580 700 576 750 C576 750 456 750 456 750 C456 750 266 750 266 750 C266 750 138 750 138 750 C138 750 33 750 33 750 C33 750 33 730 33 730 C33 730 63 730 63 730 C113 730 138 725 138 665 C138 665 138 85 138 85 C138 25 113 20 63 20 C63 20 33 20 33 20 C33 20 33 0 33 0 C33 0 138 0 138 0 C138 0 266 0 266 0 C266 0 481 0 481 0 C481 0 601 0 601 0 C609 51 615 101 623 152 C623 152 603 152 603 152 C603 152 599 122 599 122 C589 59 578 27 485 27 C485 27 346 27 346 27 C266 27 266 45 266 80 C266 80 266 85 266 85 C266 85 266 385 266 385 C266 385 396 385 396 385 C489 385 496 348 496 275 C496 275 496 245 496 245 C496 245 516 245 516 245 C516 245 516 385 516 385 C516 385 516 416 516 416 C516 416 516 556 516 556 C516 556 496 556 496 556 C496 556 496 526 496 526 C496 453 489 416 396 416 C396 416 266 416 266 416 C266 416 266 665 266 665 C266 665 266 723 266 723 C266 723 458 723 458 723 C569 723 561 687 566 616 C566 616 567 598 567 598 C567 598 587 598 587 598 L587 598 Z " />
<glyph glyph-name="ebreve" unicode="&#x115;" horiz-adv-x="535" d="M150 744 C161 651 209 604 293 604 C377 604 425 650 436 742 C436 742 412 745 412 745 C407 705 367 685 293 685 C219 685 179 706 174 748 C174 748 150 744 150 744 L150 744 Z M158 340 C158 340 378 340 378 340 C378 340 505 340 505 340 C482 476 415 510 293 510 C120 510 33 415 33 228 C33 70 112 -10 269 -10 C383 -10 458 37 492 131 C492 131 478 136 478 136 C462 90 401 66 297 66 C202 66 154 136 154 275 C154 299 155 320 158 340 L158 340 Z M452 374 C459 374 466 374 474 374 C474 374 452 374 452 374 L452 374 Z M372 372 C372 372 162 367 162 367 C179 445 220 484 286 484 C327 484 352 460 372 372 C372 372 372 372 372 372 L372 372 Z " />
<glyph glyph-name="Edotaccent" unicode="&#x116;" horiz-adv-x="673" d="M357 865 C407 865 432 890 432 939 C432 989 407 1014 357 1014 C308 1014 283 989 283 939 C283 890 308 865 357 865 L357 865 Z M587 598 C583 649 580 700 576 750 C576 750 456 750 456 750 C456 750 266 750 266 750 C266 750 138 750 138 750 C138 750 33 750 33 750 C33 750 33 730 33 730 C33 730 63 730 63 730 C113 730 138 725 138 665 C138 665 138 85 138 85 C138 25 113 20 63 20 C63 20 33 20 33 20 C33 20 33 0 33 0 C33 0 138 0 138 0 C138 0 266 0 266 0 C266 0 481 0 481 0 C481 0 601 0 601 0 C609 51 615 101 623 152 C623 152 603 152 603 152 C603 152 599 122 599 122 C589 59 578 27 485 27 C485 27 346 27 346 27 C266 27 266 45 266 80 C266 80 266 85 266 85 C266 85 266 385 266 385 C266 385 396 385 396 385 C489 385 496 348 496 275 C496 275 496 245 496 245 C496 245 516 245 516 245 C516 245 516 385 516 385 C516 385 516 416 516 416 C516 416 516 556 516 556 C516 556 496 556 496 556 C496 556 496 526 496 526 C496 453 489 416 396 416 C396 416 266 416 266 416 C266 416 266 665 266 665 C266 665 266 723 266 723 C266 723 458 723 458 723 C569 723 561 687 566 616 C566 616 567 598 567 598 C567 598 587 598 587 598 L587 598 Z " />
<glyph glyph-name="edotaccent" unicode="&#x117;" horiz-adv-x="535" d="M293 615 C342 615 367 640 367 689 C367 739 342 764 293 764 C244 764 219 739 219 689 C219 640 244 615 293 615 L293 615 Z M158 340 C158 340 378 340 378 340 C378 340 505 340 505 340 C482 476 415 510 293 510 C120 510 33 415 33 228 C33 70 112 -10 269 -10 C383 -10 458 37 492 131 C492 131 478 136 478 136 C462 90 401 66 297 66 C202 66 154 136 154 275 C154 299 155 320 158 340 L158 340 Z M452 374 C459 374 466 374 474 374 C474 374 452 374 452 374 L452 374 Z M372 372 C372 372 162 367 162 367 C179 445 220 484 286 484 C327 484 352 460 372 372 C372 372 372 372 372 372 L372 372 Z " />
<glyph glyph-name="Ecaron" unicode="&#x11a;" horiz-adv-x="673" d="M587 598 C583 649 580 700 576 750 C576 750 456 750 456 750 C456 750 266 750 266 750 C266 750 138 750 138 750 C138 750 33 750 33 750 C33 750 33 730 33 730 C33 730 63 730 63 730 C113 730 138 725 138 665 C138 665 138 85 138 85 C138 25 113 20 63 20 C63 20 33 20 33 20 C33 20 33 0 33 0 C33 0 138 0 138 0 C138 0 266 0 266 0 C266 0 481 0 481 0 C481 0 601 0 601 0 C609 51 615 101 623 152 C623 152 603 152 603 152 C603 152 599 122 599 122 C589 59 578 27 485 27 C485 27 346 27 346 27 C266 27 266 45 266 80 C266 80 266 85 266 85 C266 85 266 385 266 385 C266 385 396 385 396 385 C489 385 496 348 496 275 C496 275 496 245 496 245 C496 245 516 245 516 245 C516 245 516 385 516 385 C516 385 516 416 516 416 C516 416 516 556 516 556 C516 556 496 556 496 556 C496 556 496 526 496 526 C496 453 489 416 396 416 C396 416 266 416 266 416 C266 416 266 665 266 665 C266 665 266 723 266 723 C266 723 458 723 458 723 C569 723 561 687 566 616 C566 616 567 598 567 598 C567 598 587 598 587 598 L587 598 Z M357 929 C357 929 496 1045 496 1045 C496 1045 511 1032 511 1032 C511 1032 398 854 398 854 C389 841 372 813 357 813 C343 813 325 840 317 854 C317 854 203 1032 203 1032 C203 1032 218 1045 218 1045 C218 1045 357 929 357 929 L357 929 Z " />
<glyph glyph-name="ecaron" unicode="&#x11b;" horiz-adv-x="535" d="M293 678 C293 678 432 795 432 795 C432 795 447 782 447 782 C447 782 334 604 334 604 C325 591 307 563 293 563 C278 563 261 590 253 604 C253 604 139 782 139 782 C139 782 154 795 154 795 C154 795 293 678 293 678 L293 678 Z M158 340 C158 340 378 340 378 340 C378 340 505 340 505 340 C482 476 415 510 293 510 C120 510 33 415 33 228 C33 70 112 -10 269 -10 C383 -10 458 37 492 131 C492 131 478 136 478 136 C462 90 401 66 297 66 C202 66 154 136 154 275 C154 299 155 320 158 340 L158 340 Z M452 374 C459 374 466 374 474 374 C474 374 452 374 452 374 L452 374 Z M372 372 C372 372 162 367 162 367 C179 445 220 484 286 484 C327 484 352 460 372 372 C372 372 372 372 372 372 L372 372 Z " />
<glyph glyph-name="Gcircumflex" unicode="&#x11c;" horiz-adv-x="841" d="M723 515 C723 515 723 633 723 633 C723 633 723 748 723 748 C723 748 708 748 708 748 C708 748 706 738 703 720 C699 701 674 696 632 720 C588 747 531 760 433 760 C173 760 42 631 42 375 C42 119 174 -10 434 -10 C602 -10 678 13 775 58 C775 58 767 77 767 77 C744 66 722 57 699 50 C699 50 699 245 699 245 C699 301 718 305 754 305 C754 305 784 305 784 305 C784 305 784 325 784 325 C784 325 471 325 471 325 C471 325 471 305 471 305 C471 305 501 305 501 305 C547 305 571 301 571 245 C571 245 572 137 572 137 C569 60 527 21 445 21 C271 21 183 140 183 375 C183 610 271 728 446 728 C557 728 601 694 659 628 C681 599 696 566 703 536 C706 522 708 515 708 515 C708 515 723 515 723 515 L723 515 Z M434 922 C434 922 572 805 572 805 C572 805 588 818 588 818 C588 818 474 996 474 996 C465 1009 448 1037 433 1037 C419 1037 402 1010 393 996 C393 996 279 818 279 818 C279 818 294 805 294 805 C294 805 434 922 434 922 L434 922 Z " />
<glyph glyph-name="Gbreve" unicode="&#x11e;" horiz-adv-x="841" d="M290 994 C301 901 349 854 433 854 C517 854 565 900 576 992 C576 992 552 995 552 995 C547 955 507 935 433 935 C359 935 319 956 314 998 C314 998 290 994 290 994 L290 994 Z M723 515 C723 515 723 633 723 633 C723 633 723 748 723 748 C723 748 708 748 708 748 C708 748 706 738 703 720 C699 701 674 696 632 720 C588 747 531 760 433 760 C173 760 42 631 42 375 C42 119 174 -10 434 -10 C602 -10 678 13 775 58 C775 58 767 77 767 77 C744 66 722 57 699 50 C699 50 699 245 699 245 C699 301 718 305 754 305 C754 305 784 305 784 305 C784 305 784 325 784 325 C784 325 471 325 471 325 C471 325 471 305 471 305 C471 305 501 305 501 305 C547 305 571 301 571 245 C571 245 572 137 572 137 C569 60 527 21 445 21 C271 21 183 140 183 375 C183 610 271 728 446 728 C557 728 601 694 659 628 C681 599 696 566 703 536 C706 522 708 515 708 515 C708 515 723 515 723 515 L723 515 Z " />
<glyph glyph-name="gbreve" unicode="&#x11f;" horiz-adv-x="520" d="M108 744 C119 651 167 604 251 604 C335 604 383 650 394 742 C394 742 370 745 370 745 C365 705 325 685 251 685 C177 685 137 706 132 748 C132 748 108 744 108 744 L108 744 Z M182 350 C182 438 205 483 251 483 C297 483 320 438 320 350 C320 260 297 215 251 215 C205 215 182 260 182 350 L182 350 Z M154 -14 C160 -15 166 -15 172 -15 C172 -15 287 -15 287 -15 C369 -15 390 -39 390 -86 C390 -164 349 -204 269 -204 C179 -204 134 -159 134 -70 C134 -44 141 -26 154 -14 L154 -14 Z M122 -9 C67 -26 39 -55 39 -97 C39 -185 114 -230 262 -230 C410 -230 485 -172 485 -59 C485 46 447 99 299 99 C299 99 178 99 178 99 C138 100 118 112 118 137 C118 171 163 188 251 188 C373 188 435 242 435 350 C435 371 432 391 428 408 C444 434 462 447 482 447 C484 447 485 440 485 426 C485 399 503 386 538 386 C569 386 585 404 585 440 C585 477 567 495 530 495 C481 495 444 474 418 432 C392 484 336 510 251 510 C129 510 67 456 67 350 C67 276 96 227 154 204 C85 189 50 155 50 102 C50 42 74 5 122 -9 L122 -9 Z " />
<glyph glyph-name="Gdotaccent" unicode="&#x120;" horiz-adv-x="841" d="M433 865 C483 865 508 890 508 939 C508 989 483 1014 433 1014 C384 1014 359 989 359 939 C359 890 384 865 433 865 L433 865 Z M723 515 C723 515 723 633 723 633 C723 633 723 748 723 748 C723 748 708 748 708 748 C708 748 706 738 703 720 C699 701 674 696 632 720 C588 747 531 760 433 760 C173 760 42 631 42 375 C42 119 174 -10 434 -10 C602 -10 678 13 775 58 C775 58 767 77 767 77 C744 66 722 57 699 50 C699 50 699 245 699 245 C699 301 718 305 754 305 C754 305 784 305 784 305 C784 305 784 325 784 325 C784 325 471 325 471 325 C471 325 471 305 471 305 C471 305 501 305 501 305 C547 305 571 301 571 245 C571 245 572 137 572 137 C569 60 527 21 445 21 C271 21 183 140 183 375 C183 610 271 728 446 728 C557 728 601 694 659 628 C681 599 696 566 703 536 C706 522 708 515 708 515 C708 515 723 515 723 515 L723 515 Z " />
<glyph glyph-name="gdotaccent" unicode="&#x121;" horiz-adv-x="520" d="M251 615 C301 615 326 640 326 689 C326 739 301 764 251 764 C202 764 177 739 177 689 C177 640 202 615 251 615 L251 615 Z M182 350 C182 438 205 483 251 483 C297 483 320 438 320 350 C320 260 297 215 251 215 C205 215 182 260 182 350 L182 350 Z M154 -14 C160 -15 166 -15 172 -15 C172 -15 287 -15 287 -15 C369 -15 390 -39 390 -86 C390 -164 349 -204 269 -204 C179 -204 134 -159 134 -70 C134 -44 141 -26 154 -14 L154 -14 Z M122 -9 C67 -26 39 -55 39 -97 C39 -185 114 -230 262 -230 C410 -230 485 -172 485 -59 C485 46 447 99 299 99 C299 99 178 99 178 99 C138 100 118 112 118 137 C118 171 163 188 251 188 C373 188 435 242 435 350 C435 371 432 391 428 408 C444 434 462 447 482 447 C484 447 485 440 485 426 C485 399 503 386 538 386 C569 386 585 404 585 440 C585 477 567 495 530 495 C481 495 444 474 418 432 C392 484 336 510 251 510 C129 510 67 456 67 350 C67 276 96 227 154 204 C85 189 50 155 50 102 C50 42 74 5 122 -9 L122 -9 Z " />
<glyph glyph-name="Hcircumflex" unicode="&#x124;" horiz-adv-x="889" d="M850 750 C850 750 511 750 511 750 C511 750 511 730 511 730 C511 730 541 730 541 730 C591 730 616 726 616 670 C616 670 616 400 616 400 C616 400 302 400 302 400 C302 400 302 670 302 670 C302 726 327 730 377 730 C377 730 407 730 407 730 C407 730 407 750 407 750 C407 750 69 750 69 750 C69 750 69 730 69 730 C69 730 99 730 99 730 C149 730 174 726 174 670 C174 670 174 80 174 80 C174 24 149 20 99 20 C99 20 69 20 69 20 C69 20 69 0 69 0 C69 0 407 0 407 0 C407 0 407 20 407 20 C407 20 377 20 377 20 C327 20 302 24 302 80 C302 80 302 366 302 366 C302 366 616 366 616 366 C616 366 616 80 616 80 C616 24 591 20 541 20 C541 20 511 20 511 20 C511 20 511 0 511 0 C511 0 850 0 850 0 C850 0 850 20 850 20 C850 20 820 20 820 20 C770 20 745 24 745 80 C745 80 745 670 745 670 C745 726 770 730 820 730 C820 730 850 730 850 730 C850 730 850 750 850 750 L850 750 Z M459 921 C459 921 598 805 598 805 C598 805 614 818 614 818 C614 818 500 996 500 996 C491 1009 474 1037 459 1037 C445 1037 428 1010 419 996 C419 996 305 818 305 818 C305 818 320 805 320 805 C320 805 459 921 459 921 L459 921 Z " />
<glyph glyph-name="Itilde" unicode="&#x128;" horiz-adv-x="399" d="M51 870 C51 907 64 925 89 925 C154 925 193 860 258 860 C318 860 349 907 349 1001 C349 1001 329 1001 329 1001 C329 961 314 941 284 941 C220 941 180 1006 116 1006 C59 1006 31 960 31 870 C31 870 51 870 51 870 L51 870 Z M359 750 C359 750 21 750 21 750 C21 750 21 730 21 730 C21 730 51 730 51 730 C101 730 126 726 126 670 C126 670 126 80 126 80 C126 24 101 20 51 20 C51 20 21 20 21 20 C21 20 21 0 21 0 C21 0 359 0 359 0 C359 0 359 20 359 20 C359 20 329 20 329 20 C279 20 254 24 254 80 C254 80 254 670 254 670 C254 726 279 730 329 730 C329 730 359 730 359 730 C359 730 359 750 359 750 L359 750 Z " />
<glyph glyph-name="itilde" unicode="&#x129;" horiz-adv-x="332" d="M26 620 C26 657 39 675 64 675 C128 675 168 610 232 610 C293 610 324 657 324 751 C324 751 304 751 304 751 C304 711 289 691 259 691 C194 691 155 756 91 756 C34 756 6 710 6 620 C6 620 26 620 26 620 L26 620 Z M27 0 C27 0 305 0 305 0 C305 0 305 20 305 20 C305 20 275 20 275 20 C240 20 222 21 222 35 C222 35 222 390 222 390 C222 390 222 500 222 500 C222 500 202 500 202 500 C202 500 26 445 26 445 C26 445 26 435 26 435 C101 439 107 437 107 390 C107 390 107 35 107 35 C107 21 90 20 57 20 C57 20 27 20 27 20 C27 20 27 0 27 0 L27 0 Z " />
<glyph glyph-name="Imacron" unicode="&#x12a;" horiz-adv-x="399" d="M40 890 C40 890 340 890 340 890 C340 890 340 970 340 970 C340 970 40 970 40 970 C40 970 40 890 40 890 L40 890 Z M359 750 C359 750 21 750 21 750 C21 750 21 730 21 730 C21 730 51 730 51 730 C101 730 126 726 126 670 C126 670 126 80 126 80 C126 24 101 20 51 20 C51 20 21 20 21 20 C21 20 21 0 21 0 C21 0 359 0 359 0 C359 0 359 20 359 20 C359 20 329 20 329 20 C279 20 254 24 254 80 C254 80 254 670 254 670 C254 726 279 730 329 730 C329 730 359 730 359 730 C359 730 359 750 359 750 L359 750 Z " />
<glyph glyph-name="imacron" unicode="&#x12b;" horiz-adv-x="332" d="M15 640 C15 640 315 640 315 640 C315 640 315 720 315 720 C315 720 15 720 15 720 C15 720 15 640 15 640 L15 640 Z M27 0 C27 0 305 0 305 0 C305 0 305 20 305 20 C305 20 275 20 275 20 C240 20 222 21 222 35 C222 35 222 390 222 390 C222 390 222 500 222 500 C222 500 202 500 202 500 C202 500 26 445 26 445 C26 445 26 435 26 435 C101 439 107 437 107 390 C107 390 107 35 107 35 C107 21 90 20 57 20 C57 20 27 20 27 20 C27 20 27 0 27 0 L27 0 Z " />
<glyph glyph-name="Ibreve" unicode="&#x12c;" horiz-adv-x="399" d="M47 994 C58 901 106 854 190 854 C274 854 322 900 333 992 C333 992 309 995 309 995 C304 955 264 935 190 935 C116 935 76 956 71 998 C71 998 47 994 47 994 L47 994 Z M359 750 C359 750 21 750 21 750 C21 750 21 730 21 730 C21 730 51 730 51 730 C101 730 126 726 126 670 C126 670 126 80 126 80 C126 24 101 20 51 20 C51 20 21 20 21 20 C21 20 21 0 21 0 C21 0 359 0 359 0 C359 0 359 20 359 20 C359 20 329 20 329 20 C279 20 254 24 254 80 C254 80 254 670 254 670 C254 726 279 730 329 730 C329 730 359 730 359 730 C359 730 359 750 359 750 L359 750 Z " />
<glyph glyph-name="ibreve" unicode="&#x12d;" horiz-adv-x="332" d="M22 744 C33 651 81 604 165 604 C249 604 297 650 308 742 C308 742 284 745 284 745 C279 705 239 685 165 685 C91 685 51 706 46 748 C46 748 22 744 22 744 L22 744 Z M27 0 C27 0 305 0 305 0 C305 0 305 20 305 20 C305 20 275 20 275 20 C240 20 222 21 222 35 C222 35 222 390 222 390 C222 390 222 500 222 500 C222 500 202 500 202 500 C202 500 26 445 26 445 C26 445 26 435 26 435 C101 439 107 437 107 390 C107 390 107 35 107 35 C107 21 90 20 57 20 C57 20 27 20 27 20 C27 20 27 0 27 0 L27 0 Z " />
<glyph glyph-name="Idotaccent" unicode="&#x130;" horiz-adv-x="399" d="M190 865 C239 865 264 890 264 939 C264 989 239 1014 190 1014 C141 1014 116 989 116 939 C116 890 141 865 190 865 L190 865 Z M359 750 C359 750 21 750 21 750 C21 750 21 730 21 730 C21 730 51 730 51 730 C101 730 126 726 126 670 C126 670 126 80 126 80 C126 24 101 20 51 20 C51 20 21 20 21 20 C21 20 21 0 21 0 C21 0 359 0 359 0 C359 0 359 20 359 20 C359 20 329 20 329 20 C279 20 254 24 254 80 C254 80 254 670 254 670 C254 726 279 730 329 730 C329 730 359 730 359 730 C359 730 359 750 359 750 L359 750 Z " />
<glyph glyph-name="dotlessi" unicode="&#x131;" horiz-adv-x="332" d="M27 0 C27 0 305 0 305 0 C305 0 305 20 305 20 C305 20 275 20 275 20 C240 20 222 21 222 35 C222 35 222 390 222 390 C222 390 222 500 222 500 C222 500 202 500 202 500 C202 500 26 445 26 445 C26 445 26 435 26 435 C101 439 107 437 107 390 C107 390 107 35 107 35 C107 21 90 20 57 20 C57 20 27 20 27 20 C27 20 27 0 27 0 L27 0 Z " />
<glyph glyph-name="Jcircumflex" unicode="&#x134;" horiz-adv-x="399" d="M359 750 C359 750 21 750 21 750 C21 750 21 730 21 730 C21 730 51 730 51 730 C101 730 126 726 126 670 C126 670 125 -99 125 -99 C125 -170 75 -175 32 -175 C-40 -175 3 -66 -69 -66 C-110 -66 -130 -87 -130 -127 C-130 -189 -86 -220 1 -220 C119 -220 255 -195 255 143 C255 143 254 670 254 670 C254 726 279 730 329 730 C329 730 359 730 359 730 C359 730 359 750 359 750 L359 750 Z M190 922 C190 922 329 805 329 805 C329 805 344 818 344 818 C344 818 231 996 231 996 C222 1009 204 1037 190 1037 C176 1037 158 1010 150 996 C150 996 36 818 36 818 C36 818 51 805 51 805 C51 805 190 922 190 922 L190 922 Z " />
<glyph glyph-name="Lacute" unicode="&#x139;" horiz-adv-x="664" d="M199 811 C199 811 343 929 343 929 C382 962 402 980 402 988 C402 1023 379 1046 345 1046 C337 1046 320 1024 291 981 C291 981 184 826 184 826 C184 826 199 811 199 811 L199 811 Z M589 22 C589 22 589 22 589 22 C603 76 617 129 633 184 C632 184 613 187 613 187 C613 187 605 157 605 157 C581 67 558 22 404 22 C404 22 334 22 334 22 C254 22 254 41 254 80 C254 80 254 85 254 85 C254 85 254 665 254 665 C254 725 279 730 329 730 C329 730 359 730 359 730 C359 730 359 750 359 750 C359 750 254 750 254 750 C254 750 126 750 126 750 C126 750 21 750 21 750 C21 750 21 730 21 730 C21 730 51 730 51 730 C101 730 126 725 126 665 C126 665 126 85 126 85 C126 25 101 20 51 20 C51 20 21 20 21 20 C21 20 21 0 21 0 C21 0 126 0 126 0 C126 0 254 0 254 0 C254 0 398 0 398 0 C398 0 583 0 583 0 C583 0 589 22 589 22 L589 22 Z " />
<glyph glyph-name="Lcaron" unicode="&#x13d;" horiz-adv-x="664" d="M589 22 C589 22 589 22 589 22 C603 76 617 129 633 184 C632 184 613 187 613 187 C613 187 605 157 605 157 C581 67 558 22 404 22 C404 22 334 22 334 22 C254 22 254 41 254 80 C254 80 254 85 254 85 C254 85 254 665 254 665 C254 725 279 730 329 730 C329 730 359 730 359 730 C359 730 359 750 359 750 C359 750 254 750 254 750 C254 750 126 750 126 750 C126 750 21 750 21 750 C21 750 21 730 21 730 C21 730 51 730 51 730 C101 730 126 725 126 665 C126 665 126 85 126 85 C126 25 101 20 51 20 C51 20 21 20 21 20 C21 20 21 0 21 0 C21 0 126 0 126 0 C126 0 254 0 254 0 C254 0 398 0 398 0 C398 0 583 0 583 0 C583 0 589 22 589 22 L589 22 Z M466 686 C485 726 494 761 494 790 C494 804 477 807 443 807 C416 807 409 749 406 699 C406 699 399 586 399 586 C399 586 419 583 419 583 C419 583 466 686 466 686 L466 686 Z " />
<glyph glyph-name="lcaron" unicode="&#x13e;" horiz-adv-x="332" d="M22 678 C22 678 52 687 52 687 C89 698 107 697 107 623 C107 623 107 35 107 35 C107 21 90 20 57 20 C57 20 27 20 27 20 C27 20 27 0 27 0 C27 0 302 0 302 0 C302 0 302 20 302 20 C302 20 272 20 272 20 C239 20 222 21 222 35 C222 35 222 650 222 650 C222 650 222 750 222 750 C222 750 202 750 202 750 C202 750 22 698 22 698 C22 698 22 678 22 678 L22 678 Z M334 636 C353 676 362 711 362 740 C362 754 345 757 311 757 C284 757 277 699 274 649 C274 649 267 536 267 536 C267 536 287 533 287 533 C287 533 334 636 334 636 L334 636 Z " />
<glyph glyph-name="Nacute" unicode="&#x143;" horiz-adv-x="797" d="M303 811 C303 811 447 929 447 929 C486 962 506 980 506 988 C506 1023 483 1046 449 1046 C441 1046 424 1024 395 981 C395 981 288 826 288 826 C288 826 303 811 303 811 L303 811 Z M-10 730 C-10 730 27 730 27 730 C46 730 57 728 82 695 C82 695 82 695 82 695 C82 695 137 625 137 625 C137 625 135 126 135 126 C130 28 99 20 40 20 C40 20 10 20 10 20 C10 20 10 0 10 0 C10 0 135 0 135 0 C135 0 174 0 174 0 C174 0 299 0 299 0 C299 0 299 20 299 20 C299 20 269 20 269 20 C208 20 176 27 173 127 C173 127 170 581 170 581 C170 581 477 183 477 183 C477 183 617 0 617 0 C617 0 643 0 643 0 C643 0 652 652 652 652 C657 724 688 730 746 730 C746 730 776 730 776 730 C776 730 776 750 776 750 C776 750 653 750 653 750 C653 750 614 750 614 750 C614 750 490 750 490 750 C490 750 490 730 490 730 C490 730 520 730 520 730 C578 730 610 724 614 647 C614 647 616 212 616 212 C616 212 580 259 580 259 C580 259 199 750 199 750 C199 750 169 750 169 750 C169 750 137 750 137 750 C137 750 40 750 40 750 C40 750 -10 750 -10 750 C-10 750 -10 730 -10 730 L-10 730 Z " />
<glyph glyph-name="Ncaron" unicode="&#x147;" horiz-adv-x="797" d="M-10 730 C-10 730 27 730 27 730 C46 730 57 728 82 695 C82 695 82 695 82 695 C82 695 137 625 137 625 C137 625 135 126 135 126 C130 28 99 20 40 20 C40 20 10 20 10 20 C10 20 10 0 10 0 C10 0 135 0 135 0 C135 0 174 0 174 0 C174 0 299 0 299 0 C299 0 299 20 299 20 C299 20 269 20 269 20 C208 20 176 27 173 127 C173 127 170 581 170 581 C170 581 477 183 477 183 C477 183 617 0 617 0 C617 0 643 0 643 0 C643 0 652 652 652 652 C657 724 688 730 746 730 C746 730 776 730 776 730 C776 730 776 750 776 750 C776 750 653 750 653 750 C653 750 614 750 614 750 C614 750 490 750 490 750 C490 750 490 730 490 730 C490 730 520 730 520 730 C578 730 610 724 614 647 C614 647 616 212 616 212 C616 212 580 259 580 259 C580 259 199 750 199 750 C199 750 169 750 169 750 C169 750 137 750 137 750 C137 750 40 750 40 750 C40 750 -10 750 -10 750 C-10 750 -10 730 -10 730 L-10 730 Z M394 928 C394 928 533 1045 533 1045 C533 1045 548 1032 548 1032 C548 1032 435 854 435 854 C426 841 408 813 394 813 C380 813 362 840 354 854 C354 854 240 1032 240 1032 C240 1032 255 1045 255 1045 C255 1045 394 928 394 928 L394 928 Z " />
<glyph glyph-name="ncaron" unicode="&#x148;" horiz-adv-x="639" d="M16 415 C16 415 46 426 46 426 C83 439 101 440 101 366 C101 366 101 35 101 35 C101 21 84 20 51 20 C51 20 21 20 21 20 C21 20 21 0 21 0 C21 0 296 0 296 0 C296 0 296 20 296 20 C296 20 266 20 266 20 C233 20 216 21 216 35 C216 35 216 359 216 359 C242 403 277 426 320 426 C389 426 414 384 414 300 C414 300 414 35 414 35 C414 21 397 20 364 20 C364 20 334 20 334 20 C334 20 334 0 334 0 C334 0 609 0 609 0 C609 0 609 20 609 20 C609 20 579 20 579 20 C546 20 529 21 529 35 C529 35 529 300 529 300 C529 440 491 510 388 510 C319 510 261 471 216 393 C216 393 216 400 216 400 C216 400 216 500 216 500 C216 500 196 500 196 500 C196 500 16 435 16 435 C16 435 16 415 16 415 L16 415 Z M315 679 C315 679 454 795 454 795 C454 795 469 782 469 782 C469 782 356 604 356 604 C347 591 329 563 315 563 C301 563 283 590 275 604 C275 604 161 782 161 782 C161 782 176 795 176 795 C176 795 315 679 315 679 L315 679 Z " />
<glyph glyph-name="Omacron" unicode="&#x14c;" horiz-adv-x="889" d="M282 890 C282 890 582 890 582 890 C582 890 582 970 582 970 C582 970 282 970 282 970 C282 970 282 890 282 890 L282 890 Z M429 24 C268 24 187 142 187 375 C187 608 267 726 426 726 C599 726 687 608 687 375 C687 142 600 24 429 24 L429 24 Z M40 375 C40 119 168 -10 422 -10 C696 -10 834 119 834 375 C834 631 699 760 432 760 C172 760 40 631 40 375 L40 375 Z " />
<glyph glyph-name="omacron" unicode="&#x14d;" horiz-adv-x="609" d="M148 640 C148 640 448 640 448 640 C448 640 448 720 448 720 C448 720 148 720 148 720 C148 720 148 640 148 640 L148 640 Z M298 25 C206 25 159 101 159 250 C159 399 206 475 298 475 C390 475 437 399 437 250 C437 101 390 25 298 25 L298 25 Z M32 250 C32 77 121 -10 298 -10 C475 -10 564 77 564 250 C564 423 475 510 298 510 C121 510 32 423 32 250 L32 250 Z " />
<glyph glyph-name="Obreve" unicode="&#x14e;" horiz-adv-x="889" d="M289 994 C300 901 348 854 432 854 C516 854 564 900 575 992 C575 992 551 995 551 995 C546 955 506 935 432 935 C358 935 318 956 313 998 C313 998 289 994 289 994 L289 994 Z M429 24 C268 24 187 142 187 375 C187 608 267 726 426 726 C599 726 687 608 687 375 C687 142 600 24 429 24 L429 24 Z M40 375 C40 119 168 -10 422 -10 C696 -10 834 119 834 375 C834 631 699 760 432 760 C172 760 40 631 40 375 L40 375 Z " />
<glyph glyph-name="obreve" unicode="&#x14f;" horiz-adv-x="609" d="M155 744 C166 651 214 604 298 604 C382 604 430 650 441 742 C441 742 417 745 417 745 C412 705 372 685 298 685 C224 685 184 706 179 748 C179 748 155 744 155 744 L155 744 Z M298 25 C206 25 159 101 159 250 C159 399 206 475 298 475 C390 475 437 399 437 250 C437 101 390 25 298 25 L298 25 Z M32 250 C32 77 121 -10 298 -10 C475 -10 564 77 564 250 C564 423 475 510 298 510 C121 510 32 423 32 250 L32 250 Z " />
<glyph glyph-name="Racute" unicode="&#x154;" horiz-adv-x="824" d="M327 811 C327 811 471 929 471 929 C510 962 530 980 530 988 C530 1023 507 1046 473 1046 C465 1046 448 1024 419 981 C419 981 312 826 312 826 C312 826 327 811 327 811 L327 811 Z M33 730 C33 730 63 730 63 730 C113 730 138 725 138 665 C138 665 138 85 138 85 C138 25 113 20 63 20 C63 20 33 20 33 20 C33 20 33 0 33 0 C33 0 371 0 371 0 C371 0 371 20 371 20 C371 20 341 20 341 20 C291 20 266 25 266 85 C266 85 266 348 266 348 C266 348 343 348 343 348 C364 312 429 222 537 80 C602 -5 584 0 815 0 C815 0 815 26 815 26 C724 26 732 23 687 80 C580 221 510 314 476 357 C585 377 640 429 640 537 C640 678 542 750 348 750 C348 750 266 750 266 750 C266 750 33 750 33 750 C33 750 33 730 33 730 L33 730 Z M266 724 C266 724 310 724 310 724 C435 724 498 670 498 562 C498 423 448 380 348 380 C348 380 266 380 266 380 C266 380 266 665 266 665 C266 665 266 724 266 724 L266 724 Z " />
<glyph glyph-name="Rcaron" unicode="&#x158;" horiz-adv-x="824" d="M33 730 C33 730 63 730 63 730 C113 730 138 725 138 665 C138 665 138 85 138 85 C138 25 113 20 63 20 C63 20 33 20 33 20 C33 20 33 0 33 0 C33 0 371 0 371 0 C371 0 371 20 371 20 C371 20 341 20 341 20 C291 20 266 25 266 85 C266 85 266 348 266 348 C266 348 343 348 343 348 C364 312 429 222 537 80 C602 -5 584 0 815 0 C815 0 815 26 815 26 C724 26 732 23 687 80 C580 221 510 314 476 357 C585 377 640 429 640 537 C640 678 542 750 348 750 C348 750 266 750 266 750 C266 750 33 750 33 750 C33 750 33 730 33 730 L33 730 Z M318 928 C318 928 457 1045 457 1045 C457 1045 472 1032 472 1032 C472 1032 359 854 359 854 C350 841 332 813 318 813 C303 813 286 840 278 854 C278 854 164 1032 164 1032 C164 1032 179 1045 179 1045 C179 1045 318 928 318 928 L318 928 Z M266 724 C266 724 310 724 310 724 C435 724 498 670 498 562 C498 423 448 380 348 380 C348 380 266 380 266 380 C266 380 266 665 266 665 C266 665 266 724 266 724 L266 724 Z " />
<glyph glyph-name="rcaron" unicode="&#x159;" horiz-adv-x="498" d="M22 415 C22 415 52 426 52 426 C89 439 107 440 107 366 C107 366 107 35 107 35 C107 21 92 20 62 20 C62 20 32 20 32 20 C32 20 32 0 32 0 C32 0 307 0 307 0 C307 0 307 20 307 20 C307 20 277 20 277 20 C241 20 222 21 222 35 C222 35 222 351 222 351 C246 420 277 456 314 456 C340 456 353 444 353 421 C353 377 376 354 421 354 C466 354 489 377 489 421 C489 480 448 510 367 510 C296 510 248 477 222 411 C222 411 222 500 222 500 C222 500 202 500 202 500 C202 500 22 435 22 435 C22 435 22 415 22 415 L22 415 Z M288 678 C288 678 427 795 427 795 C427 795 442 782 442 782 C442 782 329 604 329 604 C320 591 302 563 288 563 C273 563 256 590 247 604 C247 604 134 782 134 782 C134 782 149 795 149 795 C149 795 288 678 288 678 L288 678 Z " />
<glyph glyph-name="Sacute" unicode="&#x15a;" horiz-adv-x="554" d="M282 811 C282 811 427 929 427 929 C466 962 486 980 486 988 C486 1023 463 1046 428 1046 C421 1046 404 1024 374 981 C374 981 268 826 268 826 C268 826 282 811 282 811 L282 811 Z M477 542 C477 542 477 644 477 644 C477 644 477 759 477 759 C477 759 462 759 462 759 C462 759 460 749 457 731 C454 713 437 705 410 723 C410 723 410 723 410 723 C372 748 324 760 264 760 C128 760 59 691 59 553 C59 435 109 358 244 308 C367 263 412 220 412 168 C412 77 369 31 283 31 C253 31 227 36 202 45 C202 45 203 45 203 45 C136 70 85 155 68 227 C65 241 63 248 63 248 C63 248 48 248 48 248 C48 248 48 146 48 146 C48 146 48 1 48 1 C48 1 63 1 63 1 C63 1 65 13 68 37 C70 57 94 63 136 33 C136 33 137 33 137 33 C177 4 226 -10 283 -10 C436 -10 514 62 514 205 C514 316 462 391 321 442 C203 485 159 535 159 602 C159 686 194 728 264 728 C274 728 283 728 292 727 C378 715 439 638 457 563 C460 549 462 542 462 542 C462 542 477 542 477 542 L477 542 Z " />
<glyph glyph-name="Scircumflex" unicode="&#x15c;" horiz-adv-x="554" d="M477 542 C477 542 477 644 477 644 C477 644 477 759 477 759 C477 759 462 759 462 759 C462 759 460 749 457 731 C454 713 437 705 410 723 C410 723 410 723 410 723 C372 748 324 760 264 760 C128 760 59 691 59 553 C59 435 109 358 244 308 C367 263 412 220 412 168 C412 77 369 31 283 31 C253 31 227 36 202 45 C202 45 203 45 203 45 C136 70 85 155 68 227 C65 241 63 248 63 248 C63 248 48 248 48 248 C48 248 48 146 48 146 C48 146 48 1 48 1 C48 1 63 1 63 1 C63 1 65 13 68 37 C70 57 94 63 136 33 C136 33 137 33 137 33 C177 4 226 -10 283 -10 C436 -10 514 62 514 205 C514 316 462 391 321 442 C203 485 159 535 159 602 C159 686 194 728 264 728 C274 728 283 728 292 727 C378 715 439 638 457 563 C460 549 462 542 462 542 C462 542 477 542 477 542 L477 542 Z M274 921 C274 921 412 805 412 805 C412 805 428 818 428 818 C428 818 314 996 314 996 C306 1009 288 1037 273 1037 C259 1037 242 1010 233 996 C233 996 119 818 119 818 C119 818 135 805 135 805 C135 805 274 921 274 921 L274 921 Z " />
<glyph glyph-name="Scaron" unicode="&#x160;" horiz-adv-x="554" d="M477 542 C477 542 477 644 477 644 C477 644 477 759 477 759 C477 759 462 759 462 759 C462 759 460 749 457 731 C454 713 437 705 410 723 C410 723 410 723 410 723 C372 748 324 760 264 760 C128 760 59 691 59 553 C59 435 109 358 244 308 C367 263 412 220 412 168 C412 77 369 31 283 31 C253 31 227 36 202 45 C202 45 203 45 203 45 C136 70 85 155 68 227 C65 241 63 248 63 248 C63 248 48 248 48 248 C48 248 48 146 48 146 C48 146 48 1 48 1 C48 1 63 1 63 1 C63 1 65 13 68 37 C70 57 94 63 136 33 C136 33 137 33 137 33 C177 4 226 -10 283 -10 C436 -10 514 62 514 205 C514 316 462 391 321 442 C203 485 159 535 159 602 C159 686 194 728 264 728 C274 728 283 728 292 727 C378 715 439 638 457 563 C460 549 462 542 462 542 C462 542 477 542 477 542 L477 542 Z M274 929 C274 929 412 1045 412 1045 C412 1045 428 1032 428 1032 C428 1032 314 854 314 854 C306 841 288 813 273 813 C259 813 242 840 233 854 C233 854 119 1032 119 1032 C119 1032 135 1045 135 1045 C135 1045 274 929 274 929 L274 929 Z " />
<glyph glyph-name="scaron" unicode="&#x161;" horiz-adv-x="443" d="M370 347 C370 347 370 427 370 427 C370 427 370 510 370 510 C370 510 350 510 350 510 C350 510 350 481 350 481 C350 479 332 484 299 497 C277 505 252 510 224 510 C119 510 65 464 65 372 C65 285 100 232 195 206 C275 185 305 153 305 105 C305 47 276 17 220 17 C168 17 128 47 100 107 C100 107 97 106 97 106 C92 122 89 139 89 156 C89 156 89 172 89 172 C89 172 69 172 69 172 C69 172 69 93 69 93 C69 93 69 8 69 8 C69 8 89 8 89 8 C89 8 89 29 89 29 C89 25 116 14 169 -3 C169 -3 170 -3 170 -3 C185 -8 202 -10 220 -10 C336 -10 394 40 394 138 C394 215 354 265 245 294 C173 314 146 351 146 412 C146 459 172 483 224 483 C255 483 280 475 300 462 C316 450 330 433 340 412 C340 412 340 412 340 412 C347 397 350 380 350 364 C350 364 350 347 350 347 C350 347 370 347 370 347 L370 347 Z M220 678 C220 678 359 795 359 795 C359 795 374 782 374 782 C374 782 261 604 261 604 C252 591 234 563 220 563 C206 563 188 590 180 604 C180 604 66 782 66 782 C66 782 81 795 81 795 C81 795 220 678 220 678 L220 678 Z " />
<glyph glyph-name="Tcaron" unicode="&#x164;" horiz-adv-x="775" d="M757 615 C745 649 733 684 720 718 C720 718 720 718 720 718 C720 718 720 750 720 750 C720 750 708 750 708 750 C703 763 699 776 694 789 C694 789 691 789 684 790 C684 790 674 790 674 790 C674 790 678 777 678 777 C685 759 681 750 588 750 C588 750 452 750 452 750 C452 750 323 750 323 750 C323 750 187 750 187 750 C94 750 90 759 97 777 C97 777 101 790 101 790 C101 790 91 790 91 790 C84 789 81 789 81 789 C76 776 72 763 67 750 C67 750 55 750 55 750 C55 750 55 718 55 718 C55 718 55 718 55 718 C42 684 30 649 18 615 C22 614 35 613 37 613 C37 613 48 643 48 643 C66 693 82 718 175 718 C175 718 323 718 323 718 C323 718 323 80 323 80 C323 24 298 20 248 20 C248 20 218 20 218 20 C218 20 218 0 218 0 C218 0 557 0 557 0 C557 0 557 20 557 20 C557 20 527 20 527 20 C477 20 452 24 452 80 C452 80 452 718 452 718 C452 718 600 718 600 718 C693 718 709 693 727 643 C727 643 738 613 738 613 C742 614 755 615 757 615 C757 615 757 615 757 615 L757 615 Z M388 929 C388 929 526 1045 526 1045 C526 1045 542 1032 542 1032 C542 1032 428 854 428 854 C420 841 402 813 388 813 C373 813 356 840 347 854 C347 854 233 1032 233 1032 C233 1032 249 1045 249 1045 C249 1045 388 929 388 929 L388 929 Z " />
<glyph glyph-name="tcaron" unicode="&#x165;" horiz-adv-x="411" d="M362 500 C362 500 210 500 210 500 C210 500 210 620 210 620 C210 620 202 620 202 620 C202 620 30 449 30 449 C30 449 30 439 30 439 C30 439 95 439 95 439 C95 439 95 186 95 186 C95 30 146 -10 248 -10 C336 -10 387 34 402 122 C402 122 387 125 387 125 C378 71 344 44 284 44 C232 44 206 68 207 161 C207 161 210 439 210 439 C210 439 362 439 362 439 C362 439 362 500 362 500 L362 500 Z M483 636 C502 676 512 711 512 740 C512 754 495 757 460 757 C434 757 427 699 424 649 C424 649 417 536 417 536 C417 536 437 533 437 533 C437 533 483 636 483 636 L483 636 Z " />
<glyph glyph-name="Utilde" unicode="&#x168;" horiz-adv-x="802" d="M256 870 C256 907 269 925 295 925 C359 925 399 860 463 860 C524 860 555 907 555 1001 C555 1001 534 1001 534 1001 C534 961 519 941 489 941 C425 941 385 1006 321 1006 C265 1006 236 960 236 870 C236 870 256 870 256 870 L256 870 Z M454 730 C454 730 484 730 484 730 C534 730 559 725 559 665 C559 665 559 199 559 199 C520 115 455 73 365 73 C276 73 231 122 231 220 C231 220 231 665 231 665 C231 665 231 750 231 750 C231 750 -2 750 -2 750 C-2 750 -2 730 -2 730 C-2 730 28 730 28 730 C78 730 103 725 103 665 C103 665 103 220 103 220 C103 67 174 -10 313 -10 C430 -10 513 41 559 142 C559 142 559 110 559 110 C559 110 559 0 559 0 C559 0 580 0 580 0 C580 0 792 55 792 55 C792 55 792 65 792 65 C695 60 688 62 688 110 C688 110 688 665 688 665 C688 665 688 750 688 750 C688 750 454 750 454 750 C454 750 454 730 454 730 L454 730 Z " />
<glyph glyph-name="utilde" unicode="&#x169;" horiz-adv-x="618" d="M160 620 C160 657 173 675 199 675 C263 675 302 610 367 610 C427 610 458 657 458 751 C458 751 438 751 438 751 C438 711 423 691 393 691 C329 691 289 756 225 756 C168 756 140 710 140 620 C140 620 160 620 160 620 L160 620 Z M598 55 C598 55 568 47 568 47 C531 38 513 39 513 114 C513 114 513 465 513 465 C513 465 513 500 513 500 C513 500 332 500 332 500 C332 500 332 480 332 480 C332 480 362 480 362 480 C386 480 398 479 398 465 C398 465 398 150 398 150 C374 97 335 70 284 70 C228 70 200 100 200 160 C200 160 200 465 200 465 C200 465 200 500 200 500 C200 500 19 500 19 500 C19 500 19 480 19 480 C19 480 49 480 49 480 C73 480 85 479 85 465 C85 465 85 160 85 160 C85 47 134 -10 230 -10 C307 -10 363 33 398 117 C398 117 398 90 398 90 C398 90 398 -10 398 -10 C398 -10 418 -10 418 -10 C418 -10 598 35 598 35 C598 35 598 55 598 55 L598 55 Z " />
<glyph glyph-name="Umacron" unicode="&#x16a;" horiz-adv-x="802" d="M245 890 C245 890 545 890 545 890 C545 890 545 970 545 970 C545 970 245 970 245 970 C245 970 245 890 245 890 L245 890 Z M454 730 C454 730 484 730 484 730 C534 730 559 725 559 665 C559 665 559 199 559 199 C520 115 455 73 365 73 C276 73 231 122 231 220 C231 220 231 665 231 665 C231 665 231 750 231 750 C231 750 -2 750 -2 750 C-2 750 -2 730 -2 730 C-2 730 28 730 28 730 C78 730 103 725 103 665 C103 665 103 220 103 220 C103 67 174 -10 313 -10 C430 -10 513 41 559 142 C559 142 559 110 559 110 C559 110 559 0 559 0 C559 0 580 0 580 0 C580 0 792 55 792 55 C792 55 792 65 792 65 C695 60 688 62 688 110 C688 110 688 665 688 665 C688 665 688 750 688 750 C688 750 454 750 454 750 C454 750 454 730 454 730 L454 730 Z " />
<glyph glyph-name="umacron" unicode="&#x16b;" horiz-adv-x="618" d="M149 640 C149 640 449 640 449 640 C449 640 449 720 449 720 C449 720 149 720 149 720 C149 720 149 640 149 640 L149 640 Z M598 55 C598 55 568 47 568 47 C531 38 513 39 513 114 C513 114 513 465 513 465 C513 465 513 500 513 500 C513 500 332 500 332 500 C332 500 332 480 332 480 C332 480 362 480 362 480 C386 480 398 479 398 465 C398 465 398 150 398 150 C374 97 335 70 284 70 C228 70 200 100 200 160 C200 160 200 465 200 465 C200 465 200 500 200 500 C200 500 19 500 19 500 C19 500 19 480 19 480 C19 480 49 480 49 480 C73 480 85 479 85 465 C85 465 85 160 85 160 C85 47 134 -10 230 -10 C307 -10 363 33 398 117 C398 117 398 90 398 90 C398 90 398 -10 398 -10 C398 -10 418 -10 418 -10 C418 -10 598 35 598 35 C598 35 598 55 598 55 L598 55 Z " />
<glyph glyph-name="Ubreve" unicode="&#x16c;" horiz-adv-x="802" d="M252 994 C263 901 311 854 395 854 C479 854 528 900 538 992 C538 992 514 995 514 995 C509 955 470 935 395 935 C321 935 281 956 276 998 C276 998 252 994 252 994 L252 994 Z M454 730 C454 730 484 730 484 730 C534 730 559 725 559 665 C559 665 559 199 559 199 C520 115 455 73 365 73 C276 73 231 122 231 220 C231 220 231 665 231 665 C231 665 231 750 231 750 C231 750 -2 750 -2 750 C-2 750 -2 730 -2 730 C-2 730 28 730 28 730 C78 730 103 725 103 665 C103 665 103 220 103 220 C103 67 174 -10 313 -10 C430 -10 513 41 559 142 C559 142 559 110 559 110 C559 110 559 0 559 0 C559 0 580 0 580 0 C580 0 792 55 792 55 C792 55 792 65 792 65 C695 60 688 62 688 110 C688 110 688 665 688 665 C688 665 688 750 688 750 C688 750 454 750 454 750 C454 750 454 730 454 730 L454 730 Z " />
<glyph glyph-name="ubreve" unicode="&#x16d;" horiz-adv-x="618" d="M156 744 C167 651 215 604 299 604 C383 604 431 650 442 742 C442 742 418 745 418 745 C413 705 373 685 299 685 C225 685 185 706 180 748 C180 748 156 744 156 744 L156 744 Z M598 55 C598 55 568 47 568 47 C531 38 513 39 513 114 C513 114 513 465 513 465 C513 465 513 500 513 500 C513 500 332 500 332 500 C332 500 332 480 332 480 C332 480 362 480 362 480 C386 480 398 479 398 465 C398 465 398 150 398 150 C374 97 335 70 284 70 C228 70 200 100 200 160 C200 160 200 465 200 465 C200 465 200 500 200 500 C200 500 19 500 19 500 C19 500 19 480 19 480 C19 480 49 480 49 480 C73 480 85 479 85 465 C85 465 85 160 85 160 C85 47 134 -10 230 -10 C307 -10 363 33 398 117 C398 117 398 90 398 90 C398 90 398 -10 398 -10 C398 -10 418 -10 418 -10 C418 -10 598 35 598 35 C598 35 598 55 598 55 L598 55 Z " />
<glyph glyph-name="Uring" unicode="&#x16e;" horiz-adv-x="802" d="M395 837 C357 837 331 864 331 905 C331 950 353 973 395 973 C438 973 460 950 460 905 C460 864 434 837 395 837 L395 837 Z M297 905 C297 848 337 810 395 810 C454 810 494 848 494 905 C494 968 461 1000 395 1000 C330 1000 297 968 297 905 L297 905 Z M454 730 C454 730 484 730 484 730 C534 730 559 725 559 665 C559 665 559 199 559 199 C520 115 455 73 365 73 C276 73 231 122 231 220 C231 220 231 665 231 665 C231 665 231 750 231 750 C231 750 -2 750 -2 750 C-2 750 -2 730 -2 730 C-2 730 28 730 28 730 C78 730 103 725 103 665 C103 665 103 220 103 220 C103 67 174 -10 313 -10 C430 -10 513 41 559 142 C559 142 559 110 559 110 C559 110 559 0 559 0 C559 0 580 0 580 0 C580 0 792 55 792 55 C792 55 792 65 792 65 C695 60 688 62 688 110 C688 110 688 665 688 665 C688 665 688 750 688 750 C688 750 454 750 454 750 C454 750 454 730 454 730 L454 730 Z " />
<glyph glyph-name="uring" unicode="&#x16f;" horiz-adv-x="618" d="M299 587 C261 587 235 614 235 655 C235 700 257 723 299 723 C342 723 364 700 364 655 C364 614 338 587 299 587 L299 587 Z M201 655 C201 598 240 560 299 560 C358 560 398 598 398 655 C398 718 365 750 299 750 C234 750 201 718 201 655 L201 655 Z M598 55 C598 55 568 47 568 47 C531 38 513 39 513 114 C513 114 513 465 513 465 C513 465 513 500 513 500 C513 500 332 500 332 500 C332 500 332 480 332 480 C332 480 362 480 362 480 C386 480 398 479 398 465 C398 465 398 150 398 150 C374 97 335 70 284 70 C228 70 200 100 200 160 C200 160 200 465 200 465 C200 465 200 500 200 500 C200 500 19 500 19 500 C19 500 19 480 19 480 C19 480 49 480 49 480 C73 480 85 479 85 465 C85 465 85 160 85 160 C85 47 134 -10 230 -10 C307 -10 363 33 398 117 C398 117 398 90 398 90 C398 90 398 -10 398 -10 C398 -10 418 -10 418 -10 C418 -10 598 35 598 35 C598 35 598 55 598 55 L598 55 Z " />
<glyph glyph-name="Wcircumflex" unicode="&#x174;" horiz-adv-x="1142" d="M1127 750 C1127 750 1038 750 1038 750 C1038 750 985 750 985 750 C985 750 820 750 820 750 C820 750 820 730 820 730 C820 730 844 730 844 730 C934 730 977 722 947 610 C947 610 947 610 947 610 C947 610 834 187 834 187 C834 187 635 657 635 657 C611 725 647 730 717 730 C717 730 741 730 741 730 C741 730 741 750 741 750 C741 750 596 750 596 750 C596 750 447 750 447 750 C447 750 361 750 361 750 C361 750 361 730 361 730 C361 730 391 730 391 730 C430 730 453 727 470 698 C499 632 528 566 557 500 C557 500 557 500 557 500 C557 500 444 162 444 162 C444 162 263 610 263 610 C263 610 263 610 263 610 C216 722 251 730 327 730 C327 730 351 730 351 730 C351 730 351 750 351 750 C351 750 206 750 206 750 C206 750 65 750 65 750 C65 750 8 750 8 750 C8 750 8 730 8 730 C8 730 45 730 45 730 C64 730 77 722 124 610 C124 610 124 610 124 610 C211 403 298 196 386 -10 C386 -10 419 -10 419 -10 C419 -10 582 444 582 444 C648 293 715 142 781 -10 C781 -10 815 -10 815 -10 C815 -10 997 610 997 610 C997 610 997 610 997 610 C997 611 998 612 998 613 C998 613 1006 641 1006 641 C1032 724 1057 730 1097 730 C1097 730 1127 730 1127 730 C1127 730 1127 750 1127 750 L1127 750 Z M551 921 C551 921 690 805 690 805 C690 805 705 818 705 818 C705 818 592 996 592 996 C583 1009 566 1037 551 1037 C537 1037 519 1010 511 996 C511 996 397 818 397 818 C397 818 412 805 412 805 C412 805 551 921 551 921 L551 921 Z " />
<glyph glyph-name="Ycircumflex" unicode="&#x176;" horiz-adv-x="798" d="M314 750 C314 750 209 750 209 750 C209 750 57 750 57 750 C57 750 5 750 5 750 C5 750 5 730 5 730 C5 730 42 730 42 730 C59 730 72 724 125 647 C125 647 344 316 344 316 C344 316 344 80 344 80 C344 24 319 20 269 20 C269 20 239 20 239 20 C239 20 239 0 239 0 C239 0 578 0 578 0 C578 0 578 20 578 20 C578 20 548 20 548 20 C498 20 473 24 473 80 C473 80 473 320 473 320 C473 320 644 631 644 631 C696 723 718 730 752 730 C752 730 783 730 783 730 C783 730 783 750 783 750 C783 750 709 750 709 750 C709 750 645 750 645 750 C645 750 540 750 540 750 C540 750 540 730 540 730 C540 730 565 730 565 730 C605 730 627 725 610 676 C610 676 459 361 459 361 C459 361 285 632 285 632 C228 723 246 730 289 730 C289 730 314 730 314 730 C314 730 314 750 314 750 L314 750 Z M409 922 C409 922 548 805 548 805 C548 805 563 818 563 818 C563 818 449 996 449 996 C441 1009 423 1037 409 1037 C394 1037 377 1010 368 996 C368 996 254 818 254 818 C254 818 270 805 270 805 C270 805 409 922 409 922 L409 922 Z " />
<glyph glyph-name="Ydieresis" unicode="&#x178;" horiz-adv-x="798" d="M489 865 C538 865 563 890 563 939 C563 989 538 1014 489 1014 C440 1014 415 989 415 939 C415 890 440 865 489 865 L489 865 Z M328 865 C378 865 403 890 403 939 C403 989 378 1014 328 1014 C279 1014 254 989 254 939 C254 890 279 865 328 865 L328 865 Z M314 750 C314 750 209 750 209 750 C209 750 57 750 57 750 C57 750 5 750 5 750 C5 750 5 730 5 730 C5 730 42 730 42 730 C59 730 72 724 125 647 C125 647 344 316 344 316 C344 316 344 80 344 80 C344 24 319 20 269 20 C269 20 239 20 239 20 C239 20 239 0 239 0 C239 0 578 0 578 0 C578 0 578 20 578 20 C578 20 548 20 548 20 C498 20 473 24 473 80 C473 80 473 320 473 320 C473 320 644 631 644 631 C696 723 718 730 752 730 C752 730 783 730 783 730 C783 730 783 750 783 750 C783 750 709 750 709 750 C709 750 645 750 645 750 C645 750 540 750 540 750 C540 750 540 730 540 730 C540 730 565 730 565 730 C605 730 627 725 610 676 C610 676 459 361 459 361 C459 361 285 632 285 632 C228 723 246 730 289 730 C289 730 314 730 314 730 C314 730 314 750 314 750 L314 750 Z " />
<glyph glyph-name="Zacute" unicode="&#x179;" horiz-adv-x="652" d="M349 811 C349 811 493 929 493 929 C532 962 552 980 552 988 C552 1023 529 1046 495 1046 C487 1046 470 1024 441 981 C441 981 334 826 334 826 C334 826 349 811 349 811 L349 811 Z M164 0 C164 0 446 0 446 0 C446 0 606 0 606 0 C622 62 637 126 653 189 C651 189 641 190 634 192 C634 192 617 148 617 148 C592 81 571 45 486 38 C486 38 183 31 183 31 C183 31 610 723 610 723 C610 723 610 750 610 750 C610 750 484 750 484 750 C484 750 240 750 240 750 C240 750 70 750 70 750 C60 684 50 615 42 549 C45 549 57 546 67 546 C67 546 74 576 74 576 C91 660 108 707 202 715 C202 715 465 720 465 720 C465 720 25 27 25 27 C25 27 25 0 25 0 C25 0 164 0 164 0 L164 0 Z " />
<glyph glyph-name="Zdotaccent" unicode="&#x17b;" horiz-adv-x="652" d="M340 865 C389 865 414 890 414 939 C414 989 389 1014 340 1014 C291 1014 266 989 266 939 C266 890 291 865 340 865 L340 865 Z M164 0 C164 0 446 0 446 0 C446 0 606 0 606 0 C622 62 637 126 653 189 C651 189 641 190 634 192 C634 192 617 148 617 148 C592 81 571 45 486 38 C486 38 183 31 183 31 C183 31 610 723 610 723 C610 723 610 750 610 750 C610 750 484 750 484 750 C484 750 240 750 240 750 C240 750 70 750 70 750 C60 684 50 615 42 549 C45 549 57 546 67 546 C67 546 74 576 74 576 C91 660 108 707 202 715 C202 715 465 720 465 720 C465 720 25 27 25 27 C25 27 25 0 25 0 C25 0 164 0 164 0 L164 0 Z " />
<glyph glyph-name="zdotaccent" unicode="&#x17c;" horiz-adv-x="475" d="M265 615 C314 615 339 640 339 689 C339 739 314 764 265 764 C216 764 191 739 191 689 C191 640 216 615 265 615 L265 615 Z M54 365 C54 365 66 365 66 365 C66 365 82 395 82 395 C102 432 119 455 177 462 C177 462 299 467 299 467 C299 467 40 27 40 27 C40 27 40 0 40 0 C40 0 161 0 161 0 C161 0 318 0 318 0 C318 0 430 0 430 0 C436 46 443 90 449 135 C449 135 439 135 439 135 C439 135 425 105 425 105 C407 66 390 44 321 37 C321 37 180 32 180 32 C180 32 435 473 435 473 C435 473 435 500 435 500 C435 500 318 500 318 500 C318 500 135 500 135 500 C123 500 112 508 116 523 C116 523 121 540 121 540 C121 540 101 540 101 540 C85 481 70 424 54 365 L54 365 Z " />
<glyph glyph-name="Zcaron" unicode="&#x17d;" horiz-adv-x="652" d="M340 928 C340 928 479 1045 479 1045 C479 1045 494 1032 494 1032 C494 1032 381 854 381 854 C372 841 354 813 340 813 C326 813 308 840 300 854 C300 854 186 1032 186 1032 C186 1032 201 1045 201 1045 C201 1045 340 928 340 928 L340 928 Z M164 0 C164 0 446 0 446 0 C446 0 606 0 606 0 C622 62 637 126 653 189 C651 189 641 190 634 192 C634 192 617 148 617 148 C592 81 571 45 486 38 C486 38 183 31 183 31 C183 31 610 723 610 723 C610 723 610 750 610 750 C610 750 484 750 484 750 C484 750 240 750 240 750 C240 750 70 750 70 750 C60 684 50 615 42 549 C45 549 57 546 67 546 C67 546 74 576 74 576 C91 660 108 707 202 715 C202 715 465 720 465 720 C465 720 25 27 25 27 C25 27 25 0 25 0 C25 0 164 0 164 0 L164 0 Z " />
<glyph glyph-name="zcaron" unicode="&#x17e;" horiz-adv-x="475" d="M54 365 C54 365 66 365 66 365 C66 365 82 395 82 395 C102 432 119 455 177 462 C177 462 299 467 299 467 C299 467 40 27 40 27 C40 27 40 0 40 0 C40 0 161 0 161 0 C161 0 318 0 318 0 C318 0 430 0 430 0 C436 46 443 90 449 135 C449 135 439 135 439 135 C439 135 425 105 425 105 C407 66 390 44 321 37 C321 37 180 32 180 32 C180 32 435 473 435 473 C435 473 435 500 435 500 C435 500 318 500 318 500 C318 500 135 500 135 500 C123 500 112 508 116 523 C116 523 121 540 121 540 C121 540 101 540 101 540 C85 481 70 424 54 365 L54 365 Z M265 678 C265 678 404 795 404 795 C404 795 419 782 419 782 C419 782 306 604 306 604 C297 591 279 563 265 563 C251 563 233 590 225 604 C225 604 111 782 111 782 C111 782 126 795 126 795 C126 795 265 678 265 678 L265 678 Z " />
<glyph glyph-name="SmallLetterOwithogon" unicode="&#x1eb;" horiz-adv-x="794" d="M1019 -41 C1019 -41 1011 -31 1011 -31 C972 -64 881 -81 742 -81 C639 -81 532 -57 420 -9 C636 2 744 103 744 292 C744 492 625 593 389 593 C160 593 44 492 44 292 C44 174 122 90 208 41 C460 -105 634 -178 724 -178 C812 -178 911 -132 1019 -41 L1019 -41 Z M385 21 C368 21 346 27 324 38 C321 39 319 41 316 42 C316 42 316 42 316 42 C249 78 176 162 176 292 C176 472 246 563 384 563 C535 563 612 472 612 292 C612 112 536 21 385 21 L385 21 Z " />
<glyph glyph-name="CapitalLetterAwithdo" unicode="&#x226;" horiz-adv-x="824" d="M430 865 C479 865 504 890 504 939 C504 989 479 1014 430 1014 C380 1014 355 989 355 939 C355 890 380 865 430 865 L430 865 Z M459 0 C459 0 594 0 594 0 C594 0 729 0 729 0 C729 0 818 0 818 0 C818 0 818 20 818 20 C818 20 788 20 788 20 C744 20 719 28 683 140 C683 140 683 140 683 140 C683 140 494 709 494 709 C494 709 474 770 474 770 C474 770 460 770 460 770 C436 735 404 715 365 709 C365 709 369 698 369 698 C369 698 181 134 181 134 C141 28 103 20 39 20 C39 20 9 20 9 20 C9 20 9 0 9 0 C9 0 137 0 137 0 C137 0 176 0 176 0 C176 0 341 0 341 0 C341 0 341 20 341 20 C341 20 317 20 317 20 C230 20 187 29 225 157 C225 157 261 273 261 273 C261 273 506 273 506 273 C506 273 553 126 553 126 C582 27 550 20 484 20 C484 20 459 20 459 20 C459 20 459 0 459 0 L459 0 Z M271 306 C271 306 381 658 381 658 C381 658 495 306 495 306 C495 306 271 306 271 306 L271 306 Z " />
<glyph glyph-name="LETTERSMALLCAPITALG" unicode="&#x262;" horiz-adv-x="755" d="M636 379 C636 379 636 494 636 494 C636 494 636 583 636 583 C636 583 621 583 621 583 C621 583 619 573 616 555 C615 548 590 552 543 572 C543 572 542 572 542 572 C508 586 461 593 387 593 C160 593 45 492 45 292 C45 91 161 -10 391 -10 C432 -10 468 -8 500 -3 C500 -3 500 -3 500 -3 C500 -3 500 -3 500 -3 C537 2 569 11 601 22 C601 22 613 25 613 25 C613 25 613 26 613 26 C637 36 662 46 689 59 C689 59 682 76 682 76 C658 65 636 55 613 47 C613 47 613 173 613 173 C613 229 632 233 668 233 C668 233 698 233 698 233 C698 233 698 253 698 253 C698 253 397 253 397 253 C397 253 397 233 397 233 C397 233 427 233 427 233 C474 233 497 229 497 173 C497 173 498 119 498 119 C496 52 464 18 402 18 C249 18 172 110 172 292 C172 473 248 564 398 564 C422 564 442 562 460 559 C543 543 600 469 616 400 C619 386 621 379 621 379 C621 379 636 379 636 379 L636 379 Z " />
<glyph glyph-name="LETTERSMALLCAPITALI" unicode="&#x26a;" horiz-adv-x="392" d="M353 583 C353 583 27 583 27 583 C27 583 27 563 27 563 C27 563 57 563 57 563 C107 563 132 559 132 503 C132 503 132 80 132 80 C132 24 107 20 57 20 C57 20 27 20 27 20 C27 20 27 0 27 0 C27 0 353 0 353 0 C353 0 353 20 353 20 C353 20 323 20 323 20 C273 20 248 24 248 80 C248 80 248 503 248 503 C248 559 273 563 323 563 C323 563 353 563 353 563 C353 563 353 583 353 583 L353 583 Z " />
<glyph glyph-name="LETTERSMALLCAPITALN" unicode="&#x274;" horiz-adv-x="717" d="M2 563 C2 563 39 563 39 563 C58 563 69 561 96 528 C96 528 96 528 96 528 C96 528 138 479 138 479 C138 479 136 128 136 128 C132 28 100 20 41 20 C41 20 11 20 11 20 C11 20 11 0 11 0 C11 0 136 0 136 0 C136 0 171 0 171 0 C171 0 296 0 296 0 C296 0 296 20 296 20 C296 20 266 20 266 20 C204 20 172 27 170 129 C170 129 168 443 168 443 C168 443 433 128 433 128 C433 128 540 0 540 0 C540 0 563 0 563 0 C563 0 570 480 570 480 C574 557 606 563 665 563 C665 563 695 563 695 563 C695 563 695 583 695 583 C695 583 572 583 572 583 C572 583 537 583 537 583 C537 583 413 583 413 583 C413 583 413 563 413 563 C413 563 443 563 443 563 C502 563 533 557 538 478 C538 478 539 137 539 137 C539 137 503 184 503 184 C503 184 194 583 194 583 C194 583 167 583 167 583 C167 583 138 583 138 583 C138 583 50 583 50 583 C50 583 2 583 2 583 C2 583 2 563 2 563 L2 563 Z " />
<glyph glyph-name="LETTERSMALLCAPITALR" unicode="&#x280;" horiz-adv-x="685" d="M36 563 C36 563 66 563 66 563 C116 563 141 558 141 498 C141 498 141 85 141 85 C141 25 116 20 66 20 C66 20 36 20 36 20 C36 20 36 0 36 0 C36 0 362 0 362 0 C362 0 362 20 362 20 C362 20 332 20 332 20 C282 20 257 25 257 85 C257 85 257 267 257 267 C257 267 286 267 286 267 C305 238 357 169 443 62 C496 -4 482 0 676 0 C676 0 676 23 676 23 C606 23 612 21 579 62 C494 168 437 239 408 275 C504 290 553 332 553 417 C553 527 465 583 291 583 C291 583 257 583 257 583 C257 583 36 583 36 583 C36 583 36 563 36 563 L36 563 Z M257 560 C369 560 426 519 426 439 C426 330 381 296 291 296 C291 296 257 296 257 296 C257 296 257 498 257 498 C257 498 257 560 257 560 L257 560 Z " />
<glyph glyph-name="LETTERSMALLCAPITALY" unicode="&#x28f;" horiz-adv-x="707" d="M302 583 C302 583 197 583 197 583 C197 583 61 583 61 583 C61 583 10 583 10 583 C10 583 10 563 10 563 C10 563 47 563 47 563 C66 563 81 555 161 443 C161 443 161 443 161 443 C161 443 305 243 305 243 C305 243 305 80 305 80 C305 24 280 20 230 20 C230 20 200 20 200 20 C200 20 200 0 200 0 C200 0 525 0 525 0 C525 0 525 20 525 20 C525 20 495 20 495 20 C445 20 420 24 420 80 C420 80 420 246 420 246 C420 246 536 443 536 443 C536 443 536 443 536 443 C601 555 624 563 660 563 C660 563 691 563 691 563 C691 563 691 583 691 583 C691 583 618 583 618 583 C618 583 560 583 560 583 C560 583 455 583 455 583 C455 583 455 563 455 563 C455 563 480 563 480 563 C519 563 541 558 524 512 C524 512 407 282 407 282 C407 282 295 443 295 443 C295 443 295 443 295 443 C215 555 232 563 278 563 C278 563 302 563 302 563 C302 563 302 583 302 583 L302 583 Z " />
<glyph glyph-name="LETTERSMALLCAPITALB" unicode="&#x299;" horiz-adv-x="618" d="M36 0 C36 0 257 0 257 0 C257 0 377 0 377 0 C511 0 579 16 579 155 C579 239 540 289 461 305 C518 327 547 374 547 444 C547 536 523 583 316 583 C316 583 257 583 257 583 C257 583 36 583 36 583 C36 583 36 563 36 563 C36 563 66 563 66 563 C116 563 141 558 141 498 C141 498 141 85 141 85 C141 25 116 20 66 20 C66 20 36 20 36 20 C36 20 36 0 36 0 L36 0 Z M257 560 C257 560 270 560 270 560 C415 560 432 517 432 432 C432 351 405 310 351 310 C351 310 257 310 257 310 C257 310 257 498 257 498 C257 498 257 560 257 560 L257 560 Z M348 289 C417 282 452 237 452 155 C452 37 417 23 348 23 C348 23 298 23 298 23 C271 23 257 42 257 80 C257 80 257 85 257 85 C257 85 257 289 257 289 C257 289 348 289 348 289 L348 289 Z " />
<glyph glyph-name="LETTERSMALLCAPITALH" unicode="&#x29c;" horiz-adv-x="806" d="M766 583 C766 583 441 583 441 583 C441 583 441 563 441 563 C441 563 471 563 471 563 C521 563 546 559 546 503 C546 503 546 314 546 314 C546 314 293 314 293 314 C293 314 293 503 293 503 C293 559 318 563 368 563 C368 563 398 563 398 563 C398 563 398 583 398 583 C398 583 72 583 72 583 C72 583 72 563 72 563 C72 563 102 563 102 563 C152 563 177 559 177 503 C177 503 177 80 177 80 C177 24 152 20 102 20 C102 20 72 20 72 20 C72 20 72 0 72 0 C72 0 398 0 398 0 C398 0 398 20 398 20 C398 20 368 20 368 20 C318 20 293 24 293 80 C293 80 293 282 293 282 C293 282 546 282 546 282 C546 282 546 80 546 80 C546 24 521 20 471 20 C471 20 441 20 441 20 C441 20 441 0 441 0 C441 0 766 0 766 0 C766 0 766 20 766 20 C766 20 736 20 736 20 C686 20 661 24 661 80 C661 80 661 503 661 503 C661 559 686 563 736 563 C736 563 766 563 766 563 C766 563 766 583 766 583 L766 583 Z " />
<glyph glyph-name="LETTERSMALLCAPITALL" unicode="&#x29f;" horiz-adv-x="582" d="M508 19 C514 43 521 66 527 91 C527 91 551 181 551 181 C547 182 534 184 532 185 C532 185 524 155 524 155 C500 66 477 21 326 20 C248 20 248 40 248 80 C248 80 248 85 248 85 C248 85 248 498 248 498 C248 558 273 563 323 563 C323 563 353 563 353 563 C353 563 353 583 353 583 C353 583 248 583 248 583 C248 583 132 583 132 583 C132 583 27 583 27 583 C27 583 27 563 27 563 C27 563 57 563 57 563 C107 563 132 558 132 498 C132 498 132 85 132 85 C132 25 107 20 57 20 C57 20 27 20 27 20 C27 20 27 0 27 0 C27 0 132 0 132 0 C132 0 248 0 248 0 C248 0 318 0 318 0 C318 0 503 0 503 0 C503 0 508 19 508 19 L508 19 Z " />
<glyph glyph-name="LETTERSMALLCAPITALA" unicode="&#x1d00;" horiz-adv-x="741" d="M390 0 C390 0 525 0 525 0 C525 0 647 0 647 0 C647 0 734 0 734 0 C734 0 734 20 734 20 C734 20 704 20 704 20 C665 20 641 26 608 108 C608 108 446 555 446 555 C446 555 429 603 429 603 C429 603 417 603 417 603 C398 577 369 560 331 555 C331 555 334 545 334 545 C334 545 334 545 334 545 C334 545 199 170 199 170 C199 170 199 170 199 170 C198 168 197 165 197 163 C197 163 190 143 190 143 C146 29 107 20 41 20 C41 20 11 20 11 20 C11 20 11 0 11 0 C11 0 138 0 138 0 C138 0 173 0 173 0 C173 0 338 0 338 0 C338 0 338 20 338 20 C338 20 315 20 315 20 C225 20 183 30 231 170 C231 170 230 170 230 170 C230 170 244 209 244 209 C244 209 452 209 452 209 C452 209 476 140 476 140 C476 140 476 140 476 140 C515 28 483 20 414 20 C414 20 390 20 390 20 C390 20 390 0 390 0 L390 0 Z M254 239 C254 239 346 512 346 512 C346 512 441 239 441 239 C441 239 254 239 254 239 L254 239 Z " />
<glyph glyph-name="LETTERSMALLCAPITALC" unicode="&#x1d04;" horiz-adv-x="677" d="M636 379 C636 379 636 494 636 494 C636 494 636 583 636 583 C636 583 621 583 621 583 C621 583 619 573 616 555 C615 548 590 552 543 572 C543 572 542 572 542 572 C508 586 461 593 387 593 C160 593 45 492 45 292 C45 91 157 -10 378 -10 C456 -10 507 -1 546 16 C587 29 611 19 616 0 C621 -19 624 -29 624 -29 C624 -29 636 -29 636 -29 C636 -29 636 90 636 90 C636 90 636 204 636 204 C636 204 621 204 621 204 C621 204 619 197 616 183 C602 125 556 58 490 32 C463 22 430 17 389 17 C245 17 172 109 172 292 C172 473 248 564 398 564 C422 564 442 562 460 559 C543 543 600 469 616 400 C619 386 621 379 621 379 C621 379 636 379 636 379 L636 379 Z " />
<glyph glyph-name="LETTERSMALLCAPITALD" unicode="&#x1d05;" horiz-adv-x="793" d="M36 0 C36 0 141 0 141 0 C141 0 257 0 257 0 C257 0 313 0 313 0 C596 0 739 79 739 292 C739 485 632 583 341 583 C341 583 257 583 257 583 C257 583 141 583 141 583 C141 583 36 583 36 583 C36 583 36 563 36 563 C36 563 66 563 66 563 C116 563 141 558 141 498 C141 498 141 85 141 85 C141 25 116 20 66 20 C66 20 36 20 36 20 C36 20 36 0 36 0 L36 0 Z M257 560 C515 558 611 468 611 292 C611 95 499 23 278 23 C257 23 257 42 257 80 C257 80 257 85 257 85 C257 85 257 498 257 498 C257 498 257 560 257 560 L257 560 Z " />
<glyph glyph-name="LETTERSMALLCAPITALE" unicode="&#x1d07;" horiz-adv-x="604" d="M517 434 C515 483 511 534 507 583 C507 583 387 583 387 583 C387 583 257 583 257 583 C257 583 141 583 141 583 C141 583 36 583 36 583 C36 583 36 563 36 563 C36 563 66 563 66 563 C116 563 141 558 141 498 C141 498 141 85 141 85 C141 25 116 20 66 20 C66 20 36 20 36 20 C36 20 36 0 36 0 C36 0 141 0 141 0 C141 0 257 0 257 0 C257 0 412 0 412 0 C412 0 532 0 532 0 C538 50 545 101 553 150 C553 150 533 150 533 150 C533 150 529 120 529 120 C520 57 509 25 415 25 C415 25 337 25 337 25 C257 25 257 43 257 80 C257 80 257 85 257 85 C257 85 257 299 257 299 C257 299 327 299 327 299 C420 299 427 262 427 189 C427 189 427 159 427 159 C427 159 447 159 447 159 C447 159 447 299 447 299 C447 299 447 327 447 327 C447 327 447 467 447 467 C447 467 427 467 427 467 C427 467 427 437 427 437 C427 364 420 327 327 327 C327 327 257 327 257 327 C257 327 257 498 257 498 C257 498 257 559 257 559 C257 559 388 559 388 559 C500 559 491 523 496 452 C496 452 497 434 497 434 C497 434 517 434 517 434 L517 434 Z " />
<glyph glyph-name="LETTERSMALLCAPITALJ" unicode="&#x1d0a;" horiz-adv-x="392" d="M353 583 C353 583 27 583 27 583 C27 583 27 563 27 563 C27 563 57 563 57 563 C107 563 132 559 132 503 C132 503 132 -87 132 -87 C132 -173 88 -179 49 -179 C-15 -179 22 -82 -42 -82 C-79 -82 -97 -100 -97 -137 C-97 -192 -58 -220 21 -220 C126 -220 248 -195 248 131 C248 131 248 503 248 503 C248 559 273 563 323 563 C323 563 353 563 353 563 C353 563 353 583 353 583 L353 583 Z " />
<glyph glyph-name="LETTERSMALLCAPITALK" unicode="&#x1d0b;" horiz-adv-x="716" d="M701 20 C701 20 663 20 663 20 C633 20 597 47 568 81 C568 81 344 366 344 366 C344 366 435 473 435 473 C435 473 436 473 436 473 C438 475 440 478 441 480 C441 480 464 507 464 507 C512 559 538 563 577 563 C577 563 607 563 607 563 C607 563 607 583 607 583 C607 583 529 583 529 583 C529 583 486 583 486 583 C486 583 362 583 362 583 C362 583 346 583 346 583 C346 583 257 583 257 583 C257 583 141 583 141 583 C141 583 36 583 36 583 C36 583 36 563 36 563 C36 563 66 563 66 563 C116 563 141 560 141 523 C141 523 141 60 141 60 C141 23 116 20 66 20 C66 20 36 20 36 20 C36 20 36 0 36 0 C36 0 141 0 141 0 C141 0 257 0 257 0 C257 0 362 0 362 0 C362 0 362 20 362 20 C362 20 332 20 332 20 C282 20 257 23 257 60 C257 60 257 292 257 292 C257 292 424 85 424 85 C424 85 423 85 423 85 C447 56 462 37 473 24 C473 24 492 0 492 0 C492 0 492 0 492 0 C492 0 492 0 492 0 C492 0 492 0 492 0 C492 0 632 0 632 0 C632 0 701 0 701 0 C701 0 701 20 701 20 L701 20 Z M346 563 C346 563 362 563 362 563 C362 563 369 563 369 563 C434 563 462 556 386 456 C386 456 257 292 257 292 C257 292 257 523 257 523 C257 560 282 563 332 563 C332 563 346 563 346 563 L346 563 Z " />
<glyph glyph-name="LETTERSMALLCAPITALM" unicode="&#x1d0d;" horiz-adv-x="839" d="M34 563 C34 563 64 563 64 563 C103 563 128 560 151 530 C151 530 136 141 136 141 C129 29 97 20 36 20 C36 20 6 20 6 20 C6 20 6 0 6 0 C6 0 130 0 130 0 C130 0 170 0 170 0 C170 0 295 0 295 0 C295 0 295 20 295 20 C295 20 266 20 266 20 C205 20 172 27 173 122 C173 122 173 133 173 133 C173 136 173 138 173 140 C173 140 173 140 173 140 C173 140 180 475 180 475 C253 316 325 158 399 0 C399 0 428 0 428 0 C428 0 612 484 612 484 C612 484 625 85 625 85 C625 85 625 85 625 85 C627 25 601 20 550 20 C550 20 520 20 520 20 C520 20 520 0 520 0 C520 0 628 0 628 0 C628 0 743 0 743 0 C743 0 845 0 845 0 C845 0 845 20 845 20 C845 20 815 20 815 20 C766 20 742 25 740 85 C740 85 740 85 740 85 C740 85 726 413 726 413 C726 413 726 413 726 413 C721 553 746 563 795 563 C795 563 824 563 824 563 C824 563 824 583 824 583 C824 583 719 583 719 583 C719 583 650 583 650 583 C650 583 609 583 609 583 C609 583 456 158 456 158 C456 158 269 583 269 583 C269 583 182 583 182 583 C182 583 153 583 153 583 C153 583 130 583 130 583 C130 583 34 583 34 583 C34 583 34 563 34 563 L34 563 Z " />
<glyph glyph-name="LETTERSMALLCAPITALO" unicode="&#x1d0f;" horiz-adv-x="799" d="M385 21 C246 21 176 112 176 292 C176 472 246 563 384 563 C535 563 612 472 612 292 C612 112 536 21 385 21 L385 21 Z M44 292 C44 91 156 -10 379 -10 C622 -10 744 91 744 292 C744 492 625 593 389 593 C160 593 44 492 44 292 L44 292 Z " />
<glyph glyph-name="LETTERSMALLCAPITALP" unicode="&#x1d18;" horiz-adv-x="553" d="M65 563 C65 563 95 563 95 563 C145 563 170 558 170 498 C170 498 170 85 170 85 C170 25 145 20 95 20 C95 20 65 20 65 20 C65 20 65 0 65 0 C65 0 170 0 170 0 C170 0 286 0 286 0 C286 0 391 0 391 0 C391 0 391 20 391 20 C391 20 361 20 361 20 C311 20 286 25 286 85 C286 85 286 259 286 259 C286 259 321 259 321 259 C462 259 533 296 533 418 C533 527 473 583 356 583 C356 583 286 583 286 583 C286 583 170 583 170 583 C170 583 65 583 65 583 C65 583 65 563 65 563 L65 563 Z M286 284 C286 284 286 498 286 498 C286 498 286 564 286 564 C286 564 326 564 326 564 C392 564 425 521 425 437 C425 320 390 284 321 284 C321 284 286 284 286 284 L286 284 Z " />
<glyph glyph-name="LETTERSMALLCAPITALT" unicode="&#x1d1b;" horiz-adv-x="715" d="M697 452 C685 485 672 520 660 554 C660 554 660 554 660 554 C660 554 660 583 660 583 C660 583 649 583 649 583 C644 596 640 610 635 623 C635 623 615 623 615 623 C615 623 620 610 620 610 C626 592 623 583 529 583 C529 583 415 583 415 583 C415 583 300 583 300 583 C300 583 186 583 186 583 C92 583 89 592 95 610 C95 610 100 623 100 623 C100 623 80 623 80 623 C75 610 71 596 66 583 C66 583 55 583 55 583 C55 583 55 554 55 554 C55 554 55 554 55 554 C43 520 30 485 18 452 C20 452 29 449 37 449 C37 449 48 479 48 479 C66 529 82 554 175 554 C175 554 300 554 300 554 C300 554 300 80 300 80 C300 24 275 20 225 20 C225 20 195 20 195 20 C195 20 195 0 195 0 C195 0 520 0 520 0 C520 0 520 20 520 20 C520 20 490 20 490 20 C440 20 415 24 415 80 C415 80 415 554 415 554 C415 554 540 554 540 554 C633 554 649 529 667 479 C667 479 678 449 678 449 C680 449 690 450 697 452 C697 452 697 452 697 452 L697 452 Z " />
<glyph glyph-name="LETTERSMALLCAPITALU" unicode="&#x1d1c;" horiz-adv-x="708" d="M373 563 C373 563 403 563 403 563 C453 563 478 558 478 498 C478 498 478 177 478 177 C443 103 387 65 313 65 C253 65 222 111 222 202 C222 202 222 498 222 498 C222 498 222 583 222 583 C222 583 1 583 1 583 C1 583 1 563 1 563 C1 563 31 563 31 563 C81 563 106 558 106 498 C106 498 106 202 106 202 C106 61 160 -10 267 -10 C365 -10 436 35 478 125 C478 125 478 110 478 110 C478 110 478 0 478 0 C478 0 496 0 496 0 C496 0 698 55 698 55 C698 55 698 65 698 65 C601 60 594 62 594 110 C594 110 594 498 594 498 C594 498 594 583 594 583 C594 583 373 583 373 583 C373 583 373 563 373 563 L373 563 Z " />
<glyph glyph-name="LETTERSMALLCAPITALV" unicode="&#x1d20;" horiz-adv-x="749" d="M365 583 C365 583 200 583 200 583 C200 583 67 583 67 583 C67 583 11 583 11 583 C11 583 11 563 11 563 C11 563 49 563 49 563 C67 563 77 560 96 523 C96 523 96 523 96 523 C96 523 266 175 266 175 C266 175 356 -10 356 -10 C356 -10 379 -10 379 -10 C379 -10 581 443 581 443 C581 443 582 443 582 443 C628 555 654 563 701 563 C701 563 731 563 731 563 C731 563 731 583 731 583 C731 583 644 583 644 583 C644 583 598 583 598 583 C598 583 433 583 433 583 C433 583 433 563 433 563 C433 563 456 563 456 563 C542 563 584 556 545 454 C545 454 432 176 432 176 C432 176 276 449 276 449 C226 555 264 563 342 563 C342 563 365 563 365 563 C365 563 365 583 365 583 L365 583 Z " />
<glyph glyph-name="LETTERSMALLCAPITALW" unicode="&#x1d21;" horiz-adv-x="1008" d="M992 583 C992 583 903 583 903 583 C903 583 856 583 856 583 C856 583 691 583 691 583 C691 583 691 563 691 563 C691 563 715 563 715 563 C805 563 847 555 814 443 C814 443 814 443 814 443 C814 443 732 167 732 167 C732 167 732 168 732 168 C732 168 580 473 580 473 C580 473 580 473 580 473 C540 557 574 563 647 563 C647 563 670 563 670 563 C670 563 670 583 670 583 C670 583 525 583 525 583 C525 583 391 583 391 583 C391 583 340 583 340 583 C340 583 306 583 306 583 C306 583 195 583 195 583 C195 583 68 583 68 583 C68 583 13 583 13 583 C13 583 13 563 13 563 C13 563 50 563 50 563 C66 563 78 557 115 482 C192 318 269 154 346 -10 C346 -10 376 -10 376 -10 C376 -10 508 341 508 341 C565 224 622 107 679 -10 C679 -10 709 -10 709 -10 C709 -10 870 481 870 481 C898 557 922 563 962 563 C962 563 992 563 992 563 C992 563 992 583 992 583 L992 583 Z M317 563 C317 563 336 563 336 563 C375 563 397 561 415 533 C439 485 462 436 486 388 C486 388 401 146 401 146 C401 146 261 443 261 443 C261 443 261 443 261 443 C209 555 243 563 317 563 L317 563 Z " />
<glyph glyph-name="LETTERSMALLCAPITALZ" unicode="&#x1d22;" horiz-adv-x="592" d="M151 0 C151 0 386 0 386 0 C386 0 546 0 546 0 C562 62 576 123 592 185 C590 185 580 186 573 188 C573 188 556 144 556 144 C531 77 509 40 422 34 C422 34 171 28 171 28 C171 28 550 559 550 559 C550 559 550 583 550 583 C550 583 437 583 437 583 C437 583 240 583 240 583 C240 583 70 583 70 583 C60 517 52 452 42 386 C45 386 58 383 68 383 C68 383 74 413 74 413 C91 497 108 544 204 552 C204 552 417 556 417 556 C417 556 25 24 25 24 C25 24 25 0 25 0 C25 0 151 0 151 0 L151 0 Z " />
<glyph glyph-name="Wgrave" unicode="&#x1e80;" horiz-adv-x="1142" d="M1127 750 C1127 750 1038 750 1038 750 C1038 750 985 750 985 750 C985 750 820 750 820 750 C820 750 820 730 820 730 C820 730 844 730 844 730 C934 730 977 722 947 610 C947 610 947 610 947 610 C947 610 834 187 834 187 C834 187 635 657 635 657 C611 725 647 730 717 730 C717 730 741 730 741 730 C741 730 741 750 741 750 C741 750 596 750 596 750 C596 750 447 750 447 750 C447 750 361 750 361 750 C361 750 361 730 361 730 C361 730 391 730 391 730 C430 730 453 727 470 698 C499 632 528 566 557 500 C557 500 557 500 557 500 C557 500 444 162 444 162 C444 162 263 610 263 610 C263 610 263 610 263 610 C216 722 251 730 327 730 C327 730 351 730 351 730 C351 730 351 750 351 750 C351 750 206 750 206 750 C206 750 65 750 65 750 C65 750 8 750 8 750 C8 750 8 730 8 730 C8 730 45 730 45 730 C64 730 77 722 124 610 C124 610 124 610 124 610 C211 403 298 196 386 -10 C386 -10 419 -10 419 -10 C419 -10 582 444 582 444 C648 293 715 142 781 -10 C781 -10 815 -10 815 -10 C815 -10 997 610 997 610 C997 610 997 610 997 610 C997 611 998 612 998 613 C998 613 1006 641 1006 641 C1032 724 1057 730 1097 730 C1097 730 1127 730 1127 730 C1127 730 1127 750 1127 750 L1127 750 Z M461 981 C432 1024 416 1046 406 1046 C372 1046 349 1023 349 988 C349 978 369 960 408 929 C408 929 553 811 553 811 C553 811 567 826 567 826 C567 826 461 981 461 981 L461 981 Z " />
<glyph glyph-name="Wacute" unicode="&#x1e82;" horiz-adv-x="1142" d="M560 811 C560 811 704 929 704 929 C743 962 763 980 763 988 C763 1023 740 1046 706 1046 C698 1046 681 1024 652 981 C652 981 545 826 545 826 C545 826 560 811 560 811 L560 811 Z M1127 750 C1127 750 1038 750 1038 750 C1038 750 985 750 985 750 C985 750 820 750 820 750 C820 750 820 730 820 730 C820 730 844 730 844 730 C934 730 977 722 947 610 C947 610 947 610 947 610 C947 610 834 187 834 187 C834 187 635 657 635 657 C611 725 647 730 717 730 C717 730 741 730 741 730 C741 730 741 750 741 750 C741 750 596 750 596 750 C596 750 447 750 447 750 C447 750 361 750 361 750 C361 750 361 730 361 730 C361 730 391 730 391 730 C430 730 453 727 470 698 C499 632 528 566 557 500 C557 500 557 500 557 500 C557 500 444 162 444 162 C444 162 263 610 263 610 C263 610 263 610 263 610 C216 722 251 730 327 730 C327 730 351 730 351 730 C351 730 351 750 351 750 C351 750 206 750 206 750 C206 750 65 750 65 750 C65 750 8 750 8 750 C8 750 8 730 8 730 C8 730 45 730 45 730 C64 730 77 722 124 610 C124 610 124 610 124 610 C211 403 298 196 386 -10 C386 -10 419 -10 419 -10 C419 -10 582 444 582 444 C648 293 715 142 781 -10 C781 -10 815 -10 815 -10 C815 -10 997 610 997 610 C997 610 997 610 997 610 C997 611 998 612 998 613 C998 613 1006 641 1006 641 C1032 724 1057 730 1097 730 C1097 730 1127 730 1127 730 C1127 730 1127 750 1127 750 L1127 750 Z " />
<glyph glyph-name="Wdieresis" unicode="&#x1e84;" horiz-adv-x="1142" d="M631 865 C681 865 706 890 706 939 C706 989 681 1014 631 1014 C582 1014 557 989 557 939 C557 890 582 865 631 865 L631 865 Z M471 865 C520 865 545 890 545 939 C545 989 520 1014 471 1014 C421 1014 396 989 396 939 C396 890 421 865 471 865 L471 865 Z M1127 750 C1127 750 1038 750 1038 750 C1038 750 985 750 985 750 C985 750 820 750 820 750 C820 750 820 730 820 730 C820 730 844 730 844 730 C934 730 977 722 947 610 C947 610 947 610 947 610 C947 610 834 187 834 187 C834 187 635 657 635 657 C611 725 647 730 717 730 C717 730 741 730 741 730 C741 730 741 750 741 750 C741 750 596 750 596 750 C596 750 447 750 447 750 C447 750 361 750 361 750 C361 750 361 730 361 730 C361 730 391 730 391 730 C430 730 453 727 470 698 C499 632 528 566 557 500 C557 500 557 500 557 500 C557 500 444 162 444 162 C444 162 263 610 263 610 C263 610 263 610 263 610 C216 722 251 730 327 730 C327 730 351 730 351 730 C351 730 351 750 351 750 C351 750 206 750 206 750 C206 750 65 750 65 750 C65 750 8 750 8 750 C8 750 8 730 8 730 C8 730 45 730 45 730 C64 730 77 722 124 610 C124 610 124 610 124 610 C211 403 298 196 386 -10 C386 -10 419 -10 419 -10 C419 -10 582 444 582 444 C648 293 715 142 781 -10 C781 -10 815 -10 815 -10 C815 -10 997 610 997 610 C997 610 997 610 997 610 C997 611 998 612 998 613 C998 613 1006 641 1006 641 C1032 724 1057 730 1097 730 C1097 730 1127 730 1127 730 C1127 730 1127 750 1127 750 L1127 750 Z " />
<glyph glyph-name="CapitalLetterEWITHTI" unicode="&#x1ebc;" horiz-adv-x="673" d="M218 870 C218 907 231 925 257 925 C321 925 360 860 425 860 C485 860 516 907 516 1001 C516 1001 496 1001 496 1001 C496 961 481 941 451 941 C387 941 347 1006 283 1006 C226 1006 198 960 198 870 C198 870 218 870 218 870 L218 870 Z M587 598 C583 649 580 700 576 750 C576 750 456 750 456 750 C456 750 266 750 266 750 C266 750 138 750 138 750 C138 750 33 750 33 750 C33 750 33 730 33 730 C33 730 63 730 63 730 C113 730 138 725 138 665 C138 665 138 85 138 85 C138 25 113 20 63 20 C63 20 33 20 33 20 C33 20 33 0 33 0 C33 0 138 0 138 0 C138 0 266 0 266 0 C266 0 481 0 481 0 C481 0 601 0 601 0 C609 51 615 101 623 152 C623 152 603 152 603 152 C603 152 599 122 599 122 C589 59 578 27 485 27 C485 27 346 27 346 27 C266 27 266 45 266 80 C266 80 266 85 266 85 C266 85 266 385 266 385 C266 385 396 385 396 385 C489 385 496 348 496 275 C496 275 496 245 496 245 C496 245 516 245 516 245 C516 245 516 385 516 385 C516 385 516 416 516 416 C516 416 516 556 516 556 C516 556 496 556 496 556 C496 556 496 526 496 526 C496 453 489 416 396 416 C396 416 266 416 266 416 C266 416 266 665 266 665 C266 665 266 723 266 723 C266 723 458 723 458 723 C569 723 561 687 566 616 C566 616 567 598 567 598 C567 598 587 598 587 598 L587 598 Z " />
<glyph glyph-name="Ygrave" unicode="&#x1ef2;" horiz-adv-x="798" d="M314 750 C314 750 209 750 209 750 C209 750 57 750 57 750 C57 750 5 750 5 750 C5 750 5 730 5 730 C5 730 42 730 42 730 C59 730 72 724 125 647 C125 647 344 316 344 316 C344 316 344 80 344 80 C344 24 319 20 269 20 C269 20 239 20 239 20 C239 20 239 0 239 0 C239 0 578 0 578 0 C578 0 578 20 578 20 C578 20 548 20 548 20 C498 20 473 24 473 80 C473 80 473 320 473 320 C473 320 644 631 644 631 C696 723 718 730 752 730 C752 730 783 730 783 730 C783 730 783 750 783 750 C783 750 709 750 709 750 C709 750 645 750 645 750 C645 750 540 750 540 750 C540 750 540 730 540 730 C540 730 565 730 565 730 C605 730 627 725 610 676 C610 676 459 361 459 361 C459 361 285 632 285 632 C228 723 246 730 289 730 C289 730 314 730 314 730 C314 730 314 750 314 750 L314 750 Z M318 981 C289 1024 273 1046 264 1046 C229 1046 206 1023 206 988 C206 978 226 960 266 929 C266 929 410 811 410 811 C410 811 424 826 424 826 C424 826 318 981 318 981 L318 981 Z " />
<glyph glyph-name="quoteleft" unicode="&#x2018;" horiz-adv-x="638" d="" />
<glyph glyph-name="quoteright" unicode="&#x2019;" horiz-adv-x="178" d="" />
<glyph glyph-name="quotedblleft" unicode="&#x201c;" horiz-adv-x="638" d="M273 640 C259 640 248 636 241 627 C242 695 266 736 313 749 C313 749 303 760 303 760 C239 743 206 690 206 603 C206 556 229 532 273 532 C310 532 328 550 328 586 C328 622 310 640 273 640 L273 640 Z " />
<glyph glyph-name="quotedblright" unicode="&#x201d;" horiz-adv-x="638" d="M306 666 C304 597 276 556 224 542 C224 542 234 532 234 532 C305 551 341 605 341 693 C341 738 318 760 273 760 C237 760 219 742 219 706 C219 670 237 652 273 652 C288 652 299 657 306 666 C306 666 306 666 306 666 L306 666 Z " />
<glyph glyph-name="Euro" unicode="&#x20ac;" horiz-adv-x="813" d="M773 515 C773 515 773 633 773 633 C773 633 773 748 773 748 C773 748 758 748 758 748 C758 748 756 738 753 720 C749 701 724 696 682 720 C638 747 581 760 483 760 C262 760 134 667 101 482 C101 482 67 482 67 482 C67 482 55 400 55 400 C55 400 92 400 92 400 C92 392 92 383 92 375 C92 367 92 358 92 350 C92 350 55 350 55 350 C55 350 43 268 43 268 C43 268 101 268 101 268 C133 83 258 -10 473 -10 C566 -10 626 3 674 29 C674 29 674 29 674 29 C719 54 747 47 753 27 C758 7 761 -3 761 -3 C761 -3 773 -3 773 -3 C773 -3 773 117 773 117 C773 117 773 235 773 235 C773 235 758 235 758 235 C758 235 756 228 753 213 C745 178 723 137 690 102 C635 48 580 20 485 20 C345 20 263 103 240 268 C240 268 530 268 530 268 C530 268 541 350 541 350 C541 350 233 350 233 350 C233 358 233 367 233 375 C233 383 233 392 233 400 C233 400 541 400 541 400 C541 400 553 482 553 482 C553 482 240 482 240 482 C264 646 350 728 496 728 C607 728 651 694 709 628 C731 599 746 566 753 536 C756 522 758 515 758 515 C758 515 773 515 773 515 L773 515 Z " />
<glyph glyph-name="LETTERSMALLCAPITALF" unicode="&#xa730;" horiz-adv-x="579" d="M519 441 C515 489 511 536 507 583 C507 583 387 583 387 583 C387 583 257 583 257 583 C257 583 141 583 141 583 C141 583 36 583 36 583 C36 583 36 563 36 563 C36 563 66 563 66 563 C116 563 141 558 141 498 C141 498 141 85 141 85 C141 25 116 20 66 20 C66 20 36 20 36 20 C36 20 36 0 36 0 C36 0 141 0 141 0 C141 0 257 0 257 0 C257 0 362 0 362 0 C362 0 362 20 362 20 C362 20 332 20 332 20 C282 20 257 25 257 85 C257 85 257 272 257 272 C257 272 402 272 402 272 C414 256 418 232 421 200 C421 200 425 154 425 154 C425 154 437 154 437 154 C437 154 437 272 437 272 C437 272 437 299 437 299 C437 299 437 417 437 417 C437 417 425 417 425 417 C425 417 421 371 421 371 C416 323 407 299 317 299 C317 299 257 299 257 299 C257 299 257 498 257 498 C257 498 257 564 257 564 C257 564 308 564 308 564 C476 564 491 532 497 469 C497 469 499 439 499 439 C507 439 511 441 519 441 C519 441 519 441 519 441 L519 441 Z " />
<glyph glyph-name="LETTERSMALLCAPITALS" unicode="&#xa731;" horiz-adv-x="492" d="M414 401 C414 401 414 502 414 502 C414 502 414 593 414 593 C414 593 399 593 399 593 C399 593 397 583 394 565 C393 557 375 558 343 573 C343 573 342 573 342 573 C314 586 279 593 237 593 C120 593 61 538 61 428 C61 335 103 273 216 232 C321 193 360 162 360 127 C360 61 323 27 251 27 C233 27 216 29 200 32 C134 49 85 123 69 192 C66 206 64 213 64 213 C64 213 49 213 49 213 C49 213 49 113 49 113 C49 113 49 -32 49 -32 C49 -32 64 -32 64 -32 C64 -32 66 -20 69 4 C72 25 97 36 141 13 C141 13 142 13 142 13 C173 -2 209 -10 251 -10 C385 -10 453 47 453 161 C453 247 408 307 286 352 C188 387 152 424 152 472 C152 533 180 564 237 564 C319 564 378 493 394 422 C397 408 399 401 399 401 C399 401 414 401 414 401 L414 401 Z " />
<glyph glyph-name="[namenotfound]" unicode="&#xf078;" horiz-adv-x="729" d="M704 583 C704 583 636 583 636 583 C636 583 584 583 584 583 C584 583 449 583 449 583 C449 583 449 563 449 563 C449 563 472 563 472 563 C531 563 558 555 487 460 C487 460 395 342 395 342 C395 342 314 455 314 455 C245 556 268 563 324 563 C324 563 348 563 348 563 C348 563 348 583 348 583 C348 583 223 583 223 583 C223 583 86 583 86 583 C86 583 25 583 25 583 C25 583 25 563 25 563 C25 563 59 563 59 563 C85 563 104 556 175 458 C175 458 313 265 313 265 C313 265 175 98 175 98 C112 26 83 20 37 20 C37 20 7 20 7 20 C7 20 7 0 7 0 C7 0 95 0 95 0 C95 0 142 0 142 0 C142 0 327 0 327 0 C327 0 327 20 327 20 C327 20 305 20 305 20 C215 20 169 27 223 107 C223 107 328 244 328 244 C328 244 402 140 402 140 C402 140 402 140 402 140 C482 28 459 20 400 20 C400 20 377 20 377 20 C377 20 377 0 377 0 C377 0 502 0 502 0 C502 0 640 0 640 0 C640 0 711 0 711 0 C711 0 711 20 711 20 C711 20 680 20 680 20 C643 20 619 28 540 140 C540 140 540 140 540 140 C540 140 410 322 410 322 C410 322 489 413 489 413 C489 413 490 413 490 413 C493 417 496 420 499 424 C499 424 579 517 579 517 C621 559 644 563 673 563 C673 563 704 563 704 563 C704 563 704 583 704 583 L704 583 Z " />
</font>
</svg>
