<?xml version="1.0" encoding="UTF-8"?>
<svg xmlns="http://www.w3.org/2000/svg" xmlns:xlink="http://www.w3.org/1999/xlink" version="1.2" >
<font id="Aludra Bold Italic">
<font-face  font-family="Aludra" units-per-em="1024" ascent="975" descent="-300" font-style="italic" font-weight="700" font-stretch="normal" cap-height="750" x-height="500" underline-position="0" underline-thickness="0" />
<missing-glyph  horiz-adv-x="472" d="M0 700 C0 700 432 700 432 700 C432 700 432 0 432 0 C432 0 0 0 0 0 C0 0 0 700 0 700 L0 700 Z M50 50 C50 50 382 50 382 50 C382 50 382 650 382 650 C382 650 50 650 50 650 C50 650 50 50 50 50 L50 50 Z " />
<glyph glyph-name="NULL" d="" />
<glyph glyph-name="CR" unicode="&#xd;" horiz-adv-x="256" d="" />
<glyph glyph-name="space" unicode="&#x20;" horiz-adv-x="250" d="" />
<glyph glyph-name="exclam" unicode="&#x21;" horiz-adv-x="280" d="M139 -5 C192 -5 224 22 234 75 C243 128 221 155 168 155 C114 155 83 128 74 75 C64 22 86 -5 139 -5 L139 -5 Z M273 755 C198 755 185 714 182 632 C182 632 167 210 167 210 C167 210 188 210 188 210 C188 210 322 632 322 632 C348 714 349 755 273 755 L273 755 Z " />
<glyph glyph-name="quotedbl" unicode="&#x22;" horiz-adv-x="325" d="M869 750 C829 750 824 735 827 705 C827 705 842 560 842 560 C842 560 856 560 856 560 C856 560 922 705 922 705 C935 735 936 750 896 750 C896 750 869 750 869 750 L869 750 Z " />
<glyph glyph-name="numbersign" unicode="&#x23;" horiz-adv-x="553" d="M506 656 C506 656 456 504 456 504 C456 504 325 504 325 504 C325 504 375 656 375 656 C375 656 331 656 331 656 C331 656 281 504 281 504 C281 504 160 504 160 504 C160 504 132 416 132 416 C132 416 252 416 252 416 C252 416 195 244 195 244 C195 244 71 244 71 244 C71 244 43 156 43 156 C43 156 166 156 166 156 C166 156 115 0 115 0 C115 0 159 0 159 0 C159 0 210 156 210 156 C210 156 341 156 341 156 C341 156 290 0 290 0 C290 0 334 0 334 0 C334 0 386 156 386 156 C386 156 501 156 501 156 C501 156 529 244 529 244 C529 244 415 244 415 244 C415 244 472 416 472 416 C472 416 595 416 595 416 C595 416 623 504 623 504 C623 504 501 504 501 504 C501 504 551 656 551 656 C551 656 506 656 506 656 L506 656 Z M296 416 C296 416 427 416 427 416 C427 416 370 244 370 244 C370 244 239 244 239 244 C239 244 296 416 296 416 L296 416 Z " />
<glyph glyph-name="dollar" unicode="&#x24;" horiz-adv-x="554" d="M439 825 C439 825 427 759 427 759 C418 760 408 760 398 760 C394 760 391 760 388 760 C388 760 399 825 399 825 C399 825 359 825 359 825 C359 825 347 756 347 756 C242 741 178 673 156 553 C138 445 167 371 270 321 C270 321 220 41 220 41 C217 42 213 43 210 45 C210 45 211 45 211 45 C149 69 112 151 102 223 C102 223 87 223 87 223 C81 186 76 160 74 146 C74 146 73 146 73 146 C73 146 73 145 73 145 C72 137 71 133 71 133 C66 104 61 74 55 44 C55 44 70 44 70 44 C71 44 74 52 80 69 C82 75 104 65 142 33 C142 33 143 33 143 33 C163 17 186 5 213 -2 C213 -2 200 -75 200 -75 C200 -75 241 -75 241 -75 C241 -75 253 -9 253 -9 C262 -10 271 -10 281 -10 C285 -10 288 -10 292 -10 C292 -10 280 -75 280 -75 C280 -75 321 -75 321 -75 C321 -75 333 -7 333 -7 C455 8 528 79 550 205 C569 313 533 386 411 437 C411 437 460 716 460 716 C515 692 550 636 559 582 C559 582 562 567 562 567 C562 567 577 567 577 567 C582 594 586 620 591 646 C591 646 595 673 605 725 C605 725 590 725 590 725 C590 725 587 718 581 705 C579 699 563 704 538 723 C538 723 537 723 537 723 C518 737 494 747 466 753 C466 753 479 825 479 825 C479 825 439 825 439 825 L439 825 Z M308 305 C321 299 333 294 344 288 C344 288 299 31 299 31 C295 31 292 31 288 31 C278 31 269 32 260 33 C260 33 308 305 308 305 L308 305 Z M381 268 C431 237 448 205 441 168 C429 98 395 54 341 38 C341 38 381 268 381 268 L381 268 Z M337 471 C337 471 382 728 382 728 C386 728 389 728 393 728 C403 728 413 728 422 727 C422 727 373 453 373 453 C360 459 348 465 337 471 C337 471 337 471 337 471 L337 471 Z M301 497 C268 527 258 562 266 602 C276 662 301 701 340 718 C340 718 301 497 301 497 L301 497 Z " />
<glyph glyph-name="ampersand" unicode="&#x26;" horiz-adv-x="320" d="M426 467 C542 504 606 552 615 610 C633 710 577 760 449 760 C332 760 263 705 244 595 C234 538 254 498 297 434 C163 389 87 309 66 196 C42 59 102 -10 243 -10 C338 -10 431 27 522 102 C522 102 536 82 536 82 C577 21 632 -10 698 -10 C778 -10 834 42 865 145 C865 145 846 152 846 152 C832 107 805 84 763 84 C712 84 674 104 648 142 C648 142 614 191 614 191 C686 271 755 374 823 500 C823 500 796 500 796 500 C731 380 664 287 595 220 C595 220 440 447 440 447 C435 454 431 461 426 467 C426 467 426 467 426 467 L426 467 Z M417 482 C368 554 345 595 355 655 C365 707 394 733 444 733 C509 733 535 694 522 617 C511 551 475 506 417 482 L417 482 Z M494 144 C440 113 385 97 329 97 C223 97 178 142 193 231 C211 326 248 389 306 421 C313 410 321 399 329 387 C329 387 494 144 494 144 L494 144 Z " />
<glyph glyph-name="quotesingle" unicode="&#x27;" horiz-adv-x="204" d="" />
<glyph glyph-name="parenleft" unicode="&#x28;" horiz-adv-x="500" d="M454 760 C260 643 144 480 108 273 C73 76 129 -87 275 -214 C275 -214 285 -201 285 -201 C181 -111 149 48 189 273 C230 504 320 663 459 747 C459 747 454 760 454 760 L454 760 Z " />
<glyph glyph-name="parenright" unicode="&#x29;" horiz-adv-x="500" d="M155 747 C264 667 299 507 258 273 C215 35 127 -124 -5 -201 C-5 -201 -1 -214 -1 -214 C187 -105 301 58 339 273 C376 484 318 648 164 760 C164 760 155 747 155 747 L155 747 Z " />
<glyph glyph-name="asterisk" unicode="&#x2a;" horiz-adv-x="300" d="M137 630 C137 630 29 600 29 600 C5 594 1 578 16 552 C30 527 46 523 64 540 C64 540 144 619 144 619 C144 619 115 510 115 510 C109 487 121 475 150 475 C179 475 191 487 185 510 C185 510 156 619 156 619 C156 619 236 540 236 540 C254 523 270 527 284 552 C299 578 295 594 271 600 C271 600 163 630 163 630 C163 630 271 660 271 660 C295 666 299 682 284 707 C270 733 254 737 236 720 C236 720 156 641 156 641 C156 641 185 750 185 750 C191 773 179 785 150 785 C121 785 109 773 115 750 C115 750 144 641 144 641 C144 641 64 720 64 720 C46 737 30 733 16 707 C1 682 5 666 29 660 C29 660 137 630 137 630 L137 630 Z " />
<glyph glyph-name="plus" unicode="&#x2b;" horiz-adv-x="620" d="M346 460 C346 460 316 291 316 291 C316 291 151 291 151 291 C151 291 137 209 137 209 C137 209 302 209 302 209 C302 209 272 40 272 40 C272 40 362 40 362 40 C362 40 392 209 392 209 C392 209 557 209 557 209 C557 209 571 291 571 291 C571 291 406 291 406 291 C406 291 436 460 436 460 C436 460 346 460 346 460 L346 460 Z " />
<glyph glyph-name="comma" unicode="&#x2c;" horiz-adv-x="267" d="M150 0 C150 -7 148 -15 147 -23 C139 -67 106 -90 49 -90 C49 -90 44 -117 44 -117 C133 -117 185 -72 201 18 C212 83 194 115 145 115 C105 115 82 95 75 55 C68 15 84 -5 124 -5 C134 -5 143 -3 150 0 L150 0 Z " />
<glyph glyph-name="hyphen" unicode="&#x2d;" horiz-adv-x="430" d="M122 240 C122 240 392 240 392 240 C392 240 408 330 408 330 C408 330 138 330 138 330 C138 330 122 240 122 240 L122 240 Z " />
<glyph glyph-name="period" unicode="&#x2e;" horiz-adv-x="195" d="M124 -5 C177 -5 209 22 218 75 C228 128 205 155 152 155 C99 155 68 128 58 75 C49 22 71 -5 124 -5 L124 -5 Z " />
<glyph glyph-name="slash" unicode="&#x2f;" horiz-adv-x="397" d="M436 770 C436 770 4 -80 4 -80 C4 -80 72 -80 72 -80 C72 -80 504 770 504 770 C504 770 436 770 436 770 L436 770 Z " />
<glyph glyph-name="zero" unicode="0" horiz-adv-x="613" d="M312 37 C187 37 115 108 140 250 C162 377 248 463 387 463 C512 463 583 392 558 250 C536 123 450 37 312 37 L312 37 Z M86 250 C55 77 145 -10 303 -10 C479 -10 585 95 613 250 C643 423 553 510 395 510 C220 510 113 405 86 250 L86 250 Z " />
<glyph glyph-name="one" unicode="1" horiz-adv-x="335" d="M384 500 C384 500 128 500 128 500 C127 490 125 488 125 480 C125 480 135 480 135 480 C175 480 194 479 192 465 C192 465 116 35 116 35 C114 21 94 20 54 20 C54 20 44 20 44 20 C43 16 41 2 40 0 C40 0 296 0 296 0 C296 0 299 20 299 20 C299 20 288 20 288 20 C249 20 229 21 231 35 C231 35 307 465 307 465 C309 479 330 480 369 480 C369 480 380 480 380 480 C381 484 383 498 384 500 L384 500 Z " />
<glyph glyph-name="two" unicode="2" horiz-adv-x="553" d="M117 289 C150 378 210 423 295 423 C374 423 407 388 395 320 C374 197 235 114 34 20 C34 20 30 0 30 0 C30 0 291 0 291 0 C291 0 435 0 435 0 C435 0 490 69 490 69 C510 93 530 118 550 143 C546 144 536 148 533 148 C533 148 525 137 525 137 C506 114 489 102 387 102 C387 102 237 102 237 102 C398 187 501 265 515 347 C534 455 485 510 369 510 C239 510 147 438 94 294 C94 294 117 289 117 289 L117 289 Z " />
<glyph glyph-name="three" unicode="3" horiz-adv-x="456" d="M-21 -209 C-21 -209 -21 -232 -21 -232 C248 -204 396 -121 420 15 C440 133 395 201 284 218 C387 270 443 322 455 387 C469 469 420 510 310 510 C200 510 123 457 81 352 C81 352 104 345 104 345 C127 401 176 429 249 429 C309 429 335 402 325 348 C310 263 249 218 134 173 C134 173 130 150 130 150 C254 132 309 76 292 -18 C273 -126 168 -190 -21 -209 L-21 -209 Z " />
<glyph glyph-name="four" unicode="4" horiz-adv-x="620" d="M136 88 C136 88 358 328 358 328 C358 328 315 88 315 88 C315 88 136 88 136 88 L136 88 Z M493 88 C493 88 430 88 430 88 C456 235 482 382 508 530 C508 530 494 530 494 530 C494 530 19 20 19 20 C19 20 15 0 15 0 C15 0 300 0 300 0 C300 0 261 -220 261 -220 C261 -220 376 -220 376 -220 C389 -147 402 -73 415 0 C415 0 515 0 515 0 C571 0 572 -9 566 -28 C566 -28 563 -39 563 -39 C563 -39 583 -39 583 -39 C592 -10 601 19 610 47 C610 47 637 134 637 134 C637 134 617 134 617 134 C617 134 614 123 614 123 C607 100 595 88 493 88 L493 88 Z " />
<glyph glyph-name="five" unicode="5" horiz-adv-x="442" d="M19 -235 C258 -207 393 -110 422 53 C449 207 356 285 145 285 C145 285 128 285 128 285 C128 285 167 397 167 397 C167 397 415 400 415 400 C415 400 450 500 450 500 C450 500 450 500 450 500 C455 513 460 527 465 540 C465 540 445 540 445 540 C432 510 434 500 330 500 C330 500 163 500 163 500 C163 500 52 182 52 182 C52 182 69 164 69 164 C69 164 111 164 111 164 C263 164 331 114 314 14 C290 -117 192 -193 20 -214 C20 -214 19 -235 19 -235 L19 -235 Z " />
<glyph glyph-name="six" unicode="6" horiz-adv-x="569" d="M682 750 C332 678 135 526 94 295 C58 92 122 -10 285 -10 C436 -10 528 73 557 238 C584 392 527 469 388 469 C334 469 291 453 257 422 C337 587 479 691 684 733 C684 733 682 750 682 750 L682 750 Z M198 234 C222 367 279 434 369 434 C440 434 465 370 443 245 C417 97 364 23 284 23 C202 23 174 94 198 234 L198 234 Z " />
<glyph glyph-name="seven" unicode="7" horiz-adv-x="461" d="M233 500 C233 500 233 500 233 500 C233 500 163 508 172 522 C172 522 178 532 178 532 C178 532 158 532 158 532 C140 503 122 475 105 446 C87 418 69 390 52 361 C52 361 72 361 72 361 C72 361 77 370 77 370 C93 395 104 407 150 407 C150 407 459 407 459 407 C459 407 66 -220 66 -220 C66 -220 154 -220 154 -220 C154 -220 542 485 542 485 C542 485 545 500 545 500 C545 500 233 500 233 500 L233 500 Z " />
<glyph glyph-name="eight" unicode="8" horiz-adv-x="540" d="M266 360 C276 355 287 350 298 345 C406 297 460 264 438 144 C424 60 367 17 270 17 C181 17 145 70 164 174 C179 263 213 325 266 360 C266 360 266 360 266 360 L266 360 Z M238 377 C137 327 79 259 64 174 C42 52 110 -10 265 -10 C421 -10 511 59 535 195 C558 324 516 375 423 422 C517 468 570 528 582 599 C601 706 540 760 399 760 C262 760 182 699 161 577 C144 483 171 422 238 377 C238 377 238 377 238 377 L238 377 Z M393 436 C382 441 371 446 360 451 C280 486 245 535 260 620 C274 695 318 733 394 733 C469 733 499 684 482 588 C470 519 440 468 393 436 C393 436 393 436 393 436 L393 436 Z " />
<glyph glyph-name="nine" unicode="9" horiz-adv-x="569" d="M-25 -250 C325 -178 523 -26 563 205 C599 408 535 510 373 510 C221 510 130 427 100 262 C73 108 130 31 269 31 C323 31 367 47 401 78 C321 -87 179 -191 -26 -233 C-26 -233 -25 -250 -25 -250 L-25 -250 Z M459 266 C436 133 378 66 288 66 C217 66 192 130 214 255 C240 403 294 477 374 477 C455 477 484 406 459 266 L459 266 Z " />
<glyph glyph-name="colon" unicode="&#x3a;" horiz-adv-x="135" d="M193 385 C246 385 278 412 287 465 C296 518 274 545 221 545 C168 545 136 518 127 465 C118 412 140 385 193 385 L193 385 Z M124 -5 C177 -5 209 22 218 75 C228 128 205 155 152 155 C99 155 68 128 58 75 C49 22 71 -5 124 -5 L124 -5 Z " />
<glyph glyph-name="semicolon" unicode="&#x3b;" horiz-adv-x="267" d="M193 385 C246 385 278 412 287 465 C296 518 274 545 221 545 C168 545 136 518 127 465 C118 412 140 385 193 385 L193 385 Z M150 0 C150 -7 148 -15 147 -23 C139 -67 106 -90 49 -90 C49 -90 44 -117 44 -117 C133 -117 185 -72 201 18 C212 83 194 115 145 115 C105 115 82 95 75 55 C68 15 84 -5 124 -5 C134 -5 143 -3 150 0 L150 0 Z " />
<glyph glyph-name="equal" unicode="&#x3d;" horiz-adv-x="537" d="M128 226 C128 226 119 174 119 174 C119 174 499 174 499 174 C499 174 508 226 508 226 C508 226 128 226 128 226 L128 226 Z M145 326 C145 326 136 274 136 274 C136 274 516 274 516 274 C516 274 525 326 525 326 C525 326 145 326 145 326 L145 326 Z " />
<glyph glyph-name="question" unicode="&#x3f;" horiz-adv-x="295" d="M124 -5 C177 -5 209 22 218 75 C228 128 205 155 152 155 C99 155 68 128 58 75 C49 22 71 -5 124 -5 L124 -5 Z M169 240 C169 240 188 360 188 360 C299 360 322 386 365 437 C391 467 408 507 417 557 C441 692 395 760 279 760 C207 760 166 731 156 675 C149 637 167 618 208 618 C239 618 269 638 299 638 C365 638 392 606 381 543 C379 531 368 514 349 492 C320 457 305 440 175 440 C175 440 149 240 149 240 C149 240 169 240 169 240 L169 240 Z " />
<glyph glyph-name="at" unicode="&#x40;" horiz-adv-x="1177" d="M1039 0 C939 -155 782 -234 570 -234 C260 -234 133 -69 191 259 C248 587 427 752 722 752 C1017 752 1141 615 1094 343 C1055 122 976 10 861 10 C778 10 764 74 818 200 C818 200 937 480 937 480 C937 480 828 480 828 480 C828 480 802 418 802 418 C792 466 751 490 681 490 C473 490 350 388 315 188 C293 66 343 4 464 4 C557 4 629 33 679 91 C674 11 726 -30 833 -30 C1022 -30 1140 95 1183 343 C1235 636 1082 784 727 784 C373 784 163 608 101 259 C40 -90 195 -266 564 -266 C791 -266 964 -177 1077 0 C1077 0 1039 0 1039 0 L1039 0 Z M775 356 C775 356 709 200 709 200 C672 112 613 68 534 68 C458 68 428 116 445 210 C474 375 550 458 672 458 C753 458 788 423 775 356 L775 356 Z " />
<glyph glyph-name="A" unicode="A" horiz-adv-x="782" d="M477 0 C477 0 571 0 571 0 C571 0 706 0 706 0 C706 0 766 0 766 0 C767 4 769 18 770 20 C770 20 746 20 746 20 C717 20 701 28 685 140 C685 140 684 140 684 140 C684 140 596 709 596 709 C596 709 587 770 587 770 C587 770 573 770 573 770 C543 735 508 715 468 709 C468 709 469 699 469 699 C469 699 469 699 469 699 C469 699 201 170 201 170 C201 170 201 170 201 170 C199 166 197 163 196 159 C196 159 192 152 192 152 C129 29 100 20 52 20 C52 20 30 20 30 20 C29 16 27 2 26 0 C26 0 115 0 115 0 C115 0 153 0 153 0 C153 0 269 0 269 0 C270 4 272 18 273 20 C273 20 252 20 252 20 C194 20 170 29 229 155 C229 155 287 273 287 273 C287 273 531 273 531 273 C531 273 554 119 554 119 C564 27 543 20 501 20 C501 20 480 20 480 20 C479 10 477 8 477 0 C477 0 477 0 477 0 L477 0 Z M303 306 C303 306 475 659 475 659 C475 659 527 306 527 306 C527 306 303 306 303 306 L303 306 Z " />
<glyph glyph-name="B" unicode="B" horiz-adv-x="712" d="M56 0 C56 0 258 0 258 0 C258 0 258 2 261 16 C261 16 258 0 258 0 C258 0 378 0 378 0 C573 0 676 20 707 198 C726 305 678 369 562 389 C662 415 721 476 738 571 C759 690 739 750 475 750 C475 750 390 750 390 750 C390 750 386 724 386 724 C386 724 419 724 419 724 C614 724 627 668 607 557 C588 450 526 396 422 396 C422 396 328 396 328 396 C328 396 324 374 324 374 C324 374 386 374 386 374 C526 374 587 315 566 198 C539 43 473 25 350 25 C350 25 300 25 300 25 C276 25 267 42 271 76 C272 79 272 82 273 85 C273 85 375 665 375 665 C389 744 390 750 390 750 C390 750 188 750 188 750 C188 750 185 730 184 730 C184 730 195 730 195 730 C237 730 258 725 247 665 C247 665 145 85 145 85 C134 25 112 20 70 20 C70 20 59 20 59 20 C59 18 59 8 56 0 L56 0 Z " />
<glyph glyph-name="C" unicode="C" horiz-adv-x="763" d="M818 540 C823 569 828 599 833 627 C833 627 834 629 835 633 C835 633 835 633 835 633 C835 633 835 633 835 633 C837 645 842 672 849 714 C849 714 834 714 834 714 C834 714 831 707 825 694 C823 687 800 695 760 720 C721 746 666 760 567 760 C307 760 153 631 108 375 C63 119 168 -10 421 -10 C514 -10 577 3 628 29 C628 29 629 29 629 29 C629 29 671 41 712 54 C718 55 719 48 716 33 C716 33 728 33 728 33 C734 62 739 92 744 121 C744 121 749 151 760 209 C760 209 745 209 745 209 C732 184 714 157 691 132 C613 58 550 20 439 20 C271 20 208 139 249 375 C290 610 400 728 575 728 C695 728 730 688 782 610 C793 587 800 563 803 540 C803 540 818 540 818 540 L818 540 Z " />
<glyph glyph-name="D" unicode="D" horiz-adv-x="862" d="M45 0 C45 0 119 0 119 0 C119 0 247 0 247 0 C247 0 327 0 327 0 C646 0 825 101 874 375 C917 624 821 750 499 750 C499 750 379 750 379 750 C379 750 375 724 375 724 C375 724 393 725 393 725 C686 725 773 608 732 375 C687 120 544 26 293 26 C255 26 255 41 260 71 C260 76 261 80 262 85 C262 85 262 85 262 85 C262 85 371 703 371 703 C378 746 379 750 379 750 C379 750 251 750 251 750 C251 750 177 750 177 750 C177 750 174 730 173 730 C173 730 184 730 184 730 C226 730 247 725 236 665 C236 665 236 665 236 665 C236 665 133 82 133 82 C122 25 100 20 59 20 C59 20 48 20 48 20 C48 18 48 8 45 0 C45 0 45 0 45 0 L45 0 Z " />
<glyph glyph-name="E" unicode="E" horiz-adv-x="644" d="M657 635 C657 635 677 635 677 635 C681 674 685 711 689 750 C689 750 569 750 569 750 C569 750 379 750 379 750 C379 750 251 750 251 750 C251 750 177 750 177 750 C177 750 174 730 173 730 C173 730 184 730 184 730 C226 730 247 725 236 665 C236 665 236 665 236 665 C236 665 133 82 133 82 C122 25 100 20 59 20 C59 20 48 20 48 20 C48 18 48 8 45 0 C45 0 119 0 119 0 C119 0 247 0 247 0 C247 0 255 47 255 47 C256 52 257 58 258 64 C258 64 252 27 252 27 C252 27 247 0 247 0 C247 0 462 0 462 0 C462 0 582 0 582 0 C594 39 605 77 619 115 C619 115 599 115 599 115 C599 115 595 104 595 104 C579 53 564 27 471 27 C471 27 332 27 332 27 C259 27 255 42 259 71 C260 75 261 80 262 85 C262 85 262 85 262 85 C262 85 318 401 318 401 C318 401 315 385 315 385 C315 385 445 385 445 385 C538 385 540 356 529 297 C529 297 528 287 528 287 C528 287 548 287 548 287 C553 319 559 352 565 385 C565 385 565 385 565 385 C565 385 569 408 569 408 C575 443 582 479 588 514 C588 514 568 514 568 514 C568 514 566 503 566 503 C556 445 543 416 450 416 C450 416 320 416 320 416 C320 416 371 703 371 703 C372 711 373 717 374 723 C374 723 566 723 566 723 C683 723 664 694 657 635 L657 635 Z " />
<glyph glyph-name="F" unicode="F" horiz-adv-x="619" d="M680 642 C682 678 687 714 689 750 C689 750 569 750 569 750 C569 750 379 750 379 750 C379 750 251 750 251 750 C251 750 177 750 177 750 C177 750 174 730 173 730 C173 730 184 730 184 730 C226 730 247 725 236 665 C236 665 236 665 236 665 C236 665 133 82 133 82 C122 25 100 20 59 20 C59 20 48 20 48 20 C48 18 48 8 45 0 C45 0 119 0 119 0 C119 0 247 0 247 0 C247 0 321 0 321 0 C321 2 324 12 324 20 C324 20 314 20 314 20 C272 20 251 25 262 85 C262 85 262 85 262 85 C262 85 371 703 371 703 C373 713 374 722 375 728 C375 728 487 728 487 728 C655 728 665 702 661 651 C661 651 660 640 660 640 C664 641 678 642 680 642 C680 642 680 642 680 642 L680 642 Z M537 283 C537 283 549 354 549 354 C549 354 550 354 550 354 C550 354 555 385 555 385 C555 385 555 385 555 385 C559 409 563 433 568 456 C568 456 556 456 556 456 C556 456 546 424 546 424 C538 398 527 385 435 385 C435 385 315 385 315 385 C315 385 310 354 310 354 C310 354 524 354 524 354 C527 344 528 331 527 315 C527 315 525 283 525 283 C525 283 537 283 537 283 L537 283 Z " />
<glyph glyph-name="G" unicode="G" horiz-adv-x="822" d="M818 540 C823 569 828 599 833 627 C833 627 834 629 835 633 C835 633 835 633 835 633 C835 633 835 633 835 633 C837 645 842 672 849 714 C849 714 834 714 834 714 C834 714 831 707 825 694 C823 687 800 695 760 720 C721 746 666 760 567 760 C307 760 153 631 108 375 C63 119 172 -10 432 -10 C601 -10 680 13 785 58 C785 58 780 77 780 77 C756 67 733 58 708 50 C708 50 743 245 743 245 C752 301 769 305 802 305 C802 305 813 305 813 305 C814 315 816 317 816 325 C816 325 558 325 558 325 C558 325 555 305 554 305 C554 305 565 305 565 305 C605 305 624 301 614 245 C614 245 578 26 578 26 C578 26 578 26 578 26 C578 26 597 143 597 143 C583 62 533 21 449 21 C275 21 208 140 249 375 C290 610 400 728 575 728 C695 728 730 688 782 610 C793 587 800 563 803 540 C803 540 818 540 818 540 L818 540 Z " />
<glyph glyph-name="H" unicode="H" horiz-adv-x="850" d="M931 750 C931 750 655 750 655 750 C654 740 652 738 652 730 C652 730 662 730 662 730 C704 730 725 726 715 670 C715 670 667 400 667 400 C667 400 353 400 353 400 C353 400 401 670 401 670 C411 726 433 730 475 730 C475 730 486 730 486 730 C486 730 489 750 489 750 C489 750 213 750 213 750 C213 750 210 730 209 730 C209 730 220 730 220 730 C262 730 283 726 273 670 C273 670 169 80 169 80 C159 24 137 20 95 20 C95 20 84 20 84 20 C84 18 84 8 81 0 C81 0 357 0 357 0 C357 2 360 12 360 20 C360 20 350 20 350 20 C308 20 287 24 297 80 C297 80 347 366 347 366 C347 366 661 366 661 366 C661 366 611 80 611 80 C601 24 579 20 537 20 C537 20 526 20 526 20 C526 18 526 8 523 0 C523 0 799 0 799 0 C800 4 802 18 803 20 C803 20 792 20 792 20 C750 20 729 24 739 80 C739 80 843 670 843 670 C853 726 875 730 917 730 C917 730 928 730 928 730 C928 730 931 750 931 750 L931 750 Z " />
<glyph glyph-name="I" unicode="I" horiz-adv-x="360" d="M441 750 C441 750 165 750 165 750 C165 750 162 730 161 730 C161 730 172 730 172 730 C214 730 234 726 225 670 C225 670 121 80 121 80 C110 24 88 20 47 20 C47 20 36 20 36 20 C35 10 33 8 33 0 C33 0 309 0 309 0 C309 0 312 20 312 20 C312 20 302 20 302 20 C260 20 239 24 249 80 C249 80 353 670 353 670 C363 726 385 730 427 730 C427 730 437 730 437 730 C438 730 441 750 441 750 L441 750 Z " />
<glyph glyph-name="J" unicode="J" horiz-adv-x="360" d="M441 750 C441 750 165 750 165 750 C165 750 162 730 161 730 C161 730 172 730 172 730 C214 730 234 726 225 670 C225 670 89 -99 89 -99 C76 -170 25 -175 -18 -175 C-90 -175 -28 -66 -100 -66 C-140 -66 -164 -87 -172 -127 C-182 -189 -144 -220 -57 -220 C61 -220 201 -195 261 143 C261 143 353 670 353 670 C363 726 385 730 427 730 C427 730 437 730 437 730 C438 730 441 750 441 750 L441 750 Z " />
<glyph glyph-name="K" unicode="K" horiz-adv-x="776" d="M758 20 C758 20 730 20 730 20 C710 20 681 48 660 82 C659 83 659 84 658 85 C658 85 658 85 658 85 C658 85 427 455 427 455 C427 455 618 640 618 640 C618 640 618 640 618 640 C620 642 621 643 622 645 C622 645 662 683 662 683 C709 726 728 730 753 730 C753 730 777 730 777 730 C777 730 780 750 781 750 C781 750 731 750 731 750 C731 750 680 750 680 750 C680 750 581 750 581 750 C580 740 578 738 578 730 C578 730 596 730 596 730 C638 730 652 722 545 612 C545 612 313 375 313 375 C313 375 368 690 368 690 C368 690 369 690 369 690 C375 727 397 730 439 730 C439 730 450 730 450 730 C450 730 453 750 453 750 C453 750 379 750 379 750 C379 750 251 750 251 750 C251 750 177 750 177 750 C177 750 174 730 173 730 C173 730 184 730 184 730 C226 730 247 727 240 690 C240 690 240 690 240 690 C240 690 130 60 130 60 C130 60 129 60 129 60 C123 23 101 20 59 20 C59 20 48 20 48 20 C48 18 48 8 45 0 C45 0 119 0 119 0 C119 0 247 0 247 0 C247 0 321 0 321 0 C321 2 324 12 324 20 C324 20 314 20 314 20 C272 20 251 23 258 60 C258 60 258 60 258 60 C258 60 313 375 313 375 C313 375 492 85 492 85 C492 85 491 85 491 85 C545 -2 544 0 544 0 C544 0 711 0 711 0 C711 0 754 0 754 0 C755 4 757 18 758 20 C758 20 758 20 758 20 L758 20 Z " />
<glyph glyph-name="L" unicode="L" horiz-adv-x="659" d="M67 0 C67 0 140 0 140 0 C140 0 269 0 269 0 C269 0 277 47 277 47 C278 50 278 53 279 56 C279 56 273 22 273 22 C273 22 269 0 269 0 C269 0 413 0 413 0 C413 0 598 0 598 0 C598 0 604 0 604 0 C604 0 608 22 608 22 C608 22 608 22 608 22 C624 60 641 97 658 135 C656 135 647 138 639 138 C639 138 635 127 635 127 C604 57 576 22 423 22 C423 22 353 22 353 22 C282 22 276 37 281 67 C282 73 283 79 284 85 C284 85 284 85 284 85 C284 85 387 668 387 668 C398 725 420 730 461 730 C461 730 471 730 471 730 C472 730 475 750 475 750 C475 750 401 750 401 750 C401 750 273 750 273 750 C273 750 199 750 199 750 C199 750 196 730 195 730 C195 730 206 730 206 730 C247 730 267 725 259 669 C259 669 155 85 155 85 C155 85 155 85 155 85 C144 25 122 20 81 20 C81 20 70 20 70 20 C69 10 67 8 67 0 C67 0 67 0 67 0 L67 0 Z " />
<glyph glyph-name="M" unicode="M" horiz-adv-x="926" d="M173 730 C173 730 196 730 196 730 C223 730 240 727 253 694 C253 694 134 118 134 118 C110 27 88 20 49 20 C49 20 26 20 26 20 C25 16 23 2 22 0 C22 0 109 0 109 0 C109 0 154 0 154 0 C154 0 242 0 242 0 C243 4 245 18 246 20 C246 20 223 20 223 20 C179 20 158 28 181 140 C181 140 181 140 181 140 C181 140 272 621 272 621 C321 414 369 206 419 0 C419 0 451 0 451 0 C451 0 778 628 778 628 C778 628 695 78 695 78 C684 25 662 20 621 20 C621 20 610 20 610 20 C610 18 610 8 607 0 C607 0 683 0 683 0 C683 0 811 0 811 0 C811 0 882 0 882 0 C883 4 885 18 886 20 C886 20 875 20 875 20 C837 20 817 24 822 73 C822 73 899 612 899 612 C918 722 936 730 966 730 C966 730 989 730 989 730 C990 740 992 742 992 750 C992 750 919 750 919 750 C919 750 841 750 841 750 C841 750 796 750 796 750 C796 750 503 167 503 167 C503 167 396 750 396 750 C396 750 297 750 297 750 C297 750 265 750 265 750 C265 750 242 750 242 750 C242 750 176 750 176 750 C175 740 173 738 173 730 C173 730 173 730 173 730 L173 730 Z " />
<glyph glyph-name="N" unicode="N" horiz-adv-x="764" d="M124 730 C124 730 150 730 150 730 C163 730 171 728 190 695 C190 695 191 695 191 695 C191 695 233 625 233 625 C233 625 145 133 145 133 C124 28 101 20 60 20 C60 20 37 20 37 20 C36 16 34 2 33 0 C33 0 121 0 121 0 C121 0 160 0 160 0 C160 0 247 0 247 0 C248 4 250 18 251 20 C251 20 228 20 228 20 C190 20 169 26 177 103 C177 103 258 581 258 581 C258 581 495 183 495 183 C495 183 603 0 603 0 C603 0 629 0 629 0 C629 0 753 654 753 654 C769 724 797 730 843 730 C843 730 854 730 854 730 C854 730 857 750 857 750 C857 750 771 750 771 750 C771 750 732 750 732 750 C732 750 645 750 645 750 C645 750 642 730 641 730 C641 730 652 730 652 730 C698 730 723 724 715 653 C715 653 639 212 639 212 C639 212 611 259 611 259 C611 259 317 750 317 750 C317 750 287 750 287 750 C287 750 255 750 255 750 C255 750 158 750 158 750 C158 750 127 750 127 750 C127 750 124 730 124 730 L124 730 Z " />
<glyph glyph-name="O" unicode="O" horiz-adv-x="857" d="M433 24 C272 24 212 142 253 375 C294 608 395 726 554 726 C727 726 794 608 753 375 C712 142 605 24 433 24 L433 24 Z M106 375 C61 119 167 -10 420 -10 C694 -10 855 119 900 375 C945 631 833 760 566 760 C306 760 151 631 106 375 L106 375 Z " />
<glyph glyph-name="P" unicode="P" horiz-adv-x="633" d="M195 730 C195 730 205 730 205 730 C247 730 268 725 257 665 C257 665 257 665 257 665 C257 665 154 82 154 82 C143 25 121 20 80 20 C80 20 69 20 69 20 C69 18 69 8 66 0 C66 0 140 0 140 0 C140 0 268 0 268 0 C268 0 342 0 342 0 C343 4 345 18 346 20 C346 20 335 20 335 20 C293 20 272 25 283 85 C283 85 283 85 283 85 C283 85 392 703 392 703 C399 746 400 750 400 750 C400 750 272 750 272 750 C272 750 198 750 198 750 C197 740 195 738 195 730 C195 730 195 730 195 730 L195 730 Z M400 750 C400 750 397 728 397 728 C397 728 464 728 464 728 C569 728 611 671 591 559 C565 411 499 365 383 365 C383 365 333 365 333 365 C333 365 328 338 328 338 C328 338 378 338 378 338 C574 338 681 385 708 538 C733 679 663 750 500 750 C500 750 400 750 400 750 L400 750 Z " />
<glyph glyph-name="Q" unicode="Q" horiz-adv-x="884" d="M1177 -40 C1177 -40 1170 -29 1170 -29 C1123 -63 1014 -80 844 -80 C706 -80 581 -56 470 -8 C714 7 858 135 900 375 C945 631 833 760 566 760 C306 760 151 631 106 375 C77 209 164 97 263 38 C493 -111 675 -187 806 -187 C918 -187 1043 -138 1177 -40 L1177 -40 Z M433 24 C416 24 395 30 374 41 C372 43 369 44 366 46 C366 46 366 46 365 46 C294 90 222 200 253 375 C294 608 395 726 554 726 C727 726 794 608 753 375 C712 142 605 24 433 24 L433 24 Z " />
<glyph glyph-name="R" unicode="R" horiz-adv-x="811" d="M173 730 C173 730 184 730 184 730 C226 730 247 725 236 665 C236 665 134 85 134 85 C123 25 101 20 59 20 C59 20 48 20 48 20 C48 18 48 8 45 0 C45 0 321 0 321 0 C321 2 324 12 324 20 C324 20 314 20 314 20 C272 20 251 25 262 85 C262 85 308 348 308 348 C308 348 384 348 384 348 C398 311 444 221 522 80 C569 -5 553 0 776 0 C776 0 781 26 781 26 C698 26 704 23 673 80 C595 221 544 313 519 357 C632 377 696 429 715 537 C740 678 655 750 461 750 C461 750 379 750 379 750 C379 750 375 724 375 724 C375 724 418 724 418 724 C543 724 597 670 578 562 C554 423 496 380 396 380 C396 380 314 380 314 380 C314 380 312 370 312 370 C312 370 364 665 364 665 C378 744 379 750 379 750 C379 750 177 750 177 750 C177 750 174 730 173 730 C173 730 173 730 173 730 L173 730 Z " />
<glyph glyph-name="S" unicode="S" horiz-adv-x="554" d="M577 567 C582 594 586 620 591 646 C591 646 595 673 605 725 C605 725 590 725 590 725 C590 725 587 718 581 705 C579 699 563 704 538 723 C538 723 537 723 537 723 C504 748 458 760 398 760 C262 760 181 691 156 553 C136 435 172 358 299 308 C413 263 451 220 441 168 C425 77 374 31 288 31 C259 31 233 36 210 45 C210 45 211 45 211 45 C149 69 112 151 102 223 C102 223 87 223 87 223 C81 186 76 160 74 146 C74 146 73 146 73 146 C73 146 73 145 73 145 C72 137 71 133 71 133 C66 104 61 74 55 44 C55 44 70 44 70 44 C71 44 74 52 80 69 C82 75 104 65 142 33 C142 33 143 33 143 33 C178 4 224 -10 281 -10 C435 -10 525 62 550 205 C570 316 531 391 399 442 C288 485 253 535 266 602 C280 686 323 728 393 728 C404 728 414 727 424 726 C500 715 549 647 559 582 C559 582 562 567 562 567 C562 567 577 567 577 567 L577 567 Z " />
<glyph glyph-name="T" unicode="T" horiz-adv-x="775" d="M162 644 C162 644 167 655 167 655 C190 697 209 718 302 718 C302 718 449 718 449 718 C449 718 337 80 337 80 C327 24 305 20 264 20 C264 20 253 20 253 20 C252 16 250 2 249 0 C249 0 526 0 526 0 C526 0 529 20 529 20 C529 20 518 20 518 20 C477 20 456 24 466 80 C466 80 578 718 578 718 C578 718 727 718 727 718 C820 718 831 697 838 655 C838 655 840 644 840 644 C844 645 858 646 860 646 C856 670 852 694 847 718 C847 718 852 750 852 750 C852 750 841 750 841 750 C838 763 836 776 833 789 C833 789 830 789 823 790 C823 790 813 790 813 790 C820 759 822 750 721 750 C721 750 584 750 584 750 C584 750 455 750 455 750 C455 750 319 750 319 750 C226 750 225 760 236 781 C236 781 241 790 241 790 C241 790 230 790 230 790 C223 789 220 789 220 789 C220 789 199 750 199 750 C199 750 187 750 187 750 C187 750 182 719 182 719 C182 719 181 717 181 717 C168 693 155 669 143 646 C147 645 160 644 162 644 C162 644 162 644 162 644 L162 644 Z " />
<glyph glyph-name="U" unicode="U" horiz-adv-x="764" d="M595 730 C595 730 606 730 606 730 C648 730 668 725 657 665 C657 665 575 198 575 198 C521 115 448 73 359 73 C270 73 234 122 251 220 C251 220 329 665 329 665 C343 744 344 750 344 750 C344 750 142 750 142 750 C142 750 139 730 138 730 C138 730 149 730 149 730 C191 730 212 725 201 665 C201 665 122 220 122 220 C96 67 153 -10 292 -10 C409 -10 500 41 565 141 C565 141 559 110 559 110 C559 110 540 0 540 0 C540 0 560 0 560 0 C560 0 751 55 751 55 C751 55 753 65 753 65 C684 61 679 63 688 110 C688 110 786 665 786 665 C799 744 800 750 801 750 C801 750 598 750 598 750 C598 750 595 730 595 730 L595 730 Z " />
<glyph glyph-name="V" unicode="V" horiz-adv-x="822" d="M440 750 C440 750 324 750 324 750 C324 750 176 750 176 750 C176 750 139 750 139 750 C138 740 136 738 136 730 C136 730 162 730 162 730 C174 730 181 727 190 698 C190 698 328 174 328 174 C328 174 377 -10 377 -10 C377 -10 402 -10 402 -10 C402 -10 797 664 797 664 C835 725 853 730 879 730 C879 730 902 730 902 730 C903 730 906 750 906 750 C906 750 847 750 847 750 C847 750 796 750 796 750 C796 750 680 750 680 750 C680 750 677 730 676 730 C676 730 697 730 697 730 C753 730 778 723 725 621 C725 621 377 -10 377 -10 C377 -10 478 174 478 174 C478 174 357 628 357 628 C335 723 362 730 416 730 C416 730 436 730 436 730 C436 730 439 750 440 750 C440 750 440 750 440 750 L440 750 Z " />
<glyph glyph-name="W" unicode="W" horiz-adv-x="1147" d="M1233 750 C1233 750 1173 750 1173 750 C1173 750 1120 750 1120 750 C1120 750 1004 750 1004 750 C1004 750 1001 730 1000 730 C1000 730 1021 730 1021 730 C1078 730 1105 723 1064 624 C1064 624 868 184 868 184 C868 184 869 187 869 187 C869 187 758 640 758 640 C758 640 758 640 758 640 C758 641 758 642 757 643 C757 643 756 650 756 650 C738 724 762 730 809 730 C809 730 829 730 829 730 C830 730 833 750 833 750 C833 750 731 750 731 750 C731 750 582 750 582 750 C582 750 524 750 524 750 C523 740 521 738 521 730 C521 730 544 730 544 730 C571 730 586 727 596 697 C613 631 631 565 648 500 C648 500 475 163 475 163 C475 163 373 610 373 610 C373 610 373 610 373 610 C346 722 369 730 419 730 C419 730 439 730 439 730 C440 730 443 750 443 750 C443 750 341 750 341 750 C341 750 200 750 200 750 C200 750 162 750 162 750 C162 750 159 730 159 730 C159 730 185 730 185 730 C198 730 207 722 234 610 C234 610 234 610 234 610 C285 403 336 197 386 -10 C386 -10 420 -10 420 -10 C420 -10 662 444 662 444 C702 293 742 141 782 -10 C782 -10 816 -10 816 -10 C816 -10 1135 668 1135 668 C1165 725 1182 730 1206 730 C1206 730 1230 730 1230 730 C1231 740 1233 742 1233 750 C1233 750 1233 750 1233 750 L1233 750 Z " />
<glyph glyph-name="X" unicode="X" horiz-adv-x="811" d="M902 750 C902 750 859 750 859 750 C859 750 801 750 801 750 C801 750 706 750 706 750 C706 750 703 730 702 730 C702 730 721 730 721 730 C762 730 775 721 668 602 C668 602 666 600 666 600 C666 600 518 436 518 436 C518 436 427 622 427 622 C380 723 394 730 430 730 C430 730 449 730 449 730 C450 730 453 750 453 750 C453 750 365 750 365 750 C365 750 213 750 213 750 C213 750 174 750 174 750 C174 750 171 730 170 730 C170 730 196 730 196 730 C213 730 225 723 271 631 C271 631 410 343 410 343 C410 343 184 97 184 97 C115 26 93 20 62 20 C62 20 39 20 39 20 C38 16 36 2 35 0 C35 0 94 0 94 0 C94 0 146 0 146 0 C146 0 276 0 276 0 C276 0 279 20 279 20 C279 20 260 20 260 20 C202 20 175 26 232 99 C232 99 422 318 422 318 C422 318 509 140 509 140 C509 140 509 140 509 140 C563 28 549 20 512 20 C512 20 493 20 493 20 C492 16 490 2 489 0 C489 0 577 0 577 0 C577 0 730 0 730 0 C730 0 777 0 777 0 C777 0 780 20 780 20 C780 20 756 20 756 20 C732 20 716 28 662 140 C662 140 662 140 662 140 C662 140 530 410 530 410 C530 410 811 700 811 700 C843 727 858 730 875 730 C875 730 899 730 899 730 C900 740 902 742 902 750 C902 750 902 750 902 750 L902 750 Z " />
<glyph glyph-name="Y" unicode="Y" horiz-adv-x="870" d="M461 750 C461 750 388 750 388 750 C388 750 236 750 236 750 C236 750 204 750 204 750 C203 750 200 730 200 730 C200 730 226 730 226 730 C239 730 250 722 304 610 C304 610 304 610 304 610 C304 610 447 316 447 316 C447 316 405 80 405 80 C395 24 373 20 332 20 C332 20 321 20 321 20 C320 16 318 2 317 0 C317 0 593 0 593 0 C594 4 596 18 597 20 C597 20 586 20 586 20 C545 20 524 24 534 80 C534 80 577 321 577 321 C577 321 806 636 806 636 C871 723 887 730 909 730 C909 730 933 730 933 730 C933 730 936 750 937 750 C937 750 888 750 888 750 C888 750 824 750 824 750 C824 750 750 750 750 750 C750 750 747 730 746 730 C746 730 767 730 767 730 C790 730 803 726 785 691 C785 691 570 362 570 362 C570 362 431 659 431 659 C403 725 414 730 439 730 C439 730 458 730 458 730 C459 740 461 742 461 750 C461 750 461 750 461 750 L461 750 Z " />
<glyph glyph-name="Z" unicode="Z" horiz-adv-x="653" d="M659 146 C659 146 640 115 640 115 C612 70 590 44 512 38 C512 38 199 31 199 31 C199 31 748 723 748 723 C748 723 753 750 753 750 C753 750 628 750 628 750 C628 750 383 750 383 750 C383 750 213 750 213 750 C197 699 181 649 165 598 C170 597 188 596 191 596 C191 596 199 617 199 617 C223 675 243 707 331 715 C331 715 604 720 604 720 C604 720 41 27 41 27 C41 27 36 0 36 0 C36 0 175 0 175 0 C175 0 457 0 457 0 C457 0 617 0 617 0 C627 24 637 48 648 72 C648 72 678 144 678 144 C674 145 661 146 659 146 C659 146 659 146 659 146 L659 146 Z " />
<glyph glyph-name="bracketleft" unicode="&#x5b;" horiz-adv-x="302" d="M114 -161 C114 -161 275 750 275 750 C275 750 234 750 234 750 C234 750 67 -195 67 -195 C67 -195 108 -195 108 -195 C108 -195 318 -195 318 -195 C318 -195 324 -161 324 -161 C324 -161 114 -161 114 -161 L114 -161 Z M275 750 C275 750 269 716 269 716 C269 716 479 716 479 716 C479 716 485 750 485 750 C485 750 275 750 275 750 L275 750 Z " />
<glyph glyph-name="backslash" unicode="&#x5c;" horiz-adv-x="355" d="M154 770 C154 770 264 -80 264 -80 C264 -80 332 -80 332 -80 C332 -80 222 770 222 770 C222 770 154 770 154 770 L154 770 Z " />
<glyph glyph-name="bracketright" unicode="&#x5d;" horiz-adv-x="305" d="M281 716 C281 716 120 -195 120 -195 C120 -195 161 -195 161 -195 C161 -195 328 750 328 750 C328 750 287 750 287 750 C287 750 77 750 77 750 C77 750 71 716 71 716 C71 716 281 716 281 716 L281 716 Z M120 -195 C120 -195 126 -161 126 -161 C126 -161 -84 -161 -84 -161 C-84 -161 -90 -195 -90 -195 C-90 -195 120 -195 120 -195 L120 -195 Z " />
<glyph glyph-name="underscore" unicode="&#x5f;" horiz-adv-x="455" d="M-4 -50 C-4 -50 -15 -114 -15 -114 C-15 -114 430 -114 430 -114 C430 -114 441 -50 441 -50 C441 -50 -4 -50 -4 -50 L-4 -50 Z " />
<glyph glyph-name="a" unicode="a" horiz-adv-x="514" d="M546 123 C546 123 530 131 530 131 C517 95 495 77 465 77 C431 77 416 91 421 120 C421 120 462 353 462 353 C483 473 442 510 346 510 C214 510 131 420 121 360 C111 307 131 280 178 280 C216 280 240 311 245 337 C248 360 231 372 236 399 C240 425 268 463 310 463 C348 463 364 447 355 394 C355 394 334 278 334 278 C100 210 73 200 54 94 C41 25 73 -10 147 -10 C196 -10 239 8 303 77 C305 22 339 -5 404 -5 C468 -5 516 38 546 123 C546 123 546 123 546 123 L546 123 Z M329 250 C329 250 306 120 306 120 C305 114 304 108 303 102 C266 62 244 51 219 51 C181 51 165 70 172 106 C190 207 205 214 329 250 L329 250 Z " />
<glyph glyph-name="b" unicode="b" horiz-adv-x="624" d="M149 686 C149 686 160 689 160 689 C195 698 211 697 198 623 C198 623 198 623 198 623 C161 416 124 208 88 0 C88 0 95 0 95 0 C95 0 150 65 150 65 C159 15 216 -10 318 -10 C490 -10 593 78 624 253 C653 421 590 505 434 505 C373 505 322 487 283 451 C283 451 318 650 318 650 C334 743 335 750 335 750 C335 750 315 750 315 750 C315 750 153 706 153 706 C153 706 149 686 149 686 L149 686 Z M277 417 C307 445 341 458 379 458 C480 458 518 385 492 240 C466 91 411 16 329 16 C260 16 222 34 215 70 C215 70 237 195 237 195 C237 195 277 417 277 417 L277 417 Z " />
<glyph glyph-name="c" unicode="c" horiz-adv-x="525" d="M518 128 C518 128 504 135 504 135 C472 85 422 60 353 60 C229 60 179 133 205 277 C229 415 293 484 397 484 C428 484 449 457 459 405 C467 367 483 348 507 348 C559 348 582 367 574 405 C561 475 506 510 408 510 C219 510 107 417 75 234 C46 72 121 -10 300 -10 C388 -10 461 36 518 128 L518 128 Z " />
<glyph glyph-name="d" unicode="d" horiz-adv-x="574" d="M460 686 C460 686 471 689 471 689 C505 698 521 698 511 638 C511 638 511 638 511 638 C511 638 484 485 484 485 C453 501 411 510 357 510 C190 510 113 422 83 249 C53 80 107 -5 243 -5 C312 -5 367 17 409 61 C397 -4 396 -10 397 -10 C397 -10 417 -10 417 -10 C417 -10 578 29 578 29 C581 45 582 47 582 49 C582 49 571 46 571 46 C539 39 523 41 533 112 C533 112 631 665 631 665 C644 744 645 750 646 750 C646 750 625 750 625 750 C625 750 463 706 463 706 C461 695 460 694 460 686 L460 686 Z M416 101 C379 63 340 43 300 43 C209 43 178 123 206 281 C229 411 274 477 364 477 C413 477 450 445 469 397 C469 397 418 110 418 110 C417 107 417 104 416 101 C416 101 416 101 416 101 L416 101 Z " />
<glyph glyph-name="e" unicode="e" horiz-adv-x="535" d="M218 340 C218 340 438 340 438 340 C438 340 565 340 565 340 C566 476 504 510 383 510 C210 510 106 415 73 228 C45 70 110 -10 267 -10 C382 -10 465 37 516 131 C516 131 502 136 502 136 C477 90 412 66 309 66 C214 66 178 136 202 275 C206 299 211 320 218 340 L218 340 Z M518 374 C525 374 532 374 540 374 C540 374 518 374 518 374 L518 374 Z M437 372 C437 372 227 367 227 367 C258 445 306 484 372 484 C412 484 433 460 437 372 L437 372 Z " />
<glyph glyph-name="f" unicode="f" horiz-adv-x="370" d="M33 0 C33 0 268 0 268 0 C268 0 271 20 271 20 C271 20 260 20 260 20 C228 20 212 21 214 35 C214 35 285 439 285 439 C285 439 438 439 438 439 C438 439 449 500 449 500 C449 500 296 500 296 500 C322 645 360 719 429 719 C503 719 483 635 545 635 C575 635 593 650 598 680 C607 730 566 755 476 755 C293 755 211 669 181 500 C181 500 86 453 86 453 C86 453 84 439 84 439 C84 439 170 439 170 439 C170 439 99 35 99 35 C97 21 80 20 47 20 C47 20 37 20 37 20 C36 16 34 2 33 0 L33 0 Z " />
<glyph glyph-name="g" unicode="g" horiz-adv-x="552" d="M244 350 C259 438 290 483 336 483 C382 483 397 438 382 350 C366 260 335 215 289 215 C243 215 228 260 244 350 L244 350 Z M151 -15 C157 -15 163 -15 169 -15 C169 -15 284 -15 284 -15 C366 -15 383 -39 375 -86 C361 -164 313 -204 233 -204 C143 -204 106 -159 122 -70 C127 -44 136 -26 151 -15 C151 -15 151 -15 151 -15 L151 -15 Z M120 -9 C62 -26 29 -55 22 -97 C6 -185 73 -230 222 -230 C370 -230 455 -172 475 -59 C493 46 465 99 316 99 C316 99 196 99 196 99 C156 100 138 112 142 137 C148 171 196 188 284 188 C406 188 478 242 497 350 C501 371 501 390 499 408 C521 434 541 447 561 447 C563 447 562 440 560 426 C555 399 571 386 606 386 C637 386 656 404 663 440 C669 477 654 495 617 495 C568 495 527 474 494 433 C477 484 426 510 341 510 C219 510 148 456 129 350 C116 276 136 227 190 204 C118 189 77 155 68 102 C57 42 75 5 120 -9 C120 -9 120 -9 120 -9 L120 -9 Z " />
<glyph glyph-name="h" unicode="h" horiz-adv-x="651" d="M150 686 C150 686 161 689 161 689 C196 698 212 697 199 623 C199 623 199 623 199 623 C199 623 95 35 95 35 C93 21 76 20 43 20 C43 20 33 20 33 20 C32 16 30 2 29 0 C29 0 264 0 264 0 C264 0 267 20 267 20 C267 20 256 20 256 20 C224 20 208 21 210 35 C210 35 268 360 268 360 C304 405 355 429 422 429 C488 429 504 386 489 300 C489 300 442 35 442 35 C440 21 423 20 391 20 C391 20 380 20 380 20 C379 16 377 2 376 0 C376 0 611 0 611 0 C611 2 614 12 614 20 C614 20 604 20 604 20 C571 20 555 21 557 35 C557 35 604 300 604 300 C629 440 604 510 502 510 C409 510 333 471 274 394 C274 394 319 650 319 650 C335 743 336 750 336 750 C336 750 316 750 316 750 C316 750 154 706 154 706 C154 706 150 686 150 686 C150 686 150 686 150 686 L150 686 Z " />
<glyph glyph-name="i" unicode="i" horiz-adv-x="303" d="M264 615 C313 615 343 640 351 689 C360 739 340 764 290 764 C241 764 211 739 203 689 C194 640 214 615 264 615 L264 615 Z M115 436 C115 436 126 439 126 439 C157 447 173 447 168 397 C168 397 104 35 104 35 C102 21 87 20 59 20 C59 20 49 20 49 20 C48 16 46 2 45 0 C45 0 266 0 266 0 C266 0 269 20 269 20 C269 20 258 20 258 20 C231 20 217 21 219 35 C219 35 283 400 283 400 C300 493 301 500 301 500 C301 500 281 500 281 500 C281 500 119 456 119 456 C118 456 115 436 115 436 L115 436 Z " />
<glyph glyph-name="j" unicode="j" horiz-adv-x="292" d="M254 615 C303 615 333 640 341 689 C350 739 330 764 280 764 C231 764 201 739 193 689 C184 640 204 615 254 615 L254 615 Z M105 436 C105 436 116 439 116 439 C147 447 163 447 158 397 C158 397 100 68 100 68 C82 -32 52 -93 10 -115 C-23 -115 -51 -100 -85 -100 C-115 -100 -132 -113 -137 -140 C-142 -173 -125 -188 -85 -185 C-77 -184 -39 -166 30 -130 C140 -72 202 -6 215 68 C215 68 273 400 273 400 C290 493 291 500 291 500 C291 500 271 500 271 500 C271 500 109 456 109 456 C108 456 105 436 105 436 L105 436 Z " />
<glyph glyph-name="k" unicode="k" horiz-adv-x="654" d="M678 500 C678 500 660 500 660 500 C660 500 612 500 612 500 C612 500 482 500 482 500 C481 500 478 480 478 480 C478 480 495 480 495 480 C548 480 562 471 373 350 C373 350 262 280 262 280 C262 280 328 650 328 650 C344 743 345 750 345 750 C345 750 325 750 325 750 C325 750 163 706 163 706 C163 706 159 686 159 686 C159 686 170 689 170 689 C205 698 221 697 208 623 C208 623 208 623 208 623 C208 623 104 35 104 35 C102 21 87 20 59 20 C59 20 49 20 49 20 C48 16 46 2 45 0 C45 0 266 0 266 0 C266 0 269 20 269 20 C269 20 258 20 258 20 C231 20 217 21 219 35 C219 35 262 280 262 280 C262 280 434 35 434 35 C434 35 434 35 434 35 C444 21 436 20 420 20 C420 20 402 20 402 20 C402 18 402 8 399 0 C399 0 459 0 459 0 C459 0 607 0 607 0 C607 0 629 0 629 0 C629 0 632 20 632 20 C632 20 605 20 605 20 C597 20 593 21 583 35 C583 35 583 35 583 35 C583 35 384 326 384 326 C384 326 602 464 602 464 C602 464 605 465 605 465 C627 479 635 480 648 480 C648 480 674 480 674 480 C674 480 678 500 678 500 L678 500 Z " />
<glyph glyph-name="l" unicode="l" horiz-adv-x="293" d="M149 686 C149 686 160 689 160 689 C195 698 211 697 198 623 C198 623 198 623 198 623 C198 623 94 35 94 35 C92 21 76 20 46 20 C46 20 35 20 35 20 C34 10 32 8 32 0 C32 0 259 0 259 0 C260 4 262 18 263 20 C263 20 252 20 252 20 C222 20 207 21 209 35 C209 35 318 650 318 650 C334 743 335 750 335 750 C335 750 315 750 315 750 C315 750 153 706 153 706 C153 706 149 686 149 686 L149 686 Z " />
<glyph glyph-name="m" unicode="m" horiz-adv-x="913" d="M655 0 C655 0 882 0 882 0 C883 4 885 18 886 20 C886 20 875 20 875 20 C845 20 830 22 831 46 C831 46 875 300 875 300 C900 440 883 510 772 510 C696 510 629 472 573 398 C573 398 573 396 573 396 C572 472 542 510 459 510 C388 510 323 472 267 398 C267 398 261 364 261 364 C292 404 337 425 397 425 C455 425 462 383 448 300 C448 300 405 55 405 55 C405 55 404 55 404 55 C399 22 384 20 356 20 C356 20 346 20 346 20 C345 16 343 2 342 0 C342 0 555 0 555 0 C556 4 558 18 559 20 C559 20 548 20 548 20 C527 20 516 22 518 46 C518 46 563 300 563 300 C567 326 570 349 572 370 C603 406 648 425 709 425 C767 425 775 383 760 300 C760 300 717 55 717 55 C717 55 717 55 717 55 C711 22 697 20 669 20 C669 20 658 20 658 20 C657 10 655 8 655 0 C655 0 655 0 655 0 L655 0 Z M97 424 C97 424 108 428 108 428 C142 440 159 440 147 374 C147 374 147 370 147 370 C147 369 146 367 146 366 C146 366 146 366 146 366 C146 366 90 47 90 47 C83 22 66 20 36 20 C36 20 26 20 26 20 C25 16 23 2 22 0 C22 0 246 0 246 0 C247 4 249 18 250 20 C250 20 239 20 239 20 C213 20 201 22 207 55 C207 55 207 55 207 55 C207 55 267 400 267 400 C284 493 285 500 285 500 C285 500 265 500 265 500 C265 500 100 444 100 444 C100 444 97 424 97 424 L97 424 Z " />
<glyph glyph-name="n" unicode="n" horiz-adv-x="600" d="M97 424 C97 424 108 428 108 428 C142 440 159 440 147 374 C147 374 147 370 147 370 C147 369 146 367 146 366 C146 366 146 366 146 366 C146 366 88 35 88 35 C86 21 70 20 40 20 C40 20 29 20 29 20 C28 10 26 8 26 0 C26 0 253 0 253 0 C254 4 256 18 257 20 C257 20 246 20 246 20 C216 20 201 21 203 35 C203 35 267 400 267 400 C284 493 285 500 285 500 C285 500 265 500 265 500 C265 500 100 444 100 444 C100 444 97 424 97 424 L97 424 Z M338 0 C338 0 566 0 566 0 C566 2 569 12 569 20 C569 20 559 20 559 20 C529 20 514 21 516 35 C516 35 563 300 563 300 C587 440 562 510 459 510 C390 510 325 471 266 393 C266 393 260 359 260 359 C294 403 333 426 376 426 C445 426 463 384 448 300 C448 300 401 35 401 35 C399 21 383 20 353 20 C353 20 342 20 342 20 C341 16 339 2 338 0 L338 0 Z " />
<glyph glyph-name="o" unicode="o" horiz-adv-x="609" d="M302 25 C210 25 177 101 203 250 C230 399 289 475 382 475 C474 475 507 399 481 250 C455 101 395 25 302 25 L302 25 Z M76 250 C46 77 120 -10 296 -10 C473 -10 578 77 608 250 C639 423 565 510 388 510 C211 510 107 423 76 250 L76 250 Z " />
<glyph glyph-name="p" unicode="p" horiz-adv-x="623" d="M98 424 C98 424 109 428 109 428 C142 439 159 440 149 376 C149 376 147 367 147 367 C147 367 147 366 147 366 C147 366 147 366 147 366 C147 366 56 -150 56 -150 C56 -150 56 -150 56 -150 C48 -197 31 -200 -1 -200 C-1 -200 -12 -200 -12 -200 C-13 -204 -15 -218 -16 -220 C-16 -220 219 -220 219 -220 C219 -220 224 -200 222 -200 C222 -200 212 -200 212 -200 C181 -200 165 -197 170 -157 C170 -157 203 32 203 32 C235 7 284 -5 349 -5 C501 -5 596 101 624 259 C653 426 591 510 440 510 C372 510 318 488 276 445 C285 495 286 500 286 500 C286 500 266 500 266 500 C266 500 101 444 101 444 C101 444 98 424 98 424 L98 424 Z M215 96 C215 96 268 399 268 399 C304 441 342 462 378 462 C481 462 519 382 492 223 C470 103 418 23 343 23 C280 23 237 48 215 96 L215 96 Z " />
<glyph glyph-name="q" unicode="q" horiz-adv-x="606" d="M462 -185 C462 -185 564 390 564 390 C571 426 577 463 583 500 C583 500 576 500 576 500 C576 500 528 440 528 440 C503 487 452 510 375 510 C193 510 111 422 80 249 C50 80 105 -5 243 -5 C298 -5 347 16 390 57 C390 57 347 -185 347 -185 C345 -199 328 -200 296 -200 C296 -200 285 -200 285 -200 C285 -200 280 -220 282 -220 C282 -220 516 -220 516 -220 C516 -220 521 -200 519 -200 C519 -200 509 -200 509 -200 C476 -200 460 -199 462 -185 L462 -185 Z M449 390 C449 390 397 97 397 97 C362 61 328 43 299 43 C208 43 177 123 205 281 C228 416 273 484 363 484 C398 484 427 452 449 390 C449 390 449 390 449 390 L449 390 Z " />
<glyph glyph-name="r" unicode="r" horiz-adv-x="479" d="M103 424 C103 424 114 428 114 428 C148 440 165 440 153 374 C153 374 153 370 153 370 C153 369 152 367 152 366 C152 366 152 366 152 366 C152 366 94 35 94 35 C92 21 77 20 49 20 C49 20 39 20 39 20 C38 16 36 2 35 0 C35 0 263 0 263 0 C263 0 266 20 266 20 C266 20 255 20 255 20 C223 20 207 21 209 35 C209 35 264 349 264 349 C301 420 337 456 375 456 C401 456 412 444 408 421 C400 377 419 354 464 354 C509 354 536 377 544 421 C554 480 518 510 438 510 C366 510 312 476 275 409 C290 493 291 500 291 500 C291 500 271 500 271 500 C271 500 106 444 106 444 C106 444 103 424 103 424 L103 424 Z " />
<glyph glyph-name="s" unicode="s" horiz-adv-x="443" d="M435 367 C439 390 443 414 447 437 C447 437 451 461 460 507 C460 507 440 507 440 507 C438 501 437 494 436 487 C435 482 417 484 383 498 C364 506 341 510 314 510 C208 510 147 464 130 372 C115 285 141 232 231 206 C308 185 332 153 323 105 C313 47 279 17 223 17 C171 17 136 47 119 107 C119 107 113 104 113 104 C111 120 112 136 116 153 C116 153 96 153 96 153 C89 113 85 93 86 93 C82 73 78 53 75 33 C75 33 95 33 95 33 C95 33 98 47 98 47 C96 34 119 14 168 -3 C168 -3 169 -3 169 -3 C183 -8 200 -10 218 -10 C334 -10 401 40 418 138 C432 215 401 265 297 294 C228 314 208 351 219 412 C227 459 257 483 310 483 C364 483 399 459 412 412 C412 412 416 414 416 414 C419 402 419 390 417 378 C416 374 415 370 415 367 C415 367 435 367 435 367 L435 367 Z " />
<glyph glyph-name="t" unicode="t" horiz-adv-x="411" d="M450 500 C450 500 298 500 298 500 C298 500 319 620 319 620 C319 620 311 620 311 620 C311 620 109 449 109 449 C109 449 107 439 107 439 C107 439 172 439 172 439 C172 439 128 186 128 186 C100 30 145 -10 247 -10 C334 -10 393 34 423 122 C423 122 409 125 409 125 C391 71 351 44 292 44 C240 44 218 68 235 161 C252 254 270 347 287 439 C287 439 439 439 439 439 C439 439 450 500 450 500 L450 500 Z " />
<glyph glyph-name="u" unicode="u" horiz-adv-x="587" d="M425 480 C425 480 435 480 435 480 C459 480 471 479 469 465 C469 465 414 151 414 151 C381 97 337 70 285 70 C229 70 207 100 217 160 C217 160 271 465 271 465 C277 498 277 500 277 500 C277 500 116 500 116 500 C115 500 112 480 112 480 C112 480 123 480 123 480 C147 480 158 479 156 465 C156 465 102 160 102 160 C82 47 121 -10 217 -10 C294 -10 358 33 408 118 C408 118 403 90 403 90 C386 -3 385 -10 385 -10 C385 -10 405 -10 405 -10 C405 -10 566 29 566 29 C569 45 570 47 570 49 C570 49 559 46 559 46 C527 38 511 39 520 101 C520 101 584 465 584 465 C590 498 590 500 590 500 C590 500 428 500 428 500 C428 500 425 480 425 480 L425 480 Z " />
<glyph glyph-name="v" unicode="v" horiz-adv-x="591" d="M637 500 C637 500 585 500 585 500 C585 500 532 500 532 500 C532 500 465 500 465 500 C464 490 462 488 462 480 C462 480 483 480 483 480 C509 480 521 478 506 450 C506 450 506 450 506 450 C506 450 267 -10 267 -10 C267 -10 301 -10 301 -10 C301 -10 559 453 559 453 C575 478 588 480 609 480 C609 480 633 480 633 480 C633 480 637 500 637 500 C637 500 637 500 637 500 L637 500 Z M322 500 C322 500 269 500 269 500 C269 500 143 500 143 500 C143 500 103 500 103 500 C102 500 99 480 99 480 C99 480 125 480 125 480 C138 480 146 479 152 463 C152 463 267 -10 267 -10 C267 -10 347 144 347 144 C347 144 277 462 277 462 C275 479 283 480 297 480 C297 480 318 480 318 480 C318 480 322 500 322 500 C322 500 322 500 322 500 L322 500 Z " />
<glyph glyph-name="w" unicode="w" horiz-adv-x="890" d="M944 500 C944 500 892 500 892 500 C892 500 838 500 838 500 C838 500 771 500 771 500 C771 500 768 480 768 480 C768 480 789 480 789 480 C812 480 824 478 817 461 C817 461 562 -10 562 -10 C562 -10 596 -10 596 -10 C596 -10 854 434 854 434 C854 434 854 434 854 434 C877 477 891 480 916 480 C916 480 940 480 940 480 C940 480 944 500 944 500 L944 500 Z M611 500 C611 500 564 500 564 500 C564 500 436 500 436 500 C436 500 398 500 398 500 C397 490 395 488 395 480 C395 480 421 480 421 480 C433 480 440 479 445 463 C445 463 473 350 473 350 C473 350 473 350 473 350 C473 350 273 -10 273 -10 C273 -10 306 -10 306 -10 C306 -10 486 296 486 296 C486 296 562 -10 562 -10 C562 -10 644 143 644 143 C644 143 573 460 573 460 C573 460 573 460 573 460 C569 479 574 480 586 480 C586 480 607 480 607 480 C607 480 611 500 611 500 L611 500 Z M312 500 C312 500 266 500 266 500 C266 500 137 500 137 500 C137 500 100 500 100 500 C100 500 97 480 96 480 C96 480 122 480 122 480 C134 480 141 479 146 467 C146 467 273 -10 273 -10 C273 -10 357 142 357 142 C357 142 275 466 275 466 C272 479 277 480 288 480 C288 480 309 480 309 480 C310 490 312 492 312 500 C312 500 312 500 312 500 L312 500 Z " />
<glyph glyph-name="x" unicode="x" horiz-adv-x="619" d="M28 0 C28 0 66 0 66 0 C66 0 119 0 119 0 C119 0 189 0 189 0 C190 4 192 18 193 20 C193 20 173 20 173 20 C152 20 140 22 153 41 C153 41 289 208 289 208 C289 208 358 64 358 64 C358 64 358 64 358 64 C378 23 371 20 355 20 C355 20 336 20 336 20 C335 16 333 2 332 0 C332 0 389 0 389 0 C389 0 529 0 529 0 C529 0 562 0 562 0 C562 0 567 20 565 20 C565 20 539 20 539 20 C526 20 518 23 500 62 C500 62 499 62 499 62 C499 62 394 281 394 281 C394 281 536 436 536 436 C536 436 536 436 536 436 C538 438 540 441 542 443 C542 443 554 456 554 456 C575 478 587 480 603 480 C603 480 628 480 628 480 C628 480 632 500 632 500 C632 500 594 500 594 500 C594 500 541 500 541 500 C541 500 478 500 478 500 C478 500 474 480 474 480 C474 480 493 480 493 480 C511 480 520 478 501 452 C501 452 381 308 381 308 C381 308 320 436 320 436 C320 436 320 436 320 436 C300 477 307 480 323 480 C323 480 342 480 342 480 C342 480 345 500 346 500 C346 500 289 500 289 500 C289 500 149 500 149 500 C149 500 123 500 123 500 C122 490 120 488 120 480 C120 480 147 480 147 480 C155 480 160 478 175 445 C175 445 175 445 175 445 C175 445 278 232 278 232 C278 232 124 64 124 64 C124 64 124 64 124 64 C87 23 75 20 57 20 C57 20 32 20 32 20 C31 16 29 2 28 0 C28 0 28 0 28 0 L28 0 Z " />
<glyph glyph-name="y" unicode="y" horiz-adv-x="587" d="M649 500 C649 500 597 500 597 500 C597 500 544 500 544 500 C544 500 477 500 477 500 C476 490 474 488 474 480 C474 480 495 480 495 480 C521 480 533 478 517 450 C517 450 517 450 517 450 C517 450 273 -10 273 -10 C273 -10 354 143 354 143 C354 143 272 458 272 458 C268 478 275 480 289 480 C289 480 310 480 310 480 C310 480 314 500 314 500 C314 500 261 500 261 500 C261 500 135 500 135 500 C135 500 95 500 95 500 C94 490 92 488 92 480 C92 480 117 480 117 480 C131 480 139 478 146 460 C146 460 273 -10 273 -10 C273 -10 204 -140 204 -140 C195 -157 184 -165 170 -165 C139 -165 142 -124 111 -124 C68 -124 43 -143 36 -182 C27 -229 46 -253 91 -253 C147 -253 190 -226 220 -171 C220 -171 307 -10 307 -10 C307 -10 570 453 570 453 C587 478 600 480 621 480 C621 480 645 480 645 480 C645 480 648 500 649 500 C649 500 649 500 649 500 L649 500 Z " />
<glyph glyph-name="z" unicode="z" horiz-adv-x="475" d="M161 0 C161 0 318 0 318 0 C318 0 430 0 430 0 C440 34 453 70 463 105 C463 105 453 105 453 105 C453 105 440 94 440 94 C398 61 369 42 312 37 C312 37 185 32 185 32 C185 32 518 473 518 473 C518 473 523 500 523 500 C523 500 406 500 406 500 C406 500 223 500 223 500 C212 500 201 506 207 519 C207 519 211 528 211 528 C211 528 191 528 191 528 C181 506 171 484 161 461 C161 461 131 395 131 395 C131 395 143 395 143 395 C143 395 156 405 156 405 C195 437 221 457 270 463 C270 463 381 467 381 467 C381 467 45 27 45 27 C45 27 40 0 40 0 C40 0 161 0 161 0 L161 0 Z " />
<glyph glyph-name="bar" unicode="&#x7c;" horiz-adv-x="209" d="M201 800 C201 800 16 -250 16 -250 C16 -250 105 -250 105 -250 C105 -250 291 800 291 800 C291 800 201 800 201 800 L201 800 Z " />
<glyph glyph-name="exclamdown" unicode="&#xa1;" horiz-adv-x="280" d="M229 505 C176 505 145 478 135 425 C126 372 148 345 201 345 C255 345 286 372 295 425 C305 478 283 505 229 505 L229 505 Z M95 -255 C171 -255 184 -214 187 -132 C187 -132 202 290 202 290 C202 290 181 290 181 290 C181 290 47 -132 47 -132 C21 -214 20 -255 95 -255 L95 -255 Z " />
<glyph glyph-name="cent" unicode="&#xa2;" horiz-adv-x="525" d="M384 575 C384 575 372 509 372 509 C205 498 105 405 75 234 C47 78 116 -4 281 -10 C281 -10 269 -75 269 -75 C269 -75 310 -75 310 -75 C310 -75 322 -9 322 -9 C400 -2 466 44 518 128 C518 128 504 135 504 135 C472 85 422 60 353 60 C346 60 340 60 334 61 C334 61 408 483 408 483 C433 477 450 451 459 405 C467 367 483 348 507 348 C559 348 582 367 574 405 C561 474 508 509 413 510 C413 510 424 575 424 575 C424 575 384 575 384 575 L384 575 Z M294 67 C214 88 184 159 205 277 C227 401 281 470 368 482 C368 482 294 67 294 67 L294 67 Z " />
<glyph glyph-name="questiondown" unicode="&#xbf;" horiz-adv-x="295" d="M259 505 C206 505 174 478 165 425 C156 372 178 345 231 345 C284 345 316 372 325 425 C334 478 312 505 259 505 L259 505 Z M214 260 C214 260 195 140 195 140 C84 140 62 114 18 63 C-8 33 -25 -7 -34 -57 C-58 -192 -11 -260 104 -260 C176 -260 217 -231 227 -175 C234 -137 216 -118 175 -118 C145 -118 114 -138 84 -138 C19 -138 -9 -106 2 -43 C5 -31 15 -14 34 8 C63 43 78 60 208 60 C208 60 234 260 234 260 C234 260 214 260 214 260 L214 260 Z " />
<glyph glyph-name="Agrave" unicode="&#xc0;" horiz-adv-x="770" d="M465 0 C465 0 559 0 559 0 C559 0 694 0 694 0 C694 0 754 0 754 0 C755 4 757 18 758 20 C758 20 734 20 734 20 C705 20 689 28 673 140 C673 140 672 140 672 140 C672 140 584 709 584 709 C584 709 575 770 575 770 C575 770 561 770 561 770 C531 735 496 715 456 709 C456 709 457 699 457 699 C457 699 457 699 457 699 C457 699 189 170 189 170 C189 170 189 170 189 170 C187 166 185 163 184 159 C184 159 180 152 180 152 C117 29 88 20 40 20 C40 20 18 20 18 20 C17 16 15 2 14 0 C14 0 103 0 103 0 C103 0 141 0 141 0 C141 0 257 0 257 0 C258 4 260 18 261 20 C261 20 240 20 240 20 C182 20 158 29 217 155 C217 155 275 273 275 273 C275 273 519 273 519 273 C519 273 542 119 542 119 C552 27 531 20 489 20 C489 20 468 20 468 20 C467 10 465 8 465 0 C465 0 465 0 465 0 L465 0 Z M477 981 C456 1024 443 1046 434 1046 C400 1046 373 1023 367 988 C365 978 382 960 416 929 C416 929 539 811 539 811 C539 811 556 826 556 826 C556 826 477 981 477 981 L477 981 Z M291 306 C291 306 463 659 463 659 C463 659 515 306 515 306 C515 306 291 306 291 306 L291 306 Z " />
<glyph glyph-name="Aacute" unicode="&#xc1;" horiz-adv-x="770" d="M547 811 C547 811 712 929 712 929 C757 962 780 980 782 988 C787 1023 768 1046 734 1046 C726 1046 706 1024 669 981 C669 981 535 826 535 826 C535 826 547 811 547 811 L547 811 Z M465 0 C465 0 559 0 559 0 C559 0 694 0 694 0 C694 0 754 0 754 0 C755 4 757 18 758 20 C758 20 734 20 734 20 C705 20 689 28 673 140 C673 140 672 140 672 140 C672 140 584 709 584 709 C584 709 575 770 575 770 C575 770 561 770 561 770 C531 735 496 715 456 709 C456 709 457 699 457 699 C457 699 457 699 457 699 C457 699 189 170 189 170 C189 170 189 170 189 170 C187 166 185 163 184 159 C184 159 180 152 180 152 C117 29 88 20 40 20 C40 20 18 20 18 20 C17 16 15 2 14 0 C14 0 103 0 103 0 C103 0 141 0 141 0 C141 0 257 0 257 0 C258 4 260 18 261 20 C261 20 240 20 240 20 C182 20 158 29 217 155 C217 155 275 273 275 273 C275 273 519 273 519 273 C519 273 542 119 542 119 C552 27 531 20 489 20 C489 20 468 20 468 20 C467 10 465 8 465 0 C465 0 465 0 465 0 L465 0 Z M291 306 C291 306 463 659 463 659 C463 659 515 306 515 306 C515 306 291 306 291 306 L291 306 Z " />
<glyph glyph-name="Acircumflex" unicode="&#xc2;" horiz-adv-x="770" d="M465 0 C465 0 559 0 559 0 C559 0 694 0 694 0 C694 0 754 0 754 0 C755 4 757 18 758 20 C758 20 734 20 734 20 C705 20 689 28 673 140 C673 140 672 140 672 140 C672 140 584 709 584 709 C584 709 575 770 575 770 C575 770 561 770 561 770 C531 735 496 715 456 709 C456 709 457 699 457 699 C457 699 457 699 457 699 C457 699 189 170 189 170 C189 170 189 170 189 170 C187 166 185 163 184 159 C184 159 180 152 180 152 C117 29 88 20 40 20 C40 20 18 20 18 20 C17 16 15 2 14 0 C14 0 103 0 103 0 C103 0 141 0 141 0 C141 0 257 0 257 0 C258 4 260 18 261 20 C261 20 240 20 240 20 C182 20 158 29 217 155 C217 155 275 273 275 273 C275 273 519 273 519 273 C519 273 542 119 542 119 C552 27 531 20 489 20 C489 20 468 20 468 20 C467 10 465 8 465 0 C465 0 465 0 465 0 L465 0 Z M558 921 C558 921 676 805 676 805 C676 805 693 818 693 818 C693 818 611 996 611 996 C605 1009 592 1037 578 1037 C563 1037 541 1010 530 996 C530 996 385 818 385 818 C385 818 398 805 398 805 C398 805 558 921 558 921 L558 921 Z M291 306 C291 306 463 659 463 659 C463 659 515 306 515 306 C515 306 291 306 291 306 L291 306 Z " />
<glyph glyph-name="Atilde" unicode="&#xc3;" horiz-adv-x="770" d="M409 870 C416 907 432 925 457 925 C522 925 550 860 614 860 C675 860 714 907 731 1001 C731 1001 710 1001 710 1001 C703 961 685 941 655 941 C590 941 562 1006 498 1006 C442 1006 405 960 389 870 C389 870 409 870 409 870 L409 870 Z M465 0 C465 0 559 0 559 0 C559 0 694 0 694 0 C694 0 754 0 754 0 C755 4 757 18 758 20 C758 20 734 20 734 20 C705 20 689 28 673 140 C673 140 672 140 672 140 C672 140 584 709 584 709 C584 709 575 770 575 770 C575 770 561 770 561 770 C531 735 496 715 456 709 C456 709 457 699 457 699 C457 699 457 699 457 699 C457 699 189 170 189 170 C189 170 189 170 189 170 C187 166 185 163 184 159 C184 159 180 152 180 152 C117 29 88 20 40 20 C40 20 18 20 18 20 C17 16 15 2 14 0 C14 0 103 0 103 0 C103 0 141 0 141 0 C141 0 257 0 257 0 C258 4 260 18 261 20 C261 20 240 20 240 20 C182 20 158 29 217 155 C217 155 275 273 275 273 C275 273 519 273 519 273 C519 273 542 119 542 119 C552 27 531 20 489 20 C489 20 468 20 468 20 C467 10 465 8 465 0 C465 0 465 0 465 0 L465 0 Z M291 306 C291 306 463 659 463 659 C463 659 515 306 515 306 C515 306 291 306 291 306 L291 306 Z " />
<glyph glyph-name="Adieresis" unicode="&#xc4;" horiz-adv-x="770" d="M628 865 C677 865 707 890 715 939 C724 989 704 1014 654 1014 C605 1014 575 989 566 939 C558 890 578 865 628 865 L628 865 Z M467 865 C517 865 546 890 555 939 C563 989 543 1014 493 1014 C444 1014 414 989 406 939 C397 890 418 865 467 865 L467 865 Z M465 0 C465 0 559 0 559 0 C559 0 694 0 694 0 C694 0 754 0 754 0 C755 4 757 18 758 20 C758 20 734 20 734 20 C705 20 689 28 673 140 C673 140 672 140 672 140 C672 140 584 709 584 709 C584 709 575 770 575 770 C575 770 561 770 561 770 C531 735 496 715 456 709 C456 709 457 699 457 699 C457 699 457 699 457 699 C457 699 189 170 189 170 C189 170 189 170 189 170 C187 166 185 163 184 159 C184 159 180 152 180 152 C117 29 88 20 40 20 C40 20 18 20 18 20 C17 16 15 2 14 0 C14 0 103 0 103 0 C103 0 141 0 141 0 C141 0 257 0 257 0 C258 4 260 18 261 20 C261 20 240 20 240 20 C182 20 158 29 217 155 C217 155 275 273 275 273 C275 273 519 273 519 273 C519 273 542 119 542 119 C552 27 531 20 489 20 C489 20 468 20 468 20 C467 10 465 8 465 0 C465 0 465 0 465 0 L465 0 Z M291 306 C291 306 463 659 463 659 C463 659 515 306 515 306 C515 306 291 306 291 306 L291 306 Z " />
<glyph glyph-name="Aring" unicode="&#xc5;" horiz-adv-x="770" d="M543 837 C504 837 483 864 490 905 C498 950 523 973 566 973 C609 973 627 950 619 905 C612 864 581 837 543 837 L543 837 Z M456 905 C446 848 479 810 538 810 C596 810 643 848 653 905 C664 968 636 1000 571 1000 C506 1000 468 968 456 905 L456 905 Z M465 0 C465 0 559 0 559 0 C559 0 694 0 694 0 C694 0 754 0 754 0 C755 4 757 18 758 20 C758 20 734 20 734 20 C705 20 689 28 673 140 C673 140 672 140 672 140 C672 140 584 709 584 709 C584 709 575 770 575 770 C575 770 561 770 561 770 C531 735 496 715 456 709 C456 709 457 699 457 699 C457 699 457 699 457 699 C457 699 189 170 189 170 C189 170 189 170 189 170 C187 166 185 163 184 159 C184 159 180 152 180 152 C117 29 88 20 40 20 C40 20 18 20 18 20 C17 16 15 2 14 0 C14 0 103 0 103 0 C103 0 141 0 141 0 C141 0 257 0 257 0 C258 4 260 18 261 20 C261 20 240 20 240 20 C182 20 158 29 217 155 C217 155 275 273 275 273 C275 273 519 273 519 273 C519 273 542 119 542 119 C552 27 531 20 489 20 C489 20 468 20 468 20 C467 10 465 8 465 0 C465 0 465 0 465 0 L465 0 Z M291 306 C291 306 463 659 463 659 C463 659 515 306 515 306 C515 306 291 306 291 306 L291 306 Z " />
<glyph glyph-name="Egrave" unicode="&#xc8;" horiz-adv-x="644" d="M657 635 C657 635 677 635 677 635 C681 674 685 711 689 750 C689 750 569 750 569 750 C569 750 379 750 379 750 C379 750 251 750 251 750 C251 750 177 750 177 750 C177 750 174 730 173 730 C173 730 184 730 184 730 C226 730 247 725 236 665 C236 665 236 665 236 665 C236 665 133 82 133 82 C122 25 100 20 59 20 C59 20 48 20 48 20 C48 18 48 8 45 0 C45 0 119 0 119 0 C119 0 247 0 247 0 C247 0 255 47 255 47 C256 52 257 58 258 64 C258 64 252 27 252 27 C252 27 247 0 247 0 C247 0 462 0 462 0 C462 0 582 0 582 0 C594 39 605 77 619 115 C619 115 599 115 599 115 C599 115 595 104 595 104 C579 53 564 27 471 27 C471 27 332 27 332 27 C259 27 255 42 259 71 C260 75 261 80 262 85 C262 85 262 85 262 85 C262 85 318 401 318 401 C318 401 315 385 315 385 C315 385 445 385 445 385 C538 385 540 356 529 297 C529 297 528 287 528 287 C528 287 548 287 548 287 C553 319 559 352 565 385 C565 385 565 385 565 385 C565 385 569 408 569 408 C575 443 582 479 588 514 C588 514 568 514 568 514 C568 514 566 503 566 503 C556 445 543 416 450 416 C450 416 320 416 320 416 C320 416 371 703 371 703 C372 711 373 717 374 723 C374 723 566 723 566 723 C683 723 664 694 657 635 L657 635 Z M420 981 C399 1024 386 1046 377 1046 C343 1046 316 1023 310 988 C308 978 324 960 358 929 C358 929 482 811 482 811 C482 811 499 826 499 826 C499 826 420 981 420 981 L420 981 Z " />
<glyph glyph-name="Eacute" unicode="&#xc9;" horiz-adv-x="644" d="M489 811 C489 811 655 929 655 929 C700 962 723 980 724 988 C730 1023 711 1046 677 1046 C669 1046 649 1024 611 981 C611 981 478 826 478 826 C478 826 489 811 489 811 L489 811 Z M657 635 C657 635 677 635 677 635 C681 674 685 711 689 750 C689 750 569 750 569 750 C569 750 379 750 379 750 C379 750 251 750 251 750 C251 750 177 750 177 750 C177 750 174 730 173 730 C173 730 184 730 184 730 C226 730 247 725 236 665 C236 665 236 665 236 665 C236 665 133 82 133 82 C122 25 100 20 59 20 C59 20 48 20 48 20 C48 18 48 8 45 0 C45 0 119 0 119 0 C119 0 247 0 247 0 C247 0 255 47 255 47 C256 52 257 58 258 64 C258 64 252 27 252 27 C252 27 247 0 247 0 C247 0 462 0 462 0 C462 0 582 0 582 0 C594 39 605 77 619 115 C619 115 599 115 599 115 C599 115 595 104 595 104 C579 53 564 27 471 27 C471 27 332 27 332 27 C259 27 255 42 259 71 C260 75 261 80 262 85 C262 85 262 85 262 85 C262 85 318 401 318 401 C318 401 315 385 315 385 C315 385 445 385 445 385 C538 385 540 356 529 297 C529 297 528 287 528 287 C528 287 548 287 548 287 C553 319 559 352 565 385 C565 385 565 385 565 385 C565 385 569 408 569 408 C575 443 582 479 588 514 C588 514 568 514 568 514 C568 514 566 503 566 503 C556 445 543 416 450 416 C450 416 320 416 320 416 C320 416 371 703 371 703 C372 711 373 717 374 723 C374 723 566 723 566 723 C683 723 664 694 657 635 L657 635 Z " />
<glyph glyph-name="Ecircumflex" unicode="&#xca;" horiz-adv-x="644" d="M657 635 C657 635 677 635 677 635 C681 674 685 711 689 750 C689 750 569 750 569 750 C569 750 379 750 379 750 C379 750 251 750 251 750 C251 750 177 750 177 750 C177 750 174 730 173 730 C173 730 184 730 184 730 C226 730 247 725 236 665 C236 665 236 665 236 665 C236 665 133 82 133 82 C122 25 100 20 59 20 C59 20 48 20 48 20 C48 18 48 8 45 0 C45 0 119 0 119 0 C119 0 247 0 247 0 C247 0 255 47 255 47 C256 52 257 58 258 64 C258 64 252 27 252 27 C252 27 247 0 247 0 C247 0 462 0 462 0 C462 0 582 0 582 0 C594 39 605 77 619 115 C619 115 599 115 599 115 C599 115 595 104 595 104 C579 53 564 27 471 27 C471 27 332 27 332 27 C259 27 255 42 259 71 C260 75 261 80 262 85 C262 85 262 85 262 85 C262 85 318 401 318 401 C318 401 315 385 315 385 C315 385 445 385 445 385 C538 385 540 356 529 297 C529 297 528 287 528 287 C528 287 548 287 548 287 C553 319 559 352 565 385 C565 385 565 385 565 385 C565 385 569 408 569 408 C575 443 582 479 588 514 C588 514 568 514 568 514 C568 514 566 503 566 503 C556 445 543 416 450 416 C450 416 320 416 320 416 C320 416 371 703 371 703 C372 711 373 717 374 723 C374 723 566 723 566 723 C683 723 664 694 657 635 L657 635 Z M501 921 C501 921 618 805 618 805 C618 805 636 818 636 818 C636 818 554 996 554 996 C548 1009 535 1037 521 1037 C506 1037 484 1010 473 996 C473 996 328 818 328 818 C328 818 341 805 341 805 C341 805 501 921 501 921 L501 921 Z " />
<glyph glyph-name="Edieresis" unicode="&#xcb;" horiz-adv-x="644" d="M571 865 C620 865 650 890 658 939 C667 989 647 1014 597 1014 C548 1014 518 989 509 939 C501 890 521 865 571 865 L571 865 Z M410 865 C460 865 489 890 498 939 C506 989 486 1014 436 1014 C387 1014 357 989 349 939 C340 890 361 865 410 865 L410 865 Z M657 635 C657 635 677 635 677 635 C681 674 685 711 689 750 C689 750 569 750 569 750 C569 750 379 750 379 750 C379 750 251 750 251 750 C251 750 177 750 177 750 C177 750 174 730 173 730 C173 730 184 730 184 730 C226 730 247 725 236 665 C236 665 236 665 236 665 C236 665 133 82 133 82 C122 25 100 20 59 20 C59 20 48 20 48 20 C48 18 48 8 45 0 C45 0 119 0 119 0 C119 0 247 0 247 0 C247 0 255 47 255 47 C256 52 257 58 258 64 C258 64 252 27 252 27 C252 27 247 0 247 0 C247 0 462 0 462 0 C462 0 582 0 582 0 C594 39 605 77 619 115 C619 115 599 115 599 115 C599 115 595 104 595 104 C579 53 564 27 471 27 C471 27 332 27 332 27 C259 27 255 42 259 71 C260 75 261 80 262 85 C262 85 262 85 262 85 C262 85 318 401 318 401 C318 401 315 385 315 385 C315 385 445 385 445 385 C538 385 540 356 529 297 C529 297 528 287 528 287 C528 287 548 287 548 287 C553 319 559 352 565 385 C565 385 565 385 565 385 C565 385 569 408 569 408 C575 443 582 479 588 514 C588 514 568 514 568 514 C568 514 566 503 566 503 C556 445 543 416 450 416 C450 416 320 416 320 416 C320 416 371 703 371 703 C372 711 373 717 374 723 C374 723 566 723 566 723 C683 723 664 694 657 635 L657 635 Z " />
<glyph glyph-name="Igrave" unicode="&#xcc;" horiz-adv-x="360" d="M441 750 C441 750 165 750 165 750 C165 750 162 730 161 730 C161 730 172 730 172 730 C214 730 234 726 225 670 C225 670 121 80 121 80 C110 24 88 20 47 20 C47 20 36 20 36 20 C35 10 33 8 33 0 C33 0 309 0 309 0 C309 0 312 20 312 20 C312 20 302 20 302 20 C260 20 239 24 249 80 C249 80 353 670 353 670 C363 726 385 730 427 730 C427 730 437 730 437 730 C438 730 441 750 441 750 L441 750 Z M253 981 C232 1024 219 1046 210 1046 C176 1046 148 1023 143 988 C141 978 157 960 191 929 C191 929 315 811 315 811 C315 811 332 826 332 826 C332 826 253 981 253 981 L253 981 Z " />
<glyph glyph-name="Iacute" unicode="&#xcd;" horiz-adv-x="360" d="M322 811 C322 811 488 929 488 929 C533 962 556 980 557 988 C563 1023 544 1046 510 1046 C502 1046 482 1024 444 981 C444 981 311 826 311 826 C311 826 322 811 322 811 L322 811 Z M441 750 C441 750 165 750 165 750 C165 750 162 730 161 730 C161 730 172 730 172 730 C214 730 234 726 225 670 C225 670 121 80 121 80 C110 24 88 20 47 20 C47 20 36 20 36 20 C35 10 33 8 33 0 C33 0 309 0 309 0 C309 0 312 20 312 20 C312 20 302 20 302 20 C260 20 239 24 249 80 C249 80 353 670 353 670 C363 726 385 730 427 730 C427 730 437 730 437 730 C438 730 441 750 441 750 L441 750 Z " />
<glyph glyph-name="Icircumflex" unicode="&#xce;" horiz-adv-x="360" d="M441 750 C441 750 165 750 165 750 C165 750 162 730 161 730 C161 730 172 730 172 730 C214 730 234 726 225 670 C225 670 121 80 121 80 C110 24 88 20 47 20 C47 20 36 20 36 20 C35 10 33 8 33 0 C33 0 309 0 309 0 C309 0 312 20 312 20 C312 20 302 20 302 20 C260 20 239 24 249 80 C249 80 353 670 353 670 C363 726 385 730 427 730 C427 730 437 730 437 730 C438 730 441 750 441 750 L441 750 Z M334 922 C334 922 451 805 451 805 C451 805 469 818 469 818 C469 818 387 996 387 996 C381 1009 368 1037 354 1037 C339 1037 317 1010 306 996 C306 996 161 818 161 818 C161 818 174 805 174 805 C174 805 334 922 334 922 L334 922 Z " />
<glyph glyph-name="Idieresis" unicode="&#xcf;" horiz-adv-x="360" d="M403 865 C453 865 482 890 491 939 C500 989 479 1014 430 1014 C381 1014 351 989 342 939 C334 890 354 865 403 865 L403 865 Z M243 865 C292 865 322 890 330 939 C339 989 319 1014 269 1014 C220 1014 190 989 182 939 C173 890 193 865 243 865 L243 865 Z M441 750 C441 750 165 750 165 750 C165 750 162 730 161 730 C161 730 172 730 172 730 C214 730 234 726 225 670 C225 670 121 80 121 80 C110 24 88 20 47 20 C47 20 36 20 36 20 C35 10 33 8 33 0 C33 0 309 0 309 0 C309 0 312 20 312 20 C312 20 302 20 302 20 C260 20 239 24 249 80 C249 80 353 670 353 670 C363 726 385 730 427 730 C427 730 437 730 437 730 C438 730 441 750 441 750 L441 750 Z " />
<glyph glyph-name="Ntilde" unicode="&#xd1;" horiz-adv-x="759" d="M389 870 C396 907 412 925 437 925 C502 925 530 860 594 860 C655 860 694 907 710 1001 C710 1001 690 1001 690 1001 C683 961 665 941 635 941 C570 941 542 1006 478 1006 C422 1006 385 960 369 870 C369 870 389 870 389 870 L389 870 Z M119 730 C119 730 145 730 145 730 C158 730 166 728 185 695 C185 695 186 695 186 695 C186 695 228 625 228 625 C228 625 140 133 140 133 C119 28 96 20 55 20 C55 20 32 20 32 20 C31 16 29 2 28 0 C28 0 116 0 116 0 C116 0 155 0 155 0 C155 0 242 0 242 0 C243 4 245 18 246 20 C246 20 223 20 223 20 C185 20 164 26 172 103 C172 103 253 581 253 581 C253 581 490 183 490 183 C490 183 598 0 598 0 C598 0 624 0 624 0 C624 0 748 654 748 654 C764 724 792 730 838 730 C838 730 849 730 849 730 C849 730 852 750 852 750 C852 750 766 750 766 750 C766 750 727 750 727 750 C727 750 640 750 640 750 C640 750 637 730 636 730 C636 730 647 730 647 730 C693 730 718 724 710 653 C710 653 634 212 634 212 C634 212 606 259 606 259 C606 259 312 750 312 750 C312 750 282 750 282 750 C282 750 250 750 250 750 C250 750 153 750 153 750 C153 750 122 750 122 750 C122 750 119 730 119 730 L119 730 Z " />
<glyph glyph-name="Ograve" unicode="&#xd2;" horiz-adv-x="889" d="M433 24 C272 24 212 142 253 375 C294 608 395 726 554 726 C727 726 794 608 753 375 C712 142 605 24 433 24 L433 24 Z M106 375 C61 119 167 -10 420 -10 C694 -10 855 119 900 375 C945 631 833 760 566 760 C306 760 151 631 106 375 L106 375 Z M515 981 C494 1024 481 1046 472 1046 C437 1046 410 1023 404 988 C402 978 419 960 453 929 C453 929 577 811 577 811 C577 811 594 826 594 826 C594 826 515 981 515 981 L515 981 Z " />
<glyph glyph-name="Oacute" unicode="&#xd3;" horiz-adv-x="889" d="M584 811 C584 811 749 929 749 929 C795 962 818 980 819 988 C825 1023 806 1046 771 1046 C764 1046 743 1024 706 981 C706 981 572 826 572 826 C572 826 584 811 584 811 L584 811 Z M433 24 C272 24 212 142 253 375 C294 608 395 726 554 726 C727 726 794 608 753 375 C712 142 605 24 433 24 L433 24 Z M106 375 C61 119 167 -10 420 -10 C694 -10 855 119 900 375 C945 631 833 760 566 760 C306 760 151 631 106 375 L106 375 Z " />
<glyph glyph-name="Ocircumflex" unicode="&#xd4;" horiz-adv-x="889" d="M433 24 C272 24 212 142 253 375 C294 608 395 726 554 726 C727 726 794 608 753 375 C712 142 605 24 433 24 L433 24 Z M106 375 C61 119 167 -10 420 -10 C694 -10 855 119 900 375 C945 631 833 760 566 760 C306 760 151 631 106 375 L106 375 Z M595 921 C595 921 713 805 713 805 C713 805 731 818 731 818 C731 818 648 996 648 996 C642 1009 630 1037 615 1037 C601 1037 579 1010 567 996 C567 996 422 818 422 818 C422 818 435 805 435 805 C435 805 595 921 595 921 L595 921 Z " />
<glyph glyph-name="Otilde" unicode="&#xd5;" horiz-adv-x="889" d="M447 870 C453 907 469 925 495 925 C559 925 587 860 651 860 C712 860 751 907 768 1001 C768 1001 748 1001 748 1001 C740 961 722 941 692 941 C628 941 600 1006 535 1006 C479 1006 442 960 426 870 C426 870 447 870 447 870 L447 870 Z M433 24 C272 24 212 142 253 375 C294 608 395 726 554 726 C727 726 794 608 753 375 C712 142 605 24 433 24 L433 24 Z M106 375 C61 119 167 -10 420 -10 C694 -10 855 119 900 375 C945 631 833 760 566 760 C306 760 151 631 106 375 L106 375 Z " />
<glyph glyph-name="Odieresis" unicode="&#xd6;" horiz-adv-x="889" d="M665 865 C715 865 744 890 753 939 C761 989 741 1014 691 1014 C642 1014 612 989 604 939 C595 890 616 865 665 865 L665 865 Z M504 865 C554 865 583 890 592 939 C600 989 580 1014 531 1014 C481 1014 452 989 443 939 C434 890 455 865 504 865 L504 865 Z M433 24 C272 24 212 142 253 375 C294 608 395 726 554 726 C727 726 794 608 753 375 C712 142 605 24 433 24 L433 24 Z M106 375 C61 119 167 -10 420 -10 C694 -10 855 119 900 375 C945 631 833 760 566 760 C306 760 151 631 106 375 L106 375 Z " />
<glyph glyph-name="Oslash" unicode="&#xd8;" horiz-adv-x="889" d="M55 -31 C55 -31 171 65 171 65 C225 15 308 -10 420 -10 C694 -10 855 119 900 375 C920 489 909 578 867 641 C867 641 985 739 985 739 C985 739 952 781 952 781 C952 781 832 682 832 682 C775 734 686 760 566 760 C306 760 151 631 106 375 C86 259 96 170 137 106 C137 106 22 11 22 11 C22 11 55 -31 55 -31 L55 -31 Z M433 24 C342 24 283 62 257 136 C257 136 761 553 761 553 C768 504 765 445 753 375 C712 142 605 24 433 24 L433 24 Z M244 194 C237 244 241 304 253 375 C294 608 395 726 554 726 C653 726 717 687 746 611 C746 611 244 194 244 194 L244 194 Z " />
<glyph glyph-name="Ugrave" unicode="&#xd9;" horiz-adv-x="764" d="M595 730 C595 730 606 730 606 730 C648 730 668 725 657 665 C657 665 575 198 575 198 C521 115 448 73 359 73 C270 73 234 122 251 220 C251 220 329 665 329 665 C343 744 344 750 344 750 C344 750 142 750 142 750 C142 750 139 730 138 730 C138 730 149 730 149 730 C191 730 212 725 201 665 C201 665 122 220 122 220 C96 67 153 -10 292 -10 C409 -10 500 41 565 141 C565 141 559 110 559 110 C559 110 540 0 540 0 C540 0 560 0 560 0 C560 0 751 55 751 55 C751 55 753 65 753 65 C684 61 679 63 688 110 C688 110 786 665 786 665 C799 744 800 750 801 750 C801 750 598 750 598 750 C598 750 595 730 595 730 L595 730 Z M459 981 C438 1024 425 1046 415 1046 C381 1046 354 1023 348 988 C346 978 363 960 397 929 C397 929 520 811 520 811 C520 811 537 826 537 826 C537 826 459 981 459 981 L459 981 Z " />
<glyph glyph-name="Uacute" unicode="&#xda;" horiz-adv-x="764" d="M528 811 C528 811 693 929 693 929 C738 962 761 980 763 988 C768 1023 749 1046 715 1046 C707 1046 687 1024 650 981 C650 981 516 826 516 826 C516 826 528 811 528 811 L528 811 Z M595 730 C595 730 606 730 606 730 C648 730 668 725 657 665 C657 665 575 198 575 198 C521 115 448 73 359 73 C270 73 234 122 251 220 C251 220 329 665 329 665 C343 744 344 750 344 750 C344 750 142 750 142 750 C142 750 139 730 138 730 C138 730 149 730 149 730 C191 730 212 725 201 665 C201 665 122 220 122 220 C96 67 153 -10 292 -10 C409 -10 500 41 565 141 C565 141 559 110 559 110 C559 110 540 0 540 0 C540 0 560 0 560 0 C560 0 751 55 751 55 C751 55 753 65 753 65 C684 61 679 63 688 110 C688 110 786 665 786 665 C799 744 800 750 801 750 C801 750 598 750 598 750 C598 750 595 730 595 730 L595 730 Z " />
<glyph glyph-name="Ucircumflex" unicode="&#xdb;" horiz-adv-x="764" d="M595 730 C595 730 606 730 606 730 C648 730 668 725 657 665 C657 665 575 198 575 198 C521 115 448 73 359 73 C270 73 234 122 251 220 C251 220 329 665 329 665 C343 744 344 750 344 750 C344 750 142 750 142 750 C142 750 139 730 138 730 C138 730 149 730 149 730 C191 730 212 725 201 665 C201 665 122 220 122 220 C96 67 153 -10 292 -10 C409 -10 500 41 565 141 C565 141 559 110 559 110 C559 110 540 0 540 0 C540 0 560 0 560 0 C560 0 751 55 751 55 C751 55 753 65 753 65 C684 61 679 63 688 110 C688 110 786 665 786 665 C799 744 800 750 801 750 C801 750 598 750 598 750 C598 750 595 730 595 730 L595 730 Z M539 921 C539 921 657 805 657 805 C657 805 675 818 675 818 C675 818 592 996 592 996 C586 1009 573 1037 559 1037 C545 1037 522 1010 511 996 C511 996 366 818 366 818 C366 818 379 805 379 805 C379 805 539 921 539 921 L539 921 Z " />
<glyph glyph-name="Udieresis" unicode="&#xdc;" horiz-adv-x="764" d="M609 865 C658 865 688 890 696 939 C705 989 685 1014 635 1014 C586 1014 556 989 548 939 C539 890 559 865 609 865 L609 865 Z M448 865 C498 865 527 890 536 939 C544 989 524 1014 474 1014 C425 1014 395 989 387 939 C378 890 399 865 448 865 L448 865 Z M595 730 C595 730 606 730 606 730 C648 730 668 725 657 665 C657 665 575 198 575 198 C521 115 448 73 359 73 C270 73 234 122 251 220 C251 220 329 665 329 665 C343 744 344 750 344 750 C344 750 142 750 142 750 C142 750 139 730 138 730 C138 730 149 730 149 730 C191 730 212 725 201 665 C201 665 122 220 122 220 C96 67 153 -10 292 -10 C409 -10 500 41 565 141 C565 141 559 110 559 110 C559 110 540 0 540 0 C540 0 560 0 560 0 C560 0 751 55 751 55 C751 55 753 65 753 65 C684 61 679 63 688 110 C688 110 786 665 786 665 C799 744 800 750 801 750 C801 750 598 750 598 750 C598 750 595 730 595 730 L595 730 Z " />
<glyph glyph-name="Yacute" unicode="&#xdd;" horiz-adv-x="760" d="M541 811 C541 811 706 929 706 929 C752 962 775 980 776 988 C782 1023 763 1046 729 1046 C721 1046 700 1024 663 981 C663 981 529 826 529 826 C529 826 541 811 541 811 L541 811 Z M395 750 C395 750 322 750 322 750 C322 750 170 750 170 750 C170 750 138 750 138 750 C137 750 134 730 134 730 C134 730 160 730 160 730 C173 730 184 722 238 610 C238 610 238 610 238 610 C238 610 381 316 381 316 C381 316 339 80 339 80 C329 24 307 20 266 20 C266 20 255 20 255 20 C254 16 252 2 251 0 C251 0 527 0 527 0 C528 4 530 18 531 20 C531 20 520 20 520 20 C479 20 458 24 468 80 C468 80 511 321 511 321 C511 321 740 636 740 636 C805 723 821 730 843 730 C843 730 867 730 867 730 C867 730 870 750 871 750 C871 750 822 750 822 750 C822 750 758 750 758 750 C758 750 684 750 684 750 C684 750 681 730 680 730 C680 730 701 730 701 730 C724 730 737 726 719 691 C719 691 504 362 504 362 C504 362 365 659 365 659 C337 725 348 730 373 730 C373 730 392 730 392 730 C393 740 395 742 395 750 C395 750 395 750 395 750 L395 750 Z " />
<glyph glyph-name="agrave" unicode="&#xe0;" horiz-adv-x="514" d="M546 123 C546 123 530 131 530 131 C517 95 495 77 465 77 C431 77 416 91 421 120 C421 120 462 353 462 353 C483 473 442 510 346 510 C214 510 131 420 121 360 C111 307 131 280 178 280 C216 280 240 311 245 337 C248 360 231 372 236 399 C240 425 268 463 310 463 C348 463 364 447 355 394 C355 394 334 278 334 278 C100 210 73 200 54 94 C41 25 73 -10 147 -10 C196 -10 239 8 303 77 C305 22 339 -5 404 -5 C468 -5 516 38 546 123 C546 123 546 123 546 123 L546 123 Z M294 731 C273 774 260 796 251 796 C217 796 190 773 184 738 C182 728 199 710 232 679 C232 679 356 561 356 561 C356 561 373 576 373 576 C373 576 294 731 294 731 L294 731 Z M329 250 C329 250 306 120 306 120 C305 114 304 108 303 102 C266 62 244 51 219 51 C181 51 165 70 172 106 C190 207 205 214 329 250 L329 250 Z " />
<glyph glyph-name="aacute" unicode="&#xe1;" horiz-adv-x="514" d="M363 561 C363 561 529 679 529 679 C574 712 597 730 598 738 C604 773 585 796 551 796 C543 796 523 774 485 731 C485 731 352 576 352 576 C352 576 363 561 363 561 L363 561 Z M546 123 C546 123 530 131 530 131 C517 95 495 77 465 77 C431 77 416 91 421 120 C421 120 462 353 462 353 C483 473 442 510 346 510 C214 510 131 420 121 360 C111 307 131 280 178 280 C216 280 240 311 245 337 C248 360 231 372 236 399 C240 425 268 463 310 463 C348 463 364 447 355 394 C355 394 334 278 334 278 C100 210 73 200 54 94 C41 25 73 -10 147 -10 C196 -10 239 8 303 77 C305 22 339 -5 404 -5 C468 -5 516 38 546 123 C546 123 546 123 546 123 L546 123 Z M329 250 C329 250 306 120 306 120 C305 114 304 108 303 102 C266 62 244 51 219 51 C181 51 165 70 172 106 C190 207 205 214 329 250 L329 250 Z " />
<glyph glyph-name="acircumflex" unicode="&#xe2;" horiz-adv-x="514" d="M546 123 C546 123 530 131 530 131 C517 95 495 77 465 77 C431 77 416 91 421 120 C421 120 462 353 462 353 C483 473 442 510 346 510 C214 510 131 420 121 360 C111 307 131 280 178 280 C216 280 240 311 245 337 C248 360 231 372 236 399 C240 425 268 463 310 463 C348 463 364 447 355 394 C355 394 334 278 334 278 C100 210 73 200 54 94 C41 25 73 -10 147 -10 C196 -10 239 8 303 77 C305 22 339 -5 404 -5 C468 -5 516 38 546 123 C546 123 546 123 546 123 L546 123 Z M375 671 C375 671 492 555 492 555 C492 555 510 568 510 568 C510 568 428 746 428 746 C422 759 409 787 395 787 C380 787 358 760 347 746 C347 746 202 568 202 568 C202 568 215 555 215 555 C215 555 375 671 375 671 L375 671 Z M329 250 C329 250 306 120 306 120 C305 114 304 108 303 102 C266 62 244 51 219 51 C181 51 165 70 172 106 C190 207 205 214 329 250 L329 250 Z " />
<glyph glyph-name="atilde" unicode="&#xe3;" horiz-adv-x="514" d="M226 620 C233 657 249 675 274 675 C339 675 367 610 431 610 C492 610 531 657 547 751 C547 751 527 751 527 751 C520 711 502 691 472 691 C407 691 379 756 315 756 C259 756 222 710 206 620 C206 620 226 620 226 620 L226 620 Z M546 123 C546 123 530 131 530 131 C517 95 495 77 465 77 C431 77 416 91 421 120 C421 120 462 353 462 353 C483 473 442 510 346 510 C214 510 131 420 121 360 C111 307 131 280 178 280 C216 280 240 311 245 337 C248 360 231 372 236 399 C240 425 268 463 310 463 C348 463 364 447 355 394 C355 394 334 278 334 278 C100 210 73 200 54 94 C41 25 73 -10 147 -10 C196 -10 239 8 303 77 C305 22 339 -5 404 -5 C468 -5 516 38 546 123 C546 123 546 123 546 123 L546 123 Z M329 250 C329 250 306 120 306 120 C305 114 304 108 303 102 C266 62 244 51 219 51 C181 51 165 70 172 106 C190 207 205 214 329 250 L329 250 Z " />
<glyph glyph-name="adieresis" unicode="&#xe4;" horiz-adv-x="514" d="M445 615 C494 615 524 640 532 689 C541 739 521 764 471 764 C422 764 392 739 383 689 C375 640 395 615 445 615 L445 615 Z M284 615 C333 615 363 640 372 689 C380 739 360 764 310 764 C261 764 231 739 223 689 C214 640 234 615 284 615 L284 615 Z M546 123 C546 123 530 131 530 131 C517 95 495 77 465 77 C431 77 416 91 421 120 C421 120 462 353 462 353 C483 473 442 510 346 510 C214 510 131 420 121 360 C111 307 131 280 178 280 C216 280 240 311 245 337 C248 360 231 372 236 399 C240 425 268 463 310 463 C348 463 364 447 355 394 C355 394 334 278 334 278 C100 210 73 200 54 94 C41 25 73 -10 147 -10 C196 -10 239 8 303 77 C305 22 339 -5 404 -5 C468 -5 516 38 546 123 C546 123 546 123 546 123 L546 123 Z M329 250 C329 250 306 120 306 120 C305 114 304 108 303 102 C266 62 244 51 219 51 C181 51 165 70 172 106 C190 207 205 214 329 250 L329 250 Z " />
<glyph glyph-name="aring" unicode="&#xe5;" horiz-adv-x="514" d="M359 587 C321 587 299 614 307 655 C315 700 340 723 383 723 C426 723 444 700 436 655 C428 614 398 587 359 587 L359 587 Z M273 655 C263 598 295 560 355 560 C413 560 460 598 470 655 C481 718 453 750 388 750 C322 750 284 718 273 655 L273 655 Z M546 123 C546 123 530 131 530 131 C517 95 495 77 465 77 C431 77 416 91 421 120 C421 120 462 353 462 353 C483 473 442 510 346 510 C214 510 131 420 121 360 C111 307 131 280 178 280 C216 280 240 311 245 337 C248 360 231 372 236 399 C240 425 268 463 310 463 C348 463 364 447 355 394 C355 394 334 278 334 278 C100 210 73 200 54 94 C41 25 73 -10 147 -10 C196 -10 239 8 303 77 C305 22 339 -5 404 -5 C468 -5 516 38 546 123 C546 123 546 123 546 123 L546 123 Z M329 250 C329 250 306 120 306 120 C305 114 304 108 303 102 C266 62 244 51 219 51 C181 51 165 70 172 106 C190 207 205 214 329 250 L329 250 Z " />
<glyph glyph-name="egrave" unicode="&#xe8;" horiz-adv-x="535" d="M331 731 C311 774 298 796 288 796 C254 796 227 773 221 738 C219 728 236 710 270 679 C270 679 393 561 393 561 C393 561 410 576 410 576 C410 576 331 731 331 731 L331 731 Z M218 340 C218 340 438 340 438 340 C438 340 565 340 565 340 C566 476 504 510 383 510 C210 510 106 415 73 228 C45 70 110 -10 267 -10 C382 -10 465 37 516 131 C516 131 502 136 502 136 C477 90 412 66 309 66 C214 66 178 136 202 275 C206 299 211 320 218 340 L218 340 Z M518 374 C525 374 532 374 540 374 C540 374 518 374 518 374 L518 374 Z M437 372 C437 372 227 367 227 367 C258 445 306 484 372 484 C412 484 433 460 437 372 L437 372 Z " />
<glyph glyph-name="eacute" unicode="&#xe9;" horiz-adv-x="535" d="M401 561 C401 561 566 679 566 679 C611 712 634 730 636 738 C641 773 622 796 588 796 C580 796 560 774 523 731 C523 731 389 576 389 576 C389 576 401 561 401 561 L401 561 Z M218 340 C218 340 438 340 438 340 C438 340 565 340 565 340 C566 476 504 510 383 510 C210 510 106 415 73 228 C45 70 110 -10 267 -10 C382 -10 465 37 516 131 C516 131 502 136 502 136 C477 90 412 66 309 66 C214 66 178 136 202 275 C206 299 211 320 218 340 L218 340 Z M518 374 C525 374 532 374 540 374 C540 374 518 374 518 374 L518 374 Z M437 372 C437 372 227 367 227 367 C258 445 306 484 372 484 C412 484 433 460 437 372 L437 372 Z " />
<glyph glyph-name="ecircumflex" unicode="&#xea;" horiz-adv-x="535" d="M412 671 C412 671 530 555 530 555 C530 555 547 568 547 568 C547 568 465 746 465 746 C459 759 446 787 432 787 C417 787 395 760 384 746 C384 746 239 568 239 568 C239 568 252 555 252 555 C252 555 412 671 412 671 L412 671 Z M218 340 C218 340 438 340 438 340 C438 340 565 340 565 340 C566 476 504 510 383 510 C210 510 106 415 73 228 C45 70 110 -10 267 -10 C382 -10 465 37 516 131 C516 131 502 136 502 136 C477 90 412 66 309 66 C214 66 178 136 202 275 C206 299 211 320 218 340 L218 340 Z M518 374 C525 374 532 374 540 374 C540 374 518 374 518 374 L518 374 Z M437 372 C437 372 227 367 227 367 C258 445 306 484 372 484 C412 484 433 460 437 372 L437 372 Z " />
<glyph glyph-name="edieresis" unicode="&#xeb;" horiz-adv-x="535" d="M482 615 C531 615 561 640 569 689 C578 739 558 764 508 764 C459 764 429 739 420 689 C412 640 432 615 482 615 L482 615 Z M321 615 C370 615 400 640 409 689 C417 739 397 764 347 764 C298 764 268 739 260 689 C251 640 272 615 321 615 L321 615 Z M218 340 C218 340 438 340 438 340 C438 340 565 340 565 340 C566 476 504 510 383 510 C210 510 106 415 73 228 C45 70 110 -10 267 -10 C382 -10 465 37 516 131 C516 131 502 136 502 136 C477 90 412 66 309 66 C214 66 178 136 202 275 C206 299 211 320 218 340 L218 340 Z M518 374 C525 374 532 374 540 374 C540 374 518 374 518 374 L518 374 Z M437 372 C437 372 227 367 227 367 C258 445 306 484 372 484 C412 484 433 460 437 372 L437 372 Z " />
<glyph glyph-name="igrave" unicode="&#xec;" horiz-adv-x="312" d="M51 0 C51 0 281 0 281 0 C281 0 284 20 284 20 C284 20 273 20 273 20 C242 20 226 21 228 35 C228 35 291 390 291 390 C291 390 310 500 310 500 C310 500 290 500 290 500 C290 500 129 445 129 445 C129 445 127 435 127 435 C180 438 184 436 176 390 C176 390 113 35 113 35 C111 21 95 20 65 20 C65 20 55 20 55 20 C54 16 52 2 51 0 L51 0 Z M203 731 C182 774 169 796 160 796 C126 796 98 773 93 738 C91 728 107 710 141 679 C141 679 265 561 265 561 C265 561 282 576 282 576 C282 576 203 731 203 731 L203 731 Z " />
<glyph glyph-name="iacute" unicode="&#xed;" horiz-adv-x="312" d="M51 0 C51 0 281 0 281 0 C281 0 284 20 284 20 C284 20 273 20 273 20 C242 20 226 21 228 35 C228 35 291 390 291 390 C291 390 310 500 310 500 C310 500 290 500 290 500 C290 500 129 445 129 445 C129 445 127 435 127 435 C180 438 184 436 176 390 C176 390 113 35 113 35 C111 21 95 20 65 20 C65 20 55 20 55 20 C54 16 52 2 51 0 L51 0 Z M203 731 C182 774 169 796 160 796 C126 796 98 773 93 738 C91 728 107 710 141 679 C141 679 265 561 265 561 C265 561 282 576 282 576 C282 576 203 731 203 731 L203 731 Z " />
<glyph glyph-name="icircumflex" unicode="&#xee;" horiz-adv-x="312" d="M51 0 C51 0 281 0 281 0 C281 0 284 20 284 20 C284 20 273 20 273 20 C242 20 226 21 228 35 C228 35 291 390 291 390 C291 390 310 500 310 500 C310 500 290 500 290 500 C290 500 129 445 129 445 C129 445 127 435 127 435 C180 438 184 436 176 390 C176 390 113 35 113 35 C111 21 95 20 65 20 C65 20 55 20 55 20 C54 16 52 2 51 0 L51 0 Z M284 672 C284 672 401 555 401 555 C401 555 419 568 419 568 C419 568 337 746 337 746 C331 759 318 787 304 787 C289 787 267 760 256 746 C256 746 111 568 111 568 C111 568 124 555 124 555 C124 555 284 672 284 672 L284 672 Z " />
<glyph glyph-name="idieresis" unicode="&#xef;" horiz-adv-x="312" d="M353 615 C403 615 432 640 441 689 C449 739 429 764 380 764 C331 764 301 739 292 689 C284 640 304 615 353 615 L353 615 Z M193 615 C242 615 272 640 280 689 C289 739 269 764 219 764 C170 764 140 739 132 689 C123 640 143 615 193 615 L193 615 Z M51 0 C51 0 281 0 281 0 C281 0 284 20 284 20 C284 20 273 20 273 20 C242 20 226 21 228 35 C228 35 291 390 291 390 C291 390 310 500 310 500 C310 500 290 500 290 500 C290 500 129 445 129 445 C129 445 127 435 127 435 C180 438 184 436 176 390 C176 390 113 35 113 35 C111 21 95 20 65 20 C65 20 55 20 55 20 C54 16 52 2 51 0 L51 0 Z " />
<glyph glyph-name="ntilde" unicode="&#xf1;" horiz-adv-x="600" d="M266 620 C273 657 289 675 314 675 C379 675 407 610 471 610 C532 610 571 657 587 751 C587 751 567 751 567 751 C560 711 542 691 512 691 C447 691 419 756 355 756 C299 756 262 710 246 620 C246 620 266 620 266 620 L266 620 Z M97 424 C97 424 108 428 108 428 C142 440 159 440 147 374 C147 374 147 370 147 370 C147 369 146 367 146 366 C146 366 146 366 146 366 C146 366 88 35 88 35 C86 21 70 20 40 20 C40 20 29 20 29 20 C28 10 26 8 26 0 C26 0 253 0 253 0 C254 4 256 18 257 20 C257 20 246 20 246 20 C216 20 201 21 203 35 C203 35 267 400 267 400 C284 493 285 500 285 500 C285 500 265 500 265 500 C265 500 100 444 100 444 C100 444 97 424 97 424 L97 424 Z M338 0 C338 0 566 0 566 0 C566 2 569 12 569 20 C569 20 559 20 559 20 C529 20 514 21 516 35 C516 35 563 300 563 300 C587 440 562 510 459 510 C390 510 325 471 266 393 C266 393 260 359 260 359 C294 403 333 426 376 426 C445 426 463 384 448 300 C448 300 401 35 401 35 C399 21 383 20 353 20 C353 20 342 20 342 20 C341 16 339 2 338 0 L338 0 Z " />
<glyph glyph-name="ograve" unicode="&#xf2;" horiz-adv-x="609" d="M302 25 C210 25 177 101 203 250 C230 399 289 475 382 475 C474 475 507 399 481 250 C455 101 395 25 302 25 L302 25 Z M76 250 C46 77 120 -10 296 -10 C473 -10 578 77 608 250 C639 423 565 510 388 510 C211 510 107 423 76 250 L76 250 Z M337 731 C316 774 303 796 293 796 C259 796 232 773 226 738 C224 728 241 710 275 679 C275 679 399 561 399 561 C399 561 415 576 415 576 C415 576 337 731 337 731 L337 731 Z " />
<glyph glyph-name="oacute" unicode="&#xf3;" horiz-adv-x="609" d="M406 561 C406 561 571 679 571 679 C616 712 639 730 641 738 C646 773 627 796 593 796 C585 796 565 774 528 731 C528 731 394 576 394 576 C394 576 406 561 406 561 L406 561 Z M302 25 C210 25 177 101 203 250 C230 399 289 475 382 475 C474 475 507 399 481 250 C455 101 395 25 302 25 L302 25 Z M76 250 C46 77 120 -10 296 -10 C473 -10 578 77 608 250 C639 423 565 510 388 510 C211 510 107 423 76 250 L76 250 Z " />
<glyph glyph-name="ocircumflex" unicode="&#xf4;" horiz-adv-x="609" d="M302 25 C210 25 177 101 203 250 C230 399 289 475 382 475 C474 475 507 399 481 250 C455 101 395 25 302 25 L302 25 Z M76 250 C46 77 120 -10 296 -10 C473 -10 578 77 608 250 C639 423 565 510 388 510 C211 510 107 423 76 250 L76 250 Z M417 671 C417 671 535 555 535 555 C535 555 553 568 553 568 C553 568 470 746 470 746 C464 759 451 787 437 787 C423 787 400 760 389 746 C389 746 244 568 244 568 C244 568 257 555 257 555 C257 555 417 671 417 671 L417 671 Z " />
<glyph glyph-name="otilde" unicode="&#xf5;" horiz-adv-x="609" d="M269 620 C275 657 291 675 317 675 C381 675 409 610 473 610 C534 610 573 657 590 751 C590 751 569 751 569 751 C562 711 544 691 514 691 C449 691 422 756 357 756 C301 756 264 710 248 620 C248 620 269 620 269 620 L269 620 Z M302 25 C210 25 177 101 203 250 C230 399 289 475 382 475 C474 475 507 399 481 250 C455 101 395 25 302 25 L302 25 Z M76 250 C46 77 120 -10 296 -10 C473 -10 578 77 608 250 C639 423 565 510 388 510 C211 510 107 423 76 250 L76 250 Z " />
<glyph glyph-name="odieresis" unicode="&#xf6;" horiz-adv-x="609" d="M487 615 C536 615 566 640 574 689 C583 739 563 764 513 764 C464 764 434 739 426 689 C417 640 437 615 487 615 L487 615 Z M326 615 C376 615 405 640 414 689 C422 739 402 764 353 764 C303 764 273 739 265 689 C256 640 277 615 326 615 L326 615 Z M302 25 C210 25 177 101 203 250 C230 399 289 475 382 475 C474 475 507 399 481 250 C455 101 395 25 302 25 L302 25 Z M76 250 C46 77 120 -10 296 -10 C473 -10 578 77 608 250 C639 423 565 510 388 510 C211 510 107 423 76 250 L76 250 Z " />
<glyph glyph-name="oslash" unicode="&#xf8;" horiz-adv-x="609" d="M42 -25 C42 -25 122 42 122 42 C160 7 218 -10 296 -10 C473 -10 578 77 608 250 C622 327 615 387 587 429 C587 429 666 495 666 495 C666 495 642 525 642 525 C642 525 563 459 563 459 C525 493 467 510 388 510 C211 510 107 423 76 250 C63 173 70 113 97 70 C97 70 19 5 19 5 C19 5 42 -25 42 -25 L42 -25 Z M302 25 C247 25 213 52 200 107 C200 107 489 348 489 348 C490 320 487 287 481 250 C455 101 395 25 302 25 L302 25 Z M195 152 C194 180 196 213 203 250 C230 399 289 475 382 475 C437 475 471 447 484 393 C484 393 195 152 195 152 L195 152 Z " />
<glyph glyph-name="ugrave" unicode="&#xf9;" horiz-adv-x="579" d="M417 480 C417 480 427 480 427 480 C451 480 463 479 461 465 C461 465 406 151 406 151 C373 97 329 70 277 70 C221 70 199 100 209 160 C209 160 263 465 263 465 C269 498 269 500 269 500 C269 500 108 500 108 500 C107 500 104 480 104 480 C104 480 115 480 115 480 C139 480 150 479 148 465 C148 465 94 160 94 160 C74 47 113 -10 209 -10 C286 -10 350 33 400 118 C400 118 395 90 395 90 C378 -3 377 -10 377 -10 C377 -10 397 -10 397 -10 C397 -10 558 29 558 29 C561 45 562 47 562 49 C562 49 551 46 551 46 C519 38 503 39 512 101 C512 101 576 465 576 465 C582 498 582 500 582 500 C582 500 420 500 420 500 C420 500 417 480 417 480 L417 480 Z M318 731 C297 774 284 796 275 796 C241 796 213 773 208 738 C206 728 222 710 256 679 C256 679 380 561 380 561 C380 561 397 576 397 576 C397 576 318 731 318 731 L318 731 Z " />
<glyph glyph-name="uacute" unicode="&#xfa;" horiz-adv-x="579" d="M387 561 C387 561 553 679 553 679 C598 712 621 730 622 738 C628 773 609 796 575 796 C567 796 547 774 509 731 C509 731 376 576 376 576 C376 576 387 561 387 561 L387 561 Z M417 480 C417 480 427 480 427 480 C451 480 463 479 461 465 C461 465 406 151 406 151 C373 97 329 70 277 70 C221 70 199 100 209 160 C209 160 263 465 263 465 C269 498 269 500 269 500 C269 500 108 500 108 500 C107 500 104 480 104 480 C104 480 115 480 115 480 C139 480 150 479 148 465 C148 465 94 160 94 160 C74 47 113 -10 209 -10 C286 -10 350 33 400 118 C400 118 395 90 395 90 C378 -3 377 -10 377 -10 C377 -10 397 -10 397 -10 C397 -10 558 29 558 29 C561 45 562 47 562 49 C562 49 551 46 551 46 C519 38 503 39 512 101 C512 101 576 465 576 465 C582 498 582 500 582 500 C582 500 420 500 420 500 C420 500 417 480 417 480 L417 480 Z " />
<glyph glyph-name="ucircumflex" unicode="&#xfb;" horiz-adv-x="579" d="M417 480 C417 480 427 480 427 480 C451 480 463 479 461 465 C461 465 406 151 406 151 C373 97 329 70 277 70 C221 70 199 100 209 160 C209 160 263 465 263 465 C269 498 269 500 269 500 C269 500 108 500 108 500 C107 500 104 480 104 480 C104 480 115 480 115 480 C139 480 150 479 148 465 C148 465 94 160 94 160 C74 47 113 -10 209 -10 C286 -10 350 33 400 118 C400 118 395 90 395 90 C378 -3 377 -10 377 -10 C377 -10 397 -10 397 -10 C397 -10 558 29 558 29 C561 45 562 47 562 49 C562 49 551 46 551 46 C519 38 503 39 512 101 C512 101 576 465 576 465 C582 498 582 500 582 500 C582 500 420 500 420 500 C420 500 417 480 417 480 L417 480 Z M399 671 C399 671 516 555 516 555 C516 555 534 568 534 568 C534 568 452 746 452 746 C446 759 433 787 419 787 C404 787 382 760 371 746 C371 746 226 568 226 568 C226 568 239 555 239 555 C239 555 399 671 399 671 L399 671 Z " />
<glyph glyph-name="udieresis" unicode="&#xfc;" horiz-adv-x="579" d="M469 615 C518 615 548 640 556 689 C565 739 545 764 495 764 C446 764 416 739 407 689 C399 640 419 615 469 615 L469 615 Z M308 615 C357 615 387 640 395 689 C404 739 384 764 334 764 C285 764 255 739 247 689 C238 640 258 615 308 615 L308 615 Z M417 480 C417 480 427 480 427 480 C451 480 463 479 461 465 C461 465 406 151 406 151 C373 97 329 70 277 70 C221 70 199 100 209 160 C209 160 263 465 263 465 C269 498 269 500 269 500 C269 500 108 500 108 500 C107 500 104 480 104 480 C104 480 115 480 115 480 C139 480 150 479 148 465 C148 465 94 160 94 160 C74 47 113 -10 209 -10 C286 -10 350 33 400 118 C400 118 395 90 395 90 C378 -3 377 -10 377 -10 C377 -10 397 -10 397 -10 C397 -10 558 29 558 29 C561 45 562 47 562 49 C562 49 551 46 551 46 C519 38 503 39 512 101 C512 101 576 465 576 465 C582 498 582 500 582 500 C582 500 420 500 420 500 C420 500 417 480 417 480 L417 480 Z " />
<glyph glyph-name="ydieresis" unicode="&#xff;" horiz-adv-x="571" d="M495 615 C545 615 574 640 583 689 C591 739 571 764 521 764 C472 764 442 739 434 689 C425 640 446 615 495 615 L495 615 Z M335 615 C384 615 414 640 422 689 C431 739 411 764 361 764 C312 764 282 739 273 689 C265 640 285 615 335 615 L335 615 Z M641 500 C641 500 589 500 589 500 C589 500 536 500 536 500 C536 500 469 500 469 500 C468 490 466 488 466 480 C466 480 487 480 487 480 C513 480 525 478 509 450 C509 450 509 450 509 450 C509 450 265 -10 265 -10 C265 -10 346 143 346 143 C346 143 264 458 264 458 C260 478 267 480 281 480 C281 480 302 480 302 480 C302 480 306 500 306 500 C306 500 253 500 253 500 C253 500 127 500 127 500 C127 500 87 500 87 500 C86 490 84 488 84 480 C84 480 109 480 109 480 C123 480 131 478 138 460 C138 460 265 -10 265 -10 C265 -10 196 -140 196 -140 C187 -157 176 -165 162 -165 C131 -165 134 -124 103 -124 C60 -124 35 -143 28 -182 C19 -229 38 -253 83 -253 C139 -253 182 -226 212 -171 C212 -171 299 -10 299 -10 C299 -10 562 453 562 453 C579 478 592 480 613 480 C613 480 637 480 637 480 C637 480 640 500 641 500 C641 500 641 500 641 500 L641 500 Z " />
<glyph glyph-name="Amacron" unicode="&#x100;" horiz-adv-x="770" d="M402 890 C402 890 702 890 702 890 C702 890 716 970 716 970 C716 970 416 970 416 970 C416 970 402 890 402 890 L402 890 Z M465 0 C465 0 559 0 559 0 C559 0 694 0 694 0 C694 0 754 0 754 0 C755 4 757 18 758 20 C758 20 734 20 734 20 C705 20 689 28 673 140 C673 140 672 140 672 140 C672 140 584 709 584 709 C584 709 575 770 575 770 C575 770 561 770 561 770 C531 735 496 715 456 709 C456 709 457 699 457 699 C457 699 457 699 457 699 C457 699 189 170 189 170 C189 170 189 170 189 170 C187 166 185 163 184 159 C184 159 180 152 180 152 C117 29 88 20 40 20 C40 20 18 20 18 20 C17 16 15 2 14 0 C14 0 103 0 103 0 C103 0 141 0 141 0 C141 0 257 0 257 0 C258 4 260 18 261 20 C261 20 240 20 240 20 C182 20 158 29 217 155 C217 155 275 273 275 273 C275 273 519 273 519 273 C519 273 542 119 542 119 C552 27 531 20 489 20 C489 20 468 20 468 20 C467 10 465 8 465 0 C465 0 465 0 465 0 L465 0 Z M291 306 C291 306 463 659 463 659 C463 659 515 306 515 306 C515 306 291 306 291 306 L291 306 Z " />
<glyph glyph-name="amacron" unicode="&#x101;" horiz-adv-x="514" d="M219 640 C219 640 519 640 519 640 C519 640 533 720 533 720 C533 720 233 720 233 720 C233 720 219 640 219 640 L219 640 Z M546 123 C546 123 530 131 530 131 C517 95 495 77 465 77 C431 77 416 91 421 120 C421 120 462 353 462 353 C483 473 442 510 346 510 C214 510 131 420 121 360 C111 307 131 280 178 280 C216 280 240 311 245 337 C248 360 231 372 236 399 C240 425 268 463 310 463 C348 463 364 447 355 394 C355 394 334 278 334 278 C100 210 73 200 54 94 C41 25 73 -10 147 -10 C196 -10 239 8 303 77 C305 22 339 -5 404 -5 C468 -5 516 38 546 123 C546 123 546 123 546 123 L546 123 Z M329 250 C329 250 306 120 306 120 C305 114 304 108 303 102 C266 62 244 51 219 51 C181 51 165 70 172 106 C190 207 205 214 329 250 L329 250 Z " />
<glyph glyph-name="Abreve" unicode="&#x102;" horiz-adv-x="770" d="M427 994 C421 901 461 854 546 854 C630 854 686 900 713 992 C713 992 689 995 689 995 C678 955 634 935 560 935 C485 935 449 956 452 998 C452 998 427 994 427 994 L427 994 Z M465 0 C465 0 559 0 559 0 C559 0 694 0 694 0 C694 0 754 0 754 0 C755 4 757 18 758 20 C758 20 734 20 734 20 C705 20 689 28 673 140 C673 140 672 140 672 140 C672 140 584 709 584 709 C584 709 575 770 575 770 C575 770 561 770 561 770 C531 735 496 715 456 709 C456 709 457 699 457 699 C457 699 457 699 457 699 C457 699 189 170 189 170 C189 170 189 170 189 170 C187 166 185 163 184 159 C184 159 180 152 180 152 C117 29 88 20 40 20 C40 20 18 20 18 20 C17 16 15 2 14 0 C14 0 103 0 103 0 C103 0 141 0 141 0 C141 0 257 0 257 0 C258 4 260 18 261 20 C261 20 240 20 240 20 C182 20 158 29 217 155 C217 155 275 273 275 273 C275 273 519 273 519 273 C519 273 542 119 542 119 C552 27 531 20 489 20 C489 20 468 20 468 20 C467 10 465 8 465 0 C465 0 465 0 465 0 L465 0 Z M291 306 C291 306 463 659 463 659 C463 659 515 306 515 306 C515 306 291 306 291 306 L291 306 Z " />
<glyph glyph-name="abreve" unicode="&#x103;" horiz-adv-x="514" d="M244 744 C238 651 278 604 362 604 C447 604 503 650 530 742 C530 742 506 745 506 745 C495 705 451 685 377 685 C302 685 266 706 269 748 C269 748 244 744 244 744 L244 744 Z M546 123 C546 123 530 131 530 131 C517 95 495 77 465 77 C431 77 416 91 421 120 C421 120 462 353 462 353 C483 473 442 510 346 510 C214 510 131 420 121 360 C111 307 131 280 178 280 C216 280 240 311 245 337 C248 360 231 372 236 399 C240 425 268 463 310 463 C348 463 364 447 355 394 C355 394 334 278 334 278 C100 210 73 200 54 94 C41 25 73 -10 147 -10 C196 -10 239 8 303 77 C305 22 339 -5 404 -5 C468 -5 516 38 546 123 C546 123 546 123 546 123 L546 123 Z M329 250 C329 250 306 120 306 120 C305 114 304 108 303 102 C266 62 244 51 219 51 C181 51 165 70 172 106 C190 207 205 214 329 250 L329 250 Z " />
<glyph glyph-name="Cacute" unicode="&#x106;" horiz-adv-x="763" d="M585 811 C585 811 750 929 750 929 C796 962 819 980 820 988 C826 1023 807 1046 773 1046 C765 1046 744 1024 707 981 C707 981 573 826 573 826 C573 826 585 811 585 811 L585 811 Z M818 540 C823 569 828 599 833 627 C833 627 834 629 835 633 C835 633 835 633 835 633 C835 633 835 633 835 633 C837 645 842 672 849 714 C849 714 834 714 834 714 C834 714 831 707 825 694 C823 687 800 695 760 720 C721 746 666 760 567 760 C307 760 153 631 108 375 C63 119 168 -10 421 -10 C514 -10 577 3 628 29 C628 29 629 29 629 29 C629 29 671 41 712 54 C718 55 719 48 716 33 C716 33 728 33 728 33 C734 62 739 92 744 121 C744 121 749 151 760 209 C760 209 745 209 745 209 C732 184 714 157 691 132 C613 58 550 20 439 20 C271 20 208 139 249 375 C290 610 400 728 575 728 C695 728 730 688 782 610 C793 587 800 563 803 540 C803 540 818 540 818 540 L818 540 Z " />
<glyph glyph-name="Ccircumflex" unicode="&#x108;" horiz-adv-x="763" d="M818 540 C823 569 828 599 833 627 C833 627 834 629 835 633 C835 633 835 633 835 633 C835 633 835 633 835 633 C837 645 842 672 849 714 C849 714 834 714 834 714 C834 714 831 707 825 694 C823 687 800 695 760 720 C721 746 666 760 567 760 C307 760 153 631 108 375 C63 119 168 -10 421 -10 C514 -10 577 3 628 29 C628 29 629 29 629 29 C629 29 671 41 712 54 C718 55 719 48 716 33 C716 33 728 33 728 33 C734 62 739 92 744 121 C744 121 749 151 760 209 C760 209 745 209 745 209 C732 184 714 157 691 132 C613 58 550 20 439 20 C271 20 208 139 249 375 C290 610 400 728 575 728 C695 728 730 688 782 610 C793 587 800 563 803 540 C803 540 818 540 818 540 L818 540 Z M596 921 C596 921 714 805 714 805 C714 805 732 818 732 818 C732 818 650 996 650 996 C643 1009 631 1037 616 1037 C602 1037 580 1010 569 996 C569 996 423 818 423 818 C423 818 436 805 436 805 C436 805 596 921 596 921 L596 921 Z " />
<glyph glyph-name="Cdotaccent" unicode="&#x10a;" horiz-adv-x="763" d="M586 865 C635 865 665 890 673 939 C682 989 662 1014 612 1014 C563 1014 533 989 524 939 C516 890 536 865 586 865 L586 865 Z M818 540 C823 569 828 599 833 627 C833 627 834 629 835 633 C835 633 835 633 835 633 C835 633 835 633 835 633 C837 645 842 672 849 714 C849 714 834 714 834 714 C834 714 831 707 825 694 C823 687 800 695 760 720 C721 746 666 760 567 760 C307 760 153 631 108 375 C63 119 168 -10 421 -10 C514 -10 577 3 628 29 C628 29 629 29 629 29 C629 29 671 41 712 54 C718 55 719 48 716 33 C716 33 728 33 728 33 C734 62 739 92 744 121 C744 121 749 151 760 209 C760 209 745 209 745 209 C732 184 714 157 691 132 C613 58 550 20 439 20 C271 20 208 139 249 375 C290 610 400 728 575 728 C695 728 730 688 782 610 C793 587 800 563 803 540 C803 540 818 540 818 540 L818 540 Z " />
<glyph glyph-name="cdotaccent" unicode="&#x10b;" horiz-adv-x="525" d="M426 615 C476 615 505 640 514 689 C522 739 502 764 452 764 C403 764 373 739 365 689 C356 640 377 615 426 615 L426 615 Z M518 128 C518 128 504 135 504 135 C472 85 422 60 353 60 C229 60 179 133 205 277 C229 415 293 484 397 484 C428 484 449 457 459 405 C467 367 483 348 507 348 C559 348 582 367 574 405 C561 475 506 510 408 510 C219 510 107 417 75 234 C46 72 121 -10 300 -10 C388 -10 461 36 518 128 L518 128 Z " />
<glyph glyph-name="Ccaron" unicode="&#x10c;" horiz-adv-x="763" d="M818 540 C823 569 828 599 833 627 C833 627 834 629 835 633 C835 633 835 633 835 633 C835 633 835 633 835 633 C837 645 842 672 849 714 C849 714 834 714 834 714 C834 714 831 707 825 694 C823 687 800 695 760 720 C721 746 666 760 567 760 C307 760 153 631 108 375 C63 119 168 -10 421 -10 C514 -10 577 3 628 29 C628 29 629 29 629 29 C629 29 671 41 712 54 C718 55 719 48 716 33 C716 33 728 33 728 33 C734 62 739 92 744 121 C744 121 749 151 760 209 C760 209 745 209 745 209 C732 184 714 157 691 132 C613 58 550 20 439 20 C271 20 208 139 249 375 C290 610 400 728 575 728 C695 728 730 688 782 610 C793 587 800 563 803 540 C803 540 818 540 818 540 L818 540 Z M597 928 C597 928 756 1045 756 1045 C756 1045 770 1032 770 1032 C770 1032 625 854 625 854 C614 841 591 813 577 813 C562 813 550 840 543 854 C543 854 461 1032 461 1032 C461 1032 479 1045 479 1045 C479 1045 597 928 597 928 L597 928 Z " />
<glyph glyph-name="ccaron" unicode="&#x10d;" horiz-adv-x="525" d="M518 128 C518 128 504 135 504 135 C472 85 422 60 353 60 C229 60 179 133 205 277 C229 415 293 484 397 484 C428 484 449 457 459 405 C467 367 483 348 507 348 C559 348 582 367 574 405 C561 475 506 510 408 510 C219 510 107 417 75 234 C46 72 121 -10 300 -10 C388 -10 461 36 518 128 L518 128 Z M438 678 C438 678 597 795 597 795 C597 795 610 782 610 782 C610 782 465 604 465 604 C454 591 431 563 417 563 C402 563 390 590 384 604 C384 604 301 782 301 782 C301 782 319 795 319 795 C319 795 438 678 438 678 L438 678 Z " />
<glyph glyph-name="Dcaron" unicode="&#x10e;" horiz-adv-x="862" d="M45 0 C45 0 119 0 119 0 C119 0 247 0 247 0 C247 0 327 0 327 0 C646 0 825 101 874 375 C917 624 821 750 499 750 C499 750 379 750 379 750 C379 750 375 724 375 724 C375 724 393 725 393 725 C686 725 773 608 732 375 C687 120 544 26 293 26 C255 26 255 41 260 71 C260 76 261 80 262 85 C262 85 262 85 262 85 C262 85 371 703 371 703 C378 746 379 750 379 750 C379 750 251 750 251 750 C251 750 177 750 177 750 C177 750 174 730 173 730 C173 730 184 730 184 730 C226 730 247 725 236 665 C236 665 236 665 236 665 C236 665 133 82 133 82 C122 25 100 20 59 20 C59 20 48 20 48 20 C48 18 48 8 45 0 C45 0 45 0 45 0 L45 0 Z M556 928 C556 928 715 1045 715 1045 C715 1045 729 1032 729 1032 C729 1032 584 854 584 854 C573 841 550 813 536 813 C521 813 509 840 502 854 C502 854 420 1032 420 1032 C420 1032 438 1045 438 1045 C438 1045 556 928 556 928 L556 928 Z " />
<glyph glyph-name="dcaron" unicode="&#x10f;" horiz-adv-x="574" d="M460 686 C460 686 471 689 471 689 C505 698 521 698 511 638 C511 638 511 638 511 638 C511 638 484 485 484 485 C453 501 411 510 357 510 C190 510 113 422 83 249 C53 80 107 -5 243 -5 C312 -5 367 17 409 61 C397 -4 396 -10 397 -10 C397 -10 417 -10 417 -10 C417 -10 578 29 578 29 C581 45 582 47 582 49 C582 49 571 46 571 46 C539 39 523 41 533 112 C533 112 631 665 631 665 C644 744 645 750 646 750 C646 750 625 750 625 750 C625 750 463 706 463 706 C461 695 460 694 460 686 L460 686 Z M737 636 C763 676 778 711 784 740 C786 754 769 757 735 757 C709 757 691 699 680 649 C680 649 653 536 653 536 C653 536 672 533 672 533 C672 533 737 636 737 636 L737 636 Z M416 101 C379 63 340 43 300 43 C209 43 178 123 206 281 C229 411 274 477 364 477 C413 477 450 445 469 397 C469 397 418 110 418 110 C417 107 417 104 416 101 C416 101 416 101 416 101 L416 101 Z " />
<glyph glyph-name="Emacron" unicode="&#x112;" horiz-adv-x="644" d="M345 890 C345 890 645 890 645 890 C645 890 659 970 659 970 C659 970 359 970 359 970 C359 970 345 890 345 890 L345 890 Z M657 635 C657 635 677 635 677 635 C681 674 685 711 689 750 C689 750 569 750 569 750 C569 750 379 750 379 750 C379 750 251 750 251 750 C251 750 177 750 177 750 C177 750 174 730 173 730 C173 730 184 730 184 730 C226 730 247 725 236 665 C236 665 236 665 236 665 C236 665 133 82 133 82 C122 25 100 20 59 20 C59 20 48 20 48 20 C48 18 48 8 45 0 C45 0 119 0 119 0 C119 0 247 0 247 0 C247 0 255 47 255 47 C256 52 257 58 258 64 C258 64 252 27 252 27 C252 27 247 0 247 0 C247 0 462 0 462 0 C462 0 582 0 582 0 C594 39 605 77 619 115 C619 115 599 115 599 115 C599 115 595 104 595 104 C579 53 564 27 471 27 C471 27 332 27 332 27 C259 27 255 42 259 71 C260 75 261 80 262 85 C262 85 262 85 262 85 C262 85 318 401 318 401 C318 401 315 385 315 385 C315 385 445 385 445 385 C538 385 540 356 529 297 C529 297 528 287 528 287 C528 287 548 287 548 287 C553 319 559 352 565 385 C565 385 565 385 565 385 C565 385 569 408 569 408 C575 443 582 479 588 514 C588 514 568 514 568 514 C568 514 566 503 566 503 C556 445 543 416 450 416 C450 416 320 416 320 416 C320 416 371 703 371 703 C372 711 373 717 374 723 C374 723 566 723 566 723 C683 723 664 694 657 635 L657 635 Z " />
<glyph glyph-name="emacron" unicode="&#x113;" horiz-adv-x="535" d="M256 640 C256 640 556 640 556 640 C556 640 570 720 570 720 C570 720 270 720 270 720 C270 720 256 640 256 640 L256 640 Z M218 340 C218 340 438 340 438 340 C438 340 565 340 565 340 C566 476 504 510 383 510 C210 510 106 415 73 228 C45 70 110 -10 267 -10 C382 -10 465 37 516 131 C516 131 502 136 502 136 C477 90 412 66 309 66 C214 66 178 136 202 275 C206 299 211 320 218 340 L218 340 Z M518 374 C525 374 532 374 540 374 C540 374 518 374 518 374 L518 374 Z M437 372 C437 372 227 367 227 367 C258 445 306 484 372 484 C412 484 433 460 437 372 L437 372 Z " />
<glyph glyph-name="Ebreve" unicode="&#x114;" horiz-adv-x="644" d="M370 994 C364 901 404 854 488 854 C573 854 629 900 656 992 C656 992 632 995 632 995 C621 955 577 935 503 935 C428 935 392 956 395 998 C395 998 370 994 370 994 L370 994 Z M657 635 C657 635 677 635 677 635 C681 674 685 711 689 750 C689 750 569 750 569 750 C569 750 379 750 379 750 C379 750 251 750 251 750 C251 750 177 750 177 750 C177 750 174 730 173 730 C173 730 184 730 184 730 C226 730 247 725 236 665 C236 665 236 665 236 665 C236 665 133 82 133 82 C122 25 100 20 59 20 C59 20 48 20 48 20 C48 18 48 8 45 0 C45 0 119 0 119 0 C119 0 247 0 247 0 C247 0 255 47 255 47 C256 52 257 58 258 64 C258 64 252 27 252 27 C252 27 247 0 247 0 C247 0 462 0 462 0 C462 0 582 0 582 0 C594 39 605 77 619 115 C619 115 599 115 599 115 C599 115 595 104 595 104 C579 53 564 27 471 27 C471 27 332 27 332 27 C259 27 255 42 259 71 C260 75 261 80 262 85 C262 85 262 85 262 85 C262 85 318 401 318 401 C318 401 315 385 315 385 C315 385 445 385 445 385 C538 385 540 356 529 297 C529 297 528 287 528 287 C528 287 548 287 548 287 C553 319 559 352 565 385 C565 385 565 385 565 385 C565 385 569 408 569 408 C575 443 582 479 588 514 C588 514 568 514 568 514 C568 514 566 503 566 503 C556 445 543 416 450 416 C450 416 320 416 320 416 C320 416 371 703 371 703 C372 711 373 717 374 723 C374 723 566 723 566 723 C683 723 664 694 657 635 L657 635 Z " />
<glyph glyph-name="ebreve" unicode="&#x115;" horiz-adv-x="535" d="M281 744 C276 651 316 604 400 604 C484 604 540 650 567 742 C567 742 543 745 543 745 C532 705 488 685 414 685 C339 685 303 706 306 748 C306 748 281 744 281 744 L281 744 Z M218 340 C218 340 438 340 438 340 C438 340 565 340 565 340 C566 476 504 510 383 510 C210 510 106 415 73 228 C45 70 110 -10 267 -10 C382 -10 465 37 516 131 C516 131 502 136 502 136 C477 90 412 66 309 66 C214 66 178 136 202 275 C206 299 211 320 218 340 L218 340 Z M518 374 C525 374 532 374 540 374 C540 374 518 374 518 374 L518 374 Z M437 372 C437 372 227 367 227 367 C258 445 306 484 372 484 C412 484 433 460 437 372 L437 372 Z " />
<glyph glyph-name="Edotaccent" unicode="&#x116;" horiz-adv-x="644" d="M490 865 C540 865 569 890 578 939 C586 989 566 1014 517 1014 C467 1014 438 989 429 939 C420 890 441 865 490 865 L490 865 Z M657 635 C657 635 677 635 677 635 C681 674 685 711 689 750 C689 750 569 750 569 750 C569 750 379 750 379 750 C379 750 251 750 251 750 C251 750 177 750 177 750 C177 750 174 730 173 730 C173 730 184 730 184 730 C226 730 247 725 236 665 C236 665 236 665 236 665 C236 665 133 82 133 82 C122 25 100 20 59 20 C59 20 48 20 48 20 C48 18 48 8 45 0 C45 0 119 0 119 0 C119 0 247 0 247 0 C247 0 255 47 255 47 C256 52 257 58 258 64 C258 64 252 27 252 27 C252 27 247 0 247 0 C247 0 462 0 462 0 C462 0 582 0 582 0 C594 39 605 77 619 115 C619 115 599 115 599 115 C599 115 595 104 595 104 C579 53 564 27 471 27 C471 27 332 27 332 27 C259 27 255 42 259 71 C260 75 261 80 262 85 C262 85 262 85 262 85 C262 85 318 401 318 401 C318 401 315 385 315 385 C315 385 445 385 445 385 C538 385 540 356 529 297 C529 297 528 287 528 287 C528 287 548 287 548 287 C553 319 559 352 565 385 C565 385 565 385 565 385 C565 385 569 408 569 408 C575 443 582 479 588 514 C588 514 568 514 568 514 C568 514 566 503 566 503 C556 445 543 416 450 416 C450 416 320 416 320 416 C320 416 371 703 371 703 C372 711 373 717 374 723 C374 723 566 723 566 723 C683 723 664 694 657 635 L657 635 Z " />
<glyph glyph-name="edotaccent" unicode="&#x117;" horiz-adv-x="535" d="M401 615 C451 615 480 640 489 689 C497 739 477 764 428 764 C379 764 349 739 340 689 C332 640 352 615 401 615 L401 615 Z M218 340 C218 340 438 340 438 340 C438 340 565 340 565 340 C566 476 504 510 383 510 C210 510 106 415 73 228 C45 70 110 -10 267 -10 C382 -10 465 37 516 131 C516 131 502 136 502 136 C477 90 412 66 309 66 C214 66 178 136 202 275 C206 299 211 320 218 340 L218 340 Z M518 374 C525 374 532 374 540 374 C540 374 518 374 518 374 L518 374 Z M437 372 C437 372 227 367 227 367 C258 445 306 484 372 484 C412 484 433 460 437 372 L437 372 Z " />
<glyph glyph-name="Ecaron" unicode="&#x11a;" horiz-adv-x="644" d="M657 635 C657 635 677 635 677 635 C681 674 685 711 689 750 C689 750 569 750 569 750 C569 750 379 750 379 750 C379 750 251 750 251 750 C251 750 177 750 177 750 C177 750 174 730 173 730 C173 730 184 730 184 730 C226 730 247 725 236 665 C236 665 236 665 236 665 C236 665 133 82 133 82 C122 25 100 20 59 20 C59 20 48 20 48 20 C48 18 48 8 45 0 C45 0 119 0 119 0 C119 0 247 0 247 0 C247 0 255 47 255 47 C256 52 257 58 258 64 C258 64 252 27 252 27 C252 27 247 0 247 0 C247 0 462 0 462 0 C462 0 582 0 582 0 C594 39 605 77 619 115 C619 115 599 115 599 115 C599 115 595 104 595 104 C579 53 564 27 471 27 C471 27 332 27 332 27 C259 27 255 42 259 71 C260 75 261 80 262 85 C262 85 262 85 262 85 C262 85 318 401 318 401 C318 401 315 385 315 385 C315 385 445 385 445 385 C538 385 540 356 529 297 C529 297 528 287 528 287 C528 287 548 287 548 287 C553 319 559 352 565 385 C565 385 565 385 565 385 C565 385 569 408 569 408 C575 443 582 479 588 514 C588 514 568 514 568 514 C568 514 566 503 566 503 C556 445 543 416 450 416 C450 416 320 416 320 416 C320 416 371 703 371 703 C372 711 373 717 374 723 C374 723 566 723 566 723 C683 723 664 694 657 635 L657 635 Z M502 928 C502 928 661 1045 661 1045 C661 1045 674 1032 674 1032 C674 1032 529 854 529 854 C518 841 495 813 481 813 C466 813 454 840 448 854 C448 854 365 1032 365 1032 C365 1032 383 1045 383 1045 C383 1045 502 928 502 928 L502 928 Z " />
<glyph glyph-name="ecaron" unicode="&#x11b;" horiz-adv-x="535" d="M413 678 C413 678 572 795 572 795 C572 795 585 782 585 782 C585 782 440 604 440 604 C429 591 406 563 392 563 C377 563 365 590 359 604 C359 604 277 782 277 782 C277 782 294 795 294 795 C294 795 413 678 413 678 L413 678 Z M218 340 C218 340 438 340 438 340 C438 340 565 340 565 340 C566 476 504 510 383 510 C210 510 106 415 73 228 C45 70 110 -10 267 -10 C382 -10 465 37 516 131 C516 131 502 136 502 136 C477 90 412 66 309 66 C214 66 178 136 202 275 C206 299 211 320 218 340 L218 340 Z M518 374 C525 374 532 374 540 374 C540 374 518 374 518 374 L518 374 Z M437 372 C437 372 227 367 227 367 C258 445 306 484 372 484 C412 484 433 460 437 372 L437 372 Z " />
<glyph glyph-name="Gcircumflex" unicode="&#x11c;" horiz-adv-x="822" d="M818 540 C823 569 828 599 833 627 C833 627 834 629 835 633 C835 633 835 633 835 633 C835 633 835 633 835 633 C837 645 842 672 849 714 C849 714 834 714 834 714 C834 714 831 707 825 694 C823 687 800 695 760 720 C721 746 666 760 567 760 C307 760 153 631 108 375 C63 119 172 -10 432 -10 C601 -10 680 13 785 58 C785 58 780 77 780 77 C756 67 732 57 708 50 C708 50 743 245 743 245 C752 301 769 305 802 305 C802 305 813 305 813 305 C814 315 816 317 816 325 C816 325 558 325 558 325 C558 325 555 305 554 305 C554 305 565 305 565 305 C605 305 624 301 614 245 C614 245 578 26 578 26 C578 26 578 26 578 26 C578 26 597 144 597 144 C583 62 533 21 449 21 C275 21 208 140 249 375 C290 610 400 728 575 728 C695 728 730 688 782 610 C793 587 800 563 803 540 C803 540 818 540 818 540 L818 540 Z M596 921 C596 921 714 805 714 805 C714 805 732 818 732 818 C732 818 650 996 650 996 C643 1009 631 1037 616 1037 C602 1037 580 1010 569 996 C569 996 423 818 423 818 C423 818 436 805 436 805 C436 805 596 921 596 921 L596 921 Z " />
<glyph glyph-name="Gbreve" unicode="&#x11e;" horiz-adv-x="822" d="M465 994 C460 901 500 854 584 854 C668 854 724 900 751 992 C751 992 728 995 728 995 C716 955 672 935 598 935 C524 935 488 956 490 998 C490 998 465 994 465 994 L465 994 Z M818 540 C823 569 828 599 833 627 C833 627 834 629 835 633 C835 633 835 633 835 633 C835 633 835 633 835 633 C837 645 842 672 849 714 C849 714 834 714 834 714 C834 714 831 707 825 694 C823 687 800 695 760 720 C721 746 666 760 567 760 C307 760 153 631 108 375 C63 119 172 -10 432 -10 C601 -10 680 13 785 58 C785 58 780 77 780 77 C756 67 732 57 708 50 C708 50 743 245 743 245 C752 301 769 305 802 305 C802 305 813 305 813 305 C814 315 816 317 816 325 C816 325 558 325 558 325 C558 325 555 305 554 305 C554 305 565 305 565 305 C605 305 624 301 614 245 C614 245 578 26 578 26 C578 26 578 26 578 26 C578 26 597 144 597 144 C583 62 533 21 449 21 C275 21 208 140 249 375 C290 610 400 728 575 728 C695 728 730 688 782 610 C793 587 800 563 803 540 C803 540 818 540 818 540 L818 540 Z " />
<glyph glyph-name="gbreve" unicode="&#x11f;" horiz-adv-x="520" d="M239 744 C234 651 274 604 358 604 C442 604 498 650 525 742 C525 742 501 745 501 745 C490 705 446 685 372 685 C298 685 262 706 264 748 C264 748 239 744 239 744 L239 744 Z M244 350 C259 438 290 483 336 483 C382 483 397 438 382 350 C366 260 335 215 289 215 C243 215 228 260 244 350 L244 350 Z M151 -15 C157 -15 163 -15 169 -15 C169 -15 284 -15 284 -15 C366 -15 383 -39 375 -86 C361 -164 313 -204 233 -204 C143 -204 106 -159 122 -70 C127 -44 136 -26 151 -15 C151 -15 151 -15 151 -15 L151 -15 Z M120 -9 C62 -26 29 -55 22 -97 C6 -185 73 -230 222 -230 C370 -230 455 -172 475 -59 C493 46 465 99 316 99 C316 99 196 99 196 99 C156 100 138 112 142 137 C148 171 196 188 284 188 C406 188 478 242 497 350 C501 371 501 390 499 408 C521 434 541 447 561 447 C563 447 562 440 560 426 C555 399 571 386 606 386 C637 386 656 404 663 440 C669 477 654 495 617 495 C568 495 527 474 494 433 C477 484 426 510 341 510 C219 510 148 456 129 350 C116 276 136 227 190 204 C118 189 77 155 68 102 C57 42 75 5 120 -9 C120 -9 120 -9 120 -9 L120 -9 Z " />
<glyph glyph-name="Gdotaccent" unicode="&#x120;" horiz-adv-x="822" d="M586 865 C635 865 665 890 673 939 C682 989 662 1014 612 1014 C563 1014 533 989 524 939 C516 890 536 865 586 865 L586 865 Z M818 540 C823 569 828 599 833 627 C833 627 834 629 835 633 C835 633 835 633 835 633 C835 633 835 633 835 633 C837 645 842 672 849 714 C849 714 834 714 834 714 C834 714 831 707 825 694 C823 687 800 695 760 720 C721 746 666 760 567 760 C307 760 153 631 108 375 C63 119 172 -10 432 -10 C601 -10 680 13 785 58 C785 58 780 77 780 77 C756 67 732 57 708 50 C708 50 743 245 743 245 C752 301 769 305 802 305 C802 305 813 305 813 305 C814 315 816 317 816 325 C816 325 558 325 558 325 C558 325 555 305 554 305 C554 305 565 305 565 305 C605 305 624 301 614 245 C614 245 578 26 578 26 C578 26 578 26 578 26 C578 26 597 144 597 144 C583 62 533 21 449 21 C275 21 208 140 249 375 C290 610 400 728 575 728 C695 728 730 688 782 610 C793 587 800 563 803 540 C803 540 818 540 818 540 L818 540 Z " />
<glyph glyph-name="gdotaccent" unicode="&#x121;" horiz-adv-x="520" d="M360 615 C409 615 439 640 447 689 C456 739 436 764 386 764 C337 764 307 739 298 689 C290 640 310 615 360 615 L360 615 Z M244 350 C259 438 290 483 336 483 C382 483 397 438 382 350 C366 260 335 215 289 215 C243 215 228 260 244 350 L244 350 Z M151 -15 C157 -15 163 -15 169 -15 C169 -15 284 -15 284 -15 C366 -15 383 -39 375 -86 C361 -164 313 -204 233 -204 C143 -204 106 -159 122 -70 C127 -44 136 -26 151 -15 C151 -15 151 -15 151 -15 L151 -15 Z M120 -9 C62 -26 29 -55 22 -97 C6 -185 73 -230 222 -230 C370 -230 455 -172 475 -59 C493 46 465 99 316 99 C316 99 196 99 196 99 C156 100 138 112 142 137 C148 171 196 188 284 188 C406 188 478 242 497 350 C501 371 501 390 499 408 C521 434 541 447 561 447 C563 447 562 440 560 426 C555 399 571 386 606 386 C637 386 656 404 663 440 C669 477 654 495 617 495 C568 495 527 474 494 433 C477 484 426 510 341 510 C219 510 148 456 129 350 C116 276 136 227 190 204 C118 189 77 155 68 102 C57 42 75 5 120 -9 C120 -9 120 -9 120 -9 L120 -9 Z " />
<glyph glyph-name="Hcircumflex" unicode="&#x124;" horiz-adv-x="850" d="M931 750 C931 750 655 750 655 750 C654 740 652 738 652 730 C652 730 662 730 662 730 C704 730 725 726 715 670 C715 670 667 400 667 400 C667 400 353 400 353 400 C353 400 401 670 401 670 C411 726 433 730 475 730 C475 730 486 730 486 730 C486 730 489 750 489 750 C489 750 213 750 213 750 C213 750 210 730 209 730 C209 730 220 730 220 730 C262 730 283 726 273 670 C273 670 169 80 169 80 C159 24 137 20 95 20 C95 20 84 20 84 20 C84 18 84 8 81 0 C81 0 357 0 357 0 C357 2 360 12 360 20 C360 20 350 20 350 20 C308 20 287 24 297 80 C297 80 347 366 347 366 C347 366 661 366 661 366 C661 366 611 80 611 80 C601 24 579 20 537 20 C537 20 526 20 526 20 C526 18 526 8 523 0 C523 0 799 0 799 0 C800 4 802 18 803 20 C803 20 792 20 792 20 C750 20 729 24 739 80 C739 80 843 670 843 670 C853 726 875 730 917 730 C917 730 928 730 928 730 C928 730 931 750 931 750 L931 750 Z M603 921 C603 921 721 805 721 805 C721 805 738 818 738 818 C738 818 656 996 656 996 C650 1009 637 1037 623 1037 C608 1037 586 1010 575 996 C575 996 430 818 430 818 C430 818 443 805 443 805 C443 805 603 921 603 921 L603 921 Z " />
<glyph glyph-name="Itilde" unicode="&#x128;" horiz-adv-x="360" d="M185 870 C192 907 208 925 233 925 C298 925 326 860 390 860 C451 860 490 907 506 1001 C506 1001 486 1001 486 1001 C479 961 461 941 431 941 C366 941 338 1006 274 1006 C217 1006 180 960 165 870 C165 870 185 870 185 870 L185 870 Z M441 750 C441 750 165 750 165 750 C165 750 162 730 161 730 C161 730 172 730 172 730 C214 730 234 726 225 670 C225 670 121 80 121 80 C110 24 88 20 47 20 C47 20 36 20 36 20 C35 10 33 8 33 0 C33 0 309 0 309 0 C309 0 312 20 312 20 C312 20 302 20 302 20 C260 20 239 24 249 80 C249 80 353 670 353 670 C363 726 385 730 427 730 C427 730 437 730 437 730 C438 730 441 750 441 750 L441 750 Z " />
<glyph glyph-name="itilde" unicode="&#x129;" horiz-adv-x="312" d="M135 620 C142 657 158 675 183 675 C248 675 276 610 340 610 C401 610 440 657 456 751 C456 751 436 751 436 751 C429 711 411 691 381 691 C316 691 288 756 224 756 C168 756 131 710 115 620 C115 620 135 620 135 620 L135 620 Z M51 0 C51 0 281 0 281 0 C281 0 284 20 284 20 C284 20 273 20 273 20 C242 20 226 21 228 35 C228 35 291 390 291 390 C291 390 310 500 310 500 C310 500 290 500 290 500 C290 500 129 445 129 445 C129 445 127 435 127 435 C180 438 184 436 176 390 C176 390 113 35 113 35 C111 21 95 20 65 20 C65 20 55 20 55 20 C54 16 52 2 51 0 L51 0 Z " />
<glyph glyph-name="Imacron" unicode="&#x12a;" horiz-adv-x="360" d="M178 890 C178 890 478 890 478 890 C478 890 492 970 492 970 C492 970 192 970 192 970 C192 970 178 890 178 890 L178 890 Z M441 750 C441 750 165 750 165 750 C165 750 162 730 161 730 C161 730 172 730 172 730 C214 730 234 726 225 670 C225 670 121 80 121 80 C110 24 88 20 47 20 C47 20 36 20 36 20 C35 10 33 8 33 0 C33 0 309 0 309 0 C309 0 312 20 312 20 C312 20 302 20 302 20 C260 20 239 24 249 80 C249 80 353 670 353 670 C363 726 385 730 427 730 C427 730 437 730 437 730 C438 730 441 750 441 750 L441 750 Z " />
<glyph glyph-name="imacron" unicode="&#x12b;" horiz-adv-x="312" d="M128 640 C128 640 428 640 428 640 C428 640 442 720 442 720 C442 720 142 720 142 720 C142 720 128 640 128 640 L128 640 Z M51 0 C51 0 281 0 281 0 C281 0 284 20 284 20 C284 20 273 20 273 20 C242 20 226 21 228 35 C228 35 291 390 291 390 C291 390 310 500 310 500 C310 500 290 500 290 500 C290 500 129 445 129 445 C129 445 127 435 127 435 C180 438 184 436 176 390 C176 390 113 35 113 35 C111 21 95 20 65 20 C65 20 55 20 55 20 C54 16 52 2 51 0 L51 0 Z " />
<glyph glyph-name="Ibreve" unicode="&#x12c;" horiz-adv-x="360" d="M203 994 C197 901 237 854 321 854 C405 854 461 900 489 992 C489 992 465 995 465 995 C454 955 410 935 336 935 C261 935 225 956 228 998 C228 998 203 994 203 994 L203 994 Z M441 750 C441 750 165 750 165 750 C165 750 162 730 161 730 C161 730 172 730 172 730 C214 730 234 726 225 670 C225 670 121 80 121 80 C110 24 88 20 47 20 C47 20 36 20 36 20 C35 10 33 8 33 0 C33 0 309 0 309 0 C309 0 312 20 312 20 C312 20 302 20 302 20 C260 20 239 24 249 80 C249 80 353 670 353 670 C363 726 385 730 427 730 C427 730 437 730 437 730 C438 730 441 750 441 750 L441 750 Z " />
<glyph glyph-name="ibreve" unicode="&#x12d;" horiz-adv-x="312" d="M153 744 C147 651 187 604 271 604 C356 604 412 650 439 742 C439 742 415 745 415 745 C404 705 360 685 286 685 C211 685 175 706 178 748 C178 748 153 744 153 744 L153 744 Z M51 0 C51 0 281 0 281 0 C281 0 284 20 284 20 C284 20 273 20 273 20 C242 20 226 21 228 35 C228 35 291 390 291 390 C291 390 310 500 310 500 C310 500 290 500 290 500 C290 500 129 445 129 445 C129 445 127 435 127 435 C180 438 184 436 176 390 C176 390 113 35 113 35 C111 21 95 20 65 20 C65 20 55 20 55 20 C54 16 52 2 51 0 L51 0 Z " />
<glyph glyph-name="Idotaccent" unicode="&#x130;" horiz-adv-x="360" d="M323 865 C373 865 402 890 411 939 C419 989 399 1014 349 1014 C300 1014 270 989 262 939 C253 890 274 865 323 865 L323 865 Z M441 750 C441 750 165 750 165 750 C165 750 162 730 161 730 C161 730 172 730 172 730 C214 730 234 726 225 670 C225 670 121 80 121 80 C110 24 88 20 47 20 C47 20 36 20 36 20 C35 10 33 8 33 0 C33 0 309 0 309 0 C309 0 312 20 312 20 C312 20 302 20 302 20 C260 20 239 24 249 80 C249 80 353 670 353 670 C363 726 385 730 427 730 C427 730 437 730 437 730 C438 730 441 750 441 750 L441 750 Z " />
<glyph glyph-name="dotlessi" unicode="&#x131;" horiz-adv-x="312" d="M51 0 C51 0 281 0 281 0 C281 0 284 20 284 20 C284 20 273 20 273 20 C242 20 226 21 228 35 C228 35 291 390 291 390 C291 390 310 500 310 500 C310 500 290 500 290 500 C290 500 129 445 129 445 C129 445 127 435 127 435 C180 438 184 436 176 390 C176 390 113 35 113 35 C111 21 95 20 65 20 C65 20 55 20 55 20 C54 16 52 2 51 0 L51 0 Z " />
<glyph glyph-name="Jcircumflex" unicode="&#x134;" horiz-adv-x="360" d="M441 750 C441 750 165 750 165 750 C165 750 162 730 161 730 C161 730 172 730 172 730 C214 730 234 726 225 670 C225 670 89 -99 89 -99 C76 -170 25 -175 -18 -175 C-90 -175 -28 -66 -100 -66 C-140 -66 -164 -87 -172 -127 C-182 -189 -144 -220 -57 -220 C61 -220 201 -195 261 143 C261 143 353 670 353 670 C363 726 385 730 427 730 C427 730 437 730 437 730 C438 730 441 750 441 750 L441 750 Z M334 922 C334 922 451 805 451 805 C451 805 469 818 469 818 C469 818 387 996 387 996 C381 1009 368 1037 354 1037 C339 1037 317 1010 306 996 C306 996 161 818 161 818 C161 818 174 805 174 805 C174 805 334 922 334 922 L334 922 Z " />
<glyph glyph-name="Lacute" unicode="&#x139;" horiz-adv-x="625" d="M322 811 C322 811 488 929 488 929 C533 962 556 980 557 988 C563 1023 544 1046 510 1046 C502 1046 482 1024 444 981 C444 981 311 826 311 826 C311 826 322 811 322 811 L322 811 Z M33 0 C33 0 106 0 106 0 C106 0 235 0 235 0 C235 0 243 47 243 47 C244 50 244 53 245 56 C245 56 239 22 239 22 C239 22 235 0 235 0 C235 0 379 0 379 0 C379 0 564 0 564 0 C564 0 570 0 570 0 C570 0 574 22 574 22 C574 22 574 22 574 22 C590 60 607 97 624 135 C622 135 613 138 605 138 C605 138 601 127 601 127 C570 57 542 22 389 22 C389 22 319 22 319 22 C248 22 242 37 247 67 C248 73 249 79 250 85 C250 85 250 85 250 85 C250 85 353 668 353 668 C364 725 386 730 427 730 C427 730 437 730 437 730 C438 730 441 750 441 750 C441 750 367 750 367 750 C367 750 239 750 239 750 C239 750 165 750 165 750 C165 750 162 730 161 730 C161 730 172 730 172 730 C213 730 233 725 225 669 C225 669 121 85 121 85 C121 85 121 85 121 85 C110 25 88 20 47 20 C47 20 36 20 36 20 C35 10 33 8 33 0 C33 0 33 0 33 0 L33 0 Z " />
<glyph glyph-name="Lcaron" unicode="&#x13d;" horiz-adv-x="625" d="M33 0 C33 0 106 0 106 0 C106 0 235 0 235 0 C235 0 243 47 243 47 C244 50 244 53 245 56 C245 56 239 22 239 22 C239 22 235 0 235 0 C235 0 379 0 379 0 C379 0 564 0 564 0 C564 0 570 0 570 0 C570 0 574 22 574 22 C574 22 574 22 574 22 C590 60 607 97 624 135 C622 135 613 138 605 138 C605 138 601 127 601 127 C570 57 542 22 389 22 C389 22 319 22 319 22 C248 22 242 37 247 67 C248 73 249 79 250 85 C250 85 250 85 250 85 C250 85 353 668 353 668 C364 725 386 730 427 730 C427 730 437 730 437 730 C438 730 441 750 441 750 C441 750 367 750 367 750 C367 750 239 750 239 750 C239 750 165 750 165 750 C165 750 162 730 161 730 C161 730 172 730 172 730 C213 730 233 725 225 669 C225 669 121 85 121 85 C121 85 121 85 121 85 C110 25 88 20 47 20 C47 20 36 20 36 20 C35 10 33 8 33 0 C33 0 33 0 33 0 L33 0 Z M548 686 C574 726 589 761 595 790 C597 804 580 807 546 807 C520 807 502 749 491 699 C491 699 464 586 464 586 C464 586 483 583 483 583 C483 583 548 686 548 686 L548 686 Z " />
<glyph glyph-name="lcaron" unicode="&#x13e;" horiz-adv-x="293" d="M149 686 C149 686 160 689 160 689 C195 698 211 697 198 623 C198 623 198 623 198 623 C198 623 94 35 94 35 C92 21 76 20 46 20 C46 20 35 20 35 20 C34 10 32 8 32 0 C32 0 259 0 259 0 C260 4 262 18 263 20 C263 20 252 20 252 20 C222 20 207 21 209 35 C209 35 318 650 318 650 C334 743 335 750 335 750 C335 750 315 750 315 750 C315 750 153 706 153 706 C153 706 149 686 149 686 L149 686 Z M427 636 C453 676 468 711 473 740 C476 754 459 757 425 757 C399 757 381 699 369 649 C369 649 343 536 343 536 C343 536 362 533 362 533 C362 533 427 636 427 636 L427 636 Z " />
<glyph glyph-name="Nacute" unicode="&#x143;" horiz-adv-x="759" d="M426 811 C426 811 592 929 592 929 C637 962 660 980 661 988 C667 1023 648 1046 614 1046 C606 1046 586 1024 548 981 C548 981 415 826 415 826 C415 826 426 811 426 811 L426 811 Z M119 730 C119 730 145 730 145 730 C158 730 166 728 185 695 C185 695 186 695 186 695 C186 695 228 625 228 625 C228 625 140 133 140 133 C119 28 96 20 55 20 C55 20 32 20 32 20 C31 16 29 2 28 0 C28 0 116 0 116 0 C116 0 155 0 155 0 C155 0 242 0 242 0 C243 4 245 18 246 20 C246 20 223 20 223 20 C185 20 164 26 172 103 C172 103 253 581 253 581 C253 581 490 183 490 183 C490 183 598 0 598 0 C598 0 624 0 624 0 C624 0 748 654 748 654 C764 724 792 730 838 730 C838 730 849 730 849 730 C849 730 852 750 852 750 C852 750 766 750 766 750 C766 750 727 750 727 750 C727 750 640 750 640 750 C640 750 637 730 636 730 C636 730 647 730 647 730 C693 730 718 724 710 653 C710 653 634 212 634 212 C634 212 606 259 606 259 C606 259 312 750 312 750 C312 750 282 750 282 750 C282 750 250 750 250 750 C250 750 153 750 153 750 C153 750 122 750 122 750 C122 750 119 730 119 730 L119 730 Z " />
<glyph glyph-name="Ncaron" unicode="&#x147;" horiz-adv-x="759" d="M119 730 C119 730 145 730 145 730 C158 730 166 728 185 695 C185 695 186 695 186 695 C186 695 228 625 228 625 C228 625 140 133 140 133 C119 28 96 20 55 20 C55 20 32 20 32 20 C31 16 29 2 28 0 C28 0 116 0 116 0 C116 0 155 0 155 0 C155 0 242 0 242 0 C243 4 245 18 246 20 C246 20 223 20 223 20 C185 20 164 26 172 103 C172 103 253 581 253 581 C253 581 490 183 490 183 C490 183 598 0 598 0 C598 0 624 0 624 0 C624 0 748 654 748 654 C764 724 792 730 838 730 C838 730 849 730 849 730 C849 730 852 750 852 750 C852 750 766 750 766 750 C766 750 727 750 727 750 C727 750 640 750 640 750 C640 750 637 730 636 730 C636 730 647 730 647 730 C693 730 718 724 710 653 C710 653 634 212 634 212 C634 212 606 259 606 259 C606 259 312 750 312 750 C312 750 282 750 282 750 C282 750 250 750 250 750 C250 750 153 750 153 750 C153 750 122 750 122 750 C122 750 119 730 119 730 L119 730 Z M539 928 C539 928 698 1045 698 1045 C698 1045 711 1032 711 1032 C711 1032 566 854 566 854 C555 841 532 813 518 813 C503 813 491 840 485 854 C485 854 402 1032 402 1032 C402 1032 420 1045 420 1045 C420 1045 539 928 539 928 L539 928 Z " />
<glyph glyph-name="ncaron" unicode="&#x148;" horiz-adv-x="600" d="M97 424 C97 424 108 428 108 428 C142 440 159 440 147 374 C147 374 147 370 147 370 C147 369 146 367 146 366 C146 366 146 366 146 366 C146 366 88 35 88 35 C86 21 70 20 40 20 C40 20 29 20 29 20 C28 10 26 8 26 0 C26 0 253 0 253 0 C254 4 256 18 257 20 C257 20 246 20 246 20 C216 20 201 21 203 35 C203 35 267 400 267 400 C284 493 285 500 285 500 C285 500 265 500 265 500 C265 500 100 444 100 444 C100 444 97 424 97 424 L97 424 Z M338 0 C338 0 566 0 566 0 C566 2 569 12 569 20 C569 20 559 20 559 20 C529 20 514 21 516 35 C516 35 563 300 563 300 C587 440 562 510 459 510 C390 510 325 471 266 393 C266 393 260 359 260 359 C294 403 333 426 376 426 C445 426 463 384 448 300 C448 300 401 35 401 35 C399 21 383 20 353 20 C353 20 342 20 342 20 C341 16 339 2 338 0 L338 0 Z M416 678 C416 678 575 795 575 795 C575 795 588 782 588 782 C588 782 443 604 443 604 C432 591 409 563 395 563 C380 563 368 590 362 604 C362 604 279 782 279 782 C279 782 297 795 297 795 C297 795 416 678 416 678 L416 678 Z " />
<glyph glyph-name="Omacron" unicode="&#x14c;" horiz-adv-x="889" d="M439 890 C439 890 739 890 739 890 C739 890 753 970 753 970 C753 970 453 970 453 970 C453 970 439 890 439 890 L439 890 Z M433 24 C272 24 212 142 253 375 C294 608 395 726 554 726 C727 726 794 608 753 375 C712 142 605 24 433 24 L433 24 Z M106 375 C61 119 167 -10 420 -10 C694 -10 855 119 900 375 C945 631 833 760 566 760 C306 760 151 631 106 375 L106 375 Z " />
<glyph glyph-name="omacron" unicode="&#x14d;" horiz-adv-x="609" d="M261 640 C261 640 561 640 561 640 C561 640 575 720 575 720 C575 720 275 720 275 720 C275 720 261 640 261 640 L261 640 Z M302 25 C210 25 177 101 203 250 C230 399 289 475 382 475 C474 475 507 399 481 250 C455 101 395 25 302 25 L302 25 Z M76 250 C46 77 120 -10 296 -10 C473 -10 578 77 608 250 C639 423 565 510 388 510 C211 510 107 423 76 250 L76 250 Z " />
<glyph glyph-name="Obreve" unicode="&#x14e;" horiz-adv-x="889" d="M464 994 C459 901 499 854 583 854 C667 854 723 900 750 992 C750 992 727 995 727 995 C715 955 671 935 597 935 C523 935 487 956 489 998 C489 998 464 994 464 994 L464 994 Z M433 24 C272 24 212 142 253 375 C294 608 395 726 554 726 C727 726 794 608 753 375 C712 142 605 24 433 24 L433 24 Z M106 375 C61 119 167 -10 420 -10 C694 -10 855 119 900 375 C945 631 833 760 566 760 C306 760 151 631 106 375 L106 375 Z " />
<glyph glyph-name="obreve" unicode="&#x14f;" horiz-adv-x="609" d="M286 744 C281 651 321 604 405 604 C489 604 545 650 572 742 C572 742 548 745 548 745 C537 705 493 685 419 685 C345 685 309 706 311 748 C311 748 286 744 286 744 L286 744 Z M302 25 C210 25 177 101 203 250 C230 399 289 475 382 475 C474 475 507 399 481 250 C455 101 395 25 302 25 L302 25 Z M76 250 C46 77 120 -10 296 -10 C473 -10 578 77 608 250 C639 423 565 510 388 510 C211 510 107 423 76 250 L76 250 Z " />
<glyph glyph-name="Racute" unicode="&#x154;" horiz-adv-x="786" d="M450 811 C450 811 616 929 616 929 C661 962 684 980 685 988 C691 1023 672 1046 638 1046 C630 1046 610 1024 572 981 C572 981 438 826 438 826 C438 826 450 811 450 811 L450 811 Z M173 730 C173 730 184 730 184 730 C226 730 247 725 236 665 C236 665 134 85 134 85 C123 25 101 20 59 20 C59 20 48 20 48 20 C48 18 48 8 45 0 C45 0 321 0 321 0 C321 2 324 12 324 20 C324 20 314 20 314 20 C272 20 251 25 262 85 C262 85 308 348 308 348 C308 348 384 348 384 348 C398 311 444 221 522 80 C569 -5 553 0 776 0 C776 0 781 26 781 26 C698 26 704 23 673 80 C595 221 544 313 519 357 C632 377 696 429 715 537 C740 678 655 750 461 750 C461 750 379 750 379 750 C379 750 375 724 375 724 C375 724 418 724 418 724 C543 724 597 670 578 562 C554 423 496 380 396 380 C396 380 314 380 314 380 C314 380 312 370 312 370 C312 370 364 665 364 665 C378 744 379 750 379 750 C379 750 177 750 177 750 C177 750 174 730 173 730 C173 730 173 730 173 730 L173 730 Z " />
<glyph glyph-name="Rcaron" unicode="&#x158;" horiz-adv-x="786" d="M173 730 C173 730 184 730 184 730 C226 730 247 725 236 665 C236 665 134 85 134 85 C123 25 101 20 59 20 C59 20 48 20 48 20 C48 18 48 8 45 0 C45 0 321 0 321 0 C321 2 324 12 324 20 C324 20 314 20 314 20 C272 20 251 25 262 85 C262 85 308 348 308 348 C308 348 384 348 384 348 C398 311 444 221 522 80 C569 -5 553 0 776 0 C776 0 781 26 781 26 C698 26 704 23 673 80 C595 221 544 313 519 357 C632 377 696 429 715 537 C740 678 655 750 461 750 C461 750 379 750 379 750 C379 750 375 724 375 724 C375 724 418 724 418 724 C543 724 597 670 578 562 C554 423 496 380 396 380 C396 380 314 380 314 380 C314 380 312 370 312 370 C312 370 364 665 364 665 C378 744 379 750 379 750 C379 750 177 750 177 750 C177 750 174 730 173 730 C173 730 173 730 173 730 L173 730 Z M463 928 C463 928 622 1045 622 1045 C622 1045 635 1032 635 1032 C635 1032 490 854 490 854 C479 841 456 813 442 813 C427 813 415 840 409 854 C409 854 326 1032 326 1032 C326 1032 344 1045 344 1045 C344 1045 463 928 463 928 L463 928 Z " />
<glyph glyph-name="rcaron" unicode="&#x159;" horiz-adv-x="479" d="M103 424 C103 424 114 428 114 428 C148 440 165 440 153 374 C153 374 153 370 153 370 C153 369 152 367 152 366 C152 366 152 366 152 366 C152 366 94 35 94 35 C92 21 77 20 49 20 C49 20 39 20 39 20 C38 16 36 2 35 0 C35 0 263 0 263 0 C263 0 266 20 266 20 C266 20 255 20 255 20 C223 20 207 21 209 35 C209 35 264 349 264 349 C301 420 337 456 375 456 C401 456 412 444 408 421 C400 377 419 354 464 354 C509 354 536 377 544 421 C554 480 518 510 438 510 C366 510 312 476 275 409 C290 493 291 500 291 500 C291 500 271 500 271 500 C271 500 106 444 106 444 C106 444 103 424 103 424 L103 424 Z M389 679 C389 679 548 795 548 795 C548 795 561 782 561 782 C561 782 416 604 416 604 C405 591 382 563 368 563 C353 563 341 590 335 604 C335 604 252 782 252 782 C252 782 270 795 270 795 C270 795 389 679 389 679 L389 679 Z " />
<glyph glyph-name="Sacute" unicode="&#x15a;" horiz-adv-x="554" d="M425 811 C425 811 590 929 590 929 C636 962 659 980 660 988 C666 1023 647 1046 613 1046 C605 1046 585 1024 547 981 C547 981 413 826 413 826 C413 826 425 811 425 811 L425 811 Z M577 567 C582 594 586 620 591 646 C591 646 595 673 605 725 C605 725 590 725 590 725 C590 725 587 718 581 705 C579 699 563 704 538 723 C538 723 537 723 537 723 C504 748 458 760 398 760 C262 760 181 691 156 553 C136 435 172 358 299 308 C413 263 451 220 441 168 C425 77 374 31 288 31 C259 31 233 36 210 45 C210 45 211 45 211 45 C149 69 112 151 102 223 C102 223 87 223 87 223 C81 186 76 160 74 146 C74 146 73 146 73 146 C73 146 73 145 73 145 C72 137 71 133 71 133 C66 104 61 74 55 44 C55 44 70 44 70 44 C71 44 74 52 80 69 C82 75 104 65 142 33 C142 33 143 33 143 33 C178 4 224 -10 281 -10 C435 -10 525 62 550 205 C570 316 531 391 399 442 C288 485 253 535 266 602 C280 686 323 728 393 728 C404 728 414 727 424 726 C500 715 549 647 559 582 C559 582 562 567 562 567 C562 567 577 567 577 567 L577 567 Z " />
<glyph glyph-name="Scircumflex" unicode="&#x15c;" horiz-adv-x="554" d="M577 567 C582 594 586 620 591 646 C591 646 595 673 605 725 C605 725 590 725 590 725 C590 725 587 718 581 705 C579 699 563 704 538 723 C538 723 537 723 537 723 C504 748 458 760 398 760 C262 760 181 691 156 553 C136 435 172 358 299 308 C413 263 451 220 441 168 C425 77 374 31 288 31 C259 31 233 36 210 45 C210 45 211 45 211 45 C149 69 112 151 102 223 C102 223 87 223 87 223 C81 186 76 160 74 146 C74 146 73 146 73 146 C73 146 73 145 73 145 C72 137 71 133 71 133 C66 104 61 74 55 44 C55 44 70 44 70 44 C71 44 74 52 80 69 C82 75 104 65 142 33 C142 33 143 33 143 33 C178 4 224 -10 281 -10 C435 -10 525 62 550 205 C570 316 531 391 399 442 C288 485 253 535 266 602 C280 686 323 728 393 728 C404 728 414 727 424 726 C500 715 549 647 559 582 C559 582 562 567 562 567 C562 567 577 567 577 567 L577 567 Z M436 921 C436 921 554 805 554 805 C554 805 572 818 572 818 C572 818 490 996 490 996 C484 1009 471 1037 456 1037 C442 1037 420 1010 409 996 C409 996 263 818 263 818 C263 818 277 805 277 805 C277 805 436 921 436 921 L436 921 Z " />
<glyph glyph-name="Scaron" unicode="&#x160;" horiz-adv-x="554" d="M577 567 C582 594 586 620 591 646 C591 646 595 673 605 725 C605 725 590 725 590 725 C590 725 587 718 581 705 C579 699 563 704 538 723 C538 723 537 723 537 723 C504 748 458 760 398 760 C262 760 181 691 156 553 C136 435 172 358 299 308 C413 263 451 220 441 168 C425 77 374 31 288 31 C259 31 233 36 210 45 C210 45 211 45 211 45 C149 69 112 151 102 223 C102 223 87 223 87 223 C81 186 76 160 74 146 C74 146 73 146 73 146 C73 146 73 145 73 145 C72 137 71 133 71 133 C66 104 61 74 55 44 C55 44 70 44 70 44 C71 44 74 52 80 69 C82 75 104 65 142 33 C142 33 143 33 143 33 C178 4 224 -10 281 -10 C435 -10 525 62 550 205 C570 316 531 391 399 442 C288 485 253 535 266 602 C280 686 323 728 393 728 C404 728 414 727 424 726 C500 715 549 647 559 582 C559 582 562 567 562 567 C562 567 577 567 577 567 L577 567 Z M438 929 C438 929 597 1045 597 1045 C597 1045 610 1032 610 1032 C610 1032 465 854 465 854 C454 841 431 813 417 813 C402 813 390 840 384 854 C384 854 301 1032 301 1032 C301 1032 319 1045 319 1045 C319 1045 438 929 438 929 L438 929 Z " />
<glyph glyph-name="scaron" unicode="&#x161;" horiz-adv-x="443" d="M435 367 C439 390 443 414 447 437 C447 437 451 461 460 507 C460 507 440 507 440 507 C438 501 437 494 436 487 C435 482 417 484 383 498 C364 506 341 510 314 510 C208 510 147 464 130 372 C115 285 141 232 231 206 C308 185 332 153 323 105 C313 47 279 17 223 17 C171 17 136 47 119 107 C119 107 113 104 113 104 C111 120 112 136 116 153 C116 153 96 153 96 153 C89 113 85 93 86 93 C82 73 78 53 75 33 C75 33 95 33 95 33 C95 33 98 47 98 47 C96 34 119 14 168 -3 C168 -3 169 -3 169 -3 C183 -8 200 -10 218 -10 C334 -10 401 40 418 138 C432 215 401 265 297 294 C228 314 208 351 219 412 C227 459 257 483 310 483 C364 483 399 459 412 412 C412 412 416 414 416 414 C419 402 419 390 417 378 C416 374 415 370 415 367 C415 367 435 367 435 367 L435 367 Z M340 678 C340 678 499 795 499 795 C499 795 512 782 512 782 C512 782 367 604 367 604 C356 591 333 563 319 563 C305 563 292 590 286 604 C286 604 204 782 204 782 C204 782 222 795 222 795 C222 795 340 678 340 678 L340 678 Z " />
<glyph glyph-name="Tcaron" unicode="&#x164;" horiz-adv-x="775" d="M162 644 C162 644 167 655 167 655 C190 697 209 718 302 718 C302 718 449 718 449 718 C449 718 337 80 337 80 C327 24 305 20 264 20 C264 20 253 20 253 20 C252 16 250 2 249 0 C249 0 526 0 526 0 C526 0 529 20 529 20 C529 20 518 20 518 20 C477 20 456 24 466 80 C466 80 578 718 578 718 C578 718 727 718 727 718 C820 718 831 697 838 655 C838 655 840 644 840 644 C844 645 858 646 860 646 C856 670 852 694 847 718 C847 718 852 750 852 750 C852 750 841 750 841 750 C838 763 836 776 833 789 C833 789 830 789 823 790 C823 790 813 790 813 790 C820 759 822 750 721 750 C721 750 584 750 584 750 C584 750 455 750 455 750 C455 750 319 750 319 750 C226 750 225 760 236 781 C236 781 241 790 241 790 C241 790 230 790 230 790 C223 789 220 789 220 789 C220 789 199 750 199 750 C199 750 187 750 187 750 C187 750 182 719 182 719 C182 719 181 717 181 717 C168 693 155 669 143 646 C147 645 160 644 162 644 C162 644 162 644 162 644 L162 644 Z M552 929 C552 929 711 1045 711 1045 C711 1045 724 1032 724 1032 C724 1032 579 854 579 854 C568 841 545 813 531 813 C516 813 504 840 498 854 C498 854 415 1032 415 1032 C415 1032 433 1045 433 1045 C433 1045 552 929 552 929 L552 929 Z " />
<glyph glyph-name="tcaron" unicode="&#x165;" horiz-adv-x="411" d="M450 500 C450 500 298 500 298 500 C298 500 319 620 319 620 C319 620 311 620 311 620 C311 620 109 449 109 449 C109 449 107 439 107 439 C107 439 172 439 172 439 C172 439 128 186 128 186 C100 30 145 -10 247 -10 C334 -10 393 34 423 122 C423 122 409 125 409 125 C391 71 351 44 292 44 C240 44 218 68 235 161 C252 254 270 347 287 439 C287 439 439 439 439 439 C439 439 450 500 450 500 L450 500 Z M596 636 C622 676 637 711 642 740 C645 754 628 757 594 757 C568 757 550 699 538 649 C538 649 511 536 511 536 C511 536 531 533 531 533 C531 533 596 636 596 636 L596 636 Z " />
<glyph glyph-name="Utilde" unicode="&#x168;" horiz-adv-x="764" d="M390 870 C397 907 413 925 438 925 C503 925 531 860 595 860 C656 860 695 907 712 1001 C712 1001 691 1001 691 1001 C684 961 666 941 636 941 C571 941 543 1006 479 1006 C423 1006 386 960 370 870 C370 870 390 870 390 870 L390 870 Z M595 730 C595 730 606 730 606 730 C648 730 668 725 657 665 C657 665 575 198 575 198 C521 115 448 73 359 73 C270 73 234 122 251 220 C251 220 329 665 329 665 C343 744 344 750 344 750 C344 750 142 750 142 750 C142 750 139 730 138 730 C138 730 149 730 149 730 C191 730 212 725 201 665 C201 665 122 220 122 220 C96 67 153 -10 292 -10 C409 -10 500 41 565 141 C565 141 559 110 559 110 C559 110 540 0 540 0 C540 0 560 0 560 0 C560 0 751 55 751 55 C751 55 753 65 753 65 C684 61 679 63 688 110 C688 110 786 665 786 665 C799 744 800 750 801 750 C801 750 598 750 598 750 C598 750 595 730 595 730 L595 730 Z " />
<glyph glyph-name="utilde" unicode="&#x169;" horiz-adv-x="579" d="M250 620 C257 657 273 675 298 675 C363 675 391 610 455 610 C516 610 555 657 571 751 C571 751 551 751 551 751 C544 711 526 691 496 691 C431 691 403 756 339 756 C283 756 246 710 230 620 C230 620 250 620 250 620 L250 620 Z M417 480 C417 480 427 480 427 480 C451 480 463 479 461 465 C461 465 406 151 406 151 C373 97 329 70 277 70 C221 70 199 100 209 160 C209 160 263 465 263 465 C269 498 269 500 269 500 C269 500 108 500 108 500 C107 500 104 480 104 480 C104 480 115 480 115 480 C139 480 150 479 148 465 C148 465 94 160 94 160 C74 47 113 -10 209 -10 C286 -10 350 33 400 118 C400 118 395 90 395 90 C378 -3 377 -10 377 -10 C377 -10 397 -10 397 -10 C397 -10 558 29 558 29 C561 45 562 47 562 49 C562 49 551 46 551 46 C519 38 503 39 512 101 C512 101 576 465 576 465 C582 498 582 500 582 500 C582 500 420 500 420 500 C420 500 417 480 417 480 L417 480 Z " />
<glyph glyph-name="Umacron" unicode="&#x16a;" horiz-adv-x="764" d="M383 890 C383 890 683 890 683 890 C683 890 697 970 697 970 C697 970 397 970 397 970 C397 970 383 890 383 890 L383 890 Z M595 730 C595 730 606 730 606 730 C648 730 668 725 657 665 C657 665 575 198 575 198 C521 115 448 73 359 73 C270 73 234 122 251 220 C251 220 329 665 329 665 C343 744 344 750 344 750 C344 750 142 750 142 750 C142 750 139 730 138 730 C138 730 149 730 149 730 C191 730 212 725 201 665 C201 665 122 220 122 220 C96 67 153 -10 292 -10 C409 -10 500 41 565 141 C565 141 559 110 559 110 C559 110 540 0 540 0 C540 0 560 0 560 0 C560 0 751 55 751 55 C751 55 753 65 753 65 C684 61 679 63 688 110 C688 110 786 665 786 665 C799 744 800 750 801 750 C801 750 598 750 598 750 C598 750 595 730 595 730 L595 730 Z " />
<glyph glyph-name="umacron" unicode="&#x16b;" horiz-adv-x="579" d="M243 640 C243 640 543 640 543 640 C543 640 557 720 557 720 C557 720 257 720 257 720 C257 720 243 640 243 640 L243 640 Z M417 480 C417 480 427 480 427 480 C451 480 463 479 461 465 C461 465 406 151 406 151 C373 97 329 70 277 70 C221 70 199 100 209 160 C209 160 263 465 263 465 C269 498 269 500 269 500 C269 500 108 500 108 500 C107 500 104 480 104 480 C104 480 115 480 115 480 C139 480 150 479 148 465 C148 465 94 160 94 160 C74 47 113 -10 209 -10 C286 -10 350 33 400 118 C400 118 395 90 395 90 C378 -3 377 -10 377 -10 C377 -10 397 -10 397 -10 C397 -10 558 29 558 29 C561 45 562 47 562 49 C562 49 551 46 551 46 C519 38 503 39 512 101 C512 101 576 465 576 465 C582 498 582 500 582 500 C582 500 420 500 420 500 C420 500 417 480 417 480 L417 480 Z " />
<glyph glyph-name="Ubreve" unicode="&#x16c;" horiz-adv-x="764" d="M408 994 C403 901 443 854 527 854 C611 854 667 900 694 992 C694 992 670 995 670 995 C659 955 615 935 541 935 C466 935 430 956 433 998 C433 998 408 994 408 994 L408 994 Z M595 730 C595 730 606 730 606 730 C648 730 668 725 657 665 C657 665 575 198 575 198 C521 115 448 73 359 73 C270 73 234 122 251 220 C251 220 329 665 329 665 C343 744 344 750 344 750 C344 750 142 750 142 750 C142 750 139 730 138 730 C138 730 149 730 149 730 C191 730 212 725 201 665 C201 665 122 220 122 220 C96 67 153 -10 292 -10 C409 -10 500 41 565 141 C565 141 559 110 559 110 C559 110 540 0 540 0 C540 0 560 0 560 0 C560 0 751 55 751 55 C751 55 753 65 753 65 C684 61 679 63 688 110 C688 110 786 665 786 665 C799 744 800 750 801 750 C801 750 598 750 598 750 C598 750 595 730 595 730 L595 730 Z " />
<glyph glyph-name="ubreve" unicode="&#x16d;" horiz-adv-x="579" d="M268 744 C262 651 302 604 386 604 C471 604 527 650 554 742 C554 742 530 745 530 745 C519 705 475 685 401 685 C326 685 290 706 293 748 C293 748 268 744 268 744 L268 744 Z M417 480 C417 480 427 480 427 480 C451 480 463 479 461 465 C461 465 406 151 406 151 C373 97 329 70 277 70 C221 70 199 100 209 160 C209 160 263 465 263 465 C269 498 269 500 269 500 C269 500 108 500 108 500 C107 500 104 480 104 480 C104 480 115 480 115 480 C139 480 150 479 148 465 C148 465 94 160 94 160 C74 47 113 -10 209 -10 C286 -10 350 33 400 118 C400 118 395 90 395 90 C378 -3 377 -10 377 -10 C377 -10 397 -10 397 -10 C397 -10 558 29 558 29 C561 45 562 47 562 49 C562 49 551 46 551 46 C519 38 503 39 512 101 C512 101 576 465 576 465 C582 498 582 500 582 500 C582 500 420 500 420 500 C420 500 417 480 417 480 L417 480 Z " />
<glyph glyph-name="Uring" unicode="&#x16e;" horiz-adv-x="764" d="M524 837 C485 837 464 864 471 905 C479 950 504 973 548 973 C591 973 608 950 600 905 C593 864 562 837 524 837 L524 837 Z M437 905 C427 848 460 810 519 810 C577 810 624 848 634 905 C645 968 617 1000 552 1000 C487 1000 449 968 437 905 L437 905 Z M595 730 C595 730 606 730 606 730 C648 730 668 725 657 665 C657 665 575 198 575 198 C521 115 448 73 359 73 C270 73 234 122 251 220 C251 220 329 665 329 665 C343 744 344 750 344 750 C344 750 142 750 142 750 C142 750 139 730 138 730 C138 730 149 730 149 730 C191 730 212 725 201 665 C201 665 122 220 122 220 C96 67 153 -10 292 -10 C409 -10 500 41 565 141 C565 141 559 110 559 110 C559 110 540 0 540 0 C540 0 560 0 560 0 C560 0 751 55 751 55 C751 55 753 65 753 65 C684 61 679 63 688 110 C688 110 786 665 786 665 C799 744 800 750 801 750 C801 750 598 750 598 750 C598 750 595 730 595 730 L595 730 Z " />
<glyph glyph-name="uring" unicode="&#x16f;" horiz-adv-x="579" d="M383 587 C345 587 323 614 331 655 C339 700 364 723 407 723 C450 723 468 700 460 655 C452 614 422 587 383 587 L383 587 Z M297 655 C287 598 319 560 379 560 C437 560 484 598 494 655 C505 718 477 750 412 750 C346 750 308 718 297 655 L297 655 Z M417 480 C417 480 427 480 427 480 C451 480 463 479 461 465 C461 465 406 151 406 151 C373 97 329 70 277 70 C221 70 199 100 209 160 C209 160 263 465 263 465 C269 498 269 500 269 500 C269 500 108 500 108 500 C107 500 104 480 104 480 C104 480 115 480 115 480 C139 480 150 479 148 465 C148 465 94 160 94 160 C74 47 113 -10 209 -10 C286 -10 350 33 400 118 C400 118 395 90 395 90 C378 -3 377 -10 377 -10 C377 -10 397 -10 397 -10 C397 -10 558 29 558 29 C561 45 562 47 562 49 C562 49 551 46 551 46 C519 38 503 39 512 101 C512 101 576 465 576 465 C582 498 582 500 582 500 C582 500 420 500 420 500 C420 500 417 480 417 480 L417 480 Z " />
<glyph glyph-name="Wcircumflex" unicode="&#x174;" horiz-adv-x="1103" d="M1211 750 C1211 750 1151 750 1151 750 C1151 750 1098 750 1098 750 C1098 750 982 750 982 750 C982 750 979 730 978 730 C978 730 999 730 999 730 C1056 730 1083 723 1042 624 C1042 624 846 184 846 184 C846 184 847 187 847 187 C847 187 736 640 736 640 C736 640 736 640 736 640 C736 641 736 642 735 643 C735 643 734 650 734 650 C716 724 740 730 787 730 C787 730 807 730 807 730 C808 730 811 750 811 750 C811 750 709 750 709 750 C709 750 560 750 560 750 C560 750 502 750 502 750 C501 740 499 738 499 730 C499 730 522 730 522 730 C549 730 564 727 574 697 C591 631 609 565 626 500 C626 500 453 163 453 163 C453 163 351 610 351 610 C351 610 351 610 351 610 C324 722 347 730 397 730 C397 730 417 730 417 730 C418 730 421 750 421 750 C421 750 319 750 319 750 C319 750 178 750 178 750 C178 750 140 750 140 750 C140 750 137 730 137 730 C137 730 163 730 163 730 C176 730 185 722 212 610 C212 610 212 610 212 610 C263 403 314 197 364 -10 C364 -10 398 -10 398 -10 C398 -10 640 444 640 444 C680 293 720 141 760 -10 C760 -10 794 -10 794 -10 C794 -10 1113 668 1113 668 C1143 725 1160 730 1184 730 C1184 730 1208 730 1208 730 C1209 740 1211 742 1211 750 C1211 750 1211 750 1211 750 L1211 750 Z M695 921 C695 921 812 805 812 805 C812 805 830 818 830 818 C830 818 748 996 748 996 C742 1009 729 1037 715 1037 C700 1037 678 1010 667 996 C667 996 522 818 522 818 C522 818 535 805 535 805 C535 805 695 921 695 921 L695 921 Z " />
<glyph glyph-name="Ycircumflex" unicode="&#x176;" horiz-adv-x="760" d="M395 750 C395 750 322 750 322 750 C322 750 170 750 170 750 C170 750 138 750 138 750 C137 750 134 730 134 730 C134 730 160 730 160 730 C173 730 184 722 238 610 C238 610 238 610 238 610 C238 610 381 316 381 316 C381 316 339 80 339 80 C329 24 307 20 266 20 C266 20 255 20 255 20 C254 16 252 2 251 0 C251 0 527 0 527 0 C528 4 530 18 531 20 C531 20 520 20 520 20 C479 20 458 24 468 80 C468 80 511 321 511 321 C511 321 740 636 740 636 C805 723 821 730 843 730 C843 730 867 730 867 730 C867 730 870 750 871 750 C871 750 822 750 822 750 C822 750 758 750 758 750 C758 750 684 750 684 750 C684 750 681 730 680 730 C680 730 701 730 701 730 C724 730 737 726 719 691 C719 691 504 362 504 362 C504 362 365 659 365 659 C337 725 348 730 373 730 C373 730 392 730 392 730 C393 740 395 742 395 750 C395 750 395 750 395 750 L395 750 Z M552 921 C552 921 670 805 670 805 C670 805 688 818 688 818 C688 818 606 996 606 996 C599 1009 587 1037 572 1037 C558 1037 536 1010 525 996 C525 996 379 818 379 818 C379 818 393 805 393 805 C393 805 552 921 552 921 L552 921 Z " />
<glyph glyph-name="Ydieresis" unicode="&#x178;" horiz-adv-x="760" d="M622 865 C672 865 701 890 710 939 C718 989 698 1014 648 1014 C599 1014 569 989 561 939 C552 890 573 865 622 865 L622 865 Z M462 865 C511 865 541 890 549 939 C558 989 538 1014 488 1014 C439 1014 409 989 400 939 C392 890 412 865 462 865 L462 865 Z M395 750 C395 750 322 750 322 750 C322 750 170 750 170 750 C170 750 138 750 138 750 C137 750 134 730 134 730 C134 730 160 730 160 730 C173 730 184 722 238 610 C238 610 238 610 238 610 C238 610 381 316 381 316 C381 316 339 80 339 80 C329 24 307 20 266 20 C266 20 255 20 255 20 C254 16 252 2 251 0 C251 0 527 0 527 0 C528 4 530 18 531 20 C531 20 520 20 520 20 C479 20 458 24 468 80 C468 80 511 321 511 321 C511 321 740 636 740 636 C805 723 821 730 843 730 C843 730 867 730 867 730 C867 730 870 750 871 750 C871 750 822 750 822 750 C822 750 758 750 758 750 C758 750 684 750 684 750 C684 750 681 730 680 730 C680 730 701 730 701 730 C724 730 737 726 719 691 C719 691 504 362 504 362 C504 362 365 659 365 659 C337 725 348 730 373 730 C373 730 392 730 392 730 C393 740 395 742 395 750 C395 750 395 750 395 750 L395 750 Z " />
<glyph glyph-name="Zacute" unicode="&#x179;" horiz-adv-x="642" d="M492 811 C492 811 657 929 657 929 C702 962 725 980 727 988 C732 1023 713 1046 679 1046 C671 1046 651 1024 614 981 C614 981 480 826 480 826 C480 826 492 811 492 811 L492 811 Z M648 146 C648 146 629 115 629 115 C601 70 579 44 501 38 C501 38 188 31 188 31 C188 31 737 723 737 723 C737 723 742 750 742 750 C742 750 617 750 617 750 C617 750 372 750 372 750 C372 750 202 750 202 750 C186 699 170 649 154 598 C159 597 177 596 180 596 C180 596 188 617 188 617 C212 675 232 707 320 715 C320 715 593 720 593 720 C593 720 30 27 30 27 C30 27 25 0 25 0 C25 0 164 0 164 0 C164 0 446 0 446 0 C446 0 606 0 606 0 C616 24 626 48 637 72 C637 72 667 144 667 144 C663 145 650 146 648 146 C648 146 648 146 648 146 L648 146 Z " />
<glyph glyph-name="Zdotaccent" unicode="&#x17b;" horiz-adv-x="642" d="M493 865 C542 865 571 890 580 939 C589 989 568 1014 519 1014 C470 1014 440 989 431 939 C423 890 443 865 493 865 L493 865 Z M648 146 C648 146 629 115 629 115 C601 70 579 44 501 38 C501 38 188 31 188 31 C188 31 737 723 737 723 C737 723 742 750 742 750 C742 750 617 750 617 750 C617 750 372 750 372 750 C372 750 202 750 202 750 C186 699 170 649 154 598 C159 597 177 596 180 596 C180 596 188 617 188 617 C212 675 232 707 320 715 C320 715 593 720 593 720 C593 720 30 27 30 27 C30 27 25 0 25 0 C25 0 164 0 164 0 C164 0 446 0 446 0 C446 0 606 0 606 0 C616 24 626 48 637 72 C637 72 667 144 667 144 C663 145 650 146 648 146 C648 146 648 146 648 146 L648 146 Z " />
<glyph glyph-name="zdotaccent" unicode="&#x17c;" horiz-adv-x="475" d="M373 615 C423 615 452 640 461 689 C469 739 449 764 400 764 C351 764 321 739 312 689 C304 640 324 615 373 615 L373 615 Z M161 0 C161 0 318 0 318 0 C318 0 430 0 430 0 C440 34 453 70 463 105 C463 105 453 105 453 105 C453 105 440 94 440 94 C398 61 369 42 312 37 C312 37 185 32 185 32 C185 32 518 473 518 473 C518 473 523 500 523 500 C523 500 406 500 406 500 C406 500 223 500 223 500 C212 500 201 506 207 519 C207 519 211 528 211 528 C211 528 191 528 191 528 C181 506 171 484 161 461 C161 461 131 395 131 395 C131 395 143 395 143 395 C143 395 156 405 156 405 C195 437 221 457 270 463 C270 463 381 467 381 467 C381 467 45 27 45 27 C45 27 40 0 40 0 C40 0 161 0 161 0 L161 0 Z " />
<glyph glyph-name="Zcaron" unicode="&#x17d;" horiz-adv-x="642" d="M648 146 C648 146 629 115 629 115 C601 70 579 44 501 38 C501 38 188 31 188 31 C188 31 737 723 737 723 C737 723 742 750 742 750 C742 750 617 750 617 750 C617 750 372 750 372 750 C372 750 202 750 202 750 C186 699 170 649 154 598 C159 597 177 596 180 596 C180 596 188 617 188 617 C212 675 232 707 320 715 C320 715 593 720 593 720 C593 720 30 27 30 27 C30 27 25 0 25 0 C25 0 164 0 164 0 C164 0 446 0 446 0 C446 0 606 0 606 0 C616 24 626 48 637 72 C637 72 667 144 667 144 C663 145 650 146 648 146 C648 146 648 146 648 146 L648 146 Z M504 928 C504 928 663 1045 663 1045 C663 1045 676 1032 676 1032 C676 1032 531 854 531 854 C520 841 497 813 483 813 C469 813 457 840 450 854 C450 854 368 1032 368 1032 C368 1032 386 1045 386 1045 C386 1045 504 928 504 928 L504 928 Z " />
<glyph glyph-name="zcaron" unicode="&#x17e;" horiz-adv-x="475" d="M385 678 C385 678 544 795 544 795 C544 795 557 782 557 782 C557 782 412 604 412 604 C401 591 378 563 364 563 C350 563 337 590 331 604 C331 604 249 782 249 782 C249 782 266 795 266 795 C266 795 385 678 385 678 L385 678 Z M161 0 C161 0 318 0 318 0 C318 0 430 0 430 0 C440 34 453 70 463 105 C463 105 453 105 453 105 C453 105 440 94 440 94 C398 61 369 42 312 37 C312 37 185 32 185 32 C185 32 518 473 518 473 C518 473 523 500 523 500 C523 500 406 500 406 500 C406 500 223 500 223 500 C212 500 201 506 207 519 C207 519 211 528 211 528 C211 528 191 528 191 528 C181 506 171 484 161 461 C161 461 131 395 131 395 C131 395 143 395 143 395 C143 395 156 405 156 405 C195 437 221 457 270 463 C270 463 381 467 381 467 C381 467 45 27 45 27 C45 27 40 0 40 0 C40 0 161 0 161 0 L161 0 Z " />
<glyph glyph-name="SmallLetterOwithogon" unicode="&#x1eb;" horiz-adv-x="794" d="M1012 -41 C1012 -41 1006 -31 1006 -31 C961 -64 867 -81 727 -81 C624 -81 521 -57 418 -9 C636 2 762 103 796 292 C831 492 729 593 494 593 C264 593 131 492 95 292 C75 175 136 92 212 43 C212 43 212 43 212 43 C441 -104 602 -178 693 -178 C780 -178 888 -132 1012 -41 L1012 -41 Z M389 21 C371 21 349 27 327 40 C325 41 324 41 323 42 C323 42 323 42 323 42 C263 78 205 162 228 292 C259 472 345 563 483 563 C635 563 695 472 663 292 C632 112 540 21 389 21 L389 21 Z " />
<glyph glyph-name="CapitalLetterAwithdo" unicode="&#x226;" horiz-adv-x="770" d="M547 865 C597 865 626 890 635 939 C643 989 623 1014 574 1014 C525 1014 495 989 486 939 C478 890 498 865 547 865 L547 865 Z M465 0 C465 0 559 0 559 0 C559 0 694 0 694 0 C694 0 754 0 754 0 C755 4 757 18 758 20 C758 20 734 20 734 20 C705 20 689 28 673 140 C673 140 672 140 672 140 C672 140 584 709 584 709 C584 709 575 770 575 770 C575 770 561 770 561 770 C531 735 496 715 456 709 C456 709 457 699 457 699 C457 699 457 699 457 699 C457 699 189 170 189 170 C189 170 189 170 189 170 C187 166 185 163 184 159 C184 159 180 152 180 152 C117 29 88 20 40 20 C40 20 18 20 18 20 C17 16 15 2 14 0 C14 0 103 0 103 0 C103 0 141 0 141 0 C141 0 257 0 257 0 C258 4 260 18 261 20 C261 20 240 20 240 20 C182 20 158 29 217 155 C217 155 275 273 275 273 C275 273 519 273 519 273 C519 273 542 119 542 119 C552 27 531 20 489 20 C489 20 468 20 468 20 C467 10 465 8 465 0 C465 0 465 0 465 0 L465 0 Z M291 306 C291 306 463 659 463 659 C463 659 515 306 515 306 C515 306 291 306 291 306 L291 306 Z " />
<glyph glyph-name="LETTERSMALLCAPITALG" unicode="&#x262;" horiz-adv-x="735" d="M708 404 C712 433 717 461 723 489 C722 489 727 518 738 574 C738 574 723 574 723 574 C722 574 719 567 714 554 C711 549 687 553 644 572 C644 572 643 572 643 572 C611 586 565 593 491 593 C264 593 132 492 97 292 C61 91 159 -10 390 -10 C480 -10 543 1 608 23 C608 23 617 25 617 25 C617 25 617 26 617 26 C644 35 671 46 700 59 C700 59 695 76 695 76 C669 65 645 55 621 47 C621 47 644 173 644 173 C653 229 671 233 703 233 C703 233 714 233 714 233 C714 233 719 253 717 253 C717 253 472 253 472 253 C471 249 469 235 468 233 C468 233 479 233 479 233 C518 233 537 229 528 173 C528 173 504 22 504 22 C504 22 504 22 504 22 C504 22 520 125 520 125 C508 54 469 18 405 18 C252 18 192 110 224 292 C255 473 347 564 498 564 C522 564 542 562 559 559 C634 544 681 479 690 419 C692 409 692 404 693 404 C693 404 708 404 708 404 L708 404 Z " />
<glyph glyph-name="LETTERSMALLCAPITALI" unicode="&#x26a;" horiz-adv-x="354" d="M405 583 C405 583 142 583 142 583 C141 579 139 565 138 563 C138 563 149 563 149 563 C191 563 212 559 202 503 C202 503 127 80 127 80 C117 24 95 20 53 20 C53 20 43 20 43 20 C42 16 40 2 39 0 C39 0 302 0 302 0 C303 4 305 18 306 20 C306 20 295 20 295 20 C254 20 233 24 243 80 C243 80 317 503 317 503 C328 559 349 563 391 563 C391 563 402 563 402 563 C400 563 405 583 405 583 L405 583 Z " />
<glyph glyph-name="LETTERSMALLCAPITALN" unicode="&#x274;" horiz-adv-x="678" d="M101 563 C101 563 127 563 127 563 C141 563 149 561 170 528 C170 528 170 528 170 528 C170 528 203 480 203 480 C203 480 140 132 140 132 C120 28 97 20 56 20 C56 20 33 20 33 20 C32 16 30 2 29 0 C29 0 117 0 117 0 C117 0 152 0 152 0 C152 0 239 0 239 0 C240 4 242 18 243 20 C243 20 220 20 220 20 C181 20 160 26 170 105 C170 105 227 444 227 444 C227 444 436 128 436 128 C436 128 521 0 521 0 C521 0 544 0 544 0 C544 0 633 463 633 463 C633 463 633 463 633 463 C633 464 633 464 633 465 C633 465 637 486 637 486 C653 557 681 563 727 563 C727 563 738 563 738 563 C739 567 741 581 742 583 C742 583 656 583 656 583 C656 583 621 583 621 583 C621 583 534 583 534 583 C533 579 531 565 530 563 C530 563 541 563 541 563 C592 563 616 556 600 463 C600 463 600 463 600 463 C600 463 544 137 544 137 C544 137 516 184 516 184 C516 184 277 583 277 583 C277 583 250 583 250 583 C250 583 221 583 221 583 C221 583 134 583 134 583 C134 583 105 583 105 583 C104 579 102 565 101 563 C101 563 101 563 101 563 L101 563 Z " />
<glyph glyph-name="LETTERSMALLCAPITALR" unicode="&#x280;" horiz-adv-x="646" d="M147 563 C147 563 158 563 158 563 C200 563 220 558 210 498 C210 498 137 85 137 85 C126 25 104 20 62 20 C62 20 52 20 52 20 C51 16 49 2 48 0 C48 0 311 0 311 0 C312 4 314 18 315 20 C315 20 304 20 304 20 C262 20 241 25 252 85 C252 85 284 267 284 267 C284 267 313 267 313 267 C325 238 363 169 425 62 C464 -4 451 0 637 0 C637 0 641 23 641 23 C579 23 584 21 561 62 C561 62 436 275 436 275 C536 290 592 331 607 417 C627 527 549 583 374 583 C374 583 340 583 340 583 C340 583 151 583 151 583 C150 579 148 565 147 563 C147 563 147 563 147 563 L147 563 Z M339 577 C339 577 336 560 336 560 C448 560 498 519 484 439 C464 330 413 296 323 296 C323 296 290 296 290 296 C290 296 285 273 285 273 C285 273 325 498 325 498 C334 547 337 568 339 577 L339 577 Z " />
<glyph glyph-name="LETTERSMALLCAPITALY" unicode="&#x28f;" horiz-adv-x="669" d="M355 583 C355 583 281 583 281 583 C281 583 144 583 144 583 C144 583 113 583 113 583 C113 583 108 563 110 563 C110 563 136 563 136 563 C147 563 157 557 195 488 C195 488 328 243 328 243 C328 243 328 243 328 243 C328 243 299 80 299 80 C289 24 267 20 226 20 C226 20 215 20 215 20 C214 10 212 8 212 0 C212 0 475 0 475 0 C475 0 476 3 476 10 C478 17 478 20 478 20 C478 20 468 20 468 20 C426 20 405 24 415 80 C415 80 445 247 445 247 C445 247 594 443 594 443 C594 443 595 443 595 443 C680 555 698 563 721 563 C721 563 746 563 746 563 C745 563 746 566 748 573 C748 580 749 583 749 583 C749 583 701 583 701 583 C701 583 643 583 643 583 C643 583 570 583 570 583 C569 579 567 565 566 563 C566 563 586 563 586 563 C609 563 622 560 606 528 C606 528 438 282 438 282 C438 282 333 483 333 483 C297 557 308 563 332 563 C332 563 351 563 351 563 C352 567 354 581 355 583 C355 583 355 583 355 583 L355 583 Z " />
<glyph glyph-name="LETTERSMALLCAPITALB" unicode="&#x299;" horiz-adv-x="599" d="M48 0 C48 0 237 0 237 0 C237 0 238 6 252 85 C252 85 288 289 288 289 C288 289 379 289 379 289 C446 282 474 237 460 155 C438 37 401 23 332 23 C332 23 282 23 282 23 C255 23 245 42 252 80 C252 80 237 0 237 0 C237 0 357 0 357 0 C491 0 562 16 587 155 C602 239 571 289 495 305 C557 327 594 374 606 444 C622 536 607 583 400 583 C400 583 340 583 340 583 C340 583 151 583 151 583 C150 579 148 565 147 563 C147 563 158 563 158 563 C200 563 220 558 210 498 C210 498 137 85 137 85 C126 25 104 20 62 20 C62 20 52 20 52 20 C51 16 49 2 48 0 C48 0 48 0 48 0 L48 0 Z M339 577 C339 577 336 560 336 560 C336 560 349 560 349 560 C495 560 504 517 489 432 C475 351 440 310 386 310 C386 310 292 310 292 310 C292 310 289 293 289 293 C289 293 325 498 325 498 C334 547 337 568 339 577 L339 577 Z " />
<glyph glyph-name="LETTERSMALLCAPITALH" unicode="&#x29c;" horiz-adv-x="767" d="M452 0 C452 0 716 0 716 0 C716 0 719 20 719 20 C719 20 708 20 708 20 C667 20 646 24 656 80 C656 80 731 503 731 503 C741 559 762 563 804 563 C804 563 815 563 815 563 C815 563 820 583 818 583 C818 583 555 583 555 583 C555 583 550 563 552 563 C552 563 562 563 562 563 C604 563 625 559 615 503 C615 503 581 314 581 314 C581 314 329 314 329 314 C329 314 362 503 362 503 C372 559 394 563 436 563 C436 563 447 563 447 563 C445 563 450 583 450 583 C450 583 187 583 187 583 C186 579 184 565 183 563 C183 563 194 563 194 563 C236 563 257 559 247 503 C247 503 172 80 172 80 C162 24 140 20 98 20 C98 20 88 20 88 20 C87 16 85 2 84 0 C84 0 347 0 347 0 C348 4 350 18 351 20 C351 20 340 20 340 20 C298 20 277 24 288 80 C288 80 323 282 323 282 C323 282 576 282 576 282 C576 282 540 80 540 80 C530 24 508 20 467 20 C467 20 456 20 456 20 C455 16 453 2 452 0 L452 0 Z " />
<glyph glyph-name="LETTERSMALLCAPITALL" unicode="&#x29f;" horiz-adv-x="544" d="M39 0 C39 0 113 0 113 0 C113 0 229 0 229 0 C229 0 298 0 298 0 C298 0 483 0 483 0 C483 0 489 0 489 0 C489 0 492 20 492 20 C509 57 527 95 542 133 C542 133 523 136 523 136 C523 136 519 125 519 125 C488 55 461 20 310 20 C233 20 236 40 243 80 C243 80 243 80 243 80 C243 80 317 504 317 504 C329 558 350 563 391 563 C391 563 402 563 402 563 C400 563 405 583 405 583 C405 583 331 583 331 583 C331 583 216 583 216 583 C216 583 142 583 142 583 C141 579 139 565 138 563 C138 563 149 563 149 563 C191 563 211 558 201 499 C201 499 128 85 128 85 C128 85 128 85 128 85 C117 25 95 20 53 20 C53 20 43 20 43 20 C42 16 40 2 39 0 C39 0 39 0 39 0 L39 0 Z " />
<glyph glyph-name="LETTERSMALLCAPITALA" unicode="&#x1d00;" horiz-adv-x="687" d="M395 0 C395 0 490 0 490 0 C490 0 612 0 612 0 C612 0 671 0 671 0 C672 4 674 18 675 20 C675 20 651 20 651 20 C624 20 608 27 589 121 C589 121 509 555 509 555 C509 555 500 603 500 603 C500 603 488 603 488 603 C465 577 433 560 394 555 C394 555 396 545 396 545 C396 545 395 545 395 545 C395 545 175 134 175 134 C116 28 86 20 42 20 C42 20 19 20 19 20 C19 18 19 8 16 0 C16 0 104 0 104 0 C104 0 138 0 138 0 C138 0 254 0 254 0 C255 4 257 18 258 20 C258 20 237 20 237 20 C178 20 153 30 226 170 C226 170 226 170 226 170 C226 170 246 209 246 209 C246 209 454 209 454 209 C454 209 470 118 470 118 C483 27 462 20 420 20 C420 20 399 20 399 20 C398 16 396 2 395 0 C395 0 395 0 395 0 L395 0 Z M261 239 C261 239 402 511 402 511 C402 511 449 239 449 239 C449 239 261 239 261 239 L261 239 Z " />
<glyph glyph-name="LETTERSMALLCAPITALC" unicode="&#x1d04;" horiz-adv-x="677" d="M708 404 C712 433 717 461 723 489 C722 489 727 518 738 574 C738 574 723 574 723 574 C722 574 719 567 714 554 C711 549 687 553 644 572 C644 572 643 572 643 572 C611 586 565 593 491 593 C264 593 132 492 97 292 C61 91 155 -10 376 -10 C449 -10 500 -2 541 13 C548 14 584 21 621 27 C626 28 628 21 625 6 C625 6 637 6 637 6 C637 6 651 89 651 89 C652 90 652 90 652 90 C652 90 652 90 652 90 C652 90 652 93 652 93 C652 93 658 122 668 179 C668 179 653 179 653 179 C653 179 650 174 645 164 C620 115 565 58 499 33 C469 22 435 17 392 17 C248 17 191 109 224 292 C255 473 347 564 498 564 C522 564 542 562 559 559 C634 544 681 479 690 419 C692 409 692 404 693 404 C693 404 708 404 708 404 L708 404 Z " />
<glyph glyph-name="LETTERSMALLCAPITALD" unicode="&#x1d05;" horiz-adv-x="774" d="M48 0 C48 0 122 0 122 0 C122 0 237 0 237 0 C237 0 325 498 325 498 C325 498 325 498 325 498 C334 547 337 568 339 577 C339 577 336 560 336 560 C595 558 675 468 643 292 C609 95 484 23 263 23 C241 23 245 42 252 80 C252 80 237 0 237 0 C237 0 293 0 293 0 C576 0 733 79 771 292 C805 485 715 583 424 583 C424 583 340 583 340 583 C340 583 225 583 225 583 C225 583 151 583 151 583 C150 579 148 565 147 563 C147 563 158 563 158 563 C200 563 220 558 210 499 C210 499 137 85 137 85 C137 85 137 85 137 85 C126 25 104 20 62 20 C62 20 52 20 52 20 C51 16 49 2 48 0 L48 0 Z " />
<glyph glyph-name="LETTERSMALLCAPITALE" unicode="&#x1d07;" horiz-adv-x="575" d="M558 471 C558 471 578 471 578 471 C582 508 586 547 590 583 C590 583 470 583 470 583 C470 583 340 583 340 583 C340 583 225 583 225 583 C225 583 151 583 151 583 C150 579 148 565 147 563 C147 563 158 563 158 563 C200 563 220 558 210 499 C210 499 137 85 137 85 C137 85 137 85 137 85 C126 25 104 20 62 20 C62 20 52 20 52 20 C51 16 49 2 48 0 C48 0 122 0 122 0 C122 0 237 0 237 0 C237 0 392 0 392 0 C392 0 512 0 512 0 C524 37 536 76 548 112 C548 112 528 112 528 112 C528 112 525 102 525 102 C508 51 493 25 400 25 C400 25 322 25 322 25 C249 25 245 40 250 70 C250 70 242 25 242 25 C242 25 237 0 237 0 C237 0 325 498 325 498 C325 498 325 498 325 498 C339 577 340 583 340 583 C340 583 336 559 336 559 C336 559 468 559 468 559 C584 559 565 530 558 471 L558 471 Z M290 299 C290 299 360 299 360 299 C453 299 455 270 445 212 C445 212 443 201 443 201 C443 201 463 201 463 201 C468 234 474 266 480 299 C480 299 480 299 480 299 C480 299 482 309 482 309 C489 348 496 386 502 425 C502 425 482 425 482 425 C482 425 481 415 481 415 C470 356 458 327 365 327 C365 327 295 327 295 327 C295 327 290 299 290 299 L290 299 Z M250 70 C251 73 251 77 252 80 C252 80 250 70 250 70 L250 70 Z " />
<glyph glyph-name="LETTERSMALLCAPITALJ" unicode="&#x1d0a;" horiz-adv-x="354" d="M405 583 C405 583 142 583 142 583 C141 579 139 565 138 563 C138 563 149 563 149 563 C191 563 212 559 202 503 C202 503 97 -87 97 -87 C83 -173 37 -179 -2 -179 C-67 -179 -11 -82 -76 -82 C-112 -82 -134 -100 -140 -137 C-150 -192 -115 -220 -37 -220 C68 -220 195 -195 252 131 C252 131 317 503 317 503 C328 559 349 563 391 563 C391 563 402 563 402 563 C400 563 405 583 405 583 L405 583 Z " />
<glyph glyph-name="LETTERSMALLCAPITALK" unicode="&#x1d0b;" horiz-adv-x="678" d="M660 20 C660 20 632 20 632 20 C612 20 583 49 561 85 C561 85 560 85 560 85 C560 85 390 366 390 366 C390 366 500 473 500 473 C500 473 500 473 500 473 C500 473 500 473 500 473 C500 473 552 523 552 523 C593 560 611 563 635 563 C635 563 659 563 659 563 C659 563 664 583 662 583 C662 583 613 583 613 583 C613 583 570 583 570 583 C570 583 472 583 472 583 C471 579 469 565 468 563 C468 563 487 563 487 563 C528 563 541 556 446 454 C446 454 289 292 289 292 C289 292 451 33 451 33 C473 -1 472 0 472 0 C472 0 612 0 612 0 C612 0 656 0 656 0 C657 4 659 18 660 20 C660 20 660 20 660 20 L660 20 Z M414 583 C414 583 340 583 340 583 C340 583 225 583 225 583 C225 583 151 583 151 583 C150 579 148 565 147 563 C147 563 158 563 158 563 C200 563 221 560 214 523 C214 523 214 523 214 523 C214 523 133 60 133 60 C133 60 132 60 132 60 C126 23 104 20 62 20 C62 20 52 20 52 20 C51 16 49 2 48 0 C48 0 122 0 122 0 C122 0 237 0 237 0 C237 0 311 0 311 0 C312 4 314 18 315 20 C315 20 304 20 304 20 C262 20 241 23 248 60 C248 60 248 60 248 60 C248 60 329 523 329 523 C329 523 330 523 330 523 C336 560 358 563 400 563 C400 563 411 563 411 563 C409 563 414 583 414 583 L414 583 Z " />
<glyph glyph-name="LETTERSMALLCAPITALM" unicode="&#x1d0d;" horiz-adv-x="800" d="M145 563 C145 563 169 563 169 563 C194 563 211 560 225 533 C225 533 143 150 143 150 C143 150 143 150 143 150 C117 29 93 20 50 20 C50 20 27 20 27 20 C26 10 24 8 24 0 C24 0 111 0 111 0 C111 0 151 0 151 0 C151 0 239 0 239 0 C239 2 242 12 242 20 C242 20 220 20 220 20 C181 20 160 26 171 102 C171 102 244 475 244 475 C289 317 335 158 380 0 C380 0 409 0 409 0 C409 0 679 485 679 485 C679 485 618 70 618 70 C608 24 586 20 546 20 C546 20 535 20 535 20 C537 20 532 0 532 0 C532 0 608 0 608 0 C608 0 724 0 724 0 C724 0 794 0 794 0 C795 4 797 18 798 20 C798 20 787 20 787 20 C747 20 727 25 736 85 C736 85 736 85 736 85 C736 85 780 413 780 413 C780 413 780 413 780 413 C800 553 818 563 850 563 C850 563 873 563 873 563 C873 563 878 583 876 583 C876 583 803 583 803 583 C803 583 733 583 733 583 C733 583 693 583 693 583 C693 583 463 155 463 155 C463 155 464 157 464 157 C464 157 352 583 352 583 C352 583 265 583 265 583 C265 583 236 583 236 583 C236 583 213 583 213 583 C213 583 149 583 149 583 C148 579 146 565 145 563 C145 563 145 563 145 563 L145 563 Z " />
<glyph glyph-name="LETTERSMALLCAPITALO" unicode="&#x1d0f;" horiz-adv-x="799" d="M389 21 C250 21 196 112 228 292 C259 472 345 563 483 563 C635 563 695 472 663 292 C632 112 540 21 389 21 L389 21 Z M95 292 C60 91 155 -10 377 -10 C620 -10 760 91 796 292 C831 492 729 593 494 593 C264 593 131 492 95 292 L95 292 Z " />
<glyph glyph-name="LETTERSMALLCAPITALP" unicode="&#x1d18;" horiz-adv-x="533" d="M176 563 C176 563 187 563 187 563 C229 563 249 558 239 499 C239 499 166 85 166 85 C166 85 166 85 166 85 C155 25 133 20 91 20 C91 20 80 20 80 20 C80 18 80 8 77 0 C77 0 151 0 151 0 C151 0 266 0 266 0 C266 0 340 0 340 0 C341 4 343 18 344 20 C344 20 333 20 333 20 C292 20 271 25 280 80 C280 80 314 274 314 274 C314 274 312 259 312 259 C312 259 347 259 347 259 C488 259 566 296 588 418 C607 527 557 583 439 583 C439 583 369 583 369 583 C369 583 366 564 366 564 C366 564 406 564 406 564 C472 564 498 521 483 437 C462 320 421 284 351 284 C351 284 316 284 316 284 C316 284 354 498 354 498 C354 498 354 498 354 498 C368 577 369 583 369 583 C369 583 254 583 254 583 C254 583 180 583 180 583 C179 579 177 565 176 563 C176 563 176 563 176 563 L176 563 Z " />
<glyph glyph-name="LETTERSMALLCAPITALT" unicode="&#x1d1b;" horiz-adv-x="715" d="M226 0 C226 0 489 0 489 0 C490 4 492 18 493 20 C493 20 482 20 482 20 C440 20 419 24 429 80 C429 80 513 554 513 554 C513 554 638 554 638 554 C738 554 742 531 752 481 C752 481 761 481 761 481 C768 482 771 482 771 482 C767 506 762 530 758 554 C758 554 758 554 758 554 C758 554 763 583 763 583 C763 583 752 583 752 583 C750 596 747 610 745 623 C745 623 725 623 725 623 C732 592 732 583 632 583 C632 583 518 583 518 583 C518 583 403 583 403 583 C403 583 288 583 288 583 C195 583 194 593 205 614 C205 614 210 623 210 623 C210 623 190 623 190 623 C183 610 175 596 168 583 C168 583 158 583 158 583 C158 583 153 555 153 555 C140 531 127 507 114 482 C114 482 117 482 123 481 C123 481 133 481 133 481 C133 481 139 491 139 491 C161 533 180 554 273 554 C273 554 398 554 398 554 C398 554 314 80 314 80 C304 24 282 20 240 20 C240 20 229 20 229 20 C229 18 229 8 226 0 C226 0 226 0 226 0 L226 0 Z " />
<glyph glyph-name="LETTERSMALLCAPITALU" unicode="&#x1d1c;" horiz-adv-x="669" d="M484 563 C484 563 495 563 495 563 C537 563 557 558 546 498 C546 498 490 176 490 176 C442 103 380 65 305 65 C244 65 222 111 238 202 C238 202 290 498 290 498 C304 577 305 583 305 583 C305 583 116 583 116 583 C115 579 113 565 112 563 C112 563 123 563 123 563 C165 563 185 558 175 498 C175 498 122 202 122 202 C98 61 139 -10 245 -10 C344 -10 423 35 480 124 C480 124 478 110 478 110 C478 110 459 0 459 0 C459 0 477 0 477 0 C477 0 657 55 657 55 C657 55 659 65 659 65 C590 61 585 63 594 110 C594 110 662 498 662 498 C676 577 677 583 677 583 C677 583 488 583 488 583 C487 579 485 565 484 563 C484 563 484 563 484 563 L484 563 Z " />
<glyph glyph-name="LETTERSMALLCAPITALV" unicode="&#x1d20;" horiz-adv-x="710" d="M399 583 C399 583 283 583 283 583 C283 583 150 583 150 583 C150 583 114 583 114 583 C114 583 113 580 113 573 C111 566 110 563 111 563 C111 563 137 563 137 563 C149 563 156 561 165 533 C165 533 277 175 277 175 C277 175 335 -10 335 -10 C335 -10 358 -10 358 -10 C358 -10 641 443 641 443 C641 443 641 443 641 443 C643 446 645 449 646 452 C646 452 677 501 677 501 C715 558 734 563 758 563 C758 563 782 563 782 563 C783 567 785 581 786 583 C786 583 728 583 728 583 C728 583 682 583 682 583 C682 583 566 583 566 583 C565 579 563 565 562 563 C562 563 583 563 583 563 C641 563 665 555 600 443 C600 443 600 443 600 443 C600 443 335 -10 335 -10 C335 -10 443 175 443 175 C443 175 338 443 338 443 C338 443 338 443 338 443 C303 555 326 563 376 563 C376 563 396 563 396 563 C394 563 399 583 399 583 C399 583 399 583 399 583 L399 583 Z " />
<glyph glyph-name="LETTERSMALLCAPITALW" unicode="&#x1d21;" horiz-adv-x="969" d="M1047 583 C1047 583 987 583 987 583 C987 583 939 583 939 583 C939 583 823 583 823 583 C823 583 818 563 820 563 C820 563 841 563 841 563 C896 563 922 556 880 458 C880 458 741 166 741 166 C741 166 742 168 742 168 C742 168 641 484 641 484 C620 558 642 563 687 563 C687 563 707 563 707 563 C708 567 710 581 711 583 C711 583 609 583 609 583 C609 583 475 583 475 583 C475 583 418 583 418 583 C417 579 415 565 414 563 C414 563 438 563 438 563 C467 563 482 560 493 523 C493 523 494 523 494 523 C507 478 521 433 535 389 C535 389 407 145 407 145 C407 145 407 146 407 146 C407 146 320 444 320 444 C288 555 309 563 357 563 C357 563 377 563 377 563 C378 567 380 581 381 583 C381 583 279 583 279 583 C279 583 152 583 152 583 C152 583 115 583 115 583 C117 583 112 563 112 563 C112 563 138 563 138 563 C150 563 158 556 184 472 C231 311 278 150 325 -10 C325 -10 355 -10 355 -10 C355 -10 549 342 549 342 C585 225 622 107 658 -10 C658 -10 688 -10 688 -10 C688 -10 946 502 946 502 C978 558 995 563 1019 563 C1019 563 1043 563 1043 563 C1044 567 1046 581 1047 583 C1047 583 1047 583 1047 583 L1047 583 Z " />
<glyph glyph-name="LETTERSMALLCAPITALZ" unicode="&#x1d22;" horiz-adv-x="582" d="M586 142 C586 142 567 111 567 111 C539 65 517 40 436 34 C436 34 176 28 176 28 C176 28 649 559 649 559 C649 559 653 583 653 583 C653 583 540 583 540 583 C540 583 343 583 343 583 C343 583 173 583 173 583 C157 535 142 485 126 436 C129 436 141 433 151 433 C151 433 160 454 160 454 C184 512 205 545 294 552 C294 552 516 556 516 556 C516 556 29 24 29 24 C29 24 25 0 25 0 C25 0 151 0 151 0 C151 0 386 0 386 0 C386 0 546 0 546 0 C566 46 587 93 605 140 C605 140 586 142 586 142 L586 142 Z " />
<glyph glyph-name="Wgrave" unicode="&#x1e80;" horiz-adv-x="1103" d="M1211 750 C1211 750 1151 750 1151 750 C1151 750 1098 750 1098 750 C1098 750 982 750 982 750 C982 750 979 730 978 730 C978 730 999 730 999 730 C1056 730 1083 723 1042 624 C1042 624 846 184 846 184 C846 184 847 187 847 187 C847 187 736 640 736 640 C736 640 736 640 736 640 C736 641 736 642 735 643 C735 643 734 650 734 650 C716 724 740 730 787 730 C787 730 807 730 807 730 C808 730 811 750 811 750 C811 750 709 750 709 750 C709 750 560 750 560 750 C560 750 502 750 502 750 C501 740 499 738 499 730 C499 730 522 730 522 730 C549 730 564 727 574 697 C591 631 609 565 626 500 C626 500 453 163 453 163 C453 163 351 610 351 610 C351 610 351 610 351 610 C324 722 347 730 397 730 C397 730 417 730 417 730 C418 730 421 750 421 750 C421 750 319 750 319 750 C319 750 178 750 178 750 C178 750 140 750 140 750 C140 750 137 730 137 730 C137 730 163 730 163 730 C176 730 185 722 212 610 C212 610 212 610 212 610 C263 403 314 197 364 -10 C364 -10 398 -10 398 -10 C398 -10 640 444 640 444 C680 293 720 141 760 -10 C760 -10 794 -10 794 -10 C794 -10 1113 668 1113 668 C1143 725 1160 730 1184 730 C1184 730 1208 730 1208 730 C1209 740 1211 742 1211 750 C1211 750 1211 750 1211 750 L1211 750 Z M614 981 C593 1024 580 1046 571 1046 C537 1046 510 1023 504 988 C502 978 518 960 552 929 C552 929 676 811 676 811 C676 811 693 826 693 826 C693 826 614 981 614 981 L614 981 Z " />
<glyph glyph-name="Wacute" unicode="&#x1e82;" horiz-adv-x="1103" d="M683 811 C683 811 849 929 849 929 C894 962 917 980 918 988 C924 1023 905 1046 871 1046 C863 1046 843 1024 805 981 C805 981 672 826 672 826 C672 826 683 811 683 811 L683 811 Z M1211 750 C1211 750 1151 750 1151 750 C1151 750 1098 750 1098 750 C1098 750 982 750 982 750 C982 750 979 730 978 730 C978 730 999 730 999 730 C1056 730 1083 723 1042 624 C1042 624 846 184 846 184 C846 184 847 187 847 187 C847 187 736 640 736 640 C736 640 736 640 736 640 C736 641 736 642 735 643 C735 643 734 650 734 650 C716 724 740 730 787 730 C787 730 807 730 807 730 C808 730 811 750 811 750 C811 750 709 750 709 750 C709 750 560 750 560 750 C560 750 502 750 502 750 C501 740 499 738 499 730 C499 730 522 730 522 730 C549 730 564 727 574 697 C591 631 609 565 626 500 C626 500 453 163 453 163 C453 163 351 610 351 610 C351 610 351 610 351 610 C324 722 347 730 397 730 C397 730 417 730 417 730 C418 730 421 750 421 750 C421 750 319 750 319 750 C319 750 178 750 178 750 C178 750 140 750 140 750 C140 750 137 730 137 730 C137 730 163 730 163 730 C176 730 185 722 212 610 C212 610 212 610 212 610 C263 403 314 197 364 -10 C364 -10 398 -10 398 -10 C398 -10 640 444 640 444 C680 293 720 141 760 -10 C760 -10 794 -10 794 -10 C794 -10 1113 668 1113 668 C1143 725 1160 730 1184 730 C1184 730 1208 730 1208 730 C1209 740 1211 742 1211 750 C1211 750 1211 750 1211 750 L1211 750 Z " />
<glyph glyph-name="Wdieresis" unicode="&#x1e84;" horiz-adv-x="1103" d="M765 865 C814 865 844 890 852 939 C861 989 841 1014 791 1014 C742 1014 712 989 703 939 C695 890 715 865 765 865 L765 865 Z M604 865 C654 865 683 890 692 939 C700 989 680 1014 630 1014 C581 1014 551 989 543 939 C534 890 555 865 604 865 L604 865 Z M1211 750 C1211 750 1151 750 1151 750 C1151 750 1098 750 1098 750 C1098 750 982 750 982 750 C982 750 979 730 978 730 C978 730 999 730 999 730 C1056 730 1083 723 1042 624 C1042 624 846 184 846 184 C846 184 847 187 847 187 C847 187 736 640 736 640 C736 640 736 640 736 640 C736 641 736 642 735 643 C735 643 734 650 734 650 C716 724 740 730 787 730 C787 730 807 730 807 730 C808 730 811 750 811 750 C811 750 709 750 709 750 C709 750 560 750 560 750 C560 750 502 750 502 750 C501 740 499 738 499 730 C499 730 522 730 522 730 C549 730 564 727 574 697 C591 631 609 565 626 500 C626 500 453 163 453 163 C453 163 351 610 351 610 C351 610 351 610 351 610 C324 722 347 730 397 730 C397 730 417 730 417 730 C418 730 421 750 421 750 C421 750 319 750 319 750 C319 750 178 750 178 750 C178 750 140 750 140 750 C140 750 137 730 137 730 C137 730 163 730 163 730 C176 730 185 722 212 610 C212 610 212 610 212 610 C263 403 314 197 364 -10 C364 -10 398 -10 398 -10 C398 -10 640 444 640 444 C680 293 720 141 760 -10 C760 -10 794 -10 794 -10 C794 -10 1113 668 1113 668 C1143 725 1160 730 1184 730 C1184 730 1208 730 1208 730 C1209 740 1211 742 1211 750 C1211 750 1211 750 1211 750 L1211 750 Z " />
<glyph glyph-name="CapitalLetterEWITHTI" unicode="&#x1ebc;" horiz-adv-x="644" d="M352 870 C359 907 375 925 400 925 C465 925 493 860 557 860 C618 860 657 907 673 1001 C673 1001 653 1001 653 1001 C646 961 628 941 598 941 C533 941 505 1006 441 1006 C385 1006 348 960 332 870 C332 870 352 870 352 870 L352 870 Z M657 635 C657 635 677 635 677 635 C681 674 685 711 689 750 C689 750 569 750 569 750 C569 750 379 750 379 750 C379 750 251 750 251 750 C251 750 177 750 177 750 C177 750 174 730 173 730 C173 730 184 730 184 730 C226 730 247 725 236 665 C236 665 236 665 236 665 C236 665 133 82 133 82 C122 25 100 20 59 20 C59 20 48 20 48 20 C48 18 48 8 45 0 C45 0 119 0 119 0 C119 0 247 0 247 0 C247 0 255 47 255 47 C256 52 257 58 258 64 C258 64 252 27 252 27 C252 27 247 0 247 0 C247 0 462 0 462 0 C462 0 582 0 582 0 C594 39 605 77 619 115 C619 115 599 115 599 115 C599 115 595 104 595 104 C579 53 564 27 471 27 C471 27 332 27 332 27 C259 27 255 42 259 71 C260 75 261 80 262 85 C262 85 262 85 262 85 C262 85 318 401 318 401 C318 401 315 385 315 385 C315 385 445 385 445 385 C538 385 540 356 529 297 C529 297 528 287 528 287 C528 287 548 287 548 287 C553 319 559 352 565 385 C565 385 565 385 565 385 C565 385 569 408 569 408 C575 443 582 479 588 514 C588 514 568 514 568 514 C568 514 566 503 566 503 C556 445 543 416 450 416 C450 416 320 416 320 416 C320 416 371 703 371 703 C372 711 373 717 374 723 C374 723 566 723 566 723 C683 723 664 694 657 635 L657 635 Z " />
<glyph glyph-name="Ygrave" unicode="&#x1ef2;" horiz-adv-x="760" d="M395 750 C395 750 322 750 322 750 C322 750 170 750 170 750 C170 750 138 750 138 750 C137 750 134 730 134 730 C134 730 160 730 160 730 C173 730 184 722 238 610 C238 610 238 610 238 610 C238 610 381 316 381 316 C381 316 339 80 339 80 C329 24 307 20 266 20 C266 20 255 20 255 20 C254 16 252 2 251 0 C251 0 527 0 527 0 C528 4 530 18 531 20 C531 20 520 20 520 20 C479 20 458 24 468 80 C468 80 511 321 511 321 C511 321 740 636 740 636 C805 723 821 730 843 730 C843 730 867 730 867 730 C867 730 870 750 871 750 C871 750 822 750 822 750 C822 750 758 750 758 750 C758 750 684 750 684 750 C684 750 681 730 680 730 C680 730 701 730 701 730 C724 730 737 726 719 691 C719 691 504 362 504 362 C504 362 365 659 365 659 C337 725 348 730 373 730 C373 730 392 730 392 730 C393 740 395 742 395 750 C395 750 395 750 395 750 L395 750 Z M472 981 C451 1024 438 1046 429 1046 C395 1046 367 1023 361 988 C360 978 376 960 410 929 C410 929 534 811 534 811 C534 811 551 826 551 826 C551 826 472 981 472 981 L472 981 Z " />
<glyph glyph-name="quoteleft" unicode="&#x2018;" horiz-adv-x="638" d="" />
<glyph glyph-name="quoteright" unicode="&#x2019;" horiz-adv-x="178" d="" />
<glyph glyph-name="quotedblleft" unicode="&#x201c;" horiz-adv-x="638" d="M386 640 C372 640 360 636 351 627 C364 695 396 736 445 749 C445 749 437 760 437 760 C370 743 328 690 312 603 C304 556 322 532 367 532 C403 532 425 550 431 586 C438 622 423 640 386 640 L386 640 Z " />
<glyph glyph-name="quotedblright" unicode="&#x201d;" horiz-adv-x="638" d="M424 666 C410 597 375 557 319 542 C319 542 328 532 328 532 C402 551 448 605 463 693 C471 738 452 760 407 760 C371 760 350 742 344 706 C337 670 352 652 388 652 C403 652 415 657 424 666 C424 666 424 666 424 666 L424 666 Z " />
<glyph glyph-name="Euro" unicode="&#x20ac;" horiz-adv-x="813" d="M868 540 C873 569 878 599 883 627 C883 627 884 629 885 633 C885 633 885 633 885 633 C885 633 885 633 885 633 C887 645 892 672 899 714 C899 714 884 714 884 714 C884 714 881 707 875 694 C873 687 850 695 810 720 C771 746 716 760 617 760 C396 760 252 667 186 482 C186 482 152 482 152 482 C152 482 126 400 126 400 C126 400 163 400 163 400 C161 392 159 383 158 375 C157 367 155 358 154 350 C154 350 117 350 117 350 C117 350 91 268 91 268 C91 268 148 268 148 268 C148 83 256 -10 471 -10 C564 -10 627 3 678 29 C678 29 679 29 679 29 C679 29 721 41 762 54 C768 55 769 48 766 33 C766 33 778 33 778 33 C784 62 789 92 794 121 C794 121 799 151 810 209 C810 209 795 209 795 209 C782 184 764 157 741 132 C663 58 600 20 489 20 C349 20 282 103 287 268 C287 268 577 268 577 268 C577 268 603 350 603 350 C603 350 295 350 295 350 C296 358 298 367 299 375 C300 383 302 392 304 400 C304 400 612 400 612 400 C612 400 638 482 638 482 C638 482 325 482 325 482 C378 646 479 728 625 728 C745 728 780 688 832 610 C843 587 850 563 853 540 C853 540 868 540 868 540 L868 540 Z " />
<glyph glyph-name="LETTERSMALLCAPITALF" unicode="&#xa730;" horiz-adv-x="550" d="M581 478 C582 495 584 513 586 530 C587 548 588 566 590 583 C590 583 470 583 470 583 C470 583 340 583 340 583 C340 583 225 583 225 583 C225 583 151 583 151 583 C150 579 148 565 147 563 C147 563 158 563 158 563 C200 563 220 558 210 499 C210 499 137 85 137 85 C137 85 137 85 137 85 C126 25 104 20 62 20 C62 20 52 20 52 20 C51 16 49 2 48 0 C48 0 122 0 122 0 C122 0 237 0 237 0 C237 0 311 0 311 0 C312 4 314 18 315 20 C315 20 304 20 304 20 C263 20 242 25 251 80 C251 80 285 272 285 272 C285 272 437 272 437 272 C443 261 443 247 442 230 C442 230 440 198 440 198 C440 198 452 198 452 198 C456 223 461 248 465 273 C465 273 470 299 470 299 C470 299 470 299 470 299 C474 324 479 349 483 374 C483 374 471 374 471 374 C471 374 462 342 462 342 C453 313 442 299 350 299 C350 299 290 299 290 299 C290 299 286 278 286 278 C286 278 325 498 325 498 C325 498 325 498 325 498 C339 577 340 583 340 583 C340 583 337 564 337 564 C337 564 389 564 389 564 C556 564 566 538 562 487 C562 487 561 476 561 476 C579 478 577 478 581 478 C581 478 581 478 581 478 L581 478 Z " />
<glyph glyph-name="LETTERSMALLCAPITALS" unicode="&#xa731;" horiz-adv-x="492" d="M489 426 C494 451 498 477 503 502 C503 502 503 502 503 502 C503 502 503 503 503 503 C503 503 503 504 503 504 C503 504 508 530 517 582 C517 582 502 582 502 582 C502 582 499 575 493 562 C491 556 473 558 444 573 C444 573 443 573 443 573 C417 586 383 593 341 593 C225 593 156 538 137 428 C120 335 151 273 257 232 C355 193 389 162 383 127 C371 61 328 27 256 27 C238 27 222 29 208 32 C142 48 106 120 97 188 C97 188 82 188 82 188 C76 153 71 128 69 113 C69 113 68 113 68 113 C68 113 68 112 68 112 C67 103 66 99 66 99 C61 70 56 40 51 11 C51 11 66 11 66 11 C66 11 69 20 75 36 C77 43 101 37 144 13 C144 13 144 13 144 13 C172 -2 207 -10 249 -10 C383 -10 461 47 481 161 C496 247 462 307 348 352 C256 387 227 424 235 472 C246 533 280 564 336 564 C413 564 462 502 472 441 C473 431 474 426 474 426 C474 426 489 426 489 426 L489 426 Z " />
<glyph glyph-name="[namenotfound]" unicode="&#xf078;" horiz-adv-x="691" d="M762 583 C762 583 720 583 720 583 C720 583 668 583 668 583 C668 583 573 583 573 583 C572 579 570 565 569 563 C569 563 588 563 588 563 C626 563 639 555 542 452 C542 452 436 342 436 342 C436 342 381 443 381 443 C381 443 382 443 382 443 C322 555 335 563 371 563 C371 563 390 563 390 563 C391 567 393 581 394 583 C394 583 306 583 306 583 C306 583 170 583 170 583 C170 583 131 583 131 583 C131 583 130 580 130 573 C128 566 127 563 128 563 C128 563 153 563 153 563 C171 563 185 555 245 443 C245 443 245 443 245 443 C245 443 340 266 340 266 C340 266 168 92 168 92 C98 26 75 20 45 20 C45 20 22 20 22 20 C21 10 19 8 19 0 C19 0 76 0 76 0 C76 0 122 0 122 0 C122 0 252 0 252 0 C253 4 255 18 256 20 C256 20 237 20 237 20 C177 20 150 27 224 109 C224 109 249 136 249 136 C253 140 258 145 263 150 C263 150 262 150 262 150 C262 150 351 245 351 245 C351 245 417 124 417 124 C467 27 452 20 418 20 C418 20 399 20 399 20 C398 16 396 2 395 0 C395 0 483 0 483 0 C483 0 620 0 620 0 C620 0 666 0 666 0 C666 2 669 12 669 20 C669 20 645 20 645 20 C621 20 605 28 545 140 C545 140 545 140 545 140 C545 140 447 321 447 321 C447 321 543 413 543 413 C543 413 543 413 543 413 C543 413 544 414 544 414 C544 414 670 535 670 535 C702 560 717 563 734 563 C734 563 759 563 759 563 C757 563 762 583 762 583 C762 583 762 583 762 583 L762 583 Z " />
</font>
</svg>
