<?xml version="1.0" encoding="UTF-8"?>
<svg xmlns="http://www.w3.org/2000/svg" xmlns:xlink="http://www.w3.org/1999/xlink" version="1.2" >
<font id="Aludra Extra Bold">
<font-face  font-family="Aludra" units-per-em="1024" ascent="975" descent="-300" font-style="normal" font-weight="800" font-stretch="normal" cap-height="750" x-height="500" underline-position="0" underline-thickness="0" />
<missing-glyph  horiz-adv-x="472" d="M0 700 C0 700 432 700 432 700 C432 700 432 0 432 0 C432 0 0 0 0 0 C0 0 0 700 0 700 L0 700 Z M50 50 C50 50 382 50 382 50 C382 50 382 650 382 650 C382 650 50 650 50 650 C50 650 50 50 50 50 L50 50 Z " />
<glyph glyph-name="NULL" d="" />
<glyph glyph-name="CR" unicode="&#xd;" horiz-adv-x="256" d="" />
<glyph glyph-name="space" unicode="&#x20;" horiz-adv-x="250" d="" />
<glyph glyph-name="exclam" unicode="&#x21;" horiz-adv-x="305" d="M153 -5 C206 -5 233 22 233 75 C233 128 206 155 153 155 C100 155 73 128 73 75 C73 22 100 -5 153 -5 L153 -5 Z M153 755 C61 755 55 710 70 621 C70 621 140 210 140 210 C140 210 165 210 165 210 C165 210 235 621 235 621 C250 710 244 755 153 755 L153 755 Z " />
<glyph glyph-name="quotedbl" unicode="&#x22;" horiz-adv-x="325" d="M734 750 C687 750 685 735 694 705 C694 705 742 560 742 560 C742 560 758 560 758 560 C758 560 806 705 806 705 C815 735 813 750 766 750 C766 750 734 750 734 750 L734 750 Z " />
<glyph glyph-name="numbersign" unicode="&#x23;" horiz-adv-x="567" d="M398 648 C398 648 377 512 377 512 C377 512 251 512 251 512 C251 512 272 648 272 648 C272 648 220 648 220 648 C220 648 199 512 199 512 C199 512 73 512 73 512 C73 512 59 408 59 408 C59 408 182 408 182 408 C182 408 158 252 158 252 C158 252 29 252 29 252 C29 252 15 148 15 148 C15 148 141 148 141 148 C141 148 118 0 118 0 C118 0 171 0 171 0 C171 0 194 148 194 148 C194 148 319 148 319 148 C319 148 296 0 296 0 C296 0 349 0 349 0 C349 0 372 148 372 148 C372 148 483 148 483 148 C483 148 498 252 498 252 C498 252 388 252 388 252 C388 252 413 408 413 408 C413 408 533 408 533 408 C533 408 548 512 548 512 C548 512 429 512 429 512 C429 512 450 648 450 648 C450 648 398 648 398 648 L398 648 Z M235 408 C235 408 360 408 360 408 C360 408 336 252 336 252 C336 252 210 252 210 252 C210 252 235 408 235 408 L235 408 Z " />
<glyph glyph-name="dollar" unicode="&#x24;" horiz-adv-x="557" d="M292 825 C292 825 292 759 292 759 C285 760 278 760 270 760 C265 760 260 760 255 760 C255 760 255 825 255 825 C255 825 212 825 212 825 C212 825 212 755 212 755 C108 738 55 667 55 546 C55 430 98 353 212 305 C212 305 212 48 212 48 C206 50 200 52 194 55 C151 75 117 115 93 159 C92 161 91 163 90 165 C90 165 90 165 90 165 C79 186 71 208 66 229 C63 243 61 250 61 250 C61 250 46 250 46 250 C46 250 46 145 46 145 C46 145 46 0 46 0 C46 0 61 0 61 0 C61 0 63 12 66 36 C69 57 93 62 135 32 C135 32 135 32 135 32 C158 16 184 4 212 -3 C212 -3 212 -75 212 -75 C212 -75 255 -75 255 -75 C255 -75 255 -9 255 -9 C262 -10 270 -10 277 -10 C282 -10 287 -10 292 -10 C292 -10 292 -75 292 -75 C292 -75 335 -75 335 -75 C335 -75 335 -6 335 -6 C456 11 517 84 517 212 C517 322 468 396 335 448 C335 448 335 711 335 711 C402 686 447 623 461 561 C464 547 466 540 466 540 C466 540 481 540 481 540 C481 540 481 645 481 645 C481 645 481 760 481 760 C481 760 466 760 466 760 C466 760 464 750 461 731 C458 714 442 706 417 722 C394 737 366 748 335 754 C335 754 335 825 335 825 C335 825 292 825 292 825 L292 825 Z M292 721 C292 721 292 465 292 465 C278 471 266 477 255 483 C255 483 255 721 255 721 C260 722 265 722 270 722 C274 722 278 722 282 722 C285 722 289 721 292 721 C292 721 292 721 292 721 L292 721 Z M255 288 C268 283 281 278 292 273 C292 273 292 39 292 39 C287 38 282 38 277 38 C269 38 262 38 255 39 C255 39 255 288 255 288 L255 288 Z M335 250 C379 224 397 197 397 168 C397 106 376 66 335 48 C335 48 335 250 335 250 L335 250 Z M212 513 C184 539 172 569 172 603 C172 653 185 688 212 706 C212 706 212 513 212 513 L212 513 Z " />
<glyph glyph-name="ampersand" unicode="&#x26;" horiz-adv-x="342" d="M357 469 C465 507 520 554 520 609 C520 709 451 760 315 760 C195 760 134 704 134 592 C134 530 160 491 210 431 C88 384 27 305 27 195 C27 59 100 -10 245 -10 C337 -10 422 25 498 94 C498 94 513 76 513 76 C562 19 625 -10 700 -10 C782 -10 829 42 842 144 C842 144 818 152 818 152 C814 117 793 100 756 100 C700 100 658 116 631 148 C631 148 588 198 588 198 C644 277 694 377 739 500 C739 500 707 500 707 500 C665 385 616 295 560 231 C560 231 370 453 370 453 C365 458 361 464 357 469 C357 469 357 469 357 469 L357 469 Z M340 488 C282 556 253 596 253 663 C253 706 274 728 315 728 C377 728 409 691 409 617 C409 556 386 513 340 488 C340 488 340 488 340 488 L340 488 Z M453 146 C412 125 369 115 323 115 C220 115 168 155 168 236 C168 321 187 380 226 412 C234 402 243 392 252 381 C252 381 453 146 453 146 L453 146 Z " />
<glyph glyph-name="quotesingle" unicode="&#x27;" horiz-adv-x="204" d="" />
<glyph glyph-name="parenleft" unicode="&#x28;" horiz-adv-x="520" d="M320 760 C142 640 52 476 52 273 C52 80 140 -84 313 -214 C313 -214 321 -199 321 -199 C206 -112 148 46 148 273 C148 505 208 664 328 745 C328 745 320 760 320 760 L320 760 Z " />
<glyph glyph-name="parenright" unicode="&#x29;" horiz-adv-x="520" d="M22 744 C142 666 202 508 202 273 C202 34 144 -124 29 -199 C29 -199 37 -214 37 -214 C210 -102 298 62 298 273 C298 481 208 644 30 760 C30 760 22 744 22 744 L22 744 Z " />
<glyph glyph-name="asterisk" unicode="&#x2a;" horiz-adv-x="300" d="M134 630 C134 630 25 606 25 606 C2 600 -2 582 16 552 C33 523 50 516 67 534 C67 534 142 616 142 616 C142 616 109 510 109 510 C102 487 115 475 150 475 C185 475 198 487 191 510 C191 510 158 616 158 616 C158 616 233 534 233 534 C250 516 267 523 284 552 C302 582 298 600 275 606 C275 606 166 630 166 630 C166 630 275 654 275 654 C298 660 302 678 284 707 C267 737 250 744 233 726 C233 726 158 644 158 644 C158 644 191 750 191 750 C198 773 185 785 150 785 C115 785 102 773 109 750 C109 750 142 644 142 644 C142 644 67 726 67 726 C50 744 33 737 16 707 C-2 678 2 660 25 654 C25 654 134 630 134 630 L134 630 Z " />
<glyph glyph-name="plus" unicode="&#x2b;" horiz-adv-x="620" d="M258 460 C258 460 258 298 258 298 C258 298 100 298 100 298 C100 298 100 202 100 202 C100 202 258 202 258 202 C258 202 258 40 258 40 C258 40 362 40 362 40 C362 40 362 202 362 202 C362 202 520 202 520 202 C520 202 520 298 520 298 C520 298 362 298 362 298 C362 298 362 460 362 460 C362 460 258 460 258 460 L258 460 Z " />
<glyph glyph-name="comma" unicode="&#x2c;" horiz-adv-x="269" d="M144 -2 C145 -10 145 -19 145 -28 C145 -67 118 -86 65 -86 C65 -86 65 -118 65 -118 C155 -118 200 -72 200 20 C200 83 175 115 125 115 C85 115 65 95 65 55 C65 15 85 -5 125 -5 C132 -5 139 -4 144 -2 L144 -2 Z " />
<glyph glyph-name="hyphen" unicode="&#x2d;" horiz-adv-x="430" d="M80 232 C80 232 350 232 350 232 C350 232 350 338 350 338 C350 338 80 338 80 338 C80 338 80 232 80 232 L80 232 Z " />
<glyph glyph-name="period" unicode="&#x2e;" horiz-adv-x="195" d="M125 -5 C178 -5 205 22 205 75 C205 128 178 155 125 155 C72 155 45 128 45 75 C45 22 72 -5 125 -5 L125 -5 Z " />
<glyph glyph-name="slash" unicode="&#x2f;" horiz-adv-x="403" d="M294 770 C294 770 12 -80 12 -80 C12 -80 92 -80 92 -80 C92 -80 374 770 374 770 C374 770 294 770 294 770 L294 770 Z " />
<glyph glyph-name="zero" unicode="0" horiz-adv-x="615" d="M305 46 C184 46 103 114 103 250 C103 372 171 454 305 454 C426 454 507 386 507 250 C507 128 439 46 305 46 L305 46 Z M39 250 C39 77 146 -10 305 -10 C482 -10 571 95 571 250 C571 423 464 510 305 510 C128 510 39 405 39 250 L39 250 Z " />
<glyph glyph-name="one" unicode="1" horiz-adv-x="415" d="M375 500 C375 500 40 500 40 500 C40 500 40 480 40 480 C40 480 70 480 70 480 C117 480 140 479 140 465 C140 465 140 35 140 35 C140 21 117 20 70 20 C70 20 40 20 40 20 C40 20 40 0 40 0 C40 0 375 0 375 0 C375 0 375 20 375 20 C375 20 345 20 345 20 C298 20 275 21 275 35 C275 35 275 465 275 465 C275 479 298 480 345 480 C345 480 375 480 375 480 C375 480 375 500 375 500 L375 500 Z " />
<glyph glyph-name="two" unicode="2" horiz-adv-x="561" d="M69 289 C85 370 135 411 218 411 C290 411 327 379 327 317 C327 193 208 114 30 24 C30 24 30 0 30 0 C30 0 283 0 283 0 C283 0 438 0 438 0 C476 59 512 119 549 178 C546 180 535 185 533 185 C533 185 515 155 515 155 C500 132 485 120 383 120 C383 120 250 120 250 120 C382 200 462 273 462 348 C462 456 403 510 285 510 C151 510 69 438 41 294 C41 294 69 289 69 289 L69 289 Z " />
<glyph glyph-name="three" unicode="3" horiz-adv-x="471" d="M15 -205 C15 -205 20 -232 20 -232 C294 -203 432 -119 432 20 C432 142 377 212 269 227 C350 276 391 325 391 388 C391 469 334 510 222 510 C110 510 42 457 18 352 C18 352 47 344 47 344 C58 391 98 415 167 415 C220 415 247 390 247 342 C247 256 200 214 107 175 C107 175 107 148 107 148 C228 131 289 75 289 -18 C289 -124 197 -187 15 -205 L15 -205 Z " />
<glyph glyph-name="four" unicode="4" horiz-adv-x="620" d="M595 4 C602 59 610 113 619 168 C619 168 599 168 599 168 C599 168 594 138 594 138 C591 115 582 103 480 103 C480 103 415 103 415 103 C415 103 415 530 415 530 C415 530 398 530 398 530 C398 530 15 24 15 24 C15 24 15 0 15 0 C15 0 280 0 280 0 C280 0 280 -220 280 -220 C280 -220 415 -220 415 -220 C415 -220 415 0 415 0 C415 0 515 0 515 0 C571 0 574 -8 571 -25 C571 -25 567 -55 567 -55 C567 -55 587 -55 587 -55 C589 -37 592 -18 594 0 C594 0 595 0 595 0 C595 0 595 4 595 4 L595 4 Z M138 103 C138 103 280 293 280 293 C280 293 280 293 280 293 C280 293 280 103 280 103 C280 103 138 103 138 103 L138 103 Z " />
<glyph glyph-name="five" unicode="5" horiz-adv-x="446" d="M61 -236 C297 -208 417 -110 417 54 C417 211 309 290 96 290 C96 290 81 290 81 290 C81 290 95 379 95 379 C95 379 346 383 346 383 C350 405 354 428 358 450 C358 450 367 500 367 500 C367 500 367 500 367 500 C369 513 371 527 374 540 C374 540 354 540 354 540 C354 540 351 527 351 527 C348 509 340 500 247 500 C247 500 69 500 69 500 C69 500 14 169 14 169 C14 169 39 148 39 148 C39 148 81 148 81 148 C225 148 298 101 298 9 C298 -118 217 -192 58 -211 C58 -211 61 -236 61 -236 L61 -236 Z " />
<glyph glyph-name="six" unicode="6" horiz-adv-x="570" d="M550 750 C209 678 37 526 37 298 C37 93 120 -10 284 -10 C437 -10 515 73 515 238 C515 392 447 470 313 470 C265 470 228 457 201 431 C252 591 370 691 555 730 C555 730 550 750 550 750 L550 750 Z M172 226 C172 362 214 430 297 430 C352 430 380 368 380 245 C380 102 345 29 276 29 C207 29 172 95 172 226 L172 226 Z " />
<glyph glyph-name="seven" unicode="7" horiz-adv-x="465" d="M-35 326 C-35 326 -15 326 -15 326 C-15 326 -6 346 -6 346 C8 376 18 391 64 391 C64 391 378 391 378 391 C378 391 101 -220 101 -220 C101 -220 204 -220 204 -220 C204 -220 461 485 461 485 C461 485 461 500 461 500 C461 500 145 500 145 500 C69 500 67 508 74 525 C74 525 81 540 81 540 C81 540 61 540 61 540 C29 468 -3 397 -35 326 L-35 326 Z " />
<glyph glyph-name="eight" unicode="8" horiz-adv-x="540" d="M196 350 C207 345 219 340 231 335 C341 291 397 259 397 137 C397 61 352 22 264 22 C186 22 146 73 146 174 C146 257 163 315 196 350 C196 350 196 350 196 350 L196 350 Z M157 373 C72 323 29 256 29 174 C29 52 108 -10 264 -10 C421 -10 500 59 500 197 C500 328 453 381 358 427 C437 473 477 530 477 599 C477 706 405 760 262 760 C125 760 55 698 55 575 C55 481 89 418 157 373 C157 373 157 373 157 373 L157 373 Z M317 445 C306 450 294 455 282 460 C203 492 163 540 163 626 C163 694 196 728 262 728 C329 728 362 681 362 587 C362 523 347 476 317 445 C317 445 317 445 317 445 L317 445 Z " />
<glyph glyph-name="nine" unicode="9" horiz-adv-x="570" d="M20 -250 C361 -178 533 -26 533 202 C533 407 450 510 286 510 C133 510 55 427 55 262 C55 108 123 30 257 30 C305 30 342 43 369 69 C318 -91 200 -191 15 -230 C15 -230 20 -250 20 -250 L20 -250 Z M398 274 C398 138 356 70 273 70 C218 70 190 132 190 255 C190 398 225 471 294 471 C363 471 398 405 398 274 L398 274 Z " />
<glyph glyph-name="colon" unicode="&#x3a;" horiz-adv-x="135" d="M125 385 C178 385 205 412 205 465 C205 518 178 545 125 545 C72 545 45 518 45 465 C45 412 72 385 125 385 L125 385 Z M125 -5 C178 -5 205 22 205 75 C205 128 178 155 125 155 C72 155 45 128 45 75 C45 22 72 -5 125 -5 L125 -5 Z " />
<glyph glyph-name="semicolon" unicode="&#x3b;" horiz-adv-x="269" d="M125 385 C178 385 205 412 205 465 C205 518 178 545 125 545 C72 545 45 518 45 465 C45 412 72 385 125 385 L125 385 Z M144 -2 C145 -10 145 -19 145 -28 C145 -67 118 -86 65 -86 C65 -86 65 -118 65 -118 C155 -118 200 -72 200 20 C200 83 175 115 125 115 C85 115 65 95 65 55 C65 15 85 -5 125 -5 C132 -5 139 -4 144 -2 L144 -2 Z " />
<glyph glyph-name="equal" unicode="&#x3d;" horiz-adv-x="541" d="M91 230 C91 230 91 170 91 170 C91 170 471 170 471 170 C471 170 471 230 471 230 C471 230 91 230 91 230 L91 230 Z M91 330 C91 330 91 270 91 270 C91 270 471 270 471 270 C471 270 471 330 471 330 C471 330 91 330 91 330 L91 330 Z " />
<glyph glyph-name="question" unicode="&#x3f;" horiz-adv-x="292" d="M125 -5 C178 -5 205 22 205 75 C205 128 178 155 125 155 C72 155 45 128 45 75 C45 22 72 -5 125 -5 L125 -5 Z M129 260 C129 260 125 360 125 360 C242 360 258 384 291 432 C311 463 322 506 322 558 C322 692 263 760 145 760 C61 760 18 726 18 660 C18 616 42 594 91 594 C127 594 158 617 194 617 C253 617 282 592 282 542 C282 533 275 518 260 497 C235 459 222 440 97 440 C97 440 105 260 105 260 C105 260 129 260 129 260 L129 260 Z " />
<glyph glyph-name="at" unicode="&#x40;" horiz-adv-x="1189" d="M1038 0 C965 -155 826 -233 622 -233 C316 -233 161 -68 161 259 C161 586 307 751 595 751 C884 751 1030 614 1030 343 C1030 123 973 12 861 12 C794 12 776 75 807 200 C807 200 877 480 877 480 C877 480 750 480 750 480 C750 480 736 423 736 423 C716 467 671 490 600 490 C385 490 277 388 277 185 C277 63 339 1 461 1 C557 1 627 28 669 82 C680 4 735 -35 836 -35 C1035 -35 1135 92 1135 343 C1135 639 954 788 595 788 C237 788 56 610 56 259 C56 -92 246 -270 622 -270 C844 -270 999 -179 1083 0 C1083 0 1038 0 1038 0 L1038 0 Z M719 356 C719 356 680 200 680 200 C659 118 609 76 530 76 C460 76 425 121 425 211 C425 372 483 453 597 453 C678 453 719 420 719 356 L719 356 Z " />
<glyph glyph-name="A" unicode="A" horiz-adv-x="846" d="M458 0 C458 0 593 0 593 0 C593 0 752 0 752 0 C752 0 840 0 840 0 C840 0 840 20 840 20 C840 20 810 20 810 20 C770 20 746 27 715 110 C715 110 513 702 513 702 C513 702 490 770 490 770 C490 770 475 770 475 770 C448 732 410 709 362 702 C362 702 365 692 365 692 C365 692 365 692 365 692 C365 692 192 170 192 170 C192 170 192 170 192 170 C148 30 109 20 37 20 C37 20 7 20 7 20 C7 20 7 0 7 0 C7 0 136 0 136 0 C136 0 181 0 181 0 C181 0 346 0 346 0 C346 0 346 20 346 20 C346 20 322 20 322 20 C232 20 189 30 234 170 C234 170 234 170 234 170 C234 170 264 269 264 269 C264 269 504 269 504 269 C504 269 550 131 550 131 C582 28 550 20 483 20 C483 20 458 20 458 20 C458 20 458 0 458 0 L458 0 Z M276 308 C276 308 381 645 381 645 C381 645 492 308 492 308 C492 308 276 308 276 308 L276 308 Z " />
<glyph glyph-name="B" unicode="B" horiz-adv-x="749" d="M27 0 C27 0 283 0 283 0 C283 0 403 0 403 0 C606 0 709 21 709 199 C709 304 649 368 531 390 C622 418 668 478 668 571 C668 690 637 750 368 750 C368 750 283 750 283 750 C283 750 27 750 27 750 C27 750 27 730 27 730 C27 730 57 730 57 730 C107 730 132 725 132 665 C132 665 132 85 132 85 C132 25 107 20 57 20 C57 20 27 20 27 20 C27 20 27 0 27 0 L27 0 Z M283 720 C283 720 308 719 308 719 C496 719 518 664 518 556 C518 451 470 398 376 398 C376 398 283 398 283 398 C283 398 283 665 283 665 C283 665 283 720 283 720 L283 720 Z M331 372 C472 372 543 314 543 199 C543 47 483 30 365 30 C365 30 315 30 315 30 C294 30 283 47 283 80 C283 80 283 85 283 85 C283 85 283 372 283 372 C283 372 331 372 331 372 L331 372 Z " />
<glyph glyph-name="C" unicode="C" horiz-adv-x="781" d="M743 511 C743 511 743 635 743 635 C743 635 743 750 743 750 C743 750 728 750 728 750 C728 750 726 740 723 721 C720 703 696 697 653 720 C610 747 552 760 449 760 C175 760 36 631 36 375 C36 119 171 -10 439 -10 C535 -10 597 3 645 29 C645 29 645 29 645 29 C690 54 717 46 723 26 C728 6 731 -4 731 -4 C731 -4 743 -4 743 -4 C743 -4 743 115 743 115 C743 115 743 239 743 239 C743 239 728 239 728 239 C728 239 726 232 723 218 C717 193 704 166 685 140 C656 106 629 80 598 61 C589 56 579 50 569 46 C569 46 569 46 569 46 C537 32 500 25 453 25 C286 25 201 142 201 375 C201 606 289 722 464 722 C585 722 626 681 695 598 C708 576 718 553 723 532 C726 518 728 511 728 511 C728 511 743 511 743 511 L743 511 Z " />
<glyph glyph-name="D" unicode="D" horiz-adv-x="904" d="M27 0 C27 0 132 0 132 0 C132 0 283 0 283 0 C283 0 363 0 363 0 C687 0 850 101 850 375 C850 624 730 750 403 750 C403 750 283 750 283 750 C283 750 132 750 132 750 C132 750 27 750 27 750 C27 750 27 730 27 730 C27 730 57 730 57 730 C107 730 132 725 132 665 C132 665 132 85 132 85 C132 25 107 20 57 20 C57 20 27 20 27 20 C27 20 27 0 27 0 L27 0 Z M283 720 C576 720 684 604 684 375 C684 123 561 30 318 30 C283 30 283 47 283 80 C283 80 283 85 283 85 C283 85 283 665 283 665 C283 665 283 720 283 720 L283 720 Z " />
<glyph glyph-name="E" unicode="E" horiz-adv-x="690" d="M604 593 C600 645 597 699 593 750 C593 750 473 750 473 750 C473 750 283 750 283 750 C283 750 132 750 132 750 C132 750 27 750 27 750 C27 750 27 730 27 730 C27 730 57 730 57 730 C107 730 132 725 132 665 C132 665 132 85 132 85 C132 25 107 20 57 20 C57 20 27 20 27 20 C27 20 27 0 27 0 C27 0 132 0 132 0 C132 0 283 0 283 0 C283 0 498 0 498 0 C498 0 618 0 618 0 C626 51 632 105 640 157 C640 157 620 157 620 157 C620 157 616 127 616 127 C607 64 596 32 503 32 C503 32 363 32 363 32 C283 32 283 48 283 80 C283 80 283 85 283 85 C283 85 283 385 283 385 C283 385 413 385 413 385 C506 385 513 348 513 275 C513 275 513 245 513 245 C513 245 533 245 533 245 C533 245 533 385 533 385 C533 385 533 421 533 421 C533 421 533 561 533 561 C533 561 513 561 513 561 C513 561 513 531 513 531 C513 458 506 421 413 421 C413 421 283 421 283 421 C283 421 283 665 283 665 C283 665 283 718 283 718 C283 718 475 718 475 718 C587 718 578 682 583 611 C583 611 584 593 584 593 C584 593 604 593 604 593 L604 593 Z " />
<glyph glyph-name="F" unicode="F" horiz-adv-x="665" d="M606 602 C602 652 597 701 593 750 C593 750 473 750 473 750 C473 750 283 750 283 750 C283 750 132 750 132 750 C132 750 27 750 27 750 C27 750 27 730 27 730 C27 730 57 730 57 730 C107 730 132 725 132 665 C132 665 132 85 132 85 C132 25 107 20 57 20 C57 20 27 20 27 20 C27 20 27 0 27 0 C27 0 132 0 132 0 C132 0 283 0 283 0 C283 0 388 0 388 0 C388 0 388 20 388 20 C388 20 358 20 358 20 C308 20 283 25 283 85 C283 85 283 349 283 349 C283 349 493 349 493 349 C502 333 505 312 507 286 C507 286 511 240 511 240 C511 240 523 240 523 240 C523 240 523 349 523 349 C523 349 523 385 523 385 C523 385 523 494 523 494 C523 494 511 494 511 494 C511 494 507 449 507 449 C504 406 495 385 403 385 C403 385 283 385 283 385 C283 385 283 665 283 665 C283 665 283 724 283 724 C283 724 395 724 395 724 C563 724 578 692 584 629 C584 629 586 599 586 599 C588 599 598 602 606 602 C606 602 606 602 606 602 L606 602 Z " />
<glyph glyph-name="G" unicode="G" horiz-adv-x="860" d="M743 511 C743 511 743 635 743 635 C743 635 743 750 743 750 C743 750 728 750 728 750 C728 750 726 740 723 721 C720 703 696 697 653 720 C610 747 552 760 449 760 C175 760 36 631 36 375 C36 119 176 -10 452 -10 C622 -10 698 13 794 58 C794 58 784 79 784 79 C763 69 742 61 719 54 C719 54 719 245 719 245 C719 301 737 305 774 305 C774 305 804 305 804 305 C804 305 804 325 804 325 C804 325 468 325 468 325 C468 325 468 305 468 305 C468 305 498 305 498 305 C545 305 568 301 568 245 C568 245 569 162 569 162 C569 73 534 27 465 27 C290 27 201 144 201 375 C201 606 289 722 464 722 C585 722 626 681 695 598 C708 576 718 553 723 532 C726 518 728 511 728 511 C728 511 743 511 743 511 L743 511 Z " />
<glyph glyph-name="H" unicode="H" horiz-adv-x="911" d="M872 750 C872 750 511 750 511 750 C511 750 511 730 511 730 C511 730 541 730 541 730 C591 730 616 726 616 670 C616 670 616 403 616 403 C616 403 319 403 319 403 C319 403 319 670 319 670 C319 726 344 730 394 730 C394 730 424 730 424 730 C424 730 424 750 424 750 C424 750 63 750 63 750 C63 750 63 730 63 730 C63 730 93 730 93 730 C143 730 168 726 168 670 C168 670 168 80 168 80 C168 24 143 20 93 20 C93 20 63 20 63 20 C63 20 63 0 63 0 C63 0 424 0 424 0 C424 0 424 20 424 20 C424 20 394 20 394 20 C344 20 319 24 319 80 C319 80 319 363 319 363 C319 363 616 363 616 363 C616 363 616 80 616 80 C616 24 591 20 541 20 C541 20 511 20 511 20 C511 20 511 0 511 0 C511 0 872 0 872 0 C872 0 872 20 872 20 C872 20 842 20 842 20 C792 20 767 24 767 80 C767 80 767 670 767 670 C767 726 792 730 842 730 C842 730 872 730 872 730 C872 730 872 750 872 750 L872 750 Z " />
<glyph glyph-name="I" unicode="I" horiz-adv-x="410" d="M370 750 C370 750 10 750 10 750 C10 750 10 730 10 730 C10 730 40 730 40 730 C90 730 115 726 115 670 C115 670 115 80 115 80 C115 24 90 20 40 20 C40 20 10 20 10 20 C10 20 10 0 10 0 C10 0 370 0 370 0 C370 0 370 20 370 20 C370 20 340 20 340 20 C290 20 265 24 265 80 C265 80 265 670 265 670 C265 726 290 730 340 730 C340 730 370 730 370 730 C370 730 370 750 370 750 L370 750 Z " />
<glyph glyph-name="J" unicode="J" horiz-adv-x="410" d="M370 750 C370 750 10 750 10 750 C10 750 10 730 10 730 C10 730 40 730 40 730 C90 730 115 726 115 670 C115 670 114 -121 114 -121 C114 -164 67 -167 27 -167 C-58 -167 -8 -40 -92 -40 C-140 -40 -164 -64 -164 -111 C-164 -184 -112 -220 -10 -220 C118 -220 266 -193 266 165 C266 165 265 670 265 670 C265 726 290 730 340 730 C340 730 370 730 370 730 C370 730 370 750 370 750 L370 750 Z " />
<glyph glyph-name="K" unicode="K" horiz-adv-x="846" d="M831 20 C831 20 793 20 793 20 C761 20 723 49 696 85 C696 85 695 85 695 85 C695 85 400 468 400 468 C400 468 546 640 546 640 C546 640 546 640 546 640 C547 642 549 643 550 645 C550 645 575 675 575 675 C622 726 648 730 687 730 C687 730 717 730 717 730 C717 730 717 750 717 750 C717 750 639 750 639 750 C639 750 579 750 579 750 C579 750 439 750 439 750 C439 750 439 730 439 730 C439 730 462 730 462 730 C525 730 553 723 482 627 C482 627 283 375 283 375 C283 375 283 690 283 690 C283 727 308 730 358 730 C358 730 388 730 388 730 C388 730 388 750 388 750 C388 750 283 750 283 750 C283 750 132 750 132 750 C132 750 27 750 27 750 C27 750 27 730 27 730 C27 730 57 730 57 730 C107 730 132 727 132 690 C132 690 132 60 132 60 C132 23 107 20 57 20 C57 20 27 20 27 20 C27 20 27 0 27 0 C27 0 132 0 132 0 C132 0 283 0 283 0 C283 0 388 0 388 0 C388 0 388 20 388 20 C388 20 358 20 358 20 C308 20 283 23 283 60 C283 60 283 375 283 375 C283 375 501 85 501 85 C501 85 501 85 501 85 C566 -2 565 0 565 0 C565 0 761 0 761 0 C761 0 831 0 831 0 C831 0 831 20 831 20 L831 20 Z " />
<glyph glyph-name="L" unicode="L" horiz-adv-x="675" d="M10 0 C10 0 115 0 115 0 C115 0 265 0 265 0 C265 0 409 0 409 0 C409 0 594 0 594 0 C594 0 600 0 600 0 C600 0 600 23 600 23 C614 78 628 134 644 187 C644 187 627 191 625 191 C625 191 617 161 617 161 C592 71 569 26 415 26 C415 26 345 26 345 26 C265 26 265 44 265 80 C265 80 265 85 265 85 C265 85 265 665 265 665 C265 725 290 730 340 730 C340 730 370 730 370 730 C370 730 370 750 370 750 C370 750 265 750 265 750 C265 750 115 750 115 750 C115 750 10 750 10 750 C10 750 10 730 10 730 C10 730 40 730 40 730 C90 730 115 725 115 665 C115 665 115 85 115 85 C115 25 90 20 40 20 C40 20 10 20 10 20 C10 20 10 0 10 0 L10 0 Z " />
<glyph glyph-name="M" unicode="M" horiz-adv-x="945" d="M30 730 C30 730 60 730 60 730 C102 730 127 727 149 691 C149 691 131 139 131 139 C125 28 93 20 32 20 C32 20 2 20 2 20 C2 20 2 0 2 0 C2 0 127 0 127 0 C127 0 180 0 180 0 C180 0 305 0 305 0 C305 0 305 20 305 20 C305 20 275 20 275 20 C218 20 185 26 181 105 C181 105 186 607 186 607 C271 405 355 202 440 0 C440 0 478 0 478 0 C478 0 686 606 686 606 C686 606 699 79 699 79 C698 25 672 20 624 20 C624 20 594 20 594 20 C594 20 594 0 594 0 C594 0 701 0 701 0 C701 0 851 0 851 0 C851 0 954 0 954 0 C954 0 954 20 954 20 C954 20 924 20 924 20 C875 20 850 25 849 85 C849 85 848 85 848 85 C848 85 832 580 832 580 C832 580 832 580 832 580 C828 720 853 730 901 730 C901 730 931 730 931 730 C931 730 931 750 931 750 C931 750 826 750 826 750 C826 750 735 750 735 750 C735 750 682 750 682 750 C682 750 503 195 503 195 C503 195 503 196 503 196 C503 196 308 750 308 750 C308 750 188 750 188 750 C188 750 151 750 151 750 C151 750 127 750 127 750 C127 750 30 750 30 750 C30 750 30 730 30 730 L30 730 Z " />
<glyph glyph-name="N" unicode="N" horiz-adv-x="807" d="M-28 730 C-28 730 10 730 10 730 C28 730 39 728 65 695 C65 695 65 695 65 695 C65 695 136 607 136 607 C136 607 134 150 134 150 C134 150 134 150 134 150 C134 29 102 20 39 20 C39 20 9 20 9 20 C9 20 9 0 9 0 C9 0 134 0 134 0 C134 0 179 0 179 0 C179 0 304 0 304 0 C304 0 304 20 304 20 C304 20 274 20 274 20 C210 20 178 28 178 140 C178 140 178 140 178 140 C178 140 175 558 175 558 C175 558 450 214 450 214 C450 214 621 0 621 0 C621 0 652 0 652 0 C652 0 662 649 662 649 C666 724 698 730 756 730 C756 730 786 730 786 730 C786 730 786 750 786 750 C786 750 663 750 663 750 C663 750 618 750 618 750 C618 750 493 750 493 750 C493 750 493 730 493 730 C493 730 523 730 523 730 C586 730 618 723 618 630 C618 630 618 630 618 630 C618 630 620 244 620 244 C620 244 570 306 570 306 C570 306 209 750 209 750 C209 750 173 750 173 750 C173 750 136 750 136 750 C136 750 21 750 21 750 C21 750 -28 750 -28 750 C-28 750 -28 730 -28 730 L-28 730 Z " />
<glyph glyph-name="O" unicode="O" horiz-adv-x="914" d="M440 30 C285 30 207 146 207 375 C207 604 283 720 435 720 C602 720 687 604 687 375 C687 146 604 30 440 30 L440 30 Z M34 375 C34 119 168 -10 432 -10 C716 -10 860 119 860 375 C860 631 720 760 442 760 C171 760 34 631 34 375 L34 375 Z " />
<glyph glyph-name="P" unicode="P" horiz-adv-x="691" d="M65 730 C65 730 95 730 95 730 C145 730 170 725 170 665 C170 665 170 85 170 85 C170 25 145 20 95 20 C95 20 65 20 65 20 C65 20 65 0 65 0 C65 0 170 0 170 0 C170 0 321 0 321 0 C321 0 426 0 426 0 C426 0 426 20 426 20 C426 20 396 20 396 20 C346 20 321 25 321 85 C321 85 321 333 321 333 C321 333 371 333 371 333 C570 333 671 381 671 537 C671 678 587 750 421 750 C421 750 321 750 321 750 C321 750 170 750 170 750 C170 750 65 750 65 750 C65 750 65 730 65 730 L65 730 Z M321 365 C321 365 321 665 321 665 C321 665 321 724 321 724 C321 724 383 724 383 724 C481 724 530 670 530 562 C530 411 477 365 371 365 C371 365 321 365 321 365 L321 365 Z " />
<glyph glyph-name="Q" unicode="Q" horiz-adv-x="909" d="M1210 -37 C1210 -37 1199 -24 1199 -24 C1157 -59 1048 -77 873 -77 C727 -77 598 -54 486 -8 C734 8 860 136 860 375 C860 631 720 760 442 760 C171 760 34 631 34 375 C34 233 116 129 212 66 C212 66 211 66 211 66 C480 -113 695 -203 850 -203 C957 -203 1078 -147 1210 -37 L1210 -37 Z M440 30 C419 30 393 38 365 55 C362 57 359 59 356 61 C356 61 356 61 356 61 C283 109 207 214 207 375 C207 604 283 720 435 720 C602 720 687 604 687 375 C687 146 604 30 440 30 L440 30 Z " />
<glyph glyph-name="R" unicode="R" horiz-adv-x="847" d="M27 730 C27 730 57 730 57 730 C107 730 132 725 132 665 C132 665 132 85 132 85 C132 25 107 20 57 20 C57 20 27 20 27 20 C27 20 27 0 27 0 C27 0 388 0 388 0 C388 0 388 20 388 20 C388 20 358 20 358 20 C308 20 283 25 283 85 C283 85 283 342 283 342 C283 342 340 342 340 342 C365 304 432 216 540 80 C608 -5 589 0 838 0 C838 0 838 30 838 30 C751 30 758 27 717 80 C607 217 534 308 498 354 C608 376 663 429 663 536 C663 678 557 750 346 750 C346 750 283 750 283 750 C283 750 27 750 27 750 C27 750 27 730 27 730 L27 730 Z M283 720 C283 720 301 720 301 720 C431 720 496 668 496 565 C496 424 446 380 346 380 C346 380 283 380 283 380 C283 380 283 665 283 665 C283 665 283 720 283 720 L283 720 Z " />
<glyph glyph-name="S" unicode="S" horiz-adv-x="557" d="M481 540 C481 540 481 645 481 645 C481 645 481 760 481 760 C481 760 466 760 466 760 C466 760 464 750 461 731 C458 714 442 706 417 722 C379 747 330 760 270 760 C127 760 55 688 55 546 C55 423 103 344 232 297 C353 253 397 214 397 168 C397 82 357 38 277 38 C246 38 218 44 194 55 C151 75 117 115 93 159 C92 161 91 163 90 165 C90 165 90 165 90 165 C79 186 71 208 66 229 C63 243 61 250 61 250 C61 250 46 250 46 250 C46 250 46 145 46 145 C46 145 46 0 46 0 C46 0 61 0 61 0 C61 0 63 12 66 36 C69 57 93 62 135 32 C135 32 135 32 135 32 C175 4 222 -10 277 -10 C436 -10 517 65 517 212 C517 325 465 401 322 453 C212 493 172 540 172 603 C172 682 205 722 270 722 C274 722 278 722 282 722 C378 717 443 638 461 561 C464 547 466 540 466 540 C466 540 481 540 481 540 L481 540 Z " />
<glyph glyph-name="T" unicode="T" horiz-adv-x="775" d="M37 607 C37 607 48 637 48 637 C66 687 82 712 175 712 C175 712 312 712 312 712 C312 712 312 80 312 80 C312 24 287 20 237 20 C237 20 207 20 207 20 C207 20 207 0 207 0 C207 0 568 0 568 0 C568 0 568 20 568 20 C568 20 538 20 538 20 C488 20 463 24 463 80 C463 80 463 712 463 712 C463 712 600 712 600 712 C693 712 709 687 727 637 C727 637 738 607 738 607 C738 607 757 609 757 609 C747 639 736 669 725 699 C725 699 720 713 720 713 C720 713 720 750 720 750 C720 750 706 750 706 750 C706 750 692 789 692 789 C692 789 689 789 682 790 C682 790 672 790 672 790 C672 790 676 777 676 777 C683 759 679 750 586 750 C586 750 463 750 463 750 C463 750 312 750 312 750 C312 750 189 750 189 750 C96 750 92 759 99 777 C99 777 103 790 103 790 C103 790 93 790 93 790 C86 789 83 789 83 789 C83 789 69 750 69 750 C69 750 55 750 55 750 C55 750 55 713 55 713 C55 713 50 699 50 699 C39 669 28 639 18 609 C18 609 37 607 37 607 L37 607 Z " />
<glyph glyph-name="U" unicode="U" horiz-adv-x="836" d="M465 730 C465 730 495 730 495 730 C545 730 570 725 570 665 C570 665 570 207 570 207 C534 127 473 87 389 87 C295 87 248 132 248 220 C248 220 248 665 248 665 C248 665 248 750 248 750 C248 750 -8 750 -8 750 C-8 750 -8 730 -8 730 C-8 730 22 730 22 730 C72 730 97 725 97 665 C97 665 97 220 97 220 C97 67 175 -10 329 -10 C443 -10 524 40 570 139 C570 139 570 110 570 110 C570 110 570 0 570 0 C570 0 594 0 594 0 C594 0 825 55 825 55 C825 55 825 65 825 65 C728 60 721 62 721 110 C721 110 721 665 721 665 C721 665 721 750 721 750 C721 750 465 750 465 750 C465 750 465 730 465 730 L465 730 Z " />
<glyph glyph-name="V" unicode="V" horiz-adv-x="887" d="M395 750 C395 750 230 750 230 750 C230 750 57 750 57 750 C57 750 1 750 1 750 C1 750 1 730 1 730 C1 730 38 730 38 730 C57 730 67 727 85 690 C85 690 85 690 85 690 C85 690 312 204 312 204 C312 204 411 -10 411 -10 C411 -10 442 -10 442 -10 C442 -10 701 610 701 610 C701 610 702 610 702 610 C705 617 707 623 709 629 C709 629 716 645 716 645 C750 724 776 730 817 730 C817 730 847 730 847 730 C847 730 847 750 847 750 C847 750 760 750 760 750 C760 750 700 750 700 750 C700 750 535 750 535 750 C535 750 535 730 535 730 C535 730 558 730 558 730 C644 730 686 723 651 622 C651 622 493 205 493 205 C493 205 291 623 291 623 C248 723 288 730 372 730 C372 730 395 730 395 730 C395 730 395 750 395 750 L395 750 Z " />
<glyph glyph-name="W" unicode="W" horiz-adv-x="1211" d="M1174 750 C1174 750 1085 750 1085 750 C1085 750 1023 750 1023 750 C1023 750 858 750 858 750 C858 750 858 730 858 730 C858 730 883 730 883 730 C973 730 1016 722 986 610 C986 610 986 610 986 610 C986 610 884 219 884 219 C884 219 687 640 687 640 C687 640 688 640 688 640 C648 724 683 730 758 730 C758 730 781 730 781 730 C781 730 781 750 781 750 C781 750 636 750 636 750 C636 750 462 750 462 750 C462 750 391 750 391 750 C391 750 376 750 376 750 C376 750 246 750 246 750 C246 750 81 750 81 750 C81 750 25 750 25 750 C25 750 25 730 25 730 C25 730 62 730 62 730 C81 730 94 722 144 610 C144 610 144 610 144 610 C238 403 331 197 425 -10 C425 -10 464 -10 464 -10 C464 -10 612 436 612 436 C683 287 753 139 824 -10 C824 -10 864 -10 864 -10 C864 -10 1056 649 1056 649 C1081 724 1105 730 1144 730 C1144 730 1174 730 1174 730 C1174 730 1174 750 1174 750 L1174 750 Z M376 730 C376 730 391 730 391 730 C391 730 406 730 406 730 C449 730 472 727 490 690 C490 690 491 690 491 690 C521 627 551 563 581 500 C581 500 581 500 581 500 C581 500 486 189 486 189 C486 189 486 191 486 191 C486 191 298 630 298 630 C260 723 296 730 368 730 C368 730 376 730 376 730 L376 730 Z " />
<glyph glyph-name="X" unicode="X" horiz-adv-x="872" d="M836 750 C836 750 767 750 767 750 C767 750 699 750 699 750 C699 750 564 750 564 750 C564 750 564 730 564 730 C564 730 587 730 587 730 C650 730 676 721 593 608 C593 608 472 444 472 444 C472 444 360 610 360 610 C360 610 360 610 360 610 C285 722 308 730 367 730 C367 730 390 730 390 730 C390 730 390 750 390 750 C390 750 265 750 265 750 C265 750 87 750 87 750 C87 750 26 750 26 750 C26 750 26 730 26 730 C26 730 59 730 59 730 C87 730 107 722 181 610 C181 610 181 610 181 610 C181 610 365 338 365 338 C365 338 199 120 199 120 C199 120 198 120 198 120 C127 27 97 20 47 20 C47 20 17 20 17 20 C17 20 17 0 17 0 C17 0 107 0 107 0 C107 0 167 0 167 0 C167 0 352 0 352 0 C352 0 352 20 352 20 C352 20 330 20 330 20 C236 20 190 27 249 117 C249 117 264 138 264 138 C267 142 270 146 273 150 C273 150 272 150 272 150 C272 150 384 309 384 309 C384 309 508 124 508 124 C571 27 546 20 491 20 C491 20 467 20 467 20 C467 20 467 0 467 0 C467 0 592 0 592 0 C592 0 772 0 772 0 C772 0 843 0 843 0 C843 0 843 20 843 20 C843 20 812 20 812 20 C780 20 757 26 698 110 C698 110 492 415 492 415 C492 415 717 690 717 690 C755 726 777 730 805 730 C805 730 836 730 836 730 C836 730 836 750 836 750 L836 750 Z " />
<glyph glyph-name="Y" unicode="Y" horiz-adv-x="937" d="M400 750 C400 750 295 750 295 750 C295 750 116 750 116 750 C116 750 65 750 65 750 C65 750 65 730 65 730 C65 730 102 730 102 730 C118 730 131 724 179 657 C179 657 415 311 415 311 C415 311 415 80 415 80 C415 24 390 20 340 20 C340 20 310 20 310 20 C310 20 310 0 310 0 C310 0 670 0 670 0 C670 0 670 20 670 20 C670 20 640 20 640 20 C590 20 565 24 565 80 C565 80 565 316 565 316 C565 316 739 633 739 633 C791 723 813 730 846 730 C846 730 877 730 877 730 C877 730 877 750 877 750 C877 750 803 750 803 750 C803 750 728 750 728 750 C728 750 623 750 623 750 C623 750 623 730 623 730 C623 730 648 730 648 730 C689 730 711 725 694 677 C694 677 670 626 670 626 C669 624 668 622 667 620 C667 620 667 620 667 620 C667 620 549 365 549 365 C549 365 365 644 365 644 C315 724 334 730 375 730 C375 730 400 730 400 730 C400 730 400 750 400 750 L400 750 Z " />
<glyph glyph-name="Z" unicode="Z" horiz-adv-x="663" d="M200 0 C200 0 457 0 457 0 C457 0 617 0 617 0 C633 65 650 130 666 195 C664 195 654 198 646 198 C646 198 629 154 629 154 C605 90 584 54 508 45 C508 45 222 37 222 37 C222 37 621 718 621 718 C621 718 621 750 621 750 C621 750 473 750 473 750 C473 750 251 750 251 750 C251 750 81 750 81 750 C71 681 62 613 52 543 C55 543 67 540 77 540 C77 540 84 570 84 570 C101 655 119 702 216 709 C216 709 451 714 451 714 C451 714 36 32 36 32 C36 32 36 0 36 0 C36 0 200 0 200 0 L200 0 Z " />
<glyph glyph-name="bracketleft" unicode="&#x5b;" horiz-adv-x="307" d="M148 710 C148 710 358 710 358 710 C358 710 358 750 358 750 C358 750 148 750 148 750 C148 750 100 750 100 750 C100 750 100 -195 100 -195 C100 -195 148 -195 148 -195 C148 -195 358 -195 358 -195 C358 -195 358 -155 358 -155 C358 -155 148 -155 148 -155 C148 -155 148 710 148 710 L148 710 Z " />
<glyph glyph-name="backslash" unicode="&#x5c;" horiz-adv-x="361" d="M12 770 C12 770 272 -80 272 -80 C272 -80 352 -80 352 -80 C352 -80 92 770 92 770 C92 770 12 770 12 770 L12 770 Z " />
<glyph glyph-name="bracketright" unicode="&#x5d;" horiz-adv-x="310" d="M153 710 C153 710 153 -155 153 -155 C153 -155 -57 -155 -57 -155 C-57 -155 -57 -195 -57 -195 C-57 -195 153 -195 153 -195 C153 -195 201 -195 201 -195 C201 -195 201 750 201 750 C201 750 153 750 153 750 C153 750 -57 750 -57 750 C-57 750 -57 710 -57 710 C-57 710 153 710 153 710 L153 710 Z " />
<glyph glyph-name="underscore" unicode="&#x5f;" horiz-adv-x="455" d="M5 -50 C5 -50 5 -125 5 -125 C5 -125 450 -125 450 -125 C450 -125 450 -50 450 -50 C450 -50 5 -50 5 -50 L5 -50 Z " />
<glyph glyph-name="a" unicode="a" horiz-adv-x="514" d="M525 137 C525 137 505 146 505 146 C498 110 480 91 450 91 C417 91 400 105 400 131 C400 131 400 351 400 351 C400 472 351 510 254 510 C120 510 52 420 52 360 C52 307 80 280 137 280 C178 280 199 311 199 337 C199 362 179 374 179 406 C179 426 193 455 222 455 C251 455 265 442 265 400 C265 400 265 279 265 279 C56 216 32 206 32 98 C32 26 69 -10 143 -10 C185 -10 221 8 272 76 C287 22 329 -5 395 -5 C465 -5 508 43 525 137 C525 137 525 137 525 137 L525 137 Z M265 247 C265 247 265 131 265 131 C265 122 265 113 266 104 C242 71 228 62 215 62 C184 62 168 79 168 112 C168 214 178 221 265 247 L265 247 Z " />
<glyph glyph-name="b" unicode="b" horiz-adv-x="704" d="M57 674 C57 674 87 682 87 682 C124 693 142 692 142 618 C142 618 142 0 142 0 C142 0 150 0 150 0 C150 0 206 66 206 66 C206 66 206 65 206 65 C224 15 284 -10 385 -10 C567 -10 659 79 659 254 C659 421 579 505 420 505 C357 505 309 489 277 458 C277 458 277 650 277 650 C277 650 277 750 277 750 C277 750 253 750 253 750 C253 750 57 694 57 694 C57 694 57 674 57 674 L57 674 Z M277 419 C299 439 329 450 365 450 C460 450 508 379 508 238 C508 93 469 20 392 20 C328 20 289 37 277 70 C277 70 277 195 277 195 C277 195 277 419 277 419 L277 419 Z " />
<glyph glyph-name="c" unicode="c" horiz-adv-x="543" d="M513 128 C513 128 494 136 494 136 C476 94 432 73 365 73 C238 73 173 142 173 279 C173 412 224 479 326 479 C348 479 368 454 386 405 C403 360 425 338 454 338 C515 338 538 360 521 405 C496 475 433 510 334 510 C131 510 28 417 28 234 C28 72 125 -10 318 -10 C407 -10 473 36 513 128 L513 128 Z " />
<glyph glyph-name="d" unicode="d" horiz-adv-x="593" d="M598 59 C598 59 568 51 568 51 C532 42 513 45 513 138 C513 138 513 665 513 665 C513 665 513 750 513 750 C513 750 489 750 489 750 C489 750 293 694 293 694 C293 694 293 674 293 674 C293 674 323 682 323 682 C360 693 378 694 378 633 C378 633 378 492 378 492 C345 504 303 510 252 510 C93 510 34 422 34 248 C34 80 100 -5 230 -5 C295 -5 344 16 378 58 C378 58 378 -10 378 -10 C378 -10 402 -10 402 -10 C402 -10 598 39 598 39 C598 39 598 59 598 59 L598 59 Z M378 105 C350 69 320 51 286 51 C210 51 171 129 171 285 C171 408 197 471 268 471 C313 471 352 443 378 400 C378 400 378 110 378 110 C378 110 378 105 378 105 L378 105 Z " />
<glyph glyph-name="e" unicode="e" horiz-adv-x="535" d="M173 340 C173 340 356 340 356 340 C356 340 506 340 506 340 C482 476 414 510 291 510 C116 510 27 415 27 226 C27 69 107 -10 267 -10 C382 -10 458 37 492 131 C492 131 476 136 476 136 C462 99 403 80 299 80 C213 80 170 147 170 281 C170 302 171 322 173 340 L173 340 Z M439 379 C448 380 458 380 468 380 C468 380 439 379 439 379 L439 379 Z M349 377 C349 377 178 372 178 372 C193 443 228 479 283 479 C312 479 332 457 349 377 C349 377 349 377 349 377 L349 377 Z " />
<glyph glyph-name="f" unicode="f" horiz-adv-x="405" d="M22 0 C22 0 327 0 327 0 C327 0 327 20 327 20 C327 20 297 20 297 20 C261 20 242 21 242 35 C242 35 242 429 242 429 C242 429 395 429 395 429 C395 429 395 500 395 500 C395 500 242 500 242 500 C242 642 266 713 329 713 C402 713 407 635 467 635 C497 635 512 650 512 680 C512 730 467 755 377 755 C180 755 107 669 107 500 C107 500 26 444 26 444 C26 444 26 429 26 429 C26 429 107 429 107 429 C107 429 107 35 107 35 C107 21 89 20 52 20 C52 20 22 20 22 20 C22 20 22 0 22 0 L22 0 Z " />
<glyph glyph-name="g" unicode="g" horiz-adv-x="520" d="M197 350 C197 435 214 478 249 478 C283 478 300 435 300 350 C300 264 283 220 249 220 C214 220 197 264 197 350 L197 350 Z M156 -25 C160 -25 165 -25 169 -25 C169 -25 284 -25 284 -25 C356 -25 374 -45 374 -84 C374 -161 338 -199 268 -199 C188 -199 147 -154 147 -66 C147 -48 150 -34 156 -25 C156 -25 156 -25 156 -25 L156 -25 Z M114 -17 C62 -33 35 -60 35 -98 C35 -186 111 -230 260 -230 C409 -230 485 -170 485 -52 C485 55 447 109 298 109 C298 109 176 109 176 109 C143 110 126 121 126 141 C126 172 167 188 249 188 C372 188 435 242 435 350 C435 371 432 391 427 408 C442 429 457 439 473 439 C469 439 467 434 467 423 C467 392 488 376 530 376 C567 376 585 397 585 440 C585 477 566 495 529 495 C479 495 442 475 415 436 C388 485 332 510 249 510 C125 510 62 456 62 350 C62 278 90 230 145 206 C80 190 47 155 47 101 C47 39 69 -1 114 -17 C114 -17 114 -17 114 -17 L114 -17 Z " />
<glyph glyph-name="h" unicode="h" horiz-adv-x="720" d="M18 674 C18 674 48 682 48 682 C85 693 103 692 103 618 C103 618 103 35 103 35 C103 21 85 20 48 20 C48 20 18 20 18 20 C18 20 18 0 18 0 C18 0 323 0 323 0 C323 0 323 20 323 20 C323 20 293 20 293 20 C257 20 238 21 238 35 C238 35 238 358 238 358 C260 396 307 415 379 415 C442 415 466 370 466 280 C466 280 466 35 466 35 C466 21 447 20 411 20 C411 20 381 20 381 20 C381 20 381 0 381 0 C381 0 686 0 686 0 C686 0 686 20 686 20 C686 20 656 20 656 20 C619 20 601 21 601 35 C601 35 601 280 601 280 C601 433 562 510 456 510 C354 510 281 472 238 398 C238 398 238 650 238 650 C238 650 238 750 238 750 C238 750 214 750 214 750 C214 750 18 694 18 694 C18 694 18 674 18 674 L18 674 Z " />
<glyph glyph-name="i" unicode="i" horiz-adv-x="357" d="M180 615 C233 615 260 642 260 695 C260 748 233 775 180 775 C127 775 100 748 100 695 C100 642 127 615 180 615 L180 615 Z M27 424 C27 424 57 432 57 432 C94 443 112 442 112 368 C112 368 112 35 112 35 C112 21 97 20 67 20 C67 20 37 20 37 20 C37 20 37 0 37 0 C37 0 322 0 322 0 C322 0 322 20 322 20 C322 20 292 20 292 20 C262 20 247 21 247 35 C247 35 247 400 247 400 C247 400 247 500 247 500 C247 500 223 500 223 500 C223 500 27 444 27 444 C27 444 27 424 27 424 L27 424 Z " />
<glyph glyph-name="j" unicode="j" horiz-adv-x="327" d="M170 615 C223 615 250 642 250 695 C250 748 223 775 170 775 C117 775 90 748 90 695 C90 642 117 615 170 615 L170 615 Z M17 424 C17 424 47 432 47 432 C84 443 102 442 102 368 C102 368 102 79 102 79 C102 -24 81 -89 41 -112 C9 -112 -21 -100 -53 -100 C-83 -100 -98 -113 -98 -140 C-98 -173 -78 -188 -38 -185 C-31 -184 5 -166 67 -130 C180 -65 237 5 237 79 C237 79 237 400 237 400 C237 400 237 500 237 500 C237 500 213 500 213 500 C213 500 17 444 17 444 C17 444 17 424 17 424 L17 424 Z " />
<glyph glyph-name="k" unicode="k" horiz-adv-x="740" d="M668 500 C668 500 633 500 633 500 C633 500 576 500 576 500 C576 500 391 500 391 500 C391 500 391 480 391 480 C391 480 411 480 411 480 C498 480 528 471 340 342 C340 342 247 280 247 280 C247 280 247 650 247 650 C247 650 247 750 247 750 C247 750 223 750 223 750 C223 750 27 694 27 694 C27 694 27 674 27 674 C27 674 57 682 57 682 C94 693 112 692 112 618 C112 618 112 35 112 35 C112 21 97 20 67 20 C67 20 37 20 37 20 C37 20 37 0 37 0 C37 0 322 0 322 0 C322 0 322 20 322 20 C322 20 292 20 292 20 C262 20 247 21 247 35 C247 35 247 280 247 280 C247 280 468 35 468 35 C468 35 468 35 468 35 C481 21 468 20 439 20 C439 20 415 20 415 20 C415 20 415 0 415 0 C415 0 500 0 500 0 C500 0 675 0 675 0 C675 0 712 0 712 0 C712 0 712 20 712 20 C712 20 668 20 668 20 C662 20 657 21 648 30 C648 30 382 332 382 332 C382 332 579 464 579 464 C579 464 581 465 581 465 C601 479 612 480 631 480 C631 480 668 480 668 480 C668 480 668 500 668 500 L668 500 Z " />
<glyph glyph-name="l" unicode="l" horiz-adv-x="347" d="M17 674 C17 674 47 682 47 682 C84 693 102 692 102 618 C102 618 102 35 102 35 C102 21 85 20 52 20 C52 20 22 20 22 20 C22 20 22 0 22 0 C22 0 317 0 317 0 C317 0 317 20 317 20 C317 20 287 20 287 20 C254 20 237 21 237 35 C237 35 237 650 237 650 C237 650 237 750 237 750 C237 750 213 750 213 750 C213 750 17 694 17 694 C17 694 17 674 17 674 L17 674 Z " />
<glyph glyph-name="m" unicode="m" horiz-adv-x="976" d="M657 0 C657 0 952 0 952 0 C952 0 952 20 952 20 C952 20 922 20 922 20 C885 20 867 22 867 55 C867 55 867 280 867 280 C867 433 838 510 724 510 C644 510 582 474 541 403 C541 403 541 390 541 390 C526 470 488 510 406 510 C331 510 272 474 231 403 C231 403 231 500 231 500 C231 500 207 500 207 500 C207 500 11 429 11 429 C11 429 11 409 11 409 C11 409 41 420 41 420 C78 433 96 434 96 360 C96 360 96 55 96 55 C96 22 78 20 41 20 C41 20 11 20 11 20 C11 20 11 0 11 0 C11 0 301 0 301 0 C301 0 301 20 301 20 C301 20 271 20 271 20 C245 20 231 22 231 55 C231 55 231 363 231 363 C249 394 289 410 351 410 C401 410 414 366 414 280 C414 280 414 55 414 55 C414 22 399 20 369 20 C369 20 339 20 339 20 C339 20 339 0 339 0 C339 0 614 0 614 0 C614 0 614 20 614 20 C614 20 584 20 584 20 C561 20 549 22 549 55 C549 55 549 280 549 280 C549 313 548 342 544 368 C564 396 606 410 668 410 C719 410 732 366 732 280 C732 280 732 55 732 55 C732 22 717 20 687 20 C687 20 657 20 657 20 C657 20 657 0 657 0 L657 0 Z " />
<glyph glyph-name="n" unicode="n" horiz-adv-x="659" d="M11 409 C11 409 41 420 41 420 C78 433 96 434 96 360 C96 360 96 35 96 35 C96 21 79 20 46 20 C46 20 16 20 16 20 C16 20 16 0 16 0 C16 0 311 0 311 0 C311 0 311 20 311 20 C311 20 281 20 281 20 C248 20 231 21 231 35 C231 35 231 358 231 358 C252 393 283 411 326 411 C390 411 414 367 414 280 C414 280 414 35 414 35 C414 21 397 20 364 20 C364 20 334 20 334 20 C334 20 334 0 334 0 C334 0 629 0 629 0 C629 0 629 20 629 20 C629 20 599 20 599 20 C566 20 549 21 549 35 C549 35 549 280 549 280 C549 433 511 510 406 510 C333 510 274 472 231 398 C231 398 231 400 231 400 C231 400 231 500 231 500 C231 500 207 500 207 500 C207 500 11 429 11 429 C11 429 11 409 11 409 L11 409 Z " />
<glyph glyph-name="o" unicode="o" horiz-adv-x="609" d="M295 31 C216 31 176 105 176 250 C176 395 216 469 295 469 C375 469 415 395 415 250 C415 105 375 31 295 31 L295 31 Z M27 250 C27 77 117 -10 295 -10 C474 -10 564 77 564 250 C564 423 474 510 295 510 C117 510 27 423 27 250 L27 250 Z " />
<glyph glyph-name="p" unicode="p" horiz-adv-x="663" d="M12 409 C12 409 42 420 42 420 C79 433 97 434 97 360 C97 360 97 -150 97 -150 C97 -197 79 -200 42 -200 C42 -200 12 -200 12 -200 C12 -200 12 -220 12 -220 C12 -220 317 -220 317 -220 C317 -220 317 -200 317 -200 C317 -200 287 -200 287 -200 C251 -200 232 -197 232 -150 C232 -150 232 24 232 24 C269 5 321 -5 387 -5 C540 -5 618 102 618 261 C618 426 540 510 387 510 C318 510 266 489 232 448 C232 448 232 500 232 500 C232 500 208 500 208 500 C208 500 12 429 12 429 C12 429 12 409 12 409 L12 409 Z M232 92 C232 92 232 394 232 394 C261 434 291 454 324 454 C421 454 470 375 470 218 C470 104 438 27 374 27 C310 27 263 49 232 92 C232 92 232 92 232 92 L232 92 Z " />
<glyph glyph-name="q" unicode="q" horiz-adv-x="625" d="M275 -220 C275 -220 580 -220 580 -220 C580 -220 580 -200 580 -200 C580 -200 550 -200 550 -200 C513 -200 495 -199 495 -185 C495 -185 495 500 495 500 C495 500 487 500 487 500 C487 500 442 440 442 440 C414 487 359 510 278 510 C97 510 31 422 31 248 C31 80 98 -5 231 -5 C282 -5 325 15 360 55 C360 55 360 -185 360 -185 C360 -199 341 -200 305 -200 C305 -200 275 -200 275 -200 C275 -200 275 -220 275 -220 L275 -220 Z M360 390 C360 390 360 101 360 101 C333 68 309 51 287 51 C210 51 171 130 171 285 C171 414 198 479 270 479 C298 479 328 449 360 390 L360 390 Z " />
<glyph glyph-name="r" unicode="r" horiz-adv-x="531" d="M17 409 C17 409 47 420 47 420 C84 433 102 434 102 360 C102 360 102 35 102 35 C102 21 87 20 57 20 C57 20 27 20 27 20 C27 20 27 0 27 0 C27 0 322 0 322 0 C322 0 322 20 322 20 C322 20 292 20 292 20 C256 20 237 21 237 35 C237 35 237 347 237 347 C260 414 287 447 319 447 C348 447 363 435 363 412 C363 360 390 333 442 333 C494 333 521 360 521 412 C521 477 474 510 382 510 C311 510 263 479 237 416 C237 416 237 500 237 500 C237 500 213 500 213 500 C213 500 17 429 17 429 C17 429 17 409 17 409 L17 409 Z " />
<glyph glyph-name="s" unicode="s" horiz-adv-x="446" d="M374 345 C374 345 374 427 374 427 C374 427 374 510 374 510 C374 510 354 510 354 510 C354 510 354 481 354 481 C354 480 335 485 299 499 C299 499 298 499 298 499 C278 506 256 510 230 510 C118 510 61 462 61 367 C61 277 94 222 184 198 C263 178 292 148 292 105 C292 50 266 22 214 22 C168 22 131 51 104 109 C104 109 97 106 97 106 C91 122 88 139 88 157 C88 157 88 174 88 174 C88 174 68 174 68 174 C68 174 68 92 68 92 C68 92 68 7 68 7 C68 7 88 7 88 7 C88 7 88 28 88 28 C88 24 115 12 168 -4 C168 -4 169 -4 169 -4 C183 -8 198 -10 214 -10 C335 -10 396 41 396 143 C396 221 355 272 244 302 C180 319 157 355 157 413 C157 456 182 478 230 478 C281 478 317 455 338 410 C338 410 343 412 343 412 C350 397 354 379 354 362 C354 362 354 345 354 345 C354 345 374 345 374 345 L374 345 Z " />
<glyph glyph-name="t" unicode="t" horiz-adv-x="433" d="M382 500 C382 500 230 500 230 500 C230 500 230 620 230 620 C230 620 220 620 220 620 C220 620 30 439 30 439 C30 439 30 429 30 429 C30 429 95 429 95 429 C95 429 95 204 95 204 C95 33 150 -10 259 -10 C365 -10 420 41 424 140 C424 140 407 141 407 141 C404 83 369 54 301 54 C251 54 225 78 227 174 C227 174 230 429 230 429 C230 429 382 429 382 429 C382 429 382 500 382 500 L382 500 Z " />
<glyph glyph-name="u" unicode="u" horiz-adv-x="646" d="M626 59 C626 59 596 51 596 51 C559 42 541 43 541 118 C541 118 541 465 541 465 C541 465 541 500 541 500 C541 500 340 500 340 500 C340 500 340 480 340 480 C340 480 370 480 370 480 C394 480 406 479 406 465 C406 465 406 155 406 155 C384 108 349 84 301 84 C249 84 223 110 223 160 C223 160 223 465 223 465 C223 465 223 500 223 500 C223 500 22 500 22 500 C22 500 22 480 22 480 C22 480 52 480 52 480 C76 480 88 479 88 465 C88 465 88 160 88 160 C88 47 138 -10 238 -10 C315 -10 371 32 406 115 C406 115 406 90 406 90 C406 90 406 -10 406 -10 C406 -10 430 -10 430 -10 C430 -10 626 39 626 39 C626 39 626 59 626 59 L626 59 Z " />
<glyph glyph-name="v" unicode="v" horiz-adv-x="653" d="M616 500 C616 500 539 500 539 500 C539 500 477 500 477 500 C477 500 382 500 382 500 C382 500 382 480 382 480 C382 480 409 480 409 480 C448 480 467 478 461 454 C461 454 301 -10 301 -10 C301 -10 341 -10 341 -10 C341 -10 513 434 513 434 C513 434 514 434 514 434 C528 477 548 480 586 480 C586 480 616 480 616 480 C616 480 616 500 616 500 L616 500 Z M292 500 C292 500 217 500 217 500 C217 500 69 500 69 500 C69 500 8 500 8 500 C8 500 8 480 8 480 C8 480 43 480 43 480 C66 480 79 478 90 453 C90 453 90 453 90 453 C90 453 301 -10 301 -10 C301 -10 363 170 363 170 C363 170 234 462 234 462 C230 479 241 480 262 480 C262 480 292 480 292 480 C292 480 292 500 292 500 L292 500 Z " />
<glyph glyph-name="w" unicode="w" horiz-adv-x="969" d="M940 500 C940 500 863 500 863 500 C863 500 799 500 799 500 C799 500 704 500 704 500 C704 500 704 480 704 480 C704 480 731 480 731 480 C769 480 788 478 784 458 C784 458 677 170 677 170 C677 170 540 466 540 466 C536 479 543 480 558 480 C558 480 590 480 590 480 C590 480 590 500 590 500 C590 500 524 500 524 500 C524 500 373 500 373 500 C373 500 316 500 316 500 C316 500 316 480 316 480 C316 480 353 480 353 480 C372 480 383 479 391 460 C391 460 392 460 392 460 C392 460 443 350 443 350 C443 350 371 167 371 167 C371 167 222 463 222 463 C215 479 222 480 238 480 C238 480 269 480 269 480 C269 480 269 500 269 500 C269 500 203 500 203 500 C203 500 52 500 52 500 C52 500 -4 500 -4 500 C-4 500 -4 480 -4 480 C-4 480 32 480 32 480 C52 480 63 479 71 460 C71 460 72 460 72 460 C72 460 301 -10 301 -10 C301 -10 340 -10 340 -10 C340 -10 470 292 470 292 C470 292 610 -10 610 -10 C610 -10 650 -10 650 -10 C650 -10 841 447 841 447 C857 478 876 480 909 480 C909 480 940 480 940 480 C940 480 940 500 940 500 L940 500 Z " />
<glyph glyph-name="x" unicode="x" horiz-adv-x="678" d="M19 0 C19 0 79 0 79 0 C79 0 140 0 140 0 C140 0 240 0 240 0 C240 0 240 20 240 20 C240 20 216 20 216 20 C177 20 156 22 173 50 C173 50 178 59 178 59 C180 61 181 62 182 64 C182 64 182 64 182 64 C182 64 271 202 271 202 C271 202 368 55 368 55 C387 23 376 20 351 20 C351 20 324 20 324 20 C324 20 324 0 324 0 C324 0 404 0 404 0 C404 0 569 0 569 0 C569 0 621 0 621 0 C621 0 621 20 621 20 C621 20 584 20 584 20 C565 20 554 23 529 62 C529 62 528 62 528 62 C528 62 385 279 385 279 C385 279 502 436 502 436 C502 436 503 436 503 436 C530 477 547 480 577 480 C577 480 610 480 610 480 C610 480 610 500 610 500 C610 500 550 500 550 500 C550 500 488 500 488 500 C488 500 398 500 398 500 C398 500 398 480 398 480 C398 480 424 480 424 480 C454 480 469 478 455 451 C455 451 363 311 363 311 C363 311 275 445 275 445 C256 477 267 480 292 480 C292 480 319 480 319 480 C319 480 319 500 319 500 C319 500 239 500 239 500 C239 500 74 500 74 500 C74 500 32 500 32 500 C32 500 32 480 32 480 C32 480 76 480 76 480 C83 480 89 478 110 445 C110 445 110 445 110 445 C110 445 252 230 252 230 C252 230 127 64 127 64 C96 23 80 20 52 20 C52 20 19 20 19 20 C19 20 19 0 19 0 L19 0 Z " />
<glyph glyph-name="y" unicode="y" horiz-adv-x="649" d="M628 500 C628 500 551 500 551 500 C551 500 489 500 489 500 C489 500 394 500 394 500 C394 500 394 480 394 480 C394 480 421 480 421 480 C462 480 481 478 471 450 C471 450 471 450 471 450 C471 450 371 169 371 169 C371 169 232 453 232 453 C220 478 231 480 255 480 C255 480 284 480 284 480 C284 480 284 500 284 500 C284 500 209 500 209 500 C209 500 61 500 61 500 C61 500 1 500 1 500 C1 500 1 480 1 480 C1 480 36 480 36 480 C59 480 72 478 83 453 C83 453 84 453 84 453 C84 453 307 -10 307 -10 C307 -10 260 -140 260 -140 C254 -157 244 -165 230 -165 C195 -165 189 -117 153 -117 C102 -117 76 -140 76 -184 C76 -240 103 -268 156 -268 C220 -268 263 -237 285 -177 C285 -177 346 -10 346 -10 C346 -10 525 434 525 434 C525 434 525 434 525 434 C540 477 560 480 597 480 C597 480 628 480 628 480 C628 480 628 500 628 500 L628 500 Z " />
<glyph glyph-name="z" unicode="z" horiz-adv-x="475" d="M183 0 C183 0 297 0 297 0 C297 0 430 0 430 0 C436 47 444 95 450 141 C450 141 440 141 440 141 C440 141 426 111 426 111 C408 74 392 51 329 44 C329 44 204 39 204 39 C204 39 435 468 435 468 C435 468 435 500 435 500 C435 500 297 500 297 500 C297 500 135 500 135 500 C123 500 112 508 116 523 C116 523 121 540 121 540 C121 540 101 540 101 540 C93 510 85 480 76 449 C76 449 52 359 52 359 C52 359 64 359 64 359 C64 359 80 389 80 389 C99 425 116 447 169 455 C169 455 275 460 275 460 C275 460 40 32 40 32 C40 32 40 0 40 0 C40 0 183 0 183 0 L183 0 Z " />
<glyph glyph-name="bar" unicode="&#x7c;" horiz-adv-x="225" d="M60 800 C60 800 60 -250 60 -250 C60 -250 165 -250 165 -250 C165 -250 165 800 165 800 C165 800 60 800 60 800 L60 800 Z " />
<glyph glyph-name="exclamdown" unicode="&#xa1;" horiz-adv-x="305" d="M153 505 C99 505 72 478 73 425 C72 372 99 345 153 345 C205 345 232 372 233 425 C232 478 205 505 153 505 L153 505 Z M153 -255 C244 -255 250 -210 235 -121 C235 -121 165 290 165 290 C165 290 140 290 140 290 C140 290 70 -121 70 -121 C55 -210 62 -255 153 -255 L153 -255 Z " />
<glyph glyph-name="cent" unicode="&#xa2;" horiz-adv-x="543" d="M298 575 C298 575 298 509 298 509 C119 498 28 406 28 234 C28 78 118 -4 298 -10 C298 -10 298 -75 298 -75 C298 -75 340 -75 340 -75 C340 -75 340 -9 340 -9 C418 -2 476 44 513 128 C513 128 494 136 494 136 C476 94 432 73 365 73 C356 73 348 73 340 74 C340 74 340 475 340 475 C357 467 372 443 386 405 C403 360 425 338 454 338 C515 338 538 360 521 405 C497 474 436 509 340 510 C340 510 340 575 340 575 C340 575 298 575 298 575 L298 575 Z M298 81 C215 102 173 169 173 279 C173 399 215 466 298 477 C298 477 298 81 298 81 L298 81 Z " />
<glyph glyph-name="questiondown" unicode="&#xbf;" horiz-adv-x="292" d="M167 505 C114 505 87 478 87 425 C87 372 114 345 167 345 C220 345 247 372 247 425 C247 478 220 505 167 505 L167 505 Z M163 240 C163 240 167 140 167 140 C51 140 34 116 2 68 C-19 37 -30 -6 -30 -58 C-30 -192 30 -260 147 -260 C231 -260 274 -226 274 -160 C274 -116 250 -94 201 -94 C165 -94 134 -117 98 -117 C40 -117 10 -92 10 -42 C10 -33 17 -18 32 3 C57 41 71 60 195 60 C195 60 187 240 187 240 C187 240 163 240 163 240 L163 240 Z " />
<glyph glyph-name="Agrave" unicode="&#xc0;" horiz-adv-x="846" d="M458 0 C458 0 593 0 593 0 C593 0 752 0 752 0 C752 0 840 0 840 0 C840 0 840 20 840 20 C840 20 810 20 810 20 C770 20 746 27 715 110 C715 110 513 702 513 702 C513 702 490 770 490 770 C490 770 475 770 475 770 C448 732 410 709 362 702 C362 702 365 692 365 692 C365 692 365 692 365 692 C365 692 192 170 192 170 C192 170 192 170 192 170 C148 30 109 20 37 20 C37 20 7 20 7 20 C7 20 7 0 7 0 C7 0 136 0 136 0 C136 0 181 0 181 0 C181 0 346 0 346 0 C346 0 346 20 346 20 C346 20 322 20 322 20 C232 20 189 30 234 170 C234 170 234 170 234 170 C234 170 264 269 264 269 C264 269 504 269 504 269 C504 269 550 131 550 131 C582 28 550 20 483 20 C483 20 458 20 458 20 C458 20 458 0 458 0 L458 0 Z M354 988 C328 1030 313 1051 303 1051 C263 1051 236 1024 236 983 C236 973 255 955 292 927 C292 927 438 811 438 811 C438 811 455 828 455 828 C455 828 354 988 354 988 L354 988 Z M276 308 C276 308 381 645 381 645 C381 645 492 308 492 308 C492 308 276 308 276 308 L276 308 Z " />
<glyph glyph-name="Aacute" unicode="&#xc1;" horiz-adv-x="846" d="M446 811 C446 811 593 927 593 927 C630 957 649 974 649 983 C649 1024 622 1051 581 1051 C573 1051 558 1030 531 988 C531 988 430 828 430 828 C430 828 446 811 446 811 L446 811 Z M458 0 C458 0 593 0 593 0 C593 0 752 0 752 0 C752 0 840 0 840 0 C840 0 840 20 840 20 C840 20 810 20 810 20 C770 20 746 27 715 110 C715 110 513 702 513 702 C513 702 490 770 490 770 C490 770 475 770 475 770 C448 732 410 709 362 702 C362 702 365 692 365 692 C365 692 365 692 365 692 C365 692 192 170 192 170 C192 170 192 170 192 170 C148 30 109 20 37 20 C37 20 7 20 7 20 C7 20 7 0 7 0 C7 0 136 0 136 0 C136 0 181 0 181 0 C181 0 346 0 346 0 C346 0 346 20 346 20 C346 20 322 20 322 20 C232 20 189 30 234 170 C234 170 234 170 234 170 C234 170 264 269 264 269 C264 269 504 269 504 269 C504 269 550 131 550 131 C582 28 550 20 483 20 C483 20 458 20 458 20 C458 20 458 0 458 0 L458 0 Z M276 308 C276 308 381 645 381 645 C381 645 492 308 492 308 C492 308 276 308 276 308 L276 308 Z " />
<glyph glyph-name="Acircumflex" unicode="&#xc2;" horiz-adv-x="846" d="M458 0 C458 0 593 0 593 0 C593 0 752 0 752 0 C752 0 840 0 840 0 C840 0 840 20 840 20 C840 20 810 20 810 20 C770 20 746 27 715 110 C715 110 513 702 513 702 C513 702 490 770 490 770 C490 770 475 770 475 770 C448 732 410 709 362 702 C362 702 365 692 365 692 C365 692 365 692 365 692 C365 692 192 170 192 170 C192 170 192 170 192 170 C148 30 109 20 37 20 C37 20 7 20 7 20 C7 20 7 0 7 0 C7 0 136 0 136 0 C136 0 181 0 181 0 C181 0 346 0 346 0 C346 0 346 20 346 20 C346 20 322 20 322 20 C232 20 189 30 234 170 C234 170 234 170 234 170 C234 170 264 269 264 269 C264 269 504 269 504 269 C504 269 550 131 550 131 C582 28 550 20 483 20 C483 20 458 20 458 20 C458 20 458 0 458 0 L458 0 Z M438 907 C438 907 575 804 575 804 C575 804 593 819 593 819 C593 819 485 990 485 990 C475 1006 454 1038 437 1038 C420 1038 400 1006 390 991 C390 991 281 819 281 819 C281 819 300 804 300 804 C300 804 438 907 438 907 L438 907 Z M276 308 C276 308 381 645 381 645 C381 645 492 308 492 308 C492 308 276 308 276 308 L276 308 Z " />
<glyph glyph-name="Atilde" unicode="&#xc3;" horiz-adv-x="846" d="M299 870 C299 904 311 921 336 921 C399 921 437 856 500 856 C566 856 599 908 599 1011 C599 1011 575 1011 575 1011 C575 971 560 951 531 951 C468 951 430 1016 366 1016 C306 1016 275 967 275 870 C275 870 299 870 299 870 L299 870 Z M458 0 C458 0 593 0 593 0 C593 0 752 0 752 0 C752 0 840 0 840 0 C840 0 840 20 840 20 C840 20 810 20 810 20 C770 20 746 27 715 110 C715 110 513 702 513 702 C513 702 490 770 490 770 C490 770 475 770 475 770 C448 732 410 709 362 702 C362 702 365 692 365 692 C365 692 365 692 365 692 C365 692 192 170 192 170 C192 170 192 170 192 170 C148 30 109 20 37 20 C37 20 7 20 7 20 C7 20 7 0 7 0 C7 0 136 0 136 0 C136 0 181 0 181 0 C181 0 346 0 346 0 C346 0 346 20 346 20 C346 20 322 20 322 20 C232 20 189 30 234 170 C234 170 234 170 234 170 C234 170 264 269 264 269 C264 269 504 269 504 269 C504 269 550 131 550 131 C582 28 550 20 483 20 C483 20 458 20 458 20 C458 20 458 0 458 0 L458 0 Z M276 308 C276 308 381 645 381 645 C381 645 492 308 492 308 C492 308 276 308 276 308 L276 308 Z " />
<glyph glyph-name="Adieresis" unicode="&#xc4;" horiz-adv-x="846" d="M521 865 C574 865 601 892 601 945 C601 998 574 1025 521 1025 C468 1025 441 998 441 945 C441 892 468 865 521 865 L521 865 Z M353 865 C406 865 433 892 433 945 C433 998 406 1025 353 1025 C300 1025 273 998 273 945 C273 892 300 865 353 865 L353 865 Z M458 0 C458 0 593 0 593 0 C593 0 752 0 752 0 C752 0 840 0 840 0 C840 0 840 20 840 20 C840 20 810 20 810 20 C770 20 746 27 715 110 C715 110 513 702 513 702 C513 702 490 770 490 770 C490 770 475 770 475 770 C448 732 410 709 362 702 C362 702 365 692 365 692 C365 692 365 692 365 692 C365 692 192 170 192 170 C192 170 192 170 192 170 C148 30 109 20 37 20 C37 20 7 20 7 20 C7 20 7 0 7 0 C7 0 136 0 136 0 C136 0 181 0 181 0 C181 0 346 0 346 0 C346 0 346 20 346 20 C346 20 322 20 322 20 C232 20 189 30 234 170 C234 170 234 170 234 170 C234 170 264 269 264 269 C264 269 504 269 504 269 C504 269 550 131 550 131 C582 28 550 20 483 20 C483 20 458 20 458 20 C458 20 458 0 458 0 L458 0 Z M276 308 C276 308 381 645 381 645 C381 645 492 308 492 308 C492 308 276 308 276 308 L276 308 Z " />
<glyph glyph-name="Aring" unicode="&#xc5;" horiz-adv-x="846" d="M437 842 C402 842 378 867 378 905 C378 947 398 968 437 968 C477 968 497 947 497 905 C497 867 473 842 437 842 L437 842 Z M338 905 C338 848 378 810 437 810 C496 810 536 848 536 905 C536 968 503 1000 437 1000 C371 1000 338 968 338 905 L338 905 Z M458 0 C458 0 593 0 593 0 C593 0 752 0 752 0 C752 0 840 0 840 0 C840 0 840 20 840 20 C840 20 810 20 810 20 C770 20 746 27 715 110 C715 110 513 702 513 702 C513 702 490 770 490 770 C490 770 475 770 475 770 C448 732 410 709 362 702 C362 702 365 692 365 692 C365 692 365 692 365 692 C365 692 192 170 192 170 C192 170 192 170 192 170 C148 30 109 20 37 20 C37 20 7 20 7 20 C7 20 7 0 7 0 C7 0 136 0 136 0 C136 0 181 0 181 0 C181 0 346 0 346 0 C346 0 346 20 346 20 C346 20 322 20 322 20 C232 20 189 30 234 170 C234 170 234 170 234 170 C234 170 264 269 264 269 C264 269 504 269 504 269 C504 269 550 131 550 131 C582 28 550 20 483 20 C483 20 458 20 458 20 C458 20 458 0 458 0 L458 0 Z M276 308 C276 308 381 645 381 645 C381 645 492 308 492 308 C492 308 276 308 276 308 L276 308 Z " />
<glyph glyph-name="Egrave" unicode="&#xc8;" horiz-adv-x="690" d="M604 593 C600 645 597 699 593 750 C593 750 473 750 473 750 C473 750 283 750 283 750 C283 750 132 750 132 750 C132 750 27 750 27 750 C27 750 27 730 27 730 C27 730 57 730 57 730 C107 730 132 725 132 665 C132 665 132 85 132 85 C132 25 107 20 57 20 C57 20 27 20 27 20 C27 20 27 0 27 0 C27 0 132 0 132 0 C132 0 283 0 283 0 C283 0 498 0 498 0 C498 0 618 0 618 0 C626 51 632 105 640 157 C640 157 620 157 620 157 C620 157 616 127 616 127 C607 64 596 32 503 32 C503 32 363 32 363 32 C283 32 283 48 283 80 C283 80 283 85 283 85 C283 85 283 385 283 385 C283 385 413 385 413 385 C506 385 513 348 513 275 C513 275 513 245 513 245 C513 245 533 245 533 245 C533 245 533 385 533 385 C533 385 533 421 533 421 C533 421 533 561 533 561 C533 561 513 561 513 561 C513 561 513 531 513 531 C513 458 506 421 413 421 C413 421 283 421 283 421 C283 421 283 665 283 665 C283 665 283 718 283 718 C283 718 475 718 475 718 C587 718 578 682 583 611 C583 611 584 593 584 593 C584 593 604 593 604 593 L604 593 Z M279 988 C254 1030 238 1051 229 1051 C188 1051 161 1024 161 983 C161 973 180 955 217 927 C217 927 364 811 364 811 C364 811 380 828 380 828 C380 828 279 988 279 988 L279 988 Z " />
<glyph glyph-name="Eacute" unicode="&#xc9;" horiz-adv-x="690" d="M372 811 C372 811 518 927 518 927 C555 957 574 974 574 983 C574 1024 547 1051 507 1051 C499 1051 483 1030 456 988 C456 988 355 828 355 828 C355 828 372 811 372 811 L372 811 Z M604 593 C600 645 597 699 593 750 C593 750 473 750 473 750 C473 750 283 750 283 750 C283 750 132 750 132 750 C132 750 27 750 27 750 C27 750 27 730 27 730 C27 730 57 730 57 730 C107 730 132 725 132 665 C132 665 132 85 132 85 C132 25 107 20 57 20 C57 20 27 20 27 20 C27 20 27 0 27 0 C27 0 132 0 132 0 C132 0 283 0 283 0 C283 0 498 0 498 0 C498 0 618 0 618 0 C626 51 632 105 640 157 C640 157 620 157 620 157 C620 157 616 127 616 127 C607 64 596 32 503 32 C503 32 363 32 363 32 C283 32 283 48 283 80 C283 80 283 85 283 85 C283 85 283 385 283 385 C283 385 413 385 413 385 C506 385 513 348 513 275 C513 275 513 245 513 245 C513 245 533 245 533 245 C533 245 533 385 533 385 C533 385 533 421 533 421 C533 421 533 561 533 561 C533 561 513 561 513 561 C513 561 513 531 513 531 C513 458 506 421 413 421 C413 421 283 421 283 421 C283 421 283 665 283 665 C283 665 283 718 283 718 C283 718 475 718 475 718 C587 718 578 682 583 611 C583 611 584 593 584 593 C584 593 604 593 604 593 L604 593 Z " />
<glyph glyph-name="Ecircumflex" unicode="&#xca;" horiz-adv-x="690" d="M604 593 C600 645 597 699 593 750 C593 750 473 750 473 750 C473 750 283 750 283 750 C283 750 132 750 132 750 C132 750 27 750 27 750 C27 750 27 730 27 730 C27 730 57 730 57 730 C107 730 132 725 132 665 C132 665 132 85 132 85 C132 25 107 20 57 20 C57 20 27 20 27 20 C27 20 27 0 27 0 C27 0 132 0 132 0 C132 0 283 0 283 0 C283 0 498 0 498 0 C498 0 618 0 618 0 C626 51 632 105 640 157 C640 157 620 157 620 157 C620 157 616 127 616 127 C607 64 596 32 503 32 C503 32 363 32 363 32 C283 32 283 48 283 80 C283 80 283 85 283 85 C283 85 283 385 283 385 C283 385 413 385 413 385 C506 385 513 348 513 275 C513 275 513 245 513 245 C513 245 533 245 533 245 C533 245 533 385 533 385 C533 385 533 421 533 421 C533 421 533 561 533 561 C533 561 513 561 513 561 C513 561 513 531 513 531 C513 458 506 421 413 421 C413 421 283 421 283 421 C283 421 283 665 283 665 C283 665 283 718 283 718 C283 718 475 718 475 718 C587 718 578 682 583 611 C583 611 584 593 584 593 C584 593 604 593 604 593 L604 593 Z M363 907 C363 907 500 804 500 804 C500 804 519 819 519 819 C519 819 411 990 411 990 C400 1006 380 1038 363 1038 C345 1038 325 1006 315 991 C315 991 207 819 207 819 C207 819 225 804 225 804 C225 804 363 907 363 907 L363 907 Z " />
<glyph glyph-name="Edieresis" unicode="&#xcb;" horiz-adv-x="690" d="M447 865 C500 865 527 892 527 945 C527 998 500 1025 447 1025 C394 1025 367 998 367 945 C367 892 394 865 447 865 L447 865 Z M279 865 C332 865 359 892 359 945 C359 998 332 1025 279 1025 C226 1025 199 998 199 945 C199 892 226 865 279 865 L279 865 Z M604 593 C600 645 597 699 593 750 C593 750 473 750 473 750 C473 750 283 750 283 750 C283 750 132 750 132 750 C132 750 27 750 27 750 C27 750 27 730 27 730 C27 730 57 730 57 730 C107 730 132 725 132 665 C132 665 132 85 132 85 C132 25 107 20 57 20 C57 20 27 20 27 20 C27 20 27 0 27 0 C27 0 132 0 132 0 C132 0 283 0 283 0 C283 0 498 0 498 0 C498 0 618 0 618 0 C626 51 632 105 640 157 C640 157 620 157 620 157 C620 157 616 127 616 127 C607 64 596 32 503 32 C503 32 363 32 363 32 C283 32 283 48 283 80 C283 80 283 85 283 85 C283 85 283 385 283 385 C283 385 413 385 413 385 C506 385 513 348 513 275 C513 275 513 245 513 245 C513 245 533 245 533 245 C533 245 533 385 533 385 C533 385 533 421 533 421 C533 421 533 561 533 561 C533 561 513 561 513 561 C513 561 513 531 513 531 C513 458 506 421 413 421 C413 421 283 421 283 421 C283 421 283 665 283 665 C283 665 283 718 283 718 C283 718 475 718 475 718 C587 718 578 682 583 611 C583 611 584 593 584 593 C584 593 604 593 604 593 L604 593 Z " />
<glyph glyph-name="Igrave" unicode="&#xcc;" horiz-adv-x="410" d="M370 750 C370 750 10 750 10 750 C10 750 10 730 10 730 C10 730 40 730 40 730 C90 730 115 726 115 670 C115 670 115 80 115 80 C115 24 90 20 40 20 C40 20 10 20 10 20 C10 20 10 0 10 0 C10 0 370 0 370 0 C370 0 370 20 370 20 C370 20 340 20 340 20 C290 20 265 24 265 80 C265 80 265 670 265 670 C265 726 290 730 340 730 C340 730 370 730 370 730 C370 730 370 750 370 750 L370 750 Z M106 988 C81 1030 66 1051 56 1051 C15 1051 -12 1024 -12 983 C-12 973 7 955 45 927 C45 927 191 811 191 811 C191 811 208 828 208 828 C208 828 106 988 106 988 L106 988 Z " />
<glyph glyph-name="Iacute" unicode="&#xcd;" horiz-adv-x="410" d="M199 811 C199 811 345 927 345 927 C383 957 402 974 402 983 C402 1024 375 1051 334 1051 C326 1051 310 1030 284 988 C284 988 182 828 182 828 C182 828 199 811 199 811 L199 811 Z M370 750 C370 750 10 750 10 750 C10 750 10 730 10 730 C10 730 40 730 40 730 C90 730 115 726 115 670 C115 670 115 80 115 80 C115 24 90 20 40 20 C40 20 10 20 10 20 C10 20 10 0 10 0 C10 0 370 0 370 0 C370 0 370 20 370 20 C370 20 340 20 340 20 C290 20 265 24 265 80 C265 80 265 670 265 670 C265 726 290 730 340 730 C340 730 370 730 370 730 C370 730 370 750 370 750 L370 750 Z " />
<glyph glyph-name="Icircumflex" unicode="&#xce;" horiz-adv-x="410" d="M370 750 C370 750 10 750 10 750 C10 750 10 730 10 730 C10 730 40 730 40 730 C90 730 115 726 115 670 C115 670 115 80 115 80 C115 24 90 20 40 20 C40 20 10 20 10 20 C10 20 10 0 10 0 C10 0 370 0 370 0 C370 0 370 20 370 20 C370 20 340 20 340 20 C290 20 265 24 265 80 C265 80 265 670 265 670 C265 726 290 730 340 730 C340 730 370 730 370 730 C370 730 370 750 370 750 L370 750 Z M190 907 C190 907 328 804 328 804 C328 804 346 819 346 819 C346 819 238 990 238 990 C228 1006 207 1038 190 1038 C173 1038 153 1006 143 991 C143 991 34 819 34 819 C34 819 52 804 52 804 C52 804 190 907 190 907 L190 907 Z " />
<glyph glyph-name="Idieresis" unicode="&#xcf;" horiz-adv-x="410" d="M274 865 C327 865 354 892 354 945 C354 998 327 1025 274 1025 C221 1025 194 998 194 945 C194 892 221 865 274 865 L274 865 Z M106 865 C159 865 186 892 186 945 C186 998 159 1025 106 1025 C53 1025 26 998 26 945 C26 892 53 865 106 865 L106 865 Z M370 750 C370 750 10 750 10 750 C10 750 10 730 10 730 C10 730 40 730 40 730 C90 730 115 726 115 670 C115 670 115 80 115 80 C115 24 90 20 40 20 C40 20 10 20 10 20 C10 20 10 0 10 0 C10 0 370 0 370 0 C370 0 370 20 370 20 C370 20 340 20 340 20 C290 20 265 24 265 80 C265 80 265 670 265 670 C265 726 290 730 340 730 C340 730 370 730 370 730 C370 730 370 750 370 750 L370 750 Z " />
<glyph glyph-name="Ntilde" unicode="&#xd1;" horiz-adv-x="807" d="M260 870 C260 904 272 921 297 921 C360 921 398 856 461 856 C527 856 560 908 560 1011 C560 1011 536 1011 536 1011 C536 971 521 951 492 951 C429 951 391 1016 327 1016 C267 1016 236 967 236 870 C236 870 260 870 260 870 L260 870 Z M-28 730 C-28 730 10 730 10 730 C28 730 39 728 65 695 C65 695 65 695 65 695 C65 695 136 607 136 607 C136 607 134 150 134 150 C134 150 134 150 134 150 C134 29 102 20 39 20 C39 20 9 20 9 20 C9 20 9 0 9 0 C9 0 134 0 134 0 C134 0 179 0 179 0 C179 0 304 0 304 0 C304 0 304 20 304 20 C304 20 274 20 274 20 C210 20 178 28 178 140 C178 140 178 140 178 140 C178 140 175 558 175 558 C175 558 450 214 450 214 C450 214 621 0 621 0 C621 0 652 0 652 0 C652 0 662 649 662 649 C666 724 698 730 756 730 C756 730 786 730 786 730 C786 730 786 750 786 750 C786 750 663 750 663 750 C663 750 618 750 618 750 C618 750 493 750 493 750 C493 750 493 730 493 730 C493 730 523 730 523 730 C586 730 618 723 618 630 C618 630 618 630 618 630 C618 630 620 244 620 244 C620 244 570 306 570 306 C570 306 209 750 209 750 C209 750 173 750 173 750 C173 750 136 750 136 750 C136 750 21 750 21 750 C21 750 -28 750 -28 750 C-28 750 -28 730 -28 730 L-28 730 Z " />
<glyph glyph-name="Ograve" unicode="&#xd2;" horiz-adv-x="914" d="M440 30 C285 30 207 146 207 375 C207 604 283 720 435 720 C602 720 687 604 687 375 C687 146 604 30 440 30 L440 30 Z M34 375 C34 119 168 -10 432 -10 C716 -10 860 119 860 375 C860 631 720 760 442 760 C171 760 34 631 34 375 L34 375 Z M358 988 C333 1030 317 1051 308 1051 C267 1051 240 1024 240 983 C240 973 259 955 296 927 C296 927 443 811 443 811 C443 811 459 828 459 828 C459 828 358 988 358 988 L358 988 Z " />
<glyph glyph-name="Oacute" unicode="&#xd3;" horiz-adv-x="914" d="M451 811 C451 811 597 927 597 927 C634 957 653 974 653 983 C653 1024 626 1051 586 1051 C578 1051 562 1030 535 988 C535 988 434 828 434 828 C434 828 451 811 451 811 L451 811 Z M440 30 C285 30 207 146 207 375 C207 604 283 720 435 720 C602 720 687 604 687 375 C687 146 604 30 440 30 L440 30 Z M34 375 C34 119 168 -10 432 -10 C716 -10 860 119 860 375 C860 631 720 760 442 760 C171 760 34 631 34 375 L34 375 Z " />
<glyph glyph-name="Ocircumflex" unicode="&#xd4;" horiz-adv-x="914" d="M440 30 C285 30 207 146 207 375 C207 604 283 720 435 720 C602 720 687 604 687 375 C687 146 604 30 440 30 L440 30 Z M34 375 C34 119 168 -10 432 -10 C716 -10 860 119 860 375 C860 631 720 760 442 760 C171 760 34 631 34 375 L34 375 Z M442 907 C442 907 579 804 579 804 C579 804 598 819 598 819 C598 819 490 990 490 990 C479 1006 459 1038 442 1038 C425 1038 405 1006 394 991 C394 991 286 819 286 819 C286 819 304 804 304 804 C304 804 442 907 442 907 L442 907 Z " />
<glyph glyph-name="Otilde" unicode="&#xd5;" horiz-adv-x="914" d="M304 870 C304 904 316 921 340 921 C403 921 442 856 505 856 C571 856 604 908 604 1011 C604 1011 580 1011 580 1011 C580 971 565 951 536 951 C473 951 434 1016 371 1016 C311 1016 280 967 280 870 C280 870 304 870 304 870 L304 870 Z M440 30 C285 30 207 146 207 375 C207 604 283 720 435 720 C602 720 687 604 687 375 C687 146 604 30 440 30 L440 30 Z M34 375 C34 119 168 -10 432 -10 C716 -10 860 119 860 375 C860 631 720 760 442 760 C171 760 34 631 34 375 L34 375 Z " />
<glyph glyph-name="Odieresis" unicode="&#xd6;" horiz-adv-x="914" d="M526 865 C579 865 606 892 606 945 C606 998 579 1025 526 1025 C473 1025 446 998 446 945 C446 892 473 865 526 865 L526 865 Z M358 865 C411 865 438 892 438 945 C438 998 411 1025 358 1025 C305 1025 278 998 278 945 C278 892 305 865 358 865 L358 865 Z M440 30 C285 30 207 146 207 375 C207 604 283 720 435 720 C602 720 687 604 687 375 C687 146 604 30 440 30 L440 30 Z M34 375 C34 119 168 -10 432 -10 C716 -10 860 119 860 375 C860 631 720 760 442 760 C171 760 34 631 34 375 L34 375 Z " />
<glyph glyph-name="Oslash" unicode="&#xd8;" horiz-adv-x="914" d="M57 -35 C57 -35 162 63 162 63 C227 14 317 -10 432 -10 C716 -10 860 119 860 375 C860 487 833 575 779 638 C779 638 883 735 883 735 C883 735 837 785 837 785 C837 785 729 685 729 685 C661 735 565 760 442 760 C171 760 34 631 34 375 C34 262 60 173 113 110 C113 110 11 15 11 15 C11 15 57 -35 57 -35 L57 -35 Z M440 30 C351 30 287 68 249 144 C249 144 669 535 669 535 C681 490 687 437 687 375 C687 146 604 30 440 30 L440 30 Z M224 214 C213 259 207 313 207 375 C207 604 283 720 435 720 C532 720 601 681 642 603 C642 603 224 214 224 214 L224 214 Z " />
<glyph glyph-name="Ugrave" unicode="&#xd9;" horiz-adv-x="836" d="M465 730 C465 730 495 730 495 730 C545 730 570 725 570 665 C570 665 570 207 570 207 C534 127 473 87 389 87 C295 87 248 132 248 220 C248 220 248 665 248 665 C248 665 248 750 248 750 C248 750 -8 750 -8 750 C-8 750 -8 730 -8 730 C-8 730 22 730 22 730 C72 730 97 725 97 665 C97 665 97 220 97 220 C97 67 175 -10 329 -10 C443 -10 524 40 570 139 C570 139 570 110 570 110 C570 110 570 0 570 0 C570 0 594 0 594 0 C594 0 825 55 825 55 C825 55 825 65 825 65 C728 60 721 62 721 110 C721 110 721 665 721 665 C721 665 721 750 721 750 C721 750 465 750 465 750 C465 750 465 730 465 730 L465 730 Z M326 988 C300 1030 285 1051 275 1051 C235 1051 208 1024 208 983 C208 973 227 955 264 927 C264 927 410 811 410 811 C410 811 427 828 427 828 C427 828 326 988 326 988 L326 988 Z " />
<glyph glyph-name="Uacute" unicode="&#xda;" horiz-adv-x="836" d="M419 811 C419 811 565 927 565 927 C602 957 621 974 621 983 C621 1024 594 1051 553 1051 C545 1051 530 1030 503 988 C503 988 402 828 402 828 C402 828 419 811 419 811 L419 811 Z M465 730 C465 730 495 730 495 730 C545 730 570 725 570 665 C570 665 570 207 570 207 C534 127 473 87 389 87 C295 87 248 132 248 220 C248 220 248 665 248 665 C248 665 248 750 248 750 C248 750 -8 750 -8 750 C-8 750 -8 730 -8 730 C-8 730 22 730 22 730 C72 730 97 725 97 665 C97 665 97 220 97 220 C97 67 175 -10 329 -10 C443 -10 524 40 570 139 C570 139 570 110 570 110 C570 110 570 0 570 0 C570 0 594 0 594 0 C594 0 825 55 825 55 C825 55 825 65 825 65 C728 60 721 62 721 110 C721 110 721 665 721 665 C721 665 721 750 721 750 C721 750 465 750 465 750 C465 750 465 730 465 730 L465 730 Z " />
<glyph glyph-name="Ucircumflex" unicode="&#xdb;" horiz-adv-x="836" d="M465 730 C465 730 495 730 495 730 C545 730 570 725 570 665 C570 665 570 207 570 207 C534 127 473 87 389 87 C295 87 248 132 248 220 C248 220 248 665 248 665 C248 665 248 750 248 750 C248 750 -8 750 -8 750 C-8 750 -8 730 -8 730 C-8 730 22 730 22 730 C72 730 97 725 97 665 C97 665 97 220 97 220 C97 67 175 -10 329 -10 C443 -10 524 40 570 139 C570 139 570 110 570 110 C570 110 570 0 570 0 C570 0 594 0 594 0 C594 0 825 55 825 55 C825 55 825 65 825 65 C728 60 721 62 721 110 C721 110 721 665 721 665 C721 665 721 750 721 750 C721 750 465 750 465 750 C465 750 465 730 465 730 L465 730 Z M410 907 C410 907 547 804 547 804 C547 804 565 819 565 819 C565 819 457 990 457 990 C447 1006 426 1038 409 1038 C392 1038 372 1006 362 991 C362 991 253 819 253 819 C253 819 272 804 272 804 C272 804 410 907 410 907 L410 907 Z " />
<glyph glyph-name="Udieresis" unicode="&#xdc;" horiz-adv-x="836" d="M493 865 C546 865 573 892 573 945 C573 998 546 1025 493 1025 C440 1025 413 998 413 945 C413 892 440 865 493 865 L493 865 Z M325 865 C378 865 405 892 405 945 C405 998 378 1025 325 1025 C272 1025 245 998 245 945 C245 892 272 865 325 865 L325 865 Z M465 730 C465 730 495 730 495 730 C545 730 570 725 570 665 C570 665 570 207 570 207 C534 127 473 87 389 87 C295 87 248 132 248 220 C248 220 248 665 248 665 C248 665 248 750 248 750 C248 750 -8 750 -8 750 C-8 750 -8 730 -8 730 C-8 730 22 730 22 730 C72 730 97 725 97 665 C97 665 97 220 97 220 C97 67 175 -10 329 -10 C443 -10 524 40 570 139 C570 139 570 110 570 110 C570 110 570 0 570 0 C570 0 594 0 594 0 C594 0 825 55 825 55 C825 55 825 65 825 65 C728 60 721 62 721 110 C721 110 721 665 721 665 C721 665 721 750 721 750 C721 750 465 750 465 750 C465 750 465 730 465 730 L465 730 Z " />
<glyph glyph-name="Yacute" unicode="&#xdd;" horiz-adv-x="827" d="M433 811 C433 811 579 927 579 927 C617 957 636 974 636 983 C636 1024 609 1051 568 1051 C560 1051 544 1030 518 988 C518 988 416 828 416 828 C416 828 433 811 433 811 L433 811 Z M334 750 C334 750 229 750 229 750 C229 750 50 750 50 750 C50 750 -1 750 -1 750 C-1 750 -1 730 -1 730 C-1 730 36 730 36 730 C52 730 65 724 113 657 C113 657 349 311 349 311 C349 311 349 80 349 80 C349 24 324 20 274 20 C274 20 244 20 244 20 C244 20 244 0 244 0 C244 0 604 0 604 0 C604 0 604 20 604 20 C604 20 574 20 574 20 C524 20 499 24 499 80 C499 80 499 316 499 316 C499 316 673 633 673 633 C725 723 747 730 780 730 C780 730 811 730 811 730 C811 730 811 750 811 750 C811 750 737 750 737 750 C737 750 662 750 662 750 C662 750 557 750 557 750 C557 750 557 730 557 730 C557 730 582 730 582 730 C623 730 645 725 628 677 C628 677 604 626 604 626 C603 624 602 622 601 620 C601 620 601 620 601 620 C601 620 483 365 483 365 C483 365 299 644 299 644 C249 724 268 730 309 730 C309 730 334 730 334 730 C334 730 334 750 334 750 L334 750 Z " />
<glyph glyph-name="agrave" unicode="&#xe0;" horiz-adv-x="514" d="M525 137 C525 137 505 146 505 146 C498 110 480 91 450 91 C417 91 400 105 400 131 C400 131 400 351 400 351 C400 472 351 510 254 510 C120 510 52 420 52 360 C52 307 80 280 137 280 C178 280 199 311 199 337 C199 362 179 374 179 406 C179 426 193 455 222 455 C251 455 265 442 265 400 C265 400 265 279 265 279 C56 216 32 206 32 98 C32 26 69 -10 143 -10 C185 -10 221 8 272 76 C287 22 329 -5 395 -5 C465 -5 508 43 525 137 C525 137 525 137 525 137 L525 137 Z M170 738 C145 780 129 801 120 801 C79 801 52 774 52 733 C52 723 71 705 108 677 C108 677 255 561 255 561 C255 561 271 578 271 578 C271 578 170 738 170 738 L170 738 Z M265 247 C265 247 265 131 265 131 C265 122 265 113 266 104 C242 71 228 62 215 62 C184 62 168 79 168 112 C168 214 178 221 265 247 L265 247 Z " />
<glyph glyph-name="aacute" unicode="&#xe1;" horiz-adv-x="514" d="M263 561 C263 561 409 677 409 677 C446 707 465 724 465 733 C465 774 438 801 398 801 C390 801 374 780 347 738 C347 738 246 578 246 578 C246 578 263 561 263 561 L263 561 Z M525 137 C525 137 505 146 505 146 C498 110 480 91 450 91 C417 91 400 105 400 131 C400 131 400 351 400 351 C400 472 351 510 254 510 C120 510 52 420 52 360 C52 307 80 280 137 280 C178 280 199 311 199 337 C199 362 179 374 179 406 C179 426 193 455 222 455 C251 455 265 442 265 400 C265 400 265 279 265 279 C56 216 32 206 32 98 C32 26 69 -10 143 -10 C185 -10 221 8 272 76 C287 22 329 -5 395 -5 C465 -5 508 43 525 137 C525 137 525 137 525 137 L525 137 Z M265 247 C265 247 265 131 265 131 C265 122 265 113 266 104 C242 71 228 62 215 62 C184 62 168 79 168 112 C168 214 178 221 265 247 L265 247 Z " />
<glyph glyph-name="acircumflex" unicode="&#xe2;" horiz-adv-x="514" d="M525 137 C525 137 505 146 505 146 C498 110 480 91 450 91 C417 91 400 105 400 131 C400 131 400 351 400 351 C400 472 351 510 254 510 C120 510 52 420 52 360 C52 307 80 280 137 280 C178 280 199 311 199 337 C199 362 179 374 179 406 C179 426 193 455 222 455 C251 455 265 442 265 400 C265 400 265 279 265 279 C56 216 32 206 32 98 C32 26 69 -10 143 -10 C185 -10 221 8 272 76 C287 22 329 -5 395 -5 C465 -5 508 43 525 137 C525 137 525 137 525 137 L525 137 Z M254 657 C254 657 391 554 391 554 C391 554 410 569 410 569 C410 569 302 740 302 740 C291 756 271 788 254 788 C236 788 216 756 206 741 C206 741 98 569 98 569 C98 569 116 554 116 554 C116 554 254 657 254 657 L254 657 Z M265 247 C265 247 265 131 265 131 C265 122 265 113 266 104 C242 71 228 62 215 62 C184 62 168 79 168 112 C168 214 178 221 265 247 L265 247 Z " />
<glyph glyph-name="atilde" unicode="&#xe3;" horiz-adv-x="514" d="M116 620 C116 654 128 671 152 671 C215 671 254 606 317 606 C383 606 416 658 416 761 C416 761 392 761 392 761 C392 721 377 701 348 701 C285 701 246 766 183 766 C123 766 92 717 92 620 C92 620 116 620 116 620 L116 620 Z M525 137 C525 137 505 146 505 146 C498 110 480 91 450 91 C417 91 400 105 400 131 C400 131 400 351 400 351 C400 472 351 510 254 510 C120 510 52 420 52 360 C52 307 80 280 137 280 C178 280 199 311 199 337 C199 362 179 374 179 406 C179 426 193 455 222 455 C251 455 265 442 265 400 C265 400 265 279 265 279 C56 216 32 206 32 98 C32 26 69 -10 143 -10 C185 -10 221 8 272 76 C287 22 329 -5 395 -5 C465 -5 508 43 525 137 C525 137 525 137 525 137 L525 137 Z M265 247 C265 247 265 131 265 131 C265 122 265 113 266 104 C242 71 228 62 215 62 C184 62 168 79 168 112 C168 214 178 221 265 247 L265 247 Z " />
<glyph glyph-name="adieresis" unicode="&#xe4;" horiz-adv-x="514" d="M338 615 C391 615 418 642 418 695 C418 748 391 775 338 775 C285 775 258 748 258 695 C258 642 285 615 338 615 L338 615 Z M170 615 C223 615 250 642 250 695 C250 748 223 775 170 775 C117 775 90 748 90 695 C90 642 117 615 170 615 L170 615 Z M525 137 C525 137 505 146 505 146 C498 110 480 91 450 91 C417 91 400 105 400 131 C400 131 400 351 400 351 C400 472 351 510 254 510 C120 510 52 420 52 360 C52 307 80 280 137 280 C178 280 199 311 199 337 C199 362 179 374 179 406 C179 426 193 455 222 455 C251 455 265 442 265 400 C265 400 265 279 265 279 C56 216 32 206 32 98 C32 26 69 -10 143 -10 C185 -10 221 8 272 76 C287 22 329 -5 395 -5 C465 -5 508 43 525 137 C525 137 525 137 525 137 L525 137 Z M265 247 C265 247 265 131 265 131 C265 122 265 113 266 104 C242 71 228 62 215 62 C184 62 168 79 168 112 C168 214 178 221 265 247 L265 247 Z " />
<glyph glyph-name="aring" unicode="&#xe5;" horiz-adv-x="514" d="M254 592 C218 592 194 617 194 655 C194 697 214 718 254 718 C293 718 313 697 313 655 C313 617 289 592 254 592 L254 592 Z M155 655 C155 598 195 560 254 560 C313 560 353 598 353 655 C353 718 320 750 254 750 C188 750 155 718 155 655 L155 655 Z M525 137 C525 137 505 146 505 146 C498 110 480 91 450 91 C417 91 400 105 400 131 C400 131 400 351 400 351 C400 472 351 510 254 510 C120 510 52 420 52 360 C52 307 80 280 137 280 C178 280 199 311 199 337 C199 362 179 374 179 406 C179 426 193 455 222 455 C251 455 265 442 265 400 C265 400 265 279 265 279 C56 216 32 206 32 98 C32 26 69 -10 143 -10 C185 -10 221 8 272 76 C287 22 329 -5 395 -5 C465 -5 508 43 525 137 C525 137 525 137 525 137 L525 137 Z M265 247 C265 247 265 131 265 131 C265 122 265 113 266 104 C242 71 228 62 215 62 C184 62 168 79 168 112 C168 214 178 221 265 247 L265 247 Z " />
<glyph glyph-name="egrave" unicode="&#xe8;" horiz-adv-x="535" d="M207 738 C182 780 166 801 157 801 C116 801 89 774 89 733 C89 723 108 705 145 677 C145 677 292 561 292 561 C292 561 308 578 308 578 C308 578 207 738 207 738 L207 738 Z M173 340 C173 340 356 340 356 340 C356 340 506 340 506 340 C482 476 414 510 291 510 C116 510 27 415 27 226 C27 69 107 -10 267 -10 C382 -10 458 37 492 131 C492 131 476 136 476 136 C462 99 403 80 299 80 C213 80 170 147 170 281 C170 302 171 322 173 340 L173 340 Z M439 379 C448 380 458 380 468 380 C468 380 439 379 439 379 L439 379 Z M349 377 C349 377 178 372 178 372 C193 443 228 479 283 479 C312 479 332 457 349 377 C349 377 349 377 349 377 L349 377 Z " />
<glyph glyph-name="eacute" unicode="&#xe9;" horiz-adv-x="535" d="M300 561 C300 561 446 677 446 677 C483 707 502 724 502 733 C502 774 475 801 435 801 C427 801 411 780 384 738 C384 738 283 578 283 578 C283 578 300 561 300 561 L300 561 Z M173 340 C173 340 356 340 356 340 C356 340 506 340 506 340 C482 476 414 510 291 510 C116 510 27 415 27 226 C27 69 107 -10 267 -10 C382 -10 458 37 492 131 C492 131 476 136 476 136 C462 99 403 80 299 80 C213 80 170 147 170 281 C170 302 171 322 173 340 L173 340 Z M439 379 C448 380 458 380 468 380 C468 380 439 379 439 379 L439 379 Z M349 377 C349 377 178 372 178 372 C193 443 228 479 283 479 C312 479 332 457 349 377 C349 377 349 377 349 377 L349 377 Z " />
<glyph glyph-name="ecircumflex" unicode="&#xea;" horiz-adv-x="535" d="M291 657 C291 657 428 554 428 554 C428 554 447 569 447 569 C447 569 339 740 339 740 C328 756 308 788 291 788 C274 788 254 756 243 741 C243 741 135 569 135 569 C135 569 153 554 153 554 C153 554 291 657 291 657 L291 657 Z M173 340 C173 340 356 340 356 340 C356 340 506 340 506 340 C482 476 414 510 291 510 C116 510 27 415 27 226 C27 69 107 -10 267 -10 C382 -10 458 37 492 131 C492 131 476 136 476 136 C462 99 403 80 299 80 C213 80 170 147 170 281 C170 302 171 322 173 340 L173 340 Z M439 379 C448 380 458 380 468 380 C468 380 439 379 439 379 L439 379 Z M349 377 C349 377 178 372 178 372 C193 443 228 479 283 479 C312 479 332 457 349 377 C349 377 349 377 349 377 L349 377 Z " />
<glyph glyph-name="edieresis" unicode="&#xeb;" horiz-adv-x="535" d="M375 615 C428 615 455 642 455 695 C455 748 428 775 375 775 C322 775 295 748 295 695 C295 642 322 615 375 615 L375 615 Z M207 615 C260 615 287 642 287 695 C287 748 260 775 207 775 C154 775 127 748 127 695 C127 642 154 615 207 615 L207 615 Z M173 340 C173 340 356 340 356 340 C356 340 506 340 506 340 C482 476 414 510 291 510 C116 510 27 415 27 226 C27 69 107 -10 267 -10 C382 -10 458 37 492 131 C492 131 476 136 476 136 C462 99 403 80 299 80 C213 80 170 147 170 281 C170 302 171 322 173 340 L173 340 Z M439 379 C448 380 458 380 468 380 C468 380 439 379 439 379 L439 379 Z M349 377 C349 377 178 372 178 372 C193 443 228 479 283 479 C312 479 332 457 349 377 C349 377 349 377 349 377 L349 377 Z " />
<glyph glyph-name="igrave" unicode="&#xec;" horiz-adv-x="347" d="M22 0 C22 0 320 0 320 0 C320 0 320 20 320 20 C320 20 290 20 290 20 C255 20 237 21 237 35 C237 35 237 390 237 390 C237 390 237 500 237 500 C237 500 213 500 213 500 C213 500 21 445 21 445 C21 445 21 435 21 435 C96 439 102 437 102 390 C102 390 102 35 102 35 C102 21 85 20 52 20 C52 20 22 20 22 20 C22 20 22 0 22 0 L22 0 Z M86 738 C61 780 45 801 36 801 C-5 801 -32 774 -32 733 C-32 723 -13 705 24 677 C24 677 171 561 171 561 C171 561 187 578 187 578 C187 578 86 738 86 738 L86 738 Z " />
<glyph glyph-name="iacute" unicode="&#xed;" horiz-adv-x="347" d="M22 0 C22 0 320 0 320 0 C320 0 320 20 320 20 C320 20 290 20 290 20 C255 20 237 21 237 35 C237 35 237 390 237 390 C237 390 237 500 237 500 C237 500 213 500 213 500 C213 500 21 445 21 445 C21 445 21 435 21 435 C96 439 102 437 102 390 C102 390 102 35 102 35 C102 21 85 20 52 20 C52 20 22 20 22 20 C22 20 22 0 22 0 L22 0 Z M86 738 C61 780 45 801 36 801 C-5 801 -32 774 -32 733 C-32 723 -13 705 24 677 C24 677 171 561 171 561 C171 561 187 578 187 578 C187 578 86 738 86 738 L86 738 Z " />
<glyph glyph-name="icircumflex" unicode="&#xee;" horiz-adv-x="347" d="M22 0 C22 0 320 0 320 0 C320 0 320 20 320 20 C320 20 290 20 290 20 C255 20 237 21 237 35 C237 35 237 390 237 390 C237 390 237 500 237 500 C237 500 213 500 213 500 C213 500 21 445 21 445 C21 445 21 435 21 435 C96 439 102 437 102 390 C102 390 102 35 102 35 C102 21 85 20 52 20 C52 20 22 20 22 20 C22 20 22 0 22 0 L22 0 Z M170 657 C170 657 307 554 307 554 C307 554 326 569 326 569 C326 569 218 740 218 740 C207 756 187 788 170 788 C153 788 133 756 122 741 C122 741 14 569 14 569 C14 569 32 554 32 554 C32 554 170 657 170 657 L170 657 Z " />
<glyph glyph-name="idieresis" unicode="&#xef;" horiz-adv-x="347" d="M254 615 C307 615 334 642 334 695 C334 748 307 775 254 775 C201 775 174 748 174 695 C174 642 201 615 254 615 L254 615 Z M86 615 C139 615 166 642 166 695 C166 748 139 775 86 775 C33 775 6 748 6 695 C6 642 33 615 86 615 L86 615 Z M22 0 C22 0 320 0 320 0 C320 0 320 20 320 20 C320 20 290 20 290 20 C255 20 237 21 237 35 C237 35 237 390 237 390 C237 390 237 500 237 500 C237 500 213 500 213 500 C213 500 21 445 21 445 C21 445 21 435 21 435 C96 439 102 437 102 390 C102 390 102 35 102 35 C102 21 85 20 52 20 C52 20 22 20 22 20 C22 20 22 0 22 0 L22 0 Z " />
<glyph glyph-name="ntilde" unicode="&#xf1;" horiz-adv-x="659" d="M185 620 C185 654 197 671 221 671 C284 671 322 606 386 606 C451 606 484 658 484 761 C484 761 461 761 461 761 C461 721 446 701 417 701 C353 701 315 766 252 766 C191 766 161 717 161 620 C161 620 185 620 185 620 L185 620 Z M11 409 C11 409 41 420 41 420 C78 433 96 434 96 360 C96 360 96 35 96 35 C96 21 79 20 46 20 C46 20 16 20 16 20 C16 20 16 0 16 0 C16 0 311 0 311 0 C311 0 311 20 311 20 C311 20 281 20 281 20 C248 20 231 21 231 35 C231 35 231 358 231 358 C252 393 283 411 326 411 C390 411 414 367 414 280 C414 280 414 35 414 35 C414 21 397 20 364 20 C364 20 334 20 334 20 C334 20 334 0 334 0 C334 0 629 0 629 0 C629 0 629 20 629 20 C629 20 599 20 599 20 C566 20 549 21 549 35 C549 35 549 280 549 280 C549 433 511 510 406 510 C333 510 274 472 231 398 C231 398 231 400 231 400 C231 400 231 500 231 500 C231 500 207 500 207 500 C207 500 11 429 11 429 C11 429 11 409 11 409 L11 409 Z " />
<glyph glyph-name="ograve" unicode="&#xf2;" horiz-adv-x="609" d="M295 31 C216 31 176 105 176 250 C176 395 216 469 295 469 C375 469 415 395 415 250 C415 105 375 31 295 31 L295 31 Z M27 250 C27 77 117 -10 295 -10 C474 -10 564 77 564 250 C564 423 474 510 295 510 C117 510 27 423 27 250 L27 250 Z M212 738 C186 780 171 801 161 801 C121 801 94 774 94 733 C94 723 113 705 150 677 C150 677 296 561 296 561 C296 561 313 578 313 578 C313 578 212 738 212 738 L212 738 Z " />
<glyph glyph-name="oacute" unicode="&#xf3;" horiz-adv-x="609" d="M305 561 C305 561 451 677 451 677 C488 707 507 724 507 733 C507 774 480 801 440 801 C431 801 416 780 389 738 C389 738 288 578 288 578 C288 578 305 561 305 561 L305 561 Z M295 31 C216 31 176 105 176 250 C176 395 216 469 295 469 C375 469 415 395 415 250 C415 105 375 31 295 31 L295 31 Z M27 250 C27 77 117 -10 295 -10 C474 -10 564 77 564 250 C564 423 474 510 295 510 C117 510 27 423 27 250 L27 250 Z " />
<glyph glyph-name="ocircumflex" unicode="&#xf4;" horiz-adv-x="609" d="M295 31 C216 31 176 105 176 250 C176 395 216 469 295 469 C375 469 415 395 415 250 C415 105 375 31 295 31 L295 31 Z M27 250 C27 77 117 -10 295 -10 C474 -10 564 77 564 250 C564 423 474 510 295 510 C117 510 27 423 27 250 L27 250 Z M296 657 C296 657 433 554 433 554 C433 554 451 569 451 569 C451 569 343 740 343 740 C333 756 312 788 295 788 C278 788 258 756 248 741 C248 741 139 569 139 569 C139 569 158 554 158 554 C158 554 296 657 296 657 L296 657 Z " />
<glyph glyph-name="otilde" unicode="&#xf5;" horiz-adv-x="609" d="M157 620 C157 654 169 671 194 671 C257 671 295 606 358 606 C424 606 457 658 457 761 C457 761 433 761 433 761 C433 721 418 701 389 701 C326 701 288 766 225 766 C164 766 133 717 133 620 C133 620 157 620 157 620 L157 620 Z M295 31 C216 31 176 105 176 250 C176 395 216 469 295 469 C375 469 415 395 415 250 C415 105 375 31 295 31 L295 31 Z M27 250 C27 77 117 -10 295 -10 C474 -10 564 77 564 250 C564 423 474 510 295 510 C117 510 27 423 27 250 L27 250 Z " />
<glyph glyph-name="odieresis" unicode="&#xf6;" horiz-adv-x="609" d="M379 615 C432 615 459 642 459 695 C459 748 432 775 379 775 C326 775 299 748 299 695 C299 642 326 615 379 615 L379 615 Z M212 615 C265 615 292 642 292 695 C292 748 265 775 212 775 C159 775 132 748 132 695 C132 642 159 615 212 615 L212 615 Z M295 31 C216 31 176 105 176 250 C176 395 216 469 295 469 C375 469 415 395 415 250 C415 105 375 31 295 31 L295 31 Z M27 250 C27 77 117 -10 295 -10 C474 -10 564 77 564 250 C564 423 474 510 295 510 C117 510 27 423 27 250 L27 250 Z " />
<glyph glyph-name="oslash" unicode="&#xf8;" horiz-adv-x="609" d="M43 -27 C43 -27 112 40 112 40 C156 7 217 -10 295 -10 C474 -10 564 77 564 250 C564 325 547 384 513 427 C513 427 581 493 581 493 C581 493 547 527 547 527 C547 527 478 460 478 460 C434 493 373 510 295 510 C117 510 27 423 27 250 C27 175 44 116 78 73 C78 73 10 7 10 7 C10 7 43 -27 43 -27 L43 -27 Z M295 31 C245 31 211 60 193 118 C193 118 410 328 410 328 C413 305 415 279 415 250 C415 105 375 31 295 31 C295 31 295 31 295 31 L295 31 Z M181 172 C178 195 176 221 176 250 C176 395 216 469 295 469 C345 469 379 440 398 383 C398 383 181 172 181 172 L181 172 Z " />
<glyph glyph-name="ugrave" unicode="&#xf9;" horiz-adv-x="638" d="M618 59 C618 59 588 51 588 51 C551 42 533 43 533 118 C533 118 533 465 533 465 C533 465 533 500 533 500 C533 500 332 500 332 500 C332 500 332 480 332 480 C332 480 362 480 362 480 C386 480 398 479 398 465 C398 465 398 155 398 155 C376 108 341 84 293 84 C241 84 215 110 215 160 C215 160 215 465 215 465 C215 465 215 500 215 500 C215 500 14 500 14 500 C14 500 14 480 14 480 C14 480 44 480 44 480 C68 480 80 479 80 465 C80 465 80 160 80 160 C80 47 130 -10 230 -10 C307 -10 363 32 398 115 C398 115 398 90 398 90 C398 90 398 -10 398 -10 C398 -10 422 -10 422 -10 C422 -10 618 39 618 39 C618 39 618 59 618 59 L618 59 Z M223 738 C197 780 182 801 172 801 C132 801 105 774 105 733 C105 723 124 705 161 677 C161 677 307 561 307 561 C307 561 324 578 324 578 C324 578 223 738 223 738 L223 738 Z " />
<glyph glyph-name="uacute" unicode="&#xfa;" horiz-adv-x="638" d="M316 561 C316 561 462 677 462 677 C499 707 518 724 518 733 C518 774 491 801 451 801 C442 801 427 780 400 738 C400 738 299 578 299 578 C299 578 316 561 316 561 L316 561 Z M618 59 C618 59 588 51 588 51 C551 42 533 43 533 118 C533 118 533 465 533 465 C533 465 533 500 533 500 C533 500 332 500 332 500 C332 500 332 480 332 480 C332 480 362 480 362 480 C386 480 398 479 398 465 C398 465 398 155 398 155 C376 108 341 84 293 84 C241 84 215 110 215 160 C215 160 215 465 215 465 C215 465 215 500 215 500 C215 500 14 500 14 500 C14 500 14 480 14 480 C14 480 44 480 44 480 C68 480 80 479 80 465 C80 465 80 160 80 160 C80 47 130 -10 230 -10 C307 -10 363 32 398 115 C398 115 398 90 398 90 C398 90 398 -10 398 -10 C398 -10 422 -10 422 -10 C422 -10 618 39 618 39 C618 39 618 59 618 59 L618 59 Z " />
<glyph glyph-name="ucircumflex" unicode="&#xfb;" horiz-adv-x="638" d="M618 59 C618 59 588 51 588 51 C551 42 533 43 533 118 C533 118 533 465 533 465 C533 465 533 500 533 500 C533 500 332 500 332 500 C332 500 332 480 332 480 C332 480 362 480 362 480 C386 480 398 479 398 465 C398 465 398 155 398 155 C376 108 341 84 293 84 C241 84 215 110 215 160 C215 160 215 465 215 465 C215 465 215 500 215 500 C215 500 14 500 14 500 C14 500 14 480 14 480 C14 480 44 480 44 480 C68 480 80 479 80 465 C80 465 80 160 80 160 C80 47 130 -10 230 -10 C307 -10 363 32 398 115 C398 115 398 90 398 90 C398 90 398 -10 398 -10 C398 -10 422 -10 422 -10 C422 -10 618 39 618 39 C618 39 618 59 618 59 L618 59 Z M307 657 C307 657 444 554 444 554 C444 554 463 569 463 569 C463 569 354 740 354 740 C344 756 324 788 307 788 C289 788 269 756 259 741 C259 741 151 569 151 569 C151 569 169 554 169 554 C169 554 307 657 307 657 L307 657 Z " />
<glyph glyph-name="udieresis" unicode="&#xfc;" horiz-adv-x="638" d="M390 615 C443 615 470 642 470 695 C470 748 443 775 390 775 C337 775 310 748 310 695 C310 642 337 615 390 615 L390 615 Z M223 615 C276 615 303 642 303 695 C303 748 276 775 223 775 C170 775 143 748 143 695 C143 642 170 615 223 615 L223 615 Z M618 59 C618 59 588 51 588 51 C551 42 533 43 533 118 C533 118 533 465 533 465 C533 465 533 500 533 500 C533 500 332 500 332 500 C332 500 332 480 332 480 C332 480 362 480 362 480 C386 480 398 479 398 465 C398 465 398 155 398 155 C376 108 341 84 293 84 C241 84 215 110 215 160 C215 160 215 465 215 465 C215 465 215 500 215 500 C215 500 14 500 14 500 C14 500 14 480 14 480 C14 480 44 480 44 480 C68 480 80 479 80 465 C80 465 80 160 80 160 C80 47 130 -10 230 -10 C307 -10 363 32 398 115 C398 115 398 90 398 90 C398 90 398 -10 398 -10 C398 -10 422 -10 422 -10 C422 -10 618 39 618 39 C618 39 618 59 618 59 L618 59 Z " />
<glyph glyph-name="ydieresis" unicode="&#xff;" horiz-adv-x="633" d="M425 615 C478 615 505 642 505 695 C505 748 478 775 425 775 C372 775 345 748 345 695 C345 642 372 615 425 615 L425 615 Z M257 615 C310 615 337 642 337 695 C337 748 310 775 257 775 C204 775 177 748 177 695 C177 642 204 615 257 615 L257 615 Z M620 500 C620 500 543 500 543 500 C543 500 481 500 481 500 C481 500 386 500 386 500 C386 500 386 480 386 480 C386 480 413 480 413 480 C454 480 473 478 463 450 C463 450 463 450 463 450 C463 450 363 169 363 169 C363 169 224 453 224 453 C212 478 223 480 247 480 C247 480 276 480 276 480 C276 480 276 500 276 500 C276 500 201 500 201 500 C201 500 53 500 53 500 C53 500 -7 500 -7 500 C-7 500 -7 480 -7 480 C-7 480 28 480 28 480 C51 480 64 478 75 453 C75 453 76 453 76 453 C76 453 299 -10 299 -10 C299 -10 252 -140 252 -140 C246 -157 236 -165 222 -165 C187 -165 181 -117 145 -117 C94 -117 68 -140 68 -184 C68 -240 95 -268 148 -268 C212 -268 255 -237 277 -177 C277 -177 338 -10 338 -10 C338 -10 517 434 517 434 C517 434 517 434 517 434 C532 477 552 480 589 480 C589 480 620 480 620 480 C620 480 620 500 620 500 L620 500 Z " />
<glyph glyph-name="Amacron" unicode="&#x100;" horiz-adv-x="846" d="M287 887 C287 887 587 887 587 887 C587 887 587 980 587 980 C587 980 287 980 287 980 C287 980 287 887 287 887 L287 887 Z M458 0 C458 0 593 0 593 0 C593 0 752 0 752 0 C752 0 840 0 840 0 C840 0 840 20 840 20 C840 20 810 20 810 20 C770 20 746 27 715 110 C715 110 513 702 513 702 C513 702 490 770 490 770 C490 770 475 770 475 770 C448 732 410 709 362 702 C362 702 365 692 365 692 C365 692 365 692 365 692 C365 692 192 170 192 170 C192 170 192 170 192 170 C148 30 109 20 37 20 C37 20 7 20 7 20 C7 20 7 0 7 0 C7 0 136 0 136 0 C136 0 181 0 181 0 C181 0 346 0 346 0 C346 0 346 20 346 20 C346 20 322 20 322 20 C232 20 189 30 234 170 C234 170 234 170 234 170 C234 170 264 269 264 269 C264 269 504 269 504 269 C504 269 550 131 550 131 C582 28 550 20 483 20 C483 20 458 20 458 20 C458 20 458 0 458 0 L458 0 Z M276 308 C276 308 381 645 381 645 C381 645 492 308 492 308 C492 308 276 308 276 308 L276 308 Z " />
<glyph glyph-name="amacron" unicode="&#x101;" horiz-adv-x="514" d="M104 637 C104 637 404 637 404 637 C404 637 404 730 404 730 C404 730 104 730 104 730 C104 730 104 637 104 637 L104 637 Z M525 137 C525 137 505 146 505 146 C498 110 480 91 450 91 C417 91 400 105 400 131 C400 131 400 351 400 351 C400 472 351 510 254 510 C120 510 52 420 52 360 C52 307 80 280 137 280 C178 280 199 311 199 337 C199 362 179 374 179 406 C179 426 193 455 222 455 C251 455 265 442 265 400 C265 400 265 279 265 279 C56 216 32 206 32 98 C32 26 69 -10 143 -10 C185 -10 221 8 272 76 C287 22 329 -5 395 -5 C465 -5 508 43 525 137 C525 137 525 137 525 137 L525 137 Z M265 247 C265 247 265 131 265 131 C265 122 265 113 266 104 C242 71 228 62 215 62 C184 62 168 79 168 112 C168 214 178 221 265 247 L265 247 Z " />
<glyph glyph-name="Abreve" unicode="&#x102;" horiz-adv-x="846" d="M288 994 C302 894 352 844 437 844 C523 844 573 893 586 991 C586 991 558 995 558 995 C553 958 512 939 437 939 C363 939 322 959 317 998 C317 998 288 994 288 994 L288 994 Z M458 0 C458 0 593 0 593 0 C593 0 752 0 752 0 C752 0 840 0 840 0 C840 0 840 20 840 20 C840 20 810 20 810 20 C770 20 746 27 715 110 C715 110 513 702 513 702 C513 702 490 770 490 770 C490 770 475 770 475 770 C448 732 410 709 362 702 C362 702 365 692 365 692 C365 692 365 692 365 692 C365 692 192 170 192 170 C192 170 192 170 192 170 C148 30 109 20 37 20 C37 20 7 20 7 20 C7 20 7 0 7 0 C7 0 136 0 136 0 C136 0 181 0 181 0 C181 0 346 0 346 0 C346 0 346 20 346 20 C346 20 322 20 322 20 C232 20 189 30 234 170 C234 170 234 170 234 170 C234 170 264 269 264 269 C264 269 504 269 504 269 C504 269 550 131 550 131 C582 28 550 20 483 20 C483 20 458 20 458 20 C458 20 458 0 458 0 L458 0 Z M276 308 C276 308 381 645 381 645 C381 645 492 308 492 308 C492 308 276 308 276 308 L276 308 Z " />
<glyph glyph-name="abreve" unicode="&#x103;" horiz-adv-x="514" d="M105 744 C119 644 169 594 254 594 C339 594 389 643 403 741 C403 741 374 745 374 745 C369 708 328 689 254 689 C179 689 138 709 133 748 C133 748 105 744 105 744 L105 744 Z M525 137 C525 137 505 146 505 146 C498 110 480 91 450 91 C417 91 400 105 400 131 C400 131 400 351 400 351 C400 472 351 510 254 510 C120 510 52 420 52 360 C52 307 80 280 137 280 C178 280 199 311 199 337 C199 362 179 374 179 406 C179 426 193 455 222 455 C251 455 265 442 265 400 C265 400 265 279 265 279 C56 216 32 206 32 98 C32 26 69 -10 143 -10 C185 -10 221 8 272 76 C287 22 329 -5 395 -5 C465 -5 508 43 525 137 C525 137 525 137 525 137 L525 137 Z M265 247 C265 247 265 131 265 131 C265 122 265 113 266 104 C242 71 228 62 215 62 C184 62 168 79 168 112 C168 214 178 221 265 247 L265 247 Z " />
<glyph glyph-name="Cacute" unicode="&#x106;" horiz-adv-x="781" d="M458 811 C458 811 605 927 605 927 C642 957 661 974 661 983 C661 1024 634 1051 593 1051 C585 1051 570 1030 543 988 C543 988 442 828 442 828 C442 828 458 811 458 811 L458 811 Z M743 511 C743 511 743 635 743 635 C743 635 743 750 743 750 C743 750 728 750 728 750 C728 750 726 740 723 721 C720 703 696 697 653 720 C610 747 552 760 449 760 C175 760 36 631 36 375 C36 119 171 -10 439 -10 C535 -10 597 3 645 29 C645 29 645 29 645 29 C690 54 717 46 723 26 C728 6 731 -4 731 -4 C731 -4 743 -4 743 -4 C743 -4 743 115 743 115 C743 115 743 239 743 239 C743 239 728 239 728 239 C728 239 726 232 723 218 C717 193 704 166 685 140 C656 106 629 80 598 61 C589 56 579 50 569 46 C569 46 569 46 569 46 C537 32 500 25 453 25 C286 25 201 142 201 375 C201 606 289 722 464 722 C585 722 626 681 695 598 C708 576 718 553 723 532 C726 518 728 511 728 511 C728 511 743 511 743 511 L743 511 Z " />
<glyph glyph-name="Ccircumflex" unicode="&#x108;" horiz-adv-x="781" d="M743 511 C743 511 743 635 743 635 C743 635 743 750 743 750 C743 750 728 750 728 750 C728 750 726 740 723 721 C720 703 696 697 653 720 C610 747 552 760 449 760 C175 760 36 631 36 375 C36 119 171 -10 439 -10 C535 -10 597 3 645 29 C645 29 645 29 645 29 C690 54 717 46 723 26 C728 6 731 -4 731 -4 C731 -4 743 -4 743 -4 C743 -4 743 115 743 115 C743 115 743 239 743 239 C743 239 728 239 728 239 C728 239 726 232 723 218 C717 193 704 166 685 140 C656 106 629 80 598 61 C589 56 579 50 569 46 C569 46 569 46 569 46 C537 32 500 25 453 25 C286 25 201 142 201 375 C201 606 289 722 464 722 C585 722 626 681 695 598 C708 576 718 553 723 532 C726 518 728 511 728 511 C728 511 743 511 743 511 L743 511 Z M449 907 C449 907 587 804 587 804 C587 804 605 819 605 819 C605 819 497 990 497 990 C487 1006 466 1038 449 1038 C432 1038 412 1006 402 991 C402 991 293 819 293 819 C293 819 311 804 311 804 C311 804 449 907 449 907 L449 907 Z " />
<glyph glyph-name="Cdotaccent" unicode="&#x10a;" horiz-adv-x="781" d="M449 865 C502 865 529 892 529 945 C529 998 502 1025 449 1025 C396 1025 369 998 369 945 C369 892 396 865 449 865 L449 865 Z M743 511 C743 511 743 635 743 635 C743 635 743 750 743 750 C743 750 728 750 728 750 C728 750 726 740 723 721 C720 703 696 697 653 720 C610 747 552 760 449 760 C175 760 36 631 36 375 C36 119 171 -10 439 -10 C535 -10 597 3 645 29 C645 29 645 29 645 29 C690 54 717 46 723 26 C728 6 731 -4 731 -4 C731 -4 743 -4 743 -4 C743 -4 743 115 743 115 C743 115 743 239 743 239 C743 239 728 239 728 239 C728 239 726 232 723 218 C717 193 704 166 685 140 C656 106 629 80 598 61 C589 56 579 50 569 46 C569 46 569 46 569 46 C537 32 500 25 453 25 C286 25 201 142 201 375 C201 606 289 722 464 722 C585 722 626 681 695 598 C708 576 718 553 723 532 C726 518 728 511 728 511 C728 511 743 511 743 511 L743 511 Z " />
<glyph glyph-name="cdotaccent" unicode="&#x10b;" horiz-adv-x="543" d="M334 615 C387 615 414 642 414 695 C414 748 387 775 334 775 C281 775 254 748 254 695 C254 642 281 615 334 615 L334 615 Z M513 128 C513 128 494 136 494 136 C476 94 432 73 365 73 C238 73 173 142 173 279 C173 412 224 479 326 479 C348 479 368 454 386 405 C403 360 425 338 454 338 C515 338 538 360 521 405 C496 475 433 510 334 510 C131 510 28 417 28 234 C28 72 125 -10 318 -10 C407 -10 473 36 513 128 L513 128 Z " />
<glyph glyph-name="Ccaron" unicode="&#x10c;" horiz-adv-x="781" d="M743 511 C743 511 743 635 743 635 C743 635 743 750 743 750 C743 750 728 750 728 750 C728 750 726 740 723 721 C720 703 696 697 653 720 C610 747 552 760 449 760 C175 760 36 631 36 375 C36 119 171 -10 439 -10 C535 -10 597 3 645 29 C645 29 645 29 645 29 C690 54 717 46 723 26 C728 6 731 -4 731 -4 C731 -4 743 -4 743 -4 C743 -4 743 115 743 115 C743 115 743 239 743 239 C743 239 728 239 728 239 C728 239 726 232 723 218 C717 193 704 166 685 140 C656 106 629 80 598 61 C589 56 579 50 569 46 C569 46 569 46 569 46 C537 32 500 25 453 25 C286 25 201 142 201 375 C201 606 289 722 464 722 C585 722 626 681 695 598 C708 576 718 553 723 532 C726 518 728 511 728 511 C728 511 743 511 743 511 L743 511 Z M449 943 C449 943 587 1046 587 1046 C587 1046 605 1031 605 1031 C605 1031 497 860 497 860 C487 844 466 812 449 812 C432 812 412 844 402 859 C402 859 293 1031 293 1031 C293 1031 311 1046 311 1046 C311 1046 449 943 449 943 L449 943 Z " />
<glyph glyph-name="ccaron" unicode="&#x10d;" horiz-adv-x="543" d="M513 128 C513 128 494 136 494 136 C476 94 432 73 365 73 C238 73 173 142 173 279 C173 412 224 479 326 479 C348 479 368 454 386 405 C403 360 425 338 454 338 C515 338 538 360 521 405 C496 475 433 510 334 510 C131 510 28 417 28 234 C28 72 125 -10 318 -10 C407 -10 473 36 513 128 L513 128 Z M334 693 C334 693 472 796 472 796 C472 796 490 781 490 781 C490 781 382 610 382 610 C371 594 351 562 334 562 C317 562 297 594 286 609 C286 609 178 781 178 781 C178 781 196 796 196 796 C196 796 334 693 334 693 L334 693 Z " />
<glyph glyph-name="Dcaron" unicode="&#x10e;" horiz-adv-x="904" d="M27 0 C27 0 132 0 132 0 C132 0 283 0 283 0 C283 0 363 0 363 0 C687 0 850 101 850 375 C850 624 730 750 403 750 C403 750 283 750 283 750 C283 750 132 750 132 750 C132 750 27 750 27 750 C27 750 27 730 27 730 C27 730 57 730 57 730 C107 730 132 725 132 665 C132 665 132 85 132 85 C132 25 107 20 57 20 C57 20 27 20 27 20 C27 20 27 0 27 0 L27 0 Z M408 943 C408 943 546 1046 546 1046 C546 1046 564 1031 564 1031 C564 1031 456 860 456 860 C446 844 425 812 408 812 C391 812 371 844 361 859 C361 859 252 1031 252 1031 C252 1031 270 1046 270 1046 C270 1046 408 943 408 943 L408 943 Z M283 720 C576 720 684 604 684 375 C684 123 561 30 318 30 C283 30 283 47 283 80 C283 80 283 85 283 85 C283 85 283 665 283 665 C283 665 283 720 283 720 L283 720 Z " />
<glyph glyph-name="dcaron" unicode="&#x10f;" horiz-adv-x="593" d="M598 59 C598 59 568 51 568 51 C532 42 513 45 513 138 C513 138 513 665 513 665 C513 665 513 750 513 750 C513 750 489 750 489 750 C489 750 293 694 293 694 C293 694 293 674 293 674 C293 674 323 682 323 682 C360 693 378 694 378 633 C378 633 378 492 378 492 C345 504 303 510 252 510 C93 510 34 422 34 248 C34 80 100 -5 230 -5 C295 -5 344 16 378 58 C378 58 378 -10 378 -10 C378 -10 402 -10 402 -10 C402 -10 598 39 598 39 C598 39 598 59 598 59 L598 59 Z M633 633 C653 671 663 706 663 737 C663 753 643 757 603 757 C572 757 565 698 563 647 C563 647 557 535 557 535 C557 535 581 530 581 530 C581 530 633 633 633 633 L633 633 Z M378 105 C350 69 320 51 286 51 C210 51 171 129 171 285 C171 408 197 471 268 471 C313 471 352 443 378 400 C378 400 378 110 378 110 C378 110 378 105 378 105 L378 105 Z " />
<glyph glyph-name="Emacron" unicode="&#x112;" horiz-adv-x="690" d="M213 887 C213 887 513 887 513 887 C513 887 513 980 513 980 C513 980 213 980 213 980 C213 980 213 887 213 887 L213 887 Z M604 593 C600 645 597 699 593 750 C593 750 473 750 473 750 C473 750 283 750 283 750 C283 750 132 750 132 750 C132 750 27 750 27 750 C27 750 27 730 27 730 C27 730 57 730 57 730 C107 730 132 725 132 665 C132 665 132 85 132 85 C132 25 107 20 57 20 C57 20 27 20 27 20 C27 20 27 0 27 0 C27 0 132 0 132 0 C132 0 283 0 283 0 C283 0 498 0 498 0 C498 0 618 0 618 0 C626 51 632 105 640 157 C640 157 620 157 620 157 C620 157 616 127 616 127 C607 64 596 32 503 32 C503 32 363 32 363 32 C283 32 283 48 283 80 C283 80 283 85 283 85 C283 85 283 385 283 385 C283 385 413 385 413 385 C506 385 513 348 513 275 C513 275 513 245 513 245 C513 245 533 245 533 245 C533 245 533 385 533 385 C533 385 533 421 533 421 C533 421 533 561 533 561 C533 561 513 561 513 561 C513 561 513 531 513 531 C513 458 506 421 413 421 C413 421 283 421 283 421 C283 421 283 665 283 665 C283 665 283 718 283 718 C283 718 475 718 475 718 C587 718 578 682 583 611 C583 611 584 593 584 593 C584 593 604 593 604 593 L604 593 Z " />
<glyph glyph-name="emacron" unicode="&#x113;" horiz-adv-x="535" d="M141 637 C141 637 441 637 441 637 C441 637 441 730 441 730 C441 730 141 730 141 730 C141 730 141 637 141 637 L141 637 Z M173 340 C173 340 356 340 356 340 C356 340 506 340 506 340 C482 476 414 510 291 510 C116 510 27 415 27 226 C27 69 107 -10 267 -10 C382 -10 458 37 492 131 C492 131 476 136 476 136 C462 99 403 80 299 80 C213 80 170 147 170 281 C170 302 171 322 173 340 L173 340 Z M439 379 C448 380 458 380 468 380 C468 380 439 379 439 379 L439 379 Z M349 377 C349 377 178 372 178 372 C193 443 228 479 283 479 C312 479 332 457 349 377 C349 377 349 377 349 377 L349 377 Z " />
<glyph glyph-name="Ebreve" unicode="&#x114;" horiz-adv-x="690" d="M214 994 C228 894 278 844 363 844 C448 844 498 893 512 991 C512 991 483 995 483 995 C478 958 437 939 363 939 C288 939 247 959 242 998 C242 998 214 994 214 994 L214 994 Z M604 593 C600 645 597 699 593 750 C593 750 473 750 473 750 C473 750 283 750 283 750 C283 750 132 750 132 750 C132 750 27 750 27 750 C27 750 27 730 27 730 C27 730 57 730 57 730 C107 730 132 725 132 665 C132 665 132 85 132 85 C132 25 107 20 57 20 C57 20 27 20 27 20 C27 20 27 0 27 0 C27 0 132 0 132 0 C132 0 283 0 283 0 C283 0 498 0 498 0 C498 0 618 0 618 0 C626 51 632 105 640 157 C640 157 620 157 620 157 C620 157 616 127 616 127 C607 64 596 32 503 32 C503 32 363 32 363 32 C283 32 283 48 283 80 C283 80 283 85 283 85 C283 85 283 385 283 385 C283 385 413 385 413 385 C506 385 513 348 513 275 C513 275 513 245 513 245 C513 245 533 245 533 245 C533 245 533 385 533 385 C533 385 533 421 533 421 C533 421 533 561 533 561 C533 561 513 561 513 561 C513 561 513 531 513 531 C513 458 506 421 413 421 C413 421 283 421 283 421 C283 421 283 665 283 665 C283 665 283 718 283 718 C283 718 475 718 475 718 C587 718 578 682 583 611 C583 611 584 593 584 593 C584 593 604 593 604 593 L604 593 Z " />
<glyph glyph-name="ebreve" unicode="&#x115;" horiz-adv-x="535" d="M142 744 C156 644 206 594 291 594 C376 594 426 643 440 741 C440 741 411 745 411 745 C406 708 365 689 291 689 C216 689 175 709 170 748 C170 748 142 744 142 744 L142 744 Z M173 340 C173 340 356 340 356 340 C356 340 506 340 506 340 C482 476 414 510 291 510 C116 510 27 415 27 226 C27 69 107 -10 267 -10 C382 -10 458 37 492 131 C492 131 476 136 476 136 C462 99 403 80 299 80 C213 80 170 147 170 281 C170 302 171 322 173 340 L173 340 Z M439 379 C448 380 458 380 468 380 C468 380 439 379 439 379 L439 379 Z M349 377 C349 377 178 372 178 372 C193 443 228 479 283 479 C312 479 332 457 349 377 C349 377 349 377 349 377 L349 377 Z " />
<glyph glyph-name="Edotaccent" unicode="&#x116;" horiz-adv-x="690" d="M363 865 C416 865 443 892 443 945 C443 998 416 1025 363 1025 C310 1025 283 998 283 945 C283 892 310 865 363 865 L363 865 Z M604 593 C600 645 597 699 593 750 C593 750 473 750 473 750 C473 750 283 750 283 750 C283 750 132 750 132 750 C132 750 27 750 27 750 C27 750 27 730 27 730 C27 730 57 730 57 730 C107 730 132 725 132 665 C132 665 132 85 132 85 C132 25 107 20 57 20 C57 20 27 20 27 20 C27 20 27 0 27 0 C27 0 132 0 132 0 C132 0 283 0 283 0 C283 0 498 0 498 0 C498 0 618 0 618 0 C626 51 632 105 640 157 C640 157 620 157 620 157 C620 157 616 127 616 127 C607 64 596 32 503 32 C503 32 363 32 363 32 C283 32 283 48 283 80 C283 80 283 85 283 85 C283 85 283 385 283 385 C283 385 413 385 413 385 C506 385 513 348 513 275 C513 275 513 245 513 245 C513 245 533 245 533 245 C533 245 533 385 533 385 C533 385 533 421 533 421 C533 421 533 561 533 561 C533 561 513 561 513 561 C513 561 513 531 513 531 C513 458 506 421 413 421 C413 421 283 421 283 421 C283 421 283 665 283 665 C283 665 283 718 283 718 C283 718 475 718 475 718 C587 718 578 682 583 611 C583 611 584 593 584 593 C584 593 604 593 604 593 L604 593 Z " />
<glyph glyph-name="edotaccent" unicode="&#x117;" horiz-adv-x="535" d="M291 615 C344 615 371 642 371 695 C371 748 344 775 291 775 C238 775 211 748 211 695 C211 642 238 615 291 615 L291 615 Z M173 340 C173 340 356 340 356 340 C356 340 506 340 506 340 C482 476 414 510 291 510 C116 510 27 415 27 226 C27 69 107 -10 267 -10 C382 -10 458 37 492 131 C492 131 476 136 476 136 C462 99 403 80 299 80 C213 80 170 147 170 281 C170 302 171 322 173 340 L173 340 Z M439 379 C448 380 458 380 468 380 C468 380 439 379 439 379 L439 379 Z M349 377 C349 377 178 372 178 372 C193 443 228 479 283 479 C312 479 332 457 349 377 C349 377 349 377 349 377 L349 377 Z " />
<glyph glyph-name="Ecaron" unicode="&#x11a;" horiz-adv-x="690" d="M604 593 C600 645 597 699 593 750 C593 750 473 750 473 750 C473 750 283 750 283 750 C283 750 132 750 132 750 C132 750 27 750 27 750 C27 750 27 730 27 730 C27 730 57 730 57 730 C107 730 132 725 132 665 C132 665 132 85 132 85 C132 25 107 20 57 20 C57 20 27 20 27 20 C27 20 27 0 27 0 C27 0 132 0 132 0 C132 0 283 0 283 0 C283 0 498 0 498 0 C498 0 618 0 618 0 C626 51 632 105 640 157 C640 157 620 157 620 157 C620 157 616 127 616 127 C607 64 596 32 503 32 C503 32 363 32 363 32 C283 32 283 48 283 80 C283 80 283 85 283 85 C283 85 283 385 283 385 C283 385 413 385 413 385 C506 385 513 348 513 275 C513 275 513 245 513 245 C513 245 533 245 533 245 C533 245 533 385 533 385 C533 385 533 421 533 421 C533 421 533 561 533 561 C533 561 513 561 513 561 C513 561 513 531 513 531 C513 458 506 421 413 421 C413 421 283 421 283 421 C283 421 283 665 283 665 C283 665 283 718 283 718 C283 718 475 718 475 718 C587 718 578 682 583 611 C583 611 584 593 584 593 C584 593 604 593 604 593 L604 593 Z M363 943 C363 943 500 1046 500 1046 C500 1046 519 1031 519 1031 C519 1031 411 860 411 860 C400 844 380 812 363 812 C345 812 325 844 315 859 C315 859 207 1031 207 1031 C207 1031 225 1046 225 1046 C225 1046 363 943 363 943 L363 943 Z " />
<glyph glyph-name="ecaron" unicode="&#x11b;" horiz-adv-x="535" d="M291 693 C291 693 428 796 428 796 C428 796 447 781 447 781 C447 781 339 610 339 610 C328 594 308 562 291 562 C274 562 254 594 243 609 C243 609 135 781 135 781 C135 781 153 796 153 796 C153 796 291 693 291 693 L291 693 Z M173 340 C173 340 356 340 356 340 C356 340 506 340 506 340 C482 476 414 510 291 510 C116 510 27 415 27 226 C27 69 107 -10 267 -10 C382 -10 458 37 492 131 C492 131 476 136 476 136 C462 99 403 80 299 80 C213 80 170 147 170 281 C170 302 171 322 173 340 L173 340 Z M439 379 C448 380 458 380 468 380 C468 380 439 379 439 379 L439 379 Z M349 377 C349 377 178 372 178 372 C193 443 228 479 283 479 C312 479 332 457 349 377 C349 377 349 377 349 377 L349 377 Z " />
<glyph glyph-name="Gcircumflex" unicode="&#x11c;" horiz-adv-x="860" d="M743 511 C743 511 743 635 743 635 C743 635 743 750 743 750 C743 750 728 750 728 750 C728 750 726 740 723 721 C720 703 696 697 653 720 C610 747 552 760 449 760 C175 760 36 631 36 375 C36 119 176 -10 452 -10 C622 -10 698 13 794 58 C794 58 784 79 784 79 C763 69 742 61 719 54 C719 54 719 245 719 245 C719 301 737 305 774 305 C774 305 804 305 804 305 C804 305 804 325 804 325 C804 325 468 325 468 325 C468 325 468 305 468 305 C468 305 498 305 498 305 C545 305 568 301 568 245 C568 245 569 162 569 162 C569 73 534 27 465 27 C290 27 201 144 201 375 C201 606 289 722 464 722 C585 722 626 681 695 598 C708 576 718 553 723 532 C726 518 728 511 728 511 C728 511 743 511 743 511 L743 511 Z M449 907 C449 907 587 804 587 804 C587 804 605 819 605 819 C605 819 497 990 497 990 C487 1006 466 1038 449 1038 C432 1038 412 1006 402 991 C402 991 293 819 293 819 C293 819 311 804 311 804 C311 804 449 907 449 907 L449 907 Z " />
<glyph glyph-name="Gbreve" unicode="&#x11e;" horiz-adv-x="860" d="M300 994 C314 894 364 844 449 844 C534 844 584 893 598 991 C598 991 570 995 570 995 C565 958 524 939 449 939 C375 939 334 959 329 998 C329 998 300 994 300 994 L300 994 Z M743 511 C743 511 743 635 743 635 C743 635 743 750 743 750 C743 750 728 750 728 750 C728 750 726 740 723 721 C720 703 696 697 653 720 C610 747 552 760 449 760 C175 760 36 631 36 375 C36 119 176 -10 452 -10 C622 -10 698 13 794 58 C794 58 784 79 784 79 C763 69 742 61 719 54 C719 54 719 245 719 245 C719 301 737 305 774 305 C774 305 804 305 804 305 C804 305 804 325 804 325 C804 325 468 325 468 325 C468 325 468 305 468 305 C468 305 498 305 498 305 C545 305 568 301 568 245 C568 245 569 162 569 162 C569 73 534 27 465 27 C290 27 201 144 201 375 C201 606 289 722 464 722 C585 722 626 681 695 598 C708 576 718 553 723 532 C726 518 728 511 728 511 C728 511 743 511 743 511 L743 511 Z " />
<glyph glyph-name="gbreve" unicode="&#x11f;" horiz-adv-x="520" d="M100 744 C114 644 164 594 249 594 C334 594 384 643 397 741 C397 741 369 745 369 745 C364 708 323 689 249 689 C174 689 133 709 128 748 C128 748 100 744 100 744 L100 744 Z M197 350 C197 435 214 478 249 478 C283 478 300 435 300 350 C300 264 283 220 249 220 C214 220 197 264 197 350 L197 350 Z M156 -25 C160 -25 165 -25 169 -25 C169 -25 284 -25 284 -25 C356 -25 374 -45 374 -84 C374 -161 338 -199 268 -199 C188 -199 147 -154 147 -66 C147 -48 150 -34 156 -25 C156 -25 156 -25 156 -25 L156 -25 Z M114 -17 C62 -33 35 -60 35 -98 C35 -186 111 -230 260 -230 C409 -230 485 -170 485 -52 C485 55 447 109 298 109 C298 109 176 109 176 109 C143 110 126 121 126 141 C126 172 167 188 249 188 C372 188 435 242 435 350 C435 371 432 391 427 408 C442 429 457 439 473 439 C469 439 467 434 467 423 C467 392 488 376 530 376 C567 376 585 397 585 440 C585 477 566 495 529 495 C479 495 442 475 415 436 C388 485 332 510 249 510 C125 510 62 456 62 350 C62 278 90 230 145 206 C80 190 47 155 47 101 C47 39 69 -1 114 -17 C114 -17 114 -17 114 -17 L114 -17 Z " />
<glyph glyph-name="Gdotaccent" unicode="&#x120;" horiz-adv-x="860" d="M449 865 C502 865 529 892 529 945 C529 998 502 1025 449 1025 C396 1025 369 998 369 945 C369 892 396 865 449 865 L449 865 Z M743 511 C743 511 743 635 743 635 C743 635 743 750 743 750 C743 750 728 750 728 750 C728 750 726 740 723 721 C720 703 696 697 653 720 C610 747 552 760 449 760 C175 760 36 631 36 375 C36 119 176 -10 452 -10 C622 -10 698 13 794 58 C794 58 784 79 784 79 C763 69 742 61 719 54 C719 54 719 245 719 245 C719 301 737 305 774 305 C774 305 804 305 804 305 C804 305 804 325 804 325 C804 325 468 325 468 325 C468 325 468 305 468 305 C468 305 498 305 498 305 C545 305 568 301 568 245 C568 245 569 162 569 162 C569 73 534 27 465 27 C290 27 201 144 201 375 C201 606 289 722 464 722 C585 722 626 681 695 598 C708 576 718 553 723 532 C726 518 728 511 728 511 C728 511 743 511 743 511 L743 511 Z " />
<glyph glyph-name="gdotaccent" unicode="&#x121;" horiz-adv-x="520" d="M249 615 C302 615 329 642 329 695 C329 748 302 775 249 775 C196 775 169 748 169 695 C169 642 196 615 249 615 L249 615 Z M197 350 C197 435 214 478 249 478 C283 478 300 435 300 350 C300 264 283 220 249 220 C214 220 197 264 197 350 L197 350 Z M156 -25 C160 -25 165 -25 169 -25 C169 -25 284 -25 284 -25 C356 -25 374 -45 374 -84 C374 -161 338 -199 268 -199 C188 -199 147 -154 147 -66 C147 -48 150 -34 156 -25 C156 -25 156 -25 156 -25 L156 -25 Z M114 -17 C62 -33 35 -60 35 -98 C35 -186 111 -230 260 -230 C409 -230 485 -170 485 -52 C485 55 447 109 298 109 C298 109 176 109 176 109 C143 110 126 121 126 141 C126 172 167 188 249 188 C372 188 435 242 435 350 C435 371 432 391 427 408 C442 429 457 439 473 439 C469 439 467 434 467 423 C467 392 488 376 530 376 C567 376 585 397 585 440 C585 477 566 495 529 495 C479 495 442 475 415 436 C388 485 332 510 249 510 C125 510 62 456 62 350 C62 278 90 230 145 206 C80 190 47 155 47 101 C47 39 69 -1 114 -17 C114 -17 114 -17 114 -17 L114 -17 Z " />
<glyph glyph-name="Hcircumflex" unicode="&#x124;" horiz-adv-x="911" d="M872 750 C872 750 511 750 511 750 C511 750 511 730 511 730 C511 730 541 730 541 730 C591 730 616 726 616 670 C616 670 616 403 616 403 C616 403 319 403 319 403 C319 403 319 670 319 670 C319 726 344 730 394 730 C394 730 424 730 424 730 C424 730 424 750 424 750 C424 750 63 750 63 750 C63 750 63 730 63 730 C63 730 93 730 93 730 C143 730 168 726 168 670 C168 670 168 80 168 80 C168 24 143 20 93 20 C93 20 63 20 63 20 C63 20 63 0 63 0 C63 0 424 0 424 0 C424 0 424 20 424 20 C424 20 394 20 394 20 C344 20 319 24 319 80 C319 80 319 363 319 363 C319 363 616 363 616 363 C616 363 616 80 616 80 C616 24 591 20 541 20 C541 20 511 20 511 20 C511 20 511 0 511 0 C511 0 872 0 872 0 C872 0 872 20 872 20 C872 20 842 20 842 20 C792 20 767 24 767 80 C767 80 767 670 767 670 C767 726 792 730 842 730 C842 730 872 730 872 730 C872 730 872 750 872 750 L872 750 Z M468 907 C468 907 605 804 605 804 C605 804 624 819 624 819 C624 819 515 990 515 990 C505 1006 485 1038 468 1038 C450 1038 430 1006 420 991 C420 991 312 819 312 819 C312 819 330 804 330 804 C330 804 468 907 468 907 L468 907 Z " />
<glyph glyph-name="Itilde" unicode="&#x128;" horiz-adv-x="410" d="M52 870 C52 904 64 921 88 921 C151 921 190 856 253 856 C319 856 352 908 352 1011 C352 1011 328 1011 328 1011 C328 971 313 951 284 951 C221 951 182 1016 119 1016 C59 1016 28 967 28 870 C28 870 52 870 52 870 L52 870 Z M370 750 C370 750 10 750 10 750 C10 750 10 730 10 730 C10 730 40 730 40 730 C90 730 115 726 115 670 C115 670 115 80 115 80 C115 24 90 20 40 20 C40 20 10 20 10 20 C10 20 10 0 10 0 C10 0 370 0 370 0 C370 0 370 20 370 20 C370 20 340 20 340 20 C290 20 265 24 265 80 C265 80 265 670 265 670 C265 726 290 730 340 730 C340 730 370 730 370 730 C370 730 370 750 370 750 L370 750 Z " />
<glyph glyph-name="itilde" unicode="&#x129;" horiz-adv-x="347" d="M32 620 C32 654 44 671 68 671 C131 671 170 606 233 606 C299 606 332 658 332 761 C332 761 308 761 308 761 C308 721 293 701 264 701 C201 701 162 766 99 766 C39 766 8 717 8 620 C8 620 32 620 32 620 L32 620 Z M22 0 C22 0 320 0 320 0 C320 0 320 20 320 20 C320 20 290 20 290 20 C255 20 237 21 237 35 C237 35 237 390 237 390 C237 390 237 500 237 500 C237 500 213 500 213 500 C213 500 21 445 21 445 C21 445 21 435 21 435 C96 439 102 437 102 390 C102 390 102 35 102 35 C102 21 85 20 52 20 C52 20 22 20 22 20 C22 20 22 0 22 0 L22 0 Z " />
<glyph glyph-name="Imacron" unicode="&#x12a;" horiz-adv-x="410" d="M40 887 C40 887 340 887 340 887 C340 887 340 980 340 980 C340 980 40 980 40 980 C40 980 40 887 40 887 L40 887 Z M370 750 C370 750 10 750 10 750 C10 750 10 730 10 730 C10 730 40 730 40 730 C90 730 115 726 115 670 C115 670 115 80 115 80 C115 24 90 20 40 20 C40 20 10 20 10 20 C10 20 10 0 10 0 C10 0 370 0 370 0 C370 0 370 20 370 20 C370 20 340 20 340 20 C290 20 265 24 265 80 C265 80 265 670 265 670 C265 726 290 730 340 730 C340 730 370 730 370 730 C370 730 370 750 370 750 L370 750 Z " />
<glyph glyph-name="imacron" unicode="&#x12b;" horiz-adv-x="347" d="M20 637 C20 637 320 637 320 637 C320 637 320 730 320 730 C320 730 20 730 20 730 C20 730 20 637 20 637 L20 637 Z M22 0 C22 0 320 0 320 0 C320 0 320 20 320 20 C320 20 290 20 290 20 C255 20 237 21 237 35 C237 35 237 390 237 390 C237 390 237 500 237 500 C237 500 213 500 213 500 C213 500 21 445 21 445 C21 445 21 435 21 435 C96 439 102 437 102 390 C102 390 102 35 102 35 C102 21 85 20 52 20 C52 20 22 20 22 20 C22 20 22 0 22 0 L22 0 Z " />
<glyph glyph-name="Ibreve" unicode="&#x12c;" horiz-adv-x="410" d="M41 994 C55 894 105 844 190 844 C275 844 325 893 339 991 C339 991 311 995 311 995 C306 958 265 939 190 939 C116 939 75 959 69 998 C69 998 41 994 41 994 L41 994 Z M370 750 C370 750 10 750 10 750 C10 750 10 730 10 730 C10 730 40 730 40 730 C90 730 115 726 115 670 C115 670 115 80 115 80 C115 24 90 20 40 20 C40 20 10 20 10 20 C10 20 10 0 10 0 C10 0 370 0 370 0 C370 0 370 20 370 20 C370 20 340 20 340 20 C290 20 265 24 265 80 C265 80 265 670 265 670 C265 726 290 730 340 730 C340 730 370 730 370 730 C370 730 370 750 370 750 L370 750 Z " />
<glyph glyph-name="ibreve" unicode="&#x12d;" horiz-adv-x="347" d="M21 744 C35 644 85 594 170 594 C255 594 305 643 319 741 C319 741 290 745 290 745 C285 708 244 689 170 689 C95 689 54 709 49 748 C49 748 21 744 21 744 L21 744 Z M22 0 C22 0 320 0 320 0 C320 0 320 20 320 20 C320 20 290 20 290 20 C255 20 237 21 237 35 C237 35 237 390 237 390 C237 390 237 500 237 500 C237 500 213 500 213 500 C213 500 21 445 21 445 C21 445 21 435 21 435 C96 439 102 437 102 390 C102 390 102 35 102 35 C102 21 85 20 52 20 C52 20 22 20 22 20 C22 20 22 0 22 0 L22 0 Z " />
<glyph glyph-name="Idotaccent" unicode="&#x130;" horiz-adv-x="410" d="M190 865 C243 865 270 892 270 945 C270 998 243 1025 190 1025 C137 1025 110 998 110 945 C110 892 137 865 190 865 L190 865 Z M370 750 C370 750 10 750 10 750 C10 750 10 730 10 730 C10 730 40 730 40 730 C90 730 115 726 115 670 C115 670 115 80 115 80 C115 24 90 20 40 20 C40 20 10 20 10 20 C10 20 10 0 10 0 C10 0 370 0 370 0 C370 0 370 20 370 20 C370 20 340 20 340 20 C290 20 265 24 265 80 C265 80 265 670 265 670 C265 726 290 730 340 730 C340 730 370 730 370 730 C370 730 370 750 370 750 L370 750 Z " />
<glyph glyph-name="dotlessi" unicode="&#x131;" horiz-adv-x="347" d="M22 0 C22 0 320 0 320 0 C320 0 320 20 320 20 C320 20 290 20 290 20 C255 20 237 21 237 35 C237 35 237 390 237 390 C237 390 237 500 237 500 C237 500 213 500 213 500 C213 500 21 445 21 445 C21 445 21 435 21 435 C96 439 102 437 102 390 C102 390 102 35 102 35 C102 21 85 20 52 20 C52 20 22 20 22 20 C22 20 22 0 22 0 L22 0 Z " />
<glyph glyph-name="Jcircumflex" unicode="&#x134;" horiz-adv-x="410" d="M370 750 C370 750 10 750 10 750 C10 750 10 730 10 730 C10 730 40 730 40 730 C90 730 115 726 115 670 C115 670 114 -121 114 -121 C114 -164 67 -167 27 -167 C-58 -167 -8 -40 -92 -40 C-140 -40 -164 -64 -164 -111 C-164 -184 -112 -220 -10 -220 C118 -220 266 -193 266 165 C266 165 265 670 265 670 C265 726 290 730 340 730 C340 730 370 730 370 730 C370 730 370 750 370 750 L370 750 Z M190 907 C190 907 328 804 328 804 C328 804 346 819 346 819 C346 819 238 990 238 990 C228 1006 207 1038 190 1038 C173 1038 153 1006 143 991 C143 991 34 819 34 819 C34 819 52 804 52 804 C52 804 190 907 190 907 L190 907 Z " />
<glyph glyph-name="Lacute" unicode="&#x139;" horiz-adv-x="675" d="M199 811 C199 811 345 927 345 927 C383 957 402 974 402 983 C402 1024 375 1051 334 1051 C326 1051 310 1030 284 988 C284 988 182 828 182 828 C182 828 199 811 199 811 L199 811 Z M10 0 C10 0 115 0 115 0 C115 0 265 0 265 0 C265 0 409 0 409 0 C409 0 594 0 594 0 C594 0 600 0 600 0 C600 0 600 23 600 23 C614 78 628 134 644 187 C644 187 627 191 625 191 C625 191 617 161 617 161 C592 71 569 26 415 26 C415 26 345 26 345 26 C265 26 265 44 265 80 C265 80 265 85 265 85 C265 85 265 665 265 665 C265 725 290 730 340 730 C340 730 370 730 370 730 C370 730 370 750 370 750 C370 750 265 750 265 750 C265 750 115 750 115 750 C115 750 10 750 10 750 C10 750 10 730 10 730 C10 730 40 730 40 730 C90 730 115 725 115 665 C115 665 115 85 115 85 C115 25 90 20 40 20 C40 20 10 20 10 20 C10 20 10 0 10 0 L10 0 Z " />
<glyph glyph-name="Lcaron" unicode="&#x13d;" horiz-adv-x="675" d="M600 23 C614 78 628 134 644 187 C644 187 627 191 625 191 C625 191 617 161 617 161 C592 71 569 26 415 26 C415 26 345 26 345 26 C265 26 265 44 265 80 C265 80 265 85 265 85 C265 85 265 665 265 665 C265 725 290 730 340 730 C340 730 370 730 370 730 C370 730 370 750 370 750 C370 750 265 750 265 750 C265 750 115 750 115 750 C115 750 10 750 10 750 C10 750 10 730 10 730 C10 730 40 730 40 730 C90 730 115 725 115 665 C115 665 115 85 115 85 C115 25 90 20 40 20 C40 20 10 20 10 20 C10 20 10 0 10 0 C10 0 115 0 115 0 C115 0 265 0 265 0 C265 0 409 0 409 0 C409 0 594 0 594 0 C594 0 600 23 600 23 L600 23 Z M485 683 C505 721 515 756 515 787 C515 803 495 807 455 807 C424 807 417 748 415 697 C415 697 410 585 410 585 C410 585 433 580 433 580 C433 580 485 683 485 683 L485 683 Z " />
<glyph glyph-name="lcaron" unicode="&#x13e;" horiz-adv-x="347" d="M17 674 C17 674 47 682 47 682 C84 693 102 692 102 618 C102 618 102 35 102 35 C102 21 85 20 52 20 C52 20 22 20 22 20 C22 20 22 0 22 0 C22 0 317 0 317 0 C317 0 317 20 317 20 C317 20 287 20 287 20 C254 20 237 21 237 35 C237 35 237 650 237 650 C237 650 237 750 237 750 C237 750 213 750 213 750 C213 750 17 694 17 694 C17 694 17 674 17 674 L17 674 Z M357 633 C377 671 387 706 387 737 C387 753 367 757 327 757 C296 757 289 698 287 647 C287 647 281 535 281 535 C281 535 305 530 305 530 C305 530 357 633 357 633 L357 633 Z " />
<glyph glyph-name="Nacute" unicode="&#x143;" horiz-adv-x="807" d="M308 811 C308 811 454 927 454 927 C491 957 510 974 510 983 C510 1024 483 1051 442 1051 C434 1051 419 1030 392 988 C392 988 291 828 291 828 C291 828 308 811 308 811 L308 811 Z M-28 730 C-28 730 10 730 10 730 C28 730 39 728 65 695 C65 695 65 695 65 695 C65 695 136 607 136 607 C136 607 134 150 134 150 C134 150 134 150 134 150 C134 29 102 20 39 20 C39 20 9 20 9 20 C9 20 9 0 9 0 C9 0 134 0 134 0 C134 0 179 0 179 0 C179 0 304 0 304 0 C304 0 304 20 304 20 C304 20 274 20 274 20 C210 20 178 28 178 140 C178 140 178 140 178 140 C178 140 175 558 175 558 C175 558 450 214 450 214 C450 214 621 0 621 0 C621 0 652 0 652 0 C652 0 662 649 662 649 C666 724 698 730 756 730 C756 730 786 730 786 730 C786 730 786 750 786 750 C786 750 663 750 663 750 C663 750 618 750 618 750 C618 750 493 750 493 750 C493 750 493 730 493 730 C493 730 523 730 523 730 C586 730 618 723 618 630 C618 630 618 630 618 630 C618 630 620 244 620 244 C620 244 570 306 570 306 C570 306 209 750 209 750 C209 750 173 750 173 750 C173 750 136 750 136 750 C136 750 21 750 21 750 C21 750 -28 750 -28 750 C-28 750 -28 730 -28 730 L-28 730 Z " />
<glyph glyph-name="Ncaron" unicode="&#x147;" horiz-adv-x="807" d="M-28 730 C-28 730 10 730 10 730 C28 730 39 728 65 695 C65 695 65 695 65 695 C65 695 136 607 136 607 C136 607 134 150 134 150 C134 150 134 150 134 150 C134 29 102 20 39 20 C39 20 9 20 9 20 C9 20 9 0 9 0 C9 0 134 0 134 0 C134 0 179 0 179 0 C179 0 304 0 304 0 C304 0 304 20 304 20 C304 20 274 20 274 20 C210 20 178 28 178 140 C178 140 178 140 178 140 C178 140 175 558 175 558 C175 558 450 214 450 214 C450 214 621 0 621 0 C621 0 652 0 652 0 C652 0 662 649 662 649 C666 724 698 730 756 730 C756 730 786 730 786 730 C786 730 786 750 786 750 C786 750 663 750 663 750 C663 750 618 750 618 750 C618 750 493 750 493 750 C493 750 493 730 493 730 C493 730 523 730 523 730 C586 730 618 723 618 630 C618 630 618 630 618 630 C618 630 620 244 620 244 C620 244 570 306 570 306 C570 306 209 750 209 750 C209 750 173 750 173 750 C173 750 136 750 136 750 C136 750 21 750 21 750 C21 750 -28 750 -28 750 C-28 750 -28 730 -28 730 L-28 730 Z M399 943 C399 943 536 1046 536 1046 C536 1046 554 1031 554 1031 C554 1031 446 860 446 860 C436 844 415 812 398 812 C381 812 361 844 351 859 C351 859 242 1031 242 1031 C242 1031 261 1046 261 1046 C261 1046 399 943 399 943 L399 943 Z " />
<glyph glyph-name="ncaron" unicode="&#x148;" horiz-adv-x="659" d="M11 409 C11 409 41 420 41 420 C78 433 96 434 96 360 C96 360 96 35 96 35 C96 21 79 20 46 20 C46 20 16 20 16 20 C16 20 16 0 16 0 C16 0 311 0 311 0 C311 0 311 20 311 20 C311 20 281 20 281 20 C248 20 231 21 231 35 C231 35 231 358 231 358 C252 393 283 411 326 411 C390 411 414 367 414 280 C414 280 414 35 414 35 C414 21 397 20 364 20 C364 20 334 20 334 20 C334 20 334 0 334 0 C334 0 629 0 629 0 C629 0 629 20 629 20 C629 20 599 20 599 20 C566 20 549 21 549 35 C549 35 549 280 549 280 C549 433 511 510 406 510 C333 510 274 472 231 398 C231 398 231 400 231 400 C231 400 231 500 231 500 C231 500 207 500 207 500 C207 500 11 429 11 429 C11 429 11 409 11 409 L11 409 Z M323 693 C323 693 460 796 460 796 C460 796 479 781 479 781 C479 781 370 610 370 610 C360 594 340 562 323 562 C305 562 285 594 275 609 C275 609 167 781 167 781 C167 781 185 796 185 796 C185 796 323 693 323 693 L323 693 Z " />
<glyph glyph-name="Omacron" unicode="&#x14c;" horiz-adv-x="914" d="M292 887 C292 887 592 887 592 887 C592 887 592 980 592 980 C592 980 292 980 292 980 C292 980 292 887 292 887 L292 887 Z M440 30 C285 30 207 146 207 375 C207 604 283 720 435 720 C602 720 687 604 687 375 C687 146 604 30 440 30 L440 30 Z M34 375 C34 119 168 -10 432 -10 C716 -10 860 119 860 375 C860 631 720 760 442 760 C171 760 34 631 34 375 L34 375 Z " />
<glyph glyph-name="omacron" unicode="&#x14d;" horiz-adv-x="609" d="M145 637 C145 637 445 637 445 637 C445 637 445 730 445 730 C445 730 145 730 145 730 C145 730 145 637 145 637 L145 637 Z M295 31 C216 31 176 105 176 250 C176 395 216 469 295 469 C375 469 415 395 415 250 C415 105 375 31 295 31 L295 31 Z M27 250 C27 77 117 -10 295 -10 C474 -10 564 77 564 250 C564 423 474 510 295 510 C117 510 27 423 27 250 L27 250 Z " />
<glyph glyph-name="Obreve" unicode="&#x14e;" horiz-adv-x="914" d="M293 994 C307 894 357 844 442 844 C527 844 577 893 591 991 C591 991 562 995 562 995 C557 958 516 939 442 939 C367 939 326 959 321 998 C321 998 293 994 293 994 L293 994 Z M440 30 C285 30 207 146 207 375 C207 604 283 720 435 720 C602 720 687 604 687 375 C687 146 604 30 440 30 L440 30 Z M34 375 C34 119 168 -10 432 -10 C716 -10 860 119 860 375 C860 631 720 760 442 760 C171 760 34 631 34 375 L34 375 Z " />
<glyph glyph-name="obreve" unicode="&#x14f;" horiz-adv-x="609" d="M147 744 C161 644 211 594 295 594 C381 594 431 643 444 741 C444 741 416 745 416 745 C411 708 370 689 295 689 C221 689 180 709 175 748 C175 748 147 744 147 744 L147 744 Z M295 31 C216 31 176 105 176 250 C176 395 216 469 295 469 C375 469 415 395 415 250 C415 105 375 31 295 31 L295 31 Z M27 250 C27 77 117 -10 295 -10 C474 -10 564 77 564 250 C564 423 474 510 295 510 C117 510 27 423 27 250 L27 250 Z " />
<glyph glyph-name="Racute" unicode="&#x154;" horiz-adv-x="847" d="M324 811 C324 811 470 927 470 927 C507 957 526 974 526 983 C526 1024 499 1051 459 1051 C450 1051 435 1030 408 988 C408 988 307 828 307 828 C307 828 324 811 324 811 L324 811 Z M27 730 C27 730 57 730 57 730 C107 730 132 725 132 665 C132 665 132 85 132 85 C132 25 107 20 57 20 C57 20 27 20 27 20 C27 20 27 0 27 0 C27 0 388 0 388 0 C388 0 388 20 388 20 C388 20 358 20 358 20 C308 20 283 25 283 85 C283 85 283 342 283 342 C283 342 340 342 340 342 C365 304 432 216 540 80 C608 -5 589 0 838 0 C838 0 838 30 838 30 C751 30 758 27 717 80 C607 217 534 308 498 354 C608 376 663 429 663 536 C663 678 557 750 346 750 C346 750 283 750 283 750 C283 750 27 750 27 750 C27 750 27 730 27 730 L27 730 Z M283 720 C283 720 301 720 301 720 C431 720 496 668 496 565 C496 424 446 380 346 380 C346 380 283 380 283 380 C283 380 283 665 283 665 C283 665 283 720 283 720 L283 720 Z " />
<glyph glyph-name="Rcaron" unicode="&#x158;" horiz-adv-x="847" d="M27 730 C27 730 57 730 57 730 C107 730 132 725 132 665 C132 665 132 85 132 85 C132 25 107 20 57 20 C57 20 27 20 27 20 C27 20 27 0 27 0 C27 0 388 0 388 0 C388 0 388 20 388 20 C388 20 358 20 358 20 C308 20 283 25 283 85 C283 85 283 342 283 342 C283 342 340 342 340 342 C365 304 432 216 540 80 C608 -5 589 0 838 0 C838 0 838 30 838 30 C751 30 758 27 717 80 C607 217 534 308 498 354 C608 376 663 429 663 536 C663 678 557 750 346 750 C346 750 283 750 283 750 C283 750 27 750 27 750 C27 750 27 730 27 730 L27 730 Z M315 943 C315 943 452 1046 452 1046 C452 1046 470 1031 470 1031 C470 1031 362 860 362 860 C352 844 331 812 314 812 C297 812 277 844 267 859 C267 859 158 1031 158 1031 C158 1031 177 1046 177 1046 C177 1046 315 943 315 943 L315 943 Z M283 720 C283 720 301 720 301 720 C431 720 496 668 496 565 C496 424 446 380 346 380 C346 380 283 380 283 380 C283 380 283 665 283 665 C283 665 283 720 283 720 L283 720 Z " />
<glyph glyph-name="rcaron" unicode="&#x159;" horiz-adv-x="531" d="M17 409 C17 409 47 420 47 420 C84 433 102 434 102 360 C102 360 102 35 102 35 C102 21 87 20 57 20 C57 20 27 20 27 20 C27 20 27 0 27 0 C27 0 322 0 322 0 C322 0 322 20 322 20 C322 20 292 20 292 20 C256 20 237 21 237 35 C237 35 237 347 237 347 C260 414 287 447 319 447 C348 447 363 435 363 412 C363 360 390 333 442 333 C494 333 521 360 521 412 C521 477 474 510 382 510 C311 510 263 479 237 416 C237 416 237 500 237 500 C237 500 213 500 213 500 C213 500 17 429 17 429 C17 429 17 409 17 409 L17 409 Z M300 693 C300 693 438 796 438 796 C438 796 456 781 456 781 C456 781 348 610 348 610 C338 594 317 562 300 562 C283 562 263 594 252 609 C252 609 144 781 144 781 C144 781 162 796 162 796 C162 796 300 693 300 693 L300 693 Z " />
<glyph glyph-name="Sacute" unicode="&#x15a;" horiz-adv-x="557" d="M283 811 C283 811 429 927 429 927 C466 957 485 974 485 983 C485 1024 458 1051 418 1051 C409 1051 394 1030 367 988 C367 988 266 828 266 828 C266 828 283 811 283 811 L283 811 Z M481 540 C481 540 481 645 481 645 C481 645 481 760 481 760 C481 760 466 760 466 760 C466 760 464 750 461 731 C458 714 442 706 417 722 C379 747 330 760 270 760 C127 760 55 688 55 546 C55 423 103 344 232 297 C353 253 397 214 397 168 C397 82 357 38 277 38 C246 38 218 44 194 55 C151 75 117 115 93 159 C92 161 91 163 90 165 C90 165 90 165 90 165 C79 186 71 208 66 229 C63 243 61 250 61 250 C61 250 46 250 46 250 C46 250 46 145 46 145 C46 145 46 0 46 0 C46 0 61 0 61 0 C61 0 63 12 66 36 C69 57 93 62 135 32 C135 32 135 32 135 32 C175 4 222 -10 277 -10 C436 -10 517 65 517 212 C517 325 465 401 322 453 C212 493 172 540 172 603 C172 682 205 722 270 722 C274 722 278 722 282 722 C378 717 443 638 461 561 C464 547 466 540 466 540 C466 540 481 540 481 540 L481 540 Z " />
<glyph glyph-name="Scircumflex" unicode="&#x15c;" horiz-adv-x="557" d="M481 540 C481 540 481 645 481 645 C481 645 481 760 481 760 C481 760 466 760 466 760 C466 760 464 750 461 731 C458 714 442 706 417 722 C379 747 330 760 270 760 C127 760 55 688 55 546 C55 423 103 344 232 297 C353 253 397 214 397 168 C397 82 357 38 277 38 C246 38 218 44 194 55 C151 75 117 115 93 159 C92 161 91 163 90 165 C90 165 90 165 90 165 C79 186 71 208 66 229 C63 243 61 250 61 250 C61 250 46 250 46 250 C46 250 46 145 46 145 C46 145 46 0 46 0 C46 0 61 0 61 0 C61 0 63 12 66 36 C69 57 93 62 135 32 C135 32 135 32 135 32 C175 4 222 -10 277 -10 C436 -10 517 65 517 212 C517 325 465 401 322 453 C212 493 172 540 172 603 C172 682 205 722 270 722 C274 722 278 722 282 722 C378 717 443 638 461 561 C464 547 466 540 466 540 C466 540 481 540 481 540 L481 540 Z M274 907 C274 907 411 804 411 804 C411 804 429 819 429 819 C429 819 321 990 321 990 C311 1006 290 1038 273 1038 C256 1038 236 1006 226 991 C226 991 117 819 117 819 C117 819 136 804 136 804 C136 804 274 907 274 907 L274 907 Z " />
<glyph glyph-name="Scaron" unicode="&#x160;" horiz-adv-x="557" d="M481 540 C481 540 481 645 481 645 C481 645 481 760 481 760 C481 760 466 760 466 760 C466 760 464 750 461 731 C458 714 442 706 417 722 C379 747 330 760 270 760 C127 760 55 688 55 546 C55 423 103 344 232 297 C353 253 397 214 397 168 C397 82 357 38 277 38 C246 38 218 44 194 55 C151 75 117 115 93 159 C92 161 91 163 90 165 C90 165 90 165 90 165 C79 186 71 208 66 229 C63 243 61 250 61 250 C61 250 46 250 46 250 C46 250 46 145 46 145 C46 145 46 0 46 0 C46 0 61 0 61 0 C61 0 63 12 66 36 C69 57 93 62 135 32 C135 32 135 32 135 32 C175 4 222 -10 277 -10 C436 -10 517 65 517 212 C517 325 465 401 322 453 C212 493 172 540 172 603 C172 682 205 722 270 722 C274 722 278 722 282 722 C378 717 443 638 461 561 C464 547 466 540 466 540 C466 540 481 540 481 540 L481 540 Z M274 943 C274 943 411 1046 411 1046 C411 1046 429 1031 429 1031 C429 1031 321 860 321 860 C311 844 290 812 273 812 C256 812 236 844 226 859 C226 859 117 1031 117 1031 C117 1031 136 1046 136 1046 C136 1046 274 943 274 943 L274 943 Z " />
<glyph glyph-name="scaron" unicode="&#x161;" horiz-adv-x="446" d="M374 345 C374 345 374 427 374 427 C374 427 374 510 374 510 C374 510 354 510 354 510 C354 510 354 481 354 481 C354 480 335 485 299 499 C299 499 298 499 298 499 C278 506 256 510 230 510 C118 510 61 462 61 367 C61 277 94 222 184 198 C263 178 292 148 292 105 C292 50 266 22 214 22 C168 22 131 51 104 109 C104 109 97 106 97 106 C91 122 88 139 88 157 C88 157 88 174 88 174 C88 174 68 174 68 174 C68 174 68 92 68 92 C68 92 68 7 68 7 C68 7 88 7 88 7 C88 7 88 28 88 28 C88 24 115 12 168 -4 C168 -4 169 -4 169 -4 C183 -8 198 -10 214 -10 C335 -10 396 41 396 143 C396 221 355 272 244 302 C180 319 157 355 157 413 C157 456 182 478 230 478 C281 478 317 455 338 410 C338 410 343 412 343 412 C350 397 354 379 354 362 C354 362 354 345 354 345 C354 345 374 345 374 345 L374 345 Z M214 693 C214 693 352 796 352 796 C352 796 370 781 370 781 C370 781 262 610 262 610 C252 594 231 562 214 562 C197 562 177 594 167 609 C167 609 58 781 58 781 C58 781 76 796 76 796 C76 796 214 693 214 693 L214 693 Z " />
<glyph glyph-name="Tcaron" unicode="&#x164;" horiz-adv-x="775" d="M37 607 C37 607 48 637 48 637 C66 687 82 712 175 712 C175 712 312 712 312 712 C312 712 312 80 312 80 C312 24 287 20 237 20 C237 20 207 20 207 20 C207 20 207 0 207 0 C207 0 568 0 568 0 C568 0 568 20 568 20 C568 20 538 20 538 20 C488 20 463 24 463 80 C463 80 463 712 463 712 C463 712 600 712 600 712 C693 712 709 687 727 637 C727 637 738 607 738 607 C738 607 757 609 757 609 C747 639 736 669 725 699 C725 699 720 713 720 713 C720 713 720 750 720 750 C720 750 706 750 706 750 C706 750 692 789 692 789 C692 789 689 789 682 790 C682 790 672 790 672 790 C672 790 676 777 676 777 C683 759 679 750 586 750 C586 750 463 750 463 750 C463 750 312 750 312 750 C312 750 189 750 189 750 C96 750 92 759 99 777 C99 777 103 790 103 790 C103 790 93 790 93 790 C86 789 83 789 83 789 C83 789 69 750 69 750 C69 750 55 750 55 750 C55 750 55 713 55 713 C55 713 50 699 50 699 C39 669 28 639 18 609 C18 609 37 607 37 607 L37 607 Z M388 943 C388 943 525 1046 525 1046 C525 1046 543 1031 543 1031 C543 1031 435 860 435 860 C425 844 405 812 388 812 C370 812 350 844 340 859 C340 859 232 1031 232 1031 C232 1031 250 1046 250 1046 C250 1046 388 943 388 943 L388 943 Z " />
<glyph glyph-name="tcaron" unicode="&#x165;" horiz-adv-x="433" d="M382 500 C382 500 230 500 230 500 C230 500 230 620 230 620 C230 620 220 620 220 620 C220 620 30 439 30 439 C30 439 30 429 30 429 C30 429 95 429 95 429 C95 429 95 204 95 204 C95 33 150 -10 259 -10 C365 -10 420 41 424 140 C424 140 407 141 407 141 C404 83 369 54 301 54 C251 54 225 78 227 174 C227 174 230 429 230 429 C230 429 382 429 382 429 C382 429 382 500 382 500 L382 500 Z M513 633 C534 671 544 706 544 737 C544 753 524 757 483 757 C453 757 446 698 444 647 C444 647 438 535 438 535 C438 535 462 530 462 530 C462 530 513 633 513 633 L513 633 Z " />
<glyph glyph-name="Utilde" unicode="&#x168;" horiz-adv-x="836" d="M271 870 C271 904 283 921 308 921 C371 921 409 856 472 856 C538 856 571 908 571 1011 C571 1011 547 1011 547 1011 C547 971 532 951 503 951 C440 951 402 1016 338 1016 C278 1016 247 967 247 870 C247 870 271 870 271 870 L271 870 Z M465 730 C465 730 495 730 495 730 C545 730 570 725 570 665 C570 665 570 207 570 207 C534 127 473 87 389 87 C295 87 248 132 248 220 C248 220 248 665 248 665 C248 665 248 750 248 750 C248 750 -8 750 -8 750 C-8 750 -8 730 -8 730 C-8 730 22 730 22 730 C72 730 97 725 97 665 C97 665 97 220 97 220 C97 67 175 -10 329 -10 C443 -10 524 40 570 139 C570 139 570 110 570 110 C570 110 570 0 570 0 C570 0 594 0 594 0 C594 0 825 55 825 55 C825 55 825 65 825 65 C728 60 721 62 721 110 C721 110 721 665 721 665 C721 665 721 750 721 750 C721 750 465 750 465 750 C465 750 465 730 465 730 L465 730 Z " />
<glyph glyph-name="utilde" unicode="&#x169;" horiz-adv-x="638" d="M169 620 C169 654 181 671 205 671 C268 671 306 606 370 606 C435 606 468 658 468 761 C468 761 445 761 445 761 C445 721 430 701 401 701 C337 701 299 766 236 766 C175 766 145 717 145 620 C145 620 169 620 169 620 L169 620 Z M618 59 C618 59 588 51 588 51 C551 42 533 43 533 118 C533 118 533 465 533 465 C533 465 533 500 533 500 C533 500 332 500 332 500 C332 500 332 480 332 480 C332 480 362 480 362 480 C386 480 398 479 398 465 C398 465 398 155 398 155 C376 108 341 84 293 84 C241 84 215 110 215 160 C215 160 215 465 215 465 C215 465 215 500 215 500 C215 500 14 500 14 500 C14 500 14 480 14 480 C14 480 44 480 44 480 C68 480 80 479 80 465 C80 465 80 160 80 160 C80 47 130 -10 230 -10 C307 -10 363 32 398 115 C398 115 398 90 398 90 C398 90 398 -10 398 -10 C398 -10 422 -10 422 -10 C422 -10 618 39 618 39 C618 39 618 59 618 59 L618 59 Z " />
<glyph glyph-name="Umacron" unicode="&#x16a;" horiz-adv-x="836" d="M259 887 C259 887 559 887 559 887 C559 887 559 980 559 980 C559 980 259 980 259 980 C259 980 259 887 259 887 L259 887 Z M465 730 C465 730 495 730 495 730 C545 730 570 725 570 665 C570 665 570 207 570 207 C534 127 473 87 389 87 C295 87 248 132 248 220 C248 220 248 665 248 665 C248 665 248 750 248 750 C248 750 -8 750 -8 750 C-8 750 -8 730 -8 730 C-8 730 22 730 22 730 C72 730 97 725 97 665 C97 665 97 220 97 220 C97 67 175 -10 329 -10 C443 -10 524 40 570 139 C570 139 570 110 570 110 C570 110 570 0 570 0 C570 0 594 0 594 0 C594 0 825 55 825 55 C825 55 825 65 825 65 C728 60 721 62 721 110 C721 110 721 665 721 665 C721 665 721 750 721 750 C721 750 465 750 465 750 C465 750 465 730 465 730 L465 730 Z " />
<glyph glyph-name="umacron" unicode="&#x16b;" horiz-adv-x="638" d="M157 637 C157 637 457 637 457 637 C457 637 457 730 457 730 C457 730 157 730 157 730 C157 730 157 637 157 637 L157 637 Z M618 59 C618 59 588 51 588 51 C551 42 533 43 533 118 C533 118 533 465 533 465 C533 465 533 500 533 500 C533 500 332 500 332 500 C332 500 332 480 332 480 C332 480 362 480 362 480 C386 480 398 479 398 465 C398 465 398 155 398 155 C376 108 341 84 293 84 C241 84 215 110 215 160 C215 160 215 465 215 465 C215 465 215 500 215 500 C215 500 14 500 14 500 C14 500 14 480 14 480 C14 480 44 480 44 480 C68 480 80 479 80 465 C80 465 80 160 80 160 C80 47 130 -10 230 -10 C307 -10 363 32 398 115 C398 115 398 90 398 90 C398 90 398 -10 398 -10 C398 -10 422 -10 422 -10 C422 -10 618 39 618 39 C618 39 618 59 618 59 L618 59 Z " />
<glyph glyph-name="Ubreve" unicode="&#x16c;" horiz-adv-x="836" d="M260 994 C274 894 324 844 409 844 C495 844 545 893 558 991 C558 991 530 995 530 995 C525 958 484 939 409 939 C335 939 294 959 289 998 C289 998 260 994 260 994 L260 994 Z M465 730 C465 730 495 730 495 730 C545 730 570 725 570 665 C570 665 570 207 570 207 C534 127 473 87 389 87 C295 87 248 132 248 220 C248 220 248 665 248 665 C248 665 248 750 248 750 C248 750 -8 750 -8 750 C-8 750 -8 730 -8 730 C-8 730 22 730 22 730 C72 730 97 725 97 665 C97 665 97 220 97 220 C97 67 175 -10 329 -10 C443 -10 524 40 570 139 C570 139 570 110 570 110 C570 110 570 0 570 0 C570 0 594 0 594 0 C594 0 825 55 825 55 C825 55 825 65 825 65 C728 60 721 62 721 110 C721 110 721 665 721 665 C721 665 721 750 721 750 C721 750 465 750 465 750 C465 750 465 730 465 730 L465 730 Z " />
<glyph glyph-name="ubreve" unicode="&#x16d;" horiz-adv-x="638" d="M158 744 C172 644 222 594 307 594 C392 594 442 643 455 741 C455 741 427 745 427 745 C422 708 381 689 307 689 C232 689 191 709 186 748 C186 748 158 744 158 744 L158 744 Z M618 59 C618 59 588 51 588 51 C551 42 533 43 533 118 C533 118 533 465 533 465 C533 465 533 500 533 500 C533 500 332 500 332 500 C332 500 332 480 332 480 C332 480 362 480 362 480 C386 480 398 479 398 465 C398 465 398 155 398 155 C376 108 341 84 293 84 C241 84 215 110 215 160 C215 160 215 465 215 465 C215 465 215 500 215 500 C215 500 14 500 14 500 C14 500 14 480 14 480 C14 480 44 480 44 480 C68 480 80 479 80 465 C80 465 80 160 80 160 C80 47 130 -10 230 -10 C307 -10 363 32 398 115 C398 115 398 90 398 90 C398 90 398 -10 398 -10 C398 -10 422 -10 422 -10 C422 -10 618 39 618 39 C618 39 618 59 618 59 L618 59 Z " />
<glyph glyph-name="Uring" unicode="&#x16e;" horiz-adv-x="836" d="M409 842 C374 842 350 867 350 905 C350 947 370 968 409 968 C449 968 469 947 469 905 C469 867 445 842 409 842 L409 842 Z M310 905 C310 848 350 810 409 810 C468 810 508 848 508 905 C508 968 475 1000 409 1000 C343 1000 310 968 310 905 L310 905 Z M465 730 C465 730 495 730 495 730 C545 730 570 725 570 665 C570 665 570 207 570 207 C534 127 473 87 389 87 C295 87 248 132 248 220 C248 220 248 665 248 665 C248 665 248 750 248 750 C248 750 -8 750 -8 750 C-8 750 -8 730 -8 730 C-8 730 22 730 22 730 C72 730 97 725 97 665 C97 665 97 220 97 220 C97 67 175 -10 329 -10 C443 -10 524 40 570 139 C570 139 570 110 570 110 C570 110 570 0 570 0 C570 0 594 0 594 0 C594 0 825 55 825 55 C825 55 825 65 825 65 C728 60 721 62 721 110 C721 110 721 665 721 665 C721 665 721 750 721 750 C721 750 465 750 465 750 C465 750 465 730 465 730 L465 730 Z " />
<glyph glyph-name="uring" unicode="&#x16f;" horiz-adv-x="638" d="M307 592 C271 592 247 617 247 655 C247 697 267 718 307 718 C346 718 366 697 366 655 C366 617 342 592 307 592 L307 592 Z M208 655 C208 598 248 560 307 560 C366 560 406 598 406 655 C406 718 373 750 307 750 C241 750 208 718 208 655 L208 655 Z M618 59 C618 59 588 51 588 51 C551 42 533 43 533 118 C533 118 533 465 533 465 C533 465 533 500 533 500 C533 500 332 500 332 500 C332 500 332 480 332 480 C332 480 362 480 362 480 C386 480 398 479 398 465 C398 465 398 155 398 155 C376 108 341 84 293 84 C241 84 215 110 215 160 C215 160 215 465 215 465 C215 465 215 500 215 500 C215 500 14 500 14 500 C14 500 14 480 14 480 C14 480 44 480 44 480 C68 480 80 479 80 465 C80 465 80 160 80 160 C80 47 130 -10 230 -10 C307 -10 363 32 398 115 C398 115 398 90 398 90 C398 90 398 -10 398 -10 C398 -10 422 -10 422 -10 C422 -10 618 39 618 39 C618 39 618 59 618 59 L618 59 Z " />
<glyph glyph-name="Wcircumflex" unicode="&#x174;" horiz-adv-x="1167" d="M1152 750 C1152 750 1063 750 1063 750 C1063 750 1001 750 1001 750 C1001 750 836 750 836 750 C836 750 836 730 836 730 C836 730 861 730 861 730 C951 730 994 722 964 610 C964 610 964 610 964 610 C964 610 862 219 862 219 C862 219 665 640 665 640 C665 640 666 640 666 640 C626 724 661 730 736 730 C736 730 759 730 759 730 C759 730 759 750 759 750 C759 750 614 750 614 750 C614 750 440 750 440 750 C440 750 369 750 369 750 C369 750 354 750 354 750 C354 750 224 750 224 750 C224 750 59 750 59 750 C59 750 3 750 3 750 C3 750 3 730 3 730 C3 730 40 730 40 730 C59 730 72 722 122 610 C122 610 122 610 122 610 C216 403 309 197 403 -10 C403 -10 442 -10 442 -10 C442 -10 590 436 590 436 C661 287 731 139 802 -10 C802 -10 842 -10 842 -10 C842 -10 1034 649 1034 649 C1059 724 1083 730 1122 730 C1122 730 1152 730 1152 730 C1152 730 1152 750 1152 750 L1152 750 Z M561 907 C561 907 698 804 698 804 C698 804 717 819 717 819 C717 819 609 990 609 990 C598 1006 578 1038 561 1038 C543 1038 523 1006 513 991 C513 991 405 819 405 819 C405 819 423 804 423 804 C423 804 561 907 561 907 L561 907 Z M354 730 C354 730 369 730 369 730 C369 730 384 730 384 730 C427 730 450 727 468 690 C468 690 469 690 469 690 C499 627 529 563 559 500 C559 500 559 500 559 500 C559 500 464 189 464 189 C464 189 464 191 464 191 C464 191 276 630 276 630 C238 723 274 730 346 730 C346 730 354 730 354 730 L354 730 Z " />
<glyph glyph-name="Ycircumflex" unicode="&#x176;" horiz-adv-x="827" d="M334 750 C334 750 229 750 229 750 C229 750 50 750 50 750 C50 750 -1 750 -1 750 C-1 750 -1 730 -1 730 C-1 730 36 730 36 730 C52 730 65 724 113 657 C113 657 349 311 349 311 C349 311 349 80 349 80 C349 24 324 20 274 20 C274 20 244 20 244 20 C244 20 244 0 244 0 C244 0 604 0 604 0 C604 0 604 20 604 20 C604 20 574 20 574 20 C524 20 499 24 499 80 C499 80 499 316 499 316 C499 316 673 633 673 633 C725 723 747 730 780 730 C780 730 811 730 811 730 C811 730 811 750 811 750 C811 750 737 750 737 750 C737 750 662 750 662 750 C662 750 557 750 557 750 C557 750 557 730 557 730 C557 730 582 730 582 730 C623 730 645 725 628 677 C628 677 604 626 604 626 C603 624 602 622 601 620 C601 620 601 620 601 620 C601 620 483 365 483 365 C483 365 299 644 299 644 C249 724 268 730 309 730 C309 730 334 730 334 730 C334 730 334 750 334 750 L334 750 Z M424 907 C424 907 562 804 562 804 C562 804 580 819 580 819 C580 819 472 990 472 990 C462 1006 441 1038 424 1038 C407 1038 387 1006 377 991 C377 991 268 819 268 819 C268 819 286 804 286 804 C286 804 424 907 424 907 L424 907 Z " />
<glyph glyph-name="Ydieresis" unicode="&#x178;" horiz-adv-x="827" d="M508 865 C561 865 588 892 588 945 C588 998 561 1025 508 1025 C455 1025 428 998 428 945 C428 892 455 865 508 865 L508 865 Z M340 865 C393 865 420 892 420 945 C420 998 393 1025 340 1025 C287 1025 260 998 260 945 C260 892 287 865 340 865 L340 865 Z M334 750 C334 750 229 750 229 750 C229 750 50 750 50 750 C50 750 -1 750 -1 750 C-1 750 -1 730 -1 730 C-1 730 36 730 36 730 C52 730 65 724 113 657 C113 657 349 311 349 311 C349 311 349 80 349 80 C349 24 324 20 274 20 C274 20 244 20 244 20 C244 20 244 0 244 0 C244 0 604 0 604 0 C604 0 604 20 604 20 C604 20 574 20 574 20 C524 20 499 24 499 80 C499 80 499 316 499 316 C499 316 673 633 673 633 C725 723 747 730 780 730 C780 730 811 730 811 730 C811 730 811 750 811 750 C811 750 737 750 737 750 C737 750 662 750 662 750 C662 750 557 750 557 750 C557 750 557 730 557 730 C557 730 582 730 582 730 C623 730 645 725 628 677 C628 677 604 626 604 626 C603 624 602 622 601 620 C601 620 601 620 601 620 C601 620 483 365 483 365 C483 365 299 644 299 644 C249 724 268 730 309 730 C309 730 334 730 334 730 C334 730 334 750 334 750 L334 750 Z " />
<glyph glyph-name="Zacute" unicode="&#x179;" horiz-adv-x="652" d="M349 811 C349 811 495 927 495 927 C533 957 552 974 552 983 C552 1024 525 1051 484 1051 C476 1051 460 1030 434 988 C434 988 332 828 332 828 C332 828 349 811 349 811 L349 811 Z M189 0 C189 0 446 0 446 0 C446 0 606 0 606 0 C622 65 639 130 655 195 C653 195 643 198 635 198 C635 198 618 154 618 154 C594 90 573 54 497 45 C497 45 211 37 211 37 C211 37 610 718 610 718 C610 718 610 750 610 750 C610 750 462 750 462 750 C462 750 240 750 240 750 C240 750 70 750 70 750 C60 681 51 613 41 543 C44 543 56 540 66 540 C66 540 73 570 73 570 C90 655 108 702 205 709 C205 709 440 714 440 714 C440 714 25 32 25 32 C25 32 25 0 25 0 C25 0 189 0 189 0 L189 0 Z " />
<glyph glyph-name="Zdotaccent" unicode="&#x17b;" horiz-adv-x="652" d="M340 865 C393 865 420 892 420 945 C420 998 393 1025 340 1025 C287 1025 260 998 260 945 C260 892 287 865 340 865 L340 865 Z M189 0 C189 0 446 0 446 0 C446 0 606 0 606 0 C622 65 639 130 655 195 C653 195 643 198 635 198 C635 198 618 154 618 154 C594 90 573 54 497 45 C497 45 211 37 211 37 C211 37 610 718 610 718 C610 718 610 750 610 750 C610 750 462 750 462 750 C462 750 240 750 240 750 C240 750 70 750 70 750 C60 681 51 613 41 543 C44 543 56 540 66 540 C66 540 73 570 73 570 C90 655 108 702 205 709 C205 709 440 714 440 714 C440 714 25 32 25 32 C25 32 25 0 25 0 C25 0 189 0 189 0 L189 0 Z " />
<glyph glyph-name="zdotaccent" unicode="&#x17c;" horiz-adv-x="475" d="M265 615 C318 615 345 642 345 695 C345 748 318 775 265 775 C212 775 185 748 185 695 C185 642 212 615 265 615 L265 615 Z M183 0 C183 0 297 0 297 0 C297 0 430 0 430 0 C436 47 444 95 450 141 C450 141 440 141 440 141 C440 141 426 111 426 111 C408 74 392 51 329 44 C329 44 204 39 204 39 C204 39 435 468 435 468 C435 468 435 500 435 500 C435 500 297 500 297 500 C297 500 135 500 135 500 C123 500 112 508 116 523 C116 523 121 540 121 540 C121 540 101 540 101 540 C93 510 85 480 76 449 C76 449 52 359 52 359 C52 359 64 359 64 359 C64 359 80 389 80 389 C99 425 116 447 169 455 C169 455 275 460 275 460 C275 460 40 32 40 32 C40 32 40 0 40 0 C40 0 183 0 183 0 L183 0 Z " />
<glyph glyph-name="Zcaron" unicode="&#x17d;" horiz-adv-x="652" d="M340 943 C340 943 478 1046 478 1046 C478 1046 496 1031 496 1031 C496 1031 388 860 388 860 C378 844 357 812 340 812 C323 812 303 844 293 859 C293 859 184 1031 184 1031 C184 1031 202 1046 202 1046 C202 1046 340 943 340 943 L340 943 Z M189 0 C189 0 446 0 446 0 C446 0 606 0 606 0 C622 65 639 130 655 195 C653 195 643 198 635 198 C635 198 618 154 618 154 C594 90 573 54 497 45 C497 45 211 37 211 37 C211 37 610 718 610 718 C610 718 610 750 610 750 C610 750 462 750 462 750 C462 750 240 750 240 750 C240 750 70 750 70 750 C60 681 51 613 41 543 C44 543 56 540 66 540 C66 540 73 570 73 570 C90 655 108 702 205 709 C205 709 440 714 440 714 C440 714 25 32 25 32 C25 32 25 0 25 0 C25 0 189 0 189 0 L189 0 Z " />
<glyph glyph-name="zcaron" unicode="&#x17e;" horiz-adv-x="475" d="M265 693 C265 693 403 796 403 796 C403 796 421 781 421 781 C421 781 313 610 313 610 C303 594 282 562 265 562 C248 562 228 594 218 609 C218 609 109 781 109 781 C109 781 127 796 127 796 C127 796 265 693 265 693 L265 693 Z M183 0 C183 0 297 0 297 0 C297 0 430 0 430 0 C436 47 444 95 450 141 C450 141 440 141 440 141 C440 141 426 111 426 111 C408 74 392 51 329 44 C329 44 204 39 204 39 C204 39 435 468 435 468 C435 468 435 500 435 500 C435 500 297 500 297 500 C297 500 135 500 135 500 C123 500 112 508 116 523 C116 523 121 540 121 540 C121 540 101 540 101 540 C93 510 85 480 76 449 C76 449 52 359 52 359 C52 359 64 359 64 359 C64 359 80 389 80 389 C99 425 116 447 169 455 C169 455 275 460 275 460 C275 460 40 32 40 32 C40 32 40 0 40 0 C40 0 183 0 183 0 L183 0 Z " />
<glyph glyph-name="SmallLetterOwithogon" unicode="&#x1eb;" horiz-adv-x="817" d="M1042 -39 C1042 -39 1033 -27 1033 -27 C992 -62 898 -79 755 -79 C640 -79 531 -56 429 -9 C654 2 767 102 767 292 C767 492 643 593 398 593 C159 593 38 492 38 292 C38 184 105 105 185 55 C438 -109 622 -192 735 -192 C817 -192 921 -141 1042 -39 L1042 -39 Z M395 26 C375 26 349 34 322 50 C319 52 316 54 313 56 C313 56 313 56 313 56 C253 96 194 174 194 292 C194 468 260 557 391 557 C538 557 612 468 612 292 C612 115 539 26 395 26 L395 26 Z " />
<glyph glyph-name="CapitalLetterAwithdo" unicode="&#x226;" horiz-adv-x="846" d="M437 865 C490 865 517 892 517 945 C517 998 490 1025 437 1025 C384 1025 357 998 357 945 C357 892 384 865 437 865 L437 865 Z M458 0 C458 0 593 0 593 0 C593 0 752 0 752 0 C752 0 840 0 840 0 C840 0 840 20 840 20 C840 20 810 20 810 20 C770 20 746 27 715 110 C715 110 513 702 513 702 C513 702 490 770 490 770 C490 770 475 770 475 770 C448 732 410 709 362 702 C362 702 365 692 365 692 C365 692 365 692 365 692 C365 692 192 170 192 170 C192 170 192 170 192 170 C148 30 109 20 37 20 C37 20 7 20 7 20 C7 20 7 0 7 0 C7 0 136 0 136 0 C136 0 181 0 181 0 C181 0 346 0 346 0 C346 0 346 20 346 20 C346 20 322 20 322 20 C232 20 189 30 234 170 C234 170 234 170 234 170 C234 170 264 269 264 269 C264 269 504 269 504 269 C504 269 550 131 550 131 C582 28 550 20 483 20 C483 20 458 20 458 20 C458 20 458 0 458 0 L458 0 Z M276 308 C276 308 381 645 381 645 C381 645 492 308 492 308 C492 308 276 308 276 308 L276 308 Z " />
<glyph glyph-name="LETTERSMALLCAPITALG" unicode="&#x262;" horiz-adv-x="772" d="M654 375 C654 375 654 495 654 495 C654 495 654 583 654 583 C654 583 639 583 639 583 C639 583 637 573 634 555 C633 549 612 553 570 568 C534 585 484 593 401 593 C161 593 40 492 40 292 C40 91 163 -10 408 -10 C439 -10 467 -9 493 -6 C493 -6 498 -8 498 -8 C498 -8 518 -3 518 -3 C556 3 590 11 623 23 C623 23 630 25 630 25 C630 25 630 26 630 26 C655 35 679 46 706 58 C706 58 697 78 697 78 C674 67 653 58 630 50 C630 50 631 173 631 173 C631 229 649 233 686 233 C686 233 716 233 716 233 C716 233 716 253 716 253 C716 253 395 253 395 253 C395 253 395 233 395 233 C395 233 425 233 425 233 C471 233 495 229 495 173 C495 173 496 129 496 129 C493 58 467 23 420 23 C266 23 189 113 189 292 C189 469 265 559 415 559 C439 559 459 557 476 554 C561 536 618 463 634 396 C637 382 639 375 639 375 C639 375 654 375 654 375 L654 375 Z " />
<glyph glyph-name="LETTERSMALLCAPITALI" unicode="&#x26a;" horiz-adv-x="402" d="M363 583 C363 583 17 583 17 583 C17 583 17 563 17 563 C17 563 47 563 47 563 C97 563 122 559 122 503 C122 503 122 80 122 80 C122 24 97 20 47 20 C47 20 17 20 17 20 C17 20 17 0 17 0 C17 0 363 0 363 0 C363 0 363 20 363 20 C363 20 333 20 333 20 C283 20 258 24 258 80 C258 80 258 503 258 503 C258 559 283 563 333 563 C333 563 363 563 363 563 C363 563 363 583 363 583 L363 583 Z " />
<glyph glyph-name="LETTERSMALLCAPITALN" unicode="&#x274;" horiz-adv-x="726" d="M-14 563 C-14 563 23 563 23 563 C42 563 53 561 82 528 C82 528 82 528 82 528 C82 528 137 466 137 466 C137 466 136 150 136 150 C136 150 135 150 135 150 C135 29 103 20 40 20 C40 20 10 20 10 20 C10 20 10 0 10 0 C10 0 135 0 135 0 C135 0 176 0 176 0 C176 0 300 0 300 0 C300 0 300 20 300 20 C300 20 270 20 270 20 C212 20 180 27 175 111 C175 111 172 426 172 426 C172 426 413 150 413 150 C413 150 544 0 544 0 C544 0 571 0 571 0 C571 0 579 463 579 463 C579 463 579 463 579 463 C579 464 579 465 579 465 C579 465 579 481 579 481 C582 557 614 563 674 563 C674 563 704 563 704 563 C704 563 704 583 704 583 C704 583 581 583 581 583 C581 583 540 583 540 583 C540 583 416 583 416 583 C416 583 416 563 416 563 C416 563 446 563 446 563 C506 563 538 557 541 473 C541 473 543 156 543 156 C543 156 494 218 494 218 C494 218 202 583 202 583 C202 583 170 583 170 583 C170 583 137 583 137 583 C137 583 34 583 34 583 C34 583 -14 583 -14 583 C-14 583 -14 563 -14 563 L-14 563 Z " />
<glyph glyph-name="LETTERSMALLCAPITALR" unicode="&#x280;" horiz-adv-x="706" d="M31 563 C31 563 61 563 61 563 C111 563 136 558 136 498 C136 498 136 85 136 85 C136 25 111 20 61 20 C61 20 31 20 31 20 C31 20 31 0 31 0 C31 0 377 0 377 0 C377 0 377 20 377 20 C377 20 347 20 347 20 C297 20 272 25 272 85 C272 85 272 262 272 262 C272 262 284 262 284 262 C305 232 359 165 446 62 C501 -4 486 0 696 0 C696 0 696 27 696 27 C630 27 636 25 605 62 C518 165 459 235 427 272 C525 289 574 331 574 416 C574 527 478 583 289 583 C289 583 272 583 272 583 C272 583 31 583 31 583 C31 583 31 563 31 563 L31 563 Z M272 555 C373 550 424 513 424 442 C424 330 379 296 289 296 C289 296 272 296 272 296 C272 296 272 498 272 498 C272 498 272 555 272 555 L272 555 Z " />
<glyph glyph-name="LETTERSMALLCAPITALY" unicode="&#x28f;" horiz-adv-x="733" d="M320 583 C320 583 215 583 215 583 C215 583 55 583 55 583 C55 583 5 583 5 583 C5 583 5 563 5 563 C5 563 42 563 42 563 C60 563 74 556 144 462 C144 462 308 239 308 239 C308 239 308 80 308 80 C308 24 283 20 233 20 C233 20 203 20 203 20 C203 20 203 0 203 0 C203 0 549 0 549 0 C549 0 549 20 549 20 C549 20 519 20 519 20 C469 20 444 24 444 80 C444 80 444 243 444 243 C444 243 570 459 570 459 C628 556 651 563 685 563 C685 563 716 563 716 563 C716 563 716 583 716 583 C716 583 643 583 643 583 C643 583 575 583 575 583 C575 583 470 583 470 583 C470 583 470 563 470 563 C470 563 496 563 496 563 C534 563 556 559 543 518 C543 518 511 453 511 453 C511 453 511 453 511 453 C511 453 511 453 511 453 C511 453 429 285 429 285 C429 285 316 443 316 443 C316 443 316 443 316 443 C233 555 250 563 296 563 C296 563 320 563 320 563 C320 563 320 583 320 583 L320 583 Z " />
<glyph glyph-name="LETTERSMALLCAPITALB" unicode="&#x299;" horiz-adv-x="644" d="M31 0 C31 0 272 0 272 0 C272 0 392 0 392 0 C533 0 604 16 604 156 C604 239 563 289 482 305 C539 328 567 375 567 445 C567 537 543 583 331 583 C331 583 272 583 272 583 C272 583 31 583 31 583 C31 583 31 563 31 563 C31 563 61 563 61 563 C111 563 136 558 136 498 C136 498 136 85 136 85 C136 25 111 20 61 20 C61 20 31 20 31 20 C31 20 31 0 31 0 L31 0 Z M272 556 C272 556 277 556 277 556 C416 556 432 514 432 431 C432 351 410 311 365 311 C365 311 272 311 272 311 C272 311 272 498 272 498 C272 498 272 556 272 556 L272 556 Z M329 288 C413 288 455 244 455 156 C455 40 422 27 358 27 C358 27 308 27 308 27 C284 27 272 45 272 80 C272 80 272 85 272 85 C272 85 272 288 272 288 C272 288 329 288 329 288 L329 288 Z " />
<glyph glyph-name="LETTERSMALLCAPITALH" unicode="&#x29c;" horiz-adv-x="826" d="M786 583 C786 583 441 583 441 583 C441 583 441 563 441 563 C441 563 471 563 471 563 C521 563 546 559 546 503 C546 503 546 316 546 316 C546 316 308 316 308 316 C308 316 308 503 308 503 C308 559 333 563 383 563 C383 563 413 563 413 563 C413 563 413 583 413 583 C413 583 67 583 67 583 C67 583 67 563 67 563 C67 563 97 563 97 563 C147 563 172 559 172 503 C172 503 172 80 172 80 C172 24 147 20 97 20 C97 20 67 20 67 20 C67 20 67 0 67 0 C67 0 413 0 413 0 C413 0 413 20 413 20 C413 20 383 20 383 20 C333 20 308 24 308 80 C308 80 308 280 308 280 C308 280 546 280 546 280 C546 280 546 80 546 80 C546 24 521 20 471 20 C471 20 441 20 441 20 C441 20 441 0 441 0 C441 0 786 0 786 0 C786 0 786 20 786 20 C786 20 756 20 756 20 C706 20 681 24 681 80 C681 80 681 503 681 503 C681 559 706 563 756 563 C756 563 786 563 786 563 C786 563 786 583 786 583 L786 583 Z " />
<glyph glyph-name="LETTERSMALLCAPITALL" unicode="&#x29f;" horiz-adv-x="592" d="M518 23 C518 23 518 23 518 23 C532 78 547 131 561 185 C559 185 549 186 542 188 C542 188 534 158 534 158 C510 69 486 24 336 23 C336 23 258 42 258 80 C258 80 258 85 258 85 C258 85 258 498 258 498 C258 558 283 563 333 563 C333 563 363 563 363 563 C363 563 363 583 363 583 C363 583 258 583 258 583 C258 583 122 583 122 583 C122 583 17 583 17 583 C17 583 17 563 17 563 C17 563 47 563 47 563 C97 563 122 558 122 498 C122 498 122 85 122 85 C122 25 97 20 47 20 C47 20 17 20 17 20 C17 20 17 0 17 0 C17 0 122 0 122 0 C122 0 258 0 258 0 C258 0 327 0 327 0 C327 0 512 0 512 0 C512 0 518 23 518 23 L518 23 Z " />
<glyph glyph-name="LETTERSMALLCAPITALA" unicode="&#x1d00;" horiz-adv-x="761" d="M389 0 C389 0 524 0 524 0 C524 0 667 0 667 0 C667 0 754 0 754 0 C754 0 754 20 754 20 C754 20 724 20 724 20 C683 20 659 27 624 115 C624 115 463 550 463 550 C463 550 443 603 443 603 C443 603 429 603 429 603 C409 575 375 557 327 550 C327 550 331 539 331 539 C331 539 198 170 198 170 C198 170 198 170 198 170 C198 169 197 168 197 167 C197 167 188 141 188 141 C145 29 106 20 39 20 C39 20 9 20 9 20 C9 20 9 0 9 0 C9 0 137 0 137 0 C137 0 178 0 178 0 C178 0 343 0 343 0 C343 0 343 20 343 20 C343 20 319 20 319 20 C236 20 193 29 225 141 C225 141 246 205 246 205 C246 205 451 205 451 205 C451 205 480 124 480 124 C512 27 479 20 414 20 C414 20 389 20 389 20 C389 20 389 0 389 0 L389 0 Z M258 241 C258 241 345 500 345 500 C345 500 438 241 438 241 C438 241 258 241 258 241 L258 241 Z " />
<glyph glyph-name="LETTERSMALLCAPITALC" unicode="&#x1d04;" horiz-adv-x="694" d="M654 375 C654 375 654 495 654 495 C654 495 654 583 654 583 C654 583 639 583 639 583 C639 583 637 573 634 555 C633 549 612 553 570 568 C534 585 484 593 401 593 C161 593 40 492 40 292 C40 91 158 -10 392 -10 C469 -10 521 -2 560 14 C602 29 629 18 634 -1 C639 -21 642 -31 642 -31 C642 -31 654 -31 654 -31 C654 -31 654 88 654 88 C654 88 654 208 654 208 C654 208 639 208 639 208 C639 208 637 201 634 187 C620 124 564 51 483 30 C483 30 484 30 484 30 C462 24 436 21 405 21 C262 21 189 112 189 292 C189 469 265 559 415 559 C439 559 459 557 476 554 C561 536 618 463 634 396 C637 382 639 375 639 375 C639 375 654 375 654 375 L654 375 Z " />
<glyph glyph-name="LETTERSMALLCAPITALD" unicode="&#x1d05;" horiz-adv-x="814" d="M31 0 C31 0 136 0 136 0 C136 0 272 0 272 0 C272 0 328 0 328 0 C614 0 759 79 759 292 C759 485 650 583 356 583 C356 583 272 583 272 583 C272 583 136 583 136 583 C136 583 31 583 31 583 C31 583 31 563 31 563 C31 563 61 563 61 563 C111 563 136 558 136 498 C136 498 136 85 136 85 C136 25 111 20 61 20 C61 20 31 20 31 20 C31 20 31 0 31 0 L31 0 Z M272 556 C518 551 610 462 610 292 C610 98 502 27 287 27 C272 27 272 45 272 80 C272 80 272 85 272 85 C272 85 272 498 272 498 C272 498 272 556 272 556 L272 556 Z " />
<glyph glyph-name="LETTERSMALLCAPITALE" unicode="&#x1d07;" horiz-adv-x="619" d="M533 429 C529 480 526 532 522 583 C522 583 402 583 402 583 C402 583 272 583 272 583 C272 583 136 583 136 583 C136 583 31 583 31 583 C31 583 31 563 31 563 C31 563 61 563 61 563 C111 563 136 558 136 498 C136 498 136 85 136 85 C136 25 111 20 61 20 C61 20 31 20 31 20 C31 20 31 0 31 0 C31 0 136 0 136 0 C136 0 272 0 272 0 C272 0 427 0 427 0 C427 0 547 0 547 0 C553 50 562 102 568 154 C568 154 548 154 548 154 C548 154 544 124 544 124 C535 61 524 29 431 29 C431 29 352 29 352 29 C272 29 272 46 272 80 C272 80 272 85 272 85 C272 85 272 299 272 299 C272 299 342 299 342 299 C435 299 442 262 442 189 C442 189 442 159 442 159 C442 159 462 159 462 159 C462 159 462 299 462 299 C462 299 462 332 462 332 C462 332 462 472 462 472 C462 472 442 472 442 472 C442 472 442 442 442 442 C442 369 435 332 342 332 C342 332 272 332 272 332 C272 332 272 498 272 498 C272 498 272 554 272 554 C272 554 404 554 404 554 C516 554 506 518 511 447 C511 447 513 429 513 429 C513 429 533 429 533 429 L533 429 Z " />
<glyph glyph-name="LETTERSMALLCAPITALJ" unicode="&#x1d0a;" horiz-adv-x="402" d="M363 583 C363 583 17 583 17 583 C17 583 17 563 17 563 C17 563 47 563 47 563 C97 563 122 559 122 503 C122 503 122 -106 122 -106 C122 -167 80 -172 44 -172 C-32 -172 13 -58 -63 -58 C-106 -58 -127 -80 -127 -122 C-127 -187 -81 -220 11 -220 C126 -220 259 -194 258 150 C258 150 258 503 258 503 C258 559 283 563 333 563 C333 563 363 563 363 563 C363 563 363 583 363 583 L363 583 Z " />
<glyph glyph-name="LETTERSMALLCAPITALK" unicode="&#x1d0b;" horiz-adv-x="744" d="M729 20 C729 20 691 20 691 20 C660 20 624 48 596 84 C596 84 375 378 375 378 C375 378 491 515 491 515 C533 559 559 563 596 563 C596 563 626 563 626 563 C626 563 626 583 626 583 C626 583 548 583 548 583 C548 583 498 583 498 583 C498 583 377 583 377 583 C377 583 358 583 358 583 C358 583 272 583 272 583 C272 583 136 583 136 583 C136 583 31 583 31 583 C31 583 31 563 31 563 C31 563 61 563 61 563 C111 563 136 560 136 523 C136 523 136 60 136 60 C136 23 111 20 61 20 C61 20 31 20 31 20 C31 20 31 0 31 0 C31 0 136 0 136 0 C136 0 272 0 272 0 C272 0 377 0 377 0 C377 0 377 20 377 20 C377 20 347 20 347 20 C297 20 272 23 272 60 C272 60 272 292 272 292 C272 292 430 85 430 85 C430 85 430 85 430 85 C434 80 437 75 441 71 C441 71 495 0 495 0 C495 0 495 0 495 0 C495 0 495 0 495 0 C495 0 495 0 495 0 C495 0 659 0 659 0 C659 0 729 0 729 0 C729 0 729 20 729 20 L729 20 Z M358 563 C358 563 377 563 377 563 C377 563 380 563 380 563 C448 563 476 555 389 443 C389 443 389 443 389 443 C389 443 272 292 272 292 C272 292 272 523 272 523 C272 560 297 563 347 563 C347 563 358 563 358 563 L358 563 Z " />
<glyph glyph-name="LETTERSMALLCAPITALM" unicode="&#x1d0d;" horiz-adv-x="857" d="M32 563 C32 563 62 563 62 563 C102 563 127 560 150 529 C150 529 134 150 134 150 C134 150 134 150 134 150 C129 29 97 20 34 20 C34 20 4 20 4 20 C4 20 4 0 4 0 C4 0 128 0 128 0 C128 0 176 0 176 0 C176 0 301 0 301 0 C301 0 301 20 301 20 C301 20 271 20 271 20 C213 20 180 26 178 108 C178 108 183 466 183 466 C256 311 329 156 401 0 C401 0 435 0 435 0 C435 0 612 466 612 466 C612 466 624 85 624 85 C624 85 624 85 624 85 C626 25 600 20 549 20 C549 20 519 20 519 20 C519 20 519 0 519 0 C519 0 627 0 627 0 C627 0 762 0 762 0 C762 0 864 0 864 0 C864 0 864 20 864 20 C864 20 834 20 834 20 C785 20 761 25 759 85 C759 85 758 85 758 85 C758 85 744 414 744 414 C744 414 745 413 745 413 C740 553 765 563 813 563 C813 563 842 563 842 563 C842 563 842 583 842 583 C842 583 737 583 737 583 C737 583 656 583 656 583 C656 583 608 583 608 583 C608 583 467 185 467 185 C467 185 291 583 291 583 C291 583 185 583 185 583 C185 583 152 583 152 583 C152 583 128 583 128 583 C128 583 32 583 32 583 C32 583 32 563 32 563 L32 563 Z " />
<glyph glyph-name="LETTERSMALLCAPITALO" unicode="&#x1d0f;" horiz-adv-x="822" d="M395 26 C261 26 194 115 194 292 C194 468 260 557 391 557 C538 557 612 468 612 292 C612 115 539 26 395 26 L395 26 Z M38 292 C38 91 155 -10 388 -10 C640 -10 767 91 767 292 C767 492 643 593 398 593 C159 593 38 492 38 292 L38 292 Z " />
<glyph glyph-name="LETTERSMALLCAPITALP" unicode="&#x1d18;" horiz-adv-x="578" d="M65 563 C65 563 95 563 95 563 C145 563 170 558 170 498 C170 498 170 85 170 85 C170 25 145 20 95 20 C95 20 65 20 65 20 C65 20 65 0 65 0 C65 0 170 0 170 0 C170 0 306 0 306 0 C306 0 411 0 411 0 C411 0 411 20 411 20 C411 20 381 20 381 20 C331 20 306 25 306 85 C306 85 306 255 306 255 C306 255 341 255 341 255 C485 255 558 293 558 417 C558 527 497 583 376 583 C376 583 306 583 306 583 C306 583 170 583 170 583 C170 583 65 583 65 583 C65 583 65 563 65 563 L65 563 Z M306 284 C306 284 306 498 306 498 C306 498 306 560 306 560 C306 560 341 560 341 560 C401 560 431 519 431 439 C431 321 401 284 341 284 C341 284 306 284 306 284 L306 284 Z " />
<glyph glyph-name="LETTERSMALLCAPITALT" unicode="&#x1d1b;" horiz-adv-x="715" d="M37 444 C37 444 48 474 48 474 C66 524 82 549 175 549 C175 549 290 549 290 549 C290 549 290 80 290 80 C290 24 265 20 215 20 C215 20 185 20 185 20 C185 20 185 0 185 0 C185 0 530 0 530 0 C530 0 530 20 530 20 C530 20 500 20 500 20 C450 20 425 24 425 80 C425 80 425 549 425 549 C425 549 540 549 540 549 C633 549 649 524 667 474 C667 474 678 444 678 444 C678 444 697 446 697 446 C685 480 673 515 660 550 C660 550 660 583 660 583 C660 583 648 583 648 583 C643 596 638 610 633 623 C633 623 613 623 613 623 C613 623 618 610 618 610 C624 592 621 583 528 583 C528 583 425 583 425 583 C425 583 290 583 290 583 C290 583 187 583 187 583 C94 583 91 592 97 610 C97 610 102 623 102 623 C102 623 82 623 82 623 C77 610 72 596 67 583 C67 583 55 583 55 583 C55 583 55 550 55 550 C42 515 30 480 18 446 C18 446 37 444 37 444 L37 444 Z " />
<glyph glyph-name="LETTERSMALLCAPITALU" unicode="&#x1d1c;" horiz-adv-x="738" d="M383 563 C383 563 413 563 413 563 C463 563 488 558 488 498 C488 498 488 184 488 184 C455 113 404 78 335 78 C270 78 237 120 237 202 C237 202 237 498 237 498 C237 498 237 583 237 583 C237 583 -4 583 -4 583 C-4 583 -4 563 -4 563 C-4 563 26 563 26 563 C76 563 101 558 101 498 C101 498 101 202 101 202 C101 61 161 -10 281 -10 C377 -10 447 34 488 123 C488 123 488 110 488 110 C488 110 488 0 488 0 C488 0 509 0 509 0 C509 0 728 55 728 55 C728 55 728 65 728 65 C631 60 624 62 624 110 C624 110 624 498 624 498 C624 498 624 583 624 583 C624 583 383 583 383 583 C383 583 383 563 383 563 L383 563 Z " />
<glyph glyph-name="LETTERSMALLCAPITALV" unicode="&#x1d20;" horiz-adv-x="772" d="M382 583 C382 583 217 583 217 583 C217 583 61 583 61 583 C61 583 6 583 6 583 C6 583 6 563 6 563 C6 563 43 563 43 563 C62 563 72 560 92 523 C92 523 92 523 92 523 C92 523 257 206 257 206 C257 206 368 -10 368 -10 C368 -10 396 -10 396 -10 C396 -10 604 443 604 443 C604 443 604 443 604 443 C605 445 605 446 606 448 C606 448 627 493 627 493 C660 558 685 563 724 563 C724 563 754 563 754 563 C754 563 754 583 754 583 C754 583 668 583 668 583 C668 583 614 583 614 583 C614 583 449 583 449 583 C449 583 449 563 449 563 C449 563 472 563 472 563 C558 563 600 555 559 449 C559 449 458 206 458 206 C458 206 304 447 304 447 C249 555 284 563 360 563 C360 563 382 563 382 563 C382 563 382 583 382 583 L382 583 Z " />
<glyph glyph-name="LETTERSMALLCAPITALW" unicode="&#x1d21;" horiz-adv-x="1030" d="M1014 583 C1014 583 926 583 926 583 C926 583 870 583 870 583 C870 583 705 583 705 583 C705 583 705 563 705 563 C705 563 729 563 729 563 C819 563 862 555 829 443 C829 443 829 443 829 443 C829 443 758 197 758 197 C758 197 758 197 758 197 C758 197 603 473 603 473 C603 473 604 473 604 473 C559 557 592 563 664 563 C664 563 687 563 687 563 C687 563 687 583 687 583 C687 583 542 583 542 583 C542 583 385 583 385 583 C385 583 357 583 357 583 C357 583 300 583 300 583 C300 583 212 583 212 583 C212 583 63 583 63 583 C63 583 8 583 8 583 C8 583 8 563 8 563 C8 563 45 563 45 563 C64 563 77 555 133 443 C133 443 134 443 134 443 C210 292 286 141 361 -10 C361 -10 397 -10 397 -10 C397 -10 516 335 516 335 C577 220 638 105 698 -10 C698 -10 734 -10 734 -10 C734 -10 897 493 897 493 C923 558 946 563 984 563 C984 563 1014 563 1014 563 C1014 563 1014 583 1014 583 L1014 583 Z M332 563 C374 563 397 559 416 523 C416 523 417 523 417 523 C440 478 464 434 488 389 C488 389 487 389 487 389 C487 389 419 173 419 173 C419 173 272 463 272 463 C231 555 263 563 332 563 C332 563 332 563 332 563 L332 563 Z " />
<glyph glyph-name="LETTERSMALLCAPITALZ" unicode="&#x1d22;" horiz-adv-x="592" d="M172 0 C172 0 386 0 386 0 C386 0 546 0 546 0 C562 63 579 127 593 190 C591 190 582 193 574 193 C574 193 557 149 557 149 C533 85 512 49 436 40 C436 40 195 34 195 34 C195 34 550 555 550 555 C550 555 550 583 550 583 C550 583 417 583 417 583 C417 583 240 583 240 583 C240 583 70 583 70 583 C60 517 50 447 42 381 C47 380 65 378 67 377 C67 377 73 408 73 408 C91 496 109 543 220 547 C220 547 228 547 228 547 C230 547 233 547 235 547 C235 547 235 547 235 547 C235 547 394 551 394 551 C394 551 25 29 25 29 C25 29 25 0 25 0 C25 0 172 0 172 0 L172 0 Z " />
<glyph glyph-name="Wgrave" unicode="&#x1e80;" horiz-adv-x="1167" d="M1152 750 C1152 750 1063 750 1063 750 C1063 750 1001 750 1001 750 C1001 750 836 750 836 750 C836 750 836 730 836 730 C836 730 861 730 861 730 C951 730 994 722 964 610 C964 610 964 610 964 610 C964 610 862 219 862 219 C862 219 665 640 665 640 C665 640 666 640 666 640 C626 724 661 730 736 730 C736 730 759 730 759 730 C759 730 759 750 759 750 C759 750 614 750 614 750 C614 750 440 750 440 750 C440 750 369 750 369 750 C369 750 354 750 354 750 C354 750 224 750 224 750 C224 750 59 750 59 750 C59 750 3 750 3 750 C3 750 3 730 3 730 C3 730 40 730 40 730 C59 730 72 722 122 610 C122 610 122 610 122 610 C216 403 309 197 403 -10 C403 -10 442 -10 442 -10 C442 -10 590 436 590 436 C661 287 731 139 802 -10 C802 -10 842 -10 842 -10 C842 -10 1034 649 1034 649 C1059 724 1083 730 1122 730 C1122 730 1152 730 1152 730 C1152 730 1152 750 1152 750 L1152 750 Z M477 988 C452 1030 436 1051 427 1051 C386 1051 359 1024 359 983 C359 973 378 955 415 927 C415 927 562 811 562 811 C562 811 578 828 578 828 C578 828 477 988 477 988 L477 988 Z M354 730 C354 730 369 730 369 730 C369 730 384 730 384 730 C427 730 450 727 468 690 C468 690 469 690 469 690 C499 627 529 563 559 500 C559 500 559 500 559 500 C559 500 464 189 464 189 C464 189 464 191 464 191 C464 191 276 630 276 630 C238 723 274 730 346 730 C346 730 354 730 354 730 L354 730 Z " />
<glyph glyph-name="Wacute" unicode="&#x1e82;" horiz-adv-x="1167" d="M570 811 C570 811 716 927 716 927 C753 957 772 974 772 983 C772 1024 745 1051 705 1051 C697 1051 681 1030 654 988 C654 988 553 828 553 828 C553 828 570 811 570 811 L570 811 Z M1152 750 C1152 750 1063 750 1063 750 C1063 750 1001 750 1001 750 C1001 750 836 750 836 750 C836 750 836 730 836 730 C836 730 861 730 861 730 C951 730 994 722 964 610 C964 610 964 610 964 610 C964 610 862 219 862 219 C862 219 665 640 665 640 C665 640 666 640 666 640 C626 724 661 730 736 730 C736 730 759 730 759 730 C759 730 759 750 759 750 C759 750 614 750 614 750 C614 750 440 750 440 750 C440 750 369 750 369 750 C369 750 354 750 354 750 C354 750 224 750 224 750 C224 750 59 750 59 750 C59 750 3 750 3 750 C3 750 3 730 3 730 C3 730 40 730 40 730 C59 730 72 722 122 610 C122 610 122 610 122 610 C216 403 309 197 403 -10 C403 -10 442 -10 442 -10 C442 -10 590 436 590 436 C661 287 731 139 802 -10 C802 -10 842 -10 842 -10 C842 -10 1034 649 1034 649 C1059 724 1083 730 1122 730 C1122 730 1152 730 1152 730 C1152 730 1152 750 1152 750 L1152 750 Z M354 730 C354 730 369 730 369 730 C369 730 384 730 384 730 C427 730 450 727 468 690 C468 690 469 690 469 690 C499 627 529 563 559 500 C559 500 559 500 559 500 C559 500 464 189 464 189 C464 189 464 191 464 191 C464 191 276 630 276 630 C238 723 274 730 346 730 C346 730 354 730 354 730 L354 730 Z " />
<glyph glyph-name="Wdieresis" unicode="&#x1e84;" horiz-adv-x="1167" d="M645 865 C698 865 725 892 725 945 C725 998 698 1025 645 1025 C592 1025 565 998 565 945 C565 892 592 865 645 865 L645 865 Z M477 865 C530 865 557 892 557 945 C557 998 530 1025 477 1025 C424 1025 397 998 397 945 C397 892 424 865 477 865 L477 865 Z M1152 750 C1152 750 1063 750 1063 750 C1063 750 1001 750 1001 750 C1001 750 836 750 836 750 C836 750 836 730 836 730 C836 730 861 730 861 730 C951 730 994 722 964 610 C964 610 964 610 964 610 C964 610 862 219 862 219 C862 219 665 640 665 640 C665 640 666 640 666 640 C626 724 661 730 736 730 C736 730 759 730 759 730 C759 730 759 750 759 750 C759 750 614 750 614 750 C614 750 440 750 440 750 C440 750 369 750 369 750 C369 750 354 750 354 750 C354 750 224 750 224 750 C224 750 59 750 59 750 C59 750 3 750 3 750 C3 750 3 730 3 730 C3 730 40 730 40 730 C59 730 72 722 122 610 C122 610 122 610 122 610 C216 403 309 197 403 -10 C403 -10 442 -10 442 -10 C442 -10 590 436 590 436 C661 287 731 139 802 -10 C802 -10 842 -10 842 -10 C842 -10 1034 649 1034 649 C1059 724 1083 730 1122 730 C1122 730 1152 730 1152 730 C1152 730 1152 750 1152 750 L1152 750 Z M354 730 C354 730 369 730 369 730 C369 730 384 730 384 730 C427 730 450 727 468 690 C468 690 469 690 469 690 C499 627 529 563 559 500 C559 500 559 500 559 500 C559 500 464 189 464 189 C464 189 464 191 464 191 C464 191 276 630 276 630 C238 723 274 730 346 730 C346 730 354 730 354 730 L354 730 Z " />
<glyph glyph-name="CapitalLetterEWITHTI" unicode="&#x1ebc;" horiz-adv-x="690" d="M225 870 C225 904 237 921 261 921 C324 921 363 856 426 856 C492 856 525 908 525 1011 C525 1011 501 1011 501 1011 C501 971 486 951 457 951 C393 951 355 1016 292 1016 C232 1016 201 967 201 870 C201 870 225 870 225 870 L225 870 Z M604 593 C600 645 597 699 593 750 C593 750 473 750 473 750 C473 750 283 750 283 750 C283 750 132 750 132 750 C132 750 27 750 27 750 C27 750 27 730 27 730 C27 730 57 730 57 730 C107 730 132 725 132 665 C132 665 132 85 132 85 C132 25 107 20 57 20 C57 20 27 20 27 20 C27 20 27 0 27 0 C27 0 132 0 132 0 C132 0 283 0 283 0 C283 0 498 0 498 0 C498 0 618 0 618 0 C626 51 632 105 640 157 C640 157 620 157 620 157 C620 157 616 127 616 127 C607 64 596 32 503 32 C503 32 363 32 363 32 C283 32 283 48 283 80 C283 80 283 85 283 85 C283 85 283 385 283 385 C283 385 413 385 413 385 C506 385 513 348 513 275 C513 275 513 245 513 245 C513 245 533 245 533 245 C533 245 533 385 533 385 C533 385 533 421 533 421 C533 421 533 561 533 561 C533 561 513 561 513 561 C513 561 513 531 513 531 C513 458 506 421 413 421 C413 421 283 421 283 421 C283 421 283 665 283 665 C283 665 283 718 283 718 C283 718 475 718 475 718 C587 718 578 682 583 611 C583 611 584 593 584 593 C584 593 604 593 604 593 L604 593 Z " />
<glyph glyph-name="Ygrave" unicode="&#x1ef2;" horiz-adv-x="827" d="M334 750 C334 750 229 750 229 750 C229 750 50 750 50 750 C50 750 -1 750 -1 750 C-1 750 -1 730 -1 730 C-1 730 36 730 36 730 C52 730 65 724 113 657 C113 657 349 311 349 311 C349 311 349 80 349 80 C349 24 324 20 274 20 C274 20 244 20 244 20 C244 20 244 0 244 0 C244 0 604 0 604 0 C604 0 604 20 604 20 C604 20 574 20 574 20 C524 20 499 24 499 80 C499 80 499 316 499 316 C499 316 673 633 673 633 C725 723 747 730 780 730 C780 730 811 730 811 730 C811 730 811 750 811 750 C811 750 737 750 737 750 C737 750 662 750 662 750 C662 750 557 750 557 750 C557 750 557 730 557 730 C557 730 582 730 582 730 C623 730 645 725 628 677 C628 677 604 626 604 626 C603 624 602 622 601 620 C601 620 601 620 601 620 C601 620 483 365 483 365 C483 365 299 644 299 644 C249 724 268 730 309 730 C309 730 334 730 334 730 C334 730 334 750 334 750 L334 750 Z M340 988 C315 1030 300 1051 290 1051 C249 1051 222 1024 222 983 C222 973 241 955 279 927 C279 927 425 811 425 811 C425 811 442 828 442 828 C442 828 340 988 340 988 L340 988 Z " />
<glyph glyph-name="quoteleft" unicode="&#x2018;" horiz-adv-x="678" d="" />
<glyph glyph-name="quoteright" unicode="&#x2019;" horiz-adv-x="218" d="" />
<glyph glyph-name="quotedblleft" unicode="&#x201c;" horiz-adv-x="678" d="M311 640 C293 640 281 634 272 623 C273 693 299 735 351 749 C351 749 341 760 341 760 C269 741 232 686 232 596 C232 541 259 513 311 513 C354 513 375 534 375 576 C375 619 354 640 311 640 L311 640 Z " />
<glyph glyph-name="quotedblright" unicode="&#x201d;" horiz-adv-x="678" d="M350 650 C348 583 315 540 252 524 C252 524 263 513 263 513 C348 536 391 592 391 682 C391 734 364 760 311 760 C269 760 248 739 248 696 C248 654 269 633 311 633 C328 633 341 639 350 650 L350 650 Z " />
<glyph glyph-name="Euro" unicode="&#x20ac;" horiz-adv-x="831" d="M793 511 C793 511 793 635 793 635 C793 635 793 750 793 750 C793 750 778 750 778 750 C778 750 776 740 773 721 C770 703 746 697 703 720 C660 747 602 760 499 760 C273 760 138 672 99 497 C99 497 69 497 69 497 C69 497 55 400 55 400 C55 400 86 400 86 400 C86 392 86 383 86 375 C86 367 86 358 86 350 C86 350 55 350 55 350 C55 350 41 253 41 253 C41 253 98 253 98 253 C137 78 268 -10 489 -10 C585 -10 647 3 695 29 C695 29 695 29 695 29 C740 54 767 46 773 26 C778 6 781 -4 781 -4 C781 -4 793 -4 793 -4 C793 -4 793 115 793 115 C793 115 793 239 793 239 C793 239 778 239 778 239 C778 239 776 232 773 218 C767 193 754 166 735 140 C706 106 679 80 648 61 C639 56 629 50 619 46 C619 46 619 46 619 46 C587 32 550 25 503 25 C368 25 287 101 260 253 C260 253 544 253 544 253 C544 253 558 350 558 350 C558 350 251 350 251 350 C251 358 251 367 251 375 C251 383 251 392 251 400 C251 400 558 400 558 400 C558 400 571 497 571 497 C571 497 261 497 261 497 C289 647 373 722 514 722 C635 722 676 681 745 598 C758 576 768 553 773 532 C776 518 778 511 778 511 C778 511 793 511 793 511 L793 511 Z " />
<glyph glyph-name="LETTERSMALLCAPITALF" unicode="&#xa730;" horiz-adv-x="594" d="M452 154 C452 154 452 267 452 267 C452 267 452 299 452 299 C452 299 452 412 452 412 C452 412 440 412 440 412 C440 412 436 367 436 367 C432 322 423 299 332 299 C332 299 272 299 272 299 C272 299 272 498 272 498 C272 498 272 560 272 560 C272 560 324 560 324 560 C491 560 507 528 512 465 C512 465 515 435 515 435 C515 435 518 436 525 436 C531 437 535 438 535 438 C533 462 530 486 528 511 C528 511 522 583 522 583 C522 583 402 583 402 583 C402 583 272 583 272 583 C272 583 136 583 136 583 C136 583 31 583 31 583 C31 583 31 563 31 563 C31 563 61 563 61 563 C111 563 136 558 136 498 C136 498 136 85 136 85 C136 25 111 20 61 20 C61 20 31 20 31 20 C31 20 31 0 31 0 C31 0 136 0 136 0 C136 0 272 0 272 0 C272 0 377 0 377 0 C377 0 377 20 377 20 C377 20 347 20 347 20 C297 20 272 25 272 85 C272 85 272 267 272 267 C272 267 420 267 420 267 C430 251 433 228 436 200 C436 200 440 154 440 154 C440 154 452 154 452 154 L452 154 Z " />
<glyph glyph-name="LETTERSMALLCAPITALS" unicode="&#xa731;" horiz-adv-x="495" d="M418 399 C418 399 418 502 418 502 C418 502 418 593 418 593 C418 593 403 593 403 593 C403 593 401 583 398 565 C397 557 380 558 348 573 C348 573 348 573 348 573 C319 586 284 593 242 593 C119 593 57 535 57 422 C57 324 97 260 205 221 C309 183 347 155 347 128 C347 65 313 33 246 33 C236 33 226 34 216 35 C216 35 217 35 217 35 C140 44 84 122 67 194 C64 208 62 215 62 215 C62 215 47 215 47 215 C47 215 47 112 47 112 C47 112 47 -33 47 -33 C47 -33 62 -33 62 -33 C62 -33 64 -21 67 3 C70 25 96 35 140 12 C140 12 141 12 141 12 C171 -3 206 -10 246 -10 C385 -10 455 49 455 167 C455 256 410 317 286 362 C197 395 164 429 164 473 C164 530 190 559 242 559 C324 559 382 489 398 420 C401 406 403 399 403 399 C403 399 418 399 418 399 L418 399 Z " />
<glyph glyph-name="[namenotfound]" unicode="&#xf078;" horiz-adv-x="749" d="M723 583 C723 583 656 583 656 583 C656 583 594 583 594 583 C594 583 459 583 459 583 C459 583 459 563 459 563 C459 563 482 563 482 563 C541 563 567 555 495 460 C495 460 405 349 405 349 C405 349 336 443 336 443 C336 443 337 443 337 443 C255 555 278 563 336 563 C336 563 359 563 359 563 C359 563 359 583 359 583 C359 583 234 583 234 583 C234 583 74 583 74 583 C74 583 14 583 14 583 C14 583 14 563 14 563 C14 563 47 563 47 563 C73 563 92 556 157 468 C157 468 308 261 308 261 C308 261 183 111 183 111 C110 27 79 20 31 20 C31 20 1 20 1 20 C1 20 1 0 1 0 C1 0 89 0 89 0 C89 0 144 0 144 0 C144 0 329 0 329 0 C329 0 329 20 329 20 C329 20 307 20 307 20 C219 20 173 26 223 102 C223 102 326 236 326 236 C326 236 396 140 396 140 C396 140 396 140 396 140 C478 28 455 20 396 20 C396 20 373 20 373 20 C373 20 373 0 373 0 C373 0 498 0 498 0 C498 0 660 0 660 0 C660 0 730 0 730 0 C730 0 730 20 730 20 C730 20 699 20 699 20 C663 20 639 28 558 140 C558 140 558 140 558 140 C558 140 423 325 423 325 C423 325 503 413 503 413 C503 413 503 413 503 413 C504 414 505 416 506 417 C506 417 605 527 605 527 C642 559 665 563 692 563 C692 563 723 563 723 563 C723 563 723 583 723 583 L723 583 Z " />
</font>
</svg>
