<?xml version="1.0" encoding="UTF-8"?>
<svg xmlns="http://www.w3.org/2000/svg" xmlns:xlink="http://www.w3.org/1999/xlink" version="1.2" >
<font id="Aludra Extra Bold Italic">
<font-face  font-family="Aludra" units-per-em="1024" ascent="975" descent="-300" font-style="italic" font-weight="800" font-stretch="normal" cap-height="750" x-height="500" underline-position="0" underline-thickness="0" />
<missing-glyph  horiz-adv-x="472" d="M0 700 C0 700 432 700 432 700 C432 700 432 0 432 0 C432 0 0 0 0 0 C0 0 0 700 0 700 L0 700 Z M50 50 C50 50 382 50 382 50 C382 50 382 650 382 650 C382 650 50 650 50 650 C50 650 50 50 50 50 L50 50 Z " />
<glyph glyph-name="NULL" d="" />
<glyph glyph-name="CR" unicode="&#xd;" horiz-adv-x="256" d="" />
<glyph glyph-name="space" unicode="&#x20;" horiz-adv-x="250" d="" />
<glyph glyph-name="exclam" unicode="&#x21;" horiz-adv-x="305" d="M152 -5 C205 -5 237 22 246 75 C255 128 233 155 180 155 C127 155 95 128 86 75 C77 22 99 -5 152 -5 L152 -5 Z M286 755 C195 755 180 710 179 621 C179 621 177 210 177 210 C177 210 202 210 202 210 C202 210 345 621 345 621 C376 710 377 755 286 755 L286 755 Z " />
<glyph glyph-name="quotedbl" unicode="&#x22;" horiz-adv-x="325" d="M866 750 C820 750 814 735 819 705 C819 705 841 560 841 560 C841 560 857 560 857 560 C857 560 930 705 930 705 C945 735 945 750 898 750 C898 750 866 750 866 750 L866 750 Z " />
<glyph glyph-name="numbersign" unicode="&#x23;" horiz-adv-x="567" d="M512 648 C512 648 467 512 467 512 C467 512 341 512 341 512 C341 512 386 648 386 648 C386 648 334 648 334 648 C334 648 289 512 289 512 C289 512 163 512 163 512 C163 512 130 408 130 408 C130 408 254 408 254 408 C254 408 202 252 202 252 C202 252 74 252 74 252 C74 252 41 148 41 148 C41 148 167 148 167 148 C167 148 118 0 118 0 C118 0 171 0 171 0 C171 0 220 148 220 148 C220 148 345 148 345 148 C345 148 296 0 296 0 C296 0 349 0 349 0 C349 0 398 148 398 148 C398 148 510 148 510 148 C510 148 542 252 542 252 C542 252 433 252 433 252 C433 252 484 408 484 408 C484 408 605 408 605 408 C605 408 638 512 638 512 C638 512 519 512 519 512 C519 512 564 648 564 648 C564 648 512 648 512 648 L512 648 Z M306 408 C306 408 432 408 432 408 C432 408 380 252 380 252 C380 252 255 252 255 252 C255 252 306 408 306 408 L306 408 Z " />
<glyph glyph-name="dollar" unicode="&#x24;" horiz-adv-x="557" d="M438 825 C438 825 426 759 426 759 C419 760 412 760 404 760 C399 760 394 760 388 760 C388 760 400 825 400 825 C400 825 358 825 358 825 C358 825 346 756 346 756 C238 738 172 668 151 546 C130 429 160 352 266 304 C266 304 221 48 221 48 C215 50 209 52 204 55 C178 68 157 88 141 113 C132 128 125 146 119 165 C119 165 116 164 116 164 C109 184 104 205 101 225 C101 225 86 225 86 225 C75 165 70 134 70 134 C64 104 59 74 54 43 C54 43 69 43 69 43 C69 43 72 52 78 68 C80 74 102 63 141 32 C141 32 141 32 141 32 C161 16 185 4 212 -3 C212 -3 199 -75 199 -75 C199 -75 241 -75 241 -75 C241 -75 253 -9 253 -9 C260 -10 267 -10 275 -10 C280 -10 285 -10 291 -10 C291 -10 279 -75 279 -75 C279 -75 321 -75 321 -75 C321 -75 333 -6 333 -6 C458 10 531 84 555 212 C573 322 537 397 413 448 C413 448 460 711 460 711 C499 696 528 667 545 633 C546 630 547 628 548 625 C548 625 549 625 549 625 C556 611 561 595 563 580 C563 580 566 565 566 565 C566 565 581 565 581 565 C585 592 590 619 595 645 C595 645 600 672 609 726 C609 726 594 726 594 726 C594 726 591 719 586 706 C583 700 570 704 547 720 C526 737 499 748 468 754 C468 754 480 825 480 825 C480 825 438 825 438 825 L438 825 Z M420 721 C420 721 374 465 374 465 C361 471 350 477 340 483 C340 483 382 721 382 721 C387 722 392 722 397 722 C401 722 404 722 408 722 C412 722 416 721 420 721 C420 721 420 721 420 721 L420 721 Z M305 288 C318 283 330 278 340 272 C340 272 299 39 299 39 C294 38 289 38 284 38 C276 38 269 38 261 39 C261 39 305 288 305 288 L305 288 Z M379 251 C418 224 432 197 426 168 C415 106 387 66 343 48 C343 48 379 251 379 251 L379 251 Z M303 513 C279 539 272 569 279 603 C287 654 307 689 337 707 C337 707 303 513 303 513 L303 513 Z " />
<glyph glyph-name="ampersand" unicode="&#x26;" horiz-adv-x="322" d="M439 469 C555 507 618 554 628 609 C645 709 585 760 449 760 C329 760 258 704 239 592 C228 530 246 491 286 431 C156 384 80 305 61 195 C37 59 98 -10 243 -10 C335 -10 426 25 514 94 C514 94 526 76 526 76 C565 19 623 -10 698 -10 C780 -10 837 42 868 144 C868 144 845 152 845 152 C835 117 811 100 774 100 C718 100 679 116 657 148 C657 148 623 198 623 198 C693 276 761 377 827 500 C827 500 795 500 795 500 C733 385 668 295 600 231 C600 231 450 453 450 453 C446 458 443 464 439 469 C439 469 439 469 439 469 L439 469 Z M426 488 C380 556 358 596 370 663 C377 706 402 728 443 728 C506 728 531 691 518 617 C507 556 476 513 426 488 L426 488 Z M478 146 C434 125 390 115 344 115 C240 115 196 155 210 236 C224 321 254 380 298 412 C305 402 312 392 319 381 C319 381 478 146 478 146 L478 146 Z " />
<glyph glyph-name="quotesingle" unicode="&#x27;" horiz-adv-x="204" d="" />
<glyph glyph-name="parenleft" unicode="&#x28;" horiz-adv-x="520" d="M454 760 C255 640 136 476 100 273 C66 80 125 -84 275 -214 C275 -214 286 -199 286 -199 C186 -112 156 46 196 273 C237 505 326 664 459 745 C459 745 454 760 454 760 L454 760 Z " />
<glyph glyph-name="parenright" unicode="&#x29;" horiz-adv-x="520" d="M153 744 C259 666 292 508 250 273 C208 34 122 -124 -6 -199 C-6 -199 -1 -214 -1 -214 C192 -102 309 62 346 273 C383 481 322 644 164 760 C164 760 153 744 153 744 L153 744 Z " />
<glyph glyph-name="asterisk" unicode="&#x2a;" horiz-adv-x="300" d="M134 630 C134 630 25 606 25 606 C2 600 -2 582 16 552 C33 523 50 516 67 534 C67 534 142 616 142 616 C142 616 109 510 109 510 C102 487 115 475 150 475 C185 475 198 487 191 510 C191 510 158 616 158 616 C158 616 233 534 233 534 C250 516 267 523 284 552 C302 582 298 600 275 606 C275 606 166 630 166 630 C166 630 275 654 275 654 C298 660 302 678 284 707 C267 737 250 744 233 726 C233 726 158 644 158 644 C158 644 191 750 191 750 C198 773 185 785 150 785 C115 785 102 773 109 750 C109 750 142 644 142 644 C142 644 67 726 67 726 C50 744 33 737 16 707 C-2 678 2 660 25 654 C25 654 134 630 134 630 L134 630 Z " />
<glyph glyph-name="plus" unicode="&#x2b;" horiz-adv-x="620" d="M339 460 C339 460 310 298 310 298 C310 298 152 298 152 298 C152 298 136 202 136 202 C136 202 294 202 294 202 C294 202 265 40 265 40 C265 40 369 40 369 40 C369 40 398 202 398 202 C398 202 556 202 556 202 C556 202 572 298 572 298 C572 298 415 298 415 298 C415 298 444 460 444 460 C444 460 339 460 339 460 L339 460 Z " />
<glyph glyph-name="comma" unicode="&#x2c;" horiz-adv-x="269" d="M144 -2 C143 -10 142 -19 140 -28 C133 -67 103 -86 50 -86 C50 -86 44 -118 44 -118 C134 -118 187 -72 203 20 C215 83 195 115 145 115 C105 115 82 95 75 55 C68 15 84 -5 124 -5 C131 -5 138 -4 144 -2 C144 -2 144 -2 144 -2 L144 -2 Z " />
<glyph glyph-name="hyphen" unicode="&#x2d;" horiz-adv-x="430" d="M121 232 C121 232 391 232 391 232 C391 232 410 338 410 338 C410 338 140 338 140 338 C140 338 121 232 121 232 L121 232 Z " />
<glyph glyph-name="period" unicode="&#x2e;" horiz-adv-x="195" d="M124 -5 C177 -5 209 22 218 75 C228 128 205 155 152 155 C99 155 68 128 58 75 C49 22 71 -5 124 -5 L124 -5 Z " />
<glyph glyph-name="slash" unicode="&#x2f;" horiz-adv-x="403" d="M430 770 C430 770 -2 -80 -2 -80 C-2 -80 78 -80 78 -80 C78 -80 509 770 509 770 C509 770 430 770 430 770 L430 770 Z " />
<glyph glyph-name="zero" unicode="0" horiz-adv-x="615" d="M313 46 C192 46 123 114 147 250 C168 372 251 454 385 454 C506 454 575 386 551 250 C530 128 447 46 313 46 L313 46 Z M83 250 C53 77 144 -10 303 -10 C480 -10 588 95 615 250 C645 423 554 510 395 510 C218 510 111 405 83 250 L83 250 Z " />
<glyph glyph-name="one" unicode="1" horiz-adv-x="355" d="M404 500 C404 500 128 500 128 500 C127 490 125 488 125 480 C125 480 135 480 135 480 C175 480 194 479 192 465 C192 465 116 35 116 35 C114 21 94 20 54 20 C54 20 44 20 44 20 C43 16 41 2 40 0 C40 0 316 0 316 0 C316 0 319 20 319 20 C319 20 308 20 308 20 C269 20 249 21 251 35 C251 35 327 465 327 465 C329 479 350 480 389 480 C389 480 400 480 400 480 C401 484 403 498 404 500 L404 500 Z " />
<glyph glyph-name="two" unicode="2" horiz-adv-x="561" d="M120 289 C150 370 207 411 290 411 C363 411 394 379 383 317 C361 193 228 114 34 24 C34 24 30 0 30 0 C30 0 283 0 283 0 C283 0 438 0 438 0 C438 0 497 73 497 73 C520 103 544 131 567 161 C565 162 564 162 551 166 C551 166 542 155 542 155 C524 132 507 120 404 120 C404 120 272 120 272 120 C417 200 510 273 523 348 C542 456 492 510 375 510 C241 510 146 438 93 294 C93 294 120 289 120 289 L120 289 Z " />
<glyph glyph-name="three" unicode="3" horiz-adv-x="471" d="M-21 -205 C-21 -205 -21 -232 -21 -232 C258 -203 411 -119 435 20 C457 142 414 212 309 227 C398 276 448 325 459 388 C474 469 424 510 312 510 C200 510 122 457 80 352 C80 352 107 344 107 344 C127 391 171 415 241 415 C293 415 316 390 307 342 C292 256 238 214 138 175 C138 175 133 148 133 148 C251 131 302 75 286 -18 C267 -124 164 -187 -21 -205 L-21 -205 Z " />
<glyph glyph-name="four" unicode="4" horiz-adv-x="620" d="M642 149 C642 149 622 149 622 149 C622 149 619 138 619 138 C611 115 600 103 498 103 C498 103 433 103 433 103 C459 245 484 387 508 530 C508 530 491 530 491 530 C491 530 19 24 19 24 C19 24 15 0 15 0 C15 0 280 0 280 0 C280 0 241 -220 241 -220 C241 -220 376 -220 376 -220 C389 -147 402 -73 415 0 C415 0 515 0 515 0 C571 0 572 -9 566 -28 C566 -28 563 -39 563 -39 C563 -39 583 -39 583 -39 C603 24 622 87 642 149 L642 149 Z M156 103 C156 103 334 296 334 296 C334 296 332 293 332 293 C332 293 298 103 298 103 C298 103 156 103 156 103 C156 103 156 103 156 103 L156 103 Z " />
<glyph glyph-name="five" unicode="5" horiz-adv-x="446" d="M19 -236 C261 -208 397 -110 426 54 C454 211 360 290 147 290 C147 290 132 290 132 290 C132 290 162 379 162 379 C162 379 413 383 413 383 C433 435 451 488 469 540 C469 540 449 540 449 540 C439 509 437 500 335 500 C335 500 158 500 158 500 C158 500 44 169 44 169 C44 169 65 148 65 148 C65 148 107 148 107 148 C251 148 316 101 300 9 C277 -118 184 -192 20 -211 C20 -211 19 -236 19 -236 L19 -236 Z " />
<glyph glyph-name="six" unicode="6" horiz-adv-x="570" d="M682 750 C329 678 130 526 90 298 C54 93 118 -10 282 -10 C436 -10 528 73 557 238 C584 392 530 470 395 470 C348 470 308 457 277 431 C356 591 492 691 684 730 C684 730 682 750 682 750 L682 750 Z M212 226 C236 362 290 430 373 430 C428 430 445 368 423 245 C398 102 350 29 281 29 C212 29 189 95 212 226 L212 226 Z " />
<glyph glyph-name="seven" unicode="7" horiz-adv-x="465" d="M35 345 C35 345 55 345 55 345 C55 345 60 354 60 354 C76 379 87 391 133 391 C133 391 448 391 448 391 C448 391 62 -220 62 -220 C62 -220 166 -220 166 -220 C166 -220 546 485 546 485 C546 485 549 500 549 500 C549 500 233 500 233 500 C157 500 156 508 165 522 C165 522 171 532 171 532 C171 532 151 532 151 532 C112 469 74 408 35 345 L35 345 Z " />
<glyph glyph-name="eight" unicode="8" horiz-adv-x="540" d="M258 350 C268 345 279 340 290 335 C392 291 443 259 421 137 C408 61 356 22 268 22 C190 22 159 73 177 174 C191 256 219 315 258 350 L258 350 Z M223 373 C129 323 74 256 59 174 C38 52 106 -10 262 -10 C419 -10 511 59 535 197 C558 328 519 381 433 427 C521 473 571 530 582 599 C601 706 539 760 396 760 C259 760 178 698 156 575 C140 481 163 418 223 373 C223 373 223 373 223 373 L223 373 Z M396 445 C385 450 374 455 363 460 C290 492 258 540 273 626 C285 694 325 728 391 728 C457 728 482 681 465 587 C454 523 431 476 396 445 C396 445 396 445 396 445 L396 445 Z " />
<glyph glyph-name="nine" unicode="9" horiz-adv-x="570" d="M-24 -250 C330 -178 528 -26 568 202 C605 407 540 510 376 510 C223 510 130 427 101 262 C74 108 128 30 263 30 C310 30 350 43 381 69 C302 -91 166 -191 -26 -230 C-26 -230 -24 -250 -24 -250 L-24 -250 Z M446 274 C422 138 368 70 285 70 C230 70 213 132 235 255 C260 398 308 471 377 471 C446 471 469 405 446 274 L446 274 Z " />
<glyph glyph-name="colon" unicode="&#x3a;" horiz-adv-x="135" d="M193 385 C246 385 278 412 287 465 C296 518 274 545 221 545 C168 545 136 518 127 465 C118 412 140 385 193 385 L193 385 Z M124 -5 C177 -5 209 22 218 75 C228 128 205 155 152 155 C99 155 68 128 58 75 C49 22 71 -5 124 -5 L124 -5 Z " />
<glyph glyph-name="semicolon" unicode="&#x3b;" horiz-adv-x="269" d="M193 385 C246 385 278 412 287 465 C296 518 274 545 221 545 C168 545 136 518 127 465 C118 412 140 385 193 385 L193 385 Z M144 -2 C143 -10 142 -19 140 -28 C133 -67 103 -86 50 -86 C50 -86 44 -118 44 -118 C134 -118 187 -72 203 20 C215 83 195 115 145 115 C105 115 82 95 75 55 C68 15 84 -5 124 -5 C131 -5 138 -4 144 -2 C144 -2 144 -2 144 -2 L144 -2 Z " />
<glyph glyph-name="equal" unicode="&#x3d;" horiz-adv-x="541" d="M132 230 C132 230 121 170 121 170 C121 170 501 170 501 170 C501 170 512 230 512 230 C512 230 132 230 132 230 L132 230 Z M149 330 C149 330 139 270 139 270 C139 270 519 270 519 270 C519 270 529 330 529 330 C529 330 149 330 149 330 L149 330 Z " />
<glyph glyph-name="question" unicode="&#x3f;" horiz-adv-x="292" d="M124 -5 C177 -5 209 22 218 75 C228 128 205 155 152 155 C99 155 68 128 58 75 C49 22 71 -5 124 -5 L124 -5 Z M175 260 C175 260 188 360 188 360 C305 360 326 384 367 432 C393 463 411 506 420 558 C444 692 397 760 279 760 C195 760 146 726 134 660 C127 616 147 594 196 594 C232 594 267 617 303 617 C361 617 386 592 378 542 C376 533 366 518 348 497 C316 459 299 440 175 440 C175 440 151 260 151 260 C151 260 175 260 175 260 L175 260 Z " />
<glyph glyph-name="at" unicode="&#x40;" horiz-adv-x="1189" d="M1038 0 C938 -155 785 -233 581 -233 C275 -233 149 -68 206 259 C264 586 439 751 727 751 C1016 751 1138 614 1090 343 C1052 123 975 12 863 12 C796 12 789 75 843 200 C843 200 962 480 962 480 C962 480 834 480 834 480 C834 480 810 424 810 424 C798 468 757 490 687 490 C472 490 345 388 309 185 C288 63 339 1 461 1 C557 1 632 28 683 82 C680 4 729 -35 830 -35 C1029 -35 1151 92 1195 343 C1247 639 1093 788 734 788 C376 788 164 610 101 259 C40 -92 198 -270 574 -270 C797 -270 967 -179 1083 0 C1083 0 1038 0 1038 0 L1038 0 Z M781 356 C781 356 715 200 715 200 C680 118 623 76 544 76 C474 76 446 121 462 211 C490 372 563 453 677 453 C758 453 793 420 781 356 L781 356 Z " />
<glyph glyph-name="A" unicode="A" horiz-adv-x="804" d="M476 0 C476 0 571 0 571 0 C571 0 729 0 729 0 C729 0 789 0 789 0 C789 2 792 12 792 20 C792 20 769 20 769 20 C742 20 726 27 711 110 C711 110 614 702 614 702 C614 702 603 770 603 770 C603 770 588 770 588 770 C554 732 513 709 463 702 C463 702 465 692 465 692 C465 692 464 692 464 692 C464 692 199 170 199 170 C199 170 199 170 199 170 C196 164 193 158 190 153 C190 153 187 146 187 146 C127 29 97 20 51 20 C51 20 28 20 28 20 C27 10 25 8 25 0 C25 0 113 0 113 0 C113 0 158 0 158 0 C158 0 274 0 274 0 C275 4 277 18 278 20 C278 20 257 20 257 20 C197 20 173 30 241 170 C241 170 241 170 241 170 C241 170 289 269 289 269 C289 269 530 269 530 269 C530 269 549 140 549 140 C549 140 549 140 549 140 C566 28 545 20 500 20 C500 20 479 20 479 20 C478 10 476 8 476 0 C476 0 476 0 476 0 L476 0 Z M308 308 C308 308 472 644 472 644 C472 644 524 308 524 308 C524 308 308 308 308 308 L308 308 Z " />
<glyph glyph-name="B" unicode="B" horiz-adv-x="740" d="M50 0 C50 0 275 0 275 0 C275 0 275 2 278 16 C278 16 275 0 275 0 C275 0 395 0 395 0 C598 0 705 21 736 199 C754 304 706 368 591 390 C687 418 744 478 760 571 C781 690 760 750 492 750 C492 750 407 750 407 750 C407 750 402 720 402 720 C402 720 426 719 426 719 C614 719 626 664 607 556 C589 451 532 398 438 398 C438 398 345 398 345 398 C345 398 392 665 392 665 C406 744 407 750 407 750 C407 750 182 750 182 750 C182 750 179 730 179 730 C179 730 190 730 190 730 C232 730 252 725 241 665 C241 665 139 85 139 85 C128 25 106 20 64 20 C64 20 54 20 54 20 C53 16 51 2 50 0 L50 0 Z M388 372 C529 372 590 314 570 199 C543 47 480 30 362 30 C362 30 312 30 312 30 C292 30 284 45 288 74 C289 77 289 81 290 85 C290 85 340 372 340 372 C340 372 388 372 388 372 L388 372 Z M289 78 C289 79 289 79 289 80 C289 80 289 78 289 78 L289 78 Z " />
<glyph glyph-name="C" unicode="C" horiz-adv-x="781" d="M838 536 C838 536 853 626 853 626 C853 626 854 629 855 635 C855 635 855 635 855 635 C855 635 855 635 855 635 C857 648 862 675 869 715 C869 715 854 715 854 715 C854 715 851 708 846 695 C843 689 822 694 785 717 C746 746 690 760 583 760 C309 760 147 631 102 375 C57 119 170 -10 437 -10 C533 -10 597 3 650 29 C650 29 650 29 650 29 C650 29 691 41 732 52 C738 54 739 47 736 31 C736 31 748 31 748 31 C753 59 758 87 763 115 C763 115 763 115 763 115 C763 115 763 115 763 115 C763 118 764 120 764 123 C765 123 770 153 780 214 C780 214 765 214 765 214 C766 214 763 209 758 199 C751 185 739 169 725 153 C725 153 724 154 724 154 C680 111 643 79 602 57 C594 53 585 49 577 46 C577 46 577 46 577 46 C543 32 505 25 458 25 C290 25 226 142 268 375 C308 606 417 722 592 722 C714 722 746 680 802 596 C802 596 805 598 805 598 C813 583 818 566 820 551 C820 551 823 536 823 536 C823 536 838 536 838 536 L838 536 Z " />
<glyph glyph-name="D" unicode="D" horiz-adv-x="885" d="M39 0 C39 0 113 0 113 0 C113 0 264 0 264 0 C264 0 344 0 344 0 C667 0 848 101 896 375 C940 624 842 750 516 750 C516 750 396 750 396 750 C396 750 391 720 391 720 C683 720 771 604 730 375 C686 123 547 30 304 30 C275 30 272 42 275 64 C276 71 278 77 279 85 C279 85 279 85 279 85 C279 85 388 703 388 703 C395 746 396 750 396 750 C396 750 245 750 245 750 C245 750 171 750 171 750 C171 750 168 730 168 730 C168 730 179 730 179 730 C221 730 241 725 230 665 C230 665 230 665 230 665 C230 665 127 82 127 82 C116 25 94 20 53 20 C53 20 43 20 43 20 C42 16 40 2 39 0 C39 0 39 0 39 0 L39 0 Z " />
<glyph glyph-name="E" unicode="E" horiz-adv-x="661" d="M673 630 C673 630 693 630 693 630 C696 650 698 670 700 690 C700 690 706 750 706 750 C706 750 586 750 586 750 C586 750 396 750 396 750 C396 750 245 750 245 750 C245 750 171 750 171 750 C171 750 168 730 168 730 C168 730 179 730 179 730 C221 730 241 725 230 665 C230 665 230 665 230 665 C230 665 127 82 127 82 C116 25 94 20 53 20 C53 20 43 20 43 20 C42 16 40 2 39 0 C39 0 113 0 113 0 C113 0 264 0 264 0 C264 0 479 0 479 0 C479 0 599 0 599 0 C611 40 625 80 637 120 C637 120 617 120 617 120 C617 120 613 109 613 109 C597 58 582 32 489 32 C489 32 349 32 349 32 C281 32 273 44 276 68 C277 73 278 79 279 85 C279 85 279 85 279 85 C279 85 336 411 336 411 C336 411 332 385 332 385 C332 385 462 385 462 385 C561 385 557 350 544 287 C544 287 564 287 564 287 C578 362 593 443 605 519 C605 519 585 519 585 519 C585 519 584 509 584 509 C573 450 561 421 468 421 C468 421 338 421 338 421 C338 421 388 703 388 703 C389 709 390 714 390 718 C390 718 583 718 583 718 C699 718 680 689 673 630 C673 630 673 630 673 630 L673 630 Z " />
<glyph glyph-name="F" unicode="F" horiz-adv-x="636" d="M676 637 C676 637 686 637 686 637 C693 638 696 638 696 638 C700 675 704 713 706 750 C706 750 586 750 586 750 C586 750 396 750 396 750 C396 750 245 750 245 750 C245 750 171 750 171 750 C171 750 168 730 168 730 C168 730 179 730 179 730 C221 730 241 725 230 665 C230 665 230 665 230 665 C230 665 127 82 127 82 C116 25 94 20 53 20 C53 20 43 20 43 20 C42 16 40 2 39 0 C39 0 113 0 113 0 C113 0 264 0 264 0 C264 0 338 0 338 0 C338 0 341 20 341 20 C341 20 330 20 330 20 C289 20 268 25 279 85 C279 85 279 85 279 85 C279 85 325 349 325 349 C325 349 542 349 542 349 C544 340 544 328 543 315 C543 315 542 283 542 283 C542 283 554 283 554 283 C554 283 569 367 569 367 C574 395 579 423 583 451 C583 451 571 451 571 451 C571 451 562 419 562 419 C555 396 545 385 452 385 C452 385 332 385 332 385 C332 385 329 372 329 372 C329 372 388 703 388 703 C395 746 396 750 396 750 C396 750 392 724 392 724 C392 724 504 724 504 724 C679 724 682 699 676 637 L676 637 Z " />
<glyph glyph-name="G" unicode="G" horiz-adv-x="841" d="M838 536 C838 536 853 626 853 626 C853 626 854 629 855 635 C855 635 855 635 855 635 C855 635 855 635 855 635 C857 648 862 675 869 715 C869 715 854 715 854 715 C854 715 851 708 846 695 C843 689 822 694 785 717 C746 746 690 760 583 760 C309 760 147 631 102 375 C57 119 174 -10 450 -10 C620 -10 700 13 804 58 C804 58 798 79 798 79 C775 69 752 61 728 53 C728 53 762 245 762 245 C772 301 789 305 822 305 C822 305 832 305 832 305 C833 305 836 325 836 325 C836 325 555 325 555 325 C554 315 552 313 552 305 C552 305 562 305 562 305 C602 305 621 301 611 245 C611 245 595 149 595 149 C577 68 535 27 470 27 C294 27 227 144 268 375 C308 606 417 722 592 722 C714 722 746 680 802 596 C802 596 805 598 805 598 C813 583 818 566 820 551 C820 551 823 536 823 536 C823 536 838 536 838 536 L838 536 Z " />
<glyph glyph-name="H" unicode="H" horiz-adv-x="873" d="M954 750 C954 750 655 750 655 750 C654 740 652 738 652 730 C652 730 662 730 662 730 C704 730 725 726 715 670 C715 670 668 403 668 403 C668 403 371 403 371 403 C371 403 418 670 418 670 C428 726 450 730 492 730 C492 730 502 730 502 730 C503 730 506 750 506 750 C506 750 207 750 207 750 C207 750 204 730 204 730 C204 730 215 730 215 730 C257 730 277 726 267 670 C267 670 163 80 163 80 C153 24 131 20 89 20 C89 20 79 20 79 20 C78 16 76 2 75 0 C75 0 374 0 374 0 C374 0 377 20 377 20 C377 20 366 20 366 20 C325 20 304 24 314 80 C314 80 364 363 364 363 C364 363 661 363 661 363 C661 363 611 80 611 80 C601 24 579 20 537 20 C537 20 526 20 526 20 C526 18 526 8 523 0 C523 0 821 0 821 0 C822 4 824 18 825 20 C825 20 814 20 814 20 C773 20 752 24 762 80 C762 80 866 670 866 670 C876 726 898 730 939 730 C939 730 950 730 950 730 C950 730 953 750 954 750 L954 750 Z " />
<glyph glyph-name="I" unicode="I" horiz-adv-x="371" d="M452 750 C452 750 154 750 154 750 C153 750 150 730 150 730 C150 730 161 730 161 730 C203 730 223 726 213 670 C213 670 109 80 109 80 C99 24 77 20 36 20 C36 20 25 20 25 20 C24 16 22 2 21 0 C21 0 320 0 320 0 C320 2 323 12 323 20 C323 20 313 20 313 20 C271 20 250 24 260 80 C260 80 364 670 364 670 C374 726 396 730 438 730 C438 730 449 730 449 730 C449 730 452 750 452 750 L452 750 Z " />
<glyph glyph-name="J" unicode="J" horiz-adv-x="371" d="M452 750 C452 750 154 750 154 750 C153 750 150 730 150 730 C150 730 161 730 161 730 C203 730 223 726 213 670 C213 670 74 -121 74 -121 C66 -164 19 -167 -22 -167 C-107 -167 -34 -40 -119 -40 C-166 -40 -194 -64 -203 -111 C-215 -184 -170 -220 -69 -220 C60 -220 213 -193 275 165 C275 165 364 670 364 670 C374 726 396 730 438 730 C438 730 449 730 449 730 C449 730 452 750 452 750 L452 750 Z " />
<glyph glyph-name="K" unicode="K" horiz-adv-x="807" d="M790 20 C790 20 762 20 762 20 C743 20 719 42 699 72 C699 72 463 468 463 468 C463 468 687 687 687 687 C732 726 750 730 775 730 C775 730 798 730 798 730 C799 730 802 750 802 750 C802 750 752 750 752 750 C752 750 692 750 692 750 C692 750 594 750 594 750 C593 750 590 730 590 730 C590 730 609 730 609 730 C649 730 664 723 571 624 C571 624 330 375 330 375 C330 375 387 698 387 698 C395 727 417 730 456 730 C456 730 466 730 466 730 C467 730 470 750 470 750 C470 750 396 750 396 750 C396 750 245 750 245 750 C245 750 171 750 171 750 C171 750 168 730 168 730 C168 730 179 730 179 730 C217 730 237 727 236 699 C236 699 122 52 122 52 C114 23 92 20 53 20 C53 20 43 20 43 20 C42 16 40 2 39 0 C39 0 113 0 113 0 C113 0 264 0 264 0 C264 0 338 0 338 0 C338 0 341 20 341 20 C341 20 330 20 330 20 C292 20 272 23 273 51 C273 51 330 375 330 375 C330 375 497 85 497 85 C497 85 497 85 497 85 C547 -2 546 0 546 0 C546 0 742 0 742 0 C742 0 786 0 786 0 C787 4 789 18 790 20 C790 20 790 20 790 20 L790 20 Z " />
<glyph glyph-name="L" unicode="L" horiz-adv-x="670" d="M55 0 C55 0 129 0 129 0 C129 0 280 0 280 0 C280 0 288 47 288 47 C289 53 291 61 292 69 C292 69 285 26 285 26 C285 26 280 0 280 0 C280 0 423 0 423 0 C423 0 608 0 608 0 C608 0 615 0 615 0 C615 0 620 26 620 26 C620 26 619 26 619 26 C636 64 653 101 670 139 C668 139 658 140 651 142 C651 142 646 131 646 131 C615 61 588 26 435 26 C435 26 365 26 365 26 C291 26 288 41 293 72 C293 76 294 81 295 85 C295 85 295 85 295 85 C295 85 398 668 398 668 C409 725 431 730 472 730 C472 730 483 730 483 730 C483 730 486 750 486 750 C486 750 412 750 412 750 C412 750 261 750 261 750 C261 750 188 750 188 750 C187 750 184 730 184 730 C184 730 195 730 195 730 C237 730 257 725 246 665 C246 665 246 665 246 665 C246 665 143 82 143 82 C132 25 110 20 70 20 C70 20 59 20 59 20 C58 16 56 2 55 0 C55 0 55 0 55 0 L55 0 Z " />
<glyph glyph-name="M" unicode="M" horiz-adv-x="946" d="M171 730 C171 730 194 730 194 730 C221 730 238 727 251 694 C251 694 132 118 132 118 C108 27 86 20 47 20 C47 20 24 20 24 20 C23 16 21 2 20 0 C20 0 107 0 107 0 C107 0 160 0 160 0 C160 0 248 0 248 0 C249 4 251 18 252 20 C252 20 229 20 229 20 C184 20 163 28 187 140 C187 140 186 140 186 140 C186 140 274 608 274 608 C323 405 371 202 421 0 C421 0 458 0 458 0 C458 0 773 606 773 606 C773 606 693 78 693 78 C683 25 661 20 620 20 C620 20 609 20 609 20 C608 16 606 2 605 0 C605 0 681 0 681 0 C681 0 832 0 832 0 C832 0 903 0 903 0 C904 4 906 18 907 20 C907 20 896 20 896 20 C857 20 837 24 843 75 C843 75 915 580 915 580 C915 580 915 580 915 580 C936 720 954 730 986 730 C986 730 1009 730 1009 730 C1010 740 1012 742 1012 750 C1012 750 939 750 939 750 C939 750 848 750 848 750 C848 750 795 750 795 750 C795 750 519 196 519 196 C519 196 421 750 421 750 C421 750 301 750 301 750 C301 750 263 750 263 750 C263 750 240 750 240 750 C240 750 174 750 174 750 C174 750 171 730 171 730 L171 730 Z " />
<glyph glyph-name="N" unicode="N" horiz-adv-x="774" d="M106 730 C106 730 132 730 132 730 C143 730 150 729 165 709 C165 709 228 608 228 608 C228 608 143 133 143 133 C122 28 99 20 58 20 C58 20 35 20 35 20 C34 10 32 8 32 0 C32 0 119 0 119 0 C119 0 165 0 165 0 C165 0 252 0 252 0 C253 4 255 18 256 20 C256 20 233 20 233 20 C194 20 173 26 183 105 C183 105 259 558 259 558 C259 558 473 214 473 214 C473 214 607 0 607 0 C607 0 637 0 637 0 C637 0 758 630 758 630 C758 630 758 630 758 630 C758 631 758 632 758 632 C758 632 761 646 761 646 C777 724 804 730 853 730 C853 730 863 730 863 730 C864 730 867 750 867 750 C867 750 781 750 781 750 C781 750 736 750 736 750 C736 750 648 750 648 750 C648 750 645 730 645 730 C645 730 655 730 655 730 C706 730 731 723 715 630 C715 630 715 630 715 630 C715 630 649 244 649 244 C649 244 609 306 609 306 C609 306 326 750 326 750 C326 750 291 750 291 750 C291 750 253 750 253 750 C253 750 139 750 139 750 C139 750 110 750 110 750 C109 750 106 730 106 730 L106 730 Z " />
<glyph glyph-name="O" unicode="O" horiz-adv-x="882" d="M445 30 C290 30 233 146 273 375 C313 604 410 720 562 720 C729 720 794 604 753 375 C713 146 609 30 445 30 L445 30 Z M100 375 C55 119 166 -10 430 -10 C714 -10 881 119 926 375 C971 631 854 760 576 760 C305 760 145 631 100 375 L100 375 Z " />
<glyph glyph-name="P" unicode="P" horiz-adv-x="660" d="M195 730 C195 730 205 730 205 730 C247 730 268 725 257 665 C257 665 257 665 257 665 C257 665 154 82 154 82 C143 25 121 20 80 20 C80 20 69 20 69 20 C69 18 69 8 66 0 C66 0 140 0 140 0 C140 0 291 0 291 0 C291 0 364 0 364 0 C365 4 367 18 368 20 C368 20 357 20 357 20 C316 20 295 25 306 85 C306 85 306 85 306 85 C306 85 350 333 350 333 C350 333 399 333 399 333 C599 333 708 381 736 537 C761 678 689 750 523 750 C523 750 423 750 423 750 C423 750 272 750 272 750 C272 750 198 750 198 750 C197 740 195 738 195 730 C195 730 195 730 195 730 L195 730 Z M418 724 C418 724 480 724 480 724 C577 724 617 670 599 562 C572 411 510 365 405 365 C405 365 355 365 355 365 C355 365 415 703 415 703 C416 711 417 718 418 724 L418 724 Z " />
<glyph glyph-name="Q" unicode="Q" horiz-adv-x="909" d="M1203 -37 C1203 -37 1195 -24 1195 -24 C1147 -59 1034 -77 859 -77 C714 -77 588 -54 485 -8 C735 8 884 136 926 375 C971 631 854 760 576 760 C305 760 145 631 100 375 C75 233 139 129 224 66 C224 66 223 66 223 66 C460 -113 659 -203 815 -203 C921 -203 1052 -147 1203 -37 L1203 -37 Z M445 30 C368 30 233 146 273 375 C313 604 410 720 562 720 C729 720 794 604 753 375 C713 146 609 30 445 30 L445 30 Z " />
<glyph glyph-name="R" unicode="R" horiz-adv-x="834" d="M168 730 C168 730 179 730 179 730 C221 730 241 725 230 665 C230 665 128 85 128 85 C117 25 95 20 53 20 C53 20 43 20 43 20 C42 16 40 2 39 0 C39 0 338 0 338 0 C338 0 341 20 341 20 C341 20 330 20 330 20 C289 20 268 25 279 85 C279 85 324 342 324 342 C324 342 381 342 381 342 C397 304 445 216 525 80 C575 -5 558 0 799 0 C799 0 804 30 804 30 C727 30 733 27 702 80 C621 217 567 308 540 354 C654 375 719 429 738 536 C763 678 669 750 459 750 C459 750 396 750 396 750 C396 750 391 720 391 720 C391 720 409 720 409 720 C538 720 595 668 577 565 C552 424 494 380 394 380 C394 380 331 380 331 380 C331 380 328 366 328 366 C328 366 381 665 381 665 C395 744 396 750 396 750 C396 750 171 750 171 750 C171 750 168 730 168 730 L168 730 Z " />
<glyph glyph-name="S" unicode="S" horiz-adv-x="557" d="M581 565 C585 592 590 619 595 645 C595 645 600 672 609 726 C609 726 594 726 594 726 C594 726 591 719 586 706 C583 700 570 704 547 720 C513 747 466 760 404 760 C261 760 176 688 151 546 C129 423 163 344 284 297 C397 253 435 214 426 168 C411 82 363 38 284 38 C253 38 227 44 204 55 C178 68 157 88 141 113 C132 128 125 146 119 165 C119 165 116 164 116 164 C109 184 104 205 101 225 C101 225 86 225 86 225 C75 165 70 134 70 134 C64 104 59 74 54 43 C54 43 69 43 69 43 C69 43 72 52 78 68 C80 74 102 63 141 32 C141 32 141 32 141 32 C176 4 220 -10 275 -10 C435 -10 528 65 555 212 C574 325 535 401 402 453 C299 493 267 540 279 603 C292 682 332 722 397 722 C401 722 404 722 408 722 C473 719 521 680 545 633 C546 630 547 628 548 625 C548 625 549 625 549 625 C556 611 561 595 563 580 C563 580 566 565 566 565 C566 565 581 565 581 565 L581 565 Z " />
<glyph glyph-name="T" unicode="T" horiz-adv-x="775" d="M238 0 C238 0 537 0 537 0 C537 0 540 20 540 20 C540 20 530 20 530 20 C488 20 467 24 477 80 C477 80 588 712 588 712 C588 712 726 712 726 712 C827 712 829 689 839 639 C839 639 849 639 849 639 C856 640 859 640 859 640 C855 664 851 689 846 713 C846 713 852 750 852 750 C852 750 839 750 839 750 C836 763 834 776 831 789 C831 789 828 789 821 790 C821 790 811 790 811 790 C818 759 820 750 719 750 C719 750 595 750 595 750 C595 750 444 750 444 750 C444 750 321 750 321 750 C228 750 227 760 238 781 C238 781 243 790 243 790 C243 790 232 790 232 790 C226 789 222 789 222 789 C215 776 208 763 201 750 C201 750 187 750 187 750 C187 750 181 713 181 713 C168 689 155 665 142 640 C142 640 145 640 151 639 C151 639 161 639 161 639 C161 639 166 649 166 649 C189 691 207 712 301 712 C301 712 437 712 437 712 C437 712 326 80 326 80 C316 24 294 20 252 20 C252 20 242 20 242 20 C241 16 239 2 238 0 C238 0 238 0 238 0 L238 0 Z " />
<glyph glyph-name="U" unicode="U" horiz-adv-x="797" d="M606 730 C606 730 617 730 617 730 C659 730 679 725 668 665 C668 665 588 207 588 207 C536 127 468 87 386 87 C292 87 252 132 268 220 C268 220 346 665 346 665 C360 744 361 750 361 750 C361 750 136 750 136 750 C136 750 133 730 133 730 C133 730 144 730 144 730 C186 730 206 725 195 665 C195 665 117 220 117 220 C90 67 154 -10 308 -10 C422 -10 512 40 576 139 C576 139 583 179 583 179 C583 179 571 110 571 110 C571 110 551 0 551 0 C551 0 575 0 575 0 C575 0 785 55 785 55 C785 55 787 65 787 65 C718 61 713 63 721 110 C721 110 819 665 819 665 C833 744 834 750 834 750 C834 750 610 750 610 750 C609 750 606 730 606 730 C606 730 606 730 606 730 L606 730 Z " />
<glyph glyph-name="V" unicode="V" horiz-adv-x="848" d="M459 750 C459 750 343 750 343 750 C343 750 170 750 170 750 C170 750 133 750 133 750 C132 740 130 738 130 730 C130 730 156 730 156 730 C169 730 177 727 187 690 C187 690 187 690 187 690 C187 690 328 204 328 204 C328 204 390 -10 390 -10 C390 -10 421 -10 421 -10 C421 -10 790 610 790 610 C790 610 790 610 790 610 C791 612 793 615 794 617 C794 617 823 667 823 667 C861 725 879 730 904 730 C904 730 928 730 928 730 C928 730 931 750 932 750 C932 750 873 750 873 750 C873 750 813 750 813 750 C813 750 697 750 697 750 C696 740 694 738 694 730 C694 730 714 730 714 730 C772 730 797 722 735 610 C735 610 735 610 735 610 C735 610 390 -10 390 -10 C390 -10 509 204 509 204 C509 204 386 610 386 610 C386 610 386 610 386 610 C353 722 379 730 435 730 C435 730 455 730 455 730 C456 730 459 750 459 750 C459 750 459 750 459 750 L459 750 Z " />
<glyph glyph-name="W" unicode="W" horiz-adv-x="1173" d="M1259 750 C1259 750 1198 750 1198 750 C1198 750 1136 750 1136 750 C1136 750 1020 750 1020 750 C1020 750 1017 730 1016 730 C1016 730 1037 730 1037 730 C1094 730 1120 723 1081 625 C1081 625 904 220 904 220 C904 220 779 647 779 647 C758 724 780 730 827 730 C827 730 848 730 848 730 C849 740 851 742 851 750 C851 750 749 750 749 750 C749 750 575 750 575 750 C575 750 517 750 517 750 C517 750 514 730 514 730 C514 730 538 730 538 730 C565 730 581 727 592 693 C611 628 631 564 650 500 C650 500 500 189 500 189 C500 189 500 191 500 191 C500 191 394 610 394 610 C394 610 395 610 395 610 C364 722 387 730 437 730 C437 730 458 730 458 730 C459 740 461 742 461 750 C461 750 359 750 359 750 C359 750 193 750 193 750 C193 750 157 750 157 750 C157 750 154 730 153 730 C153 730 179 730 179 730 C191 730 199 724 223 642 C283 425 344 208 403 -10 C403 -10 443 -10 443 -10 C443 -10 669 435 669 435 C714 287 758 138 803 -10 C803 -10 843 -10 843 -10 C843 -10 1161 672 1161 672 C1190 725 1207 730 1231 730 C1231 730 1255 730 1255 730 C1255 730 1259 750 1259 750 C1259 750 1259 750 1259 750 L1259 750 Z " />
<glyph glyph-name="X" unicode="X" horiz-adv-x="834" d="M923 750 C923 750 880 750 880 750 C880 750 812 750 812 750 C812 750 717 750 717 750 C716 740 714 738 714 730 C714 730 733 730 733 730 C773 730 785 721 674 600 C674 600 674 600 674 600 C674 600 531 443 531 443 C531 443 448 610 448 610 C448 610 448 610 448 610 C393 722 407 730 443 730 C443 730 462 730 462 730 C463 730 466 750 466 750 C466 750 378 750 378 750 C378 750 200 750 200 750 C200 750 161 750 161 750 C161 750 158 730 157 730 C157 730 182 730 182 730 C199 730 211 724 254 641 C254 641 405 338 405 338 C405 338 180 99 180 99 C109 26 86 20 56 20 C56 20 32 20 32 20 C32 18 32 8 29 0 C29 0 87 0 87 0 C87 0 148 0 148 0 C148 0 278 0 278 0 C278 2 281 12 281 20 C281 20 262 20 262 20 C205 20 177 26 233 96 C233 96 278 147 278 147 C278 148 279 149 280 150 C280 150 280 150 280 150 C280 150 419 309 419 309 C419 309 503 140 503 140 C503 140 503 140 503 140 C558 28 544 20 508 20 C508 20 489 20 489 20 C488 16 486 2 485 0 C485 0 573 0 573 0 C573 0 752 0 752 0 C752 0 799 0 799 0 C799 0 802 20 802 20 C802 20 778 20 778 20 C754 20 738 28 683 140 C683 140 682 140 682 140 C682 140 545 415 545 415 C545 415 710 580 710 580 C710 580 833 703 833 703 C863 727 878 730 895 730 C895 730 920 730 920 730 C921 740 923 742 923 750 C923 750 923 750 923 750 L923 750 Z " />
<glyph glyph-name="Y" unicode="Y" horiz-adv-x="898" d="M481 750 C481 750 407 750 407 750 C407 750 229 750 229 750 C229 750 197 750 197 750 C197 750 194 730 194 730 C194 730 220 730 220 730 C231 730 240 725 273 662 C273 662 450 311 450 311 C450 311 409 80 409 80 C399 24 377 20 336 20 C336 20 325 20 325 20 C324 16 322 2 321 0 C321 0 620 0 620 0 C620 2 623 12 623 20 C623 20 613 20 613 20 C571 20 550 24 560 80 C560 80 602 316 602 316 C602 316 602 316 602 316 C602 316 815 610 815 610 C815 610 815 610 815 610 C896 722 914 730 937 730 C937 730 961 730 961 730 C962 730 965 750 965 750 C965 750 916 750 916 750 C916 750 841 750 841 750 C841 750 767 750 767 750 C767 750 764 730 763 730 C763 730 784 730 784 730 C808 730 821 726 804 693 C804 693 760 624 760 624 C759 622 758 621 757 620 C757 620 757 620 757 620 C757 620 594 366 594 366 C594 366 475 610 475 610 C475 610 475 610 475 610 C474 611 474 612 473 614 C473 614 461 639 461 639 C421 723 432 730 459 730 C459 730 478 730 478 730 C478 730 481 750 481 750 L481 750 Z " />
<glyph glyph-name="Z" unicode="Z" horiz-adv-x="653" d="M200 0 C200 0 457 0 457 0 C457 0 617 0 617 0 C639 50 659 100 681 150 C677 151 664 152 662 152 C662 152 643 121 643 121 C616 78 595 53 524 45 C524 45 228 37 228 37 C228 37 748 718 748 718 C748 718 753 750 753 750 C753 750 606 750 606 750 C606 750 383 750 383 750 C383 750 213 750 213 750 C197 698 181 645 163 592 C168 591 186 590 189 590 C189 590 197 611 197 611 C221 670 242 702 333 709 C333 709 578 714 578 714 C578 714 42 32 42 32 C42 32 36 0 36 0 C36 0 200 0 200 0 L200 0 Z " />
<glyph glyph-name="bracketleft" unicode="&#x5b;" horiz-adv-x="307" d="M120 -155 C120 -155 280 750 280 750 C280 750 232 750 232 750 C232 750 66 -195 66 -195 C66 -195 113 -195 113 -195 C113 -195 323 -195 323 -195 C323 -195 330 -155 330 -155 C330 -155 120 -155 120 -155 L120 -155 Z M280 750 C280 750 273 710 273 710 C273 710 483 710 483 710 C483 710 490 750 490 750 C490 750 280 750 280 750 L280 750 Z " />
<glyph glyph-name="backslash" unicode="&#x5c;" horiz-adv-x="361" d="M148 770 C148 770 258 -80 258 -80 C258 -80 338 -80 338 -80 C338 -80 227 770 227 770 C227 770 148 770 148 770 L148 770 Z " />
<glyph glyph-name="bracketright" unicode="&#x5d;" horiz-adv-x="310" d="M278 710 C278 710 119 -195 119 -195 C119 -195 166 -195 166 -195 C166 -195 333 750 333 750 C333 750 285 750 285 750 C285 750 75 750 75 750 C75 750 68 710 68 710 C68 710 278 710 278 710 L278 710 Z M119 -195 C119 -195 126 -155 126 -155 C126 -155 -84 -155 -84 -155 C-84 -155 -91 -195 -91 -195 C-91 -195 119 -195 119 -195 L119 -195 Z " />
<glyph glyph-name="underscore" unicode="&#x5f;" horiz-adv-x="455" d="M-4 -50 C-4 -50 -17 -125 -17 -125 C-17 -125 428 -125 428 -125 C428 -125 441 -50 441 -50 C441 -50 -4 -50 -4 -50 L-4 -50 Z " />
<glyph glyph-name="a" unicode="a" horiz-adv-x="514" d="M549 137 C549 137 531 146 531 146 C518 110 496 91 466 91 C433 91 418 105 423 131 C423 131 461 351 461 351 C483 472 441 510 344 510 C210 510 126 420 116 360 C106 307 130 280 186 280 C227 280 254 311 258 337 C263 362 245 374 251 406 C254 426 274 455 302 455 C331 455 343 442 336 400 C336 400 314 279 314 279 C94 216 69 206 49 98 C37 26 67 -10 141 -10 C183 -10 222 8 285 76 C291 22 328 -5 394 -5 C464 -5 516 43 549 137 C549 137 549 137 549 137 L549 137 Z M309 247 C309 247 288 131 288 131 C286 122 285 113 285 104 C255 71 239 62 226 62 C195 62 182 79 188 112 C205 213 217 221 309 247 L309 247 Z " />
<glyph glyph-name="b" unicode="b" horiz-adv-x="644" d="M143 681 C143 681 154 684 154 684 C189 693 205 693 192 618 C192 618 192 618 192 618 C156 412 119 207 83 0 C83 0 91 0 91 0 C91 0 158 66 158 66 C158 66 158 65 158 65 C167 15 223 -10 323 -10 C506 -10 614 79 645 254 C674 421 609 505 450 505 C387 505 336 489 299 458 C299 458 333 650 333 650 C349 743 350 750 350 750 C350 750 326 750 326 750 C326 750 147 701 147 701 C146 697 144 683 143 681 C143 681 143 681 143 681 L143 681 Z M292 418 C317 439 348 450 385 450 C480 450 515 379 490 238 C465 93 413 20 336 20 C272 20 236 37 230 70 C230 70 252 195 252 195 C252 195 292 418 292 418 L292 418 Z " />
<glyph glyph-name="c" unicode="c" horiz-adv-x="543" d="M536 128 C536 128 518 136 518 136 C492 94 445 73 378 73 C250 73 198 142 222 279 C246 412 309 479 411 479 C432 479 448 454 458 405 C466 360 485 338 513 338 C575 338 601 360 593 405 C580 475 523 510 424 510 C221 510 101 417 69 234 C41 72 124 -10 316 -10 C405 -10 479 36 536 128 L536 128 Z " />
<glyph glyph-name="d" unicode="d" horiz-adv-x="573" d="M582 53 C582 53 571 50 571 50 C537 42 521 45 538 138 C538 138 538 138 538 138 C538 138 631 665 631 665 C644 744 645 750 645 750 C645 750 622 750 622 750 C622 750 442 701 442 701 C442 701 442 698 440 691 C440 684 439 681 439 681 C439 681 450 684 450 684 C484 693 500 694 490 633 C490 633 490 633 490 633 C490 633 465 492 465 492 C434 503 393 510 342 510 C183 510 108 422 77 248 C48 80 99 -5 229 -5 C294 -5 348 17 389 58 C377 -5 376 -10 376 -10 C376 -10 400 -10 400 -10 C400 -10 579 33 579 33 C579 33 582 53 582 53 L582 53 Z M397 105 C363 69 329 51 295 51 C219 51 194 129 222 285 C243 408 280 471 351 471 C396 471 431 442 449 399 C449 399 398 110 398 110 C398 108 397 107 397 105 L397 105 Z " />
<glyph glyph-name="e" unicode="e" horiz-adv-x="535" d="M233 340 C233 340 416 340 416 340 C416 340 566 340 566 340 C566 476 504 510 381 510 C205 510 100 415 67 226 C39 69 106 -10 265 -10 C381 -10 465 37 515 131 C515 131 500 136 500 136 C479 99 417 80 313 80 C227 80 196 147 219 281 C223 302 227 322 233 340 L233 340 Z M506 379 C515 380 525 380 535 380 C535 380 506 379 506 379 L506 379 Z M415 377 C415 377 243 372 243 372 C271 443 312 479 368 479 C396 479 412 457 415 377 C415 377 415 377 415 377 L415 377 Z " />
<glyph glyph-name="f" unicode="f" horiz-adv-x="385" d="M28 0 C28 0 283 0 283 0 C283 0 286 20 286 20 C286 20 275 20 275 20 C243 20 227 21 229 35 C229 35 298 429 298 429 C298 429 451 429 451 429 C451 429 464 500 464 500 C464 500 311 500 311 500 C336 642 372 713 436 713 C508 713 499 635 560 635 C590 635 608 650 613 680 C622 730 581 755 491 755 C294 755 206 669 176 500 C176 500 85 444 85 444 C85 444 82 429 82 429 C82 429 163 429 163 429 C163 429 94 35 94 35 C92 21 75 20 42 20 C42 20 32 20 32 20 C31 16 29 2 28 0 L28 0 Z " />
<glyph glyph-name="g" unicode="g" horiz-adv-x="552" d="M259 350 C274 435 299 478 333 478 C367 478 377 435 362 350 C346 264 322 220 287 220 C253 220 244 264 259 350 L259 350 Z M152 -25 C156 -25 160 -25 164 -25 C164 -25 279 -25 279 -25 C351 -25 366 -45 359 -84 C346 -161 303 -199 233 -199 C152 -199 120 -154 135 -66 C138 -48 144 -34 152 -25 C152 -25 152 -25 152 -25 L152 -25 Z M111 -17 C55 -33 24 -60 18 -98 C2 -186 70 -230 220 -230 C369 -230 455 -170 476 -52 C495 55 466 109 317 109 C317 109 195 109 195 109 C162 110 147 121 151 141 C157 172 200 188 282 188 C406 188 478 242 497 350 C501 371 501 391 499 408 C517 429 534 439 550 439 C546 439 543 434 542 423 C536 392 554 376 596 376 C633 376 655 397 663 440 C669 477 653 495 616 495 C566 495 526 475 492 436 C473 485 422 510 339 510 C215 510 143 456 124 350 C111 278 131 230 181 206 C113 190 74 155 65 101 C54 39 69 -1 111 -17 C111 -17 111 -17 111 -17 L111 -17 Z " />
<glyph glyph-name="h" unicode="h" horiz-adv-x="681" d="M144 681 C144 681 155 684 155 684 C190 693 206 693 193 618 C193 618 193 618 193 618 C193 618 90 35 90 35 C88 21 71 20 38 20 C38 20 28 20 28 20 C27 16 25 2 24 0 C24 0 279 0 279 0 C279 0 282 20 282 20 C282 20 271 20 271 20 C239 20 223 21 225 35 C225 35 282 358 282 358 C311 396 361 415 432 415 C496 415 511 370 496 280 C496 280 452 35 452 35 C450 21 433 20 401 20 C401 20 390 20 390 20 C389 16 387 2 386 0 C386 0 641 0 641 0 C641 2 644 12 644 20 C644 20 634 20 634 20 C601 20 585 21 587 35 C587 35 631 280 631 280 C657 433 632 510 526 510 C425 510 345 472 289 399 C289 399 334 650 334 650 C350 743 351 750 351 750 C351 750 327 750 327 750 C327 750 148 701 148 701 C147 697 145 683 144 681 C144 681 144 681 144 681 L144 681 Z " />
<glyph glyph-name="i" unicode="i" horiz-adv-x="318" d="M269 615 C322 615 353 642 363 695 C372 748 350 775 297 775 C244 775 212 748 203 695 C193 642 215 615 269 615 L269 615 Z M109 431 C109 431 120 434 120 434 C151 442 167 443 161 390 C161 390 99 35 99 35 C97 21 82 20 54 20 C54 20 44 20 44 20 C43 16 41 2 40 0 C40 0 281 0 281 0 C281 0 284 20 284 20 C284 20 273 20 273 20 C246 20 232 21 234 35 C234 35 298 400 298 400 C315 493 316 500 316 500 C316 500 292 500 292 500 C292 500 113 451 113 451 C112 447 110 433 109 431 L109 431 Z " />
<glyph glyph-name="j" unicode="j" horiz-adv-x="307" d="M259 615 C312 615 343 642 353 695 C362 748 340 775 287 775 C234 775 202 748 193 695 C183 642 205 615 259 615 L259 615 Z M99 431 C99 431 110 434 110 434 C141 442 157 443 151 390 C151 390 97 79 97 79 C79 -24 47 -89 2 -112 C-30 -112 -58 -100 -90 -100 C-120 -100 -137 -113 -142 -140 C-147 -173 -130 -188 -90 -185 C-82 -184 -44 -166 25 -130 C149 -65 219 5 232 79 C232 79 288 400 288 400 C305 493 306 500 306 500 C306 500 282 500 282 500 C282 500 103 451 103 451 C102 447 100 433 99 431 L99 431 Z " />
<glyph glyph-name="k" unicode="k" horiz-adv-x="701" d="M718 500 C718 500 702 500 702 500 C702 500 645 500 645 500 C645 500 515 500 515 500 C515 500 512 480 511 480 C511 480 528 480 528 480 C581 480 593 471 394 350 C394 350 277 280 277 280 C277 280 343 650 343 650 C359 743 360 750 360 750 C360 750 336 750 336 750 C336 750 157 701 157 701 C156 697 154 683 153 681 C153 681 164 684 164 684 C199 693 215 693 202 618 C202 618 202 618 202 618 C202 618 99 35 99 35 C97 21 82 20 54 20 C54 20 44 20 44 20 C43 16 41 2 40 0 C40 0 281 0 281 0 C281 0 284 20 284 20 C284 20 273 20 273 20 C246 20 232 21 234 35 C234 35 277 280 277 280 C277 280 456 35 456 35 C456 35 455 35 455 35 C465 21 457 20 441 20 C441 20 424 20 424 20 C424 18 424 8 421 0 C421 0 481 0 481 0 C481 0 655 0 655 0 C655 0 676 0 676 0 C677 4 679 18 680 20 C680 20 652 20 652 20 C645 20 642 21 632 32 C632 32 420 332 420 332 C420 332 641 464 641 464 C641 464 644 465 644 465 C667 479 675 480 688 480 C688 480 714 480 714 480 C714 480 718 500 718 500 C718 500 718 500 718 500 L718 500 Z " />
<glyph glyph-name="l" unicode="l" horiz-adv-x="308" d="M143 681 C143 681 154 684 154 684 C189 693 205 693 192 618 C192 618 192 618 192 618 C192 618 89 35 89 35 C87 21 71 20 41 20 C41 20 30 20 30 20 C29 10 27 8 27 0 C27 0 274 0 274 0 C275 4 277 18 278 20 C278 20 267 20 267 20 C237 20 222 21 224 35 C224 35 333 650 333 650 C349 743 350 750 350 750 C350 750 326 750 326 750 C326 750 147 701 147 701 C146 697 144 683 143 681 L143 681 Z " />
<glyph glyph-name="m" unicode="m" horiz-adv-x="938" d="M660 0 C660 0 907 0 907 0 C908 4 910 18 911 20 C911 20 900 20 900 20 C871 20 855 22 856 45 C856 45 897 280 897 280 C923 433 908 510 794 510 C714 510 647 474 593 403 C593 403 591 389 591 389 C590 470 560 510 477 510 C402 510 337 474 283 403 C283 403 276 363 276 363 C299 394 342 410 404 410 C454 410 459 366 444 280 C444 280 405 55 405 55 C405 55 404 55 404 55 C399 22 384 20 356 20 C356 20 346 20 346 20 C345 16 343 2 342 0 C342 0 575 0 575 0 C576 4 578 18 579 20 C579 20 568 20 568 20 C547 20 536 22 538 46 C538 46 579 280 579 280 C585 313 589 342 590 368 C614 396 659 410 721 410 C772 410 777 366 762 280 C762 280 723 55 723 55 C723 55 722 55 722 55 C716 22 702 20 674 20 C674 20 663 20 663 20 C662 10 660 8 660 0 L660 0 Z M91 418 C91 418 102 422 102 422 C135 433 152 434 142 373 C142 373 85 47 85 47 C78 22 61 20 31 20 C31 20 21 20 21 20 C20 16 18 2 17 0 C17 0 261 0 261 0 C262 4 264 18 265 20 C265 20 254 20 254 20 C228 20 216 22 222 55 C222 55 222 55 222 55 C222 55 282 400 282 400 C299 493 300 500 300 500 C300 500 276 500 276 500 C276 500 94 438 94 438 C94 438 91 418 91 418 L91 418 Z " />
<glyph glyph-name="n" unicode="n" horiz-adv-x="620" d="M91 418 C91 418 102 422 102 422 C135 433 152 434 142 373 C142 373 83 35 83 35 C81 21 65 20 35 20 C35 20 24 20 24 20 C23 10 21 8 21 0 C21 0 268 0 268 0 C269 4 271 18 272 20 C272 20 261 20 261 20 C231 20 216 21 218 35 C218 35 282 400 282 400 C299 493 300 500 300 500 C300 500 276 500 276 500 C276 500 94 438 94 438 C94 438 91 418 91 418 L91 418 Z M338 0 C338 0 586 0 586 0 C586 2 589 12 589 20 C589 20 579 20 579 20 C549 20 534 21 536 35 C536 35 579 280 579 280 C606 433 581 510 477 510 C404 510 338 472 282 398 C282 398 275 358 275 358 C302 393 337 411 379 411 C444 411 460 367 444 280 C444 280 401 35 401 35 C399 21 383 20 353 20 C353 20 342 20 342 20 C341 16 339 2 338 0 L338 0 Z " />
<glyph glyph-name="o" unicode="o" horiz-adv-x="609" d="M301 31 C222 31 194 105 220 250 C246 395 299 469 378 469 C458 469 485 395 459 250 C433 105 380 31 301 31 L301 31 Z M71 250 C41 77 115 -10 294 -10 C472 -10 578 77 608 250 C639 423 564 510 385 510 C207 510 101 423 71 250 L71 250 Z " />
<glyph glyph-name="p" unicode="p" horiz-adv-x="643" d="M92 418 C92 418 103 422 103 422 C136 433 153 434 143 374 C143 374 51 -150 51 -150 C51 -150 51 -150 51 -150 C43 -197 26 -200 -6 -200 C-6 -200 -17 -200 -17 -200 C-18 -204 -20 -218 -21 -220 C-21 -220 234 -220 234 -220 C234 -220 239 -200 237 -200 C237 -200 227 -200 227 -200 C196 -200 180 -197 185 -157 C185 -157 217 25 217 25 C250 5 300 -5 366 -5 C520 -5 617 102 645 261 C674 426 611 510 457 510 C389 510 333 489 292 448 C300 496 301 500 301 500 C301 500 277 500 277 500 C277 500 95 438 95 438 C95 438 92 418 92 418 L92 418 Z M229 93 C229 93 282 393 282 393 C318 434 352 454 385 454 C482 454 517 375 489 218 C469 104 423 27 359 27 C295 27 252 49 229 93 C229 93 229 93 229 93 L229 93 Z " />
<glyph glyph-name="q" unicode="q" horiz-adv-x="606" d="M261 -220 C261 -220 516 -220 516 -220 C516 -220 521 -200 519 -200 C519 -200 509 -200 509 -200 C476 -200 460 -199 462 -185 C498 24 537 230 572 440 C572 440 583 500 583 500 C583 500 575 500 575 500 C575 500 520 440 520 440 C500 487 449 510 368 510 C187 510 105 422 75 248 C45 80 97 -5 230 -5 C281 -5 328 15 369 55 C369 55 327 -185 327 -185 C325 -199 308 -200 276 -200 C276 -200 265 -200 265 -200 C264 -204 262 -218 261 -220 L261 -220 Z M429 390 C429 390 378 102 378 102 C345 68 318 51 296 51 C219 51 194 130 221 285 C244 414 282 479 355 479 C382 479 407 449 429 390 L429 390 Z " />
<glyph glyph-name="r" unicode="r" horiz-adv-x="512" d="M97 418 C97 418 108 422 108 422 C141 433 158 434 148 373 C148 373 89 35 89 35 C87 21 72 20 44 20 C44 20 34 20 34 20 C33 16 31 2 30 0 C30 0 278 0 278 0 C278 0 281 20 281 20 C281 20 270 20 270 20 C238 20 222 21 224 35 C224 35 278 345 278 345 C313 413 347 447 379 447 C407 447 420 435 416 412 C406 360 428 333 481 333 C534 333 565 360 575 412 C586 477 545 510 453 510 C382 510 328 478 291 415 C305 494 306 500 306 500 C306 500 282 500 282 500 C282 500 100 438 100 438 C100 438 97 418 97 418 L97 418 Z " />
<glyph glyph-name="s" unicode="s" horiz-adv-x="446" d="M387 499 C387 499 386 499 386 499 C368 506 346 510 320 510 C208 510 142 462 126 367 C110 277 133 222 219 198 C294 178 318 148 310 105 C301 50 270 22 218 22 C172 22 140 51 123 109 C123 109 112 104 112 104 C111 117 111 130 113 143 C114 147 115 151 115 154 C115 154 95 154 95 154 C88 114 84 93 84 93 C81 73 77 53 74 32 C74 32 94 32 94 32 C95 37 95 42 96 47 C94 34 117 12 168 -4 C168 -4 168 -4 168 -4 C181 -8 196 -10 212 -10 C333 -10 403 41 421 143 C435 221 403 272 297 302 C237 319 219 355 230 413 C237 456 266 478 314 478 C366 478 398 455 411 410 C411 410 419 414 419 414 C422 402 422 389 420 376 C420 373 419 369 418 365 C418 365 438 365 438 365 C443 389 447 413 451 436 C451 436 455 460 464 508 C464 508 444 508 444 508 C442 501 441 495 440 488 C439 483 421 485 387 499 C387 499 387 499 387 499 L387 499 Z " />
<glyph glyph-name="t" unicode="t" horiz-adv-x="433" d="M470 500 C470 500 318 500 318 500 C318 500 339 620 339 620 C339 620 330 620 330 620 C330 620 107 439 107 439 C107 439 106 429 106 429 C106 429 171 429 171 429 C171 429 131 204 131 204 C101 33 148 -10 258 -10 C363 -10 427 41 449 140 C449 140 431 141 431 141 C419 83 378 54 311 54 C260 54 239 78 257 174 C273 259 291 343 305 429 C305 429 457 429 457 429 C457 429 470 500 470 500 L470 500 Z " />
<glyph glyph-name="u" unicode="u" horiz-adv-x="607" d="M425 480 C425 480 435 480 435 480 C459 480 471 479 469 465 C469 465 415 156 415 156 C384 108 344 84 297 84 C245 84 223 110 232 160 C232 160 286 465 286 465 C292 498 292 500 292 500 C292 500 111 500 111 500 C110 500 107 480 107 480 C107 480 118 480 118 480 C142 480 153 479 151 465 C151 465 97 160 97 160 C77 47 117 -10 217 -10 C294 -10 358 32 407 115 C407 115 403 90 403 90 C386 -3 385 -10 385 -10 C385 -10 409 -10 409 -10 C409 -10 587 33 587 33 C587 33 590 53 591 53 C591 53 580 50 580 50 C550 43 534 43 539 96 C539 96 604 465 604 465 C610 498 610 500 610 500 C610 500 428 500 428 500 C428 500 425 480 425 480 L425 480 Z M591 53 C591 53 591 53 591 53 C591 53 591 53 591 53 C591 53 591 53 591 53 L591 53 Z " />
<glyph glyph-name="v" unicode="v" horiz-adv-x="614" d="M660 500 C660 500 608 500 608 500 C608 500 546 500 546 500 C546 500 479 500 479 500 C479 500 476 480 476 480 C476 480 497 480 497 480 C521 480 533 478 522 455 C522 455 374 170 374 170 C374 170 296 464 296 464 C294 479 301 480 314 480 C314 480 335 480 335 480 C336 490 338 492 338 500 C338 500 286 500 286 500 C286 500 138 500 138 500 C138 500 98 500 98 500 C98 500 94 480 94 480 C94 480 120 480 120 480 C136 480 144 478 151 453 C151 453 151 453 151 453 C151 453 280 -10 280 -10 C280 -10 320 -10 320 -10 C320 -10 571 434 571 434 C571 434 571 434 571 434 C593 477 607 480 632 480 C632 480 656 480 656 480 C657 480 660 500 660 500 C660 500 660 500 660 500 L660 500 Z " />
<glyph glyph-name="w" unicode="w" horiz-adv-x="930" d="M983 500 C983 500 932 500 932 500 C932 500 868 500 868 500 C868 500 802 500 802 500 C801 500 798 480 798 480 C798 480 819 480 819 480 C841 480 853 479 848 463 C848 463 687 169 687 169 C687 169 603 460 603 460 C603 460 604 460 604 460 C598 479 603 480 614 480 C614 480 635 480 635 480 C636 484 638 498 639 500 C639 500 592 500 592 500 C592 500 442 500 442 500 C442 500 405 500 405 500 C404 500 401 480 401 480 C401 480 427 480 427 480 C441 480 448 479 453 460 C453 460 454 460 454 460 C454 460 485 350 485 350 C485 350 485 350 485 350 C485 350 381 167 381 167 C381 167 284 463 284 463 C280 479 285 480 294 480 C294 480 314 480 314 480 C314 480 318 500 318 500 C318 500 272 500 272 500 C272 500 121 500 121 500 C121 500 84 500 84 500 C83 490 81 488 81 480 C81 480 107 480 107 480 C120 480 127 479 133 460 C133 460 133 460 133 460 C133 460 280 -10 280 -10 C280 -10 319 -10 319 -10 C319 -10 502 292 502 292 C502 292 589 -10 589 -10 C589 -10 629 -10 629 -10 C629 -10 893 434 893 434 C893 434 893 434 893 434 C894 435 895 437 895 438 C895 438 902 450 902 450 C920 478 933 480 955 480 C955 480 980 480 980 480 C980 480 983 500 983 500 L983 500 Z " />
<glyph glyph-name="x" unicode="x" horiz-adv-x="639" d="M22 0 C22 0 59 0 59 0 C59 0 121 0 121 0 C121 0 191 0 191 0 C192 4 194 18 195 20 C195 20 176 20 176 20 C154 20 142 22 154 39 C154 39 172 62 172 62 C173 63 173 63 174 64 C174 64 174 64 174 64 C174 64 287 202 287 202 C287 202 354 64 354 64 C354 64 354 64 354 64 C374 23 367 20 351 20 C351 20 332 20 332 20 C331 10 329 8 329 0 C329 0 385 0 385 0 C385 0 550 0 550 0 C550 0 582 0 582 0 C583 4 585 18 586 20 C586 20 560 20 560 20 C547 20 539 23 520 62 C520 62 520 62 520 62 C520 62 415 280 415 280 C415 280 560 436 560 436 C560 436 560 436 560 436 C561 437 562 439 563 440 C563 440 582 461 582 461 C601 478 612 480 628 480 C628 480 653 480 653 480 C653 480 657 500 657 500 C657 500 619 500 619 500 C619 500 557 500 557 500 C557 500 494 500 494 500 C494 500 491 480 490 480 C490 480 510 480 510 480 C527 480 535 478 518 453 C518 453 399 312 399 312 C399 312 339 436 339 436 C339 436 339 436 339 436 C319 477 326 480 342 480 C342 480 360 480 360 480 C360 480 364 500 364 500 C364 500 308 500 308 500 C308 500 143 500 143 500 C143 500 117 500 117 500 C116 490 114 488 114 480 C114 480 141 480 141 480 C149 480 154 478 169 445 C169 445 170 445 170 445 C170 445 273 231 273 231 C273 231 108 53 108 53 C77 22 66 20 50 20 C50 20 25 20 25 20 C24 10 22 8 22 0 C22 0 22 0 22 0 L22 0 Z " />
<glyph glyph-name="y" unicode="y" horiz-adv-x="610" d="M672 500 C672 500 620 500 620 500 C620 500 558 500 558 500 C558 500 491 500 491 500 C491 500 488 480 488 480 C488 480 509 480 509 480 C535 480 547 478 531 450 C531 450 531 450 531 450 C531 450 382 170 382 170 C382 170 290 462 290 462 C287 479 294 480 306 480 C306 480 327 480 327 480 C328 490 330 492 330 500 C330 500 278 500 278 500 C278 500 130 500 130 500 C130 500 90 500 90 500 C90 500 87 480 87 480 C87 480 112 480 112 480 C128 480 136 478 144 453 C144 453 144 453 144 453 C144 453 286 -10 286 -10 C286 -10 216 -140 216 -140 C207 -157 196 -165 182 -165 C146 -165 149 -117 113 -117 C62 -117 32 -140 24 -184 C15 -240 36 -268 89 -268 C153 -268 201 -237 235 -177 C235 -177 325 -10 325 -10 C325 -10 582 434 582 434 C582 434 582 434 582 434 C583 436 584 438 585 440 C585 440 587 444 587 444 C607 477 621 480 644 480 C644 480 668 480 668 480 C668 480 672 500 672 500 C672 500 672 500 672 500 L672 500 Z " />
<glyph glyph-name="z" unicode="z" horiz-adv-x="475" d="M129 389 C129 389 141 389 141 389 C141 389 153 399 153 399 C190 430 217 449 261 456 C261 456 356 460 356 460 C356 460 46 32 46 32 C46 32 40 0 40 0 C40 0 183 0 183 0 C183 0 297 0 297 0 C297 0 430 0 430 0 C442 37 453 73 465 111 C465 111 455 111 455 111 C455 111 442 101 442 101 C402 69 374 49 320 43 C320 43 211 39 211 39 C211 39 518 468 518 468 C518 468 523 500 523 500 C523 500 385 500 385 500 C385 500 223 500 223 500 C212 500 201 506 207 519 C207 519 211 528 211 528 C211 528 191 528 191 528 C169 482 150 434 129 389 C129 389 129 389 129 389 L129 389 Z " />
<glyph glyph-name="bar" unicode="&#x7c;" horiz-adv-x="225" d="M201 800 C201 800 16 -250 16 -250 C16 -250 121 -250 121 -250 C121 -250 306 800 306 800 C306 800 201 800 201 800 L201 800 Z " />
<glyph glyph-name="exclamdown" unicode="&#xa1;" horiz-adv-x="305" d="M242 505 C188 505 157 478 148 425 C138 372 160 345 213 345 C266 345 298 372 308 425 C317 478 295 505 242 505 L242 505 Z M108 -255 C199 -255 213 -210 214 -121 C214 -121 216 290 216 290 C216 290 191 290 191 290 C191 290 49 -121 49 -121 C18 -210 17 -255 108 -255 L108 -255 Z " />
<glyph glyph-name="cent" unicode="&#xa2;" horiz-adv-x="543" d="M399 575 C399 575 387 509 387 509 C207 498 99 406 69 234 C42 78 118 -4 296 -10 C296 -10 284 -75 284 -75 C284 -75 327 -75 327 -75 C327 -75 339 -9 339 -9 C418 -2 484 44 536 128 C536 128 518 136 518 136 C492 94 445 73 378 73 C369 73 361 73 353 74 C353 74 424 476 424 476 C438 467 450 444 458 405 C466 360 485 338 513 338 C575 338 601 360 593 405 C580 474 525 509 430 510 C430 510 441 575 441 575 C441 575 399 575 399 575 L399 575 Z M312 81 C233 103 203 169 222 279 C244 399 297 465 382 477 C382 477 312 81 312 81 L312 81 Z " />
<glyph glyph-name="questiondown" unicode="&#xbf;" horiz-adv-x="292" d="M256 505 C203 505 171 478 162 425 C153 372 175 345 228 345 C281 345 313 372 322 425 C331 478 309 505 256 505 L256 505 Z M206 240 C206 240 192 140 192 140 C75 140 54 116 14 68 C-13 37 -31 -6 -40 -58 C-64 -192 -16 -260 101 -260 C186 -260 234 -226 246 -160 C254 -116 233 -94 185 -94 C149 -94 113 -117 77 -117 C19 -117 -6 -92 3 -42 C4 -33 14 -18 32 3 C64 41 81 60 205 60 C205 60 229 240 229 240 C229 240 206 240 206 240 L206 240 Z " />
<glyph glyph-name="Agrave" unicode="&#xc0;" horiz-adv-x="792" d="M464 0 C464 0 559 0 559 0 C559 0 717 0 717 0 C717 0 777 0 777 0 C777 2 780 12 780 20 C780 20 757 20 757 20 C730 20 714 27 699 110 C699 110 602 702 602 702 C602 702 591 770 591 770 C591 770 576 770 576 770 C542 732 501 709 451 702 C451 702 453 692 453 692 C453 692 452 692 452 692 C452 692 187 170 187 170 C187 170 187 170 187 170 C184 164 181 158 178 153 C178 153 175 146 175 146 C115 29 85 20 39 20 C39 20 16 20 16 20 C15 10 13 8 13 0 C13 0 101 0 101 0 C101 0 146 0 146 0 C146 0 262 0 262 0 C263 4 265 18 266 20 C266 20 245 20 245 20 C185 20 161 30 229 170 C229 170 229 170 229 170 C229 170 277 269 277 269 C277 269 518 269 518 269 C518 269 537 140 537 140 C537 140 537 140 537 140 C554 28 533 20 488 20 C488 20 467 20 467 20 C466 10 464 8 464 0 C464 0 464 0 464 0 L464 0 Z M493 988 C475 1030 463 1051 454 1051 C413 1051 381 1024 374 983 C372 973 388 955 420 927 C420 927 546 811 546 811 C546 811 566 828 566 828 C566 828 493 988 493 988 L493 988 Z M296 308 C296 308 460 644 460 644 C460 644 512 308 512 308 C512 308 296 308 296 308 L296 308 Z " />
<glyph glyph-name="Aacute" unicode="&#xc1;" horiz-adv-x="792" d="M555 811 C555 811 721 927 721 927 C764 957 786 974 787 983 C795 1024 772 1051 732 1051 C723 1051 704 1030 670 988 C670 988 541 828 541 828 C541 828 555 811 555 811 L555 811 Z M464 0 C464 0 559 0 559 0 C559 0 717 0 717 0 C717 0 777 0 777 0 C777 2 780 12 780 20 C780 20 757 20 757 20 C730 20 714 27 699 110 C699 110 602 702 602 702 C602 702 591 770 591 770 C591 770 576 770 576 770 C542 732 501 709 451 702 C451 702 453 692 453 692 C453 692 452 692 452 692 C452 692 187 170 187 170 C187 170 187 170 187 170 C184 164 181 158 178 153 C178 153 175 146 175 146 C115 29 85 20 39 20 C39 20 16 20 16 20 C15 10 13 8 13 0 C13 0 101 0 101 0 C101 0 146 0 146 0 C146 0 262 0 262 0 C263 4 265 18 266 20 C266 20 245 20 245 20 C185 20 161 30 229 170 C229 170 229 170 229 170 C229 170 277 269 277 269 C277 269 518 269 518 269 C518 269 537 140 537 140 C537 140 537 140 537 140 C554 28 533 20 488 20 C488 20 467 20 467 20 C466 10 464 8 464 0 C464 0 464 0 464 0 L464 0 Z M296 308 C296 308 460 644 460 644 C460 644 512 308 512 308 C512 308 296 308 296 308 L296 308 Z " />
<glyph glyph-name="Acircumflex" unicode="&#xc2;" horiz-adv-x="792" d="M464 0 C464 0 559 0 559 0 C559 0 717 0 717 0 C717 0 777 0 777 0 C777 2 780 12 780 20 C780 20 757 20 757 20 C730 20 714 27 699 110 C699 110 602 702 602 702 C602 702 591 770 591 770 C591 770 576 770 576 770 C542 732 501 709 451 702 C451 702 453 692 453 692 C453 692 452 692 452 692 C452 692 187 170 187 170 C187 170 187 170 187 170 C184 164 181 158 178 153 C178 153 175 146 175 146 C115 29 85 20 39 20 C39 20 16 20 16 20 C15 10 13 8 13 0 C13 0 101 0 101 0 C101 0 146 0 146 0 C146 0 262 0 262 0 C263 4 265 18 266 20 C266 20 245 20 245 20 C185 20 161 30 229 170 C229 170 229 170 229 170 C229 170 277 269 277 269 C277 269 518 269 518 269 C518 269 537 140 537 140 C537 140 537 140 537 140 C554 28 533 20 488 20 C488 20 467 20 467 20 C466 10 464 8 464 0 C464 0 464 0 464 0 L464 0 Z M563 907 C563 907 682 804 682 804 C682 804 703 819 703 819 C703 819 625 990 625 990 C618 1006 603 1038 586 1038 C568 1038 542 1006 530 991 C530 991 391 819 391 819 C391 819 406 804 406 804 C406 804 563 907 563 907 L563 907 Z M296 308 C296 308 460 644 460 644 C460 644 512 308 512 308 C512 308 296 308 296 308 L296 308 Z " />
<glyph glyph-name="Atilde" unicode="&#xc3;" horiz-adv-x="792" d="M418 870 C424 904 439 921 463 921 C526 921 553 856 616 856 C682 856 724 908 743 1011 C743 1011 719 1011 719 1011 C711 971 693 951 664 951 C601 951 574 1016 511 1016 C451 1016 411 967 394 870 C394 870 418 870 418 870 L418 870 Z M464 0 C464 0 559 0 559 0 C559 0 717 0 717 0 C717 0 777 0 777 0 C777 2 780 12 780 20 C780 20 757 20 757 20 C730 20 714 27 699 110 C699 110 602 702 602 702 C602 702 591 770 591 770 C591 770 576 770 576 770 C542 732 501 709 451 702 C451 702 453 692 453 692 C453 692 452 692 452 692 C452 692 187 170 187 170 C187 170 187 170 187 170 C184 164 181 158 178 153 C178 153 175 146 175 146 C115 29 85 20 39 20 C39 20 16 20 16 20 C15 10 13 8 13 0 C13 0 101 0 101 0 C101 0 146 0 146 0 C146 0 262 0 262 0 C263 4 265 18 266 20 C266 20 245 20 245 20 C185 20 161 30 229 170 C229 170 229 170 229 170 C229 170 277 269 277 269 C277 269 518 269 518 269 C518 269 537 140 537 140 C537 140 537 140 537 140 C554 28 533 20 488 20 C488 20 467 20 467 20 C466 10 464 8 464 0 C464 0 464 0 464 0 L464 0 Z M296 308 C296 308 460 644 460 644 C460 644 512 308 512 308 C512 308 296 308 296 308 L296 308 Z " />
<glyph glyph-name="Adieresis" unicode="&#xc4;" horiz-adv-x="792" d="M639 865 C692 865 723 892 733 945 C742 998 720 1025 667 1025 C614 1025 582 998 573 945 C563 892 585 865 639 865 L639 865 Z M471 865 C525 865 556 892 565 945 C575 998 553 1025 499 1025 C446 1025 415 998 405 945 C396 892 418 865 471 865 L471 865 Z M464 0 C464 0 559 0 559 0 C559 0 717 0 717 0 C717 0 777 0 777 0 C777 2 780 12 780 20 C780 20 757 20 757 20 C730 20 714 27 699 110 C699 110 602 702 602 702 C602 702 591 770 591 770 C591 770 576 770 576 770 C542 732 501 709 451 702 C451 702 453 692 453 692 C453 692 452 692 452 692 C452 692 187 170 187 170 C187 170 187 170 187 170 C184 164 181 158 178 153 C178 153 175 146 175 146 C115 29 85 20 39 20 C39 20 16 20 16 20 C15 10 13 8 13 0 C13 0 101 0 101 0 C101 0 146 0 146 0 C146 0 262 0 262 0 C263 4 265 18 266 20 C266 20 245 20 245 20 C185 20 161 30 229 170 C229 170 229 170 229 170 C229 170 277 269 277 269 C277 269 518 269 518 269 C518 269 537 140 537 140 C537 140 537 140 537 140 C554 28 533 20 488 20 C488 20 467 20 467 20 C466 10 464 8 464 0 C464 0 464 0 464 0 L464 0 Z M296 308 C296 308 460 644 460 644 C460 644 512 308 512 308 C512 308 296 308 296 308 L296 308 Z " />
<glyph glyph-name="Aring" unicode="&#xc5;" horiz-adv-x="792" d="M551 842 C515 842 496 867 503 905 C510 947 534 968 573 968 C613 968 629 947 621 905 C615 867 587 842 551 842 L551 842 Z M463 905 C453 848 486 810 545 810 C604 810 651 848 661 905 C672 968 644 1000 579 1000 C513 1000 474 968 463 905 L463 905 Z M464 0 C464 0 559 0 559 0 C559 0 717 0 717 0 C717 0 777 0 777 0 C777 2 780 12 780 20 C780 20 757 20 757 20 C730 20 714 27 699 110 C699 110 602 702 602 702 C602 702 591 770 591 770 C591 770 576 770 576 770 C542 732 501 709 451 702 C451 702 453 692 453 692 C453 692 452 692 452 692 C452 692 187 170 187 170 C187 170 187 170 187 170 C184 164 181 158 178 153 C178 153 175 146 175 146 C115 29 85 20 39 20 C39 20 16 20 16 20 C15 10 13 8 13 0 C13 0 101 0 101 0 C101 0 146 0 146 0 C146 0 262 0 262 0 C263 4 265 18 266 20 C266 20 245 20 245 20 C185 20 161 30 229 170 C229 170 229 170 229 170 C229 170 277 269 277 269 C277 269 518 269 518 269 C518 269 537 140 537 140 C537 140 537 140 537 140 C554 28 533 20 488 20 C488 20 467 20 467 20 C466 10 464 8 464 0 C464 0 464 0 464 0 L464 0 Z M296 308 C296 308 460 644 460 644 C460 644 512 308 512 308 C512 308 296 308 296 308 L296 308 Z " />
<glyph glyph-name="Egrave" unicode="&#xc8;" horiz-adv-x="661" d="M673 630 C673 630 693 630 693 630 C696 650 698 670 700 690 C700 690 706 750 706 750 C706 750 586 750 586 750 C586 750 396 750 396 750 C396 750 245 750 245 750 C245 750 171 750 171 750 C171 750 168 730 168 730 C168 730 179 730 179 730 C221 730 241 725 230 665 C230 665 230 665 230 665 C230 665 127 82 127 82 C116 25 94 20 53 20 C53 20 43 20 43 20 C42 16 40 2 39 0 C39 0 113 0 113 0 C113 0 264 0 264 0 C264 0 479 0 479 0 C479 0 599 0 599 0 C611 40 625 80 637 120 C637 120 617 120 617 120 C617 120 613 109 613 109 C597 58 582 32 489 32 C489 32 349 32 349 32 C281 32 273 44 276 68 C277 73 278 79 279 85 C279 85 279 85 279 85 C279 85 336 411 336 411 C336 411 332 385 332 385 C332 385 462 385 462 385 C561 385 557 350 544 287 C544 287 564 287 564 287 C578 362 593 443 605 519 C605 519 585 519 585 519 C585 519 584 509 584 509 C573 450 561 421 468 421 C468 421 338 421 338 421 C338 421 388 703 388 703 C389 709 390 714 390 718 C390 718 583 718 583 718 C699 718 680 689 673 630 C673 630 673 630 673 630 L673 630 Z M434 988 C416 1030 404 1051 394 1051 C354 1051 322 1024 315 983 C313 973 329 955 361 927 C361 927 487 811 487 811 C487 811 507 828 507 828 C507 828 434 988 434 988 L434 988 Z " />
<glyph glyph-name="Eacute" unicode="&#xc9;" horiz-adv-x="661" d="M496 811 C496 811 662 927 662 927 C705 957 727 974 728 983 C736 1024 713 1051 673 1051 C664 1051 645 1030 611 988 C611 988 482 828 482 828 C482 828 496 811 496 811 L496 811 Z M673 630 C673 630 693 630 693 630 C696 650 698 670 700 690 C700 690 706 750 706 750 C706 750 586 750 586 750 C586 750 396 750 396 750 C396 750 245 750 245 750 C245 750 171 750 171 750 C171 750 168 730 168 730 C168 730 179 730 179 730 C221 730 241 725 230 665 C230 665 230 665 230 665 C230 665 127 82 127 82 C116 25 94 20 53 20 C53 20 43 20 43 20 C42 16 40 2 39 0 C39 0 113 0 113 0 C113 0 264 0 264 0 C264 0 479 0 479 0 C479 0 599 0 599 0 C611 40 625 80 637 120 C637 120 617 120 617 120 C617 120 613 109 613 109 C597 58 582 32 489 32 C489 32 349 32 349 32 C281 32 273 44 276 68 C277 73 278 79 279 85 C279 85 279 85 279 85 C279 85 336 411 336 411 C336 411 332 385 332 385 C332 385 462 385 462 385 C561 385 557 350 544 287 C544 287 564 287 564 287 C578 362 593 443 605 519 C605 519 585 519 585 519 C585 519 584 509 584 509 C573 450 561 421 468 421 C468 421 338 421 338 421 C338 421 388 703 388 703 C389 709 390 714 390 718 C390 718 583 718 583 718 C699 718 680 689 673 630 C673 630 673 630 673 630 L673 630 Z " />
<glyph glyph-name="Ecircumflex" unicode="&#xca;" horiz-adv-x="661" d="M673 630 C673 630 693 630 693 630 C696 650 698 670 700 690 C700 690 706 750 706 750 C706 750 586 750 586 750 C586 750 396 750 396 750 C396 750 245 750 245 750 C245 750 171 750 171 750 C171 750 168 730 168 730 C168 730 179 730 179 730 C221 730 241 725 230 665 C230 665 230 665 230 665 C230 665 127 82 127 82 C116 25 94 20 53 20 C53 20 43 20 43 20 C42 16 40 2 39 0 C39 0 113 0 113 0 C113 0 264 0 264 0 C264 0 479 0 479 0 C479 0 599 0 599 0 C611 40 625 80 637 120 C637 120 617 120 617 120 C617 120 613 109 613 109 C597 58 582 32 489 32 C489 32 349 32 349 32 C281 32 273 44 276 68 C277 73 278 79 279 85 C279 85 279 85 279 85 C279 85 336 411 336 411 C336 411 332 385 332 385 C332 385 462 385 462 385 C561 385 557 350 544 287 C544 287 564 287 564 287 C578 362 593 443 605 519 C605 519 585 519 585 519 C585 519 584 509 584 509 C573 450 561 421 468 421 C468 421 338 421 338 421 C338 421 388 703 388 703 C389 709 390 714 390 718 C390 718 583 718 583 718 C699 718 680 689 673 630 C673 630 673 630 673 630 L673 630 Z M504 907 C504 907 623 804 623 804 C623 804 644 819 644 819 C644 819 566 990 566 990 C558 1006 543 1038 526 1038 C509 1038 483 1006 471 991 C471 991 332 819 332 819 C332 819 347 804 347 804 C347 804 504 907 504 907 L504 907 Z " />
<glyph glyph-name="Edieresis" unicode="&#xcb;" horiz-adv-x="661" d="M580 865 C633 865 664 892 674 945 C683 998 661 1025 608 1025 C555 1025 523 998 514 945 C504 892 526 865 580 865 L580 865 Z M412 865 C466 865 497 892 506 945 C516 998 494 1025 440 1025 C387 1025 356 998 346 945 C337 892 359 865 412 865 L412 865 Z M673 630 C673 630 693 630 693 630 C696 650 698 670 700 690 C700 690 706 750 706 750 C706 750 586 750 586 750 C586 750 396 750 396 750 C396 750 245 750 245 750 C245 750 171 750 171 750 C171 750 168 730 168 730 C168 730 179 730 179 730 C221 730 241 725 230 665 C230 665 230 665 230 665 C230 665 127 82 127 82 C116 25 94 20 53 20 C53 20 43 20 43 20 C42 16 40 2 39 0 C39 0 113 0 113 0 C113 0 264 0 264 0 C264 0 479 0 479 0 C479 0 599 0 599 0 C611 40 625 80 637 120 C637 120 617 120 617 120 C617 120 613 109 613 109 C597 58 582 32 489 32 C489 32 349 32 349 32 C281 32 273 44 276 68 C277 73 278 79 279 85 C279 85 279 85 279 85 C279 85 336 411 336 411 C336 411 332 385 332 385 C332 385 462 385 462 385 C561 385 557 350 544 287 C544 287 564 287 564 287 C578 362 593 443 605 519 C605 519 585 519 585 519 C585 519 584 509 584 509 C573 450 561 421 468 421 C468 421 338 421 338 421 C338 421 388 703 388 703 C389 709 390 714 390 718 C390 718 583 718 583 718 C699 718 680 689 673 630 C673 630 673 630 673 630 L673 630 Z " />
<glyph glyph-name="Igrave" unicode="&#xcc;" horiz-adv-x="371" d="M452 750 C452 750 154 750 154 750 C153 750 150 730 150 730 C150 730 161 730 161 730 C203 730 223 726 213 670 C213 670 109 80 109 80 C99 24 77 20 36 20 C36 20 25 20 25 20 C24 16 22 2 21 0 C21 0 320 0 320 0 C320 2 323 12 323 20 C323 20 313 20 313 20 C271 20 250 24 260 80 C260 80 364 670 364 670 C374 726 396 730 438 730 C438 730 449 730 449 730 C449 730 452 750 452 750 L452 750 Z M261 988 C243 1030 232 1051 222 1051 C181 1051 150 1024 142 983 C141 973 156 955 189 927 C189 927 314 811 314 811 C314 811 334 828 334 828 C334 828 261 988 261 988 L261 988 Z " />
<glyph glyph-name="Iacute" unicode="&#xcd;" horiz-adv-x="371" d="M323 811 C323 811 489 927 489 927 C532 957 554 974 556 983 C563 1024 540 1051 500 1051 C492 1051 473 1030 439 988 C439 988 309 828 309 828 C309 828 323 811 323 811 L323 811 Z M452 750 C452 750 154 750 154 750 C153 750 150 730 150 730 C150 730 161 730 161 730 C203 730 223 726 213 670 C213 670 109 80 109 80 C99 24 77 20 36 20 C36 20 25 20 25 20 C24 16 22 2 21 0 C21 0 320 0 320 0 C320 2 323 12 323 20 C323 20 313 20 313 20 C271 20 250 24 260 80 C260 80 364 670 364 670 C374 726 396 730 438 730 C438 730 449 730 449 730 C449 730 452 750 452 750 L452 750 Z " />
<glyph glyph-name="Icircumflex" unicode="&#xce;" horiz-adv-x="371" d="M452 750 C452 750 154 750 154 750 C153 750 150 730 150 730 C150 730 161 730 161 730 C203 730 223 726 213 670 C213 670 109 80 109 80 C99 24 77 20 36 20 C36 20 25 20 25 20 C24 16 22 2 21 0 C21 0 320 0 320 0 C320 2 323 12 323 20 C323 20 313 20 313 20 C271 20 250 24 260 80 C260 80 364 670 364 670 C374 726 396 730 438 730 C438 730 449 730 449 730 C449 730 452 750 452 750 L452 750 Z M331 907 C331 907 450 804 450 804 C450 804 471 819 471 819 C471 819 393 990 393 990 C386 1006 371 1038 354 1038 C336 1038 311 1006 298 991 C298 991 159 819 159 819 C159 819 175 804 175 804 C175 804 331 907 331 907 L331 907 Z " />
<glyph glyph-name="Idieresis" unicode="&#xcf;" horiz-adv-x="371" d="M407 865 C460 865 491 892 501 945 C510 998 488 1025 435 1025 C382 1025 350 998 341 945 C331 892 354 865 407 865 L407 865 Z M239 865 C293 865 324 892 333 945 C343 998 321 1025 268 1025 C215 1025 183 998 173 945 C164 892 186 865 239 865 L239 865 Z M452 750 C452 750 154 750 154 750 C153 750 150 730 150 730 C150 730 161 730 161 730 C203 730 223 726 213 670 C213 670 109 80 109 80 C99 24 77 20 36 20 C36 20 25 20 25 20 C24 16 22 2 21 0 C21 0 320 0 320 0 C320 2 323 12 323 20 C323 20 313 20 313 20 C271 20 250 24 260 80 C260 80 364 670 364 670 C374 726 396 730 438 730 C438 730 449 730 449 730 C449 730 452 750 452 750 L452 750 Z " />
<glyph glyph-name="Ntilde" unicode="&#xd1;" horiz-adv-x="769" d="M394 870 C400 904 416 921 440 921 C503 921 530 856 593 856 C659 856 701 908 719 1011 C719 1011 695 1011 695 1011 C688 971 670 951 641 951 C578 951 550 1016 487 1016 C427 1016 388 967 370 870 C370 870 394 870 394 870 L394 870 Z M101 730 C101 730 127 730 127 730 C138 730 145 729 160 709 C160 709 223 608 223 608 C223 608 138 133 138 133 C117 28 94 20 53 20 C53 20 30 20 30 20 C29 10 27 8 27 0 C27 0 114 0 114 0 C114 0 160 0 160 0 C160 0 247 0 247 0 C248 4 250 18 251 20 C251 20 228 20 228 20 C189 20 168 26 178 105 C178 105 254 558 254 558 C254 558 468 214 468 214 C468 214 602 0 602 0 C602 0 632 0 632 0 C632 0 753 630 753 630 C753 630 753 630 753 630 C753 631 753 632 753 632 C753 632 756 646 756 646 C772 724 799 730 848 730 C848 730 858 730 858 730 C859 730 862 750 862 750 C862 750 776 750 776 750 C776 750 731 750 731 750 C731 750 643 750 643 750 C643 750 640 730 640 730 C640 730 650 730 650 730 C701 730 726 723 710 630 C710 630 710 630 710 630 C710 630 644 244 644 244 C644 244 604 306 604 306 C604 306 321 750 321 750 C321 750 286 750 286 750 C286 750 248 750 248 750 C248 750 134 750 134 750 C134 750 105 750 105 750 C104 750 101 730 101 730 L101 730 Z " />
<glyph glyph-name="Ograve" unicode="&#xd2;" horiz-adv-x="914" d="M445 30 C290 30 233 146 273 375 C313 604 410 720 562 720 C729 720 794 604 753 375 C713 146 609 30 445 30 L445 30 Z M100 375 C55 119 166 -10 430 -10 C714 -10 881 119 926 375 C971 631 854 760 576 760 C305 760 145 631 100 375 L100 375 Z M532 988 C514 1030 503 1051 493 1051 C452 1051 421 1024 414 983 C412 973 427 955 460 927 C460 927 586 811 586 811 C586 811 605 828 605 828 C605 828 532 988 532 988 L532 988 Z " />
<glyph glyph-name="Oacute" unicode="&#xd3;" horiz-adv-x="914" d="M594 811 C594 811 761 927 761 927 C803 957 825 974 827 983 C834 1024 811 1051 771 1051 C763 1051 744 1030 710 988 C710 988 580 828 580 828 C580 828 594 811 594 811 L594 811 Z M445 30 C290 30 233 146 273 375 C313 604 410 720 562 720 C729 720 794 604 753 375 C713 146 609 30 445 30 L445 30 Z M100 375 C55 119 166 -10 430 -10 C714 -10 881 119 926 375 C971 631 854 760 576 760 C305 760 145 631 100 375 L100 375 Z " />
<glyph glyph-name="Ocircumflex" unicode="&#xd4;" horiz-adv-x="914" d="M445 30 C290 30 233 146 273 375 C313 604 410 720 562 720 C729 720 794 604 753 375 C713 146 609 30 445 30 L445 30 Z M100 375 C55 119 166 -10 430 -10 C714 -10 881 119 926 375 C971 631 854 760 576 760 C305 760 145 631 100 375 L100 375 Z M602 907 C602 907 721 804 721 804 C721 804 742 819 742 819 C742 819 664 990 664 990 C657 1006 642 1038 625 1038 C608 1038 582 1006 569 991 C569 991 430 819 430 819 C430 819 446 804 446 804 C446 804 602 907 602 907 L602 907 Z " />
<glyph glyph-name="Otilde" unicode="&#xd5;" horiz-adv-x="914" d="M457 870 C463 904 479 921 502 921 C566 921 593 856 656 856 C722 856 764 908 782 1011 C782 1011 758 1011 758 1011 C751 971 733 951 704 951 C641 951 613 1016 550 1016 C490 1016 450 967 433 870 C433 870 457 870 457 870 L457 870 Z M445 30 C290 30 233 146 273 375 C313 604 410 720 562 720 C729 720 794 604 753 375 C713 146 609 30 445 30 L445 30 Z M100 375 C55 119 166 -10 430 -10 C714 -10 881 119 926 375 C971 631 854 760 576 760 C305 760 145 631 100 375 L100 375 Z " />
<glyph glyph-name="Odieresis" unicode="&#xd6;" horiz-adv-x="914" d="M678 865 C732 865 763 892 772 945 C782 998 760 1025 706 1025 C653 1025 622 998 612 945 C603 892 625 865 678 865 L678 865 Z M510 865 C564 865 595 892 605 945 C614 998 592 1025 539 1025 C486 1025 454 998 445 945 C435 892 457 865 510 865 L510 865 Z M445 30 C290 30 233 146 273 375 C313 604 410 720 562 720 C729 720 794 604 753 375 C713 146 609 30 445 30 L445 30 Z M100 375 C55 119 166 -10 430 -10 C714 -10 881 119 926 375 C971 631 854 760 576 760 C305 760 145 631 100 375 L100 375 Z " />
<glyph glyph-name="Oslash" unicode="&#xd8;" horiz-adv-x="914" d="M51 -35 C51 -35 173 63 173 63 C230 14 315 -10 430 -10 C714 -10 881 119 926 375 C946 487 934 575 892 639 C892 639 1012 735 1012 735 C1012 735 975 785 975 785 C975 785 850 685 850 685 C790 735 699 760 576 760 C305 760 145 631 100 375 C80 262 91 173 132 110 C132 110 13 15 13 15 C13 15 51 -35 51 -35 L51 -35 Z M445 30 C356 30 299 68 275 144 C275 144 763 536 763 536 C767 490 764 437 753 375 C713 146 609 30 445 30 L445 30 Z M262 214 C258 259 262 313 273 375 C313 604 410 720 562 720 C659 720 721 681 749 604 C749 604 262 214 262 214 L262 214 Z " />
<glyph glyph-name="Ugrave" unicode="&#xd9;" horiz-adv-x="797" d="M606 730 C606 730 617 730 617 730 C659 730 679 725 668 665 C668 665 588 207 588 207 C536 127 468 87 386 87 C292 87 252 132 268 220 C268 220 346 665 346 665 C360 744 361 750 361 750 C361 750 136 750 136 750 C136 750 133 730 133 730 C133 730 144 730 144 730 C186 730 206 725 195 665 C195 665 117 220 117 220 C90 67 154 -10 308 -10 C422 -10 512 40 576 139 C576 139 583 179 583 179 C583 179 571 110 571 110 C571 110 551 0 551 0 C551 0 575 0 575 0 C575 0 785 55 785 55 C785 55 787 65 787 65 C718 61 713 63 721 110 C721 110 819 665 819 665 C833 744 834 750 834 750 C834 750 610 750 610 750 C609 750 606 730 606 730 C606 730 606 730 606 730 L606 730 Z M481 988 C462 1030 451 1051 441 1051 C401 1051 369 1024 362 983 C360 973 375 955 408 927 C408 927 534 811 534 811 C534 811 554 828 554 828 C554 828 481 988 481 988 L481 988 Z " />
<glyph glyph-name="Uacute" unicode="&#xda;" horiz-adv-x="797" d="M542 811 C542 811 709 927 709 927 C752 957 774 974 775 983 C782 1024 760 1051 719 1051 C711 1051 692 1030 658 988 C658 988 528 828 528 828 C528 828 542 811 542 811 L542 811 Z M606 730 C606 730 617 730 617 730 C659 730 679 725 668 665 C668 665 588 207 588 207 C536 127 468 87 386 87 C292 87 252 132 268 220 C268 220 346 665 346 665 C360 744 361 750 361 750 C361 750 136 750 136 750 C136 750 133 730 133 730 C133 730 144 730 144 730 C186 730 206 725 195 665 C195 665 117 220 117 220 C90 67 154 -10 308 -10 C422 -10 512 40 576 139 C576 139 583 179 583 179 C583 179 571 110 571 110 C571 110 551 0 551 0 C551 0 575 0 575 0 C575 0 785 55 785 55 C785 55 787 65 787 65 C718 61 713 63 721 110 C721 110 819 665 819 665 C833 744 834 750 834 750 C834 750 610 750 610 750 C609 750 606 730 606 730 C606 730 606 730 606 730 L606 730 Z " />
<glyph glyph-name="Ucircumflex" unicode="&#xdb;" horiz-adv-x="797" d="M606 730 C606 730 617 730 617 730 C659 730 679 725 668 665 C668 665 588 207 588 207 C536 127 468 87 386 87 C292 87 252 132 268 220 C268 220 346 665 346 665 C360 744 361 750 361 750 C361 750 136 750 136 750 C136 750 133 730 133 730 C133 730 144 730 144 730 C186 730 206 725 195 665 C195 665 117 220 117 220 C90 67 154 -10 308 -10 C422 -10 512 40 576 139 C576 139 583 179 583 179 C583 179 571 110 571 110 C571 110 551 0 551 0 C551 0 575 0 575 0 C575 0 785 55 785 55 C785 55 787 65 787 65 C718 61 713 63 721 110 C721 110 819 665 819 665 C833 744 834 750 834 750 C834 750 610 750 610 750 C609 750 606 730 606 730 C606 730 606 730 606 730 L606 730 Z M550 907 C550 907 669 804 669 804 C669 804 690 819 690 819 C690 819 612 990 612 990 C605 1006 590 1038 573 1038 C556 1038 530 1006 517 991 C517 991 378 819 378 819 C378 819 394 804 394 804 C394 804 550 907 550 907 L550 907 Z " />
<glyph glyph-name="Udieresis" unicode="&#xdc;" horiz-adv-x="797" d="M626 865 C680 865 711 892 720 945 C730 998 708 1025 655 1025 C602 1025 570 998 560 945 C551 892 573 865 626 865 L626 865 Z M459 865 C512 865 543 892 553 945 C562 998 540 1025 487 1025 C434 1025 402 998 393 945 C383 892 405 865 459 865 L459 865 Z M606 730 C606 730 617 730 617 730 C659 730 679 725 668 665 C668 665 588 207 588 207 C536 127 468 87 386 87 C292 87 252 132 268 220 C268 220 346 665 346 665 C360 744 361 750 361 750 C361 750 136 750 136 750 C136 750 133 730 133 730 C133 730 144 730 144 730 C186 730 206 725 195 665 C195 665 117 220 117 220 C90 67 154 -10 308 -10 C422 -10 512 40 576 139 C576 139 583 179 583 179 C583 179 571 110 571 110 C571 110 551 0 551 0 C551 0 575 0 575 0 C575 0 785 55 785 55 C785 55 787 65 787 65 C718 61 713 63 721 110 C721 110 819 665 819 665 C833 744 834 750 834 750 C834 750 610 750 610 750 C609 750 606 730 606 730 C606 730 606 730 606 730 L606 730 Z " />
<glyph glyph-name="Yacute" unicode="&#xdd;" horiz-adv-x="788" d="M557 811 C557 811 723 927 723 927 C766 957 788 974 790 983 C797 1024 774 1051 734 1051 C726 1051 707 1030 673 988 C673 988 543 828 543 828 C543 828 557 811 557 811 L557 811 Z M415 750 C415 750 341 750 341 750 C341 750 163 750 163 750 C163 750 131 750 131 750 C131 750 128 730 128 730 C128 730 154 730 154 730 C165 730 174 725 207 662 C207 662 384 311 384 311 C384 311 343 80 343 80 C333 24 311 20 270 20 C270 20 259 20 259 20 C258 16 256 2 255 0 C255 0 554 0 554 0 C554 2 557 12 557 20 C557 20 547 20 547 20 C505 20 484 24 494 80 C494 80 536 316 536 316 C536 316 536 316 536 316 C536 316 749 610 749 610 C749 610 749 610 749 610 C830 722 848 730 871 730 C871 730 895 730 895 730 C896 730 899 750 899 750 C899 750 850 750 850 750 C850 750 775 750 775 750 C775 750 701 750 701 750 C701 750 698 730 697 730 C697 730 718 730 718 730 C742 730 755 726 738 693 C738 693 694 624 694 624 C693 622 692 621 691 620 C691 620 691 620 691 620 C691 620 528 366 528 366 C528 366 409 610 409 610 C409 610 409 610 409 610 C408 611 408 612 407 614 C407 614 395 639 395 639 C355 723 366 730 393 730 C393 730 412 730 412 730 C412 730 415 750 415 750 L415 750 Z " />
<glyph glyph-name="agrave" unicode="&#xe0;" horiz-adv-x="514" d="M549 137 C549 137 531 146 531 146 C518 110 496 91 466 91 C433 91 418 105 423 131 C423 131 461 351 461 351 C483 472 441 510 344 510 C210 510 126 420 116 360 C106 307 130 280 186 280 C227 280 254 311 258 337 C263 362 245 374 251 406 C254 426 274 455 302 455 C331 455 343 442 336 400 C336 400 314 279 314 279 C94 216 69 206 49 98 C37 26 67 -10 141 -10 C183 -10 222 8 285 76 C291 22 328 -5 394 -5 C464 -5 516 43 549 137 C549 137 549 137 549 137 L549 137 Z M300 738 C282 780 271 801 261 801 C220 801 189 774 181 733 C179 723 195 705 228 677 C228 677 353 561 353 561 C353 561 373 578 373 578 C373 578 300 738 300 738 L300 738 Z M309 247 C309 247 288 131 288 131 C286 122 285 113 285 104 C255 71 239 62 226 62 C195 62 182 79 188 112 C205 213 217 221 309 247 L309 247 Z " />
<glyph glyph-name="aacute" unicode="&#xe1;" horiz-adv-x="514" d="M362 561 C362 561 528 677 528 677 C571 707 593 724 595 733 C602 774 579 801 539 801 C531 801 512 780 478 738 C478 738 348 578 348 578 C348 578 362 561 362 561 L362 561 Z M549 137 C549 137 531 146 531 146 C518 110 496 91 466 91 C433 91 418 105 423 131 C423 131 461 351 461 351 C483 472 441 510 344 510 C210 510 126 420 116 360 C106 307 130 280 186 280 C227 280 254 311 258 337 C263 362 245 374 251 406 C254 426 274 455 302 455 C331 455 343 442 336 400 C336 400 314 279 314 279 C94 216 69 206 49 98 C37 26 67 -10 141 -10 C183 -10 222 8 285 76 C291 22 328 -5 394 -5 C464 -5 516 43 549 137 C549 137 549 137 549 137 L549 137 Z M309 247 C309 247 288 131 288 131 C286 122 285 113 285 104 C255 71 239 62 226 62 C195 62 182 79 188 112 C205 213 217 221 309 247 L309 247 Z " />
<glyph glyph-name="acircumflex" unicode="&#xe2;" horiz-adv-x="514" d="M549 137 C549 137 531 146 531 146 C518 110 496 91 466 91 C433 91 418 105 423 131 C423 131 461 351 461 351 C483 472 441 510 344 510 C210 510 126 420 116 360 C106 307 130 280 186 280 C227 280 254 311 258 337 C263 362 245 374 251 406 C254 426 274 455 302 455 C331 455 343 442 336 400 C336 400 314 279 314 279 C94 216 69 206 49 98 C37 26 67 -10 141 -10 C183 -10 222 8 285 76 C291 22 328 -5 394 -5 C464 -5 516 43 549 137 C549 137 549 137 549 137 L549 137 Z M370 657 C370 657 489 554 489 554 C489 554 510 569 510 569 C510 569 432 740 432 740 C425 756 410 788 393 788 C375 788 350 756 337 741 C337 741 198 569 198 569 C198 569 214 554 214 554 C214 554 370 657 370 657 L370 657 Z M309 247 C309 247 288 131 288 131 C286 122 285 113 285 104 C255 71 239 62 226 62 C195 62 182 79 188 112 C205 213 217 221 309 247 L309 247 Z " />
<glyph glyph-name="atilde" unicode="&#xe3;" horiz-adv-x="514" d="M225 620 C231 654 246 671 270 671 C333 671 361 606 424 606 C490 606 532 658 550 761 C550 761 526 761 526 761 C519 721 501 701 471 701 C408 701 381 766 318 766 C258 766 218 717 201 620 C201 620 225 620 225 620 L225 620 Z M549 137 C549 137 531 146 531 146 C518 110 496 91 466 91 C433 91 418 105 423 131 C423 131 461 351 461 351 C483 472 441 510 344 510 C210 510 126 420 116 360 C106 307 130 280 186 280 C227 280 254 311 258 337 C263 362 245 374 251 406 C254 426 274 455 302 455 C331 455 343 442 336 400 C336 400 314 279 314 279 C94 216 69 206 49 98 C37 26 67 -10 141 -10 C183 -10 222 8 285 76 C291 22 328 -5 394 -5 C464 -5 516 43 549 137 C549 137 549 137 549 137 L549 137 Z M309 247 C309 247 288 131 288 131 C286 122 285 113 285 104 C255 71 239 62 226 62 C195 62 182 79 188 112 C205 213 217 221 309 247 L309 247 Z " />
<glyph glyph-name="adieresis" unicode="&#xe4;" horiz-adv-x="514" d="M446 615 C499 615 531 642 540 695 C550 748 528 775 474 775 C421 775 390 748 380 695 C371 642 393 615 446 615 L446 615 Z M278 615 C332 615 363 642 372 695 C382 748 360 775 307 775 C253 775 222 748 212 695 C203 642 225 615 278 615 L278 615 Z M549 137 C549 137 531 146 531 146 C518 110 496 91 466 91 C433 91 418 105 423 131 C423 131 461 351 461 351 C483 472 441 510 344 510 C210 510 126 420 116 360 C106 307 130 280 186 280 C227 280 254 311 258 337 C263 362 245 374 251 406 C254 426 274 455 302 455 C331 455 343 442 336 400 C336 400 314 279 314 279 C94 216 69 206 49 98 C37 26 67 -10 141 -10 C183 -10 222 8 285 76 C291 22 328 -5 394 -5 C464 -5 516 43 549 137 C549 137 549 137 549 137 L549 137 Z M309 247 C309 247 288 131 288 131 C286 122 285 113 285 104 C255 71 239 62 226 62 C195 62 182 79 188 112 C205 213 217 221 309 247 L309 247 Z " />
<glyph glyph-name="aring" unicode="&#xe5;" horiz-adv-x="514" d="M358 592 C322 592 303 617 310 655 C317 697 341 718 380 718 C420 718 436 697 428 655 C422 617 394 592 358 592 L358 592 Z M270 655 C260 598 293 560 352 560 C412 560 458 598 468 655 C480 718 452 750 386 750 C320 750 282 718 270 655 L270 655 Z M549 137 C549 137 531 146 531 146 C518 110 496 91 466 91 C433 91 418 105 423 131 C423 131 461 351 461 351 C483 472 441 510 344 510 C210 510 126 420 116 360 C106 307 130 280 186 280 C227 280 254 311 258 337 C263 362 245 374 251 406 C254 426 274 455 302 455 C331 455 343 442 336 400 C336 400 314 279 314 279 C94 216 69 206 49 98 C37 26 67 -10 141 -10 C183 -10 222 8 285 76 C291 22 328 -5 394 -5 C464 -5 516 43 549 137 C549 137 549 137 549 137 L549 137 Z M309 247 C309 247 288 131 288 131 C286 122 285 113 285 104 C255 71 239 62 226 62 C195 62 182 79 188 112 C205 213 217 221 309 247 L309 247 Z " />
<glyph glyph-name="egrave" unicode="&#xe8;" horiz-adv-x="535" d="M337 738 C319 780 308 801 298 801 C257 801 226 774 218 733 C216 723 232 705 265 677 C265 677 390 561 390 561 C390 561 410 578 410 578 C410 578 337 738 337 738 L337 738 Z M233 340 C233 340 416 340 416 340 C416 340 566 340 566 340 C566 476 504 510 381 510 C205 510 100 415 67 226 C39 69 106 -10 265 -10 C381 -10 465 37 515 131 C515 131 500 136 500 136 C479 99 417 80 313 80 C227 80 196 147 219 281 C223 302 227 322 233 340 L233 340 Z M506 379 C515 380 525 380 535 380 C535 380 506 379 506 379 L506 379 Z M415 377 C415 377 243 372 243 372 C271 443 312 479 368 479 C396 479 412 457 415 377 C415 377 415 377 415 377 L415 377 Z " />
<glyph glyph-name="eacute" unicode="&#xe9;" horiz-adv-x="535" d="M399 561 C399 561 565 677 565 677 C608 707 630 724 632 733 C639 774 616 801 576 801 C568 801 549 780 515 738 C515 738 385 578 385 578 C385 578 399 561 399 561 L399 561 Z M233 340 C233 340 416 340 416 340 C416 340 566 340 566 340 C566 476 504 510 381 510 C205 510 100 415 67 226 C39 69 106 -10 265 -10 C381 -10 465 37 515 131 C515 131 500 136 500 136 C479 99 417 80 313 80 C227 80 196 147 219 281 C223 302 227 322 233 340 L233 340 Z M506 379 C515 380 525 380 535 380 C535 380 506 379 506 379 L506 379 Z M415 377 C415 377 243 372 243 372 C271 443 312 479 368 479 C396 479 412 457 415 377 C415 377 415 377 415 377 L415 377 Z " />
<glyph glyph-name="ecircumflex" unicode="&#xea;" horiz-adv-x="535" d="M407 657 C407 657 526 554 526 554 C526 554 547 569 547 569 C547 569 469 740 469 740 C462 756 447 788 430 788 C413 788 387 756 374 741 C374 741 235 569 235 569 C235 569 251 554 251 554 C251 554 407 657 407 657 L407 657 Z M233 340 C233 340 416 340 416 340 C416 340 566 340 566 340 C566 476 504 510 381 510 C205 510 100 415 67 226 C39 69 106 -10 265 -10 C381 -10 465 37 515 131 C515 131 500 136 500 136 C479 99 417 80 313 80 C227 80 196 147 219 281 C223 302 227 322 233 340 L233 340 Z M506 379 C515 380 525 380 535 380 C535 380 506 379 506 379 L506 379 Z M415 377 C415 377 243 372 243 372 C271 443 312 479 368 479 C396 479 412 457 415 377 C415 377 415 377 415 377 L415 377 Z " />
<glyph glyph-name="edieresis" unicode="&#xeb;" horiz-adv-x="535" d="M483 615 C536 615 568 642 577 695 C587 748 565 775 511 775 C458 775 427 748 417 695 C408 642 430 615 483 615 L483 615 Z M315 615 C369 615 400 642 409 695 C419 748 397 775 344 775 C290 775 259 748 249 695 C240 642 262 615 315 615 L315 615 Z M233 340 C233 340 416 340 416 340 C416 340 566 340 566 340 C566 476 504 510 381 510 C205 510 100 415 67 226 C39 69 106 -10 265 -10 C381 -10 465 37 515 131 C515 131 500 136 500 136 C479 99 417 80 313 80 C227 80 196 147 219 281 C223 302 227 322 233 340 L233 340 Z M506 379 C515 380 525 380 535 380 C535 380 506 379 506 379 L506 379 Z M415 377 C415 377 243 372 243 372 C271 443 312 479 368 479 C396 479 412 457 415 377 C415 377 415 377 415 377 L415 377 Z " />
<glyph glyph-name="igrave" unicode="&#xec;" horiz-adv-x="327" d="M46 0 C46 0 296 0 296 0 C296 0 299 20 299 20 C299 20 288 20 288 20 C257 20 241 21 243 35 C243 35 306 390 306 390 C306 390 325 500 325 500 C325 500 302 500 302 500 C302 500 124 445 124 445 C124 445 122 435 122 435 C175 438 179 436 171 390 C171 390 108 35 108 35 C106 21 90 20 60 20 C60 20 50 20 50 20 C49 16 47 2 46 0 L46 0 Z M216 738 C198 780 187 801 177 801 C136 801 105 774 97 733 C95 723 111 705 144 677 C144 677 269 561 269 561 C269 561 289 578 289 578 C289 578 216 738 216 738 L216 738 Z " />
<glyph glyph-name="iacute" unicode="&#xed;" horiz-adv-x="327" d="M46 0 C46 0 296 0 296 0 C296 0 299 20 299 20 C299 20 288 20 288 20 C257 20 241 21 243 35 C243 35 306 390 306 390 C306 390 325 500 325 500 C325 500 302 500 302 500 C302 500 124 445 124 445 C124 445 122 435 122 435 C175 438 179 436 171 390 C171 390 108 35 108 35 C106 21 90 20 60 20 C60 20 50 20 50 20 C49 16 47 2 46 0 L46 0 Z M216 738 C198 780 187 801 177 801 C136 801 105 774 97 733 C95 723 111 705 144 677 C144 677 269 561 269 561 C269 561 289 578 289 578 C289 578 216 738 216 738 L216 738 Z " />
<glyph glyph-name="icircumflex" unicode="&#xee;" horiz-adv-x="327" d="M46 0 C46 0 296 0 296 0 C296 0 299 20 299 20 C299 20 288 20 288 20 C257 20 241 21 243 35 C243 35 306 390 306 390 C306 390 325 500 325 500 C325 500 302 500 302 500 C302 500 124 445 124 445 C124 445 122 435 122 435 C175 438 179 436 171 390 C171 390 108 35 108 35 C106 21 90 20 60 20 C60 20 50 20 50 20 C49 16 47 2 46 0 L46 0 Z M286 657 C286 657 405 554 405 554 C405 554 426 569 426 569 C426 569 348 740 348 740 C341 756 326 788 309 788 C292 788 266 756 253 741 C253 741 114 569 114 569 C114 569 130 554 130 554 C130 554 286 657 286 657 L286 657 Z " />
<glyph glyph-name="idieresis" unicode="&#xef;" horiz-adv-x="327" d="M362 615 C415 615 447 642 456 695 C466 748 444 775 390 775 C337 775 306 748 296 695 C287 642 309 615 362 615 L362 615 Z M194 615 C248 615 279 642 288 695 C298 748 276 775 223 775 C169 775 138 748 128 695 C119 642 141 615 194 615 L194 615 Z M46 0 C46 0 296 0 296 0 C296 0 299 20 299 20 C299 20 288 20 288 20 C257 20 241 21 243 35 C243 35 306 390 306 390 C306 390 325 500 325 500 C325 500 302 500 302 500 C302 500 124 445 124 445 C124 445 122 435 122 435 C175 438 179 436 171 390 C171 390 108 35 108 35 C106 21 90 20 60 20 C60 20 50 20 50 20 C49 16 47 2 46 0 L46 0 Z " />
<glyph glyph-name="ntilde" unicode="&#xf1;" horiz-adv-x="620" d="M275 620 C280 654 296 671 320 671 C383 671 410 606 473 606 C539 606 581 658 599 761 C599 761 576 761 576 761 C568 721 550 701 521 701 C458 701 431 766 368 766 C307 766 268 717 251 620 C251 620 275 620 275 620 L275 620 Z M91 418 C91 418 102 422 102 422 C135 433 152 434 142 373 C142 373 83 35 83 35 C81 21 65 20 35 20 C35 20 24 20 24 20 C23 10 21 8 21 0 C21 0 268 0 268 0 C269 4 271 18 272 20 C272 20 261 20 261 20 C231 20 216 21 218 35 C218 35 282 400 282 400 C299 493 300 500 300 500 C300 500 276 500 276 500 C276 500 94 438 94 438 C94 438 91 418 91 418 L91 418 Z M338 0 C338 0 586 0 586 0 C586 2 589 12 589 20 C589 20 579 20 579 20 C549 20 534 21 536 35 C536 35 579 280 579 280 C606 433 581 510 477 510 C404 510 338 472 282 398 C282 398 275 358 275 358 C302 393 337 411 379 411 C444 411 460 367 444 280 C444 280 401 35 401 35 C399 21 383 20 353 20 C353 20 342 20 342 20 C341 16 339 2 338 0 L338 0 Z " />
<glyph glyph-name="ograve" unicode="&#xf2;" horiz-adv-x="609" d="M301 31 C222 31 194 105 220 250 C246 395 299 469 378 469 C458 469 485 395 459 250 C433 105 380 31 301 31 L301 31 Z M71 250 C41 77 115 -10 294 -10 C472 -10 578 77 608 250 C639 423 564 510 385 510 C207 510 101 423 71 250 L71 250 Z M342 738 C324 780 312 801 302 801 C262 801 230 774 223 733 C221 723 237 705 269 677 C269 677 395 561 395 561 C395 561 415 578 415 578 C415 578 342 738 342 738 L342 738 Z " />
<glyph glyph-name="oacute" unicode="&#xf3;" horiz-adv-x="609" d="M403 561 C403 561 570 677 570 677 C613 707 635 724 636 733 C643 774 621 801 581 801 C572 801 553 780 519 738 C519 738 390 578 390 578 C390 578 403 561 403 561 L403 561 Z M301 31 C222 31 194 105 220 250 C246 395 299 469 378 469 C458 469 485 395 459 250 C433 105 380 31 301 31 L301 31 Z M71 250 C41 77 115 -10 294 -10 C472 -10 578 77 608 250 C639 423 564 510 385 510 C207 510 101 423 71 250 L71 250 Z " />
<glyph glyph-name="ocircumflex" unicode="&#xf4;" horiz-adv-x="609" d="M301 31 C222 31 194 105 220 250 C246 395 299 469 378 469 C458 469 485 395 459 250 C433 105 380 31 301 31 L301 31 Z M71 250 C41 77 115 -10 294 -10 C472 -10 578 77 608 250 C639 423 564 510 385 510 C207 510 101 423 71 250 L71 250 Z M412 657 C412 657 531 554 531 554 C531 554 552 569 552 569 C552 569 474 740 474 740 C466 756 451 788 434 788 C417 788 391 756 379 741 C379 741 240 569 240 569 C240 569 255 554 255 554 C255 554 412 657 412 657 L412 657 Z " />
<glyph glyph-name="otilde" unicode="&#xf5;" horiz-adv-x="609" d="M267 620 C272 654 288 671 312 671 C375 671 402 606 465 606 C531 606 573 658 591 761 C591 761 568 761 568 761 C560 721 542 701 513 701 C450 701 423 766 360 766 C299 766 260 717 243 620 C243 620 267 620 267 620 L267 620 Z M301 31 C222 31 194 105 220 250 C246 395 299 469 378 469 C458 469 485 395 459 250 C433 105 380 31 301 31 L301 31 Z M71 250 C41 77 115 -10 294 -10 C472 -10 578 77 608 250 C639 423 564 510 385 510 C207 510 101 423 71 250 L71 250 Z " />
<glyph glyph-name="odieresis" unicode="&#xf6;" horiz-adv-x="609" d="M488 615 C541 615 572 642 582 695 C591 748 569 775 516 775 C463 775 431 748 422 695 C412 642 434 615 488 615 L488 615 Z M320 615 C373 615 405 642 414 695 C424 748 402 775 348 775 C295 775 264 748 254 695 C245 642 267 615 320 615 L320 615 Z M301 31 C222 31 194 105 220 250 C246 395 299 469 378 469 C458 469 485 395 459 250 C433 105 380 31 301 31 L301 31 Z M71 250 C41 77 115 -10 294 -10 C472 -10 578 77 608 250 C639 423 564 510 385 510 C207 510 101 423 71 250 L71 250 Z " />
<glyph glyph-name="oslash" unicode="&#xf8;" horiz-adv-x="609" d="M39 -27 C39 -27 120 40 120 40 C158 7 216 -10 294 -10 C472 -10 578 77 608 250 C622 326 615 385 588 428 C588 428 667 493 667 493 C667 493 640 527 640 527 C640 527 560 461 560 461 C521 493 463 510 385 510 C207 510 101 423 71 250 C58 175 65 116 91 73 C91 73 11 7 11 7 C11 7 39 -27 39 -27 L39 -27 Z M301 31 C252 31 222 60 213 117 C213 117 468 328 468 328 C467 305 464 279 459 250 C433 105 380 31 301 31 L301 31 Z M211 172 C212 195 215 221 220 250 C246 395 299 469 378 469 C428 469 457 440 466 383 C466 383 211 172 211 172 L211 172 Z " />
<glyph glyph-name="ugrave" unicode="&#xf9;" horiz-adv-x="599" d="M417 480 C417 480 427 480 427 480 C451 480 463 479 461 465 C461 465 407 156 407 156 C376 108 336 84 289 84 C237 84 215 110 224 160 C224 160 278 465 278 465 C284 498 284 500 284 500 C284 500 103 500 103 500 C102 500 99 480 99 480 C99 480 110 480 110 480 C134 480 145 479 143 465 C143 465 89 160 89 160 C69 47 109 -10 209 -10 C286 -10 350 32 399 115 C399 115 395 90 395 90 C378 -3 377 -10 377 -10 C377 -10 401 -10 401 -10 C401 -10 579 33 579 33 C579 33 582 53 583 53 C583 53 572 50 572 50 C542 43 526 43 531 96 C531 96 596 465 596 465 C602 498 602 500 602 500 C602 500 420 500 420 500 C420 500 417 480 417 480 L417 480 Z M334 738 C315 780 304 801 294 801 C254 801 222 774 215 733 C213 723 229 705 261 677 C261 677 387 561 387 561 C387 561 407 578 407 578 C407 578 334 738 334 738 L334 738 Z M583 53 C583 53 583 53 583 53 C583 53 583 53 583 53 C583 53 583 53 583 53 L583 53 Z " />
<glyph glyph-name="uacute" unicode="&#xfa;" horiz-adv-x="599" d="M395 561 C395 561 562 677 562 677 C605 707 627 724 628 733 C635 774 613 801 573 801 C564 801 545 780 511 738 C511 738 382 578 382 578 C382 578 395 561 395 561 L395 561 Z M417 480 C417 480 427 480 427 480 C451 480 463 479 461 465 C461 465 407 156 407 156 C376 108 336 84 289 84 C237 84 215 110 224 160 C224 160 278 465 278 465 C284 498 284 500 284 500 C284 500 103 500 103 500 C102 500 99 480 99 480 C99 480 110 480 110 480 C134 480 145 479 143 465 C143 465 89 160 89 160 C69 47 109 -10 209 -10 C286 -10 350 32 399 115 C399 115 395 90 395 90 C378 -3 377 -10 377 -10 C377 -10 401 -10 401 -10 C401 -10 579 33 579 33 C579 33 582 53 583 53 C583 53 572 50 572 50 C542 43 526 43 531 96 C531 96 596 465 596 465 C602 498 602 500 602 500 C602 500 420 500 420 500 C420 500 417 480 417 480 L417 480 Z M583 53 C583 53 583 53 583 53 C583 53 583 53 583 53 C583 53 583 53 583 53 L583 53 Z " />
<glyph glyph-name="ucircumflex" unicode="&#xfb;" horiz-adv-x="599" d="M417 480 C417 480 427 480 427 480 C451 480 463 479 461 465 C461 465 407 156 407 156 C376 108 336 84 289 84 C237 84 215 110 224 160 C224 160 278 465 278 465 C284 498 284 500 284 500 C284 500 103 500 103 500 C102 500 99 480 99 480 C99 480 110 480 110 480 C134 480 145 479 143 465 C143 465 89 160 89 160 C69 47 109 -10 209 -10 C286 -10 350 32 399 115 C399 115 395 90 395 90 C378 -3 377 -10 377 -10 C377 -10 401 -10 401 -10 C401 -10 579 33 579 33 C579 33 582 53 583 53 C583 53 572 50 572 50 C542 43 526 43 531 96 C531 96 596 465 596 465 C602 498 602 500 602 500 C602 500 420 500 420 500 C420 500 417 480 417 480 L417 480 Z M404 657 C404 657 523 554 523 554 C523 554 544 569 544 569 C544 569 466 740 466 740 C458 756 443 788 426 788 C409 788 383 756 370 741 C370 741 232 569 232 569 C232 569 247 554 247 554 C247 554 404 657 404 657 L404 657 Z M583 53 C583 53 583 53 583 53 C583 53 583 53 583 53 C583 53 583 53 583 53 L583 53 Z " />
<glyph glyph-name="udieresis" unicode="&#xfc;" horiz-adv-x="599" d="M480 615 C533 615 564 642 574 695 C583 748 561 775 508 775 C455 775 423 748 414 695 C404 642 426 615 480 615 L480 615 Z M312 615 C365 615 396 642 406 695 C415 748 393 775 340 775 C287 775 255 748 246 695 C236 642 258 615 312 615 L312 615 Z M417 480 C417 480 427 480 427 480 C451 480 463 479 461 465 C461 465 407 156 407 156 C376 108 336 84 289 84 C237 84 215 110 224 160 C224 160 278 465 278 465 C284 498 284 500 284 500 C284 500 103 500 103 500 C102 500 99 480 99 480 C99 480 110 480 110 480 C134 480 145 479 143 465 C143 465 89 160 89 160 C69 47 109 -10 209 -10 C286 -10 350 32 399 115 C399 115 395 90 395 90 C378 -3 377 -10 377 -10 C377 -10 401 -10 401 -10 C401 -10 579 33 579 33 C579 33 582 53 583 53 C583 53 572 50 572 50 C542 43 526 43 531 96 C531 96 596 465 596 465 C602 498 602 500 602 500 C602 500 420 500 420 500 C420 500 417 480 417 480 L417 480 Z M583 53 C583 53 583 53 583 53 C583 53 583 53 583 53 C583 53 583 53 583 53 L583 53 Z " />
<glyph glyph-name="ydieresis" unicode="&#xff;" horiz-adv-x="594" d="M514 615 C567 615 599 642 608 695 C618 748 596 775 542 775 C489 775 458 748 448 695 C439 642 461 615 514 615 L514 615 Z M346 615 C400 615 431 642 440 695 C450 748 428 775 375 775 C321 775 290 748 280 695 C271 642 293 615 346 615 L346 615 Z M664 500 C664 500 612 500 612 500 C612 500 550 500 550 500 C550 500 483 500 483 500 C483 500 480 480 480 480 C480 480 501 480 501 480 C527 480 539 478 523 450 C523 450 523 450 523 450 C523 450 374 170 374 170 C374 170 282 462 282 462 C279 479 286 480 298 480 C298 480 319 480 319 480 C320 490 322 492 322 500 C322 500 270 500 270 500 C270 500 122 500 122 500 C122 500 82 500 82 500 C82 500 79 480 79 480 C79 480 104 480 104 480 C120 480 128 478 136 453 C136 453 136 453 136 453 C136 453 278 -10 278 -10 C278 -10 208 -140 208 -140 C199 -157 188 -165 174 -165 C138 -165 141 -117 105 -117 C54 -117 24 -140 16 -184 C7 -240 28 -268 81 -268 C145 -268 193 -237 227 -177 C227 -177 317 -10 317 -10 C317 -10 574 434 574 434 C574 434 574 434 574 434 C575 436 576 438 577 440 C577 440 579 444 579 444 C599 477 613 480 636 480 C636 480 660 480 660 480 C660 480 664 500 664 500 C664 500 664 500 664 500 L664 500 Z " />
<glyph glyph-name="Amacron" unicode="&#x100;" horiz-adv-x="792" d="M409 887 C409 887 709 887 709 887 C709 887 725 980 725 980 C725 980 425 980 425 980 C425 980 409 887 409 887 L409 887 Z M464 0 C464 0 559 0 559 0 C559 0 717 0 717 0 C717 0 777 0 777 0 C777 2 780 12 780 20 C780 20 757 20 757 20 C730 20 714 27 699 110 C699 110 602 702 602 702 C602 702 591 770 591 770 C591 770 576 770 576 770 C542 732 501 709 451 702 C451 702 453 692 453 692 C453 692 452 692 452 692 C452 692 187 170 187 170 C187 170 187 170 187 170 C184 164 181 158 178 153 C178 153 175 146 175 146 C115 29 85 20 39 20 C39 20 16 20 16 20 C15 10 13 8 13 0 C13 0 101 0 101 0 C101 0 146 0 146 0 C146 0 262 0 262 0 C263 4 265 18 266 20 C266 20 245 20 245 20 C185 20 161 30 229 170 C229 170 229 170 229 170 C229 170 277 269 277 269 C277 269 518 269 518 269 C518 269 537 140 537 140 C537 140 537 140 537 140 C554 28 533 20 488 20 C488 20 467 20 467 20 C466 10 464 8 464 0 C464 0 464 0 464 0 L464 0 Z M296 308 C296 308 460 644 460 644 C460 644 512 308 512 308 C512 308 296 308 296 308 L296 308 Z " />
<glyph glyph-name="amacron" unicode="&#x101;" horiz-adv-x="514" d="M216 637 C216 637 516 637 516 637 C516 637 533 730 533 730 C533 730 233 730 233 730 C233 730 216 637 216 637 L216 637 Z M549 137 C549 137 531 146 531 146 C518 110 496 91 466 91 C433 91 418 105 423 131 C423 131 461 351 461 351 C483 472 441 510 344 510 C210 510 126 420 116 360 C106 307 130 280 186 280 C227 280 254 311 258 337 C263 362 245 374 251 406 C254 426 274 455 302 455 C331 455 343 442 336 400 C336 400 314 279 314 279 C94 216 69 206 49 98 C37 26 67 -10 141 -10 C183 -10 222 8 285 76 C291 22 328 -5 394 -5 C464 -5 516 43 549 137 C549 137 549 137 549 137 L549 137 Z M309 247 C309 247 288 131 288 131 C286 122 285 113 285 104 C255 71 239 62 226 62 C195 62 182 79 188 112 C205 213 217 221 309 247 L309 247 Z " />
<glyph glyph-name="Abreve" unicode="&#x102;" horiz-adv-x="792" d="M429 994 C426 894 467 844 551 844 C637 844 695 893 726 991 C726 991 698 995 698 995 C687 958 643 939 568 939 C493 939 456 959 458 998 C458 998 429 994 429 994 L429 994 Z M464 0 C464 0 559 0 559 0 C559 0 717 0 717 0 C717 0 777 0 777 0 C777 2 780 12 780 20 C780 20 757 20 757 20 C730 20 714 27 699 110 C699 110 602 702 602 702 C602 702 591 770 591 770 C591 770 576 770 576 770 C542 732 501 709 451 702 C451 702 453 692 453 692 C453 692 452 692 452 692 C452 692 187 170 187 170 C187 170 187 170 187 170 C184 164 181 158 178 153 C178 153 175 146 175 146 C115 29 85 20 39 20 C39 20 16 20 16 20 C15 10 13 8 13 0 C13 0 101 0 101 0 C101 0 146 0 146 0 C146 0 262 0 262 0 C263 4 265 18 266 20 C266 20 245 20 245 20 C185 20 161 30 229 170 C229 170 229 170 229 170 C229 170 277 269 277 269 C277 269 518 269 518 269 C518 269 537 140 537 140 C537 140 537 140 537 140 C554 28 533 20 488 20 C488 20 467 20 467 20 C466 10 464 8 464 0 C464 0 464 0 464 0 L464 0 Z M296 308 C296 308 460 644 460 644 C460 644 512 308 512 308 C512 308 296 308 296 308 L296 308 Z " />
<glyph glyph-name="abreve" unicode="&#x103;" horiz-adv-x="514" d="M236 744 C233 644 274 594 358 594 C444 594 502 643 533 741 C533 741 506 745 506 745 C494 708 450 689 375 689 C300 689 263 709 265 748 C265 748 236 744 236 744 L236 744 Z M549 137 C549 137 531 146 531 146 C518 110 496 91 466 91 C433 91 418 105 423 131 C423 131 461 351 461 351 C483 472 441 510 344 510 C210 510 126 420 116 360 C106 307 130 280 186 280 C227 280 254 311 258 337 C263 362 245 374 251 406 C254 426 274 455 302 455 C331 455 343 442 336 400 C336 400 314 279 314 279 C94 216 69 206 49 98 C37 26 67 -10 141 -10 C183 -10 222 8 285 76 C291 22 328 -5 394 -5 C464 -5 516 43 549 137 C549 137 549 137 549 137 L549 137 Z M309 247 C309 247 288 131 288 131 C286 122 285 113 285 104 C255 71 239 62 226 62 C195 62 182 79 188 112 C205 213 217 221 309 247 L309 247 Z " />
<glyph glyph-name="Cacute" unicode="&#x106;" horiz-adv-x="781" d="M601 811 C601 811 768 927 768 927 C811 957 833 974 834 983 C841 1024 819 1051 779 1051 C770 1051 751 1030 717 988 C717 988 587 828 587 828 C587 828 601 811 601 811 L601 811 Z M838 536 C838 536 853 626 853 626 C853 626 854 629 855 635 C855 635 855 635 855 635 C855 635 855 635 855 635 C857 648 862 675 869 715 C869 715 854 715 854 715 C854 715 851 708 846 695 C843 689 822 694 785 717 C746 746 690 760 583 760 C309 760 147 631 102 375 C57 119 170 -10 437 -10 C533 -10 597 3 650 29 C650 29 650 29 650 29 C650 29 691 41 732 52 C738 54 739 47 736 31 C736 31 748 31 748 31 C753 59 758 87 763 115 C763 115 763 115 763 115 C763 115 763 115 763 115 C763 118 764 120 764 123 C765 123 770 153 780 214 C780 214 765 214 765 214 C766 214 763 209 758 199 C751 185 739 169 725 153 C725 153 724 154 724 154 C680 111 643 79 602 57 C594 53 585 49 577 46 C577 46 577 46 577 46 C543 32 505 25 458 25 C290 25 226 142 268 375 C308 606 417 722 592 722 C714 722 746 680 802 596 C802 596 805 598 805 598 C813 583 818 566 820 551 C820 551 823 536 823 536 C823 536 838 536 838 536 L838 536 Z " />
<glyph glyph-name="Ccircumflex" unicode="&#x108;" horiz-adv-x="781" d="M838 536 C838 536 853 626 853 626 C853 626 854 629 855 635 C855 635 855 635 855 635 C855 635 855 635 855 635 C857 648 862 675 869 715 C869 715 854 715 854 715 C854 715 851 708 846 695 C843 689 822 694 785 717 C746 746 690 760 583 760 C309 760 147 631 102 375 C57 119 170 -10 437 -10 C533 -10 597 3 650 29 C650 29 650 29 650 29 C650 29 691 41 732 52 C738 54 739 47 736 31 C736 31 748 31 748 31 C753 59 758 87 763 115 C763 115 763 115 763 115 C763 115 763 115 763 115 C763 118 764 120 764 123 C765 123 770 153 780 214 C780 214 765 214 765 214 C766 214 763 209 758 199 C751 185 739 169 725 153 C725 153 724 154 724 154 C680 111 643 79 602 57 C594 53 585 49 577 46 C577 46 577 46 577 46 C543 32 505 25 458 25 C290 25 226 142 268 375 C308 606 417 722 592 722 C714 722 746 680 802 596 C802 596 805 598 805 598 C813 583 818 566 820 551 C820 551 823 536 823 536 C823 536 838 536 838 536 L838 536 Z M610 907 C610 907 729 804 729 804 C729 804 750 819 750 819 C750 819 671 990 671 990 C664 1006 649 1038 632 1038 C615 1038 589 1006 576 991 C576 991 438 819 438 819 C438 819 453 804 453 804 C453 804 610 907 610 907 L610 907 Z " />
<glyph glyph-name="Cdotaccent" unicode="&#x10a;" horiz-adv-x="781" d="M602 865 C655 865 686 892 696 945 C705 998 683 1025 630 1025 C577 1025 545 998 536 945 C526 892 548 865 602 865 L602 865 Z M838 536 C838 536 853 626 853 626 C853 626 854 629 855 635 C855 635 855 635 855 635 C855 635 855 635 855 635 C857 648 862 675 869 715 C869 715 854 715 854 715 C854 715 851 708 846 695 C843 689 822 694 785 717 C746 746 690 760 583 760 C309 760 147 631 102 375 C57 119 170 -10 437 -10 C533 -10 597 3 650 29 C650 29 650 29 650 29 C650 29 691 41 732 52 C738 54 739 47 736 31 C736 31 748 31 748 31 C753 59 758 87 763 115 C763 115 763 115 763 115 C763 115 763 115 763 115 C763 118 764 120 764 123 C765 123 770 153 780 214 C780 214 765 214 765 214 C766 214 763 209 758 199 C751 185 739 169 725 153 C725 153 724 154 724 154 C680 111 643 79 602 57 C594 53 585 49 577 46 C577 46 577 46 577 46 C543 32 505 25 458 25 C290 25 226 142 268 375 C308 606 417 722 592 722 C714 722 746 680 802 596 C802 596 805 598 805 598 C813 583 818 566 820 551 C820 551 823 536 823 536 C823 536 838 536 838 536 L838 536 Z " />
<glyph glyph-name="cdotaccent" unicode="&#x10b;" horiz-adv-x="543" d="M442 615 C496 615 527 642 536 695 C546 748 524 775 471 775 C417 775 386 748 376 695 C367 642 389 615 442 615 L442 615 Z M536 128 C536 128 518 136 518 136 C492 94 445 73 378 73 C250 73 198 142 222 279 C246 412 309 479 411 479 C432 479 448 454 458 405 C466 360 485 338 513 338 C575 338 601 360 593 405 C580 475 523 510 424 510 C221 510 101 417 69 234 C41 72 124 -10 316 -10 C405 -10 479 36 536 128 L536 128 Z " />
<glyph glyph-name="Ccaron" unicode="&#x10c;" horiz-adv-x="781" d="M838 536 C838 536 853 626 853 626 C853 626 854 629 855 635 C855 635 855 635 855 635 C855 635 855 635 855 635 C857 648 862 675 869 715 C869 715 854 715 854 715 C854 715 851 708 846 695 C843 689 822 694 785 717 C746 746 690 760 583 760 C309 760 147 631 102 375 C57 119 170 -10 437 -10 C533 -10 597 3 650 29 C650 29 650 29 650 29 C650 29 691 41 732 52 C738 54 739 47 736 31 C736 31 748 31 748 31 C753 59 758 87 763 115 C763 115 763 115 763 115 C763 115 763 115 763 115 C763 118 764 120 764 123 C765 123 770 153 780 214 C780 214 765 214 765 214 C766 214 763 209 758 199 C751 185 739 169 725 153 C725 153 724 154 724 154 C680 111 643 79 602 57 C594 53 585 49 577 46 C577 46 577 46 577 46 C543 32 505 25 458 25 C290 25 226 142 268 375 C308 606 417 722 592 722 C714 722 746 680 802 596 C802 596 805 598 805 598 C813 583 818 566 820 551 C820 551 823 536 823 536 C823 536 838 536 838 536 L838 536 Z M616 943 C616 943 771 1046 771 1046 C771 1046 787 1031 787 1031 C787 1031 649 860 649 860 C636 844 609 812 592 812 C575 812 561 844 553 859 C553 859 475 1031 475 1031 C475 1031 496 1046 496 1046 C496 1046 616 943 616 943 L616 943 Z " />
<glyph glyph-name="ccaron" unicode="&#x10d;" horiz-adv-x="543" d="M536 128 C536 128 518 136 518 136 C492 94 445 73 378 73 C250 73 198 142 222 279 C246 412 309 479 411 479 C432 479 448 454 458 405 C466 360 485 338 513 338 C575 338 601 360 593 405 C580 475 523 510 424 510 C221 510 101 417 69 234 C41 72 124 -10 316 -10 C405 -10 479 36 536 128 L536 128 Z M456 693 C456 693 612 796 612 796 C612 796 627 781 627 781 C627 781 489 610 489 610 C476 594 450 562 433 562 C416 562 401 594 394 609 C394 609 316 781 316 781 C316 781 337 796 337 796 C337 796 456 693 456 693 L456 693 Z " />
<glyph glyph-name="Dcaron" unicode="&#x10e;" horiz-adv-x="885" d="M39 0 C39 0 113 0 113 0 C113 0 264 0 264 0 C264 0 344 0 344 0 C667 0 848 101 896 375 C940 624 842 750 516 750 C516 750 396 750 396 750 C396 750 391 720 391 720 C683 720 771 604 730 375 C686 123 547 30 304 30 C275 30 272 42 275 64 C276 71 278 77 279 85 C279 85 279 85 279 85 C279 85 388 703 388 703 C395 746 396 750 396 750 C396 750 245 750 245 750 C245 750 171 750 171 750 C171 750 168 730 168 730 C168 730 179 730 179 730 C221 730 241 725 230 665 C230 665 230 665 230 665 C230 665 127 82 127 82 C116 25 94 20 53 20 C53 20 43 20 43 20 C42 16 40 2 39 0 C39 0 39 0 39 0 L39 0 Z M555 943 C555 943 711 1046 711 1046 C711 1046 726 1031 726 1031 C726 1031 588 860 588 860 C575 844 549 812 532 812 C514 812 500 844 493 859 C493 859 414 1031 414 1031 C414 1031 435 1046 435 1046 C435 1046 555 943 555 943 L555 943 Z " />
<glyph glyph-name="dcaron" unicode="&#x10f;" horiz-adv-x="573" d="M582 53 C582 53 571 50 571 50 C537 42 521 45 538 138 C538 138 538 138 538 138 C538 138 631 665 631 665 C644 744 645 750 645 750 C645 750 622 750 622 750 C622 750 442 701 442 701 C442 701 442 698 440 691 C440 684 439 681 439 681 C439 681 450 684 450 684 C484 693 500 694 490 633 C490 633 490 633 490 633 C490 633 465 492 465 492 C434 503 393 510 342 510 C183 510 108 422 77 248 C48 80 99 -5 229 -5 C294 -5 348 17 389 58 C377 -5 376 -10 376 -10 C376 -10 400 -10 400 -10 C400 -10 579 33 579 33 C579 33 582 53 582 53 L582 53 Z M744 633 C771 671 788 706 793 737 C796 753 776 757 736 757 C705 757 688 698 677 647 C677 647 652 535 652 535 C652 535 674 530 674 530 C674 530 744 633 744 633 L744 633 Z M397 105 C363 69 329 51 295 51 C219 51 194 129 222 285 C243 408 280 471 351 471 C396 471 431 442 449 399 C449 399 398 110 398 110 C398 108 397 107 397 105 L397 105 Z " />
<glyph glyph-name="Emacron" unicode="&#x112;" horiz-adv-x="661" d="M350 887 C350 887 650 887 650 887 C650 887 666 980 666 980 C666 980 366 980 366 980 C366 980 350 887 350 887 L350 887 Z M673 630 C673 630 693 630 693 630 C696 650 698 670 700 690 C700 690 706 750 706 750 C706 750 586 750 586 750 C586 750 396 750 396 750 C396 750 245 750 245 750 C245 750 171 750 171 750 C171 750 168 730 168 730 C168 730 179 730 179 730 C221 730 241 725 230 665 C230 665 230 665 230 665 C230 665 127 82 127 82 C116 25 94 20 53 20 C53 20 43 20 43 20 C42 16 40 2 39 0 C39 0 113 0 113 0 C113 0 264 0 264 0 C264 0 479 0 479 0 C479 0 599 0 599 0 C611 40 625 80 637 120 C637 120 617 120 617 120 C617 120 613 109 613 109 C597 58 582 32 489 32 C489 32 349 32 349 32 C281 32 273 44 276 68 C277 73 278 79 279 85 C279 85 279 85 279 85 C279 85 336 411 336 411 C336 411 332 385 332 385 C332 385 462 385 462 385 C561 385 557 350 544 287 C544 287 564 287 564 287 C578 362 593 443 605 519 C605 519 585 519 585 519 C585 519 584 509 584 509 C573 450 561 421 468 421 C468 421 338 421 338 421 C338 421 388 703 388 703 C389 709 390 714 390 718 C390 718 583 718 583 718 C699 718 680 689 673 630 C673 630 673 630 673 630 L673 630 Z " />
<glyph glyph-name="emacron" unicode="&#x113;" horiz-adv-x="535" d="M253 637 C253 637 553 637 553 637 C553 637 570 730 570 730 C570 730 270 730 270 730 C270 730 253 637 253 637 L253 637 Z M233 340 C233 340 416 340 416 340 C416 340 566 340 566 340 C566 476 504 510 381 510 C205 510 100 415 67 226 C39 69 106 -10 265 -10 C381 -10 465 37 515 131 C515 131 500 136 500 136 C479 99 417 80 313 80 C227 80 196 147 219 281 C223 302 227 322 233 340 L233 340 Z M506 379 C515 380 525 380 535 380 C535 380 506 379 506 379 L506 379 Z M415 377 C415 377 243 372 243 372 C271 443 312 479 368 479 C396 479 412 457 415 377 C415 377 415 377 415 377 L415 377 Z " />
<glyph glyph-name="Ebreve" unicode="&#x114;" horiz-adv-x="661" d="M370 994 C366 894 408 844 492 844 C578 844 636 893 667 991 C667 991 639 995 639 995 C628 958 584 939 509 939 C434 939 397 959 399 998 C399 998 370 994 370 994 L370 994 Z M673 630 C673 630 693 630 693 630 C696 650 698 670 700 690 C700 690 706 750 706 750 C706 750 586 750 586 750 C586 750 396 750 396 750 C396 750 245 750 245 750 C245 750 171 750 171 750 C171 750 168 730 168 730 C168 730 179 730 179 730 C221 730 241 725 230 665 C230 665 230 665 230 665 C230 665 127 82 127 82 C116 25 94 20 53 20 C53 20 43 20 43 20 C42 16 40 2 39 0 C39 0 113 0 113 0 C113 0 264 0 264 0 C264 0 479 0 479 0 C479 0 599 0 599 0 C611 40 625 80 637 120 C637 120 617 120 617 120 C617 120 613 109 613 109 C597 58 582 32 489 32 C489 32 349 32 349 32 C281 32 273 44 276 68 C277 73 278 79 279 85 C279 85 279 85 279 85 C279 85 336 411 336 411 C336 411 332 385 332 385 C332 385 462 385 462 385 C561 385 557 350 544 287 C544 287 564 287 564 287 C578 362 593 443 605 519 C605 519 585 519 585 519 C585 519 584 509 584 509 C573 450 561 421 468 421 C468 421 338 421 338 421 C338 421 388 703 388 703 C389 709 390 714 390 718 C390 718 583 718 583 718 C699 718 680 689 673 630 C673 630 673 630 673 630 L673 630 Z " />
<glyph glyph-name="ebreve" unicode="&#x115;" horiz-adv-x="535" d="M273 744 C270 644 311 594 395 594 C481 594 539 643 570 741 C570 741 543 745 543 745 C531 708 487 689 412 689 C337 689 300 709 302 748 C302 748 273 744 273 744 L273 744 Z M233 340 C233 340 416 340 416 340 C416 340 566 340 566 340 C566 476 504 510 381 510 C205 510 100 415 67 226 C39 69 106 -10 265 -10 C381 -10 465 37 515 131 C515 131 500 136 500 136 C479 99 417 80 313 80 C227 80 196 147 219 281 C223 302 227 322 233 340 L233 340 Z M506 379 C515 380 525 380 535 380 C535 380 506 379 506 379 L506 379 Z M415 377 C415 377 243 372 243 372 C271 443 312 479 368 479 C396 479 412 457 415 377 C415 377 415 377 415 377 L415 377 Z " />
<glyph glyph-name="Edotaccent" unicode="&#x116;" horiz-adv-x="661" d="M496 865 C549 865 580 892 590 945 C599 998 577 1025 524 1025 C471 1025 439 998 430 945 C420 892 443 865 496 865 L496 865 Z M673 630 C673 630 693 630 693 630 C696 650 698 670 700 690 C700 690 706 750 706 750 C706 750 586 750 586 750 C586 750 396 750 396 750 C396 750 245 750 245 750 C245 750 171 750 171 750 C171 750 168 730 168 730 C168 730 179 730 179 730 C221 730 241 725 230 665 C230 665 230 665 230 665 C230 665 127 82 127 82 C116 25 94 20 53 20 C53 20 43 20 43 20 C42 16 40 2 39 0 C39 0 113 0 113 0 C113 0 264 0 264 0 C264 0 479 0 479 0 C479 0 599 0 599 0 C611 40 625 80 637 120 C637 120 617 120 617 120 C617 120 613 109 613 109 C597 58 582 32 489 32 C489 32 349 32 349 32 C281 32 273 44 276 68 C277 73 278 79 279 85 C279 85 279 85 279 85 C279 85 336 411 336 411 C336 411 332 385 332 385 C332 385 462 385 462 385 C561 385 557 350 544 287 C544 287 564 287 564 287 C578 362 593 443 605 519 C605 519 585 519 585 519 C585 519 584 509 584 509 C573 450 561 421 468 421 C468 421 338 421 338 421 C338 421 388 703 388 703 C389 709 390 714 390 718 C390 718 583 718 583 718 C699 718 680 689 673 630 C673 630 673 630 673 630 L673 630 Z " />
<glyph glyph-name="edotaccent" unicode="&#x117;" horiz-adv-x="535" d="M399 615 C453 615 484 642 493 695 C503 748 481 775 427 775 C374 775 343 748 333 695 C324 642 346 615 399 615 L399 615 Z M233 340 C233 340 416 340 416 340 C416 340 566 340 566 340 C566 476 504 510 381 510 C205 510 100 415 67 226 C39 69 106 -10 265 -10 C381 -10 465 37 515 131 C515 131 500 136 500 136 C479 99 417 80 313 80 C227 80 196 147 219 281 C223 302 227 322 233 340 L233 340 Z M506 379 C515 380 525 380 535 380 C535 380 506 379 506 379 L506 379 Z M415 377 C415 377 243 372 243 372 C271 443 312 479 368 479 C396 479 412 457 415 377 C415 377 415 377 415 377 L415 377 Z " />
<glyph glyph-name="Ecaron" unicode="&#x11a;" horiz-adv-x="661" d="M673 630 C673 630 693 630 693 630 C696 650 698 670 700 690 C700 690 706 750 706 750 C706 750 586 750 586 750 C586 750 396 750 396 750 C396 750 245 750 245 750 C245 750 171 750 171 750 C171 750 168 730 168 730 C168 730 179 730 179 730 C221 730 241 725 230 665 C230 665 230 665 230 665 C230 665 127 82 127 82 C116 25 94 20 53 20 C53 20 43 20 43 20 C42 16 40 2 39 0 C39 0 113 0 113 0 C113 0 264 0 264 0 C264 0 479 0 479 0 C479 0 599 0 599 0 C611 40 625 80 637 120 C637 120 617 120 617 120 C617 120 613 109 613 109 C597 58 582 32 489 32 C489 32 349 32 349 32 C281 32 273 44 276 68 C277 73 278 79 279 85 C279 85 279 85 279 85 C279 85 336 411 336 411 C336 411 332 385 332 385 C332 385 462 385 462 385 C561 385 557 350 544 287 C544 287 564 287 564 287 C578 362 593 443 605 519 C605 519 585 519 585 519 C585 519 584 509 584 509 C573 450 561 421 468 421 C468 421 338 421 338 421 C338 421 388 703 388 703 C389 709 390 714 390 718 C390 718 583 718 583 718 C699 718 680 689 673 630 C673 630 673 630 673 630 L673 630 Z M510 943 C510 943 666 1046 666 1046 C666 1046 681 1031 681 1031 C681 1031 543 860 543 860 C530 844 503 812 487 812 C469 812 455 844 448 859 C448 859 369 1031 369 1031 C369 1031 390 1046 390 1046 C390 1046 510 943 510 943 L510 943 Z " />
<glyph glyph-name="ecaron" unicode="&#x11b;" horiz-adv-x="535" d="M413 693 C413 693 569 796 569 796 C569 796 584 781 584 781 C584 781 446 610 446 610 C433 594 407 562 390 562 C373 562 358 594 351 609 C351 609 272 781 272 781 C272 781 293 796 293 796 C293 796 413 693 413 693 L413 693 Z M233 340 C233 340 416 340 416 340 C416 340 566 340 566 340 C566 476 504 510 381 510 C205 510 100 415 67 226 C39 69 106 -10 265 -10 C381 -10 465 37 515 131 C515 131 500 136 500 136 C479 99 417 80 313 80 C227 80 196 147 219 281 C223 302 227 322 233 340 L233 340 Z M506 379 C515 380 525 380 535 380 C535 380 506 379 506 379 L506 379 Z M415 377 C415 377 243 372 243 372 C271 443 312 479 368 479 C396 479 412 457 415 377 C415 377 415 377 415 377 L415 377 Z " />
<glyph glyph-name="Gcircumflex" unicode="&#x11c;" horiz-adv-x="841" d="M838 536 C838 536 853 626 853 626 C853 626 854 629 855 635 C855 635 855 635 855 635 C855 635 855 635 855 635 C857 648 862 675 869 715 C869 715 854 715 854 715 C854 715 851 708 846 695 C843 689 822 694 785 717 C746 746 690 760 583 760 C309 760 147 631 102 375 C57 119 174 -10 450 -10 C620 -10 700 13 804 58 C804 58 798 79 798 79 C775 69 753 61 729 54 C729 54 762 245 762 245 C772 301 789 305 822 305 C822 305 832 305 832 305 C833 305 836 325 836 325 C836 325 555 325 555 325 C554 315 552 313 552 305 C552 305 562 305 562 305 C602 305 621 301 611 245 C611 245 595 149 595 149 C577 68 535 27 470 27 C294 27 227 144 268 375 C308 606 417 722 592 722 C714 722 746 680 802 596 C802 596 805 598 805 598 C813 583 818 566 820 551 C820 551 823 536 823 536 C823 536 838 536 838 536 L838 536 Z M610 907 C610 907 729 804 729 804 C729 804 750 819 750 819 C750 819 671 990 671 990 C664 1006 649 1038 632 1038 C615 1038 589 1006 576 991 C576 991 438 819 438 819 C438 819 453 804 453 804 C453 804 610 907 610 907 L610 907 Z " />
<glyph glyph-name="Gbreve" unicode="&#x11e;" horiz-adv-x="841" d="M476 994 C472 894 513 844 598 844 C683 844 742 893 773 991 C773 991 745 995 745 995 C733 958 690 939 615 939 C540 939 503 959 505 998 C505 998 476 994 476 994 L476 994 Z M838 536 C838 536 853 626 853 626 C853 626 854 629 855 635 C855 635 855 635 855 635 C855 635 855 635 855 635 C857 648 862 675 869 715 C869 715 854 715 854 715 C854 715 851 708 846 695 C843 689 822 694 785 717 C746 746 690 760 583 760 C309 760 147 631 102 375 C57 119 174 -10 450 -10 C620 -10 700 13 804 58 C804 58 798 79 798 79 C775 69 753 61 729 54 C729 54 762 245 762 245 C772 301 789 305 822 305 C822 305 832 305 832 305 C833 305 836 325 836 325 C836 325 555 325 555 325 C554 315 552 313 552 305 C552 305 562 305 562 305 C602 305 621 301 611 245 C611 245 595 149 595 149 C577 68 535 27 470 27 C294 27 227 144 268 375 C308 606 417 722 592 722 C714 722 746 680 802 596 C802 596 805 598 805 598 C813 583 818 566 820 551 C820 551 823 536 823 536 C823 536 838 536 838 536 L838 536 Z " />
<glyph glyph-name="gbreve" unicode="&#x11f;" horiz-adv-x="520" d="M231 744 C227 644 269 594 353 594 C439 594 497 643 528 741 C528 741 501 745 501 745 C489 708 445 689 370 689 C295 689 258 709 260 748 C260 748 231 744 231 744 L231 744 Z M259 350 C274 435 299 478 333 478 C367 478 377 435 362 350 C346 264 322 220 287 220 C253 220 244 264 259 350 L259 350 Z M152 -25 C156 -25 160 -25 164 -25 C164 -25 279 -25 279 -25 C351 -25 366 -45 359 -84 C346 -161 303 -199 233 -199 C152 -199 120 -154 135 -66 C138 -48 144 -34 152 -25 C152 -25 152 -25 152 -25 L152 -25 Z M111 -17 C55 -33 24 -60 18 -98 C2 -186 70 -230 220 -230 C369 -230 455 -170 476 -52 C495 55 466 109 317 109 C317 109 195 109 195 109 C162 110 147 121 151 141 C157 172 200 188 282 188 C406 188 478 242 497 350 C501 371 501 391 499 408 C517 429 534 439 550 439 C546 439 543 434 542 423 C536 392 554 376 596 376 C633 376 655 397 663 440 C669 477 653 495 616 495 C566 495 526 475 492 436 C473 485 422 510 339 510 C215 510 143 456 124 350 C111 278 131 230 181 206 C113 190 74 155 65 101 C54 39 69 -1 111 -17 C111 -17 111 -17 111 -17 L111 -17 Z " />
<glyph glyph-name="Gdotaccent" unicode="&#x120;" horiz-adv-x="841" d="M602 865 C655 865 686 892 696 945 C705 998 683 1025 630 1025 C577 1025 545 998 536 945 C526 892 548 865 602 865 L602 865 Z M838 536 C838 536 853 626 853 626 C853 626 854 629 855 635 C855 635 855 635 855 635 C855 635 855 635 855 635 C857 648 862 675 869 715 C869 715 854 715 854 715 C854 715 851 708 846 695 C843 689 822 694 785 717 C746 746 690 760 583 760 C309 760 147 631 102 375 C57 119 174 -10 450 -10 C620 -10 700 13 804 58 C804 58 798 79 798 79 C775 69 753 61 729 54 C729 54 762 245 762 245 C772 301 789 305 822 305 C822 305 832 305 832 305 C833 305 836 325 836 325 C836 325 555 325 555 325 C554 315 552 313 552 305 C552 305 562 305 562 305 C602 305 621 301 611 245 C611 245 595 149 595 149 C577 68 535 27 470 27 C294 27 227 144 268 375 C308 606 417 722 592 722 C714 722 746 680 802 596 C802 596 805 598 805 598 C813 583 818 566 820 551 C820 551 823 536 823 536 C823 536 838 536 838 536 L838 536 Z " />
<glyph glyph-name="gdotaccent" unicode="&#x121;" horiz-adv-x="520" d="M357 615 C410 615 442 642 451 695 C461 748 439 775 385 775 C332 775 301 748 291 695 C282 642 304 615 357 615 L357 615 Z M259 350 C274 435 299 478 333 478 C367 478 377 435 362 350 C346 264 322 220 287 220 C253 220 244 264 259 350 L259 350 Z M152 -25 C156 -25 160 -25 164 -25 C164 -25 279 -25 279 -25 C351 -25 366 -45 359 -84 C346 -161 303 -199 233 -199 C152 -199 120 -154 135 -66 C138 -48 144 -34 152 -25 C152 -25 152 -25 152 -25 L152 -25 Z M111 -17 C55 -33 24 -60 18 -98 C2 -186 70 -230 220 -230 C369 -230 455 -170 476 -52 C495 55 466 109 317 109 C317 109 195 109 195 109 C162 110 147 121 151 141 C157 172 200 188 282 188 C406 188 478 242 497 350 C501 371 501 391 499 408 C517 429 534 439 550 439 C546 439 543 434 542 423 C536 392 554 376 596 376 C633 376 655 397 663 440 C669 477 653 495 616 495 C566 495 526 475 492 436 C473 485 422 510 339 510 C215 510 143 456 124 350 C111 278 131 230 181 206 C113 190 74 155 65 101 C54 39 69 -1 111 -17 C111 -17 111 -17 111 -17 L111 -17 Z " />
<glyph glyph-name="Hcircumflex" unicode="&#x124;" horiz-adv-x="873" d="M954 750 C954 750 655 750 655 750 C654 740 652 738 652 730 C652 730 662 730 662 730 C704 730 725 726 715 670 C715 670 668 403 668 403 C668 403 371 403 371 403 C371 403 418 670 418 670 C428 726 450 730 492 730 C492 730 502 730 502 730 C503 730 506 750 506 750 C506 750 207 750 207 750 C207 750 204 730 204 730 C204 730 215 730 215 730 C257 730 277 726 267 670 C267 670 163 80 163 80 C153 24 131 20 89 20 C89 20 79 20 79 20 C78 16 76 2 75 0 C75 0 374 0 374 0 C374 0 377 20 377 20 C377 20 366 20 366 20 C325 20 304 24 314 80 C314 80 364 363 364 363 C364 363 661 363 661 363 C661 363 611 80 611 80 C601 24 579 20 537 20 C537 20 526 20 526 20 C526 18 526 8 523 0 C523 0 821 0 821 0 C822 4 824 18 825 20 C825 20 814 20 814 20 C773 20 752 24 762 80 C762 80 866 670 866 670 C876 726 898 730 939 730 C939 730 950 730 950 730 C950 730 953 750 954 750 L954 750 Z M609 907 C609 907 728 804 728 804 C728 804 749 819 749 819 C749 819 671 990 671 990 C663 1006 648 1038 631 1038 C614 1038 588 1006 576 991 C576 991 437 819 437 819 C437 819 452 804 452 804 C452 804 609 907 609 907 L609 907 Z " />
<glyph glyph-name="Itilde" unicode="&#x128;" horiz-adv-x="371" d="M186 870 C192 904 207 921 231 921 C295 921 322 856 385 856 C451 856 493 908 511 1011 C511 1011 487 1011 487 1011 C480 971 462 951 432 951 C369 951 342 1016 279 1016 C219 1016 179 967 162 870 C162 870 186 870 186 870 L186 870 Z M452 750 C452 750 154 750 154 750 C153 750 150 730 150 730 C150 730 161 730 161 730 C203 730 223 726 213 670 C213 670 109 80 109 80 C99 24 77 20 36 20 C36 20 25 20 25 20 C24 16 22 2 21 0 C21 0 320 0 320 0 C320 2 323 12 323 20 C323 20 313 20 313 20 C271 20 250 24 260 80 C260 80 364 670 364 670 C374 726 396 730 438 730 C438 730 449 730 449 730 C449 730 452 750 452 750 L452 750 Z " />
<glyph glyph-name="itilde" unicode="&#x129;" horiz-adv-x="327" d="M141 620 C147 654 162 671 186 671 C249 671 277 606 340 606 C406 606 448 658 466 761 C466 761 442 761 442 761 C435 721 417 701 387 701 C324 701 297 766 234 766 C174 766 134 717 117 620 C117 620 141 620 141 620 L141 620 Z M46 0 C46 0 296 0 296 0 C296 0 299 20 299 20 C299 20 288 20 288 20 C257 20 241 21 243 35 C243 35 306 390 306 390 C306 390 325 500 325 500 C325 500 302 500 302 500 C302 500 124 445 124 445 C124 445 122 435 122 435 C175 438 179 436 171 390 C171 390 108 35 108 35 C106 21 90 20 60 20 C60 20 50 20 50 20 C49 16 47 2 46 0 L46 0 Z " />
<glyph glyph-name="Imacron" unicode="&#x12a;" horiz-adv-x="371" d="M177 887 C177 887 477 887 477 887 C477 887 494 980 494 980 C494 980 194 980 194 980 C194 980 177 887 177 887 L177 887 Z M452 750 C452 750 154 750 154 750 C153 750 150 730 150 730 C150 730 161 730 161 730 C203 730 223 726 213 670 C213 670 109 80 109 80 C99 24 77 20 36 20 C36 20 25 20 25 20 C24 16 22 2 21 0 C21 0 320 0 320 0 C320 2 323 12 323 20 C323 20 313 20 313 20 C271 20 250 24 260 80 C260 80 364 670 364 670 C374 726 396 730 438 730 C438 730 449 730 449 730 C449 730 452 750 452 750 L452 750 Z " />
<glyph glyph-name="imacron" unicode="&#x12b;" horiz-adv-x="327" d="M132 637 C132 637 432 637 432 637 C432 637 449 730 449 730 C449 730 149 730 149 730 C149 730 132 637 132 637 L132 637 Z M46 0 C46 0 296 0 296 0 C296 0 299 20 299 20 C299 20 288 20 288 20 C257 20 241 21 243 35 C243 35 306 390 306 390 C306 390 325 500 325 500 C325 500 302 500 302 500 C302 500 124 445 124 445 C124 445 122 435 122 435 C175 438 179 436 171 390 C171 390 108 35 108 35 C106 21 90 20 60 20 C60 20 50 20 50 20 C49 16 47 2 46 0 L46 0 Z " />
<glyph glyph-name="Ibreve" unicode="&#x12c;" horiz-adv-x="371" d="M197 994 C194 894 235 844 319 844 C405 844 463 893 494 991 C494 991 467 995 467 995 C455 958 411 939 336 939 C261 939 224 959 226 998 C226 998 197 994 197 994 L197 994 Z M452 750 C452 750 154 750 154 750 C153 750 150 730 150 730 C150 730 161 730 161 730 C203 730 223 726 213 670 C213 670 109 80 109 80 C99 24 77 20 36 20 C36 20 25 20 25 20 C24 16 22 2 21 0 C21 0 320 0 320 0 C320 2 323 12 323 20 C323 20 313 20 313 20 C271 20 250 24 260 80 C260 80 364 670 364 670 C374 726 396 730 438 730 C438 730 449 730 449 730 C449 730 452 750 452 750 L452 750 Z " />
<glyph glyph-name="ibreve" unicode="&#x12d;" horiz-adv-x="327" d="M152 744 C149 644 190 594 274 594 C360 594 418 643 449 741 C449 741 422 745 422 745 C410 708 366 689 291 689 C216 689 179 709 181 748 C181 748 152 744 152 744 L152 744 Z M46 0 C46 0 296 0 296 0 C296 0 299 20 299 20 C299 20 288 20 288 20 C257 20 241 21 243 35 C243 35 306 390 306 390 C306 390 325 500 325 500 C325 500 302 500 302 500 C302 500 124 445 124 445 C124 445 122 435 122 435 C175 438 179 436 171 390 C171 390 108 35 108 35 C106 21 90 20 60 20 C60 20 50 20 50 20 C49 16 47 2 46 0 L46 0 Z " />
<glyph glyph-name="Idotaccent" unicode="&#x130;" horiz-adv-x="371" d="M323 865 C377 865 408 892 417 945 C427 998 405 1025 351 1025 C298 1025 267 998 257 945 C248 892 270 865 323 865 L323 865 Z M452 750 C452 750 154 750 154 750 C153 750 150 730 150 730 C150 730 161 730 161 730 C203 730 223 726 213 670 C213 670 109 80 109 80 C99 24 77 20 36 20 C36 20 25 20 25 20 C24 16 22 2 21 0 C21 0 320 0 320 0 C320 2 323 12 323 20 C323 20 313 20 313 20 C271 20 250 24 260 80 C260 80 364 670 364 670 C374 726 396 730 438 730 C438 730 449 730 449 730 C449 730 452 750 452 750 L452 750 Z " />
<glyph glyph-name="dotlessi" unicode="&#x131;" horiz-adv-x="327" d="M46 0 C46 0 296 0 296 0 C296 0 299 20 299 20 C299 20 288 20 288 20 C257 20 241 21 243 35 C243 35 306 390 306 390 C306 390 325 500 325 500 C325 500 302 500 302 500 C302 500 124 445 124 445 C124 445 122 435 122 435 C175 438 179 436 171 390 C171 390 108 35 108 35 C106 21 90 20 60 20 C60 20 50 20 50 20 C49 16 47 2 46 0 L46 0 Z " />
<glyph glyph-name="Jcircumflex" unicode="&#x134;" horiz-adv-x="371" d="M452 750 C452 750 154 750 154 750 C153 750 150 730 150 730 C150 730 161 730 161 730 C203 730 223 726 213 670 C213 670 74 -121 74 -121 C66 -164 19 -167 -22 -167 C-107 -167 -34 -40 -119 -40 C-166 -40 -194 -64 -203 -111 C-215 -184 -170 -220 -69 -220 C60 -220 213 -193 275 165 C275 165 364 670 364 670 C374 726 396 730 438 730 C438 730 449 730 449 730 C449 730 452 750 452 750 L452 750 Z M331 907 C331 907 450 804 450 804 C450 804 471 819 471 819 C471 819 393 990 393 990 C386 1006 371 1038 354 1038 C336 1038 311 1006 298 991 C298 991 159 819 159 819 C159 819 175 804 175 804 C175 804 331 907 331 907 L331 907 Z " />
<glyph glyph-name="Lacute" unicode="&#x139;" horiz-adv-x="636" d="M323 811 C323 811 489 927 489 927 C532 957 554 974 556 983 C563 1024 540 1051 500 1051 C492 1051 473 1030 439 988 C439 988 309 828 309 828 C309 828 323 811 323 811 L323 811 Z M21 0 C21 0 95 0 95 0 C95 0 246 0 246 0 C246 0 254 47 254 47 C255 53 257 61 258 69 C258 69 251 26 251 26 C251 26 246 0 246 0 C246 0 389 0 389 0 C389 0 574 0 574 0 C574 0 581 0 581 0 C581 0 586 26 586 26 C586 26 585 26 585 26 C602 64 619 101 636 139 C634 139 624 140 617 142 C617 142 612 131 612 131 C581 61 554 26 401 26 C401 26 331 26 331 26 C257 26 254 41 259 72 C259 76 260 81 261 85 C261 85 261 85 261 85 C261 85 364 668 364 668 C375 725 397 730 438 730 C438 730 449 730 449 730 C449 730 452 750 452 750 C452 750 378 750 378 750 C378 750 227 750 227 750 C227 750 154 750 154 750 C153 750 150 730 150 730 C150 730 161 730 161 730 C203 730 223 725 212 665 C212 665 212 665 212 665 C212 665 109 82 109 82 C98 25 76 20 36 20 C36 20 25 20 25 20 C24 16 22 2 21 0 C21 0 21 0 21 0 L21 0 Z " />
<glyph glyph-name="Lcaron" unicode="&#x13d;" horiz-adv-x="636" d="M21 0 C21 0 95 0 95 0 C95 0 246 0 246 0 C246 0 254 47 254 47 C255 53 257 61 258 69 C258 69 251 26 251 26 C251 26 246 0 246 0 C246 0 389 0 389 0 C389 0 574 0 574 0 C574 0 581 0 581 0 C581 0 586 26 586 26 C586 26 585 26 585 26 C602 64 619 101 636 139 C634 139 624 140 617 142 C617 142 612 131 612 131 C581 61 554 26 401 26 C401 26 331 26 331 26 C257 26 254 41 259 72 C259 76 260 81 261 85 C261 85 261 85 261 85 C261 85 364 668 364 668 C375 725 397 730 438 730 C438 730 449 730 449 730 C449 730 452 750 452 750 C452 750 378 750 378 750 C378 750 227 750 227 750 C227 750 154 750 154 750 C153 750 150 730 150 730 C150 730 161 730 161 730 C203 730 223 725 212 665 C212 665 212 665 212 665 C212 665 109 82 109 82 C98 25 76 20 36 20 C36 20 25 20 25 20 C24 16 22 2 21 0 C21 0 21 0 21 0 L21 0 Z M567 683 C593 721 610 756 615 787 C618 803 598 807 558 807 C527 807 510 748 499 697 C499 697 474 585 474 585 C474 585 497 580 497 580 C497 580 567 683 567 683 L567 683 Z " />
<glyph glyph-name="lcaron" unicode="&#x13e;" horiz-adv-x="308" d="M143 681 C143 681 154 684 154 684 C189 693 205 693 192 618 C192 618 192 618 192 618 C192 618 89 35 89 35 C87 21 71 20 41 20 C41 20 30 20 30 20 C29 10 27 8 27 0 C27 0 274 0 274 0 C275 4 277 18 278 20 C278 20 267 20 267 20 C237 20 222 21 224 35 C224 35 333 650 333 650 C349 743 350 750 350 750 C350 750 326 750 326 750 C326 750 147 701 147 701 C146 697 144 683 143 681 L143 681 Z M449 633 C476 671 492 706 498 737 C501 753 481 757 441 757 C410 757 393 698 382 647 C382 647 356 535 356 535 C356 535 379 530 379 530 C379 530 449 633 449 633 L449 633 Z " />
<glyph glyph-name="Nacute" unicode="&#x143;" horiz-adv-x="769" d="M431 811 C431 811 598 927 598 927 C641 957 663 974 664 983 C671 1024 649 1051 608 1051 C600 1051 581 1030 547 988 C547 988 417 828 417 828 C417 828 431 811 431 811 L431 811 Z M101 730 C101 730 127 730 127 730 C138 730 145 729 160 709 C160 709 223 608 223 608 C223 608 138 133 138 133 C117 28 94 20 53 20 C53 20 30 20 30 20 C29 10 27 8 27 0 C27 0 114 0 114 0 C114 0 160 0 160 0 C160 0 247 0 247 0 C248 4 250 18 251 20 C251 20 228 20 228 20 C189 20 168 26 178 105 C178 105 254 558 254 558 C254 558 468 214 468 214 C468 214 602 0 602 0 C602 0 632 0 632 0 C632 0 753 630 753 630 C753 630 753 630 753 630 C753 631 753 632 753 632 C753 632 756 646 756 646 C772 724 799 730 848 730 C848 730 858 730 858 730 C859 730 862 750 862 750 C862 750 776 750 776 750 C776 750 731 750 731 750 C731 750 643 750 643 750 C643 750 640 730 640 730 C640 730 650 730 650 730 C701 730 726 723 710 630 C710 630 710 630 710 630 C710 630 644 244 644 244 C644 244 604 306 604 306 C604 306 321 750 321 750 C321 750 286 750 286 750 C286 750 248 750 248 750 C248 750 134 750 134 750 C134 750 105 750 105 750 C104 750 101 730 101 730 L101 730 Z " />
<glyph glyph-name="Ncaron" unicode="&#x147;" horiz-adv-x="769" d="M101 730 C101 730 127 730 127 730 C138 730 145 729 160 709 C160 709 223 608 223 608 C223 608 138 133 138 133 C117 28 94 20 53 20 C53 20 30 20 30 20 C29 10 27 8 27 0 C27 0 114 0 114 0 C114 0 160 0 160 0 C160 0 247 0 247 0 C248 4 250 18 251 20 C251 20 228 20 228 20 C189 20 168 26 178 105 C178 105 254 558 254 558 C254 558 468 214 468 214 C468 214 602 0 602 0 C602 0 632 0 632 0 C632 0 753 630 753 630 C753 630 753 630 753 630 C753 631 753 632 753 632 C753 632 756 646 756 646 C772 724 799 730 848 730 C848 730 858 730 858 730 C859 730 862 750 862 750 C862 750 776 750 776 750 C776 750 731 750 731 750 C731 750 643 750 643 750 C643 750 640 730 640 730 C640 730 650 730 650 730 C701 730 726 723 710 630 C710 630 710 630 710 630 C710 630 644 244 644 244 C644 244 604 306 604 306 C604 306 321 750 321 750 C321 750 286 750 286 750 C286 750 248 750 248 750 C248 750 134 750 134 750 C134 750 105 750 105 750 C104 750 101 730 101 730 L101 730 Z M545 943 C545 943 701 1046 701 1046 C701 1046 717 1031 717 1031 C717 1031 578 860 578 860 C565 844 539 812 522 812 C505 812 490 844 483 859 C483 859 405 1031 405 1031 C405 1031 426 1046 426 1046 C426 1046 545 943 545 943 L545 943 Z " />
<glyph glyph-name="ncaron" unicode="&#x148;" horiz-adv-x="620" d="M91 418 C91 418 102 422 102 422 C135 433 152 434 142 373 C142 373 83 35 83 35 C81 21 65 20 35 20 C35 20 24 20 24 20 C23 10 21 8 21 0 C21 0 268 0 268 0 C269 4 271 18 272 20 C272 20 261 20 261 20 C231 20 216 21 218 35 C218 35 282 400 282 400 C299 493 300 500 300 500 C300 500 276 500 276 500 C276 500 94 438 94 438 C94 438 91 418 91 418 L91 418 Z M338 0 C338 0 586 0 586 0 C586 2 589 12 589 20 C589 20 579 20 579 20 C549 20 534 21 536 35 C536 35 579 280 579 280 C606 433 581 510 477 510 C404 510 338 472 282 398 C282 398 275 358 275 358 C302 393 337 411 379 411 C444 411 460 367 444 280 C444 280 401 35 401 35 C399 21 383 20 353 20 C353 20 342 20 342 20 C341 16 339 2 338 0 L338 0 Z M426 693 C426 693 581 796 581 796 C581 796 597 781 597 781 C597 781 459 610 459 610 C446 594 419 562 402 562 C385 562 371 594 363 609 C363 609 285 781 285 781 C285 781 306 796 306 796 C306 796 426 693 426 693 L426 693 Z " />
<glyph glyph-name="Omacron" unicode="&#x14c;" horiz-adv-x="914" d="M448 887 C448 887 748 887 748 887 C748 887 765 980 765 980 C765 980 465 980 465 980 C465 980 448 887 448 887 L448 887 Z M445 30 C290 30 233 146 273 375 C313 604 410 720 562 720 C729 720 794 604 753 375 C713 146 609 30 445 30 L445 30 Z M100 375 C55 119 166 -10 430 -10 C714 -10 881 119 926 375 C971 631 854 760 576 760 C305 760 145 631 100 375 L100 375 Z " />
<glyph glyph-name="omacron" unicode="&#x14d;" horiz-adv-x="609" d="M258 637 C258 637 558 637 558 637 C558 637 574 730 574 730 C574 730 274 730 274 730 C274 730 258 637 258 637 L258 637 Z M301 31 C222 31 194 105 220 250 C246 395 299 469 378 469 C458 469 485 395 459 250 C433 105 380 31 301 31 L301 31 Z M71 250 C41 77 115 -10 294 -10 C472 -10 578 77 608 250 C639 423 564 510 385 510 C207 510 101 423 71 250 L71 250 Z " />
<glyph glyph-name="Obreve" unicode="&#x14e;" horiz-adv-x="914" d="M468 994 C465 894 506 844 590 844 C676 844 734 893 765 991 C765 991 738 995 738 995 C726 958 682 939 607 939 C532 939 495 959 497 998 C497 998 468 994 468 994 L468 994 Z M445 30 C290 30 233 146 273 375 C313 604 410 720 562 720 C729 720 794 604 753 375 C713 146 609 30 445 30 L445 30 Z M100 375 C55 119 166 -10 430 -10 C714 -10 881 119 926 375 C971 631 854 760 576 760 C305 760 145 631 100 375 L100 375 Z " />
<glyph glyph-name="obreve" unicode="&#x14f;" horiz-adv-x="609" d="M278 744 C274 644 315 594 400 594 C486 594 544 643 575 741 C575 741 547 745 547 745 C535 708 492 689 417 689 C342 689 305 709 307 748 C307 748 278 744 278 744 L278 744 Z M301 31 C222 31 194 105 220 250 C246 395 299 469 378 469 C458 469 485 395 459 250 C433 105 380 31 301 31 L301 31 Z M71 250 C41 77 115 -10 294 -10 C472 -10 578 77 608 250 C639 423 564 510 385 510 C207 510 101 423 71 250 L71 250 Z " />
<glyph glyph-name="Racute" unicode="&#x154;" horiz-adv-x="809" d="M447 811 C447 811 614 927 614 927 C657 957 679 974 680 983 C687 1024 665 1051 624 1051 C616 1051 597 1030 563 988 C563 988 433 828 433 828 C433 828 447 811 447 811 L447 811 Z M168 730 C168 730 179 730 179 730 C221 730 241 725 230 665 C230 665 128 85 128 85 C117 25 95 20 53 20 C53 20 43 20 43 20 C42 16 40 2 39 0 C39 0 338 0 338 0 C338 0 341 20 341 20 C341 20 330 20 330 20 C289 20 268 25 279 85 C279 85 324 342 324 342 C324 342 381 342 381 342 C397 304 445 216 525 80 C575 -5 558 0 799 0 C799 0 804 30 804 30 C727 30 733 27 702 80 C621 217 567 308 540 354 C654 375 719 429 738 536 C763 678 669 750 459 750 C459 750 396 750 396 750 C396 750 391 720 391 720 C391 720 409 720 409 720 C538 720 595 668 577 565 C552 424 494 380 394 380 C394 380 331 380 331 380 C331 380 328 366 328 366 C328 366 381 665 381 665 C395 744 396 750 396 750 C396 750 171 750 171 750 C171 750 168 730 168 730 L168 730 Z " />
<glyph glyph-name="Rcaron" unicode="&#x158;" horiz-adv-x="809" d="M168 730 C168 730 179 730 179 730 C221 730 241 725 230 665 C230 665 128 85 128 85 C117 25 95 20 53 20 C53 20 43 20 43 20 C42 16 40 2 39 0 C39 0 338 0 338 0 C338 0 341 20 341 20 C341 20 330 20 330 20 C289 20 268 25 279 85 C279 85 324 342 324 342 C324 342 381 342 381 342 C397 304 445 216 525 80 C575 -5 558 0 799 0 C799 0 804 30 804 30 C727 30 733 27 702 80 C621 217 567 308 540 354 C654 375 719 429 738 536 C763 678 669 750 459 750 C459 750 396 750 396 750 C396 750 391 720 391 720 C391 720 409 720 409 720 C538 720 595 668 577 565 C552 424 494 380 394 380 C394 380 331 380 331 380 C331 380 328 366 328 366 C328 366 381 665 381 665 C395 744 396 750 396 750 C396 750 171 750 171 750 C171 750 168 730 168 730 L168 730 Z M461 943 C461 943 617 1046 617 1046 C617 1046 633 1031 633 1031 C633 1031 494 860 494 860 C481 844 455 812 438 812 C421 812 406 844 399 859 C399 859 321 1031 321 1031 C321 1031 342 1046 342 1046 C342 1046 461 943 461 943 L461 943 Z " />
<glyph glyph-name="rcaron" unicode="&#x159;" horiz-adv-x="512" d="M97 418 C97 418 108 422 108 422 C141 433 158 434 148 373 C148 373 89 35 89 35 C87 21 72 20 44 20 C44 20 34 20 34 20 C33 16 31 2 30 0 C30 0 278 0 278 0 C278 0 281 20 281 20 C281 20 270 20 270 20 C238 20 222 21 224 35 C224 35 278 345 278 345 C313 413 347 447 379 447 C407 447 420 435 416 412 C406 360 428 333 481 333 C534 333 565 360 575 412 C586 477 545 510 453 510 C382 510 328 478 291 415 C305 494 306 500 306 500 C306 500 282 500 282 500 C282 500 100 438 100 438 C100 438 97 418 97 418 L97 418 Z M403 693 C403 693 559 796 559 796 C559 796 574 781 574 781 C574 781 436 610 436 610 C423 594 397 562 380 562 C362 562 348 594 341 609 C341 609 262 781 262 781 C262 781 283 796 283 796 C283 796 403 693 403 693 L403 693 Z " />
<glyph glyph-name="Sacute" unicode="&#x15a;" horiz-adv-x="557" d="M426 811 C426 811 592 927 592 927 C635 957 657 974 658 983 C665 1024 643 1051 603 1051 C594 1051 575 1030 541 988 C541 988 412 828 412 828 C412 828 426 811 426 811 L426 811 Z M581 565 C585 592 590 619 595 645 C595 645 600 672 609 726 C609 726 594 726 594 726 C594 726 591 719 586 706 C583 700 570 704 547 720 C513 747 466 760 404 760 C261 760 176 688 151 546 C129 423 163 344 284 297 C397 253 435 214 426 168 C411 82 363 38 284 38 C253 38 227 44 204 55 C178 68 157 88 141 113 C132 128 125 146 119 165 C119 165 116 164 116 164 C109 184 104 205 101 225 C101 225 86 225 86 225 C75 165 70 134 70 134 C64 104 59 74 54 43 C54 43 69 43 69 43 C69 43 72 52 78 68 C80 74 102 63 141 32 C141 32 141 32 141 32 C176 4 220 -10 275 -10 C435 -10 528 65 555 212 C574 325 535 401 402 453 C299 493 267 540 279 603 C292 682 332 722 397 722 C401 722 404 722 408 722 C473 719 521 680 545 633 C546 630 547 628 548 625 C548 625 549 625 549 625 C556 611 561 595 563 580 C563 580 566 565 566 565 C566 565 581 565 581 565 L581 565 Z " />
<glyph glyph-name="Scircumflex" unicode="&#x15c;" horiz-adv-x="557" d="M581 565 C585 592 590 619 595 645 C595 645 600 672 609 726 C609 726 594 726 594 726 C594 726 591 719 586 706 C583 700 570 704 547 720 C513 747 466 760 404 760 C261 760 176 688 151 546 C129 423 163 344 284 297 C397 253 435 214 426 168 C411 82 363 38 284 38 C253 38 227 44 204 55 C178 68 157 88 141 113 C132 128 125 146 119 165 C119 165 116 164 116 164 C109 184 104 205 101 225 C101 225 86 225 86 225 C75 165 70 134 70 134 C64 104 59 74 54 43 C54 43 69 43 69 43 C69 43 72 52 78 68 C80 74 102 63 141 32 C141 32 141 32 141 32 C176 4 220 -10 275 -10 C435 -10 528 65 555 212 C574 325 535 401 402 453 C299 493 267 540 279 603 C292 682 332 722 397 722 C401 722 404 722 408 722 C473 719 521 680 545 633 C546 630 547 628 548 625 C548 625 549 625 549 625 C556 611 561 595 563 580 C563 580 566 565 566 565 C566 565 581 565 581 565 L581 565 Z M434 907 C434 907 553 804 553 804 C553 804 574 819 574 819 C574 819 496 990 496 990 C488 1006 473 1038 456 1038 C439 1038 413 1006 401 991 C401 991 262 819 262 819 C262 819 277 804 277 804 C277 804 434 907 434 907 L434 907 Z " />
<glyph glyph-name="Scaron" unicode="&#x160;" horiz-adv-x="557" d="M581 565 C585 592 590 619 595 645 C595 645 600 672 609 726 C609 726 594 726 594 726 C594 726 591 719 586 706 C583 700 570 704 547 720 C513 747 466 760 404 760 C261 760 176 688 151 546 C129 423 163 344 284 297 C397 253 435 214 426 168 C411 82 363 38 284 38 C253 38 227 44 204 55 C178 68 157 88 141 113 C132 128 125 146 119 165 C119 165 116 164 116 164 C109 184 104 205 101 225 C101 225 86 225 86 225 C75 165 70 134 70 134 C64 104 59 74 54 43 C54 43 69 43 69 43 C69 43 72 52 78 68 C80 74 102 63 141 32 C141 32 141 32 141 32 C176 4 220 -10 275 -10 C435 -10 528 65 555 212 C574 325 535 401 402 453 C299 493 267 540 279 603 C292 682 332 722 397 722 C401 722 404 722 408 722 C473 719 521 680 545 633 C546 630 547 628 548 625 C548 625 549 625 549 625 C556 611 561 595 563 580 C563 580 566 565 566 565 C566 565 581 565 581 565 L581 565 Z M440 943 C440 943 596 1046 596 1046 C596 1046 611 1031 611 1031 C611 1031 473 860 473 860 C460 844 433 812 416 812 C399 812 385 844 377 859 C377 859 299 1031 299 1031 C299 1031 320 1046 320 1046 C320 1046 440 943 440 943 L440 943 Z " />
<glyph glyph-name="scaron" unicode="&#x161;" horiz-adv-x="446" d="M387 499 C387 499 386 499 386 499 C368 506 346 510 320 510 C208 510 142 462 126 367 C110 277 133 222 219 198 C294 178 318 148 310 105 C301 50 270 22 218 22 C172 22 140 51 123 109 C123 109 112 104 112 104 C111 117 111 130 113 143 C114 147 115 151 115 154 C115 154 95 154 95 154 C88 114 84 93 84 93 C81 73 77 53 74 32 C74 32 94 32 94 32 C95 37 95 42 96 47 C94 34 117 12 168 -4 C168 -4 168 -4 168 -4 C181 -8 196 -10 212 -10 C333 -10 403 41 421 143 C435 221 403 272 297 302 C237 319 219 355 230 413 C237 456 266 478 314 478 C366 478 398 455 411 410 C411 410 419 414 419 414 C422 402 422 389 420 376 C420 373 419 369 418 365 C418 365 438 365 438 365 C443 389 447 413 451 436 C451 436 455 460 464 508 C464 508 444 508 444 508 C442 501 441 495 440 488 C439 483 421 485 387 499 C387 499 387 499 387 499 L387 499 Z M337 693 C337 693 492 796 492 796 C492 796 508 781 508 781 C508 781 370 610 370 610 C356 594 330 562 313 562 C296 562 281 594 274 609 C274 609 196 781 196 781 C196 781 217 796 217 796 C217 796 337 693 337 693 L337 693 Z " />
<glyph glyph-name="Tcaron" unicode="&#x164;" horiz-adv-x="775" d="M238 0 C238 0 537 0 537 0 C537 0 540 20 540 20 C540 20 530 20 530 20 C488 20 467 24 477 80 C477 80 588 712 588 712 C588 712 726 712 726 712 C827 712 829 689 839 639 C839 639 849 639 849 639 C856 640 859 640 859 640 C855 664 851 689 846 713 C846 713 852 750 852 750 C852 750 839 750 839 750 C836 763 834 776 831 789 C831 789 828 789 821 790 C821 790 811 790 811 790 C818 759 820 750 719 750 C719 750 595 750 595 750 C595 750 444 750 444 750 C444 750 321 750 321 750 C228 750 227 760 238 781 C238 781 243 790 243 790 C243 790 232 790 232 790 C226 789 222 789 222 789 C215 776 208 763 201 750 C201 750 187 750 187 750 C187 750 181 713 181 713 C168 689 155 665 142 640 C142 640 145 640 151 639 C151 639 161 639 161 639 C161 639 166 649 166 649 C189 691 207 712 301 712 C301 712 437 712 437 712 C437 712 326 80 326 80 C316 24 294 20 252 20 C252 20 242 20 242 20 C241 16 239 2 238 0 C238 0 238 0 238 0 L238 0 Z M554 943 C554 943 710 1046 710 1046 C710 1046 725 1031 725 1031 C725 1031 587 860 587 860 C574 844 548 812 531 812 C513 812 499 844 492 859 C492 859 413 1031 413 1031 C413 1031 434 1046 434 1046 C434 1046 554 943 554 943 L554 943 Z " />
<glyph glyph-name="tcaron" unicode="&#x165;" horiz-adv-x="433" d="M470 500 C470 500 318 500 318 500 C318 500 339 620 339 620 C339 620 330 620 330 620 C330 620 107 439 107 439 C107 439 106 429 106 429 C106 429 171 429 171 429 C171 429 131 204 131 204 C101 33 148 -10 258 -10 C363 -10 427 41 449 140 C449 140 431 141 431 141 C419 83 378 54 311 54 C260 54 239 78 257 174 C273 259 291 343 305 429 C305 429 457 429 457 429 C457 429 470 500 470 500 L470 500 Z M625 633 C652 671 668 706 674 737 C677 753 657 757 617 757 C586 757 569 698 558 647 C558 647 532 535 532 535 C532 535 555 530 555 530 C555 530 625 633 625 633 L625 633 Z " />
<glyph glyph-name="Utilde" unicode="&#x168;" horiz-adv-x="797" d="M405 870 C411 904 427 921 451 921 C514 921 541 856 604 856 C670 856 712 908 730 1011 C730 1011 706 1011 706 1011 C699 971 681 951 652 951 C589 951 561 1016 498 1016 C438 1016 399 967 382 870 C382 870 405 870 405 870 L405 870 Z M606 730 C606 730 617 730 617 730 C659 730 679 725 668 665 C668 665 588 207 588 207 C536 127 468 87 386 87 C292 87 252 132 268 220 C268 220 346 665 346 665 C360 744 361 750 361 750 C361 750 136 750 136 750 C136 750 133 730 133 730 C133 730 144 730 144 730 C186 730 206 725 195 665 C195 665 117 220 117 220 C90 67 154 -10 308 -10 C422 -10 512 40 576 139 C576 139 583 179 583 179 C583 179 571 110 571 110 C571 110 551 0 551 0 C551 0 575 0 575 0 C575 0 785 55 785 55 C785 55 787 65 787 65 C718 61 713 63 721 110 C721 110 819 665 819 665 C833 744 834 750 834 750 C834 750 610 750 610 750 C609 750 606 730 606 730 C606 730 606 730 606 730 L606 730 Z " />
<glyph glyph-name="utilde" unicode="&#x169;" horiz-adv-x="599" d="M259 620 C264 654 280 671 304 671 C367 671 394 606 457 606 C523 606 565 658 583 761 C583 761 560 761 560 761 C552 721 534 701 505 701 C442 701 415 766 352 766 C291 766 252 717 235 620 C235 620 259 620 259 620 L259 620 Z M417 480 C417 480 427 480 427 480 C451 480 463 479 461 465 C461 465 407 156 407 156 C376 108 336 84 289 84 C237 84 215 110 224 160 C224 160 278 465 278 465 C284 498 284 500 284 500 C284 500 103 500 103 500 C102 500 99 480 99 480 C99 480 110 480 110 480 C134 480 145 479 143 465 C143 465 89 160 89 160 C69 47 109 -10 209 -10 C286 -10 350 32 399 115 C399 115 395 90 395 90 C378 -3 377 -10 377 -10 C377 -10 401 -10 401 -10 C401 -10 579 33 579 33 C579 33 582 53 583 53 C583 53 572 50 572 50 C542 43 526 43 531 96 C531 96 596 465 596 465 C602 498 602 500 602 500 C602 500 420 500 420 500 C420 500 417 480 417 480 L417 480 Z M583 53 C583 53 583 53 583 53 C583 53 583 53 583 53 C583 53 583 53 583 53 L583 53 Z " />
<glyph glyph-name="Umacron" unicode="&#x16a;" horiz-adv-x="797" d="M396 887 C396 887 696 887 696 887 C696 887 713 980 713 980 C713 980 413 980 413 980 C413 980 396 887 396 887 L396 887 Z M606 730 C606 730 617 730 617 730 C659 730 679 725 668 665 C668 665 588 207 588 207 C536 127 468 87 386 87 C292 87 252 132 268 220 C268 220 346 665 346 665 C360 744 361 750 361 750 C361 750 136 750 136 750 C136 750 133 730 133 730 C133 730 144 730 144 730 C186 730 206 725 195 665 C195 665 117 220 117 220 C90 67 154 -10 308 -10 C422 -10 512 40 576 139 C576 139 583 179 583 179 C583 179 571 110 571 110 C571 110 551 0 551 0 C551 0 575 0 575 0 C575 0 785 55 785 55 C785 55 787 65 787 65 C718 61 713 63 721 110 C721 110 819 665 819 665 C833 744 834 750 834 750 C834 750 610 750 610 750 C609 750 606 730 606 730 C606 730 606 730 606 730 L606 730 Z " />
<glyph glyph-name="umacron" unicode="&#x16b;" horiz-adv-x="599" d="M250 637 C250 637 550 637 550 637 C550 637 566 730 566 730 C566 730 266 730 266 730 C266 730 250 637 250 637 L250 637 Z M417 480 C417 480 427 480 427 480 C451 480 463 479 461 465 C461 465 407 156 407 156 C376 108 336 84 289 84 C237 84 215 110 224 160 C224 160 278 465 278 465 C284 498 284 500 284 500 C284 500 103 500 103 500 C102 500 99 480 99 480 C99 480 110 480 110 480 C134 480 145 479 143 465 C143 465 89 160 89 160 C69 47 109 -10 209 -10 C286 -10 350 32 399 115 C399 115 395 90 395 90 C378 -3 377 -10 377 -10 C377 -10 401 -10 401 -10 C401 -10 579 33 579 33 C579 33 582 53 583 53 C583 53 572 50 572 50 C542 43 526 43 531 96 C531 96 596 465 596 465 C602 498 602 500 602 500 C602 500 420 500 420 500 C420 500 417 480 417 480 L417 480 Z M583 53 C583 53 583 53 583 53 C583 53 583 53 583 53 C583 53 583 53 583 53 L583 53 Z " />
<glyph glyph-name="Ubreve" unicode="&#x16c;" horiz-adv-x="797" d="M416 994 C413 894 454 844 539 844 C624 844 683 893 714 991 C714 991 686 995 686 995 C674 958 631 939 556 939 C481 939 444 959 445 998 C445 998 416 994 416 994 L416 994 Z M606 730 C606 730 617 730 617 730 C659 730 679 725 668 665 C668 665 588 207 588 207 C536 127 468 87 386 87 C292 87 252 132 268 220 C268 220 346 665 346 665 C360 744 361 750 361 750 C361 750 136 750 136 750 C136 750 133 730 133 730 C133 730 144 730 144 730 C186 730 206 725 195 665 C195 665 117 220 117 220 C90 67 154 -10 308 -10 C422 -10 512 40 576 139 C576 139 583 179 583 179 C583 179 571 110 571 110 C571 110 551 0 551 0 C551 0 575 0 575 0 C575 0 785 55 785 55 C785 55 787 65 787 65 C718 61 713 63 721 110 C721 110 819 665 819 665 C833 744 834 750 834 750 C834 750 610 750 610 750 C609 750 606 730 606 730 C606 730 606 730 606 730 L606 730 Z " />
<glyph glyph-name="ubreve" unicode="&#x16d;" horiz-adv-x="599" d="M270 744 C266 644 307 594 392 594 C478 594 536 643 567 741 C567 741 539 745 539 745 C527 708 484 689 409 689 C334 689 297 709 299 748 C299 748 270 744 270 744 L270 744 Z M417 480 C417 480 427 480 427 480 C451 480 463 479 461 465 C461 465 407 156 407 156 C376 108 336 84 289 84 C237 84 215 110 224 160 C224 160 278 465 278 465 C284 498 284 500 284 500 C284 500 103 500 103 500 C102 500 99 480 99 480 C99 480 110 480 110 480 C134 480 145 479 143 465 C143 465 89 160 89 160 C69 47 109 -10 209 -10 C286 -10 350 32 399 115 C399 115 395 90 395 90 C378 -3 377 -10 377 -10 C377 -10 401 -10 401 -10 C401 -10 579 33 579 33 C579 33 582 53 583 53 C583 53 572 50 572 50 C542 43 526 43 531 96 C531 96 596 465 596 465 C602 498 602 500 602 500 C602 500 420 500 420 500 C420 500 417 480 417 480 L417 480 Z M583 53 C583 53 583 53 583 53 C583 53 583 53 583 53 C583 53 583 53 583 53 L583 53 Z " />
<glyph glyph-name="Uring" unicode="&#x16e;" horiz-adv-x="797" d="M538 842 C503 842 484 867 490 905 C498 947 521 968 561 968 C600 968 616 947 609 905 C602 867 574 842 538 842 L538 842 Z M451 905 C441 848 474 810 533 810 C592 810 639 848 649 905 C660 968 632 1000 566 1000 C501 1000 462 968 451 905 L451 905 Z M606 730 C606 730 617 730 617 730 C659 730 679 725 668 665 C668 665 588 207 588 207 C536 127 468 87 386 87 C292 87 252 132 268 220 C268 220 346 665 346 665 C360 744 361 750 361 750 C361 750 136 750 136 750 C136 750 133 730 133 730 C133 730 144 730 144 730 C186 730 206 725 195 665 C195 665 117 220 117 220 C90 67 154 -10 308 -10 C422 -10 512 40 576 139 C576 139 583 179 583 179 C583 179 571 110 571 110 C571 110 551 0 551 0 C551 0 575 0 575 0 C575 0 785 55 785 55 C785 55 787 65 787 65 C718 61 713 63 721 110 C721 110 819 665 819 665 C833 744 834 750 834 750 C834 750 610 750 610 750 C609 750 606 730 606 730 C606 730 606 730 606 730 L606 730 Z " />
<glyph glyph-name="uring" unicode="&#x16f;" horiz-adv-x="599" d="M392 592 C356 592 337 617 344 655 C351 697 375 718 414 718 C454 718 470 697 462 655 C456 617 427 592 392 592 L392 592 Z M304 655 C294 598 327 560 386 560 C445 560 492 598 502 655 C513 718 485 750 420 750 C354 750 315 718 304 655 L304 655 Z M417 480 C417 480 427 480 427 480 C451 480 463 479 461 465 C461 465 407 156 407 156 C376 108 336 84 289 84 C237 84 215 110 224 160 C224 160 278 465 278 465 C284 498 284 500 284 500 C284 500 103 500 103 500 C102 500 99 480 99 480 C99 480 110 480 110 480 C134 480 145 479 143 465 C143 465 89 160 89 160 C69 47 109 -10 209 -10 C286 -10 350 32 399 115 C399 115 395 90 395 90 C378 -3 377 -10 377 -10 C377 -10 401 -10 401 -10 C401 -10 579 33 579 33 C579 33 582 53 583 53 C583 53 572 50 572 50 C542 43 526 43 531 96 C531 96 596 465 596 465 C602 498 602 500 602 500 C602 500 420 500 420 500 C420 500 417 480 417 480 L417 480 Z M583 53 C583 53 583 53 583 53 C583 53 583 53 583 53 C583 53 583 53 583 53 L583 53 Z " />
<glyph glyph-name="Wcircumflex" unicode="&#x174;" horiz-adv-x="1129" d="M1237 750 C1237 750 1176 750 1176 750 C1176 750 1114 750 1114 750 C1114 750 998 750 998 750 C998 750 995 730 994 730 C994 730 1015 730 1015 730 C1072 730 1098 723 1059 625 C1059 625 882 220 882 220 C882 220 757 647 757 647 C736 724 758 730 805 730 C805 730 826 730 826 730 C827 740 829 742 829 750 C829 750 727 750 727 750 C727 750 553 750 553 750 C553 750 495 750 495 750 C495 750 492 730 492 730 C492 730 516 730 516 730 C543 730 559 727 570 693 C589 628 609 564 628 500 C628 500 478 189 478 189 C478 189 478 191 478 191 C478 191 372 610 372 610 C372 610 373 610 373 610 C342 722 365 730 415 730 C415 730 436 730 436 730 C437 740 439 742 439 750 C439 750 337 750 337 750 C337 750 171 750 171 750 C171 750 135 750 135 750 C135 750 132 730 131 730 C131 730 157 730 157 730 C169 730 177 724 201 642 C261 425 322 208 381 -10 C381 -10 421 -10 421 -10 C421 -10 647 435 647 435 C692 287 736 138 781 -10 C781 -10 821 -10 821 -10 C821 -10 1139 672 1139 672 C1168 725 1185 730 1209 730 C1209 730 1233 730 1233 730 C1233 730 1237 750 1237 750 C1237 750 1237 750 1237 750 L1237 750 Z M702 907 C702 907 821 804 821 804 C821 804 842 819 842 819 C842 819 764 990 764 990 C756 1006 741 1038 724 1038 C707 1038 681 1006 669 991 C669 991 530 819 530 819 C530 819 545 804 545 804 C545 804 702 907 702 907 L702 907 Z " />
<glyph glyph-name="Ycircumflex" unicode="&#x176;" horiz-adv-x="788" d="M415 750 C415 750 341 750 341 750 C341 750 163 750 163 750 C163 750 131 750 131 750 C131 750 128 730 128 730 C128 730 154 730 154 730 C165 730 174 725 207 662 C207 662 384 311 384 311 C384 311 343 80 343 80 C333 24 311 20 270 20 C270 20 259 20 259 20 C258 16 256 2 255 0 C255 0 554 0 554 0 C554 2 557 12 557 20 C557 20 547 20 547 20 C505 20 484 24 494 80 C494 80 536 316 536 316 C536 316 536 316 536 316 C536 316 749 610 749 610 C749 610 749 610 749 610 C830 722 848 730 871 730 C871 730 895 730 895 730 C896 730 899 750 899 750 C899 750 850 750 850 750 C850 750 775 750 775 750 C775 750 701 750 701 750 C701 750 698 730 697 730 C697 730 718 730 718 730 C742 730 755 726 738 693 C738 693 694 624 694 624 C693 622 692 621 691 620 C691 620 691 620 691 620 C691 620 528 366 528 366 C528 366 409 610 409 610 C409 610 409 610 409 610 C408 611 408 612 407 614 C407 614 395 639 395 639 C355 723 366 730 393 730 C393 730 412 730 412 730 C412 730 415 750 415 750 L415 750 Z M565 907 C565 907 684 804 684 804 C684 804 705 819 705 819 C705 819 627 990 627 990 C620 1006 605 1038 588 1038 C570 1038 545 1006 532 991 C532 991 393 819 393 819 C393 819 409 804 409 804 C409 804 565 907 565 907 L565 907 Z " />
<glyph glyph-name="Ydieresis" unicode="&#x178;" horiz-adv-x="788" d="M641 865 C694 865 725 892 735 945 C744 998 722 1025 669 1025 C616 1025 584 998 575 945 C565 892 588 865 641 865 L641 865 Z M473 865 C527 865 558 892 567 945 C577 998 555 1025 502 1025 C449 1025 417 998 407 945 C398 892 420 865 473 865 L473 865 Z M415 750 C415 750 341 750 341 750 C341 750 163 750 163 750 C163 750 131 750 131 750 C131 750 128 730 128 730 C128 730 154 730 154 730 C165 730 174 725 207 662 C207 662 384 311 384 311 C384 311 343 80 343 80 C333 24 311 20 270 20 C270 20 259 20 259 20 C258 16 256 2 255 0 C255 0 554 0 554 0 C554 2 557 12 557 20 C557 20 547 20 547 20 C505 20 484 24 494 80 C494 80 536 316 536 316 C536 316 536 316 536 316 C536 316 749 610 749 610 C749 610 749 610 749 610 C830 722 848 730 871 730 C871 730 895 730 895 730 C896 730 899 750 899 750 C899 750 850 750 850 750 C850 750 775 750 775 750 C775 750 701 750 701 750 C701 750 698 730 697 730 C697 730 718 730 718 730 C742 730 755 726 738 693 C738 693 694 624 694 624 C693 622 692 621 691 620 C691 620 691 620 691 620 C691 620 528 366 528 366 C528 366 409 610 409 610 C409 610 409 610 409 610 C408 611 408 612 407 614 C407 614 395 639 395 639 C355 723 366 730 393 730 C393 730 412 730 412 730 C412 730 415 750 415 750 L415 750 Z " />
<glyph glyph-name="Zacute" unicode="&#x179;" horiz-adv-x="642" d="M492 811 C492 811 659 927 659 927 C702 957 724 974 725 983 C732 1024 710 1051 669 1051 C661 1051 642 1030 608 988 C608 988 478 828 478 828 C478 828 492 811 492 811 L492 811 Z M189 0 C189 0 446 0 446 0 C446 0 606 0 606 0 C628 50 648 100 670 150 C666 151 653 152 651 152 C651 152 632 121 632 121 C605 78 584 53 513 45 C513 45 217 37 217 37 C217 37 737 718 737 718 C737 718 742 750 742 750 C742 750 595 750 595 750 C595 750 372 750 372 750 C372 750 202 750 202 750 C186 698 170 645 152 592 C157 591 175 590 178 590 C178 590 186 611 186 611 C210 670 231 702 322 709 C322 709 567 714 567 714 C567 714 31 32 31 32 C31 32 25 0 25 0 C25 0 189 0 189 0 L189 0 Z " />
<glyph glyph-name="Zdotaccent" unicode="&#x17b;" horiz-adv-x="642" d="M493 865 C546 865 577 892 587 945 C596 998 574 1025 521 1025 C468 1025 436 998 427 945 C417 892 439 865 493 865 L493 865 Z M189 0 C189 0 446 0 446 0 C446 0 606 0 606 0 C628 50 648 100 670 150 C666 151 653 152 651 152 C651 152 632 121 632 121 C605 78 584 53 513 45 C513 45 217 37 217 37 C217 37 737 718 737 718 C737 718 742 750 742 750 C742 750 595 750 595 750 C595 750 372 750 372 750 C372 750 202 750 202 750 C186 698 170 645 152 592 C157 591 175 590 178 590 C178 590 186 611 186 611 C210 670 231 702 322 709 C322 709 567 714 567 714 C567 714 31 32 31 32 C31 32 25 0 25 0 C25 0 189 0 189 0 L189 0 Z " />
<glyph glyph-name="zdotaccent" unicode="&#x17c;" horiz-adv-x="475" d="M373 615 C427 615 458 642 468 695 C477 748 455 775 402 775 C349 775 317 748 308 695 C298 642 320 615 373 615 L373 615 Z M129 389 C129 389 141 389 141 389 C141 389 153 399 153 399 C190 430 217 449 261 456 C261 456 356 460 356 460 C356 460 46 32 46 32 C46 32 40 0 40 0 C40 0 183 0 183 0 C183 0 297 0 297 0 C297 0 430 0 430 0 C442 37 453 73 465 111 C465 111 455 111 455 111 C455 111 442 101 442 101 C402 69 374 49 320 43 C320 43 211 39 211 39 C211 39 518 468 518 468 C518 468 523 500 523 500 C523 500 385 500 385 500 C385 500 223 500 223 500 C212 500 201 506 207 519 C207 519 211 528 211 528 C211 528 191 528 191 528 C169 482 150 434 129 389 C129 389 129 389 129 389 L129 389 Z " />
<glyph glyph-name="Zcaron" unicode="&#x17d;" horiz-adv-x="642" d="M506 943 C506 943 662 1046 662 1046 C662 1046 678 1031 678 1031 C678 1031 539 860 539 860 C526 844 500 812 483 812 C466 812 451 844 444 859 C444 859 366 1031 366 1031 C366 1031 387 1046 387 1046 C387 1046 506 943 506 943 L506 943 Z M189 0 C189 0 446 0 446 0 C446 0 606 0 606 0 C628 50 648 100 670 150 C666 151 653 152 651 152 C651 152 632 121 632 121 C605 78 584 53 513 45 C513 45 217 37 217 37 C217 37 737 718 737 718 C737 718 742 750 742 750 C742 750 595 750 595 750 C595 750 372 750 372 750 C372 750 202 750 202 750 C186 698 170 645 152 592 C157 591 175 590 178 590 C178 590 186 611 186 611 C210 670 231 702 322 709 C322 709 567 714 567 714 C567 714 31 32 31 32 C31 32 25 0 25 0 C25 0 189 0 189 0 L189 0 Z " />
<glyph glyph-name="zcaron" unicode="&#x17e;" horiz-adv-x="475" d="M129 389 C129 389 141 389 141 389 C141 389 153 399 153 399 C190 430 217 449 261 456 C261 456 356 460 356 460 C356 460 46 32 46 32 C46 32 40 0 40 0 C40 0 183 0 183 0 C183 0 297 0 297 0 C297 0 430 0 430 0 C442 37 453 73 465 111 C465 111 455 111 455 111 C455 111 442 101 442 101 C402 69 374 49 320 43 C320 43 211 39 211 39 C211 39 518 468 518 468 C518 468 523 500 523 500 C523 500 385 500 385 500 C385 500 223 500 223 500 C212 500 201 506 207 519 C207 519 211 528 211 528 C211 528 191 528 191 528 C169 482 150 434 129 389 C129 389 129 389 129 389 L129 389 Z M387 693 C387 693 543 796 543 796 C543 796 559 781 559 781 C559 781 420 610 420 610 C407 594 381 562 364 562 C347 562 332 594 325 609 C325 609 247 781 247 781 C247 781 268 796 268 796 C268 796 387 693 387 693 L387 693 Z " />
<glyph glyph-name="SmallLetterOwithogon" unicode="&#x1eb;" horiz-adv-x="817" d="M1036 -39 C1036 -39 1028 -27 1028 -27 C981 -62 885 -79 741 -79 C627 -79 521 -56 427 -9 C654 2 785 102 819 292 C854 492 748 593 502 593 C263 593 125 492 90 292 C70 181 127 100 202 50 C422 -110 589 -192 701 -192 C783 -192 896 -141 1036 -39 L1036 -39 Z M399 26 C380 26 356 34 333 49 C330 51 326 54 323 56 C323 56 322 56 322 56 C270 96 224 174 245 292 C276 468 358 557 490 557 C636 557 695 468 663 292 C632 115 544 26 399 26 C399 26 399 26 399 26 L399 26 Z " />
<glyph glyph-name="CapitalLetterAwithdo" unicode="&#x226;" horiz-adv-x="792" d="M555 865 C608 865 639 892 649 945 C658 998 636 1025 583 1025 C530 1025 498 998 489 945 C479 892 502 865 555 865 L555 865 Z M464 0 C464 0 559 0 559 0 C559 0 717 0 717 0 C717 0 777 0 777 0 C777 2 780 12 780 20 C780 20 757 20 757 20 C730 20 714 27 699 110 C699 110 602 702 602 702 C602 702 591 770 591 770 C591 770 576 770 576 770 C542 732 501 709 451 702 C451 702 453 692 453 692 C453 692 452 692 452 692 C452 692 187 170 187 170 C187 170 187 170 187 170 C184 164 181 158 178 153 C178 153 175 146 175 146 C115 29 85 20 39 20 C39 20 16 20 16 20 C15 10 13 8 13 0 C13 0 101 0 101 0 C101 0 146 0 146 0 C146 0 262 0 262 0 C263 4 265 18 266 20 C266 20 245 20 245 20 C185 20 161 30 229 170 C229 170 229 170 229 170 C229 170 277 269 277 269 C277 269 518 269 518 269 C518 269 537 140 537 140 C537 140 537 140 537 140 C554 28 533 20 488 20 C488 20 467 20 467 20 C466 10 464 8 464 0 C464 0 464 0 464 0 L464 0 Z M296 308 C296 308 460 644 460 644 C460 644 512 308 512 308 C512 308 296 308 296 308 L296 308 Z " />
<glyph glyph-name="LETTERSMALLCAPITALG" unicode="&#x262;" horiz-adv-x="753" d="M725 400 C730 429 735 459 740 488 C740 488 740 490 741 494 C741 494 742 495 742 495 C742 495 742 496 741 496 C744 508 748 535 756 576 C756 576 741 576 741 576 C741 576 732 555 732 555 C730 549 707 553 668 569 C635 585 587 593 506 593 C266 593 127 492 91 292 C56 91 162 -10 406 -10 C438 -10 466 -9 492 -6 C492 -6 497 -8 497 -8 C497 -8 519 -3 519 -3 C557 3 591 11 626 23 C626 23 635 25 635 25 C635 25 635 26 635 26 C661 35 688 46 717 58 C717 58 711 78 711 78 C686 67 663 58 639 50 C639 50 661 173 661 173 C671 229 688 233 721 233 C721 233 731 233 731 233 C732 237 734 251 735 253 C735 253 469 253 469 253 C469 253 469 250 467 243 C467 236 466 233 466 233 C466 233 476 233 476 233 C516 233 535 229 525 173 C525 173 518 125 518 125 C502 57 470 23 424 23 C270 23 209 113 240 292 C272 469 363 559 513 559 C542 559 566 557 585 552 C611 545 632 533 650 517 C663 504 675 489 687 470 C699 448 707 424 710 400 C710 400 725 400 725 400 L725 400 Z " />
<glyph glyph-name="LETTERSMALLCAPITALI" unicode="&#x26a;" horiz-adv-x="364" d="M415 583 C415 583 132 583 132 583 C131 579 129 565 128 563 C128 563 139 563 139 563 C181 563 202 559 192 503 C192 503 117 80 117 80 C107 24 85 20 43 20 C43 20 33 20 33 20 C32 16 30 2 29 0 C29 0 312 0 312 0 C313 4 315 18 316 20 C316 20 305 20 305 20 C264 20 243 24 253 80 C253 80 327 503 327 503 C338 559 359 563 401 563 C401 563 412 563 412 563 C410 563 415 583 415 583 L415 583 Z " />
<glyph glyph-name="LETTERSMALLCAPITALN" unicode="&#x274;" horiz-adv-x="687" d="M533 563 C533 563 544 563 544 563 C595 563 619 556 603 463 C603 463 603 463 603 463 C603 463 551 157 551 157 C551 157 513 218 513 218 C513 218 286 583 286 583 C286 583 254 583 254 583 C254 583 220 583 220 583 C220 583 117 583 117 583 C117 583 89 583 89 583 C89 583 84 563 86 563 C86 563 112 563 112 563 C123 563 130 562 146 542 C146 542 199 466 199 466 C199 466 142 150 142 150 C142 150 142 150 142 150 C142 149 142 148 141 147 C141 147 140 140 140 140 C120 29 97 20 54 20 C54 20 31 20 31 20 C30 10 28 8 28 0 C28 0 115 0 115 0 C115 0 156 0 156 0 C156 0 244 0 244 0 C244 2 247 12 247 20 C247 20 225 20 225 20 C181 20 160 28 180 140 C180 140 180 140 180 140 C180 140 227 425 227 425 C227 425 420 150 420 150 C420 150 524 0 524 0 C524 0 552 0 552 0 C552 0 648 497 648 497 C665 558 691 563 736 563 C736 563 747 563 747 563 C747 563 752 583 750 583 C750 583 665 583 665 583 C665 583 624 583 624 583 C624 583 537 583 537 583 C536 579 534 565 533 563 C533 563 533 563 533 563 L533 563 Z " />
<glyph glyph-name="LETTERSMALLCAPITALR" unicode="&#x280;" horiz-adv-x="667" d="M142 563 C142 563 153 563 153 563 C195 563 215 558 205 498 C205 498 132 85 132 85 C121 25 99 20 57 20 C57 20 46 20 46 20 C48 20 43 0 43 0 C43 0 326 0 326 0 C327 4 329 18 330 20 C330 20 319 20 319 20 C278 20 257 25 268 85 C268 85 340 498 340 498 C345 525 348 543 351 555 C451 550 495 513 483 442 C463 330 412 296 322 296 C322 296 305 296 305 296 C305 296 299 262 299 262 C299 262 310 262 310 262 C324 231 363 164 428 62 C469 -4 455 0 658 0 C658 0 662 27 662 27 C605 27 610 25 587 62 C522 164 478 234 455 272 C556 289 613 331 628 416 C647 527 561 583 373 583 C373 583 355 583 355 583 C355 583 146 583 146 583 C145 579 143 565 142 563 L142 563 Z M351 558 C351 558 351 556 351 556 C351 556 351 556 351 556 C351 557 351 557 351 558 L351 558 Z " />
<glyph glyph-name="LETTERSMALLCAPITALY" unicode="&#x28f;" horiz-adv-x="694" d="M104 563 C104 563 130 563 130 563 C141 563 151 557 193 485 C193 485 331 239 331 239 C331 239 332 239 332 239 C332 239 303 80 303 80 C293 24 271 20 229 20 C229 20 219 20 219 20 C218 16 216 2 215 0 C215 0 499 0 499 0 C499 0 502 20 502 20 C502 20 491 20 491 20 C450 20 429 24 439 80 C439 80 467 244 467 244 C467 244 468 243 468 243 C468 243 646 477 646 477 C709 557 726 563 747 563 C747 563 771 563 771 563 C772 567 774 581 775 583 C775 583 727 583 727 583 C727 583 659 583 659 583 C659 583 585 583 585 583 C584 579 582 565 581 563 C581 563 602 563 602 563 C625 563 638 560 623 528 C623 528 574 455 574 455 C573 455 573 454 572 453 C572 453 572 453 572 453 C572 453 460 285 460 285 C460 285 374 443 374 443 C374 443 375 443 375 443 C312 555 322 563 350 563 C350 563 369 563 369 563 C369 563 374 583 372 583 C372 583 299 583 299 583 C299 583 138 583 138 583 C138 583 108 583 108 583 C107 579 105 565 104 563 C104 563 104 563 104 563 L104 563 Z " />
<glyph glyph-name="LETTERSMALLCAPITALB" unicode="&#x299;" horiz-adv-x="625" d="M43 0 C43 0 253 0 253 0 C253 0 253 2 256 16 C256 16 253 0 253 0 C253 0 373 0 373 0 C514 0 588 16 613 156 C628 239 595 289 516 305 C577 328 614 375 626 445 C643 537 626 583 415 583 C415 583 355 583 355 583 C355 583 146 583 146 583 C145 579 143 565 142 563 C142 563 153 563 153 563 C195 563 215 558 205 498 C205 498 132 85 132 85 C121 25 99 20 57 20 C57 20 46 20 46 20 C48 20 43 0 43 0 L43 0 Z M351 558 C351 558 351 556 351 556 C351 556 356 556 356 556 C495 556 504 514 489 431 C475 351 445 311 401 311 C401 311 307 311 307 311 C307 311 340 498 340 498 C345 526 349 545 351 558 L351 558 Z M360 288 C444 288 479 244 463 156 C443 40 408 27 343 27 C343 27 293 27 293 27 C271 27 262 43 266 75 C267 78 267 82 268 85 C268 85 303 288 303 288 C303 288 360 288 360 288 L360 288 Z " />
<glyph glyph-name="LETTERSMALLCAPITALH" unicode="&#x29c;" horiz-adv-x="787" d="M839 583 C839 583 555 583 555 583 C555 583 550 563 552 563 C552 563 562 563 562 563 C604 563 625 559 615 503 C615 503 582 316 582 316 C582 316 344 316 344 316 C344 316 377 503 377 503 C388 559 409 563 451 563 C451 563 462 563 462 563 C460 563 465 583 465 583 C465 583 182 583 182 583 C181 579 179 565 178 563 C178 563 189 563 189 563 C231 563 252 559 241 503 C241 503 167 80 167 80 C157 24 135 20 93 20 C93 20 82 20 82 20 C84 20 79 0 79 0 C79 0 362 0 362 0 C363 4 365 18 366 20 C366 20 355 20 355 20 C314 20 293 24 303 80 C303 80 338 280 338 280 C338 280 575 280 575 280 C575 280 540 80 540 80 C530 24 508 20 467 20 C467 20 456 20 456 20 C455 16 453 2 452 0 C452 0 736 0 736 0 C736 2 739 12 739 20 C739 20 729 20 729 20 C687 20 666 24 676 80 C676 80 751 503 751 503 C761 559 782 563 824 563 C824 563 835 563 835 563 C836 567 838 581 839 583 C839 583 839 583 839 583 L839 583 Z " />
<glyph glyph-name="LETTERSMALLCAPITALL" unicode="&#x29f;" horiz-adv-x="554" d="M534 139 C534 139 529 128 529 128 C499 58 471 23 321 23 C254 23 247 38 251 66 C252 72 253 78 254 85 C254 85 254 85 254 85 C254 85 327 504 327 504 C339 558 360 563 401 563 C401 563 412 563 412 563 C410 563 415 583 415 583 C415 583 341 583 341 583 C341 583 206 583 206 583 C206 583 132 583 132 583 C131 579 129 565 128 563 C128 563 139 563 139 563 C181 563 201 558 191 499 C191 499 118 85 118 85 C118 85 118 85 118 85 C107 25 85 20 43 20 C43 20 33 20 33 20 C32 16 30 2 29 0 C29 0 103 0 103 0 C103 0 239 0 239 0 C239 0 307 0 307 0 C307 0 492 0 492 0 C492 0 499 0 499 0 C499 0 503 23 503 23 C503 23 503 23 503 23 C510 38 516 53 523 68 C523 68 553 137 553 137 C549 138 536 139 534 139 L534 139 Z M253 80 C253 80 253 80 253 80 C253 80 252 73 252 73 C252 73 253 80 253 80 L253 80 Z " />
<glyph glyph-name="LETTERSMALLCAPITALA" unicode="&#x1d00;" horiz-adv-x="707" d="M395 0 C395 0 490 0 490 0 C490 0 632 0 632 0 C632 0 691 0 691 0 C692 4 694 18 695 20 C695 20 671 20 671 20 C642 20 626 28 605 140 C605 140 605 140 605 140 C605 140 525 550 525 550 C525 550 515 603 515 603 C515 603 501 603 501 603 C475 575 438 557 390 550 C390 550 392 540 392 540 C392 540 391 540 391 540 C391 540 172 130 172 130 C114 28 85 20 40 20 C40 20 18 20 18 20 C17 16 15 2 14 0 C14 0 102 0 102 0 C102 0 143 0 143 0 C143 0 259 0 259 0 C259 0 262 20 262 20 C262 20 241 20 241 20 C182 20 158 30 230 170 C230 170 230 170 230 170 C230 170 248 205 248 205 C248 205 453 205 453 205 C453 205 465 140 465 140 C465 140 464 140 464 140 C485 28 464 20 419 20 C419 20 398 20 398 20 C397 10 395 8 395 0 C395 0 395 0 395 0 L395 0 Z M266 241 C266 241 399 501 399 501 C399 501 446 241 446 241 C446 241 266 241 266 241 L266 241 Z " />
<glyph glyph-name="LETTERSMALLCAPITALC" unicode="&#x1d04;" horiz-adv-x="694" d="M725 400 C730 429 735 459 740 488 C740 488 740 490 741 494 C741 494 742 495 742 495 C742 495 742 496 741 496 C744 508 748 535 756 576 C756 576 741 576 741 576 C741 576 732 555 732 555 C730 549 707 553 668 569 C635 585 587 593 506 593 C266 593 127 492 91 292 C56 91 157 -10 391 -10 C466 -10 518 -2 560 13 C566 14 603 20 639 26 C644 27 646 20 643 5 C643 5 655 5 655 5 C660 32 664 60 670 88 C670 88 670 88 670 88 C670 88 670 88 670 88 C670 90 671 92 671 94 C671 94 676 124 687 183 C687 183 672 183 672 183 C671 183 669 178 664 168 C654 149 639 128 620 109 C598 88 577 71 555 57 C535 45 512 36 489 30 C489 30 490 30 490 30 C466 24 440 21 409 21 C265 21 209 112 240 292 C272 469 363 559 513 559 C542 559 566 557 585 552 C611 545 632 533 650 517 C663 504 675 489 687 470 C699 448 707 424 710 400 C710 400 725 400 725 400 L725 400 Z " />
<glyph glyph-name="LETTERSMALLCAPITALD" unicode="&#x1d05;" horiz-adv-x="794" d="M43 0 C43 0 117 0 117 0 C117 0 253 0 253 0 C253 0 256 16 256 16 C256 16 256 16 256 16 C256 16 253 0 253 0 C253 0 309 0 309 0 C595 0 754 79 791 292 C826 485 734 583 439 583 C439 583 355 583 355 583 C355 583 220 583 220 583 C220 583 146 583 146 583 C145 579 143 565 142 563 C142 563 153 563 153 563 C195 563 215 558 205 499 C205 499 132 85 132 85 C132 85 132 85 132 85 C121 25 99 20 57 20 C57 20 46 20 46 20 C48 20 43 0 43 0 C43 0 43 0 43 0 L43 0 Z M351 558 C351 558 351 556 351 556 C596 551 672 462 642 292 C607 98 487 27 273 27 C260 27 261 41 265 67 C266 72 267 78 268 85 C268 85 268 85 268 85 C268 85 342 507 342 507 C346 530 349 546 351 558 L351 558 Z " />
<glyph glyph-name="LETTERSMALLCAPITALE" unicode="&#x1d07;" horiz-adv-x="590" d="M573 467 C573 467 593 467 593 467 C597 505 603 544 605 583 C605 583 485 583 485 583 C485 583 355 583 355 583 C355 583 220 583 220 583 C220 583 146 583 146 583 C145 579 143 565 142 563 C142 563 153 563 153 563 C195 563 215 558 205 499 C205 499 132 85 132 85 C132 85 132 85 132 85 C121 25 99 20 57 20 C57 20 46 20 46 20 C48 20 43 0 43 0 C43 0 117 0 117 0 C117 0 253 0 253 0 C253 0 408 0 408 0 C408 0 528 0 528 0 C540 38 554 79 564 117 C564 117 544 117 544 117 C544 117 541 106 541 106 C525 55 510 29 417 29 C417 29 338 29 338 29 C267 29 261 42 265 69 C266 74 267 79 268 85 C268 85 268 85 268 85 C268 85 305 299 305 299 C305 299 375 299 375 299 C469 299 470 270 460 212 C460 212 458 201 458 201 C458 201 478 201 478 201 C492 276 506 354 518 430 C518 430 498 430 498 430 C498 430 496 419 496 419 C487 361 475 332 381 332 C381 332 311 332 311 332 C311 332 342 507 342 507 C346 528 349 543 351 554 C351 554 482 554 482 554 C599 554 580 526 573 467 L573 467 Z " />
<glyph glyph-name="LETTERSMALLCAPITALJ" unicode="&#x1d0a;" horiz-adv-x="364" d="M415 583 C415 583 132 583 132 583 C131 579 129 565 128 563 C128 563 139 563 139 563 C181 563 202 559 192 503 C192 503 84 -106 84 -106 C73 -167 30 -172 -6 -172 C-82 -172 -17 -58 -93 -58 C-136 -58 -161 -80 -168 -122 C-180 -187 -139 -220 -48 -220 C68 -220 205 -194 265 150 C265 150 327 503 327 503 C338 559 359 563 401 563 C401 563 412 563 412 563 C410 563 415 583 415 583 L415 583 Z " />
<glyph glyph-name="LETTERSMALLCAPITALK" unicode="&#x1d0b;" horiz-adv-x="705" d="M688 20 C688 20 660 20 660 20 C640 20 614 47 593 81 C593 81 422 378 422 378 C422 378 519 473 519 473 C519 473 519 473 519 473 C520 474 521 475 522 476 C522 476 574 527 574 527 C612 560 630 563 654 563 C654 563 678 563 678 563 C678 563 683 583 681 583 C681 583 631 583 631 583 C631 583 581 583 581 583 C581 583 483 583 483 583 C482 579 480 565 479 563 C479 563 498 563 498 563 C539 563 553 556 464 460 C464 460 304 292 304 292 C304 292 345 523 345 523 C345 523 345 523 345 523 C352 560 373 563 415 563 C415 563 426 563 426 563 C424 563 429 583 429 583 C429 583 355 583 355 583 C355 583 220 583 220 583 C220 583 146 583 146 583 C145 579 143 565 142 563 C142 563 153 563 153 563 C195 563 216 560 209 523 C209 523 209 523 209 523 C209 523 128 60 128 60 C128 60 127 60 127 60 C121 23 99 20 57 20 C57 20 46 20 46 20 C48 20 43 0 43 0 C43 0 117 0 117 0 C117 0 253 0 253 0 C253 0 326 0 326 0 C327 4 329 18 330 20 C330 20 319 20 319 20 C281 20 260 23 262 52 C262 52 304 292 304 292 C304 292 425 85 425 85 C425 85 425 85 425 85 C476 -2 475 0 475 0 C475 0 640 0 640 0 C640 0 684 0 684 0 C685 4 687 18 688 20 C688 20 688 20 688 20 L688 20 Z " />
<glyph glyph-name="LETTERSMALLCAPITALM" unicode="&#x1d0d;" horiz-adv-x="818" d="M895 583 C895 583 821 583 821 583 C821 583 739 583 739 583 C739 583 692 583 692 583 C692 583 479 183 479 183 C479 183 480 185 480 185 C480 185 375 583 375 583 C375 583 269 583 269 583 C269 583 235 583 235 583 C235 583 212 583 212 583 C212 583 147 583 147 583 C147 583 142 563 144 563 C144 563 167 563 167 563 C192 563 210 560 224 531 C224 531 141 150 141 150 C141 150 141 150 141 150 C115 29 92 20 48 20 C48 20 25 20 25 20 C25 18 25 8 22 0 C22 0 109 0 109 0 C109 0 156 0 156 0 C156 0 244 0 244 0 C245 4 247 18 248 20 C248 20 225 20 225 20 C185 20 164 26 177 107 C177 107 246 466 246 466 C291 310 337 155 382 0 C382 0 416 0 416 0 C416 0 675 468 675 468 C675 468 617 70 617 70 C607 24 585 20 545 20 C545 20 534 20 534 20 C534 18 534 8 531 0 C531 0 607 0 607 0 C607 0 743 0 743 0 C743 0 813 0 813 0 C814 4 816 18 817 20 C817 20 806 20 806 20 C769 20 749 24 752 68 C752 68 801 431 801 431 C820 554 837 563 868 563 C868 563 891 563 891 563 C892 567 894 581 895 583 C895 583 895 583 895 583 L895 583 Z " />
<glyph glyph-name="LETTERSMALLCAPITALO" unicode="&#x1d0f;" horiz-adv-x="822" d="M399 26 C266 26 214 115 245 292 C276 468 358 557 490 557 C636 557 695 468 663 292 C632 115 544 26 399 26 L399 26 Z M90 292 C54 91 154 -10 386 -10 C638 -10 783 91 819 292 C854 492 748 593 502 593 C263 593 125 492 90 292 L90 292 Z " />
<glyph glyph-name="LETTERSMALLCAPITALP" unicode="&#x1d18;" horiz-adv-x="558" d="M176 563 C176 563 187 563 187 563 C229 563 249 558 239 499 C239 499 166 85 166 85 C166 85 166 85 166 85 C155 25 133 20 91 20 C91 20 80 20 80 20 C80 18 80 8 77 0 C77 0 151 0 151 0 C151 0 286 0 286 0 C286 0 360 0 360 0 C361 4 363 18 364 20 C364 20 353 20 353 20 C312 20 291 25 300 80 C300 80 331 255 331 255 C331 255 366 255 366 255 C511 255 591 293 612 417 C632 527 581 583 459 583 C459 583 389 583 389 583 C389 583 254 583 254 583 C254 583 180 583 180 583 C179 579 177 565 176 563 C176 563 176 563 176 563 L176 563 Z M388 577 C388 577 385 560 385 560 C385 560 421 560 421 560 C480 560 503 519 489 439 C468 321 431 284 372 284 C372 284 337 284 337 284 C337 284 331 257 331 257 C331 257 374 498 374 498 C374 498 374 498 374 498 C383 547 386 568 388 577 L388 577 Z " />
<glyph glyph-name="LETTERSMALLCAPITALT" unicode="&#x1d1b;" horiz-adv-x="715" d="M216 0 C216 0 499 0 499 0 C500 4 502 18 503 20 C503 20 492 20 492 20 C450 20 429 24 440 80 C440 80 522 549 522 549 C522 549 637 549 637 549 C737 549 741 526 751 476 C751 476 761 476 761 476 C767 477 770 477 770 477 C766 501 762 526 757 550 C757 550 763 583 763 583 C763 583 751 583 751 583 C748 596 746 610 743 623 C743 623 723 623 723 623 C730 592 732 583 631 583 C631 583 528 583 528 583 C528 583 392 583 392 583 C392 583 290 583 290 583 C197 583 196 593 207 614 C207 614 212 623 212 623 C212 623 191 623 191 623 C184 610 177 596 170 583 C170 583 158 583 158 583 C158 583 152 549 152 549 C139 525 126 501 113 477 C113 477 116 477 122 476 C122 476 132 476 132 476 C132 476 138 486 138 486 C160 528 179 549 272 549 C272 549 386 549 386 549 C386 549 304 80 304 80 C294 24 272 20 230 20 C230 20 219 20 219 20 C219 18 219 8 216 0 C216 0 216 0 216 0 L216 0 Z " />
<glyph glyph-name="LETTERSMALLCAPITALU" unicode="&#x1d1c;" horiz-adv-x="700" d="M494 563 C494 563 505 563 505 563 C547 563 567 558 556 498 C556 498 501 184 501 184 C456 113 398 78 330 78 C265 78 239 120 253 202 C253 202 305 498 305 498 C320 577 321 583 320 583 C320 583 111 583 111 583 C110 579 108 565 107 563 C107 563 118 563 118 563 C160 563 180 558 170 498 C170 498 117 202 117 202 C93 61 140 -10 260 -10 C356 -10 434 34 490 123 C490 123 500 178 500 178 C500 178 488 110 488 110 C488 110 469 0 469 0 C469 0 490 0 490 0 C490 0 687 55 687 55 C687 55 689 65 689 65 C620 61 615 63 624 110 C624 110 692 498 692 498 C706 577 707 583 707 583 C707 583 498 583 498 583 C497 579 495 565 494 563 C494 563 494 563 494 563 L494 563 Z " />
<glyph glyph-name="LETTERSMALLCAPITALV" unicode="&#x1d20;" horiz-adv-x="734" d="M417 583 C417 583 301 583 301 583 C301 583 144 583 144 583 C144 583 109 583 109 583 C109 583 104 563 106 563 C106 563 132 563 132 563 C144 563 150 561 161 534 C161 534 274 206 274 206 C274 206 347 -10 347 -10 C347 -10 374 -10 374 -10 C374 -10 662 443 662 443 C662 443 662 443 662 443 C662 443 662 443 662 443 C662 443 703 507 703 507 C739 558 758 563 782 563 C782 563 805 563 805 563 C806 567 808 581 809 583 C809 583 751 583 751 583 C751 583 697 583 697 583 C697 583 581 583 581 583 C581 583 576 563 578 563 C578 563 598 563 598 563 C652 563 677 556 627 465 C627 465 347 -10 347 -10 C347 -10 474 206 474 206 C474 206 364 445 364 445 C327 555 347 563 393 563 C393 563 413 563 413 563 C414 567 416 581 417 583 C417 583 417 583 417 583 L417 583 Z " />
<glyph glyph-name="LETTERSMALLCAPITALW" unicode="&#x1d21;" horiz-adv-x="992" d="M1070 583 C1070 583 1009 583 1009 583 C1009 583 954 583 954 583 C954 583 838 583 838 583 C837 579 835 565 834 563 C834 563 855 563 855 563 C914 563 940 555 888 443 C888 443 889 443 889 443 C889 443 774 197 774 197 C774 197 666 478 666 478 C639 557 660 563 704 563 C704 563 724 563 724 563 C724 563 729 583 727 583 C727 583 626 583 626 583 C626 583 468 583 468 583 C468 583 412 583 412 583 C412 583 407 563 409 563 C409 563 432 563 432 563 C461 563 476 560 489 523 C489 523 489 523 489 523 C505 478 521 433 537 388 C537 388 428 168 428 168 C428 168 429 172 429 172 C429 172 335 462 335 462 C308 556 329 563 374 563 C374 563 394 563 394 563 C394 563 399 583 397 583 C397 583 296 583 296 583 C296 583 146 583 146 583 C146 583 111 583 111 583 C110 579 108 565 107 563 C107 563 133 563 133 563 C146 563 155 555 190 450 C240 297 290 144 340 -10 C340 -10 376 -10 376 -10 C376 -10 556 334 556 334 C596 220 636 105 677 -10 C677 -10 713 -10 713 -10 C713 -10 968 501 968 501 C1000 558 1017 563 1042 563 C1042 563 1066 563 1066 563 C1067 567 1069 581 1070 583 C1070 583 1070 583 1070 583 L1070 583 Z " />
<glyph glyph-name="LETTERSMALLCAPITALZ" unicode="&#x1d22;" horiz-adv-x="582" d="M172 0 C172 0 386 0 386 0 C386 0 546 0 546 0 C566 48 588 97 608 145 C604 146 591 147 589 147 C589 147 570 116 570 116 C543 73 521 48 452 40 C452 40 201 34 201 34 C201 34 648 555 648 555 C648 555 653 583 653 583 C653 583 520 583 520 583 C520 583 343 583 343 583 C343 583 173 583 173 583 C156 531 142 481 124 430 C129 429 147 428 150 428 C150 428 158 449 158 449 C183 509 205 542 306 546 C306 546 326 547 326 547 C328 547 329 547 331 547 C331 547 331 547 331 547 C331 547 492 551 492 551 C492 551 30 29 30 29 C30 29 25 0 25 0 C25 0 172 0 172 0 L172 0 Z " />
<glyph glyph-name="Wgrave" unicode="&#x1e80;" horiz-adv-x="1129" d="M1237 750 C1237 750 1176 750 1176 750 C1176 750 1114 750 1114 750 C1114 750 998 750 998 750 C998 750 995 730 994 730 C994 730 1015 730 1015 730 C1072 730 1098 723 1059 625 C1059 625 882 220 882 220 C882 220 757 647 757 647 C736 724 758 730 805 730 C805 730 826 730 826 730 C827 740 829 742 829 750 C829 750 727 750 727 750 C727 750 553 750 553 750 C553 750 495 750 495 750 C495 750 492 730 492 730 C492 730 516 730 516 730 C543 730 559 727 570 693 C589 628 609 564 628 500 C628 500 478 189 478 189 C478 189 478 191 478 191 C478 191 372 610 372 610 C372 610 373 610 373 610 C342 722 365 730 415 730 C415 730 436 730 436 730 C437 740 439 742 439 750 C439 750 337 750 337 750 C337 750 171 750 171 750 C171 750 135 750 135 750 C135 750 132 730 131 730 C131 730 157 730 157 730 C169 730 177 724 201 642 C261 425 322 208 381 -10 C381 -10 421 -10 421 -10 C421 -10 647 435 647 435 C692 287 736 138 781 -10 C781 -10 821 -10 821 -10 C821 -10 1139 672 1139 672 C1168 725 1185 730 1209 730 C1209 730 1233 730 1233 730 C1233 730 1237 750 1237 750 C1237 750 1237 750 1237 750 L1237 750 Z M632 988 C614 1030 602 1051 592 1051 C552 1051 520 1024 513 983 C511 973 527 955 559 927 C559 927 685 811 685 811 C685 811 705 828 705 828 C705 828 632 988 632 988 L632 988 Z " />
<glyph glyph-name="Wacute" unicode="&#x1e82;" horiz-adv-x="1129" d="M694 811 C694 811 860 927 860 927 C903 957 925 974 926 983 C934 1024 911 1051 871 1051 C862 1051 843 1030 809 988 C809 988 680 828 680 828 C680 828 694 811 694 811 L694 811 Z M1237 750 C1237 750 1176 750 1176 750 C1176 750 1114 750 1114 750 C1114 750 998 750 998 750 C998 750 995 730 994 730 C994 730 1015 730 1015 730 C1072 730 1098 723 1059 625 C1059 625 882 220 882 220 C882 220 757 647 757 647 C736 724 758 730 805 730 C805 730 826 730 826 730 C827 740 829 742 829 750 C829 750 727 750 727 750 C727 750 553 750 553 750 C553 750 495 750 495 750 C495 750 492 730 492 730 C492 730 516 730 516 730 C543 730 559 727 570 693 C589 628 609 564 628 500 C628 500 478 189 478 189 C478 189 478 191 478 191 C478 191 372 610 372 610 C372 610 373 610 373 610 C342 722 365 730 415 730 C415 730 436 730 436 730 C437 740 439 742 439 750 C439 750 337 750 337 750 C337 750 171 750 171 750 C171 750 135 750 135 750 C135 750 132 730 131 730 C131 730 157 730 157 730 C169 730 177 724 201 642 C261 425 322 208 381 -10 C381 -10 421 -10 421 -10 C421 -10 647 435 647 435 C692 287 736 138 781 -10 C781 -10 821 -10 821 -10 C821 -10 1139 672 1139 672 C1168 725 1185 730 1209 730 C1209 730 1233 730 1233 730 C1233 730 1237 750 1237 750 C1237 750 1237 750 1237 750 L1237 750 Z " />
<glyph glyph-name="Wdieresis" unicode="&#x1e84;" horiz-adv-x="1129" d="M778 865 C831 865 862 892 872 945 C881 998 859 1025 806 1025 C753 1025 721 998 712 945 C702 892 724 865 778 865 L778 865 Z M610 865 C664 865 695 892 704 945 C714 998 692 1025 638 1025 C585 1025 554 998 544 945 C535 892 557 865 610 865 L610 865 Z M1237 750 C1237 750 1176 750 1176 750 C1176 750 1114 750 1114 750 C1114 750 998 750 998 750 C998 750 995 730 994 730 C994 730 1015 730 1015 730 C1072 730 1098 723 1059 625 C1059 625 882 220 882 220 C882 220 757 647 757 647 C736 724 758 730 805 730 C805 730 826 730 826 730 C827 740 829 742 829 750 C829 750 727 750 727 750 C727 750 553 750 553 750 C553 750 495 750 495 750 C495 750 492 730 492 730 C492 730 516 730 516 730 C543 730 559 727 570 693 C589 628 609 564 628 500 C628 500 478 189 478 189 C478 189 478 191 478 191 C478 191 372 610 372 610 C372 610 373 610 373 610 C342 722 365 730 415 730 C415 730 436 730 436 730 C437 740 439 742 439 750 C439 750 337 750 337 750 C337 750 171 750 171 750 C171 750 135 750 135 750 C135 750 132 730 131 730 C131 730 157 730 157 730 C169 730 177 724 201 642 C261 425 322 208 381 -10 C381 -10 421 -10 421 -10 C421 -10 647 435 647 435 C692 287 736 138 781 -10 C781 -10 821 -10 821 -10 C821 -10 1139 672 1139 672 C1168 725 1185 730 1209 730 C1209 730 1233 730 1233 730 C1233 730 1237 750 1237 750 C1237 750 1237 750 1237 750 L1237 750 Z " />
<glyph glyph-name="CapitalLetterEWITHTI" unicode="&#x1ebc;" horiz-adv-x="661" d="M359 870 C364 904 380 921 404 921 C467 921 494 856 557 856 C623 856 665 908 684 1011 C684 1011 660 1011 660 1011 C652 971 634 951 605 951 C542 951 515 1016 452 1016 C392 1016 352 967 335 870 C335 870 359 870 359 870 L359 870 Z M673 630 C673 630 693 630 693 630 C696 650 698 670 700 690 C700 690 706 750 706 750 C706 750 586 750 586 750 C586 750 396 750 396 750 C396 750 245 750 245 750 C245 750 171 750 171 750 C171 750 168 730 168 730 C168 730 179 730 179 730 C221 730 241 725 230 665 C230 665 230 665 230 665 C230 665 127 82 127 82 C116 25 94 20 53 20 C53 20 43 20 43 20 C42 16 40 2 39 0 C39 0 113 0 113 0 C113 0 264 0 264 0 C264 0 479 0 479 0 C479 0 599 0 599 0 C611 40 625 80 637 120 C637 120 617 120 617 120 C617 120 613 109 613 109 C597 58 582 32 489 32 C489 32 349 32 349 32 C281 32 273 44 276 68 C277 73 278 79 279 85 C279 85 279 85 279 85 C279 85 336 411 336 411 C336 411 332 385 332 385 C332 385 462 385 462 385 C561 385 557 350 544 287 C544 287 564 287 564 287 C578 362 593 443 605 519 C605 519 585 519 585 519 C585 519 584 509 584 509 C573 450 561 421 468 421 C468 421 338 421 338 421 C338 421 388 703 388 703 C389 709 390 714 390 718 C390 718 583 718 583 718 C699 718 680 689 673 630 C673 630 673 630 673 630 L673 630 Z " />
<glyph glyph-name="Ygrave" unicode="&#x1ef2;" horiz-adv-x="788" d="M415 750 C415 750 341 750 341 750 C341 750 163 750 163 750 C163 750 131 750 131 750 C131 750 128 730 128 730 C128 730 154 730 154 730 C165 730 174 725 207 662 C207 662 384 311 384 311 C384 311 343 80 343 80 C333 24 311 20 270 20 C270 20 259 20 259 20 C258 16 256 2 255 0 C255 0 554 0 554 0 C554 2 557 12 557 20 C557 20 547 20 547 20 C505 20 484 24 494 80 C494 80 536 316 536 316 C536 316 536 316 536 316 C536 316 749 610 749 610 C749 610 749 610 749 610 C830 722 848 730 871 730 C871 730 895 730 895 730 C896 730 899 750 899 750 C899 750 850 750 850 750 C850 750 775 750 775 750 C775 750 701 750 701 750 C701 750 698 730 697 730 C697 730 718 730 718 730 C742 730 755 726 738 693 C738 693 694 624 694 624 C693 622 692 621 691 620 C691 620 691 620 691 620 C691 620 528 366 528 366 C528 366 409 610 409 610 C409 610 409 610 409 610 C408 611 408 612 407 614 C407 614 395 639 395 639 C355 723 366 730 393 730 C393 730 412 730 412 730 C412 730 415 750 415 750 L415 750 Z M495 988 C477 1030 466 1051 456 1051 C415 1051 384 1024 376 983 C375 973 390 955 423 927 C423 927 548 811 548 811 C548 811 568 828 568 828 C568 828 495 988 495 988 L495 988 Z " />
<glyph glyph-name="quoteleft" unicode="&#x2018;" horiz-adv-x="678" d="" />
<glyph glyph-name="quoteright" unicode="&#x2019;" horiz-adv-x="218" d="" />
<glyph glyph-name="quotedblleft" unicode="&#x201c;" horiz-adv-x="678" d="M424 640 C407 640 393 635 382 624 C395 693 429 735 483 749 C483 749 475 760 475 760 C399 741 353 686 337 596 C327 541 349 513 402 513 C444 513 469 534 476 576 C484 619 466 640 424 640 L424 640 Z " />
<glyph glyph-name="quotedblright" unicode="&#x201d;" horiz-adv-x="678" d="M465 650 C450 583 411 540 344 524 C344 524 353 513 353 513 C442 536 495 592 511 682 C520 734 498 760 445 760 C403 760 378 739 370 696 C363 654 381 633 423 633 C440 633 454 639 465 650 C465 650 465 650 465 650 L465 650 Z " />
<glyph glyph-name="Euro" unicode="&#x20ac;" horiz-adv-x="831" d="M888 536 C888 536 903 626 903 626 C903 626 904 629 905 635 C905 635 905 635 905 635 C905 635 905 635 905 635 C907 648 912 675 919 715 C919 715 904 715 904 715 C904 715 901 708 896 695 C893 689 872 694 835 717 C796 746 740 760 633 760 C407 760 257 672 186 497 C186 497 156 497 156 497 C156 497 126 400 126 400 C126 400 157 400 157 400 C155 392 153 383 152 375 C151 367 149 358 148 350 C148 350 117 350 117 350 C117 350 86 253 86 253 C86 253 143 253 143 253 C151 78 266 -10 487 -10 C583 -10 647 3 700 29 C700 29 700 29 700 29 C700 29 741 41 782 52 C788 54 789 47 786 31 C786 31 798 31 798 31 C803 59 808 87 813 115 C813 115 813 115 813 115 C813 115 813 115 813 115 C813 118 814 120 814 123 C815 123 820 153 830 214 C830 214 815 214 815 214 C816 214 813 209 808 199 C801 185 789 169 775 153 C775 153 774 154 774 154 C730 111 693 79 652 57 C644 53 635 49 627 46 C627 46 627 46 627 46 C593 32 555 25 508 25 C372 25 305 101 306 253 C306 253 589 253 589 253 C589 253 620 350 620 350 C620 350 314 350 314 350 C315 358 316 367 318 375 C319 383 321 392 323 400 C323 400 628 400 628 400 C628 400 659 497 659 497 C659 497 349 497 349 497 C403 647 501 722 642 722 C764 722 796 680 852 596 C852 596 855 598 855 598 C863 583 868 566 870 551 C870 551 873 536 873 536 C873 536 888 536 888 536 L888 536 Z " />
<glyph glyph-name="LETTERSMALLCAPITALF" unicode="&#xa730;" horiz-adv-x="565" d="M596 474 C600 509 603 547 605 583 C605 583 485 583 485 583 C485 583 355 583 355 583 C355 583 220 583 220 583 C220 583 146 583 146 583 C145 579 143 565 142 563 C142 563 153 563 153 563 C195 563 215 558 205 499 C205 499 132 85 132 85 C132 85 132 85 132 85 C121 25 99 20 57 20 C57 20 46 20 46 20 C48 20 43 0 43 0 C43 0 117 0 117 0 C117 0 253 0 253 0 C253 0 326 0 326 0 C327 4 329 18 330 20 C330 20 319 20 319 20 C278 20 257 25 268 85 C268 85 268 85 268 85 C268 85 302 282 302 282 C302 282 300 267 300 267 C300 267 454 267 454 267 C458 257 458 245 457 230 C457 230 455 198 455 198 C455 198 467 198 467 198 C472 221 476 244 480 267 C480 267 480 267 480 267 C480 267 484 294 484 294 C489 319 494 344 498 369 C498 369 486 369 486 369 C486 369 476 337 476 337 C468 312 458 299 365 299 C365 299 305 299 305 299 C305 299 342 507 342 507 C346 532 350 549 352 560 C352 560 403 560 403 560 C571 560 581 534 576 483 C576 483 576 472 576 472 C580 473 594 474 596 474 L596 474 Z " />
<glyph glyph-name="LETTERSMALLCAPITALS" unicode="&#xa731;" horiz-adv-x="495" d="M493 424 C498 450 502 476 507 502 C507 502 507 502 507 502 C507 502 507 503 507 503 C507 503 507 504 507 504 C507 504 512 531 521 583 C521 583 506 583 506 583 C506 583 503 576 497 563 C495 557 478 558 449 573 C449 573 449 573 449 573 C423 586 388 593 346 593 C224 593 152 535 132 422 C114 324 143 260 244 221 C341 183 374 155 369 128 C358 65 319 33 252 33 C242 33 232 34 222 35 C222 35 223 35 223 35 C147 45 106 119 96 190 C96 190 81 190 81 190 C74 152 69 126 67 112 C67 112 67 112 67 112 C67 112 67 112 67 112 C66 104 65 100 65 100 C59 70 54 40 49 10 C49 10 64 10 64 10 C64 10 67 19 73 36 C75 41 99 35 142 12 C142 12 143 12 143 12 C170 -3 204 -10 244 -10 C383 -10 464 49 485 167 C500 256 466 317 350 362 C267 395 240 429 247 473 C257 530 289 559 340 559 C418 559 466 499 476 439 C477 429 478 424 478 424 C478 424 493 424 493 424 L493 424 Z " />
<glyph glyph-name="[namenotfound]" unicode="&#xf078;" horiz-adv-x="711" d="M781 583 C781 583 739 583 739 583 C739 583 678 583 678 583 C678 583 583 583 583 583 C583 583 578 563 580 563 C580 563 598 563 598 563 C636 563 648 555 552 454 C552 454 448 348 448 348 C448 348 385 462 385 462 C336 556 349 563 383 563 C383 563 402 563 402 563 C403 567 405 581 406 583 C406 583 318 583 318 583 C318 583 158 583 158 583 C158 583 120 583 120 583 C119 579 117 565 116 563 C116 563 141 563 141 563 C159 563 173 555 235 443 C235 443 235 443 235 443 C235 443 335 261 335 261 C335 261 167 96 167 96 C93 26 71 20 40 20 C40 20 16 20 16 20 C18 20 13 0 13 0 C13 0 70 0 70 0 C70 0 124 0 124 0 C124 0 254 0 254 0 C255 4 257 18 258 20 C258 20 239 20 239 20 C182 20 154 26 214 95 C214 95 264 148 264 148 C265 149 265 149 266 150 C266 150 266 150 266 150 C266 150 348 237 348 237 C348 237 406 132 406 132 C462 28 448 20 414 20 C414 20 395 20 395 20 C394 16 392 2 391 0 C391 0 479 0 479 0 C479 0 640 0 640 0 C640 0 686 0 686 0 C686 0 689 20 689 20 C689 20 665 20 665 20 C641 20 625 28 563 140 C563 140 563 140 563 140 C563 140 461 325 461 325 C461 325 556 413 556 413 C556 413 556 413 556 413 C556 413 556 413 556 413 C556 413 692 540 692 540 C721 560 736 563 753 563 C753 563 777 563 777 563 C778 567 780 581 781 583 L781 583 Z " />
</font>
</svg>
