<?xml version="1.0" encoding="UTF-8"?>
<svg xmlns="http://www.w3.org/2000/svg" xmlns:xlink="http://www.w3.org/1999/xlink" version="1.2" >
<font id="Aludra Light">
<font-face  font-family="Aludra" units-per-em="1024" ascent="975" descent="-300" font-style="normal" font-weight="300" font-stretch="normal" cap-height="750" x-height="500" underline-position="0" underline-thickness="0" />
<missing-glyph  horiz-adv-x="472" d="M0 700 C0 700 432 700 432 700 C432 700 432 0 432 0 C432 0 0 0 0 0 C0 0 0 700 0 700 L0 700 Z M50 50 C50 50 382 50 382 50 C382 50 382 650 382 650 C382 650 50 650 50 650 C50 650 50 50 50 50 L50 50 Z " />
<glyph glyph-name="NULL" d="" />
<glyph glyph-name="CR" unicode="&#xd;" horiz-adv-x="256" d="" />
<glyph glyph-name="space" unicode="&#x20;" horiz-adv-x="250" d="" />
<glyph glyph-name="exclam" unicode="&#x21;" horiz-adv-x="201" d="M101 -5 C124 -5 136 7 136 30 C136 54 124 66 101 66 C77 66 65 54 65 30 C65 7 77 -5 101 -5 L101 -5 Z M101 755 C70 755 67 727 70 671 C70 671 96 210 96 210 C96 210 105 210 105 210 C105 210 131 671 131 671 C134 727 131 755 101 755 L101 755 Z " />
<glyph glyph-name="quotedbl" unicode="&#x22;" horiz-adv-x="325" d="M744 750 C727 750 726 735 729 705 C729 705 747 560 747 560 C747 560 753 560 753 560 C753 560 771 705 771 705 C774 735 773 750 756 750 C756 750 744 750 744 750 L744 750 Z " />
<glyph glyph-name="numbersign" unicode="&#x23;" horiz-adv-x="534" d="M390 681 C390 681 361 479 361 479 C361 479 215 479 215 479 C215 479 244 681 244 681 C244 681 224 681 224 681 C224 681 195 479 195 479 C195 479 64 479 64 479 C64 479 59 441 59 441 C59 441 190 441 190 441 C190 441 158 219 158 219 C158 219 25 219 25 219 C25 219 19 181 19 181 C19 181 153 181 153 181 C153 181 127 0 127 0 C127 0 147 0 147 0 C147 0 173 181 173 181 C173 181 319 181 319 181 C319 181 293 0 293 0 C293 0 313 0 313 0 C313 0 339 181 339 181 C339 181 464 181 464 181 C464 181 469 219 469 219 C469 219 344 219 344 219 C344 219 376 441 376 441 C376 441 509 441 509 441 C509 441 514 479 514 479 C514 479 381 479 381 479 C381 479 410 681 410 681 C410 681 390 681 390 681 L390 681 Z M210 441 C210 441 356 441 356 441 C356 441 324 219 324 219 C324 219 178 219 178 219 C178 219 210 441 210 441 L210 441 Z " />
<glyph glyph-name="dollar" unicode="&#x24;" horiz-adv-x="545" d="M305 825 C305 825 305 755 305 755 C287 758 267 760 246 760 C245 760 244 760 243 760 C243 760 243 825 243 825 C243 825 225 825 225 825 C225 825 225 759 225 759 C124 752 73 691 73 577 C73 501 115 438 225 377 C225 377 225 18 225 18 C208 22 192 29 176 37 C129 66 89 148 73 219 C70 234 68 241 68 241 C68 241 53 241 53 241 C53 241 53 148 53 148 C53 148 53 3 53 3 C53 3 68 3 68 3 C68 3 70 15 73 39 C76 61 100 67 141 37 C141 37 141 37 141 37 C166 19 194 6 225 -1 C225 -1 225 -75 225 -75 C225 -75 243 -75 243 -75 C243 -75 243 -5 243 -5 C261 -8 281 -10 301 -10 C302 -10 304 -10 305 -10 C305 -10 305 -75 305 -75 C305 -75 323 -75 323 -75 C323 -75 323 -9 323 -9 C444 -3 505 61 505 181 C505 270 456 338 323 402 C323 402 323 734 323 734 C382 709 427 638 442 571 C445 556 447 549 447 549 C447 549 462 549 462 549 C462 549 462 642 462 642 C462 642 462 757 462 757 C462 757 447 757 447 757 C447 757 445 747 442 728 C439 711 423 703 396 721 C396 721 396 721 396 721 C375 735 351 745 323 752 C323 752 323 825 323 825 C323 825 305 825 305 825 L305 825 Z M323 737 C323 737 323 737 323 737 C324 737 325 736 326 736 C326 736 323 737 323 737 L323 737 Z M305 740 C305 740 296 742 296 742 C297 742 299 742 300 742 C302 741 303 741 305 741 C305 741 305 740 305 740 L305 740 Z M305 740 C305 740 305 410 305 410 C282 421 261 432 243 443 C243 443 243 746 243 746 C244 746 245 746 246 746 C264 746 280 745 296 742 C296 742 293 743 293 743 C295 743 298 742 300 742 C302 741 303 741 305 741 C305 741 305 741 305 741 C306 740 306 740 307 740 C307 740 305 740 305 740 L305 740 Z M243 367 C256 360 270 353 285 346 C292 343 299 340 305 336 C305 336 305 8 305 8 C304 8 302 8 301 8 C281 8 261 10 243 13 C243 13 243 367 243 367 L243 367 Z M323 327 C422 274 460 224 460 165 C460 68 414 16 323 9 C323 9 323 327 323 327 L323 327 Z M225 454 C147 503 117 548 117 598 C117 688 153 737 225 745 C225 745 225 454 225 454 L225 454 Z " />
<glyph glyph-name="ampersand" unicode="&#x26;" horiz-adv-x="330" d="M311 471 C311 471 316 466 316 466 C417 496 468 546 468 613 C468 711 417 760 315 760 C207 760 153 707 153 603 C153 560 199 510 289 404 C289 404 511 145 511 145 C440 72 361 36 274 36 C159 36 101 97 101 216 C101 332 153 407 256 438 C256 438 247 441 247 441 C115 400 49 320 49 201 C49 61 115 -10 245 -10 C347 -10 440 37 523 131 C523 131 550 99 550 99 C612 27 662 -10 700 -10 C774 -10 818 43 831 148 C831 148 822 151 822 151 C812 71 778 31 721 31 C690 31 648 63 594 125 C594 125 555 170 555 170 C617 252 674 362 724 500 C724 500 712 500 712 500 C663 365 607 259 545 183 C545 183 333 430 333 430 C243 536 197 586 197 630 C197 708 237 748 315 748 C389 748 427 704 427 616 C427 543 388 495 311 471 C311 471 311 471 311 471 L311 471 Z " />
<glyph glyph-name="quotesingle" unicode="&#x27;" horiz-adv-x="204" d="" />
<glyph glyph-name="parenleft" unicode="&#x28;" horiz-adv-x="435" d="M320 760 C162 654 82 490 82 273 C82 65 160 -99 313 -214 C313 -214 316 -209 316 -209 C184 -109 118 52 118 273 C118 501 187 662 323 754 C323 754 320 760 320 760 L320 760 Z " />
<glyph glyph-name="parenright" unicode="&#x29;" horiz-adv-x="435" d="M27 754 C163 666 232 504 232 273 C232 38 166 -123 34 -209 C34 -209 37 -214 37 -214 C190 -115 268 48 268 273 C268 494 188 658 30 760 C30 760 27 754 27 754 L27 754 Z " />
<glyph glyph-name="asterisk" unicode="&#x2a;" horiz-adv-x="268" d="M147 630 C147 630 38 583 38 583 C27 578 24 571 29 560 C35 550 44 549 54 557 C54 557 149 627 149 627 C149 627 135 510 135 510 C133 497 138 491 150 491 C162 491 167 497 165 510 C165 510 151 627 151 627 C151 627 246 557 246 557 C256 549 265 550 271 560 C276 571 273 578 262 583 C262 583 153 630 153 630 C153 630 262 677 262 677 C273 682 276 689 271 700 C265 710 256 711 246 703 C246 703 151 633 151 633 C151 633 165 750 165 750 C167 763 162 769 150 769 C138 769 133 763 135 750 C135 750 149 633 149 633 C149 633 54 703 54 703 C44 711 35 710 29 700 C24 689 27 682 38 677 C38 677 147 630 147 630 L147 630 Z " />
<glyph glyph-name="plus" unicode="&#x2b;" horiz-adv-x="620" d="M291 460 C291 460 291 268 291 268 C291 268 100 268 100 268 C100 268 100 232 100 232 C100 232 291 232 291 232 C291 232 291 40 291 40 C291 40 329 40 329 40 C329 40 329 232 329 232 C329 232 520 232 520 232 C520 232 520 268 520 268 C520 268 329 268 329 268 C329 268 329 460 329 460 C329 460 291 460 291 460 L291 460 Z " />
<glyph glyph-name="comma" unicode="&#x2c;" horiz-adv-x="261" d="M170 23 C171 14 171 5 171 -5 C171 -69 135 -101 65 -101 C65 -101 65 -113 65 -113 C149 -113 191 -71 191 12 C191 81 169 115 125 115 C85 115 65 95 65 55 C65 15 85 -5 125 -5 C148 -5 163 4 170 23 L170 23 Z " />
<glyph glyph-name="hyphen" unicode="&#x2d;" horiz-adv-x="430" d="M80 265 C80 265 350 265 350 265 C350 265 350 305 350 305 C350 305 80 305 80 305 C80 305 80 265 80 265 L80 265 Z " />
<glyph glyph-name="period" unicode="&#x2e;" horiz-adv-x="195" d="M125 -5 C148 -5 160 7 160 30 C160 54 148 66 125 66 C102 66 90 54 90 30 C90 7 102 -5 125 -5 L125 -5 Z " />
<glyph glyph-name="slash" unicode="&#x2f;" horiz-adv-x="378" d="M319 770 C319 770 37 -80 37 -80 C37 -80 67 -80 67 -80 C67 -80 349 770 349 770 C349 770 319 770 319 770 L319 770 Z " />
<glyph glyph-name="zero" unicode="0" horiz-adv-x="605" d="M305 11 C166 11 73 91 73 250 C73 393 151 489 305 489 C444 489 537 409 537 250 C537 107 459 11 305 11 L305 11 Z M49 250 C49 77 152 -10 305 -10 C475 -10 561 95 561 250 C561 423 458 510 305 510 C135 510 49 405 49 250 L49 250 Z " />
<glyph glyph-name="one" unicode="1" horiz-adv-x="330" d="M290 500 C290 500 40 500 40 500 C40 500 40 480 40 480 C40 480 70 480 70 480 C117 480 140 479 140 465 C140 465 140 35 140 35 C140 21 117 20 70 20 C70 20 40 20 40 20 C40 20 40 0 40 0 C40 0 290 0 290 0 C290 0 290 20 290 20 C290 20 260 20 260 20 C213 20 190 21 190 35 C190 35 190 465 190 465 C190 479 213 480 260 480 C260 480 290 480 290 480 C290 480 290 500 290 500 L290 500 Z " />
<glyph glyph-name="two" unicode="2" horiz-adv-x="527" d="M56 291 C79 411 139 472 234 472 C329 472 377 425 377 331 C377 205 237 114 30 9 C30 9 30 0 30 0 C30 0 317 0 317 0 C317 0 425 0 425 0 C447 35 468 68 489 103 C486 104 475 108 473 109 C473 109 454 79 454 79 C440 56 425 44 323 44 C323 44 115 44 115 44 C304 145 427 235 427 343 C427 454 371 510 260 510 C145 510 73 437 45 294 C45 294 56 291 56 291 L56 291 Z " />
<glyph glyph-name="three" unicode="3" horiz-adv-x="408" d="M18 -222 C18 -222 20 -232 20 -232 C252 -207 369 -130 369 -2 C369 103 299 167 163 187 C302 252 373 309 373 384 C373 468 320 510 214 510 C111 510 47 457 22 351 C22 351 33 348 33 348 C52 432 106 475 194 475 C277 475 319 439 319 367 C319 283 243 230 93 166 C93 166 93 156 93 156 C241 135 316 77 316 -17 C316 -132 216 -201 18 -222 L18 -222 Z " />
<glyph glyph-name="four" unicode="4" horiz-adv-x="620" d="M595 0 C600 35 605 69 610 103 C610 103 590 103 590 103 C590 103 585 73 585 73 C582 50 573 38 470 38 C470 38 415 38 415 38 C415 38 415 530 415 530 C415 530 409 530 409 530 C409 530 15 9 15 9 C15 9 15 0 15 0 C15 0 365 0 365 0 C365 0 365 -220 365 -220 C365 -220 415 -220 415 -220 C415 -220 415 0 415 0 C415 0 515 0 515 0 C571 0 574 -8 571 -25 C571 -25 567 -55 567 -55 C567 -55 587 -55 587 -55 C590 -37 592 -18 595 0 C595 0 595 0 595 0 C595 0 595 0 595 0 L595 0 Z M61 38 C61 38 365 442 365 442 C365 442 365 38 365 38 C365 38 61 38 61 38 C61 38 61 38 61 38 L61 38 Z " />
<glyph glyph-name="five" unicode="5" horiz-adv-x="427" d="M60 -232 C285 -205 398 -111 398 47 C398 194 296 268 93 268 C93 268 83 268 83 268 C83 268 121 455 121 455 C121 455 340 457 340 457 C346 483 351 512 355 540 C355 540 335 540 335 540 C335 540 333 527 333 527 C330 509 321 500 228 500 C228 500 112 500 112 500 C112 500 57 223 57 223 C57 223 66 215 66 215 C66 215 88 215 88 215 C265 215 354 153 354 30 C354 -114 255 -199 59 -223 C59 -223 60 -232 60 -232 L60 -232 Z " />
<glyph glyph-name="six" unicode="6" horiz-adv-x="566" d="M550 750 C224 681 59 525 59 287 C59 90 138 -10 294 -10 C441 -10 515 74 515 239 C515 389 437 464 283 464 C201 464 147 435 120 379 C161 568 305 690 552 743 C552 743 550 750 550 750 L550 750 Z M108 260 C108 386 165 449 277 449 C402 449 465 380 465 242 C465 84 407 4 291 4 C170 4 108 90 108 260 L108 260 Z " />
<glyph glyph-name="seven" unicode="7" horiz-adv-x="447" d="M145 500 C96 500 96 508 104 525 C104 525 110 540 110 540 C110 540 90 540 90 540 C79 516 68 492 58 467 C58 467 25 395 25 395 C25 395 45 395 45 395 C45 395 54 415 54 415 C68 445 78 460 124 460 C124 460 416 460 416 460 C416 460 116 -220 116 -220 C116 -220 154 -220 154 -220 C154 -220 442 485 442 485 C442 485 442 500 442 500 C442 500 145 500 145 500 L145 500 Z " />
<glyph glyph-name="eight" unicode="8" horiz-adv-x="542" d="M236 384 C243 381 250 378 257 375 C395 319 464 282 464 165 C464 57 400 2 274 2 C153 2 91 60 91 174 C91 273 140 344 236 384 C236 384 236 384 236 384 L236 384 Z M222 390 C106 340 47 268 47 174 C47 52 123 -10 274 -10 C426 -10 503 56 503 188 C503 310 438 354 309 407 C420 454 476 518 476 597 C476 705 408 760 272 760 C139 760 72 701 72 583 C72 496 122 437 222 390 C222 390 222 390 222 390 L222 390 Z M297 413 C290 415 283 418 276 421 C167 466 112 519 112 602 C112 699 166 748 272 748 C379 748 433 696 433 593 C433 511 388 450 297 413 L297 413 Z " />
<glyph glyph-name="nine" unicode="9" horiz-adv-x="566" d="M17 -250 C343 -181 508 -25 508 213 C508 410 429 510 273 510 C126 510 52 426 52 261 C52 111 130 36 284 36 C365 36 419 64 446 119 C405 -69 261 -190 15 -243 C15 -243 17 -250 17 -250 L17 -250 Z M458 240 C458 237 458 234 458 232 C456 111 399 51 290 51 C165 51 102 120 102 258 C102 416 160 496 276 496 C397 496 459 410 458 240 L458 240 Z " />
<glyph glyph-name="colon" unicode="&#x3a;" horiz-adv-x="135" d="M125 385 C148 385 160 397 160 420 C160 444 148 456 125 456 C102 456 90 444 90 420 C90 397 102 385 125 385 L125 385 Z M125 -5 C148 -5 160 7 160 30 C160 54 148 66 125 66 C102 66 90 54 90 30 C90 7 102 -5 125 -5 L125 -5 Z " />
<glyph glyph-name="semicolon" unicode="&#x3b;" horiz-adv-x="261" d="M125 385 C148 385 160 397 160 420 C160 444 148 456 125 456 C102 456 90 444 90 420 C90 397 102 385 125 385 L125 385 Z M170 23 C171 14 171 5 171 -5 C171 -69 135 -101 65 -101 C65 -101 65 -113 65 -113 C149 -113 191 -71 191 12 C191 81 169 115 125 115 C85 115 65 95 65 55 C65 15 85 -5 125 -5 C148 -5 163 4 170 23 L170 23 Z " />
<glyph glyph-name="equal" unicode="&#x3d;" horiz-adv-x="527" d="M78 211 C78 211 78 189 78 189 C78 189 458 189 458 189 C458 189 458 211 458 211 C458 211 78 211 78 211 L78 211 Z M78 311 C78 311 78 289 78 289 C78 289 458 289 458 289 C458 289 458 311 458 311 C458 311 78 311 78 311 L78 311 Z " />
<glyph glyph-name="question" unicode="&#x3f;" horiz-adv-x="304" d="M125 -5 C148 -5 160 7 160 30 C160 54 148 66 125 66 C102 66 90 54 90 30 C90 7 102 -5 125 -5 L125 -5 Z M121 175 C121 175 125 360 125 360 C219 360 240 391 281 453 C300 481 309 514 309 553 C309 691 254 760 145 760 C114 760 98 748 98 723 C98 706 107 698 125 698 C138 698 150 707 163 707 C251 707 295 653 295 547 C295 524 287 501 270 476 C240 432 225 410 108 410 C108 410 113 175 113 175 C113 175 121 175 121 175 L121 175 Z " />
<glyph glyph-name="at" unicode="&#x40;" horiz-adv-x="1139" d="M1044 0 C970 -159 814 -239 577 -239 C256 -239 94 -72 94 259 C94 590 254 757 570 757 C886 757 1046 618 1046 343 C1046 118 981 4 852 4 C720 4 669 70 702 200 C702 200 772 480 772 480 C772 480 725 480 725 480 C725 480 702 388 702 388 C693 456 650 490 575 490 C391 490 298 392 298 197 C298 75 356 13 470 13 C552 13 611 52 646 128 C647 34 713 -13 843 -13 C1003 -13 1084 106 1084 343 C1084 627 911 770 570 770 C228 770 55 598 55 259 C55 -80 230 -252 577 -252 C820 -252 983 -167 1061 0 C1061 0 1044 0 1044 0 L1044 0 Z M694 355 C694 355 655 200 655 200 C628 94 575 41 496 41 C400 41 352 97 352 207 C352 386 426 476 574 476 C653 476 693 435 693 355 C693 355 694 355 694 355 L694 355 Z " />
<glyph glyph-name="A" unicode="A" horiz-adv-x="750" d="M462 0 C462 0 597 0 597 0 C597 0 656 0 656 0 C656 0 745 0 745 0 C745 0 745 20 745 20 C745 20 715 20 715 20 C675 20 651 27 622 110 C622 110 433 732 433 732 C433 732 422 770 422 770 C422 770 416 770 416 770 C399 746 386 733 377 732 C377 732 380 722 380 722 C380 722 380 722 380 722 C380 722 193 153 193 153 C150 29 112 20 44 20 C44 20 14 20 14 20 C14 20 14 0 14 0 C14 0 143 0 143 0 C143 0 160 0 160 0 C160 0 325 0 325 0 C325 0 325 20 325 20 C325 20 301 20 301 20 C217 20 175 29 206 143 C206 143 252 287 252 287 C252 287 511 287 511 287 C511 287 557 134 557 134 C587 28 555 20 486 20 C486 20 462 20 462 20 C462 20 462 0 462 0 L462 0 Z M257 302 C257 302 386 703 386 703 C386 703 506 302 506 302 C506 302 257 302 257 302 L257 302 Z " />
<glyph glyph-name="B" unicode="B" horiz-adv-x="628" d="M51 0 C51 0 212 0 212 0 C212 0 332 0 332 0 C502 0 588 20 588 195 C588 310 527 374 407 387 C517 407 573 468 573 569 C573 689 545 750 297 750 C297 750 212 750 212 750 C212 750 51 750 51 750 C51 750 51 730 51 730 C51 730 81 730 81 730 C131 730 156 725 156 665 C156 665 156 85 156 85 C156 25 131 20 81 20 C81 20 51 20 51 20 C51 20 51 0 51 0 L51 0 Z M212 739 C212 739 275 739 275 739 C492 739 517 680 517 563 C517 448 447 390 309 390 C309 390 212 390 212 390 C212 390 212 665 212 665 C212 665 212 739 212 739 L212 739 Z M315 380 C315 380 321 380 321 380 C458 380 527 318 527 195 C527 30 457 11 318 11 C318 11 268 11 268 11 C231 11 212 34 212 80 C212 80 212 85 212 85 C212 85 212 380 212 380 C212 380 315 380 315 380 L315 380 Z " />
<glyph glyph-name="C" unicode="C" horiz-adv-x="703" d="M657 529 C657 529 657 629 657 629 C657 629 657 744 657 744 C657 744 642 744 642 744 C642 744 640 734 637 715 C634 698 610 695 566 719 C524 746 471 760 382 760 C169 760 62 631 62 375 C62 119 166 -10 371 -10 C453 -10 508 3 553 28 C553 28 554 28 554 28 C554 28 596 30 637 32 C642 32 645 22 645 2 C645 2 657 2 657 2 C657 2 657 121 657 121 C657 121 657 221 657 221 C657 221 642 221 642 221 C642 221 640 214 637 199 C623 140 583 69 528 36 C489 14 442 3 377 3 C208 3 123 128 123 375 C123 621 212 746 387 746 C436 746 473 740 504 729 C571 703 621 620 637 550 C640 536 642 529 642 529 C642 529 657 529 657 529 L657 529 Z " />
<glyph glyph-name="D" unicode="D" horiz-adv-x="807" d="M51 0 C51 0 156 0 156 0 C156 0 212 0 212 0 C212 0 292 0 292 0 C598 0 752 101 752 375 C752 624 639 750 332 750 C332 750 212 750 212 750 C212 750 156 750 156 750 C156 750 51 750 51 750 C51 750 51 730 51 730 C51 730 81 730 81 730 C131 730 156 725 156 665 C156 665 156 85 156 85 C156 25 131 20 81 20 C81 20 51 20 51 20 C51 20 51 0 51 0 L51 0 Z M212 739 C212 739 287 739 287 739 C582 739 691 617 691 375 C691 109 551 11 275 11 C212 11 212 34 212 80 C212 80 212 85 212 85 C212 85 212 665 212 665 C212 665 212 739 212 739 L212 739 Z " />
<glyph glyph-name="E" unicode="E" horiz-adv-x="619" d="M531 613 C529 660 526 704 522 750 C522 750 402 750 402 750 C402 750 212 750 212 750 C212 750 156 750 156 750 C156 750 51 750 51 750 C51 750 51 730 51 730 C51 730 81 730 81 730 C131 730 156 725 156 665 C156 665 156 85 156 85 C156 25 131 20 81 20 C81 20 51 20 51 20 C51 20 51 0 51 0 C51 0 156 0 156 0 C156 0 212 0 212 0 C212 0 427 0 427 0 C427 0 547 0 547 0 C550 23 553 46 557 68 C557 68 566 137 566 137 C566 137 546 137 546 137 C546 137 542 107 542 107 C533 44 522 12 429 12 C429 12 292 12 292 12 C212 12 212 35 212 80 C212 80 212 85 212 85 C212 85 212 385 212 385 C212 385 342 385 342 385 C435 385 442 348 442 275 C442 275 442 245 442 245 C442 245 462 245 462 245 C462 245 462 385 462 385 C462 385 462 398 462 398 C462 398 462 538 462 538 C462 538 442 538 442 538 C442 538 442 508 442 508 C442 435 435 398 342 398 C342 398 212 398 212 398 C212 398 212 665 212 665 C212 665 212 738 212 738 C212 738 403 738 403 738 C514 738 505 702 510 631 C510 631 511 613 511 613 C511 613 531 613 531 613 L531 613 Z " />
<glyph glyph-name="F" unicode="F" horiz-adv-x="594" d="M533 618 C532 640 530 662 528 684 C528 684 522 750 522 750 C522 750 402 750 402 750 C402 750 212 750 212 750 C212 750 156 750 156 750 C156 750 51 750 51 750 C51 750 51 730 51 730 C51 730 81 730 81 730 C131 730 156 725 156 665 C156 665 156 85 156 85 C156 25 131 20 81 20 C81 20 51 20 51 20 C51 20 51 0 51 0 C51 0 156 0 156 0 C156 0 212 0 212 0 C212 0 317 0 317 0 C317 0 317 20 317 20 C317 20 287 20 287 20 C237 20 212 25 212 85 C212 85 212 372 212 372 C212 372 400 372 400 372 C427 357 432 328 436 286 C436 286 440 240 440 240 C440 240 452 240 452 240 C452 240 452 372 452 372 C452 372 452 385 452 385 C452 385 452 517 452 517 C452 517 440 517 440 517 C440 517 436 471 436 471 C431 414 421 385 332 385 C332 385 212 385 212 385 C212 385 212 665 212 665 C212 665 212 741 212 741 C212 741 323 741 323 741 C490 741 506 709 511 646 C511 646 514 616 514 616 C525 618 533 617 533 618 C533 618 533 618 533 618 L533 618 Z " />
<glyph glyph-name="G" unicode="G" horiz-adv-x="777" d="M657 529 C657 529 657 629 657 629 C657 629 657 744 657 744 C657 744 642 744 642 744 C642 744 640 734 637 715 C634 698 610 695 566 719 C524 746 471 760 382 760 C169 760 62 631 62 375 C62 119 167 -10 376 -10 C490 -10 561 2 629 26 C629 26 636 27 636 27 C636 27 636 28 636 28 C662 37 687 48 714 61 C714 61 710 69 710 69 C685 57 661 47 636 38 C636 38 636 245 636 245 C636 301 654 305 691 305 C691 305 721 305 721 305 C721 305 721 325 721 325 C721 325 480 325 480 325 C480 325 480 305 480 305 C480 305 510 305 510 305 C556 305 580 301 580 245 C580 245 581 72 581 72 C578 40 543 19 476 10 C476 10 530 13 530 13 C489 7 441 4 381 4 C381 4 476 10 476 10 C450 6 418 4 381 4 C209 4 123 129 123 375 C123 621 212 746 387 746 C436 746 473 740 504 729 C571 703 621 620 637 550 C640 536 642 529 642 529 C642 529 657 529 657 529 L657 529 Z " />
<glyph glyph-name="H" unicode="H" horiz-adv-x="816" d="M777 750 C777 750 511 750 511 750 C511 750 511 730 511 730 C511 730 541 730 541 730 C591 730 616 726 616 670 C616 670 616 391 616 391 C616 391 248 391 248 391 C248 391 248 670 248 670 C248 726 273 730 323 730 C323 730 353 730 353 730 C353 730 353 750 353 750 C353 750 87 750 87 750 C87 750 87 730 87 730 C87 730 117 730 117 730 C167 730 192 726 192 670 C192 670 192 80 192 80 C192 24 167 20 117 20 C117 20 87 20 87 20 C87 20 87 0 87 0 C87 0 353 0 353 0 C353 0 353 20 353 20 C353 20 323 20 323 20 C273 20 248 24 248 80 C248 80 248 375 248 375 C248 375 616 375 616 375 C616 375 616 80 616 80 C616 24 591 20 541 20 C541 20 511 20 511 20 C511 20 511 0 511 0 C511 0 777 0 777 0 C777 0 777 20 777 20 C777 20 747 20 747 20 C697 20 672 24 672 80 C672 80 672 670 672 670 C672 726 697 730 747 730 C747 730 777 730 777 730 C777 730 777 750 777 750 L777 750 Z " />
<glyph glyph-name="I" unicode="I" horiz-adv-x="362" d="M323 750 C323 750 57 750 57 750 C57 750 57 730 57 730 C57 730 87 730 87 730 C137 730 162 726 162 670 C162 670 162 80 162 80 C162 24 137 20 87 20 C87 20 57 20 57 20 C57 20 57 0 57 0 C57 0 323 0 323 0 C323 0 323 20 323 20 C323 20 293 20 293 20 C243 20 218 24 218 80 C218 80 218 670 218 670 C218 726 243 730 293 730 C293 730 323 730 323 730 C323 730 323 750 323 750 L323 750 Z " />
<glyph glyph-name="J" unicode="J" horiz-adv-x="362" d="M323 750 C323 750 57 750 57 750 C57 750 57 730 57 730 C57 730 87 730 87 730 C137 730 162 726 162 670 C162 670 162 -31 162 -31 C162 -188 103 -200 51 -200 C20 -200 38 -153 7 -153 C-11 -153 -20 -162 -20 -180 C-20 -206 -1 -220 37 -220 C121 -220 218 -199 218 75 C218 75 218 670 218 670 C218 726 243 730 293 730 C293 730 323 730 323 730 C323 730 323 750 323 750 L323 750 Z " />
<glyph glyph-name="K" unicode="K" horiz-adv-x="713" d="M695 20 C695 20 657 20 657 20 C626 20 584 49 551 85 C551 85 551 85 551 85 C551 85 256 410 256 410 C256 410 473 662 473 662 C530 725 556 730 597 730 C597 730 627 730 627 730 C627 730 627 750 627 750 C627 750 549 750 549 750 C549 750 527 750 527 750 C527 750 387 750 387 750 C387 750 387 730 387 730 C387 730 409 730 409 730 C476 730 503 722 409 610 C409 610 410 611 410 611 C410 611 212 375 212 375 C212 375 212 690 212 690 C212 727 237 730 287 730 C287 730 317 730 317 730 C317 730 317 750 317 750 C317 750 212 750 212 750 C212 750 156 750 156 750 C156 750 51 750 51 750 C51 750 51 730 51 730 C51 730 81 730 81 730 C131 730 156 727 156 690 C156 690 156 60 156 60 C156 23 131 20 81 20 C81 20 51 20 51 20 C51 20 51 0 51 0 C51 0 156 0 156 0 C156 0 212 0 212 0 C212 0 317 0 317 0 C317 0 317 20 317 20 C317 20 287 20 287 20 C237 20 212 23 212 60 C212 60 212 375 212 375 C212 375 478 85 478 85 C478 85 478 85 478 85 C482 81 486 76 490 72 C490 72 556 0 556 0 C556 0 556 0 556 0 C556 0 556 0 556 0 C556 0 556 0 556 0 C556 0 628 0 628 0 C628 0 695 0 695 0 C695 0 695 20 695 20 L695 20 Z " />
<glyph glyph-name="L" unicode="L" horiz-adv-x="627" d="M553 10 C553 10 553 10 553 10 C568 64 583 117 596 171 C592 172 579 174 577 175 C577 175 569 145 569 145 C545 55 522 10 368 10 C368 10 298 10 298 10 C218 10 218 33 218 80 C218 80 218 85 218 85 C218 85 218 665 218 665 C218 725 243 730 293 730 C293 730 323 730 323 730 C323 730 323 750 323 750 C323 750 218 750 218 750 C218 750 162 750 162 750 C162 750 57 750 57 750 C57 750 57 730 57 730 C57 730 87 730 87 730 C137 730 162 725 162 665 C162 665 162 85 162 85 C162 25 137 20 87 20 C87 20 57 20 57 20 C57 20 57 0 57 0 C57 0 162 0 162 0 C162 0 218 0 218 0 C218 0 365 0 365 0 C365 0 550 0 550 0 C550 0 553 10 553 10 L553 10 Z " />
<glyph glyph-name="M" unicode="M" horiz-adv-x="860" d="M38 730 C38 730 68 730 68 730 C109 730 134 727 155 693 C155 693 139 150 139 150 C139 150 139 150 139 150 C136 29 104 20 41 20 C41 20 11 20 11 20 C11 20 11 0 11 0 C11 0 135 0 135 0 C135 0 155 0 155 0 C155 0 280 0 280 0 C280 0 280 20 280 20 C280 20 250 20 250 20 C186 20 154 28 158 140 C158 140 158 140 158 140 C158 140 168 666 168 666 C256 444 343 222 431 0 C431 0 445 0 445 0 C445 0 688 697 688 697 C688 697 705 85 705 85 C705 85 704 85 704 85 C706 25 680 20 629 20 C629 20 599 20 599 20 C599 20 599 0 599 0 C599 0 707 0 707 0 C707 0 762 0 762 0 C762 0 865 0 865 0 C865 0 865 20 865 20 C865 20 835 20 835 20 C786 20 762 25 760 85 C760 85 760 85 760 85 C760 85 745 580 745 580 C745 580 745 580 745 580 C741 720 766 730 816 730 C816 730 845 730 845 730 C845 730 845 750 845 750 C845 750 740 750 740 750 C740 750 707 750 707 750 C707 750 687 750 687 750 C687 750 454 69 454 69 C454 69 455 73 455 73 C455 73 202 750 202 750 C202 750 170 750 170 750 C170 750 157 750 157 750 C157 750 135 750 135 750 C135 750 38 750 38 750 C38 750 38 730 38 730 L38 730 Z " />
<glyph glyph-name="N" unicode="N" horiz-adv-x="765" d="M48 730 C48 730 85 730 85 730 C102 730 113 728 130 704 C130 704 135 697 135 697 C135 696 136 696 136 695 C136 695 136 695 136 695 C136 695 142 686 142 686 C142 686 141 150 141 150 C141 150 141 150 141 150 C141 29 109 20 46 20 C46 20 16 20 16 20 C16 20 16 0 16 0 C16 0 141 0 141 0 C141 0 158 0 158 0 C158 0 283 0 283 0 C283 0 283 20 283 20 C283 20 253 20 253 20 C194 20 162 27 158 117 C158 117 155 666 155 666 C155 666 551 79 551 79 C551 79 605 0 605 0 C605 0 616 0 616 0 C616 0 619 648 619 648 C624 724 655 730 714 730 C714 730 744 730 744 730 C744 730 744 750 744 750 C744 750 620 750 620 750 C620 750 603 750 603 750 C603 750 479 750 479 750 C479 750 479 730 479 730 C479 730 509 730 509 730 C566 730 598 724 603 649 C603 649 605 100 605 100 C605 100 598 110 598 110 C598 110 169 750 169 750 C169 750 155 750 155 750 C155 750 142 750 142 750 C142 750 99 750 99 750 C99 750 48 750 48 750 C48 750 48 730 48 730 L48 730 Z " />
<glyph glyph-name="O" unicode="O" horiz-adv-x="805" d="M394 5 C215 5 125 129 125 375 C125 621 217 745 398 745 C590 745 687 621 687 375 C687 129 589 5 394 5 L394 5 Z M61 375 C61 119 172 -10 391 -10 C630 -10 751 119 751 375 C751 631 634 760 401 760 C175 760 61 631 61 375 L61 375 Z " />
<glyph glyph-name="P" unicode="P" horiz-adv-x="573" d="M65 730 C65 730 95 730 95 730 C145 730 170 725 170 665 C170 665 170 85 170 85 C170 25 145 20 95 20 C95 20 65 20 65 20 C65 20 65 0 65 0 C65 0 170 0 170 0 C170 0 226 0 226 0 C226 0 331 0 331 0 C331 0 331 20 331 20 C331 20 301 20 301 20 C251 20 226 25 226 85 C226 85 226 353 226 353 C226 353 276 353 276 353 C461 353 554 397 554 541 C554 680 477 750 326 750 C326 750 226 750 226 750 C226 750 170 750 170 750 C170 750 65 750 65 750 C65 750 65 730 65 730 L65 730 Z M226 365 C226 365 226 665 226 665 C226 665 226 741 226 741 C255 741 283 740 312 740 C438 740 502 676 502 550 C502 409 426 365 276 365 C276 365 226 365 226 365 L226 365 Z " />
<glyph glyph-name="Q" unicode="Q" horiz-adv-x="800" d="M1101 -48 C1101 -48 1097 -44 1097 -44 C1062 -73 965 -88 808 -88 C637 -88 499 -62 398 -10 C632 -7 751 122 751 375 C751 631 634 760 401 760 C175 760 61 631 61 375 C61 164 211 39 325 2 C471 -89 632 -135 800 -135 C932 -135 1033 -106 1101 -48 L1101 -48 Z M394 5 C385 5 376 6 366 8 C366 9 365 9 365 9 C365 9 364 9 364 9 C270 32 125 154 125 375 C125 621 217 745 398 745 C590 745 687 621 687 375 C687 129 589 5 394 5 C394 5 394 5 394 5 L394 5 Z " />
<glyph glyph-name="R" unicode="R" horiz-adv-x="715" d="M51 730 C51 730 81 730 81 730 C131 730 156 725 156 665 C156 665 156 85 156 85 C156 25 131 20 81 20 C81 20 51 20 51 20 C51 20 51 0 51 0 C51 0 317 0 317 0 C317 0 317 20 317 20 C317 20 287 20 287 20 C237 20 212 25 212 85 C212 85 212 366 212 366 C212 366 351 366 351 366 C363 338 416 243 510 80 C560 -5 548 0 705 0 C705 0 705 11 705 11 C609 11 617 7 576 80 C484 237 428 334 408 369 C512 379 565 425 565 540 C565 680 494 750 354 750 C354 750 212 750 212 750 C212 750 51 750 51 750 C51 750 51 730 51 730 L51 730 Z M212 739 C212 739 337 739 337 739 C448 739 504 676 504 551 C504 420 454 380 354 380 C354 380 212 380 212 380 C212 380 212 665 212 665 C212 665 212 739 212 739 L212 739 Z " />
<glyph glyph-name="S" unicode="S" horiz-adv-x="545" d="M462 549 C462 549 462 642 462 642 C462 642 462 757 462 757 C462 757 447 757 447 757 C447 757 445 747 442 728 C439 711 423 703 396 721 C396 721 396 721 396 721 C357 747 307 760 246 760 C131 760 73 699 73 577 C73 489 130 418 285 346 C413 286 460 231 460 165 C460 61 407 8 301 8 C254 8 212 18 176 37 C129 66 89 148 73 219 C70 234 68 241 68 241 C68 241 53 241 53 241 C53 241 53 148 53 148 C53 148 53 3 53 3 C53 3 68 3 68 3 C68 3 70 15 73 39 C76 61 100 67 141 37 C141 37 141 37 141 37 C185 6 238 -10 301 -10 C437 -10 505 54 505 181 C505 271 455 340 318 404 C171 473 117 532 117 598 C117 696 160 746 246 746 C264 746 280 745 296 742 C296 742 293 743 293 743 C295 743 298 742 300 742 C309 740 317 738 326 736 C326 736 307 740 307 740 C374 721 425 644 442 571 C445 556 447 549 447 549 C447 549 462 549 462 549 L462 549 Z M307 740 C307 740 296 742 296 742 C297 742 299 742 300 742 C302 741 305 741 307 740 C307 740 307 740 307 740 L307 740 Z " />
<glyph glyph-name="T" unicode="T" horiz-adv-x="775" d="M757 633 C745 667 732 702 720 736 C720 736 720 736 720 736 C720 736 720 750 720 750 C720 750 715 750 715 750 C710 763 706 776 701 789 C701 789 697 789 691 790 C691 790 680 790 680 790 C680 790 685 777 685 777 C692 759 688 750 595 750 C595 750 415 750 415 750 C415 750 360 750 360 750 C360 750 180 750 180 750 C87 750 83 759 90 777 C90 777 95 790 95 790 C95 790 84 790 84 790 C78 789 74 789 74 789 C69 776 65 763 60 750 C60 750 55 750 55 750 C55 750 55 736 55 736 C55 736 55 736 55 736 C43 702 30 667 18 633 C22 632 35 631 37 631 C37 631 48 661 48 661 C66 711 82 736 175 736 C175 736 360 736 360 736 C360 736 360 80 360 80 C360 24 335 20 285 20 C285 20 255 20 255 20 C255 20 255 0 255 0 C255 0 520 0 520 0 C520 0 520 20 520 20 C520 20 490 20 490 20 C440 20 415 24 415 80 C415 80 415 736 415 736 C415 736 600 736 600 736 C693 736 709 711 727 661 C727 661 738 631 738 631 C742 632 755 633 757 633 L757 633 Z " />
<glyph glyph-name="U" unicode="U" horiz-adv-x="693" d="M418 730 C418 730 448 730 448 730 C498 730 523 725 523 665 C523 665 523 175 523 175 C477 76 398 26 286 26 C214 26 177 91 177 220 C177 220 177 665 177 665 C177 665 177 750 177 750 C177 750 16 750 16 750 C16 750 16 730 16 730 C16 730 46 730 46 730 C96 730 121 725 121 665 C121 665 121 220 121 220 C121 67 169 -10 263 -10 C386 -10 473 44 523 150 C523 150 523 110 523 110 C523 110 523 0 523 0 C523 0 532 0 532 0 C532 0 683 55 683 55 C683 55 683 65 683 65 C586 60 579 62 579 110 C579 110 579 665 579 665 C579 665 579 750 579 750 C579 750 418 750 418 750 C418 750 418 730 418 730 L418 730 Z " />
<glyph glyph-name="V" unicode="V" horiz-adv-x="776" d="M313 750 C313 750 148 750 148 750 C148 750 84 750 84 750 C84 750 26 750 26 750 C26 750 26 730 26 730 C26 730 63 730 63 730 C82 730 92 727 105 690 C105 690 105 690 105 690 C105 690 323 75 323 75 C323 75 353 -10 353 -10 C353 -10 364 -10 364 -10 C364 -10 608 640 608 640 C643 723 667 730 707 730 C707 730 737 730 737 730 C737 730 737 750 737 750 C737 750 650 750 650 750 C650 750 628 750 628 750 C628 750 463 750 463 750 C463 750 463 730 463 730 C463 730 486 730 486 730 C575 730 617 722 577 610 C577 610 577 610 577 610 C577 610 384 75 384 75 C384 75 197 610 197 610 C197 610 197 610 197 610 C158 722 200 730 290 730 C290 730 313 730 313 730 C313 730 313 750 313 750 L313 750 Z " />
<glyph glyph-name="W" unicode="W" horiz-adv-x="1104" d="M1066 750 C1066 750 977 750 977 750 C977 750 954 750 954 750 C954 750 789 750 789 750 C789 750 789 730 789 730 C789 730 814 730 814 730 C897 730 940 723 920 634 C920 634 760 82 760 82 C760 82 587 652 587 652 C569 725 606 730 679 730 C679 730 703 730 703 730 C703 730 703 750 703 750 C703 750 558 750 558 750 C558 750 493 750 493 750 C493 750 405 750 405 750 C405 750 405 730 405 730 C405 730 435 730 435 730 C476 730 499 727 510 695 C531 630 552 565 572 500 C572 500 572 500 572 500 C572 500 387 71 387 71 C387 71 209 621 209 621 C180 723 216 730 289 730 C289 730 313 730 313 730 C313 730 313 750 313 750 C313 750 168 750 168 750 C168 750 107 750 107 750 C107 750 48 750 48 750 C48 750 48 730 48 730 C48 730 85 730 85 730 C104 730 116 722 152 610 C152 610 152 610 152 610 C219 403 286 197 352 -10 C352 -10 367 -10 367 -10 C367 -10 580 474 580 474 C632 313 683 152 733 -10 C733 -10 748 -10 748 -10 C748 -10 935 610 935 610 C935 610 935 610 935 610 C968 722 992 730 1036 730 C1036 730 1066 730 1066 730 C1066 730 1066 750 1066 750 L1066 750 Z " />
<glyph glyph-name="X" unicode="X" horiz-adv-x="778" d="M747 750 C747 750 676 750 676 750 C676 750 651 750 651 750 C651 750 516 750 516 750 C516 750 516 730 516 730 C516 730 539 730 539 730 C604 730 631 721 552 600 C552 600 552 600 552 600 C552 600 424 406 424 406 C424 406 288 625 288 625 C229 723 255 730 311 730 C311 730 335 730 335 730 C335 730 335 750 335 750 C335 750 210 750 210 750 C210 750 144 750 144 750 C144 750 81 750 81 750 C81 750 81 730 81 730 C81 730 115 730 115 730 C142 730 161 722 231 610 C231 610 231 610 231 610 C231 610 385 363 385 363 C385 363 207 104 207 104 C150 26 121 20 74 20 C74 20 44 20 44 20 C44 20 44 0 44 0 C44 0 135 0 135 0 C135 0 158 0 158 0 C158 0 343 0 343 0 C343 0 343 20 343 20 C343 20 320 20 320 20 C229 20 184 27 236 117 C236 117 392 352 392 352 C392 352 533 125 533 125 C592 27 566 20 510 20 C510 20 486 20 486 20 C486 20 486 0 486 0 C486 0 611 0 611 0 C611 0 677 0 677 0 C677 0 750 0 750 0 C750 0 750 20 750 20 C750 20 719 20 719 20 C683 20 660 28 590 140 C590 140 590 140 590 140 C590 140 431 395 431 395 C431 395 559 580 559 580 C559 580 559 580 559 580 C560 581 561 583 562 584 C562 584 608 652 608 652 C662 724 685 730 716 730 C716 730 747 730 747 730 C747 730 747 750 747 750 L747 750 Z " />
<glyph glyph-name="Y" unicode="Y" horiz-adv-x="817" d="M315 750 C315 750 210 750 210 750 C210 750 145 750 145 750 C145 750 92 750 92 750 C92 750 92 730 92 730 C92 730 129 730 129 730 C146 730 159 723 213 636 C213 636 397 329 397 329 C397 329 397 80 397 80 C397 24 372 20 322 20 C322 20 292 20 292 20 C292 20 292 0 292 0 C292 0 558 0 558 0 C558 0 558 20 558 20 C558 20 528 20 528 20 C478 20 453 24 453 80 C453 80 453 331 453 331 C453 331 617 631 617 631 C670 723 692 730 727 730 C727 730 757 730 757 730 C757 730 757 750 757 750 C757 750 683 750 683 750 C683 750 655 750 655 750 C655 750 550 750 550 750 C550 750 550 730 550 730 C550 730 576 730 576 730 C617 730 637 724 609 661 C609 661 447 350 447 350 C447 350 293 610 293 610 C293 610 293 610 293 610 C226 722 244 730 291 730 C291 730 315 730 315 730 C315 730 315 750 315 750 L315 750 Z " />
<glyph glyph-name="Z" unicode="Z" horiz-adv-x="663" d="M640 171 C640 171 623 127 623 127 C596 59 575 22 485 17 C485 17 106 13 106 13 C106 13 621 738 621 738 C621 738 621 750 621 750 C621 750 566 750 566 750 C566 750 251 750 251 750 C251 750 81 750 81 750 C73 690 65 629 55 568 C58 568 71 568 81 565 C81 565 87 595 87 595 C106 688 125 735 249 735 C249 735 249 735 249 735 C249 735 557 738 557 738 C557 738 36 12 36 12 C36 12 36 0 36 0 C36 0 97 0 97 0 C97 0 457 0 457 0 C457 0 617 0 617 0 C617 0 659 168 659 168 C657 168 647 169 640 171 C640 171 640 171 640 171 L640 171 Z " />
<glyph glyph-name="bracketleft" unicode="&#x5b;" horiz-adv-x="285" d="M125 735 C125 735 335 735 335 735 C335 735 335 750 335 750 C335 750 125 750 125 750 C125 750 108 750 108 750 C108 750 108 -195 108 -195 C108 -195 125 -195 125 -195 C125 -195 335 -195 335 -195 C335 -195 335 -180 335 -180 C335 -180 125 -180 125 -180 C125 -180 125 735 125 735 L125 735 Z " />
<glyph glyph-name="backslash" unicode="&#x5c;" horiz-adv-x="336" d="M37 770 C37 770 297 -80 297 -80 C297 -80 327 -80 327 -80 C327 -80 67 770 67 770 C67 770 37 770 37 770 L37 770 Z " />
<glyph glyph-name="bracketright" unicode="&#x5d;" horiz-adv-x="288" d="M161 735 C161 735 161 -180 161 -180 C161 -180 -49 -180 -49 -180 C-49 -180 -49 -195 -49 -195 C-49 -195 161 -195 161 -195 C161 -195 178 -195 178 -195 C178 -195 178 750 178 750 C178 750 161 750 161 750 C161 750 -49 750 -49 750 C-49 750 -49 735 -49 735 C-49 735 161 735 161 735 L161 735 Z " />
<glyph glyph-name="underscore" unicode="&#x5f;" horiz-adv-x="455" d="M5 -50 C5 -50 5 -78 5 -78 C5 -78 450 -78 450 -78 C450 -78 450 -50 450 -50 C450 -50 5 -50 5 -50 L5 -50 Z " />
<glyph glyph-name="a" unicode="a" horiz-adv-x="512" d="M523 77 C523 77 512 83 512 83 C506 48 488 31 457 31 C419 31 400 48 400 81 C400 81 400 358 400 358 C400 474 354 510 263 510 C137 510 73 420 73 360 C73 337 82 325 99 325 C121 325 132 338 132 350 C132 367 112 378 112 392 C112 433 157 495 245 495 C315 495 350 467 350 377 C350 377 350 271 350 271 C84 190 53 180 53 80 C53 20 92 -10 168 -10 C242 -10 295 9 350 85 C350 85 350 81 350 81 C350 24 379 -5 436 -5 C484 -5 513 23 523 77 C523 77 523 77 523 77 L523 77 Z M350 259 C350 259 350 97 350 97 C303 33 258 17 195 17 C134 17 104 40 104 86 C104 183 130 192 350 259 L350 259 Z " />
<glyph glyph-name="b" unicode="b" horiz-adv-x="616" d="M79 694 C79 694 109 702 109 702 C145 713 164 713 164 638 C164 638 164 0 164 0 C164 0 166 0 166 0 C171 22 177 44 182 66 C182 66 182 65 182 65 C224 15 284 -10 362 -10 C501 -10 572 78 572 251 C572 420 499 505 353 505 C302 505 255 478 214 423 C214 423 214 650 214 650 C214 650 214 750 214 750 C214 750 205 750 205 750 C205 750 79 714 79 714 C79 714 79 694 79 694 L79 694 Z M214 408 C251 459 291 484 333 484 C454 484 515 404 515 246 C515 83 464 1 364 1 C302 1 252 24 214 70 C214 70 214 195 214 195 C214 195 214 408 214 408 L214 408 Z " />
<glyph glyph-name="c" unicode="c" horiz-adv-x="471" d="M442 128 C442 128 435 131 435 131 C402 58 346 21 269 21 C158 21 102 103 102 264 C102 420 157 499 265 499 C329 499 372 467 395 405 C401 388 409 380 420 380 C442 380 451 388 445 405 C419 475 360 510 268 510 C124 510 51 419 51 239 C51 73 118 -10 252 -10 C337 -10 401 36 442 128 L442 128 Z " />
<glyph glyph-name="d" unicode="d" horiz-adv-x="593" d="M599 41 C599 41 569 34 569 34 C532 25 514 27 514 120 C514 120 514 665 514 665 C514 665 514 750 514 750 C514 750 505 750 505 750 C505 750 379 714 379 714 C379 714 379 694 379 694 C379 694 409 702 409 702 C445 713 464 714 464 653 C464 653 464 446 464 446 C429 486 378 510 316 510 C125 510 55 424 55 254 C55 82 134 -5 289 -5 C368 -5 426 21 464 72 C464 72 464 -10 464 -10 C464 -10 473 -10 473 -10 C473 -10 599 21 599 21 C599 21 599 41 599 41 L599 41 Z M464 89 C427 41 376 16 310 16 C175 16 106 100 106 267 C106 419 164 495 322 495 C380 495 432 454 464 391 C464 391 464 110 464 110 C464 110 464 89 464 89 L464 89 Z " />
<glyph glyph-name="e" unicode="e" horiz-adv-x="534" d="M110 340 C110 340 449 340 449 340 C449 340 505 340 505 340 C481 476 416 510 300 510 C134 510 50 418 50 235 C50 72 126 -10 277 -10 C386 -10 459 38 493 133 C493 133 487 136 487 136 C460 61 393 23 289 23 C166 23 103 101 103 255 C103 286 105 315 110 340 L110 340 Z M488 355 C489 355 490 355 491 355 C491 355 488 355 488 355 L488 355 Z M446 355 C446 355 113 352 113 352 C135 450 197 499 297 499 C377 499 423 469 446 355 L446 355 Z " />
<glyph glyph-name="f" unicode="f" horiz-adv-x="341" d="M44 0 C44 0 264 0 264 0 C264 0 264 20 264 20 C264 20 234 20 234 20 C197 20 179 21 179 35 C179 35 179 474 179 474 C179 474 332 474 332 474 C332 474 332 500 332 500 C332 500 179 500 179 500 C179 659 210 740 296 740 C379 740 334 635 404 635 C434 635 449 650 449 680 C449 730 404 755 314 755 C179 755 129 669 129 500 C129 500 26 479 26 479 C26 479 26 474 26 474 C26 474 129 474 129 474 C129 474 129 35 129 35 C129 21 110 20 74 20 C74 20 44 20 44 20 C44 20 44 0 44 0 L44 0 Z " />
<glyph glyph-name="g" unicode="g" horiz-adv-x="520" d="M134 350 C134 448 176 498 259 498 C343 498 385 448 385 350 C385 250 343 200 259 200 C176 200 134 250 134 350 L134 350 Z M166 17 C171 17 177 17 183 17 C183 17 296 17 296 17 C414 17 444 -19 444 -90 C444 -176 386 -219 272 -219 C154 -219 94 -173 94 -81 C94 -32 118 1 166 17 C166 17 166 17 166 17 L166 17 Z M154 18 C87 -1 53 -38 53 -93 C53 -184 125 -230 269 -230 C412 -230 485 -179 485 -79 C485 18 448 67 301 67 C301 67 186 67 186 67 C121 67 89 86 89 122 C89 166 146 188 259 188 C376 188 435 242 435 350 C435 365 434 379 431 393 C450 447 477 474 513 474 C532 474 541 461 541 434 C541 422 549 416 565 416 C578 416 585 424 585 440 C585 477 568 495 534 495 C484 495 449 465 428 406 C410 475 353 510 259 510 C143 510 84 456 84 350 C84 265 121 213 193 195 C105 186 60 157 60 107 C60 54 91 25 154 18 L154 18 Z " />
<glyph glyph-name="h" unicode="h" horiz-adv-x="593" d="M40 694 C40 694 70 702 70 702 C106 713 125 713 125 638 C125 638 125 35 125 35 C125 21 106 20 70 20 C70 20 40 20 40 20 C40 20 40 0 40 0 C40 0 260 0 260 0 C260 0 260 20 260 20 C260 20 230 20 230 20 C193 20 175 21 175 35 C175 35 175 362 175 362 C218 437 269 475 325 475 C397 475 423 438 423 365 C423 365 423 35 423 35 C423 21 405 20 368 20 C368 20 338 20 338 20 C338 20 338 0 338 0 C338 0 558 0 558 0 C558 0 558 20 558 20 C558 20 528 20 528 20 C491 20 473 21 473 35 C473 35 473 365 473 365 C473 461 441 510 354 510 C286 510 226 465 175 376 C175 376 175 650 175 650 C175 650 175 750 175 750 C175 750 166 750 166 750 C166 750 40 714 40 714 C40 714 40 694 40 694 L40 694 Z " />
<glyph glyph-name="i" unicode="i" horiz-adv-x="293" d="M159 615 C180 615 191 626 191 647 C191 669 180 680 159 680 C137 680 126 669 126 647 C126 626 137 615 159 615 L159 615 Z M49 444 C49 444 79 452 79 452 C115 463 134 463 134 388 C134 388 134 35 134 35 C134 21 119 20 89 20 C89 20 59 20 59 20 C59 20 59 0 59 0 C59 0 259 0 259 0 C259 0 259 20 259 20 C259 20 229 20 229 20 C199 20 184 21 184 35 C184 35 184 400 184 400 C184 400 184 500 184 500 C184 500 175 500 175 500 C175 500 49 464 49 464 C49 464 49 444 49 444 L49 444 Z " />
<glyph glyph-name="j" unicode="j" horiz-adv-x="263" d="M149 615 C170 615 181 626 181 647 C181 669 170 680 149 680 C127 680 116 669 116 647 C116 626 127 615 149 615 L149 615 Z M39 444 C39 444 69 452 69 452 C105 463 124 463 124 388 C124 388 124 29 124 29 C124 -55 109 -107 79 -123 C40 -123 7 -100 -31 -100 C-61 -100 -76 -113 -76 -140 C-76 -173 -56 -188 -16 -185 C-10 -184 26 -166 89 -130 C145 -97 174 -44 174 29 C174 29 174 400 174 400 C174 400 174 500 174 500 C174 500 165 500 165 500 C165 500 39 464 39 464 C39 464 39 444 39 444 L39 444 Z " />
<glyph glyph-name="k" unicode="k" horiz-adv-x="536" d="M498 500 C498 500 456 500 456 500 C456 500 434 500 434 500 C434 500 249 500 249 500 C249 500 249 480 249 480 C249 480 270 480 270 480 C361 480 397 471 257 344 C257 344 184 280 184 280 C184 280 184 650 184 650 C184 650 184 750 184 750 C184 750 175 750 175 750 C175 750 49 714 49 714 C49 714 49 694 49 694 C49 694 79 702 79 702 C115 713 134 713 134 638 C134 638 134 35 134 35 C134 21 119 20 89 20 C89 20 59 20 59 20 C59 20 59 0 59 0 C59 0 259 0 259 0 C259 0 259 20 259 20 C259 20 229 20 229 20 C199 20 184 21 184 35 C184 35 184 280 184 280 C184 280 378 35 378 35 C378 35 378 35 378 35 C389 21 375 20 346 20 C346 20 321 20 321 20 C321 20 321 0 321 0 C321 0 406 0 406 0 C406 0 471 0 471 0 C471 0 510 0 510 0 C510 0 510 20 510 20 C510 20 466 20 466 20 C460 20 455 21 447 30 C447 30 230 302 230 302 C230 302 418 467 418 467 C433 479 443 480 461 480 C461 480 498 480 498 480 C498 480 498 500 498 500 L498 500 Z " />
<glyph glyph-name="l" unicode="l" horiz-adv-x="283" d="M39 694 C39 694 69 702 69 702 C105 713 124 713 124 638 C124 638 124 35 124 35 C124 21 107 20 74 20 C74 20 44 20 44 20 C44 20 44 0 44 0 C44 0 254 0 254 0 C254 0 254 20 254 20 C254 20 224 20 224 20 C191 20 174 21 174 35 C174 35 174 650 174 650 C174 650 174 750 174 750 C174 750 165 750 165 750 C165 750 39 714 39 714 C39 714 39 694 39 694 L39 694 Z " />
<glyph glyph-name="m" unicode="m" horiz-adv-x="870" d="M636 0 C636 0 846 0 846 0 C846 0 846 20 846 20 C846 20 816 20 816 20 C779 20 761 22 761 55 C761 55 761 365 761 365 C761 461 734 510 627 510 C567 510 512 468 464 385 C460 468 429 510 331 510 C272 510 217 467 168 381 C168 381 168 400 168 400 C168 400 168 500 168 500 C168 500 159 500 159 500 C159 500 33 454 33 454 C33 454 33 434 33 434 C33 434 63 445 63 445 C99 458 118 460 118 385 C118 385 118 55 118 55 C118 22 99 20 63 20 C63 20 33 20 33 20 C33 20 33 0 33 0 C33 0 238 0 238 0 C238 0 238 20 238 20 C238 20 208 20 208 20 C181 20 168 22 168 55 C168 55 168 367 168 367 C208 437 256 473 310 473 C393 473 414 437 414 365 C414 365 414 55 414 55 C414 22 399 20 369 20 C369 20 339 20 339 20 C339 20 339 0 339 0 C339 0 529 0 529 0 C529 0 529 20 529 20 C529 20 499 20 499 20 C476 20 464 22 464 55 C464 55 464 365 464 365 C464 367 464 370 464 372 C504 439 551 473 607 473 C690 473 711 437 711 365 C711 365 711 55 711 55 C711 22 696 20 666 20 C666 20 636 20 636 20 C636 20 636 0 636 0 L636 0 Z " />
<glyph glyph-name="n" unicode="n" horiz-adv-x="574" d="M33 434 C33 434 63 445 63 445 C99 458 118 460 118 385 C118 385 118 35 118 35 C118 21 101 20 68 20 C68 20 38 20 38 20 C38 20 38 0 38 0 C38 0 248 0 248 0 C248 0 248 20 248 20 C248 20 218 20 218 20 C185 20 168 21 168 35 C168 35 168 362 168 362 C210 436 255 473 301 473 C384 473 414 437 414 365 C414 365 414 35 414 35 C414 21 397 20 364 20 C364 20 334 20 334 20 C334 20 334 0 334 0 C334 0 544 0 544 0 C544 0 544 20 544 20 C544 20 514 20 514 20 C481 20 464 21 464 35 C464 35 464 365 464 365 C464 461 428 510 331 510 C274 510 219 465 168 376 C168 376 168 400 168 400 C168 400 168 500 168 500 C168 500 159 500 159 500 C159 500 33 454 33 454 C33 454 33 434 33 434 L33 434 Z " />
<glyph glyph-name="o" unicode="o" horiz-adv-x="609" d="M307 5 C173 5 105 87 105 250 C105 413 173 495 307 495 C441 495 509 413 509 250 C509 87 441 5 307 5 L307 5 Z M50 250 C50 77 136 -10 307 -10 C478 -10 564 77 564 250 C564 423 478 510 307 510 C136 510 50 423 50 250 L50 250 Z " />
<glyph glyph-name="p" unicode="p" horiz-adv-x="576" d="M34 434 C34 434 64 445 64 445 C100 458 119 460 119 385 C119 385 119 -150 119 -150 C119 -197 100 -200 64 -200 C64 -200 34 -200 34 -200 C34 -200 34 -220 34 -220 C34 -220 254 -220 254 -220 C254 -220 254 -200 254 -200 C254 -200 224 -200 224 -200 C187 -200 169 -197 169 -150 C169 -150 169 69 169 69 C203 20 251 -5 314 -5 C458 -5 531 99 531 254 C531 424 458 510 314 510 C250 510 201 484 169 435 C169 435 169 500 169 500 C169 500 160 500 160 500 C160 500 34 454 34 454 C34 454 34 434 34 434 L34 434 Z M169 414 C200 464 241 489 290 489 C414 489 476 405 476 238 C476 100 420 7 309 7 C250 7 203 41 169 107 C169 107 169 400 169 400 C169 400 169 414 169 414 L169 414 Z " />
<glyph glyph-name="q" unicode="q" horiz-adv-x="626" d="M361 -220 C361 -220 581 -220 581 -220 C581 -220 581 -200 581 -200 C581 -200 551 -200 551 -200 C514 -200 496 -199 496 -185 C496 -185 496 500 496 500 C496 500 493 500 493 500 C493 500 476 440 476 440 C432 487 375 510 307 510 C121 510 53 424 53 254 C53 82 131 -5 284 -5 C355 -5 409 20 446 68 C446 68 446 -185 446 -185 C446 -199 427 -200 391 -200 C391 -200 361 -200 361 -200 C361 -200 361 -220 361 -220 L361 -220 Z M446 411 C446 411 446 86 446 86 C411 40 364 16 305 16 C172 16 105 100 105 267 C105 421 159 499 304 499 C367 499 415 469 446 411 C446 411 446 411 446 411 L446 411 Z " />
<glyph glyph-name="r" unicode="r" horiz-adv-x="392" d="M39 434 C39 434 69 445 69 445 C105 458 124 460 124 385 C124 385 124 35 124 35 C124 21 109 20 79 20 C79 20 49 20 49 20 C49 20 49 0 49 0 C49 0 259 0 259 0 C259 0 259 20 259 20 C259 20 229 20 229 20 C192 20 174 21 174 35 C174 35 174 365 174 365 C198 446 239 487 295 487 C314 487 324 475 324 452 C324 432 334 422 353 422 C373 422 383 432 383 452 C383 490 361 510 319 510 C247 510 199 470 174 392 C174 392 174 400 174 400 C174 400 174 500 174 500 C174 500 165 500 165 500 C165 500 39 454 39 454 C39 454 39 434 39 434 L39 434 Z " />
<glyph glyph-name="s" unicode="s" horiz-adv-x="435" d="M358 353 C358 353 358 425 358 425 C358 425 358 510 358 510 C358 510 338 510 338 510 C338 510 338 481 338 481 C338 478 321 482 286 495 C263 505 237 510 206 510 C120 510 76 469 76 389 C76 320 117 271 228 231 C315 200 347 161 347 107 C347 37 311 2 239 2 C226 2 214 3 203 5 C130 20 94 88 94 150 C94 150 94 166 94 166 C94 166 74 166 74 166 C74 166 74 95 74 95 C74 95 74 10 74 10 C74 10 94 10 94 10 C94 10 94 31 94 31 C94 29 116 21 160 5 C183 -5 209 -10 239 -10 C336 -10 385 34 385 121 C385 187 349 233 250 269 C149 306 112 349 112 406 C112 467 143 498 206 498 C209 498 212 498 215 498 C215 498 206 498 206 498 C210 498 214 498 218 498 C218 498 215 498 215 498 C297 494 338 432 338 370 C338 370 338 353 338 353 C338 353 358 353 358 353 L358 353 Z " />
<glyph glyph-name="t" unicode="t" horiz-adv-x="339" d="M299 500 C299 500 145 500 145 500 C145 500 145 620 145 620 C145 620 141 620 141 620 C141 620 30 500 30 500 C30 500 30 490 30 490 C30 490 95 490 95 490 C95 490 95 129 95 129 C95 18 134 -10 212 -10 C257 -10 297 16 329 68 C329 68 324 71 324 71 C299 33 267 14 227 14 C171 14 143 35 144 118 C144 118 145 474 145 474 C145 474 299 474 299 474 C299 474 299 500 299 500 L299 500 Z " />
<glyph glyph-name="u" unicode="u" horiz-adv-x="561" d="M541 41 C541 41 511 34 511 34 C474 25 456 26 456 100 C456 100 456 465 456 465 C456 465 456 500 456 500 C456 500 340 500 340 500 C340 500 340 480 340 480 C340 480 370 480 370 480 C394 480 406 479 406 465 C406 465 406 136 406 136 C375 62 327 25 261 25 C194 25 160 70 160 160 C160 160 160 465 160 465 C160 465 160 500 160 500 C160 500 43 500 43 500 C43 500 43 480 43 480 C43 480 73 480 73 480 C98 480 110 479 110 465 C110 465 110 160 110 160 C110 47 153 -10 238 -10 C314 -10 370 34 406 120 C406 120 406 90 406 90 C406 90 406 -10 406 -10 C406 -10 415 -10 415 -10 C415 -10 541 21 541 21 C541 21 541 41 541 41 L541 41 Z " />
<glyph glyph-name="v" unicode="v" horiz-adv-x="554" d="M518 500 C518 500 440 500 440 500 C440 500 417 500 417 500 C417 500 322 500 322 500 C322 500 322 480 322 480 C322 480 349 480 349 480 C386 480 406 478 403 457 C403 457 248 -10 248 -10 C248 -10 262 -10 262 -10 C262 -10 417 434 417 434 C417 434 417 434 417 434 C432 477 451 480 487 480 C487 480 518 480 518 480 C518 480 518 500 518 500 L518 500 Z M222 500 C222 500 147 500 147 500 C147 500 92 500 92 500 C92 500 28 500 28 500 C28 500 28 480 28 480 C28 480 63 480 63 480 C83 480 96 478 104 461 C104 461 248 -10 248 -10 C248 -10 270 57 270 57 C270 57 159 456 159 456 C154 478 166 480 191 480 C191 480 222 480 222 480 C222 480 222 500 222 500 L222 500 Z " />
<glyph glyph-name="w" unicode="w" horiz-adv-x="800" d="M772 500 C772 500 694 500 694 500 C694 500 671 500 671 500 C671 500 576 500 576 500 C576 500 576 480 576 480 C576 480 603 480 603 480 C641 480 661 478 656 457 C656 457 494 -10 494 -10 C494 -10 509 -10 509 -10 C509 -10 672 440 672 440 C687 477 706 480 741 480 C741 480 772 480 772 480 C772 480 772 500 772 500 L772 500 Z M471 500 C471 500 405 500 405 500 C405 500 349 500 349 500 C349 500 289 500 289 500 C289 500 289 480 289 480 C289 480 325 480 325 480 C345 480 355 479 360 460 C360 460 360 460 360 460 C360 460 392 349 392 349 C392 349 271 -10 271 -10 C271 -10 286 -10 286 -10 C286 -10 400 319 400 319 C400 319 494 -10 494 -10 C494 -10 517 57 517 57 C517 57 413 467 413 467 C412 479 421 480 437 480 C437 480 471 480 471 480 C471 480 471 500 471 500 L471 500 Z M245 500 C245 500 179 500 179 500 C179 500 123 500 123 500 C123 500 63 500 63 500 C63 500 63 480 63 480 C63 480 100 480 100 480 C117 480 127 479 133 465 C133 465 271 -10 271 -10 C271 -10 293 57 293 57 C293 57 188 466 188 466 C186 479 195 480 211 480 C211 480 245 480 245 480 C245 480 245 500 245 500 L245 500 Z " />
<glyph glyph-name="x" unicode="x" horiz-adv-x="590" d="M46 0 C46 0 108 0 108 0 C108 0 131 0 131 0 C131 0 231 0 231 0 C231 0 231 20 231 20 C231 20 206 20 206 20 C167 20 147 23 166 54 C166 54 276 225 276 225 C276 225 379 64 379 64 C379 64 379 64 379 64 C406 23 394 20 367 20 C367 20 340 20 340 20 C340 20 340 0 340 0 C340 0 420 0 420 0 C420 0 482 0 482 0 C482 0 534 0 534 0 C534 0 534 20 534 20 C534 20 497 20 497 20 C480 20 469 23 448 53 C448 53 309 269 309 269 C309 269 406 436 406 436 C406 436 406 436 406 436 C428 477 444 480 473 480 C473 480 506 480 506 480 C506 480 506 500 506 500 C506 500 443 500 443 500 C443 500 420 500 420 500 C420 500 330 500 330 500 C330 500 330 480 330 480 C330 480 357 480 357 480 C388 480 404 478 392 449 C392 449 301 282 301 282 C301 282 199 440 199 440 C177 477 188 480 214 480 C214 480 241 480 241 480 C241 480 241 500 241 500 C241 500 161 500 161 500 C161 500 100 500 100 500 C100 500 58 500 58 500 C58 500 58 480 58 480 C58 480 102 480 102 480 C109 480 115 478 135 445 C135 445 135 445 135 445 C135 445 269 236 269 236 C269 236 152 64 152 64 C152 64 151 64 151 64 C123 23 107 20 80 20 C80 20 46 20 46 20 C46 20 46 0 46 0 L46 0 Z " />
<glyph glyph-name="y" unicode="y" horiz-adv-x="550" d="M530 500 C530 500 452 500 452 500 C452 500 429 500 429 500 C429 500 334 500 334 500 C334 500 334 480 334 480 C334 480 361 480 361 480 C400 480 419 478 413 453 C413 453 277 57 277 57 C277 57 151 460 151 460 C149 478 161 480 183 480 C183 480 214 480 214 480 C214 480 214 500 214 500 C214 500 139 500 139 500 C139 500 84 500 84 500 C84 500 21 500 21 500 C21 500 21 480 21 480 C21 480 56 480 56 480 C77 480 89 478 97 460 C97 460 254 -10 254 -10 C254 -10 209 -140 209 -140 C203 -157 193 -165 179 -165 C166 -165 163 -147 150 -147 C131 -147 122 -155 122 -172 C122 -193 132 -203 151 -203 C184 -203 207 -186 218 -154 C218 -154 268 -10 268 -10 C268 -10 431 443 431 443 C446 477 465 480 499 480 C499 480 530 480 530 480 C530 480 530 500 530 500 L530 500 Z " />
<glyph glyph-name="z" unicode="z" horiz-adv-x="475" d="M93 0 C93 0 384 0 384 0 C384 0 430 0 430 0 C436 39 440 76 446 115 C446 115 436 115 436 115 C436 115 422 85 422 85 C403 45 386 21 305 16 C305 16 102 13 102 13 C102 13 435 488 435 488 C435 488 435 500 435 500 C435 500 384 500 384 500 C384 500 135 500 135 500 C123 500 112 508 116 523 C116 523 121 540 121 540 C121 540 101 540 101 540 C101 540 80 462 80 462 C73 437 66 411 59 385 C59 385 71 385 71 385 C71 385 87 415 87 415 C109 455 127 478 196 484 C196 484 375 487 375 487 C375 487 40 12 40 12 C40 12 40 0 40 0 C40 0 93 0 93 0 L93 0 Z " />
<glyph glyph-name="bar" unicode="&#x7c;" horiz-adv-x="158" d="M60 800 C60 800 60 -250 60 -250 C60 -250 99 -250 99 -250 C99 -250 99 800 99 800 C99 800 60 800 60 800 L60 800 Z " />
<glyph glyph-name="exclamdown" unicode="&#xa1;" horiz-adv-x="201" d="M101 505 C77 505 65 493 65 470 C65 446 77 434 101 434 C124 434 136 446 136 470 C136 493 124 505 101 505 L101 505 Z M101 -255 C131 -255 134 -227 131 -171 C131 -171 105 290 105 290 C105 290 96 290 96 290 C96 290 70 -171 70 -171 C67 -227 70 -255 101 -255 L101 -255 Z " />
<glyph glyph-name="cent" unicode="&#xa2;" horiz-adv-x="471" d="M244 575 C244 575 244 509 244 509 C116 499 51 409 51 239 C51 76 115 -7 244 -10 C244 -10 244 -75 244 -75 C244 -75 262 -75 262 -75 C262 -75 262 -10 262 -10 C342 -6 403 40 442 128 C442 128 435 131 435 131 C402 58 346 21 269 21 C267 21 264 21 262 21 C262 21 262 499 262 499 C263 499 264 499 265 499 C329 499 372 467 395 405 C401 388 409 380 420 380 C442 380 451 388 445 405 C419 475 360 510 268 510 C266 510 264 510 262 510 C262 510 262 575 262 575 C262 575 244 575 244 575 L244 575 Z M244 22 C150 34 102 116 102 264 C102 410 150 488 244 498 C244 498 244 22 244 22 L244 22 Z " />
<glyph glyph-name="questiondown" unicode="&#xbf;" horiz-adv-x="304" d="M180 505 C156 505 145 493 144 470 C145 446 156 434 180 434 C203 434 215 446 215 470 C215 493 203 505 180 505 L180 505 Z M183 325 C183 325 180 140 180 140 C86 140 65 109 24 47 C5 19 -4 -14 -5 -53 C-4 -191 51 -260 160 -260 C191 -260 207 -248 207 -223 C207 -206 198 -198 180 -198 C166 -198 155 -207 141 -207 C54 -207 10 -153 10 -47 C10 -24 18 -1 35 24 C65 68 80 90 197 90 C197 90 192 325 192 325 C192 325 183 325 183 325 L183 325 Z " />
<glyph glyph-name="Agrave" unicode="&#xc0;" horiz-adv-x="750" d="M462 0 C462 0 597 0 597 0 C597 0 656 0 656 0 C656 0 745 0 745 0 C745 0 745 20 745 20 C745 20 715 20 715 20 C675 20 651 27 622 110 C622 110 433 732 433 732 C433 732 422 770 422 770 C422 770 416 770 416 770 C399 746 386 733 377 732 C377 732 380 722 380 722 C380 722 380 722 380 722 C380 722 193 153 193 153 C150 29 112 20 44 20 C44 20 14 20 14 20 C14 20 14 0 14 0 C14 0 143 0 143 0 C143 0 160 0 160 0 C160 0 325 0 325 0 C325 0 325 20 325 20 C325 20 301 20 301 20 C217 20 175 29 206 143 C206 143 252 287 252 287 C252 287 511 287 511 287 C511 287 557 134 557 134 C587 28 555 20 486 20 C486 20 462 20 462 20 C462 20 462 0 462 0 L462 0 Z M292 959 C252 1006 230 1029 224 1029 C209 1029 199 1019 199 1005 C199 999 223 977 270 936 C270 936 409 813 409 813 C409 813 415 820 415 820 C415 820 292 959 292 959 L292 959 Z M257 302 C257 302 386 703 386 703 C386 703 506 302 506 302 C506 302 257 302 257 302 L257 302 Z " />
<glyph glyph-name="Aacute" unicode="&#xc1;" horiz-adv-x="750" d="M412 813 C412 813 551 936 551 936 C598 978 621 1000 621 1005 C621 1019 611 1029 596 1029 C592 1029 570 1006 528 959 C528 959 406 820 406 820 C406 820 412 813 412 813 L412 813 Z M462 0 C462 0 597 0 597 0 C597 0 656 0 656 0 C656 0 745 0 745 0 C745 0 745 20 745 20 C745 20 715 20 715 20 C675 20 651 27 622 110 C622 110 433 732 433 732 C433 732 422 770 422 770 C422 770 416 770 416 770 C399 746 386 733 377 732 C377 732 380 722 380 722 C380 722 380 722 380 722 C380 722 193 153 193 153 C150 29 112 20 44 20 C44 20 14 20 14 20 C14 20 14 0 14 0 C14 0 143 0 143 0 C143 0 160 0 160 0 C160 0 325 0 325 0 C325 0 325 20 325 20 C325 20 301 20 301 20 C217 20 175 29 206 143 C206 143 252 287 252 287 C252 287 511 287 511 287 C511 287 557 134 557 134 C587 28 555 20 486 20 C486 20 462 20 462 20 C462 20 462 0 462 0 L462 0 Z M257 302 C257 302 386 703 386 703 C386 703 506 302 506 302 C506 302 257 302 257 302 L257 302 Z " />
<glyph glyph-name="Acircumflex" unicode="&#xc2;" horiz-adv-x="750" d="M462 0 C462 0 597 0 597 0 C597 0 656 0 656 0 C656 0 745 0 745 0 C745 0 745 20 745 20 C745 20 715 20 715 20 C675 20 651 27 622 110 C622 110 433 732 433 732 C433 732 422 770 422 770 C422 770 416 770 416 770 C399 746 386 733 377 732 C377 732 380 722 380 722 C380 722 380 722 380 722 C380 722 193 153 193 153 C150 29 112 20 44 20 C44 20 14 20 14 20 C14 20 14 0 14 0 C14 0 143 0 143 0 C143 0 160 0 160 0 C160 0 325 0 325 0 C325 0 325 20 325 20 C325 20 301 20 301 20 C217 20 175 29 206 143 C206 143 252 287 252 287 C252 287 511 287 511 287 C511 287 557 134 557 134 C587 28 555 20 486 20 C486 20 462 20 462 20 C462 20 462 0 462 0 L462 0 Z M406 977 C406 977 548 808 548 808 C548 808 554 813 554 813 C554 813 423 1015 423 1015 C419 1021 411 1033 405 1033 C399 1033 392 1021 388 1015 C388 1015 256 813 256 813 C256 813 263 808 263 808 C263 808 406 977 406 977 L406 977 Z M257 302 C257 302 386 703 386 703 C386 703 506 302 506 302 C506 302 257 302 257 302 L257 302 Z " />
<glyph glyph-name="Atilde" unicode="&#xc3;" horiz-adv-x="750" d="M264 870 C264 914 279 936 308 936 C376 936 420 871 488 871 C533 871 556 903 556 966 C556 966 547 966 547 966 C547 926 531 906 499 906 C432 906 387 971 320 971 C277 971 255 937 255 870 C255 870 264 870 264 870 L264 870 Z M462 0 C462 0 597 0 597 0 C597 0 656 0 656 0 C656 0 745 0 745 0 C745 0 745 20 745 20 C745 20 715 20 715 20 C675 20 651 27 622 110 C622 110 433 732 433 732 C433 732 422 770 422 770 C422 770 416 770 416 770 C399 746 386 733 377 732 C377 732 380 722 380 722 C380 722 380 722 380 722 C380 722 193 153 193 153 C150 29 112 20 44 20 C44 20 14 20 14 20 C14 20 14 0 14 0 C14 0 143 0 143 0 C143 0 160 0 160 0 C160 0 325 0 325 0 C325 0 325 20 325 20 C325 20 301 20 301 20 C217 20 175 29 206 143 C206 143 252 287 252 287 C252 287 511 287 511 287 C511 287 557 134 557 134 C587 28 555 20 486 20 C486 20 462 20 462 20 C462 20 462 0 462 0 L462 0 Z M257 302 C257 302 386 703 386 703 C386 703 506 302 506 302 C506 302 257 302 257 302 L257 302 Z " />
<glyph glyph-name="Adieresis" unicode="&#xc4;" horiz-adv-x="750" d="M474 865 C496 865 507 876 507 897 C507 919 496 930 474 930 C453 930 442 919 442 897 C442 876 453 865 474 865 L474 865 Z M337 865 C358 865 369 876 369 897 C369 919 358 930 337 930 C315 930 304 919 304 897 C304 876 315 865 337 865 L337 865 Z M462 0 C462 0 597 0 597 0 C597 0 656 0 656 0 C656 0 745 0 745 0 C745 0 745 20 745 20 C745 20 715 20 715 20 C675 20 651 27 622 110 C622 110 433 732 433 732 C433 732 422 770 422 770 C422 770 416 770 416 770 C399 746 386 733 377 732 C377 732 380 722 380 722 C380 722 380 722 380 722 C380 722 193 153 193 153 C150 29 112 20 44 20 C44 20 14 20 14 20 C14 20 14 0 14 0 C14 0 143 0 143 0 C143 0 160 0 160 0 C160 0 325 0 325 0 C325 0 325 20 325 20 C325 20 301 20 301 20 C217 20 175 29 206 143 C206 143 252 287 252 287 C252 287 511 287 511 287 C511 287 557 134 557 134 C587 28 555 20 486 20 C486 20 462 20 462 20 C462 20 462 0 462 0 L462 0 Z M257 302 C257 302 386 703 386 703 C386 703 506 302 506 302 C506 302 257 302 257 302 L257 302 Z " />
<glyph glyph-name="Aring" unicode="&#xc5;" horiz-adv-x="750" d="M405 822 C357 822 324 855 324 905 C324 960 351 988 405 988 C460 988 487 960 487 905 C487 855 454 822 405 822 L405 822 Z M309 905 C309 848 348 810 405 810 C463 810 502 848 502 905 C502 968 470 1000 405 1000 C341 1000 309 968 309 905 L309 905 Z M462 0 C462 0 597 0 597 0 C597 0 656 0 656 0 C656 0 745 0 745 0 C745 0 745 20 745 20 C745 20 715 20 715 20 C675 20 651 27 622 110 C622 110 433 732 433 732 C433 732 422 770 422 770 C422 770 416 770 416 770 C399 746 386 733 377 732 C377 732 380 722 380 722 C380 722 380 722 380 722 C380 722 193 153 193 153 C150 29 112 20 44 20 C44 20 14 20 14 20 C14 20 14 0 14 0 C14 0 143 0 143 0 C143 0 160 0 160 0 C160 0 325 0 325 0 C325 0 325 20 325 20 C325 20 301 20 301 20 C217 20 175 29 206 143 C206 143 252 287 252 287 C252 287 511 287 511 287 C511 287 557 134 557 134 C587 28 555 20 486 20 C486 20 462 20 462 20 C462 20 462 0 462 0 L462 0 Z M257 302 C257 302 386 703 386 703 C386 703 506 302 506 302 C506 302 257 302 257 302 L257 302 Z " />
<glyph glyph-name="Egrave" unicode="&#xc8;" horiz-adv-x="619" d="M531 613 C529 660 526 704 522 750 C522 750 402 750 402 750 C402 750 212 750 212 750 C212 750 156 750 156 750 C156 750 51 750 51 750 C51 750 51 730 51 730 C51 730 81 730 81 730 C131 730 156 725 156 665 C156 665 156 85 156 85 C156 25 131 20 81 20 C81 20 51 20 51 20 C51 20 51 0 51 0 C51 0 156 0 156 0 C156 0 212 0 212 0 C212 0 427 0 427 0 C427 0 547 0 547 0 C550 23 553 46 557 68 C557 68 566 137 566 137 C566 137 546 137 546 137 C546 137 542 107 542 107 C533 44 522 12 429 12 C429 12 292 12 292 12 C212 12 212 35 212 80 C212 80 212 85 212 85 C212 85 212 385 212 385 C212 385 342 385 342 385 C435 385 442 348 442 275 C442 275 442 245 442 245 C442 245 462 245 462 245 C462 245 462 385 462 385 C462 385 462 398 462 398 C462 398 462 538 462 538 C462 538 442 538 442 538 C442 538 442 508 442 508 C442 435 435 398 342 398 C342 398 212 398 212 398 C212 398 212 665 212 665 C212 665 212 738 212 738 C212 738 403 738 403 738 C514 738 505 702 510 631 C510 631 511 613 511 613 C511 613 531 613 531 613 L531 613 Z M226 959 C186 1006 164 1029 158 1029 C143 1029 133 1019 133 1005 C133 999 157 977 203 936 C203 936 342 813 342 813 C342 813 349 820 349 820 C349 820 226 959 226 959 L226 959 Z " />
<glyph glyph-name="Eacute" unicode="&#xc9;" horiz-adv-x="619" d="M346 813 C346 813 485 936 485 936 C531 978 555 1000 555 1005 C555 1019 545 1029 530 1029 C526 1029 504 1006 462 959 C462 959 339 820 339 820 C339 820 346 813 346 813 L346 813 Z M531 613 C529 660 526 704 522 750 C522 750 402 750 402 750 C402 750 212 750 212 750 C212 750 156 750 156 750 C156 750 51 750 51 750 C51 750 51 730 51 730 C51 730 81 730 81 730 C131 730 156 725 156 665 C156 665 156 85 156 85 C156 25 131 20 81 20 C81 20 51 20 51 20 C51 20 51 0 51 0 C51 0 156 0 156 0 C156 0 212 0 212 0 C212 0 427 0 427 0 C427 0 547 0 547 0 C550 23 553 46 557 68 C557 68 566 137 566 137 C566 137 546 137 546 137 C546 137 542 107 542 107 C533 44 522 12 429 12 C429 12 292 12 292 12 C212 12 212 35 212 80 C212 80 212 85 212 85 C212 85 212 385 212 385 C212 385 342 385 342 385 C435 385 442 348 442 275 C442 275 442 245 442 245 C442 245 462 245 462 245 C462 245 462 385 462 385 C462 385 462 398 462 398 C462 398 462 538 462 538 C462 538 442 538 442 538 C442 538 442 508 442 508 C442 435 435 398 342 398 C342 398 212 398 212 398 C212 398 212 665 212 665 C212 665 212 738 212 738 C212 738 403 738 403 738 C514 738 505 702 510 631 C510 631 511 613 511 613 C511 613 531 613 531 613 L531 613 Z " />
<glyph glyph-name="Ecircumflex" unicode="&#xca;" horiz-adv-x="619" d="M531 613 C529 660 526 704 522 750 C522 750 402 750 402 750 C402 750 212 750 212 750 C212 750 156 750 156 750 C156 750 51 750 51 750 C51 750 51 730 51 730 C51 730 81 730 81 730 C131 730 156 725 156 665 C156 665 156 85 156 85 C156 25 131 20 81 20 C81 20 51 20 51 20 C51 20 51 0 51 0 C51 0 156 0 156 0 C156 0 212 0 212 0 C212 0 427 0 427 0 C427 0 547 0 547 0 C550 23 553 46 557 68 C557 68 566 137 566 137 C566 137 546 137 546 137 C546 137 542 107 542 107 C533 44 522 12 429 12 C429 12 292 12 292 12 C212 12 212 35 212 80 C212 80 212 85 212 85 C212 85 212 385 212 385 C212 385 342 385 342 385 C435 385 442 348 442 275 C442 275 442 245 442 245 C442 245 462 245 462 245 C462 245 462 385 462 385 C462 385 462 398 462 398 C462 398 462 538 462 538 C462 538 442 538 442 538 C442 538 442 508 442 508 C442 435 435 398 342 398 C342 398 212 398 212 398 C212 398 212 665 212 665 C212 665 212 738 212 738 C212 738 403 738 403 738 C514 738 505 702 510 631 C510 631 511 613 511 613 C511 613 531 613 531 613 L531 613 Z M339 977 C339 977 481 808 481 808 C481 808 488 813 488 813 C488 813 357 1015 357 1015 C353 1021 345 1033 339 1033 C333 1033 325 1021 321 1015 C321 1015 190 813 190 813 C190 813 197 808 197 808 C197 808 339 977 339 977 L339 977 Z " />
<glyph glyph-name="Edieresis" unicode="&#xcb;" horiz-adv-x="619" d="M408 865 C429 865 440 876 440 897 C440 919 429 930 408 930 C386 930 375 919 375 897 C375 876 386 865 408 865 L408 865 Z M270 865 C292 865 303 876 303 897 C303 919 292 930 270 930 C249 930 238 919 238 897 C238 876 249 865 270 865 L270 865 Z M531 613 C529 660 526 704 522 750 C522 750 402 750 402 750 C402 750 212 750 212 750 C212 750 156 750 156 750 C156 750 51 750 51 750 C51 750 51 730 51 730 C51 730 81 730 81 730 C131 730 156 725 156 665 C156 665 156 85 156 85 C156 25 131 20 81 20 C81 20 51 20 51 20 C51 20 51 0 51 0 C51 0 156 0 156 0 C156 0 212 0 212 0 C212 0 427 0 427 0 C427 0 547 0 547 0 C550 23 553 46 557 68 C557 68 566 137 566 137 C566 137 546 137 546 137 C546 137 542 107 542 107 C533 44 522 12 429 12 C429 12 292 12 292 12 C212 12 212 35 212 80 C212 80 212 85 212 85 C212 85 212 385 212 385 C212 385 342 385 342 385 C435 385 442 348 442 275 C442 275 442 245 442 245 C442 245 462 245 462 245 C462 245 462 385 462 385 C462 385 462 398 462 398 C462 398 462 538 462 538 C462 538 442 538 442 538 C442 538 442 508 442 508 C442 435 435 398 342 398 C342 398 212 398 212 398 C212 398 212 665 212 665 C212 665 212 738 212 738 C212 738 403 738 403 738 C514 738 505 702 510 631 C510 631 511 613 511 613 C511 613 531 613 531 613 L531 613 Z " />
<glyph glyph-name="Igrave" unicode="&#xcc;" horiz-adv-x="362" d="M323 750 C323 750 57 750 57 750 C57 750 57 730 57 730 C57 730 87 730 87 730 C137 730 162 726 162 670 C162 670 162 80 162 80 C162 24 137 20 87 20 C87 20 57 20 57 20 C57 20 57 0 57 0 C57 0 323 0 323 0 C323 0 323 20 323 20 C323 20 293 20 293 20 C243 20 218 24 218 80 C218 80 218 670 218 670 C218 726 243 730 293 730 C293 730 323 730 323 730 C323 730 323 750 323 750 L323 750 Z M77 959 C37 1006 15 1029 9 1029 C-6 1029 -16 1019 -16 1005 C-16 999 8 977 54 936 C54 936 193 813 193 813 C193 813 200 820 200 820 C200 820 77 959 77 959 L77 959 Z " />
<glyph glyph-name="Iacute" unicode="&#xcd;" horiz-adv-x="362" d="M197 813 C197 813 336 936 336 936 C382 978 406 1000 406 1005 C406 1019 396 1029 381 1029 C377 1029 355 1006 313 959 C313 959 190 820 190 820 C190 820 197 813 197 813 L197 813 Z M323 750 C323 750 57 750 57 750 C57 750 57 730 57 730 C57 730 87 730 87 730 C137 730 162 726 162 670 C162 670 162 80 162 80 C162 24 137 20 87 20 C87 20 57 20 57 20 C57 20 57 0 57 0 C57 0 323 0 323 0 C323 0 323 20 323 20 C323 20 293 20 293 20 C243 20 218 24 218 80 C218 80 218 670 218 670 C218 726 243 730 293 730 C293 730 323 730 323 730 C323 730 323 750 323 750 L323 750 Z " />
<glyph glyph-name="Icircumflex" unicode="&#xce;" horiz-adv-x="362" d="M323 750 C323 750 57 750 57 750 C57 750 57 730 57 730 C57 730 87 730 87 730 C137 730 162 726 162 670 C162 670 162 80 162 80 C162 24 137 20 87 20 C87 20 57 20 57 20 C57 20 57 0 57 0 C57 0 323 0 323 0 C323 0 323 20 323 20 C323 20 293 20 293 20 C243 20 218 24 218 80 C218 80 218 670 218 670 C218 726 243 730 293 730 C293 730 323 730 323 730 C323 730 323 750 323 750 L323 750 Z M190 977 C190 977 332 808 332 808 C332 808 339 813 339 813 C339 813 208 1015 208 1015 C204 1021 196 1033 190 1033 C184 1033 176 1021 172 1015 C172 1015 41 813 41 813 C41 813 48 808 48 808 C48 808 190 977 190 977 L190 977 Z " />
<glyph glyph-name="Idieresis" unicode="&#xcf;" horiz-adv-x="362" d="M259 865 C280 865 291 876 291 897 C291 919 280 930 259 930 C237 930 226 919 226 897 C226 876 237 865 259 865 L259 865 Z M121 865 C143 865 154 876 154 897 C154 919 143 930 121 930 C100 930 89 919 89 897 C89 876 100 865 121 865 L121 865 Z M323 750 C323 750 57 750 57 750 C57 750 57 730 57 730 C57 730 87 730 87 730 C137 730 162 726 162 670 C162 670 162 80 162 80 C162 24 137 20 87 20 C87 20 57 20 57 20 C57 20 57 0 57 0 C57 0 323 0 323 0 C323 0 323 20 323 20 C323 20 293 20 293 20 C243 20 218 24 218 80 C218 80 218 670 218 670 C218 726 243 730 293 730 C293 730 323 730 323 730 C323 730 323 750 323 750 L323 750 Z " />
<glyph glyph-name="Ntilde" unicode="&#xd1;" horiz-adv-x="765" d="M239 870 C239 914 254 936 284 936 C351 936 396 871 463 871 C508 871 531 903 531 966 C531 966 522 966 522 966 C522 926 506 906 474 906 C407 906 363 971 295 971 C252 971 230 937 230 870 C230 870 239 870 239 870 L239 870 Z M48 730 C48 730 85 730 85 730 C102 730 113 728 130 704 C130 704 135 697 135 697 C135 696 136 696 136 695 C136 695 136 695 136 695 C136 695 142 686 142 686 C142 686 141 150 141 150 C141 150 141 150 141 150 C141 29 109 20 46 20 C46 20 16 20 16 20 C16 20 16 0 16 0 C16 0 141 0 141 0 C141 0 158 0 158 0 C158 0 283 0 283 0 C283 0 283 20 283 20 C283 20 253 20 253 20 C194 20 162 27 158 117 C158 117 155 666 155 666 C155 666 551 79 551 79 C551 79 605 0 605 0 C605 0 616 0 616 0 C616 0 619 648 619 648 C624 724 655 730 714 730 C714 730 744 730 744 730 C744 730 744 750 744 750 C744 750 620 750 620 750 C620 750 603 750 603 750 C603 750 479 750 479 750 C479 750 479 730 479 730 C479 730 509 730 509 730 C566 730 598 724 603 649 C603 649 605 100 605 100 C605 100 598 110 598 110 C598 110 169 750 169 750 C169 750 155 750 155 750 C155 750 142 750 142 750 C142 750 99 750 99 750 C99 750 48 750 48 750 C48 750 48 730 48 730 L48 730 Z " />
<glyph glyph-name="Ograve" unicode="&#xd2;" horiz-adv-x="805" d="M394 5 C215 5 125 129 125 375 C125 621 217 745 398 745 C590 745 687 621 687 375 C687 129 589 5 394 5 L394 5 Z M61 375 C61 119 172 -10 391 -10 C630 -10 751 119 751 375 C751 631 634 760 401 760 C175 760 61 631 61 375 L61 375 Z M288 959 C248 1006 226 1029 220 1029 C205 1029 195 1019 195 1005 C195 999 219 977 265 936 C265 936 404 813 404 813 C404 813 411 820 411 820 C411 820 288 959 288 959 L288 959 Z " />
<glyph glyph-name="Oacute" unicode="&#xd3;" horiz-adv-x="805" d="M408 813 C408 813 547 936 547 936 C593 978 617 1000 617 1005 C617 1019 607 1029 592 1029 C588 1029 566 1006 524 959 C524 959 401 820 401 820 C401 820 408 813 408 813 L408 813 Z M394 5 C215 5 125 129 125 375 C125 621 217 745 398 745 C590 745 687 621 687 375 C687 129 589 5 394 5 L394 5 Z M61 375 C61 119 172 -10 391 -10 C630 -10 751 119 751 375 C751 631 634 760 401 760 C175 760 61 631 61 375 L61 375 Z " />
<glyph glyph-name="Ocircumflex" unicode="&#xd4;" horiz-adv-x="805" d="M394 5 C215 5 125 129 125 375 C125 621 217 745 398 745 C590 745 687 621 687 375 C687 129 589 5 394 5 L394 5 Z M61 375 C61 119 172 -10 391 -10 C630 -10 751 119 751 375 C751 631 634 760 401 760 C175 760 61 631 61 375 L61 375 Z M401 977 C401 977 543 808 543 808 C543 808 550 813 550 813 C550 813 419 1015 419 1015 C415 1021 407 1033 401 1033 C395 1033 387 1021 383 1015 C383 1015 252 813 252 813 C252 813 259 808 259 808 C259 808 401 977 401 977 L401 977 Z " />
<glyph glyph-name="Otilde" unicode="&#xd5;" horiz-adv-x="805" d="M259 870 C259 914 274 936 304 936 C372 936 416 871 484 871 C529 871 552 903 552 966 C552 966 543 966 543 966 C543 926 527 906 495 906 C428 906 383 971 316 971 C272 971 250 937 250 870 C250 870 259 870 259 870 L259 870 Z M394 5 C215 5 125 129 125 375 C125 621 217 745 398 745 C590 745 687 621 687 375 C687 129 589 5 394 5 L394 5 Z M61 375 C61 119 172 -10 391 -10 C630 -10 751 119 751 375 C751 631 634 760 401 760 C175 760 61 631 61 375 L61 375 Z " />
<glyph glyph-name="Odieresis" unicode="&#xd6;" horiz-adv-x="805" d="M470 865 C491 865 502 876 502 897 C502 919 491 930 470 930 C448 930 437 919 437 897 C437 876 448 865 470 865 L470 865 Z M332 865 C354 865 365 876 365 897 C365 919 354 930 332 930 C311 930 300 919 300 897 C300 876 311 865 332 865 L332 865 Z M394 5 C215 5 125 129 125 375 C125 621 217 745 398 745 C590 745 687 621 687 375 C687 129 589 5 394 5 L394 5 Z M61 375 C61 119 172 -10 391 -10 C630 -10 751 119 751 375 C751 631 634 760 401 760 C175 760 61 631 61 375 L61 375 Z " />
<glyph glyph-name="Oslash" unicode="&#xd8;" horiz-adv-x="805" d="M70 -18 C70 -18 154 76 154 76 C209 19 288 -10 391 -10 C630 -10 751 119 751 375 C751 497 725 590 672 654 C672 654 760 752 760 752 C760 752 742 768 742 768 C742 768 656 672 656 672 C597 730 512 760 401 760 C175 760 61 631 61 375 C61 252 87 158 138 94 C138 94 52 -2 52 -2 C52 -2 70 -18 70 -18 L70 -18 Z M394 5 C299 5 229 40 184 110 C184 110 638 616 638 616 C671 556 687 476 687 375 C687 129 589 5 394 5 C394 5 394 5 394 5 L394 5 Z M172 132 C141 191 125 273 125 375 C125 621 217 745 398 745 C501 745 577 709 625 638 C625 638 172 132 172 132 L172 132 Z " />
<glyph glyph-name="Ugrave" unicode="&#xd9;" horiz-adv-x="693" d="M418 730 C418 730 448 730 448 730 C498 730 523 725 523 665 C523 665 523 175 523 175 C477 76 398 26 286 26 C214 26 177 91 177 220 C177 220 177 665 177 665 C177 665 177 750 177 750 C177 750 16 750 16 750 C16 750 16 730 16 730 C16 730 46 730 46 730 C96 730 121 725 121 665 C121 665 121 220 121 220 C121 67 169 -10 263 -10 C386 -10 473 44 523 150 C523 150 523 110 523 110 C523 110 523 0 523 0 C523 0 532 0 532 0 C532 0 683 55 683 55 C683 55 683 65 683 65 C586 60 579 62 579 110 C579 110 579 665 579 665 C579 665 579 750 579 750 C579 750 418 750 418 750 C418 750 418 730 418 730 L418 730 Z M237 959 C197 1006 175 1029 169 1029 C154 1029 144 1019 144 1005 C144 999 168 977 214 936 C214 936 353 813 353 813 C353 813 360 820 360 820 C360 820 237 959 237 959 L237 959 Z " />
<glyph glyph-name="Uacute" unicode="&#xda;" horiz-adv-x="693" d="M356 813 C356 813 496 936 496 936 C542 978 566 1000 566 1005 C566 1019 556 1029 541 1029 C537 1029 515 1006 473 959 C473 959 350 820 350 820 C350 820 356 813 356 813 L356 813 Z M418 730 C418 730 448 730 448 730 C498 730 523 725 523 665 C523 665 523 175 523 175 C477 76 398 26 286 26 C214 26 177 91 177 220 C177 220 177 665 177 665 C177 665 177 750 177 750 C177 750 16 750 16 750 C16 750 16 730 16 730 C16 730 46 730 46 730 C96 730 121 725 121 665 C121 665 121 220 121 220 C121 67 169 -10 263 -10 C386 -10 473 44 523 150 C523 150 523 110 523 110 C523 110 523 0 523 0 C523 0 532 0 532 0 C532 0 683 55 683 55 C683 55 683 65 683 65 C586 60 579 62 579 110 C579 110 579 665 579 665 C579 665 579 750 579 750 C579 750 418 750 418 750 C418 750 418 730 418 730 L418 730 Z " />
<glyph glyph-name="Ucircumflex" unicode="&#xdb;" horiz-adv-x="693" d="M418 730 C418 730 448 730 448 730 C498 730 523 725 523 665 C523 665 523 175 523 175 C477 76 398 26 286 26 C214 26 177 91 177 220 C177 220 177 665 177 665 C177 665 177 750 177 750 C177 750 16 750 16 750 C16 750 16 730 16 730 C16 730 46 730 46 730 C96 730 121 725 121 665 C121 665 121 220 121 220 C121 67 169 -10 263 -10 C386 -10 473 44 523 150 C523 150 523 110 523 110 C523 110 523 0 523 0 C523 0 532 0 532 0 C532 0 683 55 683 55 C683 55 683 65 683 65 C586 60 579 62 579 110 C579 110 579 665 579 665 C579 665 579 750 579 750 C579 750 418 750 418 750 C418 750 418 730 418 730 L418 730 Z M350 977 C350 977 492 808 492 808 C492 808 499 813 499 813 C499 813 368 1015 368 1015 C364 1021 356 1033 350 1033 C344 1033 336 1021 332 1015 C332 1015 201 813 201 813 C201 813 208 808 208 808 C208 808 350 977 350 977 L350 977 Z " />
<glyph glyph-name="Udieresis" unicode="&#xdc;" horiz-adv-x="693" d="M419 865 C440 865 451 876 451 897 C451 919 440 930 419 930 C397 930 386 919 386 897 C386 876 397 865 419 865 L419 865 Z M281 865 C302 865 313 876 313 897 C313 919 302 930 281 930 C260 930 249 919 249 897 C249 876 260 865 281 865 L281 865 Z M418 730 C418 730 448 730 448 730 C498 730 523 725 523 665 C523 665 523 175 523 175 C477 76 398 26 286 26 C214 26 177 91 177 220 C177 220 177 665 177 665 C177 665 177 750 177 750 C177 750 16 750 16 750 C16 750 16 730 16 730 C16 730 46 730 46 730 C96 730 121 725 121 665 C121 665 121 220 121 220 C121 67 169 -10 263 -10 C386 -10 473 44 523 150 C523 150 523 110 523 110 C523 110 523 0 523 0 C523 0 532 0 532 0 C532 0 683 55 683 55 C683 55 683 65 683 65 C586 60 579 62 579 110 C579 110 579 665 579 665 C579 665 579 750 579 750 C579 750 418 750 418 750 C418 750 418 730 418 730 L418 730 Z " />
<glyph glyph-name="Yacute" unicode="&#xdd;" horiz-adv-x="707" d="M366 813 C366 813 505 936 505 936 C551 978 575 1000 575 1005 C575 1019 565 1029 550 1029 C546 1029 524 1006 482 959 C482 959 359 820 359 820 C359 820 366 813 366 813 L366 813 Z M249 750 C249 750 144 750 144 750 C144 750 79 750 79 750 C79 750 26 750 26 750 C26 750 26 730 26 730 C26 730 63 730 63 730 C80 730 93 723 147 636 C147 636 331 329 331 329 C331 329 331 80 331 80 C331 24 306 20 256 20 C256 20 226 20 226 20 C226 20 226 0 226 0 C226 0 492 0 492 0 C492 0 492 20 492 20 C492 20 462 20 462 20 C412 20 387 24 387 80 C387 80 387 331 387 331 C387 331 551 631 551 631 C604 723 626 730 661 730 C661 730 691 730 691 730 C691 730 691 750 691 750 C691 750 617 750 617 750 C617 750 589 750 589 750 C589 750 484 750 484 750 C484 750 484 730 484 730 C484 730 510 730 510 730 C551 730 571 724 543 661 C543 661 381 350 381 350 C381 350 227 610 227 610 C227 610 227 610 227 610 C160 722 178 730 225 730 C225 730 249 730 249 730 C249 730 249 750 249 750 L249 750 Z " />
<glyph glyph-name="agrave" unicode="&#xe0;" horiz-adv-x="512" d="M523 77 C523 77 512 83 512 83 C506 48 488 31 457 31 C419 31 400 48 400 81 C400 81 400 358 400 358 C400 474 354 510 263 510 C137 510 73 420 73 360 C73 337 82 325 99 325 C121 325 132 338 132 350 C132 367 112 378 112 392 C112 433 157 495 245 495 C315 495 350 467 350 377 C350 377 350 271 350 271 C84 190 53 180 53 80 C53 20 92 -10 168 -10 C242 -10 295 9 350 85 C350 85 350 81 350 81 C350 24 379 -5 436 -5 C484 -5 513 23 523 77 C523 77 523 77 523 77 L523 77 Z M150 709 C109 756 88 779 82 779 C67 779 57 769 57 755 C57 749 81 727 127 686 C127 686 266 563 266 563 C266 563 272 570 272 570 C272 570 150 709 150 709 L150 709 Z M350 259 C350 259 350 97 350 97 C303 33 258 17 195 17 C134 17 104 40 104 86 C104 183 130 192 350 259 L350 259 Z " />
<glyph glyph-name="aacute" unicode="&#xe1;" horiz-adv-x="512" d="M269 563 C269 563 409 686 409 686 C455 728 479 750 479 755 C479 769 469 779 454 779 C450 779 428 756 386 709 C386 709 263 570 263 570 C263 570 269 563 269 563 L269 563 Z M523 77 C523 77 512 83 512 83 C506 48 488 31 457 31 C419 31 400 48 400 81 C400 81 400 358 400 358 C400 474 354 510 263 510 C137 510 73 420 73 360 C73 337 82 325 99 325 C121 325 132 338 132 350 C132 367 112 378 112 392 C112 433 157 495 245 495 C315 495 350 467 350 377 C350 377 350 271 350 271 C84 190 53 180 53 80 C53 20 92 -10 168 -10 C242 -10 295 9 350 85 C350 85 350 81 350 81 C350 24 379 -5 436 -5 C484 -5 513 23 523 77 C523 77 523 77 523 77 L523 77 Z M350 259 C350 259 350 97 350 97 C303 33 258 17 195 17 C134 17 104 40 104 86 C104 183 130 192 350 259 L350 259 Z " />
<glyph glyph-name="acircumflex" unicode="&#xe2;" horiz-adv-x="512" d="M523 77 C523 77 512 83 512 83 C506 48 488 31 457 31 C419 31 400 48 400 81 C400 81 400 358 400 358 C400 474 354 510 263 510 C137 510 73 420 73 360 C73 337 82 325 99 325 C121 325 132 338 132 350 C132 367 112 378 112 392 C112 433 157 495 245 495 C315 495 350 467 350 377 C350 377 350 271 350 271 C84 190 53 180 53 80 C53 20 92 -10 168 -10 C242 -10 295 9 350 85 C350 85 350 81 350 81 C350 24 379 -5 436 -5 C484 -5 513 23 523 77 C523 77 523 77 523 77 L523 77 Z M263 727 C263 727 405 558 405 558 C405 558 412 563 412 563 C412 563 281 765 281 765 C277 771 269 783 263 783 C257 783 249 771 245 765 C245 765 114 563 114 563 C114 563 120 558 120 558 C120 558 263 727 263 727 L263 727 Z M350 259 C350 259 350 97 350 97 C303 33 258 17 195 17 C134 17 104 40 104 86 C104 183 130 192 350 259 L350 259 Z " />
<glyph glyph-name="atilde" unicode="&#xe3;" horiz-adv-x="512" d="M121 620 C121 664 136 686 166 686 C233 686 278 621 345 621 C390 621 413 653 413 716 C413 716 405 716 405 716 C405 676 389 656 357 656 C289 656 245 721 177 721 C134 721 112 687 112 620 C112 620 121 620 121 620 L121 620 Z M523 77 C523 77 512 83 512 83 C506 48 488 31 457 31 C419 31 400 48 400 81 C400 81 400 358 400 358 C400 474 354 510 263 510 C137 510 73 420 73 360 C73 337 82 325 99 325 C121 325 132 338 132 350 C132 367 112 378 112 392 C112 433 157 495 245 495 C315 495 350 467 350 377 C350 377 350 271 350 271 C84 190 53 180 53 80 C53 20 92 -10 168 -10 C242 -10 295 9 350 85 C350 85 350 81 350 81 C350 24 379 -5 436 -5 C484 -5 513 23 523 77 C523 77 523 77 523 77 L523 77 Z M350 259 C350 259 350 97 350 97 C303 33 258 17 195 17 C134 17 104 40 104 86 C104 183 130 192 350 259 L350 259 Z " />
<glyph glyph-name="adieresis" unicode="&#xe4;" horiz-adv-x="512" d="M332 615 C353 615 364 626 364 647 C364 669 353 680 332 680 C310 680 299 669 299 647 C299 626 310 615 332 615 L332 615 Z M194 615 C215 615 226 626 226 647 C226 669 215 680 194 680 C173 680 162 669 162 647 C162 626 173 615 194 615 L194 615 Z M523 77 C523 77 512 83 512 83 C506 48 488 31 457 31 C419 31 400 48 400 81 C400 81 400 358 400 358 C400 474 354 510 263 510 C137 510 73 420 73 360 C73 337 82 325 99 325 C121 325 132 338 132 350 C132 367 112 378 112 392 C112 433 157 495 245 495 C315 495 350 467 350 377 C350 377 350 271 350 271 C84 190 53 180 53 80 C53 20 92 -10 168 -10 C242 -10 295 9 350 85 C350 85 350 81 350 81 C350 24 379 -5 436 -5 C484 -5 513 23 523 77 C523 77 523 77 523 77 L523 77 Z M350 259 C350 259 350 97 350 97 C303 33 258 17 195 17 C134 17 104 40 104 86 C104 183 130 192 350 259 L350 259 Z " />
<glyph glyph-name="aring" unicode="&#xe5;" horiz-adv-x="512" d="M263 572 C214 572 181 605 181 655 C181 710 208 738 263 738 C317 738 345 710 345 655 C345 605 312 572 263 572 L263 572 Z M166 655 C166 598 205 560 263 560 C320 560 359 598 359 655 C359 718 327 750 263 750 C198 750 166 718 166 655 L166 655 Z M523 77 C523 77 512 83 512 83 C506 48 488 31 457 31 C419 31 400 48 400 81 C400 81 400 358 400 358 C400 474 354 510 263 510 C137 510 73 420 73 360 C73 337 82 325 99 325 C121 325 132 338 132 350 C132 367 112 378 112 392 C112 433 157 495 245 495 C315 495 350 467 350 377 C350 377 350 271 350 271 C84 190 53 180 53 80 C53 20 92 -10 168 -10 C242 -10 295 9 350 85 C350 85 350 81 350 81 C350 24 379 -5 436 -5 C484 -5 513 23 523 77 C523 77 523 77 523 77 L523 77 Z M350 259 C350 259 350 97 350 97 C303 33 258 17 195 17 C134 17 104 40 104 86 C104 183 130 192 350 259 L350 259 Z " />
<glyph glyph-name="egrave" unicode="&#xe8;" horiz-adv-x="534" d="M187 709 C147 756 125 779 119 779 C104 779 94 769 94 755 C94 749 118 727 165 686 C165 686 304 563 304 563 C304 563 310 570 310 570 C310 570 187 709 187 709 L187 709 Z M110 340 C110 340 449 340 449 340 C449 340 505 340 505 340 C481 476 416 510 300 510 C134 510 50 418 50 235 C50 72 126 -10 277 -10 C386 -10 459 38 493 133 C493 133 487 136 487 136 C460 61 393 23 289 23 C166 23 103 101 103 255 C103 286 105 315 110 340 L110 340 Z M488 355 C489 355 490 355 491 355 C491 355 488 355 488 355 L488 355 Z M446 355 C446 355 113 352 113 352 C135 450 197 499 297 499 C377 499 423 469 446 355 L446 355 Z " />
<glyph glyph-name="eacute" unicode="&#xe9;" horiz-adv-x="534" d="M307 563 C307 563 446 686 446 686 C492 728 516 750 516 755 C516 769 506 779 491 779 C487 779 465 756 423 709 C423 709 301 570 301 570 C301 570 307 563 307 563 L307 563 Z M110 340 C110 340 449 340 449 340 C449 340 505 340 505 340 C481 476 416 510 300 510 C134 510 50 418 50 235 C50 72 126 -10 277 -10 C386 -10 459 38 493 133 C493 133 487 136 487 136 C460 61 393 23 289 23 C166 23 103 101 103 255 C103 286 105 315 110 340 L110 340 Z M488 355 C489 355 490 355 491 355 C491 355 488 355 488 355 L488 355 Z M446 355 C446 355 113 352 113 352 C135 450 197 499 297 499 C377 499 423 469 446 355 L446 355 Z " />
<glyph glyph-name="ecircumflex" unicode="&#xea;" horiz-adv-x="534" d="M301 727 C301 727 443 558 443 558 C443 558 449 563 449 563 C449 563 318 765 318 765 C314 771 306 783 300 783 C294 783 286 771 283 765 C283 765 151 563 151 563 C151 563 158 558 158 558 C158 558 301 727 301 727 L301 727 Z M110 340 C110 340 449 340 449 340 C449 340 505 340 505 340 C481 476 416 510 300 510 C134 510 50 418 50 235 C50 72 126 -10 277 -10 C386 -10 459 38 493 133 C493 133 487 136 487 136 C460 61 393 23 289 23 C166 23 103 101 103 255 C103 286 105 315 110 340 L110 340 Z M488 355 C489 355 490 355 491 355 C491 355 488 355 488 355 L488 355 Z M446 355 C446 355 113 352 113 352 C135 450 197 499 297 499 C377 499 423 469 446 355 L446 355 Z " />
<glyph glyph-name="edieresis" unicode="&#xeb;" horiz-adv-x="534" d="M369 615 C390 615 401 626 401 647 C401 669 390 680 369 680 C348 680 337 669 337 647 C337 626 348 615 369 615 L369 615 Z M231 615 C253 615 264 626 264 647 C264 669 253 680 231 680 C210 680 199 669 199 647 C199 626 210 615 231 615 L231 615 Z M110 340 C110 340 449 340 449 340 C449 340 505 340 505 340 C481 476 416 510 300 510 C134 510 50 418 50 235 C50 72 126 -10 277 -10 C386 -10 459 38 493 133 C493 133 487 136 487 136 C460 61 393 23 289 23 C166 23 103 101 103 255 C103 286 105 315 110 340 L110 340 Z M488 355 C489 355 490 355 491 355 C491 355 488 355 488 355 L488 355 Z M446 355 C446 355 113 352 113 352 C135 450 197 499 297 499 C377 499 423 469 446 355 L446 355 Z " />
<glyph glyph-name="igrave" unicode="&#xec;" horiz-adv-x="283" d="M44 0 C44 0 257 0 257 0 C257 0 257 20 257 20 C257 20 227 20 227 20 C192 20 174 21 174 35 C174 35 174 390 174 390 C174 390 174 500 174 500 C174 500 165 500 165 500 C165 500 42 445 42 445 C42 445 42 435 42 435 C118 439 124 437 124 390 C124 390 124 35 124 35 C124 21 107 20 74 20 C74 20 44 20 44 20 C44 20 44 0 44 0 L44 0 Z M36 709 C-5 756 -27 779 -32 779 C-47 779 -57 769 -57 755 C-57 749 -34 727 13 686 C13 686 152 563 152 563 C152 563 158 570 158 570 C158 570 36 709 36 709 L36 709 Z " />
<glyph glyph-name="iacute" unicode="&#xed;" horiz-adv-x="283" d="M44 0 C44 0 257 0 257 0 C257 0 257 20 257 20 C257 20 227 20 227 20 C192 20 174 21 174 35 C174 35 174 390 174 390 C174 390 174 500 174 500 C174 500 165 500 165 500 C165 500 42 445 42 445 C42 445 42 435 42 435 C118 439 124 437 124 390 C124 390 124 35 124 35 C124 21 107 20 74 20 C74 20 44 20 44 20 C44 20 44 0 44 0 L44 0 Z M36 709 C-5 756 -27 779 -32 779 C-47 779 -57 769 -57 755 C-57 749 -34 727 13 686 C13 686 152 563 152 563 C152 563 158 570 158 570 C158 570 36 709 36 709 L36 709 Z " />
<glyph glyph-name="icircumflex" unicode="&#xee;" horiz-adv-x="283" d="M44 0 C44 0 257 0 257 0 C257 0 257 20 257 20 C257 20 227 20 227 20 C192 20 174 21 174 35 C174 35 174 390 174 390 C174 390 174 500 174 500 C174 500 165 500 165 500 C165 500 42 445 42 445 C42 445 42 435 42 435 C118 439 124 437 124 390 C124 390 124 35 124 35 C124 21 107 20 74 20 C74 20 44 20 44 20 C44 20 44 0 44 0 L44 0 Z M149 727 C149 727 291 558 291 558 C291 558 298 563 298 563 C298 563 166 765 166 765 C162 771 155 783 149 783 C142 783 135 771 131 765 C131 765 -1 563 -1 563 C-1 563 6 558 6 558 C6 558 149 727 149 727 L149 727 Z " />
<glyph glyph-name="idieresis" unicode="&#xef;" horiz-adv-x="283" d="M217 615 C239 615 250 626 250 647 C250 669 239 680 217 680 C196 680 185 669 185 647 C185 626 196 615 217 615 L217 615 Z M80 615 C101 615 112 626 112 647 C112 669 101 680 80 680 C58 680 47 669 47 647 C47 626 58 615 80 615 L80 615 Z M44 0 C44 0 257 0 257 0 C257 0 257 20 257 20 C257 20 227 20 227 20 C192 20 174 21 174 35 C174 35 174 390 174 390 C174 390 174 500 174 500 C174 500 165 500 165 500 C165 500 42 445 42 445 C42 445 42 435 42 435 C118 439 124 437 124 390 C124 390 124 35 124 35 C124 21 107 20 74 20 C74 20 44 20 44 20 C44 20 44 0 44 0 L44 0 Z " />
<glyph glyph-name="ntilde" unicode="&#xf1;" horiz-adv-x="574" d="M149 620 C149 664 164 686 194 686 C261 686 306 621 373 621 C418 621 441 653 441 716 C441 716 433 716 433 716 C433 676 417 656 385 656 C317 656 273 721 205 721 C162 721 140 687 140 620 C140 620 149 620 149 620 L149 620 Z M33 434 C33 434 63 445 63 445 C99 458 118 460 118 385 C118 385 118 35 118 35 C118 21 101 20 68 20 C68 20 38 20 38 20 C38 20 38 0 38 0 C38 0 248 0 248 0 C248 0 248 20 248 20 C248 20 218 20 218 20 C185 20 168 21 168 35 C168 35 168 362 168 362 C210 436 255 473 301 473 C384 473 414 437 414 365 C414 365 414 35 414 35 C414 21 397 20 364 20 C364 20 334 20 334 20 C334 20 334 0 334 0 C334 0 544 0 544 0 C544 0 544 20 544 20 C544 20 514 20 514 20 C481 20 464 21 464 35 C464 35 464 365 464 365 C464 461 428 510 331 510 C274 510 219 465 168 376 C168 376 168 400 168 400 C168 400 168 500 168 500 C168 500 159 500 159 500 C159 500 33 454 33 454 C33 454 33 434 33 434 L33 434 Z " />
<glyph glyph-name="ograve" unicode="&#xf2;" horiz-adv-x="609" d="M307 5 C173 5 105 87 105 250 C105 413 173 495 307 495 C441 495 509 413 509 250 C509 87 441 5 307 5 L307 5 Z M50 250 C50 77 136 -10 307 -10 C478 -10 564 77 564 250 C564 423 478 510 307 510 C136 510 50 423 50 250 L50 250 Z M194 709 C154 756 132 779 126 779 C111 779 101 769 101 755 C101 749 125 727 171 686 C171 686 311 563 311 563 C311 563 317 570 317 570 C317 570 194 709 194 709 L194 709 Z " />
<glyph glyph-name="oacute" unicode="&#xf3;" horiz-adv-x="609" d="M314 563 C314 563 453 686 453 686 C499 728 523 750 523 755 C523 769 513 779 498 779 C494 779 472 756 430 709 C430 709 307 570 307 570 C307 570 314 563 314 563 L314 563 Z M307 5 C173 5 105 87 105 250 C105 413 173 495 307 495 C441 495 509 413 509 250 C509 87 441 5 307 5 L307 5 Z M50 250 C50 77 136 -10 307 -10 C478 -10 564 77 564 250 C564 423 478 510 307 510 C136 510 50 423 50 250 L50 250 Z " />
<glyph glyph-name="ocircumflex" unicode="&#xf4;" horiz-adv-x="609" d="M307 5 C173 5 105 87 105 250 C105 413 173 495 307 495 C441 495 509 413 509 250 C509 87 441 5 307 5 L307 5 Z M50 250 C50 77 136 -10 307 -10 C478 -10 564 77 564 250 C564 423 478 510 307 510 C136 510 50 423 50 250 L50 250 Z M307 727 C307 727 449 558 449 558 C449 558 456 563 456 563 C456 563 325 765 325 765 C321 771 313 783 307 783 C301 783 293 771 290 765 C290 765 158 563 158 563 C158 563 165 558 165 558 C165 558 307 727 307 727 L307 727 Z " />
<glyph glyph-name="otilde" unicode="&#xf5;" horiz-adv-x="609" d="M165 620 C165 664 180 686 210 686 C278 686 322 621 390 621 C435 621 458 653 458 716 C458 716 449 716 449 716 C449 676 433 656 401 656 C334 656 289 721 222 721 C178 721 156 687 156 620 C156 620 165 620 165 620 L165 620 Z M307 5 C173 5 105 87 105 250 C105 413 173 495 307 495 C441 495 509 413 509 250 C509 87 441 5 307 5 L307 5 Z M50 250 C50 77 136 -10 307 -10 C478 -10 564 77 564 250 C564 423 478 510 307 510 C136 510 50 423 50 250 L50 250 Z " />
<glyph glyph-name="odieresis" unicode="&#xf6;" horiz-adv-x="609" d="M376 615 C397 615 408 626 408 647 C408 669 397 680 376 680 C355 680 344 669 344 647 C344 626 355 615 376 615 L376 615 Z M238 615 C260 615 271 626 271 647 C271 669 260 680 238 680 C217 680 206 669 206 647 C206 626 217 615 238 615 L238 615 Z M307 5 C173 5 105 87 105 250 C105 413 173 495 307 495 C441 495 509 413 509 250 C509 87 441 5 307 5 L307 5 Z M50 250 C50 77 136 -10 307 -10 C478 -10 564 77 564 250 C564 423 478 510 307 510 C136 510 50 423 50 250 L50 250 Z " />
<glyph glyph-name="oslash" unicode="&#xf8;" horiz-adv-x="609" d="M56 -16 C56 -16 120 49 120 49 C163 10 225 -10 307 -10 C478 -10 564 77 564 250 C564 332 544 395 505 439 C505 439 570 504 570 504 C570 504 558 516 558 516 C558 516 494 451 494 451 C451 490 389 510 307 510 C136 510 50 423 50 250 C50 168 70 105 109 61 C109 61 44 -4 44 -4 C44 -4 56 -16 56 -16 L56 -16 Z M307 5 C235 5 181 29 148 77 C148 77 476 408 476 408 C498 369 509 316 509 250 C509 87 441 5 307 5 C307 5 307 5 307 5 L307 5 Z M138 92 C116 131 105 184 105 250 C105 413 173 495 307 495 C379 495 433 471 466 423 C466 423 138 92 138 92 L138 92 Z " />
<glyph glyph-name="ugrave" unicode="&#xf9;" horiz-adv-x="553" d="M533 41 C533 41 503 34 503 34 C466 25 448 26 448 100 C448 100 448 465 448 465 C448 465 448 500 448 500 C448 500 332 500 332 500 C332 500 332 480 332 480 C332 480 362 480 362 480 C386 480 398 479 398 465 C398 465 398 136 398 136 C367 62 319 25 253 25 C186 25 152 70 152 160 C152 160 152 465 152 465 C152 465 152 500 152 500 C152 500 35 500 35 500 C35 500 35 480 35 480 C35 480 65 480 65 480 C90 480 102 479 102 465 C102 465 102 160 102 160 C102 47 145 -10 230 -10 C306 -10 362 34 398 120 C398 120 398 90 398 90 C398 90 398 -10 398 -10 C398 -10 407 -10 407 -10 C407 -10 533 21 533 21 C533 21 533 41 533 41 L533 41 Z M162 709 C121 756 100 779 94 779 C79 779 69 769 69 755 C69 749 93 727 139 686 C139 686 278 563 278 563 C278 563 284 570 284 570 C284 570 162 709 162 709 L162 709 Z " />
<glyph glyph-name="uacute" unicode="&#xfa;" horiz-adv-x="553" d="M281 563 C281 563 420 686 420 686 C467 728 491 750 491 755 C491 769 481 779 466 779 C462 779 440 756 398 709 C398 709 275 570 275 570 C275 570 281 563 281 563 L281 563 Z M533 41 C533 41 503 34 503 34 C466 25 448 26 448 100 C448 100 448 465 448 465 C448 465 448 500 448 500 C448 500 332 500 332 500 C332 500 332 480 332 480 C332 480 362 480 362 480 C386 480 398 479 398 465 C398 465 398 136 398 136 C367 62 319 25 253 25 C186 25 152 70 152 160 C152 160 152 465 152 465 C152 465 152 500 152 500 C152 500 35 500 35 500 C35 500 35 480 35 480 C35 480 65 480 65 480 C90 480 102 479 102 465 C102 465 102 160 102 160 C102 47 145 -10 230 -10 C306 -10 362 34 398 120 C398 120 398 90 398 90 C398 90 398 -10 398 -10 C398 -10 407 -10 407 -10 C407 -10 533 21 533 21 C533 21 533 41 533 41 L533 41 Z " />
<glyph glyph-name="ucircumflex" unicode="&#xfb;" horiz-adv-x="553" d="M533 41 C533 41 503 34 503 34 C466 25 448 26 448 100 C448 100 448 465 448 465 C448 465 448 500 448 500 C448 500 332 500 332 500 C332 500 332 480 332 480 C332 480 362 480 362 480 C386 480 398 479 398 465 C398 465 398 136 398 136 C367 62 319 25 253 25 C186 25 152 70 152 160 C152 160 152 465 152 465 C152 465 152 500 152 500 C152 500 35 500 35 500 C35 500 35 480 35 480 C35 480 65 480 65 480 C90 480 102 479 102 465 C102 465 102 160 102 160 C102 47 145 -10 230 -10 C306 -10 362 34 398 120 C398 120 398 90 398 90 C398 90 398 -10 398 -10 C398 -10 407 -10 407 -10 C407 -10 533 21 533 21 C533 21 533 41 533 41 L533 41 Z M275 727 C275 727 417 558 417 558 C417 558 424 563 424 563 C424 563 292 765 292 765 C289 771 281 783 275 783 C269 783 261 771 257 765 C257 765 126 563 126 563 C126 563 132 558 132 558 C132 558 275 727 275 727 L275 727 Z " />
<glyph glyph-name="udieresis" unicode="&#xfc;" horiz-adv-x="553" d="M344 615 C365 615 376 626 376 647 C376 669 365 680 344 680 C322 680 311 669 311 647 C311 626 322 615 344 615 L344 615 Z M206 615 C227 615 238 626 238 647 C238 669 227 680 206 680 C185 680 174 669 174 647 C174 626 185 615 206 615 L206 615 Z M533 41 C533 41 503 34 503 34 C466 25 448 26 448 100 C448 100 448 465 448 465 C448 465 448 500 448 500 C448 500 332 500 332 500 C332 500 332 480 332 480 C332 480 362 480 362 480 C386 480 398 479 398 465 C398 465 398 136 398 136 C367 62 319 25 253 25 C186 25 152 70 152 160 C152 160 152 465 152 465 C152 465 152 500 152 500 C152 500 35 500 35 500 C35 500 35 480 35 480 C35 480 65 480 65 480 C90 480 102 479 102 465 C102 465 102 160 102 160 C102 47 145 -10 230 -10 C306 -10 362 34 398 120 C398 120 398 90 398 90 C398 90 398 -10 398 -10 C398 -10 407 -10 407 -10 C407 -10 533 21 533 21 C533 21 533 41 533 41 L533 41 Z " />
<glyph glyph-name="ydieresis" unicode="&#xff;" horiz-adv-x="534" d="M345 615 C366 615 377 626 377 647 C377 669 366 680 345 680 C324 680 313 669 313 647 C313 626 324 615 345 615 L345 615 Z M207 615 C229 615 240 626 240 647 C240 669 229 680 207 680 C186 680 175 669 175 647 C175 626 186 615 207 615 L207 615 Z M522 500 C522 500 444 500 444 500 C444 500 421 500 421 500 C421 500 326 500 326 500 C326 500 326 480 326 480 C326 480 353 480 353 480 C392 480 411 478 405 453 C405 453 269 57 269 57 C269 57 143 460 143 460 C141 478 153 480 175 480 C175 480 206 480 206 480 C206 480 206 500 206 500 C206 500 131 500 131 500 C131 500 76 500 76 500 C76 500 13 500 13 500 C13 500 13 480 13 480 C13 480 48 480 48 480 C69 480 81 478 89 460 C89 460 246 -10 246 -10 C246 -10 201 -140 201 -140 C195 -157 185 -165 171 -165 C158 -165 155 -147 142 -147 C123 -147 114 -155 114 -172 C114 -193 124 -203 143 -203 C176 -203 199 -186 210 -154 C210 -154 260 -10 260 -10 C260 -10 423 443 423 443 C438 477 457 480 491 480 C491 480 522 480 522 480 C522 480 522 500 522 500 L522 500 Z " />
<glyph glyph-name="Amacron" unicode="&#x100;" horiz-adv-x="750" d="M255 901 C255 901 555 901 555 901 C555 901 555 936 555 936 C555 936 255 936 255 936 C255 936 255 901 255 901 L255 901 Z M462 0 C462 0 597 0 597 0 C597 0 656 0 656 0 C656 0 745 0 745 0 C745 0 745 20 745 20 C745 20 715 20 715 20 C675 20 651 27 622 110 C622 110 433 732 433 732 C433 732 422 770 422 770 C422 770 416 770 416 770 C399 746 386 733 377 732 C377 732 380 722 380 722 C380 722 380 722 380 722 C380 722 193 153 193 153 C150 29 112 20 44 20 C44 20 14 20 14 20 C14 20 14 0 14 0 C14 0 143 0 143 0 C143 0 160 0 160 0 C160 0 325 0 325 0 C325 0 325 20 325 20 C325 20 301 20 301 20 C217 20 175 29 206 143 C206 143 252 287 252 287 C252 287 511 287 511 287 C511 287 557 134 557 134 C587 28 555 20 486 20 C486 20 462 20 462 20 C462 20 462 0 462 0 L462 0 Z M257 302 C257 302 386 703 386 703 C386 703 506 302 506 302 C506 302 257 302 257 302 L257 302 Z " />
<glyph glyph-name="amacron" unicode="&#x101;" horiz-adv-x="512" d="M113 651 C113 651 413 651 413 651 C413 651 413 686 413 686 C413 686 113 686 113 686 C113 686 113 651 113 651 L113 651 Z M523 77 C523 77 512 83 512 83 C506 48 488 31 457 31 C419 31 400 48 400 81 C400 81 400 358 400 358 C400 474 354 510 263 510 C137 510 73 420 73 360 C73 337 82 325 99 325 C121 325 132 338 132 350 C132 367 112 378 112 392 C112 433 157 495 245 495 C315 495 350 467 350 377 C350 377 350 271 350 271 C84 190 53 180 53 80 C53 20 92 -10 168 -10 C242 -10 295 9 350 85 C350 85 350 81 350 81 C350 24 379 -5 436 -5 C484 -5 513 23 523 77 C523 77 523 77 523 77 L523 77 Z M350 259 C350 259 350 97 350 97 C303 33 258 17 195 17 C134 17 104 40 104 86 C104 183 130 192 350 259 L350 259 Z " />
<glyph glyph-name="Abreve" unicode="&#x102;" horiz-adv-x="750" d="M281 995 C284 924 326 889 405 889 C484 889 526 924 530 994 C530 994 519 995 519 995 C517 948 479 924 405 924 C332 924 294 948 291 996 C291 996 281 995 281 995 L281 995 Z M462 0 C462 0 597 0 597 0 C597 0 656 0 656 0 C656 0 745 0 745 0 C745 0 745 20 745 20 C745 20 715 20 715 20 C675 20 651 27 622 110 C622 110 433 732 433 732 C433 732 422 770 422 770 C422 770 416 770 416 770 C399 746 386 733 377 732 C377 732 380 722 380 722 C380 722 380 722 380 722 C380 722 193 153 193 153 C150 29 112 20 44 20 C44 20 14 20 14 20 C14 20 14 0 14 0 C14 0 143 0 143 0 C143 0 160 0 160 0 C160 0 325 0 325 0 C325 0 325 20 325 20 C325 20 301 20 301 20 C217 20 175 29 206 143 C206 143 252 287 252 287 C252 287 511 287 511 287 C511 287 557 134 557 134 C587 28 555 20 486 20 C486 20 462 20 462 20 C462 20 462 0 462 0 L462 0 Z M257 302 C257 302 386 703 386 703 C386 703 506 302 506 302 C506 302 257 302 257 302 L257 302 Z " />
<glyph glyph-name="abreve" unicode="&#x103;" horiz-adv-x="512" d="M138 745 C142 674 184 639 263 639 C342 639 384 674 387 744 C387 744 377 745 377 745 C374 698 336 674 263 674 C190 674 152 698 149 746 C149 746 138 745 138 745 L138 745 Z M523 77 C523 77 512 83 512 83 C506 48 488 31 457 31 C419 31 400 48 400 81 C400 81 400 358 400 358 C400 474 354 510 263 510 C137 510 73 420 73 360 C73 337 82 325 99 325 C121 325 132 338 132 350 C132 367 112 378 112 392 C112 433 157 495 245 495 C315 495 350 467 350 377 C350 377 350 271 350 271 C84 190 53 180 53 80 C53 20 92 -10 168 -10 C242 -10 295 9 350 85 C350 85 350 81 350 81 C350 24 379 -5 436 -5 C484 -5 513 23 523 77 C523 77 523 77 523 77 L523 77 Z M350 259 C350 259 350 97 350 97 C303 33 258 17 195 17 C134 17 104 40 104 86 C104 183 130 192 350 259 L350 259 Z " />
<glyph glyph-name="Cacute" unicode="&#x106;" horiz-adv-x="703" d="M388 813 C388 813 527 936 527 936 C574 978 598 1000 598 1005 C598 1019 588 1029 573 1029 C569 1029 547 1006 505 959 C505 959 382 820 382 820 C382 820 388 813 388 813 L388 813 Z M657 529 C657 529 657 629 657 629 C657 629 657 744 657 744 C657 744 642 744 642 744 C642 744 640 734 637 715 C634 698 610 695 566 719 C524 746 471 760 382 760 C169 760 62 631 62 375 C62 119 166 -10 371 -10 C453 -10 508 3 553 28 C553 28 554 28 554 28 C554 28 596 30 637 32 C642 32 645 22 645 2 C645 2 657 2 657 2 C657 2 657 121 657 121 C657 121 657 221 657 221 C657 221 642 221 642 221 C642 221 640 214 637 199 C623 140 583 69 528 36 C489 14 442 3 377 3 C208 3 123 128 123 375 C123 621 212 746 387 746 C436 746 473 740 504 729 C571 703 621 620 637 550 C640 536 642 529 642 529 C642 529 657 529 657 529 L657 529 Z " />
<glyph glyph-name="Ccircumflex" unicode="&#x108;" horiz-adv-x="703" d="M657 529 C657 529 657 629 657 629 C657 629 657 744 657 744 C657 744 642 744 642 744 C642 744 640 734 637 715 C634 698 610 695 566 719 C524 746 471 760 382 760 C169 760 62 631 62 375 C62 119 166 -10 371 -10 C453 -10 508 3 553 28 C553 28 554 28 554 28 C554 28 596 30 637 32 C642 32 645 22 645 2 C645 2 657 2 657 2 C657 2 657 121 657 121 C657 121 657 221 657 221 C657 221 642 221 642 221 C642 221 640 214 637 199 C623 140 583 69 528 36 C489 14 442 3 377 3 C208 3 123 128 123 375 C123 621 212 746 387 746 C436 746 473 740 504 729 C571 703 621 620 637 550 C640 536 642 529 642 529 C642 529 657 529 657 529 L657 529 Z M382 977 C382 977 524 808 524 808 C524 808 531 813 531 813 C531 813 399 1015 399 1015 C396 1021 388 1033 382 1033 C376 1033 368 1021 364 1015 C364 1015 233 813 233 813 C233 813 239 808 239 808 C239 808 382 977 382 977 L382 977 Z " />
<glyph glyph-name="Cdotaccent" unicode="&#x10a;" horiz-adv-x="703" d="M382 865 C403 865 414 876 414 897 C414 919 403 930 382 930 C360 930 349 919 349 897 C349 876 360 865 382 865 L382 865 Z M657 529 C657 529 657 629 657 629 C657 629 657 744 657 744 C657 744 642 744 642 744 C642 744 640 734 637 715 C634 698 610 695 566 719 C524 746 471 760 382 760 C169 760 62 631 62 375 C62 119 166 -10 371 -10 C453 -10 508 3 553 28 C553 28 554 28 554 28 C554 28 596 30 637 32 C642 32 645 22 645 2 C645 2 657 2 657 2 C657 2 657 121 657 121 C657 121 657 221 657 221 C657 221 642 221 642 221 C642 221 640 214 637 199 C623 140 583 69 528 36 C489 14 442 3 377 3 C208 3 123 128 123 375 C123 621 212 746 387 746 C436 746 473 740 504 729 C571 703 621 620 637 550 C640 536 642 529 642 529 C642 529 657 529 657 529 L657 529 Z " />
<glyph glyph-name="cdotaccent" unicode="&#x10b;" horiz-adv-x="471" d="M268 615 C290 615 301 626 301 647 C301 669 290 680 268 680 C247 680 236 669 236 647 C236 626 247 615 268 615 L268 615 Z M442 128 C442 128 435 131 435 131 C402 58 346 21 269 21 C158 21 102 103 102 264 C102 420 157 499 265 499 C329 499 372 467 395 405 C401 388 409 380 420 380 C442 380 451 388 445 405 C419 475 360 510 268 510 C124 510 51 419 51 239 C51 73 118 -10 252 -10 C337 -10 401 36 442 128 L442 128 Z " />
<glyph glyph-name="Ccaron" unicode="&#x10c;" horiz-adv-x="703" d="M657 529 C657 529 657 629 657 629 C657 629 657 744 657 744 C657 744 642 744 642 744 C642 744 640 734 637 715 C634 698 610 695 566 719 C524 746 471 760 382 760 C169 760 62 631 62 375 C62 119 166 -10 371 -10 C453 -10 508 3 553 28 C553 28 554 28 554 28 C554 28 596 30 637 32 C642 32 645 22 645 2 C645 2 657 2 657 2 C657 2 657 121 657 121 C657 121 657 221 657 221 C657 221 642 221 642 221 C642 221 640 214 637 199 C623 140 583 69 528 36 C489 14 442 3 377 3 C208 3 123 128 123 375 C123 621 212 746 387 746 C436 746 473 740 504 729 C571 703 621 620 637 550 C640 536 642 529 642 529 C642 529 657 529 657 529 L657 529 Z M382 873 C382 873 524 1042 524 1042 C524 1042 531 1037 531 1037 C531 1037 399 835 399 835 C396 829 388 817 382 817 C376 817 368 829 364 835 C364 835 233 1037 233 1037 C233 1037 239 1042 239 1042 C239 1042 382 873 382 873 L382 873 Z " />
<glyph glyph-name="ccaron" unicode="&#x10d;" horiz-adv-x="471" d="M442 128 C442 128 435 131 435 131 C402 58 346 21 269 21 C158 21 102 103 102 264 C102 420 157 499 265 499 C329 499 372 467 395 405 C401 388 409 380 420 380 C442 380 451 388 445 405 C419 475 360 510 268 510 C124 510 51 419 51 239 C51 73 118 -10 252 -10 C337 -10 401 36 442 128 L442 128 Z M268 623 C268 623 411 792 411 792 C411 792 417 787 417 787 C417 787 286 585 286 585 C282 579 274 567 268 567 C262 567 254 579 251 585 C251 585 119 787 119 787 C119 787 126 792 126 792 C126 792 268 623 268 623 L268 623 Z " />
<glyph glyph-name="Dcaron" unicode="&#x10e;" horiz-adv-x="807" d="M51 0 C51 0 156 0 156 0 C156 0 212 0 212 0 C212 0 292 0 292 0 C598 0 752 101 752 375 C752 624 639 750 332 750 C332 750 212 750 212 750 C212 750 156 750 156 750 C156 750 51 750 51 750 C51 750 51 730 51 730 C51 730 81 730 81 730 C131 730 156 725 156 665 C156 665 156 85 156 85 C156 25 131 20 81 20 C81 20 51 20 51 20 C51 20 51 0 51 0 L51 0 Z M424 873 C424 873 566 1042 566 1042 C566 1042 572 1037 572 1037 C572 1037 441 835 441 835 C437 829 429 817 423 817 C417 817 410 829 406 835 C406 835 274 1037 274 1037 C274 1037 281 1042 281 1042 C281 1042 424 873 424 873 L424 873 Z M212 739 C212 739 287 739 287 739 C582 739 691 617 691 375 C691 109 551 11 275 11 C212 11 212 34 212 80 C212 80 212 85 212 85 C212 85 212 665 212 665 C212 665 212 739 212 739 L212 739 Z " />
<glyph glyph-name="dcaron" unicode="&#x10f;" horiz-adv-x="593" d="M599 41 C599 41 569 34 569 34 C532 25 514 27 514 120 C514 120 514 665 514 665 C514 665 514 750 514 750 C514 750 505 750 505 750 C505 750 379 714 379 714 C379 714 379 694 379 694 C379 694 409 702 409 702 C445 713 464 714 464 653 C464 653 464 446 464 446 C429 486 378 510 316 510 C125 510 55 424 55 254 C55 82 134 -5 289 -5 C368 -5 426 21 464 72 C464 72 464 -10 464 -10 C464 -10 473 -10 473 -10 C473 -10 599 21 599 21 C599 21 599 41 599 41 L599 41 Z M600 647 C614 695 621 730 621 751 C621 757 614 759 599 759 C587 759 579 702 574 652 C574 652 562 541 562 541 C562 541 570 540 570 540 C570 540 600 647 600 647 L600 647 Z M464 89 C427 41 376 16 310 16 C175 16 106 100 106 267 C106 419 164 495 322 495 C380 495 432 454 464 391 C464 391 464 110 464 110 C464 110 464 89 464 89 L464 89 Z " />
<glyph glyph-name="Emacron" unicode="&#x112;" horiz-adv-x="619" d="M189 901 C189 901 489 901 489 901 C489 901 489 936 489 936 C489 936 189 936 189 936 C189 936 189 901 189 901 L189 901 Z M531 613 C529 660 526 704 522 750 C522 750 402 750 402 750 C402 750 212 750 212 750 C212 750 156 750 156 750 C156 750 51 750 51 750 C51 750 51 730 51 730 C51 730 81 730 81 730 C131 730 156 725 156 665 C156 665 156 85 156 85 C156 25 131 20 81 20 C81 20 51 20 51 20 C51 20 51 0 51 0 C51 0 156 0 156 0 C156 0 212 0 212 0 C212 0 427 0 427 0 C427 0 547 0 547 0 C550 23 553 46 557 68 C557 68 566 137 566 137 C566 137 546 137 546 137 C546 137 542 107 542 107 C533 44 522 12 429 12 C429 12 292 12 292 12 C212 12 212 35 212 80 C212 80 212 85 212 85 C212 85 212 385 212 385 C212 385 342 385 342 385 C435 385 442 348 442 275 C442 275 442 245 442 245 C442 245 462 245 462 245 C462 245 462 385 462 385 C462 385 462 398 462 398 C462 398 462 538 462 538 C462 538 442 538 442 538 C442 538 442 508 442 508 C442 435 435 398 342 398 C342 398 212 398 212 398 C212 398 212 665 212 665 C212 665 212 738 212 738 C212 738 403 738 403 738 C514 738 505 702 510 631 C510 631 511 613 511 613 C511 613 531 613 531 613 L531 613 Z " />
<glyph glyph-name="emacron" unicode="&#x113;" horiz-adv-x="534" d="M150 651 C150 651 450 651 450 651 C450 651 450 686 450 686 C450 686 150 686 150 686 C150 686 150 651 150 651 L150 651 Z M110 340 C110 340 449 340 449 340 C449 340 505 340 505 340 C481 476 416 510 300 510 C134 510 50 418 50 235 C50 72 126 -10 277 -10 C386 -10 459 38 493 133 C493 133 487 136 487 136 C460 61 393 23 289 23 C166 23 103 101 103 255 C103 286 105 315 110 340 L110 340 Z M488 355 C489 355 490 355 491 355 C491 355 488 355 488 355 L488 355 Z M446 355 C446 355 113 352 113 352 C135 450 197 499 297 499 C377 499 423 469 446 355 L446 355 Z " />
<glyph glyph-name="Ebreve" unicode="&#x114;" horiz-adv-x="619" d="M215 995 C218 924 260 889 339 889 C418 889 460 924 463 994 C463 994 453 995 453 995 C450 948 412 924 339 924 C266 924 228 948 225 996 C225 996 215 995 215 995 L215 995 Z M531 613 C529 660 526 704 522 750 C522 750 402 750 402 750 C402 750 212 750 212 750 C212 750 156 750 156 750 C156 750 51 750 51 750 C51 750 51 730 51 730 C51 730 81 730 81 730 C131 730 156 725 156 665 C156 665 156 85 156 85 C156 25 131 20 81 20 C81 20 51 20 51 20 C51 20 51 0 51 0 C51 0 156 0 156 0 C156 0 212 0 212 0 C212 0 427 0 427 0 C427 0 547 0 547 0 C550 23 553 46 557 68 C557 68 566 137 566 137 C566 137 546 137 546 137 C546 137 542 107 542 107 C533 44 522 12 429 12 C429 12 292 12 292 12 C212 12 212 35 212 80 C212 80 212 85 212 85 C212 85 212 385 212 385 C212 385 342 385 342 385 C435 385 442 348 442 275 C442 275 442 245 442 245 C442 245 462 245 462 245 C462 245 462 385 462 385 C462 385 462 398 462 398 C462 398 462 538 462 538 C462 538 442 538 442 538 C442 538 442 508 442 508 C442 435 435 398 342 398 C342 398 212 398 212 398 C212 398 212 665 212 665 C212 665 212 738 212 738 C212 738 403 738 403 738 C514 738 505 702 510 631 C510 631 511 613 511 613 C511 613 531 613 531 613 L531 613 Z " />
<glyph glyph-name="ebreve" unicode="&#x115;" horiz-adv-x="534" d="M176 745 C179 674 221 639 300 639 C379 639 421 674 425 744 C425 744 414 745 414 745 C411 698 373 674 300 674 C227 674 189 698 186 746 C186 746 176 745 176 745 L176 745 Z M110 340 C110 340 449 340 449 340 C449 340 505 340 505 340 C481 476 416 510 300 510 C134 510 50 418 50 235 C50 72 126 -10 277 -10 C386 -10 459 38 493 133 C493 133 487 136 487 136 C460 61 393 23 289 23 C166 23 103 101 103 255 C103 286 105 315 110 340 L110 340 Z M488 355 C489 355 490 355 491 355 C491 355 488 355 488 355 L488 355 Z M446 355 C446 355 113 352 113 352 C135 450 197 499 297 499 C377 499 423 469 446 355 L446 355 Z " />
<glyph glyph-name="Edotaccent" unicode="&#x116;" horiz-adv-x="619" d="M339 865 C360 865 371 876 371 897 C371 919 360 930 339 930 C318 930 307 919 307 897 C307 876 318 865 339 865 L339 865 Z M531 613 C529 660 526 704 522 750 C522 750 402 750 402 750 C402 750 212 750 212 750 C212 750 156 750 156 750 C156 750 51 750 51 750 C51 750 51 730 51 730 C51 730 81 730 81 730 C131 730 156 725 156 665 C156 665 156 85 156 85 C156 25 131 20 81 20 C81 20 51 20 51 20 C51 20 51 0 51 0 C51 0 156 0 156 0 C156 0 212 0 212 0 C212 0 427 0 427 0 C427 0 547 0 547 0 C550 23 553 46 557 68 C557 68 566 137 566 137 C566 137 546 137 546 137 C546 137 542 107 542 107 C533 44 522 12 429 12 C429 12 292 12 292 12 C212 12 212 35 212 80 C212 80 212 85 212 85 C212 85 212 385 212 385 C212 385 342 385 342 385 C435 385 442 348 442 275 C442 275 442 245 442 245 C442 245 462 245 462 245 C462 245 462 385 462 385 C462 385 462 398 462 398 C462 398 462 538 462 538 C462 538 442 538 442 538 C442 538 442 508 442 508 C442 435 435 398 342 398 C342 398 212 398 212 398 C212 398 212 665 212 665 C212 665 212 738 212 738 C212 738 403 738 403 738 C514 738 505 702 510 631 C510 631 511 613 511 613 C511 613 531 613 531 613 L531 613 Z " />
<glyph glyph-name="edotaccent" unicode="&#x117;" horiz-adv-x="534" d="M300 615 C322 615 333 626 333 647 C333 669 322 680 300 680 C279 680 268 669 268 647 C268 626 279 615 300 615 L300 615 Z M110 340 C110 340 449 340 449 340 C449 340 505 340 505 340 C481 476 416 510 300 510 C134 510 50 418 50 235 C50 72 126 -10 277 -10 C386 -10 459 38 493 133 C493 133 487 136 487 136 C460 61 393 23 289 23 C166 23 103 101 103 255 C103 286 105 315 110 340 L110 340 Z M488 355 C489 355 490 355 491 355 C491 355 488 355 488 355 L488 355 Z M446 355 C446 355 113 352 113 352 C135 450 197 499 297 499 C377 499 423 469 446 355 L446 355 Z " />
<glyph glyph-name="Ecaron" unicode="&#x11a;" horiz-adv-x="619" d="M531 613 C529 660 526 704 522 750 C522 750 402 750 402 750 C402 750 212 750 212 750 C212 750 156 750 156 750 C156 750 51 750 51 750 C51 750 51 730 51 730 C51 730 81 730 81 730 C131 730 156 725 156 665 C156 665 156 85 156 85 C156 25 131 20 81 20 C81 20 51 20 51 20 C51 20 51 0 51 0 C51 0 156 0 156 0 C156 0 212 0 212 0 C212 0 427 0 427 0 C427 0 547 0 547 0 C550 23 553 46 557 68 C557 68 566 137 566 137 C566 137 546 137 546 137 C546 137 542 107 542 107 C533 44 522 12 429 12 C429 12 292 12 292 12 C212 12 212 35 212 80 C212 80 212 85 212 85 C212 85 212 385 212 385 C212 385 342 385 342 385 C435 385 442 348 442 275 C442 275 442 245 442 245 C442 245 462 245 462 245 C462 245 462 385 462 385 C462 385 462 398 462 398 C462 398 462 538 462 538 C462 538 442 538 442 538 C442 538 442 508 442 508 C442 435 435 398 342 398 C342 398 212 398 212 398 C212 398 212 665 212 665 C212 665 212 738 212 738 C212 738 403 738 403 738 C514 738 505 702 510 631 C510 631 511 613 511 613 C511 613 531 613 531 613 L531 613 Z M339 873 C339 873 481 1042 481 1042 C481 1042 488 1037 488 1037 C488 1037 357 835 357 835 C353 829 345 817 339 817 C333 817 325 829 321 835 C321 835 190 1037 190 1037 C190 1037 197 1042 197 1042 C197 1042 339 873 339 873 L339 873 Z " />
<glyph glyph-name="ecaron" unicode="&#x11b;" horiz-adv-x="534" d="M301 623 C301 623 443 792 443 792 C443 792 449 787 449 787 C449 787 318 585 318 585 C314 579 306 567 300 567 C294 567 286 579 283 585 C283 585 151 787 151 787 C151 787 158 792 158 792 C158 792 301 623 301 623 L301 623 Z M110 340 C110 340 449 340 449 340 C449 340 505 340 505 340 C481 476 416 510 300 510 C134 510 50 418 50 235 C50 72 126 -10 277 -10 C386 -10 459 38 493 133 C493 133 487 136 487 136 C460 61 393 23 289 23 C166 23 103 101 103 255 C103 286 105 315 110 340 L110 340 Z M488 355 C489 355 490 355 491 355 C491 355 488 355 488 355 L488 355 Z M446 355 C446 355 113 352 113 352 C135 450 197 499 297 499 C377 499 423 469 446 355 L446 355 Z " />
<glyph glyph-name="Gcircumflex" unicode="&#x11c;" horiz-adv-x="777" d="M657 529 C657 529 657 629 657 629 C657 629 657 744 657 744 C657 744 642 744 642 744 C642 744 640 734 637 715 C634 698 610 695 566 719 C524 746 471 760 382 760 C169 760 62 631 62 375 C62 119 167 -10 376 -10 C493 -10 565 3 635 28 C635 28 636 28 636 28 C636 28 636 28 636 28 C662 37 687 48 714 61 C714 61 710 69 710 69 C685 57 661 47 636 38 C636 38 636 245 636 245 C636 301 654 305 691 305 C691 305 721 305 721 305 C721 305 721 325 721 325 C721 325 480 325 480 325 C480 325 480 305 480 305 C480 305 510 305 510 305 C556 305 580 301 580 245 C580 245 581 73 581 73 C578 40 543 19 476 10 C476 10 530 13 530 13 C489 7 441 4 381 4 C381 4 476 10 476 10 C449 6 418 4 381 4 C209 4 123 129 123 375 C123 621 212 746 387 746 C436 746 473 740 504 729 C571 703 621 620 637 550 C640 536 642 529 642 529 C642 529 657 529 657 529 L657 529 Z M382 977 C382 977 524 808 524 808 C524 808 531 813 531 813 C531 813 399 1015 399 1015 C396 1021 388 1033 382 1033 C376 1033 368 1021 364 1015 C364 1015 233 813 233 813 C233 813 239 808 239 808 C239 808 382 977 382 977 L382 977 Z " />
<glyph glyph-name="Gbreve" unicode="&#x11e;" horiz-adv-x="777" d="M257 995 C261 924 303 889 382 889 C461 889 503 924 506 994 C506 994 496 995 496 995 C493 948 455 924 382 924 C308 924 270 948 268 996 C268 996 257 995 257 995 L257 995 Z M657 529 C657 529 657 629 657 629 C657 629 657 744 657 744 C657 744 642 744 642 744 C642 744 640 734 637 715 C634 698 610 695 566 719 C524 746 471 760 382 760 C169 760 62 631 62 375 C62 119 167 -10 376 -10 C493 -10 565 3 635 28 C635 28 636 28 636 28 C636 28 636 28 636 28 C662 37 687 48 714 61 C714 61 710 69 710 69 C685 57 661 47 636 38 C636 38 636 245 636 245 C636 301 654 305 691 305 C691 305 721 305 721 305 C721 305 721 325 721 325 C721 325 480 325 480 325 C480 325 480 305 480 305 C480 305 510 305 510 305 C556 305 580 301 580 245 C580 245 581 73 581 73 C578 40 543 19 476 10 C476 10 530 13 530 13 C489 7 441 4 381 4 C381 4 476 10 476 10 C449 6 418 4 381 4 C209 4 123 129 123 375 C123 621 212 746 387 746 C436 746 473 740 504 729 C571 703 621 620 637 550 C640 536 642 529 642 529 C642 529 657 529 657 529 L657 529 Z " />
<glyph glyph-name="gbreve" unicode="&#x11f;" horiz-adv-x="520" d="M135 745 C138 674 180 639 259 639 C338 639 380 674 384 744 C384 744 373 745 373 745 C370 698 332 674 259 674 C186 674 148 698 145 746 C145 746 135 745 135 745 L135 745 Z M134 350 C134 448 176 498 259 498 C343 498 385 448 385 350 C385 250 343 200 259 200 C176 200 134 250 134 350 L134 350 Z M166 17 C171 17 177 17 183 17 C183 17 296 17 296 17 C414 17 444 -19 444 -90 C444 -176 386 -219 272 -219 C154 -219 94 -173 94 -81 C94 -32 118 1 166 17 C166 17 166 17 166 17 L166 17 Z M154 18 C87 -1 53 -38 53 -93 C53 -184 125 -230 269 -230 C412 -230 485 -179 485 -79 C485 18 448 67 301 67 C301 67 186 67 186 67 C121 67 89 86 89 122 C89 166 146 188 259 188 C376 188 435 242 435 350 C435 365 434 379 431 393 C450 447 477 474 513 474 C532 474 541 461 541 434 C541 422 549 416 565 416 C578 416 585 424 585 440 C585 477 568 495 534 495 C484 495 449 465 428 406 C410 475 353 510 259 510 C143 510 84 456 84 350 C84 265 121 213 193 195 C105 186 60 157 60 107 C60 54 91 25 154 18 L154 18 Z " />
<glyph glyph-name="Gdotaccent" unicode="&#x120;" horiz-adv-x="777" d="M382 865 C403 865 414 876 414 897 C414 919 403 930 382 930 C360 930 349 919 349 897 C349 876 360 865 382 865 L382 865 Z M657 529 C657 529 657 629 657 629 C657 629 657 744 657 744 C657 744 642 744 642 744 C642 744 640 734 637 715 C634 698 610 695 566 719 C524 746 471 760 382 760 C169 760 62 631 62 375 C62 119 167 -10 376 -10 C493 -10 565 3 635 28 C635 28 636 28 636 28 C636 28 636 28 636 28 C662 37 687 48 714 61 C714 61 710 69 710 69 C685 57 661 47 636 38 C636 38 636 245 636 245 C636 301 654 305 691 305 C691 305 721 305 721 305 C721 305 721 325 721 325 C721 325 480 325 480 325 C480 325 480 305 480 305 C480 305 510 305 510 305 C556 305 580 301 580 245 C580 245 581 73 581 73 C578 40 543 19 476 10 C476 10 530 13 530 13 C489 7 441 4 381 4 C381 4 476 10 476 10 C449 6 418 4 381 4 C209 4 123 129 123 375 C123 621 212 746 387 746 C436 746 473 740 504 729 C571 703 621 620 637 550 C640 536 642 529 642 529 C642 529 657 529 657 529 L657 529 Z " />
<glyph glyph-name="gdotaccent" unicode="&#x121;" horiz-adv-x="520" d="M259 615 C281 615 292 626 292 647 C292 669 281 680 259 680 C238 680 227 669 227 647 C227 626 238 615 259 615 L259 615 Z M134 350 C134 448 176 498 259 498 C343 498 385 448 385 350 C385 250 343 200 259 200 C176 200 134 250 134 350 L134 350 Z M166 17 C171 17 177 17 183 17 C183 17 296 17 296 17 C414 17 444 -19 444 -90 C444 -176 386 -219 272 -219 C154 -219 94 -173 94 -81 C94 -32 118 1 166 17 C166 17 166 17 166 17 L166 17 Z M154 18 C87 -1 53 -38 53 -93 C53 -184 125 -230 269 -230 C412 -230 485 -179 485 -79 C485 18 448 67 301 67 C301 67 186 67 186 67 C121 67 89 86 89 122 C89 166 146 188 259 188 C376 188 435 242 435 350 C435 365 434 379 431 393 C450 447 477 474 513 474 C532 474 541 461 541 434 C541 422 549 416 565 416 C578 416 585 424 585 440 C585 477 568 495 534 495 C484 495 449 465 428 406 C410 475 353 510 259 510 C143 510 84 456 84 350 C84 265 121 213 193 195 C105 186 60 157 60 107 C60 54 91 25 154 18 L154 18 Z " />
<glyph glyph-name="Hcircumflex" unicode="&#x124;" horiz-adv-x="816" d="M777 750 C777 750 511 750 511 750 C511 750 511 730 511 730 C511 730 541 730 541 730 C591 730 616 726 616 670 C616 670 616 391 616 391 C616 391 248 391 248 391 C248 391 248 670 248 670 C248 726 273 730 323 730 C323 730 353 730 353 730 C353 730 353 750 353 750 C353 750 87 750 87 750 C87 750 87 730 87 730 C87 730 117 730 117 730 C167 730 192 726 192 670 C192 670 192 80 192 80 C192 24 167 20 117 20 C117 20 87 20 87 20 C87 20 87 0 87 0 C87 0 353 0 353 0 C353 0 353 20 353 20 C353 20 323 20 323 20 C273 20 248 24 248 80 C248 80 248 375 248 375 C248 375 616 375 616 375 C616 375 616 80 616 80 C616 24 591 20 541 20 C541 20 511 20 511 20 C511 20 511 0 511 0 C511 0 777 0 777 0 C777 0 777 20 777 20 C777 20 747 20 747 20 C697 20 672 24 672 80 C672 80 672 670 672 670 C672 726 697 730 747 730 C747 730 777 730 777 730 C777 730 777 750 777 750 L777 750 Z M432 977 C432 977 574 808 574 808 C574 808 581 813 581 813 C581 813 450 1015 450 1015 C446 1021 438 1033 432 1033 C426 1033 418 1021 414 1015 C414 1015 283 813 283 813 C283 813 290 808 290 808 C290 808 432 977 432 977 L432 977 Z " />
<glyph glyph-name="Itilde" unicode="&#x128;" horiz-adv-x="362" d="M48 870 C48 914 63 936 93 936 C161 936 205 871 273 871 C318 871 341 903 341 966 C341 966 332 966 332 966 C332 926 316 906 284 906 C217 906 172 971 105 971 C61 971 39 937 39 870 C39 870 48 870 48 870 L48 870 Z M323 750 C323 750 57 750 57 750 C57 750 57 730 57 730 C57 730 87 730 87 730 C137 730 162 726 162 670 C162 670 162 80 162 80 C162 24 137 20 87 20 C87 20 57 20 57 20 C57 20 57 0 57 0 C57 0 323 0 323 0 C323 0 323 20 323 20 C323 20 293 20 293 20 C243 20 218 24 218 80 C218 80 218 670 218 670 C218 726 243 730 293 730 C293 730 323 730 323 730 C323 730 323 750 323 750 L323 750 Z " />
<glyph glyph-name="itilde" unicode="&#x129;" horiz-adv-x="283" d="M7 620 C7 664 22 686 52 686 C119 686 164 621 231 621 C276 621 299 653 299 716 C299 716 290 716 290 716 C290 676 274 656 242 656 C175 656 131 721 63 721 C20 721 -2 687 -2 620 C-2 620 7 620 7 620 L7 620 Z M44 0 C44 0 257 0 257 0 C257 0 257 20 257 20 C257 20 227 20 227 20 C192 20 174 21 174 35 C174 35 174 390 174 390 C174 390 174 500 174 500 C174 500 165 500 165 500 C165 500 42 445 42 445 C42 445 42 435 42 435 C118 439 124 437 124 390 C124 390 124 35 124 35 C124 21 107 20 74 20 C74 20 44 20 44 20 C44 20 44 0 44 0 L44 0 Z " />
<glyph glyph-name="Imacron" unicode="&#x12a;" horiz-adv-x="362" d="M40 901 C40 901 340 901 340 901 C340 901 340 936 340 936 C340 936 40 936 40 936 C40 936 40 901 40 901 L40 901 Z M323 750 C323 750 57 750 57 750 C57 750 57 730 57 730 C57 730 87 730 87 730 C137 730 162 726 162 670 C162 670 162 80 162 80 C162 24 137 20 87 20 C87 20 57 20 57 20 C57 20 57 0 57 0 C57 0 323 0 323 0 C323 0 323 20 323 20 C323 20 293 20 293 20 C243 20 218 24 218 80 C218 80 218 670 218 670 C218 726 243 730 293 730 C293 730 323 730 323 730 C323 730 323 750 323 750 L323 750 Z " />
<glyph glyph-name="imacron" unicode="&#x12b;" horiz-adv-x="283" d="M-2 651 C-2 651 299 651 299 651 C299 651 299 686 299 686 C299 686 -1 686 -1 686 C-1 686 -2 651 -2 651 L-2 651 Z M44 0 C44 0 257 0 257 0 C257 0 257 20 257 20 C257 20 227 20 227 20 C192 20 174 21 174 35 C174 35 174 390 174 390 C174 390 174 500 174 500 C174 500 165 500 165 500 C165 500 42 445 42 445 C42 445 42 435 42 435 C118 439 124 437 124 390 C124 390 124 35 124 35 C124 21 107 20 74 20 C74 20 44 20 44 20 C44 20 44 0 44 0 L44 0 Z " />
<glyph glyph-name="Ibreve" unicode="&#x12c;" horiz-adv-x="362" d="M66 995 C69 924 111 889 190 889 C269 889 311 924 314 994 C314 994 304 995 304 995 C301 948 263 924 190 924 C117 924 79 948 76 996 C76 996 66 995 66 995 L66 995 Z M323 750 C323 750 57 750 57 750 C57 750 57 730 57 730 C57 730 87 730 87 730 C137 730 162 726 162 670 C162 670 162 80 162 80 C162 24 137 20 87 20 C87 20 57 20 57 20 C57 20 57 0 57 0 C57 0 323 0 323 0 C323 0 323 20 323 20 C323 20 293 20 293 20 C243 20 218 24 218 80 C218 80 218 670 218 670 C218 726 243 730 293 730 C293 730 323 730 323 730 C323 730 323 750 323 750 L323 750 Z " />
<glyph glyph-name="ibreve" unicode="&#x12d;" horiz-adv-x="283" d="M24 745 C28 674 70 639 149 639 C227 639 269 674 273 744 C273 744 262 745 262 745 C260 698 222 674 149 674 C75 674 37 698 35 746 C35 746 24 745 24 745 L24 745 Z M44 0 C44 0 257 0 257 0 C257 0 257 20 257 20 C257 20 227 20 227 20 C192 20 174 21 174 35 C174 35 174 390 174 390 C174 390 174 500 174 500 C174 500 165 500 165 500 C165 500 42 445 42 445 C42 445 42 435 42 435 C118 439 124 437 124 390 C124 390 124 35 124 35 C124 21 107 20 74 20 C74 20 44 20 44 20 C44 20 44 0 44 0 L44 0 Z " />
<glyph glyph-name="Idotaccent" unicode="&#x130;" horiz-adv-x="362" d="M190 865 C211 865 222 876 222 897 C222 919 211 930 190 930 C169 930 158 919 158 897 C158 876 169 865 190 865 L190 865 Z M323 750 C323 750 57 750 57 750 C57 750 57 730 57 730 C57 730 87 730 87 730 C137 730 162 726 162 670 C162 670 162 80 162 80 C162 24 137 20 87 20 C87 20 57 20 57 20 C57 20 57 0 57 0 C57 0 323 0 323 0 C323 0 323 20 323 20 C323 20 293 20 293 20 C243 20 218 24 218 80 C218 80 218 670 218 670 C218 726 243 730 293 730 C293 730 323 730 323 730 C323 730 323 750 323 750 L323 750 Z " />
<glyph glyph-name="dotlessi" unicode="&#x131;" horiz-adv-x="283" d="M44 0 C44 0 257 0 257 0 C257 0 257 20 257 20 C257 20 227 20 227 20 C192 20 174 21 174 35 C174 35 174 390 174 390 C174 390 174 500 174 500 C174 500 165 500 165 500 C165 500 42 445 42 445 C42 445 42 435 42 435 C118 439 124 437 124 390 C124 390 124 35 124 35 C124 21 107 20 74 20 C74 20 44 20 44 20 C44 20 44 0 44 0 L44 0 Z " />
<glyph glyph-name="Jcircumflex" unicode="&#x134;" horiz-adv-x="362" d="M323 750 C323 750 57 750 57 750 C57 750 57 730 57 730 C57 730 87 730 87 730 C137 730 162 726 162 670 C162 670 162 -31 162 -31 C162 -188 103 -200 51 -200 C20 -200 38 -153 7 -153 C-11 -153 -20 -162 -20 -180 C-20 -206 -1 -220 37 -220 C121 -220 218 -199 218 75 C218 75 218 670 218 670 C218 726 243 730 293 730 C293 730 323 730 323 730 C323 730 323 750 323 750 L323 750 Z M190 977 C190 977 332 808 332 808 C332 808 339 813 339 813 C339 813 208 1015 208 1015 C204 1021 196 1033 190 1033 C184 1033 176 1021 172 1015 C172 1015 41 813 41 813 C41 813 48 808 48 808 C48 808 190 977 190 977 L190 977 Z " />
<glyph glyph-name="Lacute" unicode="&#x139;" horiz-adv-x="627" d="M197 813 C197 813 336 936 336 936 C382 978 406 1000 406 1005 C406 1019 396 1029 381 1029 C377 1029 355 1006 313 959 C313 959 190 820 190 820 C190 820 197 813 197 813 L197 813 Z M553 10 C553 10 553 10 553 10 C568 64 583 117 596 171 C592 172 579 174 577 175 C577 175 569 145 569 145 C545 55 522 10 368 10 C368 10 298 10 298 10 C218 10 218 33 218 80 C218 80 218 85 218 85 C218 85 218 665 218 665 C218 725 243 730 293 730 C293 730 323 730 323 730 C323 730 323 750 323 750 C323 750 218 750 218 750 C218 750 162 750 162 750 C162 750 57 750 57 750 C57 750 57 730 57 730 C57 730 87 730 87 730 C137 730 162 725 162 665 C162 665 162 85 162 85 C162 25 137 20 87 20 C87 20 57 20 57 20 C57 20 57 0 57 0 C57 0 162 0 162 0 C162 0 218 0 218 0 C218 0 365 0 365 0 C365 0 550 0 550 0 C550 0 553 10 553 10 L553 10 Z " />
<glyph glyph-name="Lcaron" unicode="&#x13d;" horiz-adv-x="627" d="M553 10 C553 10 553 10 553 10 C568 64 583 117 596 171 C592 172 579 174 577 175 C577 175 569 145 569 145 C545 55 522 10 368 10 C368 10 298 10 298 10 C218 10 218 33 218 80 C218 80 218 85 218 85 C218 85 218 665 218 665 C218 725 243 730 293 730 C293 730 323 730 323 730 C323 730 323 750 323 750 C323 750 218 750 218 750 C218 750 162 750 162 750 C162 750 57 750 57 750 C57 750 57 730 57 730 C57 730 87 730 87 730 C137 730 162 725 162 665 C162 665 162 85 162 85 C162 25 137 20 87 20 C87 20 57 20 57 20 C57 20 57 0 57 0 C57 0 162 0 162 0 C162 0 218 0 218 0 C218 0 365 0 365 0 C365 0 550 0 550 0 C550 0 553 10 553 10 L553 10 Z M404 697 C419 745 426 780 426 801 C426 807 418 809 403 809 C392 809 384 752 378 702 C378 702 366 591 366 591 C366 591 374 590 374 590 C374 590 404 697 404 697 L404 697 Z " />
<glyph glyph-name="lcaron" unicode="&#x13e;" horiz-adv-x="283" d="M39 694 C39 694 69 702 69 702 C105 713 124 713 124 638 C124 638 124 35 124 35 C124 21 107 20 74 20 C74 20 44 20 44 20 C44 20 44 0 44 0 C44 0 254 0 254 0 C254 0 254 20 254 20 C254 20 224 20 224 20 C191 20 174 21 174 35 C174 35 174 650 174 650 C174 650 174 750 174 750 C174 750 165 750 165 750 C165 750 39 714 39 714 C39 714 39 694 39 694 L39 694 Z M260 647 C274 695 281 730 281 751 C281 757 274 759 259 759 C247 759 239 702 234 652 C234 652 221 541 221 541 C221 541 230 540 230 540 C230 540 260 647 260 647 L260 647 Z " />
<glyph glyph-name="Nacute" unicode="&#x143;" horiz-adv-x="765" d="M287 813 C287 813 426 936 426 936 C473 978 496 1000 496 1005 C496 1019 486 1029 471 1029 C467 1029 445 1006 403 959 C403 959 281 820 281 820 C281 820 287 813 287 813 L287 813 Z M48 730 C48 730 85 730 85 730 C102 730 113 728 130 704 C130 704 135 697 135 697 C135 696 136 696 136 695 C136 695 136 695 136 695 C136 695 142 686 142 686 C142 686 141 150 141 150 C141 150 141 150 141 150 C141 29 109 20 46 20 C46 20 16 20 16 20 C16 20 16 0 16 0 C16 0 141 0 141 0 C141 0 158 0 158 0 C158 0 283 0 283 0 C283 0 283 20 283 20 C283 20 253 20 253 20 C194 20 162 27 158 117 C158 117 155 666 155 666 C155 666 551 79 551 79 C551 79 605 0 605 0 C605 0 616 0 616 0 C616 0 619 648 619 648 C624 724 655 730 714 730 C714 730 744 730 744 730 C744 730 744 750 744 750 C744 750 620 750 620 750 C620 750 603 750 603 750 C603 750 479 750 479 750 C479 750 479 730 479 730 C479 730 509 730 509 730 C566 730 598 724 603 649 C603 649 605 100 605 100 C605 100 598 110 598 110 C598 110 169 750 169 750 C169 750 155 750 155 750 C155 750 142 750 142 750 C142 750 99 750 99 750 C99 750 48 750 48 750 C48 750 48 730 48 730 L48 730 Z " />
<glyph glyph-name="Ncaron" unicode="&#x147;" horiz-adv-x="765" d="M48 730 C48 730 85 730 85 730 C102 730 113 728 130 704 C130 704 135 697 135 697 C135 696 136 696 136 695 C136 695 136 695 136 695 C136 695 142 686 142 686 C142 686 141 150 141 150 C141 150 141 150 141 150 C141 29 109 20 46 20 C46 20 16 20 16 20 C16 20 16 0 16 0 C16 0 141 0 141 0 C141 0 158 0 158 0 C158 0 283 0 283 0 C283 0 283 20 283 20 C283 20 253 20 253 20 C194 20 162 27 158 117 C158 117 155 666 155 666 C155 666 551 79 551 79 C551 79 605 0 605 0 C605 0 616 0 616 0 C616 0 619 648 619 648 C624 724 655 730 714 730 C714 730 744 730 744 730 C744 730 744 750 744 750 C744 750 620 750 620 750 C620 750 603 750 603 750 C603 750 479 750 479 750 C479 750 479 730 479 730 C479 730 509 730 509 730 C566 730 598 724 603 649 C603 649 605 100 605 100 C605 100 598 110 598 110 C598 110 169 750 169 750 C169 750 155 750 155 750 C155 750 142 750 142 750 C142 750 99 750 99 750 C99 750 48 750 48 750 C48 750 48 730 48 730 L48 730 Z M381 873 C381 873 523 1042 523 1042 C523 1042 530 1037 530 1037 C530 1037 398 835 398 835 C394 829 386 817 380 817 C374 817 367 829 363 835 C363 835 231 1037 231 1037 C231 1037 238 1042 238 1042 C238 1042 381 873 381 873 L381 873 Z " />
<glyph glyph-name="ncaron" unicode="&#x148;" horiz-adv-x="574" d="M33 434 C33 434 63 445 63 445 C99 458 118 460 118 385 C118 385 118 35 118 35 C118 21 101 20 68 20 C68 20 38 20 38 20 C38 20 38 0 38 0 C38 0 248 0 248 0 C248 0 248 20 248 20 C248 20 218 20 218 20 C185 20 168 21 168 35 C168 35 168 362 168 362 C210 436 255 473 301 473 C384 473 414 437 414 365 C414 365 414 35 414 35 C414 21 397 20 364 20 C364 20 334 20 334 20 C334 20 334 0 334 0 C334 0 544 0 544 0 C544 0 544 20 544 20 C544 20 514 20 514 20 C481 20 464 21 464 35 C464 35 464 365 464 365 C464 461 428 510 331 510 C274 510 219 465 168 376 C168 376 168 400 168 400 C168 400 168 500 168 500 C168 500 159 500 159 500 C159 500 33 454 33 454 C33 454 33 434 33 434 L33 434 Z M291 623 C291 623 433 792 433 792 C433 792 440 787 440 787 C440 787 308 585 308 585 C305 579 297 567 291 567 C285 567 277 579 273 585 C273 585 142 787 142 787 C142 787 148 792 148 792 C148 792 291 623 291 623 L291 623 Z " />
<glyph glyph-name="Omacron" unicode="&#x14c;" horiz-adv-x="805" d="M251 901 C251 901 551 901 551 901 C551 901 551 936 551 936 C551 936 251 936 251 936 C251 936 251 901 251 901 L251 901 Z M394 5 C215 5 125 129 125 375 C125 621 217 745 398 745 C590 745 687 621 687 375 C687 129 589 5 394 5 L394 5 Z M61 375 C61 119 172 -10 391 -10 C630 -10 751 119 751 375 C751 631 634 760 401 760 C175 760 61 631 61 375 L61 375 Z " />
<glyph glyph-name="omacron" unicode="&#x14d;" horiz-adv-x="609" d="M157 651 C157 651 457 651 457 651 C457 651 457 686 457 686 C457 686 157 686 157 686 C157 686 157 651 157 651 L157 651 Z M307 5 C173 5 105 87 105 250 C105 413 173 495 307 495 C441 495 509 413 509 250 C509 87 441 5 307 5 L307 5 Z M50 250 C50 77 136 -10 307 -10 C478 -10 564 77 564 250 C564 423 478 510 307 510 C136 510 50 423 50 250 L50 250 Z " />
<glyph glyph-name="Obreve" unicode="&#x14e;" horiz-adv-x="805" d="M277 995 C280 924 322 889 401 889 C480 889 522 924 525 994 C525 994 515 995 515 995 C512 948 474 924 401 924 C328 924 290 948 287 996 C287 996 277 995 277 995 L277 995 Z M394 5 C215 5 125 129 125 375 C125 621 217 745 398 745 C590 745 687 621 687 375 C687 129 589 5 394 5 L394 5 Z M61 375 C61 119 172 -10 391 -10 C630 -10 751 119 751 375 C751 631 634 760 401 760 C175 760 61 631 61 375 L61 375 Z " />
<glyph glyph-name="obreve" unicode="&#x14f;" horiz-adv-x="609" d="M183 745 C186 674 228 639 307 639 C386 639 428 674 431 744 C431 744 421 745 421 745 C418 698 380 674 307 674 C234 674 196 698 193 746 C193 746 183 745 183 745 L183 745 Z M307 5 C173 5 105 87 105 250 C105 413 173 495 307 495 C441 495 509 413 509 250 C509 87 441 5 307 5 L307 5 Z M50 250 C50 77 136 -10 307 -10 C478 -10 564 77 564 250 C564 423 478 510 307 510 C136 510 50 423 50 250 L50 250 Z " />
<glyph glyph-name="Racute" unicode="&#x154;" horiz-adv-x="715" d="M336 813 C336 813 476 936 476 936 C522 978 546 1000 546 1005 C546 1019 536 1029 521 1029 C517 1029 495 1006 453 959 C453 959 330 820 330 820 C330 820 336 813 336 813 L336 813 Z M51 730 C51 730 81 730 81 730 C131 730 156 725 156 665 C156 665 156 85 156 85 C156 25 131 20 81 20 C81 20 51 20 51 20 C51 20 51 0 51 0 C51 0 317 0 317 0 C317 0 317 20 317 20 C317 20 287 20 287 20 C237 20 212 25 212 85 C212 85 212 366 212 366 C212 366 351 366 351 366 C363 338 416 243 510 80 C560 -5 548 0 705 0 C705 0 705 11 705 11 C609 11 617 7 576 80 C484 237 428 334 408 369 C512 379 565 425 565 540 C565 680 494 750 354 750 C354 750 212 750 212 750 C212 750 51 750 51 750 C51 750 51 730 51 730 L51 730 Z M212 739 C212 739 337 739 337 739 C448 739 504 676 504 551 C504 420 454 380 354 380 C354 380 212 380 212 380 C212 380 212 665 212 665 C212 665 212 739 212 739 L212 739 Z " />
<glyph glyph-name="Rcaron" unicode="&#x158;" horiz-adv-x="715" d="M51 730 C51 730 81 730 81 730 C131 730 156 725 156 665 C156 665 156 85 156 85 C156 25 131 20 81 20 C81 20 51 20 51 20 C51 20 51 0 51 0 C51 0 317 0 317 0 C317 0 317 20 317 20 C317 20 287 20 287 20 C237 20 212 25 212 85 C212 85 212 366 212 366 C212 366 351 366 351 366 C363 338 416 243 510 80 C560 -5 548 0 705 0 C705 0 705 11 705 11 C609 11 617 7 576 80 C484 237 428 334 408 369 C512 379 565 425 565 540 C565 680 494 750 354 750 C354 750 212 750 212 750 C212 750 51 750 51 750 C51 750 51 730 51 730 L51 730 Z M330 873 C330 873 472 1042 472 1042 C472 1042 479 1037 479 1037 C479 1037 348 835 348 835 C344 829 336 817 330 817 C324 817 316 829 312 835 C312 835 181 1037 181 1037 C181 1037 188 1042 188 1042 C188 1042 330 873 330 873 L330 873 Z M212 739 C212 739 337 739 337 739 C448 739 504 676 504 551 C504 420 454 380 354 380 C354 380 212 380 212 380 C212 380 212 665 212 665 C212 665 212 739 212 739 L212 739 Z " />
<glyph glyph-name="rcaron" unicode="&#x159;" horiz-adv-x="392" d="M39 434 C39 434 69 445 69 445 C105 458 124 460 124 385 C124 385 124 35 124 35 C124 21 109 20 79 20 C79 20 49 20 49 20 C49 20 49 0 49 0 C49 0 259 0 259 0 C259 0 259 20 259 20 C259 20 229 20 229 20 C192 20 174 21 174 35 C174 35 174 365 174 365 C198 446 239 487 295 487 C314 487 324 475 324 452 C324 432 334 422 353 422 C373 422 383 432 383 452 C383 490 361 510 319 510 C247 510 199 470 174 392 C174 392 174 400 174 400 C174 400 174 500 174 500 C174 500 165 500 165 500 C165 500 39 454 39 454 C39 454 39 434 39 434 L39 434 Z M249 623 C249 623 391 792 391 792 C391 792 398 787 398 787 C398 787 266 585 266 585 C263 579 255 567 249 567 C243 567 235 579 231 585 C231 585 100 787 100 787 C100 787 106 792 106 792 C106 792 249 623 249 623 L249 623 Z " />
<glyph glyph-name="Sacute" unicode="&#x15a;" horiz-adv-x="545" d="M280 813 C280 813 420 936 420 936 C466 978 490 1000 490 1005 C490 1019 480 1029 465 1029 C461 1029 439 1006 397 959 C397 959 274 820 274 820 C274 820 280 813 280 813 L280 813 Z M462 549 C462 549 462 642 462 642 C462 642 462 757 462 757 C462 757 447 757 447 757 C447 757 445 747 442 728 C439 711 423 703 396 721 C396 721 396 721 396 721 C357 747 307 760 246 760 C131 760 73 699 73 577 C73 489 130 418 285 346 C413 286 460 231 460 165 C460 61 407 8 301 8 C254 8 212 18 176 37 C129 66 89 148 73 219 C70 234 68 241 68 241 C68 241 53 241 53 241 C53 241 53 148 53 148 C53 148 53 3 53 3 C53 3 68 3 68 3 C68 3 70 15 73 39 C76 61 100 67 141 37 C141 37 141 37 141 37 C185 6 238 -10 301 -10 C437 -10 505 54 505 181 C505 271 455 340 318 404 C171 473 117 532 117 598 C117 696 160 746 246 746 C264 746 280 745 296 742 C296 742 293 743 293 743 C295 743 298 742 300 742 C309 740 317 738 326 736 C326 736 307 740 307 740 C374 721 425 644 442 571 C445 556 447 549 447 549 C447 549 462 549 462 549 L462 549 Z M307 740 C307 740 296 742 296 742 C297 742 299 742 300 742 C302 741 305 741 307 740 C307 740 307 740 307 740 L307 740 Z " />
<glyph glyph-name="Scircumflex" unicode="&#x15c;" horiz-adv-x="545" d="M462 549 C462 549 462 642 462 642 C462 642 462 757 462 757 C462 757 447 757 447 757 C447 757 445 747 442 728 C439 711 423 703 396 721 C396 721 396 721 396 721 C357 747 307 760 246 760 C131 760 73 699 73 577 C73 489 130 418 285 346 C413 286 460 231 460 165 C460 61 407 8 301 8 C254 8 212 18 176 37 C129 66 89 148 73 219 C70 234 68 241 68 241 C68 241 53 241 53 241 C53 241 53 148 53 148 C53 148 53 3 53 3 C53 3 68 3 68 3 C68 3 70 15 73 39 C76 61 100 67 141 37 C141 37 141 37 141 37 C185 6 238 -10 301 -10 C437 -10 505 54 505 181 C505 271 455 340 318 404 C171 473 117 532 117 598 C117 696 160 746 246 746 C264 746 280 745 296 742 C296 742 293 743 293 743 C295 743 298 742 300 742 C309 740 317 738 326 736 C326 736 307 740 307 740 C374 721 425 644 442 571 C445 556 447 549 447 549 C447 549 462 549 462 549 L462 549 Z M274 977 C274 977 416 808 416 808 C416 808 423 813 423 813 C423 813 292 1015 292 1015 C288 1021 280 1033 274 1033 C268 1033 260 1021 256 1015 C256 1015 125 813 125 813 C125 813 132 808 132 808 C132 808 274 977 274 977 L274 977 Z M307 740 C307 740 296 742 296 742 C297 742 299 742 300 742 C302 741 305 741 307 740 C307 740 307 740 307 740 L307 740 Z " />
<glyph glyph-name="Scaron" unicode="&#x160;" horiz-adv-x="545" d="M462 549 C462 549 462 642 462 642 C462 642 462 757 462 757 C462 757 447 757 447 757 C447 757 445 747 442 728 C439 711 423 703 396 721 C396 721 396 721 396 721 C357 747 307 760 246 760 C131 760 73 699 73 577 C73 489 130 418 285 346 C413 286 460 231 460 165 C460 61 407 8 301 8 C254 8 212 18 176 37 C129 66 89 148 73 219 C70 234 68 241 68 241 C68 241 53 241 53 241 C53 241 53 148 53 148 C53 148 53 3 53 3 C53 3 68 3 68 3 C68 3 70 15 73 39 C76 61 100 67 141 37 C141 37 141 37 141 37 C185 6 238 -10 301 -10 C437 -10 505 54 505 181 C505 271 455 340 318 404 C171 473 117 532 117 598 C117 696 160 746 246 746 C264 746 280 745 296 742 C296 742 293 743 293 743 C295 743 298 742 300 742 C309 740 317 738 326 736 C326 736 307 740 307 740 C374 721 425 644 442 571 C445 556 447 549 447 549 C447 549 462 549 462 549 L462 549 Z M274 873 C274 873 416 1042 416 1042 C416 1042 423 1037 423 1037 C423 1037 292 835 292 835 C288 829 280 817 274 817 C268 817 260 829 256 835 C256 835 125 1037 125 1037 C125 1037 132 1042 132 1042 C132 1042 274 873 274 873 L274 873 Z M307 740 C307 740 296 742 296 742 C297 742 299 742 300 742 C302 741 305 741 307 740 C307 740 307 740 307 740 L307 740 Z " />
<glyph glyph-name="scaron" unicode="&#x161;" horiz-adv-x="435" d="M358 353 C358 353 358 425 358 425 C358 425 358 510 358 510 C358 510 338 510 338 510 C338 510 338 481 338 481 C338 478 321 482 286 495 C263 505 237 510 206 510 C120 510 76 469 76 389 C76 320 117 271 228 231 C315 200 347 161 347 107 C347 37 311 2 239 2 C226 2 214 3 203 5 C130 20 94 88 94 150 C94 150 94 166 94 166 C94 166 74 166 74 166 C74 166 74 95 74 95 C74 95 74 10 74 10 C74 10 94 10 94 10 C94 10 94 31 94 31 C94 29 116 21 160 5 C183 -5 209 -10 239 -10 C336 -10 385 34 385 121 C385 187 349 233 250 269 C149 306 112 349 112 406 C112 467 143 498 206 498 C209 498 212 498 215 498 C215 498 206 498 206 498 C210 498 214 498 218 498 C218 498 215 498 215 498 C297 494 338 432 338 370 C338 370 338 353 338 353 C338 353 358 353 358 353 L358 353 Z M239 623 C239 623 382 792 382 792 C382 792 388 787 388 787 C388 787 257 585 257 585 C253 579 245 567 239 567 C233 567 226 579 222 585 C222 585 90 787 90 787 C90 787 97 792 97 792 C97 792 239 623 239 623 L239 623 Z " />
<glyph glyph-name="Tcaron" unicode="&#x164;" horiz-adv-x="775" d="M757 633 C745 667 732 702 720 736 C720 736 720 736 720 736 C720 736 720 750 720 750 C720 750 715 750 715 750 C710 763 706 776 701 789 C701 789 697 789 691 790 C691 790 680 790 680 790 C680 790 685 777 685 777 C692 759 688 750 595 750 C595 750 415 750 415 750 C415 750 360 750 360 750 C360 750 180 750 180 750 C87 750 83 759 90 777 C90 777 95 790 95 790 C95 790 84 790 84 790 C78 789 74 789 74 789 C69 776 65 763 60 750 C60 750 55 750 55 750 C55 750 55 736 55 736 C55 736 55 736 55 736 C43 702 30 667 18 633 C22 632 35 631 37 631 C37 631 48 661 48 661 C66 711 82 736 175 736 C175 736 360 736 360 736 C360 736 360 80 360 80 C360 24 335 20 285 20 C285 20 255 20 255 20 C255 20 255 0 255 0 C255 0 520 0 520 0 C520 0 520 20 520 20 C520 20 490 20 490 20 C440 20 415 24 415 80 C415 80 415 736 415 736 C415 736 600 736 600 736 C693 736 709 711 727 661 C727 661 738 631 738 631 C742 632 755 633 757 633 L757 633 Z M388 873 C388 873 530 1042 530 1042 C530 1042 537 1037 537 1037 C537 1037 405 835 405 835 C401 829 394 817 388 817 C381 817 374 829 370 835 C370 835 238 1037 238 1037 C238 1037 245 1042 245 1042 C245 1042 388 873 388 873 L388 873 Z " />
<glyph glyph-name="tcaron" unicode="&#x165;" horiz-adv-x="339" d="M299 500 C299 500 145 500 145 500 C145 500 145 620 145 620 C145 620 141 620 141 620 C141 620 30 500 30 500 C30 500 30 490 30 490 C30 490 95 490 95 490 C95 490 95 129 95 129 C95 18 134 -10 212 -10 C257 -10 297 16 329 68 C329 68 324 71 324 71 C299 33 267 14 227 14 C171 14 143 35 144 118 C144 118 145 474 145 474 C145 474 299 474 299 474 C299 474 299 500 299 500 L299 500 Z M386 647 C400 695 407 730 407 751 C407 757 399 759 384 759 C373 759 365 702 360 652 C360 652 347 541 347 541 C347 541 356 540 356 540 C356 540 386 647 386 647 L386 647 Z " />
<glyph glyph-name="Utilde" unicode="&#x168;" horiz-adv-x="693" d="M208 870 C208 914 223 936 253 936 C321 936 365 871 432 871 C478 871 501 903 501 966 C501 966 492 966 492 966 C492 926 476 906 444 906 C376 906 332 971 265 971 C221 971 199 937 199 870 C199 870 208 870 208 870 L208 870 Z M418 730 C418 730 448 730 448 730 C498 730 523 725 523 665 C523 665 523 175 523 175 C477 76 398 26 286 26 C214 26 177 91 177 220 C177 220 177 665 177 665 C177 665 177 750 177 750 C177 750 16 750 16 750 C16 750 16 730 16 730 C16 730 46 730 46 730 C96 730 121 725 121 665 C121 665 121 220 121 220 C121 67 169 -10 263 -10 C386 -10 473 44 523 150 C523 150 523 110 523 110 C523 110 523 0 523 0 C523 0 532 0 532 0 C532 0 683 55 683 55 C683 55 683 65 683 65 C586 60 579 62 579 110 C579 110 579 665 579 665 C579 665 579 750 579 750 C579 750 418 750 418 750 C418 750 418 730 418 730 L418 730 Z " />
<glyph glyph-name="utilde" unicode="&#x169;" horiz-adv-x="553" d="M133 620 C133 664 148 686 178 686 C245 686 290 621 357 621 C402 621 425 653 425 716 C425 716 417 716 417 716 C417 676 401 656 369 656 C301 656 257 721 189 721 C146 721 124 687 124 620 C124 620 133 620 133 620 L133 620 Z M533 41 C533 41 503 34 503 34 C466 25 448 26 448 100 C448 100 448 465 448 465 C448 465 448 500 448 500 C448 500 332 500 332 500 C332 500 332 480 332 480 C332 480 362 480 362 480 C386 480 398 479 398 465 C398 465 398 136 398 136 C367 62 319 25 253 25 C186 25 152 70 152 160 C152 160 152 465 152 465 C152 465 152 500 152 500 C152 500 35 500 35 500 C35 500 35 480 35 480 C35 480 65 480 65 480 C90 480 102 479 102 465 C102 465 102 160 102 160 C102 47 145 -10 230 -10 C306 -10 362 34 398 120 C398 120 398 90 398 90 C398 90 398 -10 398 -10 C398 -10 407 -10 407 -10 C407 -10 533 21 533 21 C533 21 533 41 533 41 L533 41 Z " />
<glyph glyph-name="Umacron" unicode="&#x16a;" horiz-adv-x="693" d="M200 901 C200 901 500 901 500 901 C500 901 500 936 500 936 C500 936 200 936 200 936 C200 936 200 901 200 901 L200 901 Z M418 730 C418 730 448 730 448 730 C498 730 523 725 523 665 C523 665 523 175 523 175 C477 76 398 26 286 26 C214 26 177 91 177 220 C177 220 177 665 177 665 C177 665 177 750 177 750 C177 750 16 750 16 750 C16 750 16 730 16 730 C16 730 46 730 46 730 C96 730 121 725 121 665 C121 665 121 220 121 220 C121 67 169 -10 263 -10 C386 -10 473 44 523 150 C523 150 523 110 523 110 C523 110 523 0 523 0 C523 0 532 0 532 0 C532 0 683 55 683 55 C683 55 683 65 683 65 C586 60 579 62 579 110 C579 110 579 665 579 665 C579 665 579 750 579 750 C579 750 418 750 418 750 C418 750 418 730 418 730 L418 730 Z " />
<glyph glyph-name="umacron" unicode="&#x16b;" horiz-adv-x="553" d="M125 651 C125 651 425 651 425 651 C425 651 425 686 425 686 C425 686 125 686 125 686 C125 686 125 651 125 651 L125 651 Z M533 41 C533 41 503 34 503 34 C466 25 448 26 448 100 C448 100 448 465 448 465 C448 465 448 500 448 500 C448 500 332 500 332 500 C332 500 332 480 332 480 C332 480 362 480 362 480 C386 480 398 479 398 465 C398 465 398 136 398 136 C367 62 319 25 253 25 C186 25 152 70 152 160 C152 160 152 465 152 465 C152 465 152 500 152 500 C152 500 35 500 35 500 C35 500 35 480 35 480 C35 480 65 480 65 480 C90 480 102 479 102 465 C102 465 102 160 102 160 C102 47 145 -10 230 -10 C306 -10 362 34 398 120 C398 120 398 90 398 90 C398 90 398 -10 398 -10 C398 -10 407 -10 407 -10 C407 -10 533 21 533 21 C533 21 533 41 533 41 L533 41 Z " />
<glyph glyph-name="Ubreve" unicode="&#x16c;" horiz-adv-x="693" d="M226 995 C229 924 271 889 350 889 C429 889 471 924 474 994 C474 994 464 995 464 995 C461 948 423 924 350 924 C277 924 239 948 236 996 C236 996 226 995 226 995 L226 995 Z M418 730 C418 730 448 730 448 730 C498 730 523 725 523 665 C523 665 523 175 523 175 C477 76 398 26 286 26 C214 26 177 91 177 220 C177 220 177 665 177 665 C177 665 177 750 177 750 C177 750 16 750 16 750 C16 750 16 730 16 730 C16 730 46 730 46 730 C96 730 121 725 121 665 C121 665 121 220 121 220 C121 67 169 -10 263 -10 C386 -10 473 44 523 150 C523 150 523 110 523 110 C523 110 523 0 523 0 C523 0 532 0 532 0 C532 0 683 55 683 55 C683 55 683 65 683 65 C586 60 579 62 579 110 C579 110 579 665 579 665 C579 665 579 750 579 750 C579 750 418 750 418 750 C418 750 418 730 418 730 L418 730 Z " />
<glyph glyph-name="ubreve" unicode="&#x16d;" horiz-adv-x="553" d="M150 745 C154 674 196 639 275 639 C354 639 396 674 399 744 C399 744 389 745 389 745 C386 698 348 674 275 674 C202 674 164 698 161 746 C161 746 150 745 150 745 L150 745 Z M533 41 C533 41 503 34 503 34 C466 25 448 26 448 100 C448 100 448 465 448 465 C448 465 448 500 448 500 C448 500 332 500 332 500 C332 500 332 480 332 480 C332 480 362 480 362 480 C386 480 398 479 398 465 C398 465 398 136 398 136 C367 62 319 25 253 25 C186 25 152 70 152 160 C152 160 152 465 152 465 C152 465 152 500 152 500 C152 500 35 500 35 500 C35 500 35 480 35 480 C35 480 65 480 65 480 C90 480 102 479 102 465 C102 465 102 160 102 160 C102 47 145 -10 230 -10 C306 -10 362 34 398 120 C398 120 398 90 398 90 C398 90 398 -10 398 -10 C398 -10 407 -10 407 -10 C407 -10 533 21 533 21 C533 21 533 41 533 41 L533 41 Z " />
<glyph glyph-name="Uring" unicode="&#x16e;" horiz-adv-x="693" d="M350 822 C301 822 268 855 268 905 C268 960 295 988 350 988 C404 988 432 960 432 905 C432 855 399 822 350 822 L350 822 Z M253 905 C253 848 292 810 350 810 C407 810 446 848 446 905 C446 968 414 1000 350 1000 C286 1000 253 968 253 905 L253 905 Z M418 730 C418 730 448 730 448 730 C498 730 523 725 523 665 C523 665 523 175 523 175 C477 76 398 26 286 26 C214 26 177 91 177 220 C177 220 177 665 177 665 C177 665 177 750 177 750 C177 750 16 750 16 750 C16 750 16 730 16 730 C16 730 46 730 46 730 C96 730 121 725 121 665 C121 665 121 220 121 220 C121 67 169 -10 263 -10 C386 -10 473 44 523 150 C523 150 523 110 523 110 C523 110 523 0 523 0 C523 0 532 0 532 0 C532 0 683 55 683 55 C683 55 683 65 683 65 C586 60 579 62 579 110 C579 110 579 665 579 665 C579 665 579 750 579 750 C579 750 418 750 418 750 C418 750 418 730 418 730 L418 730 Z " />
<glyph glyph-name="uring" unicode="&#x16f;" horiz-adv-x="553" d="M275 572 C226 572 193 605 193 655 C193 710 220 738 275 738 C329 738 357 710 357 655 C357 605 324 572 275 572 L275 572 Z M178 655 C178 598 217 560 275 560 C332 560 371 598 371 655 C371 718 339 750 275 750 C210 750 178 718 178 655 L178 655 Z M533 41 C533 41 503 34 503 34 C466 25 448 26 448 100 C448 100 448 465 448 465 C448 465 448 500 448 500 C448 500 332 500 332 500 C332 500 332 480 332 480 C332 480 362 480 362 480 C386 480 398 479 398 465 C398 465 398 136 398 136 C367 62 319 25 253 25 C186 25 152 70 152 160 C152 160 152 465 152 465 C152 465 152 500 152 500 C152 500 35 500 35 500 C35 500 35 480 35 480 C35 480 65 480 65 480 C90 480 102 479 102 465 C102 465 102 160 102 160 C102 47 145 -10 230 -10 C306 -10 362 34 398 120 C398 120 398 90 398 90 C398 90 398 -10 398 -10 C398 -10 407 -10 407 -10 C407 -10 533 21 533 21 C533 21 533 41 533 41 L533 41 Z " />
<glyph glyph-name="Wcircumflex" unicode="&#x174;" horiz-adv-x="1060" d="M1044 750 C1044 750 955 750 955 750 C955 750 932 750 932 750 C932 750 767 750 767 750 C767 750 767 730 767 730 C767 730 792 730 792 730 C875 730 918 723 898 634 C898 634 738 82 738 82 C738 82 565 652 565 652 C547 725 584 730 657 730 C657 730 681 730 681 730 C681 730 681 750 681 750 C681 750 536 750 536 750 C536 750 471 750 471 750 C471 750 383 750 383 750 C383 750 383 730 383 730 C383 730 413 730 413 730 C454 730 477 727 488 695 C509 630 530 565 550 500 C550 500 550 500 550 500 C550 500 365 71 365 71 C365 71 187 621 187 621 C158 723 194 730 267 730 C267 730 291 730 291 730 C291 730 291 750 291 750 C291 750 146 750 146 750 C146 750 85 750 85 750 C85 750 26 750 26 750 C26 750 26 730 26 730 C26 730 63 730 63 730 C82 730 94 722 130 610 C130 610 130 610 130 610 C197 403 264 197 330 -10 C330 -10 345 -10 345 -10 C345 -10 558 474 558 474 C610 313 661 152 711 -10 C711 -10 726 -10 726 -10 C726 -10 913 610 913 610 C913 610 913 610 913 610 C946 722 970 730 1014 730 C1014 730 1044 730 1044 730 C1044 730 1044 750 1044 750 L1044 750 Z M520 977 C520 977 662 808 662 808 C662 808 669 813 669 813 C669 813 538 1015 538 1015 C534 1021 526 1033 520 1033 C514 1033 506 1021 502 1015 C502 1015 371 813 371 813 C371 813 378 808 378 808 C378 808 520 977 520 977 L520 977 Z " />
<glyph glyph-name="Ycircumflex" unicode="&#x176;" horiz-adv-x="707" d="M249 750 C249 750 144 750 144 750 C144 750 79 750 79 750 C79 750 26 750 26 750 C26 750 26 730 26 730 C26 730 63 730 63 730 C80 730 93 723 147 636 C147 636 331 329 331 329 C331 329 331 80 331 80 C331 24 306 20 256 20 C256 20 226 20 226 20 C226 20 226 0 226 0 C226 0 492 0 492 0 C492 0 492 20 492 20 C492 20 462 20 462 20 C412 20 387 24 387 80 C387 80 387 331 387 331 C387 331 551 631 551 631 C604 723 626 730 661 730 C661 730 691 730 691 730 C691 730 691 750 691 750 C691 750 617 750 617 750 C617 750 589 750 589 750 C589 750 484 750 484 750 C484 750 484 730 484 730 C484 730 510 730 510 730 C551 730 571 724 543 661 C543 661 381 350 381 350 C381 350 227 610 227 610 C227 610 227 610 227 610 C160 722 178 730 225 730 C225 730 249 730 249 730 C249 730 249 750 249 750 L249 750 Z M359 977 C359 977 501 808 501 808 C501 808 508 813 508 813 C508 813 377 1015 377 1015 C373 1021 365 1033 359 1033 C353 1033 345 1021 342 1015 C342 1015 210 813 210 813 C210 813 217 808 217 808 C217 808 359 977 359 977 L359 977 Z " />
<glyph glyph-name="Ydieresis" unicode="&#x178;" horiz-adv-x="707" d="M428 865 C449 865 460 876 460 897 C460 919 449 930 428 930 C407 930 396 919 396 897 C396 876 407 865 428 865 L428 865 Z M290 865 C312 865 323 876 323 897 C323 919 312 930 290 930 C269 930 258 919 258 897 C258 876 269 865 290 865 L290 865 Z M249 750 C249 750 144 750 144 750 C144 750 79 750 79 750 C79 750 26 750 26 750 C26 750 26 730 26 730 C26 730 63 730 63 730 C80 730 93 723 147 636 C147 636 331 329 331 329 C331 329 331 80 331 80 C331 24 306 20 256 20 C256 20 226 20 226 20 C226 20 226 0 226 0 C226 0 492 0 492 0 C492 0 492 20 492 20 C492 20 462 20 462 20 C412 20 387 24 387 80 C387 80 387 331 387 331 C387 331 551 631 551 631 C604 723 626 730 661 730 C661 730 691 730 691 730 C691 730 691 750 691 750 C691 750 617 750 617 750 C617 750 589 750 589 750 C589 750 484 750 484 750 C484 750 484 730 484 730 C484 730 510 730 510 730 C551 730 571 724 543 661 C543 661 381 350 381 350 C381 350 227 610 227 610 C227 610 227 610 227 610 C160 722 178 730 225 730 C225 730 249 730 249 730 C249 730 249 750 249 750 L249 750 Z " />
<glyph glyph-name="Zacute" unicode="&#x179;" horiz-adv-x="652" d="M347 813 C347 813 486 936 486 936 C532 978 556 1000 556 1005 C556 1019 546 1029 531 1029 C527 1029 505 1006 463 959 C463 959 340 820 340 820 C340 820 347 813 347 813 L347 813 Z M629 171 C629 171 612 127 612 127 C585 59 564 22 474 17 C474 17 95 13 95 13 C95 13 610 738 610 738 C610 738 610 750 610 750 C610 750 555 750 555 750 C555 750 240 750 240 750 C240 750 70 750 70 750 C62 690 54 629 44 568 C47 568 60 568 70 565 C70 565 76 595 76 595 C95 688 114 735 238 735 C238 735 238 735 238 735 C238 735 546 738 546 738 C546 738 25 12 25 12 C25 12 25 0 25 0 C25 0 86 0 86 0 C86 0 446 0 446 0 C446 0 606 0 606 0 C606 0 648 168 648 168 C646 168 636 169 629 171 C629 171 629 171 629 171 L629 171 Z " />
<glyph glyph-name="Zdotaccent" unicode="&#x17b;" horiz-adv-x="652" d="M340 865 C361 865 372 876 372 897 C372 919 361 930 340 930 C319 930 308 919 308 897 C308 876 319 865 340 865 L340 865 Z M629 171 C629 171 612 127 612 127 C585 59 564 22 474 17 C474 17 95 13 95 13 C95 13 610 738 610 738 C610 738 610 750 610 750 C610 750 555 750 555 750 C555 750 240 750 240 750 C240 750 70 750 70 750 C62 690 54 629 44 568 C47 568 60 568 70 565 C70 565 76 595 76 595 C95 688 114 735 238 735 C238 735 238 735 238 735 C238 735 546 738 546 738 C546 738 25 12 25 12 C25 12 25 0 25 0 C25 0 86 0 86 0 C86 0 446 0 446 0 C446 0 606 0 606 0 C606 0 648 168 648 168 C646 168 636 169 629 171 C629 171 629 171 629 171 L629 171 Z " />
<glyph glyph-name="zdotaccent" unicode="&#x17c;" horiz-adv-x="475" d="M265 615 C286 615 297 626 297 647 C297 669 286 680 265 680 C244 680 233 669 233 647 C233 626 244 615 265 615 L265 615 Z M93 0 C93 0 384 0 384 0 C384 0 430 0 430 0 C436 39 440 76 446 115 C446 115 436 115 436 115 C436 115 422 85 422 85 C403 45 386 21 305 16 C305 16 102 13 102 13 C102 13 435 488 435 488 C435 488 435 500 435 500 C435 500 384 500 384 500 C384 500 135 500 135 500 C123 500 112 508 116 523 C116 523 121 540 121 540 C121 540 101 540 101 540 C101 540 80 462 80 462 C73 437 66 411 59 385 C59 385 71 385 71 385 C71 385 87 415 87 415 C109 455 127 478 196 484 C196 484 375 487 375 487 C375 487 40 12 40 12 C40 12 40 0 40 0 C40 0 93 0 93 0 L93 0 Z " />
<glyph glyph-name="Zcaron" unicode="&#x17d;" horiz-adv-x="652" d="M629 171 C629 171 612 127 612 127 C585 59 564 22 474 17 C474 17 95 13 95 13 C95 13 610 738 610 738 C610 738 610 750 610 750 C610 750 555 750 555 750 C555 750 240 750 240 750 C240 750 70 750 70 750 C62 690 54 629 44 568 C47 568 60 568 70 565 C70 565 76 595 76 595 C95 688 114 735 238 735 C238 735 238 735 238 735 C238 735 546 738 546 738 C546 738 25 12 25 12 C25 12 25 0 25 0 C25 0 86 0 86 0 C86 0 446 0 446 0 C446 0 606 0 606 0 C606 0 648 168 648 168 C646 168 636 169 629 171 C629 171 629 171 629 171 L629 171 Z M340 873 C340 873 482 1042 482 1042 C482 1042 489 1037 489 1037 C489 1037 358 835 358 835 C354 829 346 817 340 817 C334 817 326 829 322 835 C322 835 191 1037 191 1037 C191 1037 198 1042 198 1042 C198 1042 340 873 340 873 L340 873 Z " />
<glyph glyph-name="zcaron" unicode="&#x17e;" horiz-adv-x="475" d="M265 623 C265 623 407 792 407 792 C407 792 414 787 414 787 C414 787 283 585 283 585 C279 579 271 567 265 567 C259 567 251 579 247 585 C247 585 116 787 116 787 C116 787 123 792 123 792 C123 792 265 623 265 623 L265 623 Z M93 0 C93 0 384 0 384 0 C384 0 430 0 430 0 C436 39 440 76 446 115 C446 115 436 115 436 115 C436 115 422 85 422 85 C403 45 386 21 305 16 C305 16 102 13 102 13 C102 13 435 488 435 488 C435 488 435 500 435 500 C435 500 384 500 384 500 C384 500 135 500 135 500 C123 500 112 508 116 523 C116 523 121 540 121 540 C121 540 101 540 101 540 C101 540 80 462 80 462 C73 437 66 411 59 385 C59 385 71 385 71 385 C71 385 87 415 87 415 C109 455 127 478 196 484 C196 484 375 487 375 487 C375 487 40 12 40 12 C40 12 40 0 40 0 C40 0 93 0 93 0 L93 0 Z " />
<glyph glyph-name="SmallLetterOwithogon" unicode="&#x1eb;" horiz-adv-x="719" d="M945 -49 C945 -49 941 -45 941 -45 C906 -74 824 -89 698 -89 C570 -89 455 -63 355 -10 C564 -9 670 92 670 292 C670 492 566 593 361 593 C163 593 63 492 63 292 C63 129 189 32 288 1 C434 -86 569 -131 691 -131 C795 -131 880 -103 945 -49 L945 -49 Z M354 3 C345 3 336 4 326 6 C326 7 325 7 325 7 C325 7 324 7 324 7 C242 27 120 122 120 292 C120 483 200 580 359 580 C527 580 612 483 612 292 C612 100 525 3 354 3 C354 3 354 3 354 3 L354 3 Z " />
<glyph glyph-name="CapitalLetterAwithdo" unicode="&#x226;" horiz-adv-x="750" d="M405 865 C427 865 438 876 438 897 C438 919 427 930 405 930 C384 930 373 919 373 897 C373 876 384 865 405 865 L405 865 Z M462 0 C462 0 597 0 597 0 C597 0 656 0 656 0 C656 0 745 0 745 0 C745 0 745 20 745 20 C745 20 715 20 715 20 C675 20 651 27 622 110 C622 110 433 732 433 732 C433 732 422 770 422 770 C422 770 416 770 416 770 C399 746 386 733 377 732 C377 732 380 722 380 722 C380 722 380 722 380 722 C380 722 193 153 193 153 C150 29 112 20 44 20 C44 20 14 20 14 20 C14 20 14 0 14 0 C14 0 143 0 143 0 C143 0 160 0 160 0 C160 0 325 0 325 0 C325 0 325 20 325 20 C325 20 301 20 301 20 C217 20 175 29 206 143 C206 143 252 287 252 287 C252 287 511 287 511 287 C511 287 557 134 557 134 C587 28 555 20 486 20 C486 20 462 20 462 20 C462 20 462 0 462 0 L462 0 Z M257 302 C257 302 386 703 386 703 C386 703 506 302 506 302 C506 302 257 302 257 302 L257 302 Z " />
<glyph glyph-name="LETTERSMALLCAPITALG" unicode="&#x262;" horiz-adv-x="697" d="M577 391 C577 391 577 489 577 489 C577 489 577 583 577 583 C577 583 562 583 562 583 C562 583 560 573 557 555 C556 548 530 552 479 573 C479 573 478 573 478 573 C445 586 403 593 340 593 C156 593 63 492 63 292 C63 91 156 -10 339 -10 C413 -10 467 -1 521 16 C521 16 556 24 556 24 C556 24 556 28 556 28 C581 37 606 48 634 61 C634 61 631 68 631 68 C605 56 580 45 556 36 C556 36 556 173 556 173 C556 229 574 233 611 233 C611 233 641 233 641 233 C641 233 641 253 641 253 C641 253 406 253 406 253 C406 253 406 233 406 233 C406 233 436 233 436 233 C482 233 506 229 506 173 C506 173 507 62 507 62 C503 33 474 15 418 7 C418 7 445 8 445 8 C415 4 382 2 343 2 C194 2 118 99 118 292 C118 484 194 581 345 581 C375 581 400 579 421 575 C491 558 541 482 557 413 C560 398 562 391 562 391 C562 391 577 391 577 391 L577 391 Z M418 7 C397 4 372 2 343 2 C343 2 418 7 418 7 L418 7 Z " />
<glyph glyph-name="LETTERSMALLCAPITALI" unicode="&#x26a;" horiz-adv-x="360" d="M320 583 C320 583 60 583 60 583 C60 583 60 563 60 563 C60 563 90 563 90 563 C140 563 165 559 165 503 C165 503 165 80 165 80 C165 24 140 20 90 20 C90 20 60 20 60 20 C60 20 60 0 60 0 C60 0 320 0 320 0 C320 0 320 20 320 20 C320 20 290 20 290 20 C240 20 215 24 215 80 C215 80 215 503 215 503 C215 559 240 563 290 563 C290 563 320 563 320 563 C320 563 320 583 320 583 L320 583 Z " />
<glyph glyph-name="LETTERSMALLCAPITALN" unicode="&#x274;" horiz-adv-x="687" d="M53 563 C53 563 91 563 91 563 C108 563 119 561 142 531 C142 531 141 150 141 150 C141 150 141 150 141 150 C141 29 109 20 46 20 C46 20 16 20 16 20 C16 20 16 0 16 0 C16 0 141 0 141 0 C141 0 156 0 156 0 C156 0 281 0 281 0 C281 0 281 20 281 20 C281 20 251 20 251 20 C188 20 156 28 156 140 C156 140 156 140 156 140 C156 140 154 514 154 514 C154 514 488 56 488 56 C488 56 529 0 529 0 C529 0 539 0 539 0 C539 0 542 477 542 477 C546 557 577 563 637 563 C637 563 667 563 667 563 C667 563 667 583 667 583 C667 583 543 583 543 583 C543 583 528 583 528 583 C528 583 403 583 403 583 C403 583 403 563 403 563 C403 563 433 563 433 563 C496 563 528 556 528 463 C528 463 528 463 528 463 C528 463 529 66 529 66 C529 66 520 78 520 78 C520 78 166 583 166 583 C166 583 154 583 154 583 C154 583 142 583 142 583 C142 583 104 583 104 583 C104 583 53 583 53 583 C53 583 53 563 53 563 L53 563 Z " />
<glyph glyph-name="LETTERSMALLCAPITALR" unicode="&#x280;" horiz-adv-x="618" d="M52 563 C52 563 82 563 82 563 C132 563 157 558 157 498 C157 498 157 85 157 85 C157 25 132 20 82 20 C82 20 52 20 52 20 C52 20 52 0 52 0 C52 0 313 0 313 0 C313 0 313 20 313 20 C313 20 283 20 283 20 C233 20 208 25 208 85 C208 85 208 283 208 283 C208 283 293 283 293 283 C305 261 353 187 435 62 C479 -4 468 0 609 0 C609 0 609 10 609 10 C523 10 530 7 494 62 C414 182 365 257 346 285 C439 293 486 330 486 420 C486 528 422 583 296 583 C296 583 208 583 208 583 C208 583 52 583 52 583 C52 583 52 563 52 563 L52 563 Z M208 573 C208 573 281 573 281 573 C381 573 431 525 431 430 C431 328 386 296 296 296 C296 296 208 296 208 296 C208 296 208 498 208 498 C208 498 208 573 208 573 L208 573 Z " />
<glyph glyph-name="LETTERSMALLCAPITALY" unicode="&#x28f;" horiz-adv-x="625" d="M245 583 C245 583 140 583 140 583 C140 583 80 583 80 583 C80 583 28 583 28 583 C28 583 28 563 28 563 C28 563 65 563 65 563 C83 563 97 556 162 457 C162 457 293 255 293 255 C293 255 293 80 293 80 C293 24 268 20 218 20 C218 20 188 20 188 20 C188 20 188 0 188 0 C188 0 448 0 448 0 C448 0 448 20 448 20 C448 20 418 20 418 20 C368 20 343 24 343 80 C343 80 343 257 343 257 C343 257 453 443 453 443 C453 443 453 443 453 443 C519 555 542 563 578 563 C578 563 609 563 609 563 C609 563 609 583 609 583 C609 583 535 583 535 583 C535 583 510 583 510 583 C510 583 405 583 405 583 C405 583 405 563 405 563 C405 563 430 563 430 563 C472 563 492 557 459 490 C459 490 338 272 338 272 C338 272 212 469 212 469 C159 556 178 563 220 563 C220 563 245 563 245 563 C245 563 245 583 245 583 L245 583 Z " />
<glyph glyph-name="LETTERSMALLCAPITALB" unicode="&#x299;" horiz-adv-x="535" d="M52 0 C52 0 208 0 208 0 C208 0 328 0 328 0 C440 0 496 16 496 152 C496 243 457 294 379 303 C447 320 482 367 482 443 C482 536 460 583 267 583 C267 583 208 583 208 583 C208 583 52 583 52 583 C52 583 52 563 52 563 C52 563 82 563 82 563 C132 563 157 558 157 498 C157 498 157 85 157 85 C157 25 132 20 82 20 C82 20 52 20 52 20 C52 20 52 0 52 0 L52 0 Z M208 573 C208 573 247 573 247 573 C413 573 432 528 432 437 C432 349 389 304 305 304 C305 304 208 304 208 304 C208 304 208 498 208 498 C208 498 208 573 208 573 L208 573 Z M310 295 C310 295 320 295 320 295 C400 295 440 247 440 152 C440 25 398 10 315 10 C315 10 265 10 265 10 C227 10 208 33 208 80 C208 80 208 85 208 85 C208 85 208 295 208 295 C208 295 310 295 310 295 L310 295 Z " />
<glyph glyph-name="LETTERSMALLCAPITALH" unicode="&#x29c;" horiz-adv-x="740" d="M701 583 C701 583 441 583 441 583 C441 583 441 563 441 563 C441 563 471 563 471 563 C521 563 546 559 546 503 C546 503 546 305 546 305 C546 305 244 305 244 305 C244 305 244 503 244 503 C244 559 269 563 319 563 C319 563 349 563 349 563 C349 563 349 583 349 583 C349 583 88 583 88 583 C88 583 88 563 88 563 C88 563 118 563 118 563 C168 563 193 559 193 503 C193 503 193 80 193 80 C193 24 168 20 118 20 C118 20 88 20 88 20 C88 20 88 0 88 0 C88 0 349 0 349 0 C349 0 349 20 349 20 C349 20 319 20 319 20 C269 20 244 24 244 80 C244 80 244 291 244 291 C244 291 546 291 546 291 C546 291 546 80 546 80 C546 24 521 20 471 20 C471 20 441 20 441 20 C441 20 441 0 441 0 C441 0 701 0 701 0 C701 0 701 20 701 20 C701 20 671 20 671 20 C621 20 596 24 596 80 C596 80 596 503 596 503 C596 559 621 563 671 563 C671 563 701 563 701 563 C701 563 701 583 701 583 L701 583 Z " />
<glyph glyph-name="LETTERSMALLCAPITALL" unicode="&#x29f;" horiz-adv-x="550" d="M475 8 C488 62 505 116 518 170 C516 170 503 173 499 174 C499 174 491 144 491 144 C467 55 444 10 293 9 C293 9 215 33 215 80 C215 80 215 85 215 85 C215 85 215 498 215 498 C215 558 240 563 290 563 C290 563 320 563 320 563 C320 563 320 583 320 583 C320 583 215 583 215 583 C215 583 165 583 165 583 C165 583 60 583 60 583 C60 583 60 563 60 563 C60 563 90 563 90 563 C140 563 165 558 165 498 C165 498 165 85 165 85 C165 25 140 20 90 20 C90 20 60 20 60 20 C60 20 60 0 60 0 C60 0 165 0 165 0 C165 0 215 0 215 0 C215 0 288 0 288 0 C288 0 473 0 473 0 C473 0 475 8 475 8 L475 8 Z " />
<glyph glyph-name="LETTERSMALLCAPITALA" unicode="&#x1d00;" horiz-adv-x="675" d="M393 0 C393 0 528 0 528 0 C528 0 580 0 580 0 C580 0 669 0 669 0 C669 0 669 20 669 20 C669 20 639 20 639 20 C595 20 570 28 534 140 C534 140 534 140 534 140 C534 140 392 571 392 571 C392 571 381 603 381 603 C381 603 376 603 376 603 C361 583 350 572 341 571 C341 571 345 560 345 560 C345 560 204 170 204 170 C204 170 204 170 204 170 C155 30 116 20 45 20 C45 20 15 20 15 20 C15 20 15 0 15 0 C15 0 143 0 143 0 C143 0 158 0 158 0 C158 0 323 0 323 0 C323 0 323 20 323 20 C323 20 300 20 300 20 C210 20 169 30 218 170 C218 170 218 170 218 170 C218 170 236 222 236 222 C236 222 455 222 455 222 C455 222 482 140 482 140 C482 140 482 140 482 140 C518 28 486 20 417 20 C417 20 393 20 393 20 C393 20 393 0 393 0 L393 0 Z M241 235 C241 235 349 545 349 545 C349 545 451 235 451 235 C451 235 241 235 241 235 L241 235 Z " />
<glyph glyph-name="LETTERSMALLCAPITALC" unicode="&#x1d04;" horiz-adv-x="623" d="M577 391 C577 391 577 489 577 489 C577 489 577 583 577 583 C577 583 562 583 562 583 C562 583 560 573 557 555 C556 548 530 552 479 573 C479 573 478 573 478 573 C445 586 403 593 340 593 C156 593 63 492 63 292 C63 91 153 -10 331 -10 C396 -10 442 -2 478 14 C525 32 552 23 557 5 C562 -15 565 -25 565 -25 C565 -25 577 -25 577 -25 C577 -25 577 94 577 94 C577 94 577 192 577 192 C577 192 562 192 562 192 C562 192 560 185 557 170 C542 108 499 36 441 16 C413 7 379 2 336 2 C191 2 118 99 118 292 C118 484 194 581 345 581 C375 581 400 579 421 575 C491 558 541 482 557 413 C560 398 562 391 562 391 C562 391 577 391 577 391 L577 391 Z " />
<glyph glyph-name="LETTERSMALLCAPITALD" unicode="&#x1d05;" horiz-adv-x="726" d="M52 0 C52 0 157 0 157 0 C157 0 208 0 208 0 C208 0 264 0 264 0 C535 0 672 79 672 292 C672 485 570 583 292 583 C292 583 208 583 208 583 C208 583 157 583 157 583 C157 583 52 583 52 583 C52 583 52 563 52 563 C52 563 82 563 82 563 C132 563 157 558 157 498 C157 498 157 85 157 85 C157 25 132 20 82 20 C82 20 52 20 52 20 C52 20 52 0 52 0 L52 0 Z M208 573 C208 573 252 573 252 573 C518 573 616 479 616 292 C616 86 493 10 249 10 C208 10 208 33 208 80 C208 80 208 85 208 85 C208 85 208 498 208 498 C208 498 208 573 208 573 L208 573 Z " />
<glyph glyph-name="LETTERSMALLCAPITALE" unicode="&#x1d07;" horiz-adv-x="555" d="M467 448 C466 470 464 493 462 515 C461 538 460 561 458 583 C458 583 338 583 338 583 C338 583 208 583 208 583 C208 583 157 583 157 583 C157 583 52 583 52 583 C52 583 52 563 52 563 C52 563 82 563 82 563 C132 563 157 558 157 498 C157 498 157 85 157 85 C157 25 132 20 82 20 C82 20 52 20 52 20 C52 20 52 0 52 0 C52 0 157 0 157 0 C157 0 208 0 208 0 C208 0 363 0 363 0 C363 0 483 0 483 0 C489 46 496 91 502 136 C502 136 482 136 482 136 C482 136 478 106 478 106 C469 43 458 11 364 11 C364 11 288 11 288 11 C208 11 208 34 208 80 C208 80 208 85 208 85 C208 85 208 299 208 299 C208 299 278 299 278 299 C371 299 378 262 378 189 C378 189 378 159 378 159 C378 159 398 159 398 159 C398 159 398 299 398 299 C398 299 398 311 398 311 C398 311 398 451 398 451 C398 451 378 451 378 451 C378 451 378 421 378 421 C378 348 371 311 278 311 C278 311 208 311 208 311 C208 311 208 498 208 498 C208 498 208 573 208 573 C208 573 338 573 338 573 C450 573 441 537 446 466 C446 466 447 448 447 448 C447 448 467 448 467 448 L467 448 Z " />
<glyph glyph-name="LETTERSMALLCAPITALJ" unicode="&#x1d0a;" horiz-adv-x="360" d="M320 583 C320 583 60 583 60 583 C60 583 60 563 60 563 C60 563 90 563 90 563 C140 563 165 559 165 503 C165 503 165 -26 165 -26 C165 -190 112 -202 66 -202 C37 -202 54 -160 26 -160 C10 -160 2 -168 2 -184 C2 -208 19 -220 53 -220 C129 -220 215 -200 215 70 C215 70 215 503 215 503 C215 559 240 563 290 563 C290 563 320 563 320 563 C320 563 320 583 320 583 L320 583 Z " />
<glyph glyph-name="LETTERSMALLCAPITALK" unicode="&#x1d0b;" horiz-adv-x="628" d="M610 20 C610 20 572 20 572 20 C543 20 502 47 468 82 C468 82 246 324 246 324 C246 324 374 473 374 473 C374 473 374 473 374 473 C444 557 471 563 516 563 C516 563 546 563 546 563 C546 563 546 583 546 583 C546 583 468 583 468 583 C468 583 449 583 449 583 C449 583 313 583 313 583 C313 583 309 583 309 583 C309 583 208 583 208 583 C208 583 157 583 157 583 C157 583 52 583 52 583 C52 583 52 563 52 563 C52 563 82 563 82 563 C132 563 157 560 157 523 C157 523 157 60 157 60 C157 23 132 20 82 20 C82 20 52 20 52 20 C52 20 52 0 52 0 C52 0 157 0 157 0 C157 0 208 0 208 0 C208 0 313 0 313 0 C313 0 313 20 313 20 C313 20 283 20 283 20 C233 20 208 23 208 60 C208 60 208 292 208 292 C208 292 402 85 402 85 C402 85 402 85 402 85 C402 85 482 0 482 0 C482 0 543 0 543 0 C543 0 610 0 610 0 C610 0 610 20 610 20 L610 20 Z M309 563 C309 563 313 563 313 563 C313 563 332 563 332 563 C399 563 426 555 333 443 C333 443 333 443 333 443 C333 443 208 292 208 292 C208 292 208 523 208 523 C208 560 233 563 283 563 C283 563 309 563 309 563 L309 563 Z " />
<glyph glyph-name="LETTERSMALLCAPITALM" unicode="&#x1d0d;" horiz-adv-x="780" d="M39 563 C39 563 69 563 69 563 C108 563 133 560 155 530 C155 530 141 150 141 150 C141 150 141 150 141 150 C136 29 104 20 41 20 C41 20 11 20 11 20 C11 20 11 0 11 0 C11 0 136 0 136 0 C136 0 153 0 153 0 C153 0 278 0 278 0 C278 0 278 20 278 20 C278 20 249 20 249 20 C185 20 153 28 157 140 C157 140 157 140 157 140 C157 140 167 510 167 510 C169 507 171 502 173 498 C173 498 173 499 173 499 C246 332 318 165 393 0 C393 0 405 0 405 0 C405 0 613 540 613 540 C613 540 629 85 629 85 C629 85 629 85 629 85 C631 25 605 20 554 20 C554 20 524 20 524 20 C524 20 524 0 524 0 C524 0 632 0 632 0 C632 0 682 0 682 0 C682 0 784 0 784 0 C784 0 784 20 784 20 C784 20 754 20 754 20 C705 20 681 25 679 85 C679 85 679 85 679 85 C679 85 666 415 666 415 C666 415 667 413 667 413 C662 553 687 563 736 563 C736 563 765 563 765 563 C765 563 765 583 765 583 C765 583 660 583 660 583 C660 583 630 583 630 583 C630 583 612 583 612 583 C612 583 417 65 417 65 C417 65 418 68 418 68 C418 68 196 583 196 583 C196 583 169 583 169 583 C169 583 157 583 157 583 C157 583 136 583 136 583 C136 583 39 583 39 583 C39 583 39 563 39 563 L39 563 Z " />
<glyph glyph-name="LETTERSMALLCAPITALO" unicode="&#x1d0f;" horiz-adv-x="724" d="M354 3 C198 3 120 100 120 292 C120 483 200 580 359 580 C527 580 612 483 612 292 C612 100 525 3 354 3 L354 3 Z M63 292 C63 91 160 -10 351 -10 C563 -10 670 91 670 292 C670 492 566 593 361 593 C163 593 63 492 63 292 L63 292 Z " />
<glyph glyph-name="LETTERSMALLCAPITALP" unicode="&#x1d18;" horiz-adv-x="472" d="M65 563 C65 563 95 563 95 563 C145 563 170 558 170 498 C170 498 170 85 170 85 C170 25 145 20 95 20 C95 20 65 20 65 20 C65 20 65 0 65 0 C65 0 170 0 170 0 C170 0 220 0 220 0 C220 0 325 0 325 0 C325 0 325 20 325 20 C325 20 295 20 295 20 C245 20 220 25 220 85 C220 85 220 273 220 273 C220 273 255 273 255 273 C387 273 453 308 453 420 C453 528 398 583 290 583 C290 583 220 583 220 583 C220 583 170 583 170 583 C170 583 65 583 65 583 C65 583 65 563 65 563 L65 563 Z M220 284 C220 284 220 498 220 498 C220 498 220 575 220 575 C220 575 278 575 278 575 C362 575 405 526 405 429 C405 318 355 284 255 284 C255 284 220 284 220 284 L220 284 Z " />
<glyph glyph-name="LETTERSMALLCAPITALT" unicode="&#x1d1b;" horiz-adv-x="715" d="M697 468 C685 503 672 537 660 571 C660 571 660 571 660 571 C660 571 660 583 660 583 C660 583 655 583 655 583 C650 596 646 610 641 623 C641 623 621 623 621 623 C621 623 626 610 626 610 C632 592 629 583 535 583 C535 583 383 583 383 583 C383 583 332 583 332 583 C332 583 180 583 180 583 C86 583 83 592 89 610 C89 610 94 623 94 623 C94 623 74 623 74 623 C69 610 65 596 60 583 C60 583 55 583 55 583 C55 583 55 571 55 571 C55 571 55 571 55 571 C43 537 30 503 18 468 C22 467 35 466 37 466 C37 466 48 496 48 496 C66 546 82 571 175 571 C175 571 332 571 332 571 C332 571 332 80 332 80 C332 24 307 20 257 20 C257 20 227 20 227 20 C227 20 227 0 227 0 C227 0 488 0 488 0 C488 0 488 20 488 20 C488 20 458 20 458 20 C408 20 383 24 383 80 C383 80 383 571 383 571 C383 571 540 571 540 571 C633 571 649 546 667 496 C667 496 678 466 678 466 C682 467 695 468 697 468 L697 468 Z " />
<glyph glyph-name="LETTERSMALLCAPITALU" unicode="&#x1d1c;" horiz-adv-x="610" d="M340 563 C340 563 370 563 370 563 C420 563 445 558 445 498 C445 498 445 155 445 155 C404 67 335 22 241 22 C196 22 173 82 173 202 C173 202 173 498 173 498 C173 498 173 583 173 583 C173 583 17 583 17 583 C17 583 17 563 17 563 C17 563 47 563 47 563 C97 563 122 558 122 498 C122 498 122 202 122 202 C122 61 155 -10 220 -10 C326 -10 401 38 445 132 C445 132 445 110 445 110 C445 110 445 0 445 0 C445 0 453 0 453 0 C453 0 599 55 599 55 C599 55 599 65 599 65 C502 60 495 62 495 110 C495 110 495 498 495 498 C495 498 495 583 495 583 C495 583 340 583 340 583 C340 583 340 563 340 563 L340 563 Z " />
<glyph glyph-name="LETTERSMALLCAPITALV" unicode="&#x1d20;" horiz-adv-x="673" d="M308 583 C308 583 143 583 143 583 C143 583 86 583 86 583 C86 583 28 583 28 583 C28 583 28 563 28 563 C28 563 65 563 65 563 C84 563 94 560 109 523 C109 523 109 523 109 523 C109 523 282 76 282 76 C282 76 316 -10 316 -10 C316 -10 326 -10 326 -10 C326 -10 511 443 511 443 C511 443 511 443 511 443 C555 555 581 563 625 563 C625 563 655 563 655 563 C655 563 655 583 655 583 C655 583 568 583 568 583 C568 583 548 583 548 583 C548 583 383 583 383 583 C383 583 383 563 383 563 C383 563 407 563 407 563 C496 563 538 555 493 443 C493 443 493 443 493 443 C493 443 316 -10 316 -10 C316 -10 349 76 349 76 C349 76 200 443 200 443 C200 443 200 443 200 443 C157 555 198 563 285 563 C285 563 308 563 308 563 C308 563 308 583 308 583 L308 583 Z " />
<glyph glyph-name="LETTERSMALLCAPITALW" unicode="&#x1d21;" horiz-adv-x="933" d="M917 583 C917 583 829 583 829 583 C829 583 808 583 808 583 C808 583 643 583 643 583 C643 583 643 563 643 563 C643 563 667 563 667 563 C753 563 795 556 768 458 C768 458 643 73 643 73 C643 73 506 479 506 479 C482 557 518 563 592 563 C592 563 616 563 616 563 C616 563 616 583 616 583 C616 583 471 583 471 583 C471 583 413 583 413 583 C413 583 325 583 325 583 C325 583 325 563 325 563 C325 563 355 563 355 563 C395 563 417 560 431 531 C447 483 463 436 480 388 C480 388 330 63 330 63 C330 63 330 64 330 64 C330 64 192 443 192 443 C192 443 192 443 192 443 C153 555 188 563 263 563 C263 563 286 563 286 563 C286 563 286 583 286 583 C286 583 141 583 141 583 C141 583 86 583 86 583 C86 583 28 583 28 583 C28 583 28 563 28 563 C28 563 65 563 65 563 C82 563 93 557 124 475 C182 314 239 152 296 -10 C296 -10 309 -10 309 -10 C309 -10 487 368 487 368 C530 242 573 116 616 -10 C616 -10 629 -10 629 -10 C629 -10 782 443 782 443 C782 443 782 443 782 443 C818 555 843 563 887 563 C887 563 917 563 917 563 C917 563 917 583 917 583 L917 583 Z " />
<glyph glyph-name="LETTERSMALLCAPITALZ" unicode="&#x1d22;" horiz-adv-x="592" d="M70 400 C70 400 76 430 76 430 C96 523 114 570 238 570 C238 570 238 570 238 570 C238 570 492 573 492 573 C492 573 25 11 25 11 C25 11 25 0 25 0 C25 0 80 0 80 0 C80 0 386 0 386 0 C386 0 546 0 546 0 C560 55 575 111 587 166 C585 166 576 169 568 169 C568 169 551 125 551 125 C525 57 504 20 415 15 C415 15 90 12 90 12 C90 12 550 573 550 573 C550 573 550 583 550 583 C550 583 501 583 501 583 C501 583 240 583 240 583 C240 583 70 583 70 583 C66 553 62 523 57 493 C57 493 45 403 45 403 C48 403 60 402 70 400 L70 400 Z " />
<glyph glyph-name="Wgrave" unicode="&#x1e80;" horiz-adv-x="1060" d="M1044 750 C1044 750 955 750 955 750 C955 750 932 750 932 750 C932 750 767 750 767 750 C767 750 767 730 767 730 C767 730 792 730 792 730 C875 730 918 723 898 634 C898 634 738 82 738 82 C738 82 565 652 565 652 C547 725 584 730 657 730 C657 730 681 730 681 730 C681 730 681 750 681 750 C681 750 536 750 536 750 C536 750 471 750 471 750 C471 750 383 750 383 750 C383 750 383 730 383 730 C383 730 413 730 413 730 C454 730 477 727 488 695 C509 630 530 565 550 500 C550 500 550 500 550 500 C550 500 365 71 365 71 C365 71 187 621 187 621 C158 723 194 730 267 730 C267 730 291 730 291 730 C291 730 291 750 291 750 C291 750 146 750 146 750 C146 750 85 750 85 750 C85 750 26 750 26 750 C26 750 26 730 26 730 C26 730 63 730 63 730 C82 730 94 722 130 610 C130 610 130 610 130 610 C197 403 264 197 330 -10 C330 -10 345 -10 345 -10 C345 -10 558 474 558 474 C610 313 661 152 711 -10 C711 -10 726 -10 726 -10 C726 -10 913 610 913 610 C913 610 913 610 913 610 C946 722 970 730 1014 730 C1014 730 1044 730 1044 730 C1044 730 1044 750 1044 750 L1044 750 Z M407 959 C367 1006 345 1029 339 1029 C324 1029 314 1019 314 1005 C314 999 338 977 384 936 C384 936 523 813 523 813 C523 813 530 820 530 820 C530 820 407 959 407 959 L407 959 Z " />
<glyph glyph-name="Wacute" unicode="&#x1e82;" horiz-adv-x="1060" d="M527 813 C527 813 666 936 666 936 C712 978 736 1000 736 1005 C736 1019 726 1029 711 1029 C707 1029 685 1006 643 959 C643 959 520 820 520 820 C520 820 527 813 527 813 L527 813 Z M1044 750 C1044 750 955 750 955 750 C955 750 932 750 932 750 C932 750 767 750 767 750 C767 750 767 730 767 730 C767 730 792 730 792 730 C875 730 918 723 898 634 C898 634 738 82 738 82 C738 82 565 652 565 652 C547 725 584 730 657 730 C657 730 681 730 681 730 C681 730 681 750 681 750 C681 750 536 750 536 750 C536 750 471 750 471 750 C471 750 383 750 383 750 C383 750 383 730 383 730 C383 730 413 730 413 730 C454 730 477 727 488 695 C509 630 530 565 550 500 C550 500 550 500 550 500 C550 500 365 71 365 71 C365 71 187 621 187 621 C158 723 194 730 267 730 C267 730 291 730 291 730 C291 730 291 750 291 750 C291 750 146 750 146 750 C146 750 85 750 85 750 C85 750 26 750 26 750 C26 750 26 730 26 730 C26 730 63 730 63 730 C82 730 94 722 130 610 C130 610 130 610 130 610 C197 403 264 197 330 -10 C330 -10 345 -10 345 -10 C345 -10 558 474 558 474 C610 313 661 152 711 -10 C711 -10 726 -10 726 -10 C726 -10 913 610 913 610 C913 610 913 610 913 610 C946 722 970 730 1014 730 C1014 730 1044 730 1044 730 C1044 730 1044 750 1044 750 L1044 750 Z " />
<glyph glyph-name="Wdieresis" unicode="&#x1e84;" horiz-adv-x="1060" d="M589 865 C610 865 621 876 621 897 C621 919 610 930 589 930 C567 930 556 919 556 897 C556 876 567 865 589 865 L589 865 Z M451 865 C473 865 484 876 484 897 C484 919 473 930 451 930 C430 930 419 919 419 897 C419 876 430 865 451 865 L451 865 Z M1044 750 C1044 750 955 750 955 750 C955 750 932 750 932 750 C932 750 767 750 767 750 C767 750 767 730 767 730 C767 730 792 730 792 730 C875 730 918 723 898 634 C898 634 738 82 738 82 C738 82 565 652 565 652 C547 725 584 730 657 730 C657 730 681 730 681 730 C681 730 681 750 681 750 C681 750 536 750 536 750 C536 750 471 750 471 750 C471 750 383 750 383 750 C383 750 383 730 383 730 C383 730 413 730 413 730 C454 730 477 727 488 695 C509 630 530 565 550 500 C550 500 550 500 550 500 C550 500 365 71 365 71 C365 71 187 621 187 621 C158 723 194 730 267 730 C267 730 291 730 291 730 C291 730 291 750 291 750 C291 750 146 750 146 750 C146 750 85 750 85 750 C85 750 26 750 26 750 C26 750 26 730 26 730 C26 730 63 730 63 730 C82 730 94 722 130 610 C130 610 130 610 130 610 C197 403 264 197 330 -10 C330 -10 345 -10 345 -10 C345 -10 558 474 558 474 C610 313 661 152 711 -10 C711 -10 726 -10 726 -10 C726 -10 913 610 913 610 C913 610 913 610 913 610 C946 722 970 730 1014 730 C1014 730 1044 730 1044 730 C1044 730 1044 750 1044 750 L1044 750 Z " />
<glyph glyph-name="CapitalLetterEWITHTI" unicode="&#x1ebc;" horiz-adv-x="619" d="M197 870 C197 914 212 936 242 936 C310 936 354 871 422 871 C467 871 490 903 490 966 C490 966 481 966 481 966 C481 926 465 906 433 906 C365 906 321 971 254 971 C210 971 188 937 188 870 C188 870 197 870 197 870 L197 870 Z M531 613 C529 660 526 704 522 750 C522 750 402 750 402 750 C402 750 212 750 212 750 C212 750 156 750 156 750 C156 750 51 750 51 750 C51 750 51 730 51 730 C51 730 81 730 81 730 C131 730 156 725 156 665 C156 665 156 85 156 85 C156 25 131 20 81 20 C81 20 51 20 51 20 C51 20 51 0 51 0 C51 0 156 0 156 0 C156 0 212 0 212 0 C212 0 427 0 427 0 C427 0 547 0 547 0 C550 23 553 46 557 68 C557 68 566 137 566 137 C566 137 546 137 546 137 C546 137 542 107 542 107 C533 44 522 12 429 12 C429 12 292 12 292 12 C212 12 212 35 212 80 C212 80 212 85 212 85 C212 85 212 385 212 385 C212 385 342 385 342 385 C435 385 442 348 442 275 C442 275 442 245 442 245 C442 245 462 245 462 245 C462 245 462 385 462 385 C462 385 462 398 462 398 C462 398 462 538 462 538 C462 538 442 538 442 538 C442 538 442 508 442 508 C442 435 435 398 342 398 C342 398 212 398 212 398 C212 398 212 665 212 665 C212 665 212 738 212 738 C212 738 403 738 403 738 C514 738 505 702 510 631 C510 631 511 613 511 613 C511 613 531 613 531 613 L531 613 Z " />
<glyph glyph-name="Ygrave" unicode="&#x1ef2;" horiz-adv-x="707" d="M249 750 C249 750 144 750 144 750 C144 750 79 750 79 750 C79 750 26 750 26 750 C26 750 26 730 26 730 C26 730 63 730 63 730 C80 730 93 723 147 636 C147 636 331 329 331 329 C331 329 331 80 331 80 C331 24 306 20 256 20 C256 20 226 20 226 20 C226 20 226 0 226 0 C226 0 492 0 492 0 C492 0 492 20 492 20 C492 20 462 20 462 20 C412 20 387 24 387 80 C387 80 387 331 387 331 C387 331 551 631 551 631 C604 723 626 730 661 730 C661 730 691 730 691 730 C691 730 691 750 691 750 C691 750 617 750 617 750 C617 750 589 750 589 750 C589 750 484 750 484 750 C484 750 484 730 484 730 C484 730 510 730 510 730 C551 730 571 724 543 661 C543 661 381 350 381 350 C381 350 227 610 227 610 C227 610 227 610 227 610 C160 722 178 730 225 730 C225 730 249 730 249 730 C249 730 249 750 249 750 L249 750 Z M246 959 C206 1006 184 1029 178 1029 C163 1029 153 1019 153 1005 C153 999 177 977 223 936 C223 936 363 813 363 813 C363 813 369 820 369 820 C369 820 246 959 246 959 L246 959 Z " />
<glyph glyph-name="quoteleft" unicode="&#x2018;" horiz-adv-x="508" d="" />
<glyph glyph-name="quoteright" unicode="&#x2019;" horiz-adv-x="48" d="" />
<glyph glyph-name="quotedblleft" unicode="&#x201c;" horiz-adv-x="508" d="M151 640 C145 640 140 638 137 635 C137 635 137 636 137 636 C137 681 155 718 191 749 C191 749 181 760 181 760 C142 727 122 682 122 627 C122 604 132 593 151 593 C167 593 175 601 175 616 C175 632 167 640 151 640 L151 640 Z " />
<glyph glyph-name="quotedblright" unicode="&#x201d;" horiz-adv-x="508" d="M165 718 C165 660 154 622 132 604 C132 604 143 593 143 593 C168 614 181 661 181 731 C181 750 171 760 151 760 C136 760 128 752 128 736 C128 721 136 713 151 713 C157 713 162 715 165 718 C165 718 165 718 165 718 L165 718 Z " />
<glyph glyph-name="Euro" unicode="&#x20ac;" horiz-adv-x="753" d="M707 529 C707 529 707 629 707 629 C707 629 707 744 707 744 C707 744 692 744 692 744 C692 744 690 734 687 715 C684 698 660 695 616 719 C574 746 521 760 432 760 C237 760 130 651 114 436 C114 436 60 436 60 436 C60 436 55 400 55 400 C55 400 112 400 112 400 C112 392 112 383 112 375 C112 367 112 358 112 350 C112 350 55 350 55 350 C55 350 50 314 50 314 C50 314 114 314 114 314 C130 99 233 -10 421 -10 C503 -10 558 3 603 28 C603 28 604 28 604 28 C604 28 646 30 687 32 C692 32 695 22 695 2 C695 2 707 2 707 2 C707 2 707 121 707 121 C707 121 707 221 707 221 C707 221 692 221 692 221 C692 221 690 214 687 199 C673 140 633 69 578 36 C539 14 492 3 427 3 C273 3 188 107 175 314 C175 314 482 314 482 314 C482 314 487 350 487 350 C487 350 173 350 173 350 C173 358 173 367 173 375 C173 383 173 392 173 400 C173 400 487 400 487 400 C487 400 492 436 492 436 C492 436 175 436 175 436 C189 642 277 746 437 746 C486 746 523 740 554 729 C621 703 671 620 687 550 C690 536 692 529 692 529 C692 529 707 529 707 529 L707 529 Z " />
<glyph glyph-name="LETTERSMALLCAPITALF" unicode="&#xa730;" horiz-adv-x="530" d="M469 452 C465 495 462 540 458 583 C458 583 338 583 338 583 C338 583 208 583 208 583 C208 583 157 583 157 583 C157 583 52 583 52 583 C52 583 52 563 52 563 C52 563 82 563 82 563 C132 563 157 558 157 498 C157 498 157 85 157 85 C157 25 132 20 82 20 C82 20 52 20 52 20 C52 20 52 0 52 0 C52 0 157 0 157 0 C157 0 208 0 208 0 C208 0 313 0 313 0 C313 0 313 20 313 20 C313 20 283 20 283 20 C233 20 208 25 208 85 C208 85 208 287 208 287 C208 287 335 287 335 287 C362 272 368 243 372 200 C372 200 376 154 376 154 C376 154 388 154 388 154 C388 154 388 287 388 287 C388 287 388 299 388 299 C388 299 388 432 388 432 C388 432 376 432 376 432 C376 432 372 387 372 387 C367 329 357 299 268 299 C268 299 208 299 208 299 C208 299 208 498 208 498 C208 498 208 575 208 575 C208 575 258 575 258 575 C426 575 441 543 447 480 C447 480 449 450 449 450 C457 450 461 452 469 452 L469 452 Z " />
<glyph glyph-name="LETTERSMALLCAPITALS" unicode="&#xa731;" horiz-adv-x="484" d="M401 408 C401 408 401 499 401 499 C401 499 401 593 401 593 C401 593 386 593 386 593 C386 593 384 583 381 565 C380 556 363 556 334 570 C304 585 266 593 221 593 C123 593 74 545 74 450 C74 383 122 327 253 266 C363 214 404 171 404 125 C404 46 358 6 268 6 C235 6 206 10 180 19 C130 41 90 117 73 186 C70 200 68 207 68 207 C68 207 53 207 53 207 C53 207 53 115 53 115 C53 115 53 -30 53 -30 C53 -30 68 -30 68 -30 C68 -30 70 -18 73 6 C76 28 98 39 137 21 C172 0 216 -10 268 -10 C385 -10 444 40 444 139 C444 208 401 262 283 318 C159 376 113 421 113 469 C113 543 149 581 221 581 C229 581 237 580 245 579 C245 579 221 581 221 581 C240 581 258 579 274 576 C274 576 245 579 245 579 C314 566 365 498 381 429 C384 415 386 408 386 408 C386 408 401 408 401 408 L401 408 Z " />
<glyph glyph-name="[namenotfound]" unicode="&#xf078;" horiz-adv-x="664" d="M644 583 C644 583 573 583 573 583 C573 583 551 583 551 583 C551 583 416 583 416 583 C416 583 416 563 416 563 C416 563 439 563 439 563 C499 563 527 555 463 460 C463 460 362 317 362 317 C362 317 278 443 278 443 C278 443 278 443 278 443 C204 555 228 563 286 563 C286 563 309 563 309 563 C309 563 309 583 309 583 C309 583 184 583 184 583 C184 583 125 583 125 583 C125 583 63 583 63 583 C63 583 63 563 63 563 C63 563 97 563 97 563 C122 563 140 556 201 470 C201 470 327 281 327 281 C327 281 206 121 206 121 C206 121 205 120 205 120 C135 27 105 20 55 20 C55 20 25 20 25 20 C25 20 25 0 25 0 C25 0 115 0 115 0 C115 0 135 0 135 0 C135 0 320 0 320 0 C320 0 320 20 320 20 C320 20 298 20 298 20 C202 20 158 28 231 132 C231 132 242 148 242 148 C243 149 243 149 244 150 C244 150 244 150 244 150 C244 150 333 272 333 272 C333 272 421 140 421 140 C421 140 421 140 421 140 C496 28 472 20 414 20 C414 20 390 20 390 20 C390 20 390 0 390 0 C390 0 515 0 515 0 C515 0 575 0 575 0 C575 0 647 0 647 0 C647 0 647 20 647 20 C647 20 616 20 616 20 C582 20 559 27 498 115 C498 115 369 308 369 308 C369 308 447 413 447 413 C447 413 447 413 447 413 C448 415 449 416 451 418 C451 418 496 480 496 480 C557 556 581 563 613 563 C613 563 644 563 644 563 C644 563 644 583 644 583 L644 583 Z " />
</font>
</svg>
