<?xml version="1.0" encoding="UTF-8"?>
<svg xmlns="http://www.w3.org/2000/svg" xmlns:xlink="http://www.w3.org/1999/xlink" version="1.2" >
<font id="Aludra Light Italic">
<font-face  font-family="Aludra" units-per-em="1024" ascent="975" descent="-300" font-style="normal" font-weight="300" font-stretch="normal" cap-height="750" x-height="500" underline-position="0" underline-thickness="0" />
<missing-glyph  horiz-adv-x="472" d="M0 700 C0 700 432 700 432 700 C432 700 432 0 432 0 C432 0 0 0 0 0 C0 0 0 700 0 700 L0 700 Z M50 50 C50 50 382 50 382 50 C382 50 382 650 382 650 C382 650 50 650 50 650 C50 650 50 50 50 50 L50 50 Z " />
<glyph glyph-name="NULL" d="" />
<glyph glyph-name="CR" unicode="&#xd;" horiz-adv-x="256" d="" />
<glyph glyph-name="space" unicode="&#x20;" horiz-adv-x="250" d="" />
<glyph glyph-name="exclam" unicode="&#x21;" horiz-adv-x="201" d="M100 -5 C123 -5 137 7 141 30 C145 54 136 66 112 66 C89 66 75 54 71 30 C66 7 76 -5 100 -5 L100 -5 Z M234 755 C203 755 195 727 188 671 C188 671 133 210 133 210 C133 210 142 210 142 210 C142 210 249 671 249 671 C263 727 264 755 234 755 L234 755 Z " />
<glyph glyph-name="quotedbl" unicode="&#x22;" horiz-adv-x="325" d="M876 750 C859 750 855 735 854 705 C854 705 846 560 846 560 C846 560 852 560 852 560 C852 560 895 705 895 705 C904 735 906 750 888 750 C888 750 876 750 876 750 L876 750 Z " />
<glyph glyph-name="numbersign" unicode="&#x23;" horiz-adv-x="534" d="M510 681 C510 681 446 479 446 479 C446 479 300 479 300 479 C300 479 364 681 364 681 C364 681 344 681 344 681 C344 681 280 479 280 479 C280 479 148 479 148 479 C148 479 136 441 136 441 C136 441 268 441 268 441 C268 441 197 219 197 219 C197 219 63 219 63 219 C63 219 51 181 51 181 C51 181 185 181 185 181 C185 181 127 0 127 0 C127 0 147 0 147 0 C147 0 205 181 205 181 C205 181 351 181 351 181 C351 181 293 0 293 0 C293 0 313 0 313 0 C313 0 371 181 371 181 C371 181 496 181 496 181 C496 181 508 219 508 219 C508 219 383 219 383 219 C383 219 454 441 454 441 C454 441 587 441 587 441 C587 441 599 479 599 479 C599 479 466 479 466 479 C466 479 530 681 530 681 C530 681 510 681 510 681 L510 681 Z M288 441 C288 441 434 441 434 441 C434 441 363 219 363 219 C363 219 217 219 217 219 C217 219 288 441 288 441 L288 441 Z " />
<glyph glyph-name="dollar" unicode="&#x24;" horiz-adv-x="545" d="M451 825 C451 825 439 755 439 755 C421 758 401 760 380 760 C379 760 378 760 377 760 C377 760 388 825 388 825 C388 825 371 825 371 825 C371 825 359 759 359 759 C257 752 195 692 175 577 C161 501 193 438 292 376 C292 376 228 17 228 17 C212 22 197 28 184 36 C143 63 115 146 106 215 C106 215 91 215 91 215 C91 215 79 148 79 148 C79 148 79 148 79 148 C79 148 79 148 79 148 C79 148 76 131 76 131 C71 103 66 75 61 46 C61 46 76 46 76 46 C76 46 79 55 86 72 C88 78 109 69 147 37 C147 37 148 37 148 37 C170 19 195 6 225 -1 C225 -1 212 -75 212 -75 C212 -75 229 -75 229 -75 C229 -75 241 -5 241 -5 C260 -8 279 -10 300 -10 C301 -10 302 -10 303 -10 C303 -10 292 -75 292 -75 C292 -75 309 -75 309 -75 C309 -75 321 -9 321 -9 C443 -3 516 61 537 181 C553 270 516 338 393 402 C393 402 452 735 452 735 C508 710 539 641 548 575 C548 575 563 575 563 575 C568 599 572 624 577 649 C576 649 581 674 590 723 C590 723 575 723 575 723 C575 723 566 702 566 702 C564 697 548 702 523 721 C523 721 523 721 523 721 C504 735 482 745 455 752 C455 752 468 825 468 825 C468 825 451 825 451 825 L451 825 Z M452 737 C452 737 452 737 452 737 C454 737 455 736 457 736 C457 736 452 737 452 737 L452 737 Z M436 740 C436 740 426 743 426 743 C427 742 428 742 430 742 C432 742 434 741 436 740 C436 740 436 740 436 740 L436 740 Z M436 740 C436 740 378 410 378 410 C356 421 337 432 321 443 C321 443 374 746 374 746 C375 746 377 746 378 746 C395 746 411 745 426 743 C426 743 424 743 424 743 C426 743 428 742 430 742 C432 742 434 741 436 741 C436 741 436 740 436 740 C437 740 438 740 439 740 C439 740 436 740 436 740 L436 740 Z M307 367 C319 360 332 353 346 346 C352 343 359 339 365 336 C365 336 307 8 307 8 C305 8 304 8 303 8 C282 8 263 10 245 14 C245 14 307 367 307 367 L307 367 Z M380 327 C470 274 500 224 490 165 C472 68 416 15 324 9 C324 9 380 327 380 327 L380 327 Z M305 454 C237 503 214 548 222 598 C238 688 283 737 357 745 C357 745 305 454 305 454 L305 454 Z " />
<glyph glyph-name="ampersand" unicode="&#x26;" horiz-adv-x="311" d="M394 471 C394 471 398 466 398 466 C505 496 564 546 576 613 C593 711 551 760 449 760 C341 760 278 707 259 603 C252 560 289 510 360 404 C360 404 536 145 536 145 C452 72 366 36 280 36 C165 36 118 97 140 216 C160 332 225 407 333 438 C333 438 324 441 324 441 C186 400 105 320 84 201 C60 61 113 -10 243 -10 C345 -10 446 37 546 130 C546 130 567 99 567 99 C616 27 660 -10 698 -10 C772 -10 825 43 857 148 C857 148 848 151 848 151 C825 71 784 31 726 31 C696 31 659 63 616 125 C616 125 585 170 585 170 C662 252 738 362 812 500 C812 500 800 500 800 500 C727 365 653 259 577 183 C577 183 409 430 409 430 C337 536 300 586 308 630 C322 708 369 748 447 748 C521 748 551 704 535 616 C523 543 475 495 394 471 C394 471 394 471 394 471 L394 471 Z " />
<glyph glyph-name="quotesingle" unicode="&#x27;" horiz-adv-x="204" d="" />
<glyph glyph-name="parenleft" unicode="&#x28;" horiz-adv-x="435" d="M454 760 C277 654 169 490 130 273 C94 65 142 -99 275 -214 C275 -214 279 -209 279 -209 C165 -109 127 52 166 273 C206 501 304 662 456 754 C456 754 454 760 454 760 L454 760 Z " />
<glyph glyph-name="parenright" unicode="&#x29;" horiz-adv-x="435" d="M160 754 C281 666 321 504 280 273 C239 38 144 -123 -3 -209 C-3 -209 -1 -214 -1 -214 C170 -115 276 48 316 273 C355 494 304 658 164 760 C164 760 160 754 160 754 L160 754 Z " />
<glyph glyph-name="asterisk" unicode="&#x2a;" horiz-adv-x="268" d="M147 630 C147 630 38 583 38 583 C27 578 24 571 29 560 C35 550 44 549 54 557 C54 557 149 627 149 627 C149 627 135 510 135 510 C133 497 138 491 150 491 C162 491 167 497 165 510 C165 510 151 627 151 627 C151 627 246 557 246 557 C256 549 265 550 271 560 C276 571 273 578 262 583 C262 583 153 630 153 630 C153 630 262 677 262 677 C273 682 276 689 271 700 C265 710 256 711 246 703 C246 703 151 633 151 633 C151 633 165 750 165 750 C167 763 162 769 150 769 C138 769 133 763 135 750 C135 750 149 633 149 633 C149 633 54 703 54 703 C44 711 35 710 29 700 C24 689 27 682 38 677 C38 677 147 630 147 630 L147 630 Z " />
<glyph glyph-name="plus" unicode="&#x2b;" horiz-adv-x="620" d="M372 460 C372 460 338 268 338 268 C338 268 147 268 147 268 C147 268 141 232 141 232 C141 232 332 232 332 232 C332 232 298 40 298 40 C298 40 336 40 336 40 C336 40 370 232 370 232 C370 232 561 232 561 232 C561 232 567 268 567 268 C567 268 377 268 377 268 C377 268 411 460 411 460 C411 460 372 460 372 460 L372 460 Z " />
<glyph glyph-name="comma" unicode="&#x2c;" horiz-adv-x="261" d="M174 22 C173 14 172 5 170 -5 C159 -69 118 -101 47 -101 C47 -101 45 -113 45 -113 C129 -113 179 -71 193 12 C205 81 189 115 145 115 C105 115 82 95 75 55 C68 15 84 -5 124 -5 C146 -5 163 4 174 22 L174 22 Z " />
<glyph glyph-name="hyphen" unicode="&#x2d;" horiz-adv-x="430" d="M127 265 C127 265 397 265 397 265 C397 265 404 305 404 305 C404 305 134 305 134 305 C134 305 127 265 127 265 L127 265 Z " />
<glyph glyph-name="period" unicode="&#x2e;" horiz-adv-x="195" d="M124 -5 C147 -5 161 7 166 30 C170 54 160 66 137 66 C113 66 99 54 95 30 C91 7 101 -5 124 -5 L124 -5 Z " />
<glyph glyph-name="slash" unicode="&#x2f;" horiz-adv-x="378" d="M455 770 C455 770 23 -80 23 -80 C23 -80 53 -80 53 -80 C53 -80 484 770 484 770 C484 770 455 770 455 770 L455 770 Z " />
<glyph glyph-name="zero" unicode="0" horiz-adv-x="605" d="M307 11 C168 11 89 91 117 250 C142 393 237 489 391 489 C530 489 609 409 581 250 C556 107 461 11 307 11 L307 11 Z M93 250 C63 77 150 -10 303 -10 C473 -10 578 95 605 250 C635 423 548 510 395 510 C225 510 121 405 93 250 L93 250 Z " />
<glyph glyph-name="one" unicode="1" horiz-adv-x="270" d="M319 500 C319 500 128 500 128 500 C127 490 125 488 125 480 C125 480 135 480 135 480 C175 480 194 479 192 465 C192 465 116 35 116 35 C114 21 94 20 54 20 C54 20 44 20 44 20 C43 16 41 2 40 0 C40 0 231 0 231 0 C231 0 234 20 234 20 C234 20 223 20 223 20 C184 20 164 21 166 35 C166 35 242 465 242 465 C244 479 265 480 304 480 C304 480 315 480 315 480 C316 484 318 498 319 500 L319 500 Z " />
<glyph glyph-name="two" unicode="2" horiz-adv-x="527" d="M477 90 C477 90 468 79 468 79 C450 56 433 44 330 44 C330 44 123 44 123 44 C331 145 469 235 488 343 C507 454 461 510 350 510 C235 510 150 437 97 294 C97 294 107 291 107 291 C152 411 222 472 318 472 C412 472 452 425 436 331 C413 205 258 114 32 9 C32 9 30 0 30 0 C30 0 317 0 317 0 C317 0 425 0 425 0 C425 0 436 14 436 14 C455 38 475 62 493 86 C493 86 477 90 477 90 L477 90 Z " />
<glyph glyph-name="three" unicode="3" horiz-adv-x="408" d="M-21 -222 C-21 -222 -21 -232 -21 -232 C215 -207 346 -130 369 -2 C387 103 329 167 196 187 C346 252 427 309 440 384 C455 468 410 510 304 510 C201 510 127 457 84 351 C84 351 94 348 94 348 C129 432 190 475 278 475 C361 475 396 439 384 367 C369 283 284 230 122 166 C122 166 121 156 121 156 C265 135 330 77 313 -17 C293 -132 181 -201 -21 -222 L-21 -222 Z " />
<glyph glyph-name="four" unicode="4" horiz-adv-x="620" d="M596 3 C604 30 613 57 622 84 C622 84 602 84 602 84 C602 84 598 73 598 73 C591 50 579 38 477 38 C477 38 422 38 422 38 C451 202 480 366 508 530 C508 530 502 530 502 530 C502 530 17 9 17 9 C17 9 15 0 15 0 C15 0 365 0 365 0 C365 0 326 -220 326 -220 C326 -220 376 -220 376 -220 C389 -147 402 -73 415 0 C415 0 515 0 515 0 C571 0 572 -9 566 -28 C566 -28 563 -39 563 -39 C563 -39 583 -39 583 -39 C587 -26 591 -13 595 0 C595 0 595 0 595 0 C595 0 596 3 596 3 L596 3 Z M67 38 C67 38 443 443 443 443 C443 443 372 38 372 38 C372 38 67 38 67 38 C67 38 67 38 67 38 L67 38 Z " />
<glyph glyph-name="five" unicode="5" horiz-adv-x="427" d="M19 -232 C249 -205 378 -111 406 47 C432 194 343 268 141 268 C141 268 131 268 131 268 C131 268 201 455 201 455 C201 455 421 457 421 457 C431 483 440 512 450 540 C450 540 430 540 430 540 C420 509 418 500 316 500 C316 500 200 500 200 500 C200 500 96 223 96 223 C96 223 104 215 104 215 C104 215 126 215 126 215 C303 215 381 153 359 30 C334 -114 220 -199 20 -223 C20 -223 19 -232 19 -232 L19 -232 Z " />
<glyph glyph-name="six" unicode="6" horiz-adv-x="566" d="M682 750 C344 681 151 525 109 287 C75 90 136 -10 292 -10 C439 -10 528 74 557 239 C584 389 519 464 365 464 C284 464 224 436 187 380 C261 569 427 690 683 743 C683 743 682 750 682 750 L682 750 Z M154 260 C176 386 244 449 356 449 C481 449 532 380 508 242 C480 84 407 4 292 4 C170 4 124 90 154 260 L154 260 Z " />
<glyph glyph-name="seven" unicode="7" horiz-adv-x="447" d="M107 414 C107 414 127 414 127 414 C127 414 133 423 133 423 C148 448 159 460 205 460 C205 460 498 460 498 460 C498 460 77 -220 77 -220 C77 -220 115 -220 115 -220 C115 -220 528 485 528 485 C528 485 530 500 530 500 C530 500 233 500 233 500 C184 500 185 508 195 522 C195 522 200 532 200 532 C200 532 180 532 180 532 C156 492 131 452 107 414 L107 414 Z " />
<glyph glyph-name="eight" unicode="8" horiz-adv-x="542" d="M304 384 C310 381 316 378 323 375 C451 319 514 282 494 165 C474 57 401 2 275 2 C153 2 101 60 121 174 C139 273 200 343 304 384 C304 384 304 384 304 384 L304 384 Z M291 390 C166 340 95 268 78 174 C56 52 122 -10 273 -10 C425 -10 513 56 536 188 C557 310 500 354 381 407 C500 454 567 518 581 597 C600 705 542 760 406 760 C273 760 196 701 175 583 C160 496 200 437 291 390 C291 390 291 390 291 390 L291 390 Z M370 412 C363 415 357 418 350 421 C249 466 203 519 218 602 C235 699 298 748 404 748 C511 748 556 696 537 593 C523 511 467 450 370 412 C370 412 370 412 370 412 L370 412 Z " />
<glyph glyph-name="nine" unicode="9" horiz-adv-x="566" d="M-27 -250 C311 -181 504 -25 546 213 C580 410 519 510 363 510 C216 510 127 426 98 261 C72 111 136 36 290 36 C371 36 431 64 468 120 C394 -69 228 -190 -28 -243 C-28 -243 -27 -250 -27 -250 L-27 -250 Z M501 240 C479 114 411 51 299 51 C174 51 123 120 147 258 C175 416 248 496 363 496 C485 496 531 410 501 240 L501 240 Z " />
<glyph glyph-name="colon" unicode="&#x3a;" horiz-adv-x="135" d="M193 385 C216 385 230 397 234 420 C238 444 229 456 205 456 C182 456 168 444 164 420 C160 397 170 385 193 385 L193 385 Z M124 -5 C147 -5 161 7 166 30 C170 54 160 66 137 66 C113 66 99 54 95 30 C91 7 101 -5 124 -5 L124 -5 Z " />
<glyph glyph-name="semicolon" unicode="&#x3b;" horiz-adv-x="261" d="M193 385 C216 385 230 397 234 420 C238 444 229 456 205 456 C182 456 168 444 164 420 C160 397 170 385 193 385 L193 385 Z M174 22 C173 14 172 5 170 -5 C159 -69 118 -101 47 -101 C47 -101 45 -113 45 -113 C129 -113 179 -71 193 12 C205 81 189 115 145 115 C105 115 82 95 75 55 C68 15 84 -5 124 -5 C146 -5 163 4 174 22 L174 22 Z " />
<glyph glyph-name="equal" unicode="&#x3d;" horiz-adv-x="527" d="M115 211 C115 211 111 189 111 189 C111 189 491 189 491 189 C491 189 495 211 495 211 C495 211 115 211 115 211 L115 211 Z M133 311 C133 311 129 289 129 289 C129 289 509 289 509 289 C509 289 513 311 513 311 C513 311 133 311 133 311 L133 311 Z " />
<glyph glyph-name="question" unicode="&#x3f;" horiz-adv-x="304" d="M124 -5 C147 -5 161 7 166 30 C170 54 160 66 137 66 C113 66 99 54 95 30 C91 7 101 -5 124 -5 L124 -5 Z M152 175 C152 175 188 360 188 360 C282 360 309 391 361 453 C384 481 400 514 407 553 C431 691 388 760 279 760 C248 760 230 748 225 723 C223 706 230 698 248 698 C261 698 274 707 288 707 C375 707 410 653 391 547 C387 524 375 501 354 476 C316 432 297 410 180 410 C180 410 143 175 143 175 C143 175 152 175 152 175 L152 175 Z " />
<glyph glyph-name="at" unicode="&#x40;" horiz-adv-x="1139" d="M1044 0 C942 -159 772 -239 535 -239 C214 -239 81 -72 140 259 C198 590 387 757 703 757 C1020 757 1155 618 1106 343 C1067 118 982 4 853 4 C721 4 682 70 737 200 C737 200 857 480 857 480 C857 480 809 480 809 480 C809 480 771 390 771 390 C773 457 736 490 661 490 C477 490 367 392 332 197 C311 75 358 13 472 13 C554 13 620 52 668 129 C652 34 710 -13 841 -13 C1001 -13 1103 106 1145 343 C1195 627 1047 770 706 770 C364 770 161 598 101 259 C41 -80 186 -252 533 -252 C776 -252 953 -167 1061 0 C1061 0 1044 0 1044 0 L1044 0 Z M756 355 C756 355 690 200 690 200 C645 94 582 41 503 41 C407 41 369 97 389 207 C420 386 510 476 658 476 C737 476 770 435 756 355 L756 355 Z " />
<glyph glyph-name="A" unicode="A" horiz-adv-x="708" d="M479 0 C479 0 574 0 574 0 C574 0 633 0 633 0 C633 0 693 0 693 0 C694 4 696 18 697 20 C697 20 673 20 673 20 C646 20 631 27 618 115 C618 115 540 732 540 732 C540 732 535 770 535 770 C535 770 529 770 529 770 C508 746 493 733 484 732 C484 732 485 722 485 722 C485 722 485 722 485 722 C485 722 196 151 196 151 C133 29 104 20 58 20 C58 20 35 20 35 20 C35 18 35 8 32 0 C32 0 120 0 120 0 C120 0 137 0 137 0 C137 0 253 0 253 0 C253 0 256 20 256 20 C256 20 235 20 235 20 C180 20 155 29 208 143 C208 143 280 287 280 287 C280 287 539 287 539 287 C539 287 558 126 558 126 C568 27 547 20 504 20 C504 20 483 20 483 20 C482 16 480 2 479 0 L479 0 Z M287 302 C287 302 487 705 487 705 C487 705 537 302 537 302 C537 302 287 302 287 302 L287 302 Z " />
<glyph glyph-name="B" unicode="B" horiz-adv-x="619" d="M74 0 C74 0 204 0 204 0 C204 0 204 2 207 16 C207 16 204 0 204 0 C204 0 324 0 324 0 C494 0 584 20 614 195 C634 310 585 374 467 387 C581 407 647 468 665 569 C686 689 668 750 421 750 C421 750 336 750 336 750 C336 750 206 750 206 750 C205 740 203 738 203 730 C203 730 213 730 213 730 C255 730 276 725 265 665 C265 665 163 85 163 85 C152 25 130 20 88 20 C88 20 77 20 77 20 C79 20 74 0 74 0 L74 0 Z M334 739 C334 739 396 739 396 739 C614 739 629 680 608 563 C588 448 508 390 370 390 C370 390 273 390 273 390 C273 390 321 665 321 665 C328 707 332 728 334 739 L334 739 Z M271 380 C271 380 373 380 373 380 C373 380 379 380 379 380 C516 380 574 318 553 195 C523 30 450 11 311 11 C311 11 261 11 261 11 C226 11 211 32 217 74 C218 78 218 81 219 85 C219 85 271 382 271 382 C271 382 271 380 271 380 L271 380 Z " />
<glyph glyph-name="C" unicode="C" horiz-adv-x="703" d="M755 555 C759 580 764 606 769 632 C769 632 773 658 782 709 C782 709 767 709 767 709 C767 709 764 702 759 689 C757 684 733 692 691 720 C654 746 604 760 516 760 C303 760 173 631 128 375 C83 119 164 -10 370 -10 C451 -10 509 3 558 28 C558 28 559 28 559 28 C559 28 647 58 647 58 C653 60 654 53 652 38 C652 38 664 38 664 38 C668 64 673 90 678 116 C678 116 678 118 679 121 C679 121 679 121 679 121 C679 121 679 121 679 121 C680 131 685 156 692 195 C692 195 677 195 677 195 C676 195 674 190 669 180 C643 128 590 65 534 35 C491 14 442 3 377 3 C209 3 146 128 189 375 C233 621 343 746 519 746 C568 746 603 740 632 729 C694 703 730 625 740 555 C740 555 755 555 755 555 L755 555 Z " />
<glyph glyph-name="D" unicode="D" horiz-adv-x="787" d="M63 0 C63 0 137 0 137 0 C137 0 193 0 193 0 C193 0 273 0 273 0 C578 0 751 101 799 375 C843 624 752 750 445 750 C445 750 325 750 325 750 C325 750 269 750 269 750 C269 750 195 750 195 750 C194 740 192 738 192 730 C192 730 202 730 202 730 C244 730 265 725 254 665 C254 665 254 665 254 665 C254 665 151 82 151 82 C140 25 118 20 77 20 C77 20 66 20 66 20 C68 20 63 0 63 0 C63 0 63 0 63 0 L63 0 Z M323 739 C323 739 398 739 398 739 C693 739 780 617 738 375 C690 109 534 11 258 11 C202 11 199 29 205 66 C206 72 207 78 208 85 C208 85 208 85 208 85 C208 85 317 703 317 703 C320 721 322 732 323 739 L323 739 Z " />
<glyph glyph-name="E" unicode="E" horiz-adv-x="590" d="M604 650 C604 650 624 650 624 650 C628 683 631 716 635 750 C635 750 515 750 515 750 C515 750 325 750 325 750 C325 750 269 750 269 750 C269 750 195 750 195 750 C194 740 192 738 192 730 C192 730 202 730 202 730 C244 730 265 725 254 665 C254 665 254 665 254 665 C254 665 151 82 151 82 C140 25 118 20 77 20 C77 20 66 20 66 20 C68 20 63 0 63 0 C63 0 137 0 137 0 C137 0 193 0 193 0 C193 0 408 0 408 0 C408 0 528 0 528 0 C538 34 549 67 559 100 C559 100 539 100 539 100 C539 100 536 89 536 89 C520 38 505 12 411 12 C411 12 275 12 275 12 C204 12 199 30 205 65 C206 71 207 78 208 85 C208 85 208 85 208 85 C208 85 261 385 261 385 C261 385 390 385 390 385 C490 385 486 350 473 287 C473 287 493 287 493 287 C507 356 518 426 530 497 C530 497 510 497 510 497 C510 497 508 486 508 486 C498 428 486 398 393 398 C393 398 263 398 263 398 C263 398 317 703 317 703 C324 746 325 750 325 750 C325 750 323 738 323 738 C323 738 514 738 514 738 C631 738 611 710 604 650 C604 650 604 650 604 650 L604 650 Z " />
<glyph glyph-name="F" unicode="F" horiz-adv-x="565" d="M606 653 C606 653 610 653 616 654 C616 654 626 654 626 654 C630 685 633 718 635 750 C635 750 515 750 515 750 C515 750 325 750 325 750 C325 750 269 750 269 750 C269 750 195 750 195 750 C194 740 192 738 192 730 C192 730 202 730 202 730 C244 730 265 725 254 665 C254 665 254 665 254 665 C254 665 151 82 151 82 C140 25 118 20 77 20 C77 20 66 20 66 20 C68 20 63 0 63 0 C63 0 137 0 137 0 C137 0 193 0 193 0 C193 0 266 0 266 0 C267 4 269 18 270 20 C270 20 259 20 259 20 C218 20 197 25 208 85 C208 85 208 85 208 85 C208 85 258 372 258 372 C258 372 455 372 455 372 C473 361 474 342 472 315 C472 315 471 283 471 283 C471 283 483 283 483 283 C493 348 506 410 516 474 C516 474 504 474 504 474 C504 474 494 442 494 442 C483 404 470 385 380 385 C380 385 261 385 261 385 C261 385 317 703 317 703 C320 723 322 734 323 741 C323 741 434 741 434 741 C610 741 612 715 606 653 C606 653 606 653 606 653 L606 653 Z " />
<glyph glyph-name="G" unicode="G" horiz-adv-x="758" d="M755 555 C759 580 764 606 769 632 C769 632 773 658 782 709 C782 709 767 709 767 709 C767 709 764 702 759 689 C757 684 733 692 691 720 C654 746 604 760 516 760 C303 760 173 631 128 375 C83 119 165 -10 374 -10 C487 -10 560 2 632 25 C632 25 641 27 641 27 C641 27 641 28 641 28 C668 38 696 48 725 61 C725 61 722 69 722 69 C695 57 669 47 643 38 C643 38 679 245 679 245 C689 301 706 305 739 305 C739 305 749 305 749 305 C750 305 753 325 753 325 C753 325 567 325 567 325 C567 325 564 305 563 305 C563 305 574 305 574 305 C614 305 633 301 623 245 C623 245 585 22 585 22 C585 22 585 22 585 22 C585 22 594 77 594 77 C588 42 549 20 477 10 C477 10 533 13 533 13 C490 7 442 4 381 4 C381 4 477 10 477 10 C450 6 418 4 381 4 C210 4 146 129 189 375 C233 621 343 746 519 746 C568 746 603 740 632 729 C694 703 730 625 740 555 C740 555 755 555 755 555 L755 555 Z " />
<glyph glyph-name="H" unicode="H" horiz-adv-x="778" d="M859 750 C859 750 655 750 655 750 C654 740 652 738 652 730 C652 730 662 730 662 730 C704 730 725 726 715 670 C715 670 666 391 666 391 C666 391 298 391 298 391 C298 391 347 670 347 670 C357 726 379 730 420 730 C420 730 431 730 431 730 C431 730 434 750 435 750 C435 750 231 750 231 750 C230 740 228 738 228 730 C228 730 238 730 238 730 C280 730 301 726 291 670 C291 670 187 80 187 80 C177 24 155 20 113 20 C113 20 102 20 102 20 C104 20 99 0 99 0 C99 0 302 0 302 0 C303 4 305 18 306 20 C306 20 295 20 295 20 C254 20 233 24 243 80 C243 80 295 375 295 375 C295 375 663 375 663 375 C663 375 611 80 611 80 C601 24 579 20 537 20 C537 20 526 20 526 20 C526 18 526 8 523 0 C523 0 726 0 726 0 C727 4 729 18 730 20 C730 20 719 20 719 20 C678 20 657 24 667 80 C667 80 771 670 771 670 C781 726 803 730 844 730 C844 730 855 730 855 730 C855 730 858 750 859 750 L859 750 Z " />
<glyph glyph-name="I" unicode="I" horiz-adv-x="324" d="M405 750 C405 750 201 750 201 750 C200 740 198 738 198 730 C198 730 208 730 208 730 C250 730 271 726 261 670 C261 670 157 80 157 80 C147 24 125 20 83 20 C83 20 72 20 72 20 C74 20 69 0 69 0 C69 0 272 0 272 0 C273 4 275 18 276 20 C276 20 265 20 265 20 C224 20 203 24 213 80 C213 80 317 670 317 670 C327 726 349 730 390 730 C390 730 401 730 401 730 C401 730 404 750 405 750 L405 750 Z " />
<glyph glyph-name="J" unicode="J" horiz-adv-x="324" d="M405 750 C405 750 201 750 201 750 C200 740 198 738 198 730 C198 730 208 730 208 730 C250 730 271 726 261 670 C261 670 137 -31 137 -31 C110 -188 48 -200 -4 -200 C-35 -200 -8 -153 -40 -153 C-57 -153 -68 -162 -71 -180 C-75 -206 -59 -220 -21 -220 C63 -220 164 -199 212 75 C212 75 317 670 317 670 C327 726 349 730 390 730 C390 730 401 730 401 730 C401 730 404 750 405 750 L405 750 Z " />
<glyph glyph-name="K" unicode="K" horiz-adv-x="674" d="M654 20 C654 20 626 20 626 20 C605 20 573 49 547 85 C547 85 547 85 547 85 C547 85 309 410 309 410 C309 410 548 640 548 640 C548 640 548 640 548 640 C550 642 551 643 553 645 C553 645 572 663 572 663 C637 725 658 730 684 730 C684 730 708 730 708 730 C708 730 711 750 712 750 C712 750 662 750 662 750 C662 750 640 750 640 750 C640 750 541 750 541 750 C541 750 538 730 538 730 C538 730 556 730 556 730 C598 730 611 722 497 610 C497 610 499 611 499 611 C499 611 259 375 259 375 C259 375 316 698 316 698 C324 727 346 730 384 730 C384 730 395 730 395 730 C395 730 398 750 399 750 C399 750 325 750 325 750 C325 750 269 750 269 750 C269 750 195 750 195 750 C194 740 192 738 192 730 C192 730 202 730 202 730 C244 730 265 727 258 690 C258 690 258 690 258 690 C258 690 148 60 148 60 C148 60 147 60 147 60 C141 23 119 20 77 20 C77 20 66 20 66 20 C68 20 63 0 63 0 C63 0 137 0 137 0 C137 0 193 0 193 0 C193 0 266 0 266 0 C267 4 269 18 270 20 C270 20 259 20 259 20 C221 20 201 23 202 51 C202 51 259 375 259 375 C259 375 473 85 473 85 C473 85 473 85 473 85 C537 -2 536 0 536 0 C536 0 609 0 609 0 C609 0 650 0 650 0 C651 4 653 18 654 20 L654 20 Z " />
<glyph glyph-name="L" unicode="L" horiz-adv-x="623" d="M103 0 C103 0 177 0 177 0 C177 0 233 0 233 0 C233 0 380 0 380 0 C380 0 565 0 565 0 C565 0 568 0 568 0 C568 0 569 9 569 9 C586 48 603 84 620 123 C616 124 603 125 601 125 C601 125 596 115 596 115 C565 45 538 10 384 10 C384 10 314 10 314 10 C241 10 239 29 245 69 C246 74 247 79 248 85 C248 85 248 85 248 85 C248 85 351 668 351 668 C362 725 384 730 424 730 C424 730 435 730 435 730 C435 730 438 750 439 750 C439 750 365 750 365 750 C365 750 309 750 309 750 C309 750 235 750 235 750 C234 740 232 738 232 730 C232 730 242 730 242 730 C284 730 305 725 294 665 C294 665 294 665 294 665 C294 665 191 82 191 82 C180 25 158 20 117 20 C117 20 106 20 106 20 C108 20 103 0 103 0 C103 0 103 0 103 0 L103 0 Z " />
<glyph glyph-name="M" unicode="M" horiz-adv-x="860" d="M179 730 C179 730 202 730 202 730 C229 730 246 727 258 696 C258 696 143 131 143 131 C118 28 96 20 55 20 C55 20 32 20 32 20 C31 10 29 8 29 0 C29 0 116 0 116 0 C116 0 135 0 135 0 C135 0 223 0 223 0 C224 4 226 18 227 20 C227 20 204 20 204 20 C161 20 140 28 163 140 C163 140 163 140 163 140 C163 140 266 666 266 666 C315 444 363 222 411 0 C411 0 425 0 425 0 C425 0 792 697 792 697 C792 697 698 75 698 75 C688 24 667 20 625 20 C625 20 615 20 615 20 C614 16 612 2 611 0 C611 0 687 0 687 0 C687 0 743 0 743 0 C743 0 814 0 814 0 C815 4 817 18 818 20 C818 20 807 20 807 20 C766 20 746 25 756 85 C756 85 755 85 755 85 C755 85 830 590 830 590 C850 721 868 730 900 730 C900 730 923 730 923 730 C924 730 927 750 927 750 C927 750 853 750 853 750 C853 750 820 750 820 750 C820 750 800 750 800 750 C800 750 449 73 449 73 C449 73 315 750 315 750 C315 750 283 750 283 750 C283 750 269 750 269 750 C269 750 248 750 248 750 C248 750 182 750 182 750 C181 740 179 738 179 730 C179 730 179 730 179 730 L179 730 Z " />
<glyph glyph-name="N" unicode="N" horiz-adv-x="731" d="M181 730 C181 730 208 730 208 730 C218 730 226 729 238 707 C238 707 248 688 248 688 C248 688 148 127 148 127 C128 28 105 20 65 20 C65 20 42 20 42 20 C41 10 39 8 39 0 C39 0 126 0 126 0 C126 0 143 0 143 0 C143 0 231 0 231 0 C232 4 234 18 235 20 C235 20 212 20 212 20 C168 20 148 28 168 140 C168 140 167 140 167 140 C167 140 259 667 259 667 C259 667 551 79 551 79 C551 79 590 0 590 0 C590 0 602 0 602 0 C602 0 720 649 720 649 C736 724 764 730 811 730 C811 730 822 730 822 730 C822 730 825 750 825 750 C825 750 738 750 738 750 C738 750 721 750 721 750 C721 750 634 750 634 750 C633 750 630 730 630 730 C630 730 641 730 641 730 C692 730 717 723 700 630 C700 630 700 630 700 630 C700 630 608 101 608 101 C608 101 603 110 603 110 C603 110 286 750 286 750 C286 750 273 750 273 750 C273 750 259 750 259 750 C259 750 217 750 217 750 C217 750 185 750 185 750 C185 750 182 730 181 730 L181 730 Z " />
<glyph glyph-name="O" unicode="O" horiz-adv-x="773" d="M395 5 C216 5 148 129 191 375 C234 621 348 745 530 745 C721 745 796 621 753 375 C710 129 589 5 395 5 L395 5 Z M127 375 C82 119 170 -10 389 -10 C628 -10 772 119 817 375 C862 631 768 760 535 760 C309 760 172 631 127 375 L127 375 Z " />
<glyph glyph-name="P" unicode="P" horiz-adv-x="543" d="M195 730 C195 730 205 730 205 730 C247 730 268 725 257 665 C257 665 257 665 257 665 C257 665 154 82 154 82 C143 25 121 20 80 20 C80 20 69 20 69 20 C69 18 69 8 66 0 C66 0 140 0 140 0 C140 0 196 0 196 0 C196 0 269 0 269 0 C270 4 272 18 273 20 C273 20 262 20 262 20 C221 20 200 25 211 85 C211 85 211 85 211 85 C211 85 258 353 258 353 C258 353 308 353 308 353 C493 353 594 397 619 541 C644 680 580 750 428 750 C428 750 328 750 328 750 C328 750 272 750 272 750 C272 750 198 750 198 750 C197 740 195 738 195 730 C195 730 195 730 195 730 L195 730 Z M326 741 C354 741 383 740 412 740 C538 740 590 676 568 550 C543 409 460 365 310 365 C310 365 260 365 260 365 C260 365 320 703 320 703 C323 723 325 734 326 741 C326 741 326 741 326 741 L326 741 Z " />
<glyph glyph-name="Q" unicode="Q" horiz-adv-x="800" d="M1092 -48 C1092 -48 1089 -44 1089 -44 C1049 -73 949 -88 793 -88 C622 -88 489 -62 396 -10 C631 -7 772 122 817 375 C862 631 768 760 535 760 C309 760 172 631 127 375 C90 165 217 40 324 2 C456 -89 607 -135 776 -135 C908 -135 1014 -106 1092 -48 L1092 -48 Z M395 5 C386 5 376 6 366 9 C366 9 366 9 366 9 C366 9 365 9 365 9 C275 32 152 154 191 375 C234 621 348 745 530 745 C721 745 796 621 753 375 C710 129 589 5 395 5 L395 5 Z " />
<glyph glyph-name="R" unicode="R" horiz-adv-x="701" d="M192 730 C192 730 202 730 202 730 C244 730 265 725 254 665 C254 665 152 85 152 85 C141 25 119 20 77 20 C77 20 66 20 66 20 C68 20 63 0 63 0 C63 0 266 0 266 0 C267 4 269 18 270 20 C270 20 259 20 259 20 C218 20 197 25 208 85 C208 85 257 366 257 366 C257 366 395 366 395 366 C402 338 436 242 495 80 C527 -5 516 0 667 0 C667 0 669 11 669 11 C581 11 588 7 561 80 C502 237 466 334 453 368 C560 379 621 425 641 540 C666 680 607 750 467 750 C467 750 325 750 325 750 C325 750 195 750 195 750 C194 740 192 738 192 730 C192 730 192 730 192 730 L192 730 Z M323 739 C323 739 448 739 448 739 C558 739 603 676 582 551 C558 420 501 380 401 380 C401 380 260 380 260 380 C260 380 259 377 259 377 C259 377 310 665 310 665 C317 707 321 728 323 739 L323 739 Z " />
<glyph glyph-name="S" unicode="S" horiz-adv-x="545" d="M563 575 C568 599 572 624 577 649 C576 649 581 674 590 723 C590 723 575 723 575 723 C575 723 566 702 566 702 C564 697 548 702 523 721 C523 721 523 721 523 721 C489 747 441 760 380 760 C265 760 196 699 175 577 C159 489 204 418 346 346 C463 286 501 231 490 165 C471 61 408 8 303 8 C256 8 216 17 184 36 C143 63 115 146 106 215 C106 215 91 215 91 215 C91 215 79 148 79 148 C79 148 79 148 79 148 C79 148 79 148 79 148 C79 148 76 131 76 131 C71 103 66 75 61 46 C61 46 76 46 76 46 C76 46 79 55 86 72 C88 78 109 69 147 37 C147 37 148 37 148 37 C186 6 237 -10 300 -10 C435 -10 515 54 537 181 C553 271 515 340 389 404 C255 473 211 532 222 598 C240 696 292 746 378 746 C395 746 411 745 426 743 C426 743 424 743 424 743 C426 743 428 742 430 742 C439 740 448 738 457 736 C457 736 439 740 439 740 C503 721 539 646 548 575 C548 575 563 575 563 575 L563 575 Z M439 740 C439 740 426 743 426 743 C427 742 428 742 430 742 C433 741 436 741 439 740 C439 740 439 740 439 740 L439 740 Z " />
<glyph glyph-name="T" unicode="T" horiz-adv-x="775" d="M863 664 C859 685 855 706 852 726 C852 726 850 736 850 736 C850 736 852 750 852 750 C852 750 847 750 847 750 C847 750 840 789 840 789 C840 789 836 789 830 790 C830 790 820 790 820 790 C824 758 828 750 727 750 C727 750 548 750 548 750 C548 750 492 750 492 750 C492 750 312 750 312 750 C219 750 218 760 229 781 C229 781 234 790 234 790 C234 790 224 790 224 790 C217 789 214 789 214 789 C207 776 199 763 192 750 C192 750 187 750 187 750 C187 750 185 737 185 737 C172 713 159 689 146 664 C150 663 163 662 165 662 C165 662 171 673 171 673 C193 715 212 736 305 736 C305 736 490 736 490 736 C490 736 374 80 374 80 C364 24 342 20 300 20 C300 20 289 20 289 20 C289 18 289 8 286 0 C286 0 489 0 489 0 C490 4 492 18 493 20 C493 20 482 20 482 20 C440 20 419 24 430 80 C430 80 546 736 546 736 C546 736 730 736 730 736 C823 736 834 715 842 673 C842 673 844 662 844 662 C848 663 861 664 863 664 C863 664 863 664 863 664 L863 664 Z " />
<glyph glyph-name="U" unicode="U" horiz-adv-x="655" d="M559 730 C559 730 569 730 569 730 C611 730 632 725 621 665 C621 665 523 110 523 110 C523 110 504 0 504 0 C504 0 512 0 512 0 C512 0 642 55 642 55 C642 55 644 65 644 65 C575 61 570 63 579 110 C579 110 677 665 677 665 C690 744 691 750 692 750 C692 750 562 750 562 750 C561 740 559 738 559 730 L559 730 Z M157 730 C157 730 167 730 167 730 C209 730 230 725 219 665 C219 665 140 220 140 220 C114 67 148 -10 242 -10 C365 -10 462 44 530 150 C530 150 534 175 534 175 C471 76 382 26 271 26 C199 26 174 91 196 220 C196 220 275 665 275 665 C289 744 290 750 290 750 C290 750 160 750 160 750 C159 740 157 738 157 730 L157 730 Z " />
<glyph glyph-name="V" unicode="V" horiz-adv-x="738" d="M377 750 C377 750 261 750 261 750 C261 750 197 750 197 750 C197 750 158 750 158 750 C157 740 155 738 155 730 C155 730 181 730 181 730 C194 730 201 727 207 690 C207 690 208 689 208 689 C208 689 317 75 317 75 C317 75 332 -10 332 -10 C332 -10 343 -10 343 -10 C343 -10 686 610 686 610 C686 610 686 610 686 610 C745 722 765 730 795 730 C795 730 819 730 819 730 C819 730 822 750 822 750 C822 750 763 750 763 750 C763 750 741 750 741 750 C741 750 625 750 625 750 C624 750 621 730 621 730 C621 730 642 730 642 730 C700 730 725 722 665 610 C665 610 666 610 666 610 C666 610 378 75 378 75 C378 75 282 630 282 630 C269 723 298 730 353 730 C353 730 374 730 374 730 C374 730 377 750 377 750 L377 750 Z " />
<glyph glyph-name="W" unicode="W" horiz-adv-x="1065" d="M1151 750 C1151 750 1090 750 1090 750 C1090 750 1067 750 1067 750 C1067 750 951 750 951 750 C951 750 948 730 948 730 C948 730 969 730 969 730 C1024 730 1051 723 1011 630 C1011 630 755 82 755 82 C755 82 685 640 685 640 C685 640 685 640 685 640 C674 724 698 730 748 730 C748 730 769 730 769 730 C770 730 773 750 773 750 C773 750 671 750 671 750 C671 750 606 750 606 750 C606 750 546 750 546 750 C546 750 543 730 542 730 C542 730 566 730 566 730 C591 730 606 728 613 700 C622 633 632 567 641 500 C641 500 641 500 641 500 C641 500 379 70 379 70 C379 70 380 71 380 71 C380 71 298 631 298 631 C288 723 312 730 358 730 C358 730 379 730 379 730 C380 730 383 750 383 750 C383 750 281 750 281 750 C281 750 220 750 220 750 C220 750 180 750 180 750 C180 750 177 730 177 730 C177 730 203 730 203 730 C216 730 224 722 240 610 C240 610 240 610 240 610 C271 403 301 196 331 -10 C331 -10 346 -10 346 -10 C346 -10 645 474 645 474 C668 313 690 152 712 -10 C712 -10 727 -10 727 -10 C727 -10 1034 633 1034 633 C1079 723 1096 730 1124 730 C1124 730 1147 730 1147 730 C1148 730 1151 750 1151 750 C1151 750 1151 750 1151 750 L1151 750 Z " />
<glyph glyph-name="X" unicode="X" horiz-adv-x="739" d="M835 750 C835 750 789 750 789 750 C789 750 764 750 764 750 C764 750 669 750 669 750 C668 750 665 730 665 730 C665 730 685 730 685 730 C726 730 739 721 638 600 C638 600 638 599 638 599 C638 599 477 406 477 406 C477 406 372 640 372 640 C338 723 354 730 387 730 C387 730 407 730 407 730 C408 740 410 742 410 750 C410 750 323 750 323 750 C323 750 257 750 257 750 C257 750 216 750 216 750 C216 750 213 730 213 730 C213 730 238 730 238 730 C256 730 269 722 319 610 C319 610 320 610 320 610 C320 610 430 363 430 363 C430 363 198 96 198 96 C135 26 113 20 83 20 C83 20 59 20 59 20 C59 18 59 8 56 0 C56 0 116 0 116 0 C116 0 138 0 138 0 C138 0 268 0 268 0 C269 4 271 18 272 20 C272 20 252 20 252 20 C186 20 160 29 265 150 C265 150 263 149 263 149 C263 149 435 352 435 352 C435 352 529 140 529 140 C529 140 529 140 529 140 C579 28 564 20 527 20 C527 20 507 20 507 20 C507 18 507 8 504 0 C504 0 592 0 592 0 C592 0 658 0 658 0 C658 0 705 0 705 0 C706 4 708 18 709 20 C709 20 685 20 685 20 C661 20 646 28 596 140 C596 140 595 140 595 140 C595 140 482 395 482 395 C482 395 642 580 642 580 C642 580 642 580 642 580 C642 580 642 580 643 581 C643 581 720 670 720 670 C771 725 788 730 807 730 C807 730 831 730 831 730 C831 730 834 750 835 750 C835 750 835 750 835 750 L835 750 Z " />
<glyph glyph-name="Y" unicode="Y" horiz-adv-x="778" d="M397 750 C397 750 323 750 323 750 C323 750 257 750 257 750 C257 750 224 750 224 750 C224 750 220 730 220 730 C220 730 246 730 246 730 C257 730 266 724 300 649 C300 649 436 329 436 329 C436 329 436 329 436 329 C436 329 392 80 392 80 C382 24 360 20 318 20 C318 20 308 20 308 20 C307 16 305 2 304 0 C304 0 508 0 508 0 C508 0 511 20 511 20 C511 20 500 20 500 20 C459 20 438 24 448 80 C448 80 493 332 493 332 C493 332 695 610 695 610 C695 610 695 610 695 610 C776 722 794 730 817 730 C817 730 842 730 842 730 C842 730 845 750 845 750 C845 750 796 750 796 750 C796 750 768 750 768 750 C768 750 695 750 695 750 C694 750 691 730 691 730 C691 730 711 730 711 730 C736 730 747 725 713 671 C713 671 490 350 490 350 C490 350 381 610 381 610 C381 610 382 610 382 610 C334 722 345 730 374 730 C374 730 394 730 394 730 C394 730 397 750 397 750 L397 750 Z " />
<glyph glyph-name="Z" unicode="Z" horiz-adv-x="653" d="M197 616 C197 616 205 637 205 637 C232 702 255 735 378 735 C378 735 378 735 378 735 C378 735 688 738 688 738 C688 738 38 12 38 12 C38 12 36 0 36 0 C36 0 97 0 97 0 C97 0 457 0 457 0 C457 0 617 0 617 0 C635 42 653 81 669 123 C665 124 652 125 650 125 C650 125 631 94 631 94 C602 47 579 21 493 17 C493 17 108 13 108 13 C108 13 751 738 751 738 C751 738 753 750 753 750 C753 750 699 750 699 750 C699 750 383 750 383 750 C383 750 213 750 213 750 C213 750 171 618 171 618 C176 617 195 616 197 616 C197 616 197 616 197 616 L197 616 Z " />
<glyph glyph-name="bracketleft" unicode="&#x5b;" horiz-adv-x="285" d="M94 -180 C94 -180 257 750 257 750 C257 750 240 750 240 750 C240 750 73 -195 73 -195 C73 -195 91 -195 91 -195 C91 -195 301 -195 301 -195 C301 -195 303 -180 303 -180 C303 -180 94 -180 94 -180 L94 -180 Z M257 750 C257 750 255 735 255 735 C255 735 465 735 465 735 C465 735 467 750 467 750 C467 750 257 750 257 750 L257 750 Z " />
<glyph glyph-name="backslash" unicode="&#x5c;" horiz-adv-x="336" d="M173 770 C173 770 283 -80 283 -80 C283 -80 313 -80 313 -80 C313 -80 202 770 202 770 C202 770 173 770 173 770 L173 770 Z " />
<glyph glyph-name="bracketright" unicode="&#x5d;" horiz-adv-x="288" d="M129 -180 C129 -180 -81 -180 -81 -180 C-81 -180 -84 -195 -84 -195 C-84 -195 126 -195 126 -195 C126 -195 144 -195 144 -195 C144 -195 310 750 310 750 C310 750 293 750 293 750 C293 750 83 750 83 750 C83 750 80 735 80 735 C80 735 290 735 290 735 C290 735 293 750 293 750 C293 750 129 -180 129 -180 L129 -180 Z " />
<glyph glyph-name="underscore" unicode="&#x5f;" horiz-adv-x="455" d="M-4 -50 C-4 -50 -9 -78 -9 -78 C-9 -78 436 -78 436 -78 C436 -78 441 -50 441 -50 C441 -50 -4 -50 -4 -50 L-4 -50 Z " />
<glyph glyph-name="a" unicode="a" horiz-adv-x="512" d="M536 77 C536 77 526 83 526 83 C515 48 493 31 462 31 C425 31 408 48 414 81 C414 81 463 358 463 358 C484 474 444 510 353 510 C227 510 147 420 137 360 C133 337 139 325 156 325 C178 325 192 338 193 350 C197 367 179 378 181 392 C188 433 244 495 332 495 C402 495 432 467 417 377 C417 377 398 272 398 272 C118 190 85 180 68 80 C57 20 90 -10 166 -10 C240 -10 296 9 365 84 C365 84 364 81 364 81 C354 24 378 -5 435 -5 C483 -5 517 23 536 77 C536 77 536 77 536 77 L536 77 Z M396 260 C396 260 367 97 367 97 C308 33 261 17 198 17 C137 17 111 40 119 86 C136 183 164 192 396 260 C396 260 396 260 396 260 L396 260 Z " />
<glyph glyph-name="b" unicode="b" horiz-adv-x="557" d="M168 701 C168 701 179 704 179 704 C212 713 229 713 218 647 C180 431 143 215 104 0 C104 0 107 0 107 0 C116 22 125 44 134 66 C134 66 134 65 134 65 C167 15 223 -10 300 -10 C440 -10 526 78 557 251 C586 420 528 505 383 505 C332 505 280 478 229 424 C229 424 269 650 269 650 C285 743 286 750 286 750 C286 750 278 750 278 750 C278 750 172 721 172 721 C171 721 168 701 168 701 L168 701 Z M227 408 C273 459 317 484 359 484 C480 484 527 404 499 246 C471 83 406 1 305 1 C243 1 197 24 167 70 C167 70 189 195 189 195 C189 195 227 408 227 408 L227 408 Z " />
<glyph glyph-name="c" unicode="c" horiz-adv-x="471" d="M464 128 C464 128 458 131 458 131 C412 58 350 21 273 21 C162 21 120 103 148 264 C176 420 245 499 353 499 C417 499 455 467 466 405 C469 388 476 380 487 380 C509 380 519 388 516 405 C503 475 450 510 358 510 C214 510 125 419 93 239 C64 73 117 -10 250 -10 C335 -10 407 36 464 128 L464 128 Z " />
<glyph glyph-name="d" unicode="d" horiz-adv-x="574" d="M528 701 C528 701 539 704 539 704 C571 713 588 714 581 663 C581 663 542 446 542 446 C514 486 468 510 406 510 C215 510 130 424 100 254 C69 82 133 -5 289 -5 C367 -5 430 21 477 72 C464 -4 462 -10 462 -10 C462 -10 471 -10 471 -10 C471 -10 576 15 576 15 C576 15 579 35 580 35 C580 35 569 32 569 32 C535 24 519 27 535 120 C535 120 535 120 535 120 C535 120 631 665 631 665 C645 744 646 750 646 750 C646 750 637 750 637 750 C637 750 531 721 531 721 C530 711 528 709 528 701 C528 701 528 701 528 701 L528 701 Z M580 35 C580 35 580 35 580 35 C580 35 580 35 580 35 C580 35 580 35 580 35 L580 35 Z M479 89 C435 41 379 16 313 16 C177 16 124 100 153 267 C180 419 251 495 409 495 C468 495 511 454 533 392 C533 392 483 110 483 110 C482 103 481 96 479 89 C479 89 479 89 479 89 L479 89 Z " />
<glyph glyph-name="e" unicode="e" horiz-adv-x="534" d="M170 340 C170 340 509 340 509 340 C509 340 565 340 565 340 C565 476 506 510 390 510 C224 510 124 418 91 235 C63 72 125 -10 275 -10 C384 -10 465 38 517 133 C517 133 511 136 511 136 C471 61 397 23 293 23 C170 23 121 101 148 255 C153 286 161 315 170 340 L170 340 Z M550 355 C551 355 552 355 553 355 C553 355 550 355 550 355 L550 355 Z M509 355 C509 355 175 352 175 352 C214 450 285 499 385 499 C464 499 506 469 509 355 L509 355 Z " />
<glyph glyph-name="f" unicode="f" horiz-adv-x="322" d="M49 0 C49 0 219 0 219 0 C219 2 222 12 222 20 C222 20 212 20 212 20 C179 20 163 21 165 35 C165 35 242 474 242 474 C242 474 396 474 396 474 C396 474 400 500 400 500 C400 500 247 500 247 500 C275 659 321 740 407 740 C490 740 427 635 496 635 C526 635 544 650 549 680 C558 730 517 755 427 755 C292 755 227 669 197 500 C197 500 91 479 91 479 C91 479 90 474 90 474 C90 474 192 474 192 474 C192 474 115 35 115 35 C113 21 96 20 64 20 C64 20 53 20 53 20 C52 16 50 2 49 0 L49 0 Z " />
<glyph glyph-name="g" unicode="g" horiz-adv-x="552" d="M195 350 C213 448 264 498 347 498 C431 498 464 448 447 350 C429 250 378 200 294 200 C211 200 178 250 195 350 L195 350 Z M169 17 C174 17 180 17 186 17 C186 17 299 17 299 17 C417 17 441 -19 428 -90 C413 -176 348 -219 233 -219 C115 -219 64 -173 80 -81 C89 -32 119 1 169 17 C169 17 169 17 169 17 L169 17 Z M157 18 C87 0 46 -38 36 -93 C20 -184 85 -230 228 -230 C372 -230 453 -179 471 -79 C488 18 459 67 313 67 C313 67 197 67 197 67 C133 67 104 86 111 122 C118 166 179 188 292 188 C409 188 478 242 497 350 C500 365 501 380 501 393 C529 447 561 474 596 474 C615 474 622 461 618 434 C616 422 622 416 638 416 C652 416 660 424 663 440 C669 477 655 495 621 495 C571 495 530 465 500 405 C494 475 444 510 349 510 C233 510 164 456 145 350 C131 265 158 213 228 195 C138 186 87 157 79 107 C69 54 96 25 157 18 C157 18 157 18 157 18 L157 18 Z " />
<glyph glyph-name="h" unicode="h" horiz-adv-x="554" d="M169 701 C169 701 180 704 180 704 C213 713 230 713 219 647 C219 647 111 35 111 35 C109 21 92 20 60 20 C60 20 49 20 49 20 C48 16 46 2 45 0 C45 0 215 0 215 0 C215 2 218 12 218 20 C218 20 208 20 208 20 C175 20 159 21 161 35 C161 35 270 650 270 650 C286 743 287 750 287 750 C287 750 279 750 279 750 C279 750 173 721 173 721 C172 721 169 701 169 701 L169 701 Z M344 0 C344 0 513 0 513 0 C514 4 516 18 517 20 C517 20 506 20 506 20 C474 20 458 21 460 35 C460 35 518 365 518 365 C535 461 512 510 424 510 C356 510 288 465 222 376 C222 376 219 362 219 362 C276 437 333 475 389 475 C461 475 481 438 468 365 C468 365 410 35 410 35 C408 21 391 20 358 20 C358 20 347 20 347 20 C349 20 344 0 344 0 L344 0 Z " />
<glyph glyph-name="i" unicode="i" horiz-adv-x="254" d="M248 615 C269 615 282 626 286 647 C290 669 281 680 259 680 C238 680 225 669 221 647 C217 626 226 615 248 615 L248 615 Z M134 451 C134 451 145 454 145 454 C178 463 195 463 185 397 C185 397 120 35 120 35 C118 21 103 20 76 20 C76 20 65 20 65 20 C64 16 62 2 61 0 C61 0 217 0 217 0 C217 2 220 12 220 20 C220 20 210 20 210 20 C182 20 168 21 170 35 C170 35 235 400 235 400 C251 493 252 500 252 500 C252 500 244 500 244 500 C244 500 138 471 138 471 C137 471 134 451 134 451 L134 451 Z " />
<glyph glyph-name="j" unicode="j" horiz-adv-x="244" d="M238 615 C259 615 272 626 276 647 C280 669 271 680 249 680 C228 680 215 669 211 647 C207 626 216 615 238 615 L238 615 Z M124 451 C124 451 135 454 135 454 C168 463 185 463 175 397 C175 397 109 29 109 29 C94 -55 70 -107 38 -123 C0 -123 -30 -100 -68 -100 C-98 -100 -116 -113 -121 -140 C-126 -173 -109 -188 -68 -185 C-61 -184 -23 -166 46 -130 C108 -97 146 -44 159 29 C159 29 225 400 225 400 C241 493 242 500 242 500 C242 500 234 500 234 500 C234 500 128 471 128 471 C127 471 124 451 124 451 L124 451 Z " />
<glyph glyph-name="k" unicode="k" horiz-adv-x="498" d="M547 500 C547 500 524 500 524 500 C524 500 503 500 503 500 C503 500 373 500 373 500 C372 490 370 488 370 480 C370 480 388 480 388 480 C447 480 463 470 279 330 C279 330 285 334 285 334 C285 334 214 280 214 280 C214 280 365 35 365 35 C365 35 365 35 365 35 C374 21 366 20 348 20 C348 20 331 20 331 20 C330 16 328 2 327 0 C327 0 387 0 387 0 C387 0 452 0 452 0 C452 0 474 0 474 0 C475 4 477 18 478 20 C478 20 450 20 450 20 C444 20 440 21 433 30 C433 30 265 302 265 302 C265 302 482 468 482 468 C497 479 505 480 518 480 C518 480 544 480 544 480 C544 480 547 500 547 500 L547 500 Z M178 701 C178 701 189 704 189 704 C222 713 239 713 228 647 C228 647 120 35 120 35 C118 21 103 20 76 20 C76 20 65 20 65 20 C64 16 62 2 61 0 C61 0 217 0 217 0 C217 2 220 12 220 20 C220 20 210 20 210 20 C182 20 168 21 170 35 C170 35 279 650 279 650 C295 743 296 750 296 750 C296 750 288 750 288 750 C288 750 182 721 182 721 C181 721 178 701 178 701 L178 701 Z " />
<glyph glyph-name="l" unicode="l" horiz-adv-x="244" d="M168 701 C168 701 179 704 179 704 C212 713 229 713 218 647 C218 647 110 35 110 35 C108 21 92 20 62 20 C62 20 51 20 51 20 C53 20 48 0 48 0 C48 0 210 0 210 0 C211 4 213 18 214 20 C214 20 203 20 203 20 C173 20 158 21 160 35 C160 35 269 650 269 650 C285 743 286 750 286 750 C286 750 278 750 278 750 C278 750 172 721 172 721 C171 721 168 701 168 701 L168 701 Z " />
<glyph glyph-name="m" unicode="m" horiz-adv-x="831" d="M638 0 C638 0 801 0 801 0 C801 2 804 12 804 20 C804 20 794 20 794 20 C761 20 745 22 751 55 C751 55 751 55 751 55 C751 55 806 365 806 365 C822 461 804 510 698 510 C638 510 575 468 512 385 C523 468 500 510 401 510 C343 510 281 467 216 382 C216 382 219 400 219 400 C235 493 236 500 236 500 C236 500 228 500 228 500 C228 500 120 463 120 463 C120 463 115 443 117 443 C117 443 128 447 128 447 C163 459 179 459 166 385 C166 385 166 385 166 385 C166 385 106 47 106 47 C99 22 82 20 53 20 C53 20 42 20 42 20 C41 16 39 2 38 0 C38 0 197 0 197 0 C198 4 200 18 201 20 C201 20 190 20 190 20 C165 20 152 22 158 55 C158 55 158 55 158 55 C158 55 213 367 213 367 C266 437 320 473 374 473 C457 473 472 437 459 365 C459 365 405 55 405 55 C405 55 404 55 404 55 C399 22 384 20 356 20 C356 20 346 20 346 20 C345 16 343 2 342 0 C342 0 490 0 490 0 C491 4 493 18 494 20 C494 20 483 20 483 20 C462 20 451 22 453 46 C453 46 509 365 509 365 C509 368 510 370 510 372 C563 439 616 473 671 473 C753 473 768 437 756 365 C756 365 699 46 699 46 C692 22 677 20 653 20 C653 20 642 20 642 20 C641 16 639 2 638 0 C638 0 638 0 638 0 L638 0 Z " />
<glyph glyph-name="n" unicode="n" horiz-adv-x="535" d="M338 0 C338 0 501 0 501 0 C501 2 504 12 504 20 C504 20 494 20 494 20 C464 20 449 21 451 35 C451 35 509 365 509 365 C526 461 499 510 401 510 C344 510 281 465 215 376 C215 376 213 368 213 368 C213 368 219 400 219 400 C235 493 236 500 236 500 C236 500 228 500 228 500 C228 500 120 463 120 463 C120 463 115 443 117 443 C117 443 128 447 128 447 C163 459 179 459 166 385 C166 385 166 385 166 385 C166 385 104 35 104 35 C102 21 86 20 56 20 C56 20 45 20 45 20 C47 20 42 0 42 0 C42 0 204 0 204 0 C205 4 207 18 208 20 C208 20 197 20 197 20 C167 20 152 21 154 35 C154 35 212 362 212 362 C268 436 319 473 365 473 C448 473 472 437 459 365 C459 365 401 35 401 35 C399 21 383 20 353 20 C353 20 342 20 342 20 C341 16 339 2 338 0 L338 0 Z " />
<glyph glyph-name="o" unicode="o" horiz-adv-x="609" d="M308 5 C174 5 121 87 150 250 C178 413 260 495 394 495 C529 495 582 413 553 250 C524 87 442 5 308 5 L308 5 Z M94 250 C64 77 135 -10 305 -10 C476 -10 578 77 608 250 C639 423 568 510 397 510 C226 510 125 423 94 250 L94 250 Z " />
<glyph glyph-name="p" unicode="p" horiz-adv-x="556" d="M174 -200 C174 -200 163 -200 163 -200 C133 -200 117 -197 121 -161 C121 -161 162 69 162 69 C187 20 231 -5 293 -5 C438 -5 529 99 557 254 C587 424 529 510 384 510 C320 510 268 484 226 435 C236 495 237 500 237 500 C237 500 229 500 229 500 C229 500 121 463 121 463 C121 463 116 443 118 443 C118 443 129 447 129 447 C164 459 180 459 167 385 C167 385 167 385 167 385 C167 385 73 -150 73 -150 C73 -150 73 -150 73 -150 C64 -197 47 -200 15 -200 C15 -200 4 -200 4 -200 C4 -200 -1 -220 1 -220 C1 -220 170 -220 170 -220 C171 -216 173 -202 174 -200 C174 -200 174 -200 174 -200 L174 -200 Z M222 414 C263 464 308 489 357 489 C481 489 528 405 499 238 C475 100 402 7 291 7 C233 7 191 40 168 107 C168 107 220 400 220 400 C221 405 222 409 222 414 C222 414 222 414 222 414 L222 414 Z " />
<glyph glyph-name="q" unicode="q" horiz-adv-x="607" d="M347 -220 C347 -220 517 -220 517 -220 C515 -220 520 -200 520 -200 C520 -200 509 -200 509 -200 C477 -200 461 -199 463 -185 C463 -185 568 411 568 411 C573 441 579 470 584 500 C584 500 581 500 581 500 C581 500 554 440 554 440 C517 487 465 510 397 510 C211 510 128 424 98 254 C67 82 130 -5 283 -5 C353 -5 411 19 457 67 C457 67 413 -185 413 -185 C411 -199 394 -200 361 -200 C361 -200 351 -200 351 -200 C350 -204 348 -218 347 -220 L347 -220 Z M518 411 C518 411 461 85 461 85 C417 39 367 16 308 16 C175 16 123 100 152 267 C179 421 247 499 392 499 C455 499 497 469 518 411 C518 411 518 411 518 411 L518 411 Z " />
<glyph glyph-name="r" unicode="r" horiz-adv-x="373" d="M51 0 C51 0 214 0 214 0 C214 2 217 12 217 20 C217 20 207 20 207 20 C174 20 158 21 160 35 C160 35 219 365 219 365 C258 446 306 487 362 487 C380 487 388 475 384 452 C380 432 388 422 408 422 C428 422 439 432 443 452 C450 490 432 510 389 510 C318 510 262 470 223 391 C223 391 225 400 225 400 C241 493 242 500 242 500 C242 500 234 500 234 500 C234 500 126 463 126 463 C126 463 121 443 123 443 C123 443 134 447 134 447 C169 459 185 459 172 385 C172 385 172 385 172 385 C172 385 110 35 110 35 C108 21 93 20 66 20 C66 20 55 20 55 20 C54 16 52 2 51 0 C51 0 51 0 51 0 L51 0 Z " />
<glyph glyph-name="s" unicode="s" horiz-adv-x="435" d="M99 146 C95 120 92 103 91 95 C91 95 90 95 90 95 C90 95 90 94 90 94 C90 92 90 91 90 91 C87 72 83 54 80 35 C80 35 100 35 100 35 C101 40 102 44 102 49 C103 38 122 21 162 5 C183 -5 209 -10 238 -10 C334 -10 391 34 407 121 C418 187 390 233 298 269 C203 306 173 349 183 406 C194 467 231 498 294 498 C297 498 301 498 304 498 C304 498 294 498 294 498 C298 498 302 498 306 498 C306 498 304 498 304 498 C384 494 416 439 405 384 C405 380 404 376 403 373 C403 373 423 373 423 373 C427 390 430 408 433 425 C433 425 433 425 433 425 C433 425 433 426 433 426 C433 430 434 435 435 439 C435 439 447 505 447 505 C447 505 427 505 427 505 C426 499 425 492 423 485 C422 480 407 482 376 494 C355 505 328 510 296 510 C209 510 159 469 145 389 C133 320 165 271 269 231 C350 200 375 161 366 107 C353 37 311 2 240 2 C226 2 212 3 200 6 C133 22 108 81 117 135 C118 139 119 143 119 146 C119 146 99 146 99 146 L99 146 Z " />
<glyph glyph-name="t" unicode="t" horiz-adv-x="339" d="M387 500 C387 500 233 500 233 500 C233 500 254 620 254 620 C254 620 251 620 251 620 C251 620 118 500 118 500 C118 500 116 490 116 490 C116 490 181 490 181 490 C181 490 118 129 118 129 C98 18 133 -10 210 -10 C255 -10 299 16 341 68 C341 68 336 71 336 71 C305 33 269 14 230 14 C174 14 149 35 165 118 C186 237 207 356 228 474 C228 474 382 474 382 474 C382 474 387 500 387 500 L387 500 Z " />
<glyph glyph-name="u" unicode="u" horiz-adv-x="522" d="M425 480 C425 480 435 480 435 480 C459 480 471 479 469 465 C469 465 411 137 411 137 C367 62 312 25 246 25 C179 25 152 70 168 160 C168 160 222 465 222 465 C228 498 228 500 228 500 C228 500 132 500 132 500 C132 500 128 480 128 480 C128 480 139 480 139 480 C163 480 174 479 172 465 C172 465 118 160 118 160 C98 47 131 -10 217 -10 C293 -10 357 34 408 121 C408 121 403 90 403 90 C386 -3 385 -10 385 -10 C385 -10 394 -10 394 -10 C394 -10 499 15 499 15 C499 15 502 35 503 35 C503 35 491 32 491 32 C460 24 444 26 452 90 C452 90 453 90 453 90 C453 90 519 465 519 465 C525 498 525 500 525 500 C525 500 428 500 428 500 C428 500 425 480 425 480 L425 480 Z M503 35 C503 35 503 35 503 35 C503 35 503 35 503 35 L503 35 Z " />
<glyph glyph-name="v" unicode="v" horiz-adv-x="515" d="M562 500 C562 500 509 500 509 500 C509 500 486 500 486 500 C486 500 419 500 419 500 C419 500 416 480 416 480 C416 480 437 480 437 480 C461 480 473 478 464 457 C464 457 227 -10 227 -10 C227 -10 241 -10 241 -10 C241 -10 481 447 481 447 C499 478 513 480 534 480 C534 480 558 480 558 480 C558 480 562 500 562 500 C562 500 562 500 562 500 L562 500 Z M269 500 C269 500 216 500 216 500 C216 500 161 500 161 500 C161 500 118 500 118 500 C117 490 115 488 115 480 C115 480 140 480 140 480 C156 480 164 478 167 453 C167 453 167 453 167 453 C167 453 227 -10 227 -10 C227 -10 261 57 261 57 C261 57 221 453 221 453 C221 453 221 453 221 453 C218 478 226 480 243 480 C243 480 265 480 265 480 C265 480 268 500 269 500 L269 500 Z " />
<glyph glyph-name="w" unicode="w" horiz-adv-x="761" d="M816 500 C816 500 763 500 763 500 C763 500 740 500 740 500 C740 500 673 500 673 500 C673 500 669 480 669 480 C669 480 691 480 691 480 C716 480 728 478 715 453 C715 453 715 453 715 453 C715 453 473 -10 473 -10 C473 -10 488 -10 488 -10 C488 -10 734 447 734 447 C753 478 767 480 788 480 C788 480 812 480 812 480 C812 480 815 500 816 500 C816 500 816 500 816 500 L816 500 Z M520 500 C520 500 474 500 474 500 C474 500 418 500 418 500 C418 500 377 500 377 500 C376 490 374 488 374 480 C374 480 400 480 400 480 C413 480 420 479 422 460 C422 460 422 460 422 460 C422 460 434 350 434 350 C434 350 434 350 434 350 C434 350 250 -10 250 -10 C250 -10 265 -10 265 -10 C265 -10 437 320 437 320 C437 320 473 -10 473 -10 C473 -10 508 57 508 57 C508 57 477 466 477 466 C476 479 482 480 493 480 C493 480 516 480 516 480 C517 480 520 500 520 500 C520 500 520 500 520 500 L520 500 Z M294 500 C294 500 248 500 248 500 C248 500 192 500 192 500 C192 500 151 500 151 500 C151 500 148 480 148 480 C148 480 174 480 174 480 C188 480 195 479 196 460 C196 460 197 460 197 460 C197 460 250 -10 250 -10 C250 -10 284 57 284 57 C284 57 251 468 251 468 C251 479 257 480 267 480 C267 480 291 480 291 480 C291 480 294 500 294 500 L294 500 Z " />
<glyph glyph-name="x" unicode="x" horiz-adv-x="551" d="M49 0 C49 0 88 0 88 0 C88 0 111 0 111 0 C111 0 182 0 182 0 C182 0 185 20 185 20 C185 20 166 20 166 20 C140 20 129 23 164 64 C164 64 164 64 164 64 C164 64 296 226 296 226 C296 226 371 64 371 64 C371 64 371 64 371 64 C390 23 383 20 367 20 C367 20 348 20 348 20 C348 18 348 8 345 0 C345 0 401 0 401 0 C401 0 462 0 462 0 C462 0 495 0 495 0 C496 4 498 18 499 20 C499 20 473 20 473 20 C459 20 451 23 434 62 C434 62 433 62 433 62 C433 62 337 269 337 269 C337 269 464 436 464 436 C464 436 464 436 464 436 C493 477 505 480 524 480 C524 480 549 480 549 480 C550 480 553 500 553 500 C553 500 512 500 512 500 C512 500 489 500 489 500 C489 500 426 500 426 500 C425 496 423 482 422 480 C422 480 442 480 442 480 C461 480 470 478 455 453 C455 453 331 282 331 282 C331 282 252 453 252 453 C243 478 250 480 263 480 C263 480 282 480 282 480 C282 480 286 500 286 500 C286 500 230 500 230 500 C230 500 169 500 169 500 C169 500 143 500 143 500 C142 496 140 482 139 480 C139 480 167 480 167 480 C174 480 179 478 194 445 C194 445 195 445 195 445 C195 445 292 236 292 236 C292 236 143 64 143 64 C143 64 143 64 143 64 C108 23 96 20 78 20 C78 20 53 20 53 20 C52 16 50 2 49 0 C49 0 49 0 49 0 L49 0 Z " />
<glyph glyph-name="y" unicode="y" horiz-adv-x="511" d="M574 500 C574 500 521 500 521 500 C521 500 498 500 498 500 C498 500 431 500 431 500 C431 500 428 480 428 480 C428 480 449 480 449 480 C473 480 485 478 474 455 C474 455 267 57 267 57 C267 57 213 462 213 462 C212 479 220 480 235 480 C235 480 257 480 257 480 C257 480 260 500 261 500 C261 500 208 500 208 500 C208 500 153 500 153 500 C153 500 111 500 111 500 C110 500 107 480 107 480 C107 480 133 480 133 480 C149 480 157 478 160 453 C160 453 160 453 160 453 C160 453 232 -10 232 -10 C232 -10 165 -140 165 -140 C156 -157 145 -165 130 -165 C117 -165 118 -147 105 -147 C86 -147 75 -155 72 -172 C68 -193 76 -203 96 -203 C129 -203 154 -186 172 -154 C172 -154 247 -10 247 -10 C247 -10 486 434 486 434 C486 434 486 434 486 434 C508 477 522 480 546 480 C546 480 570 480 570 480 C570 480 573 500 574 500 L574 500 Z " />
<glyph glyph-name="z" unicode="z" horiz-adv-x="475" d="M140 415 C140 415 152 415 152 415 C152 415 165 425 165 425 C206 460 234 479 288 484 C288 484 460 487 460 487 C460 487 42 12 42 12 C42 12 40 0 40 0 C40 0 93 0 93 0 C93 0 384 0 384 0 C384 0 430 0 430 0 C438 27 449 57 457 85 C457 85 447 85 447 85 C447 85 434 75 434 75 C390 40 361 20 299 16 C299 16 104 13 104 13 C104 13 521 488 521 488 C521 488 523 500 523 500 C523 500 472 500 472 500 C472 500 223 500 223 500 C212 500 201 506 207 519 C207 519 211 528 211 528 C211 528 191 528 191 528 C173 491 159 452 140 415 L140 415 Z " />
<glyph glyph-name="bar" unicode="&#x7c;" horiz-adv-x="158" d="M201 800 C201 800 16 -250 16 -250 C16 -250 55 -250 55 -250 C55 -250 240 800 240 800 C240 800 201 800 201 800 L201 800 Z " />
<glyph glyph-name="exclamdown" unicode="&#xa1;" horiz-adv-x="201" d="M190 505 C166 505 152 493 148 470 C144 446 154 434 177 434 C201 434 215 446 219 470 C223 493 213 505 190 505 L190 505 Z M56 -255 C86 -255 95 -227 101 -171 C101 -171 156 290 156 290 C156 290 147 290 147 290 C147 290 40 -171 40 -171 C27 -227 25 -255 56 -255 L56 -255 Z " />
<glyph glyph-name="cent" unicode="&#xa2;" horiz-adv-x="471" d="M346 575 C346 575 334 509 334 509 C204 500 123 409 93 239 C65 76 115 -7 243 -10 C243 -10 231 -75 231 -75 C231 -75 249 -75 249 -75 C249 -75 260 -10 260 -10 C341 -6 409 40 464 128 C464 128 458 131 458 131 C412 58 350 21 273 21 C271 21 268 21 266 21 C266 21 350 499 350 499 C351 499 352 499 353 499 C417 499 455 467 466 405 C469 388 476 380 487 380 C509 380 519 388 516 405 C503 475 450 510 358 510 C356 510 354 510 352 510 C352 510 363 575 363 575 C363 575 346 575 346 575 L346 575 Z M248 22 C156 34 122 116 148 264 C174 410 236 488 332 498 C332 498 248 22 248 22 L248 22 Z " />
<glyph glyph-name="questiondown" unicode="&#xbf;" horiz-adv-x="304" d="M269 505 C245 505 231 493 227 470 C223 446 233 434 256 434 C279 434 293 446 298 470 C302 493 292 505 269 505 L269 505 Z M241 325 C241 325 204 140 204 140 C111 140 84 109 32 47 C8 19 -7 -14 -14 -53 C-38 -191 5 -260 114 -260 C145 -260 163 -248 167 -223 C170 -206 163 -198 145 -198 C131 -198 118 -207 105 -207 C17 -207 -17 -153 2 -47 C5 -24 18 -1 39 24 C77 68 96 90 213 90 C213 90 249 325 249 325 C249 325 241 325 241 325 L241 325 Z " />
<glyph glyph-name="Agrave" unicode="&#xc0;" horiz-adv-x="696" d="M467 0 C467 0 562 0 562 0 C562 0 621 0 621 0 C621 0 681 0 681 0 C682 4 684 18 685 20 C685 20 661 20 661 20 C634 20 619 27 606 115 C606 115 528 732 528 732 C528 732 523 770 523 770 C523 770 517 770 517 770 C496 746 481 733 472 732 C472 732 473 722 473 722 C473 722 473 722 473 722 C473 722 184 151 184 151 C121 29 92 20 46 20 C46 20 23 20 23 20 C23 18 23 8 20 0 C20 0 108 0 108 0 C108 0 125 0 125 0 C125 0 241 0 241 0 C241 0 244 20 244 20 C244 20 223 20 223 20 C168 20 143 29 196 143 C196 143 268 287 268 287 C268 287 527 287 527 287 C527 287 546 126 546 126 C556 27 535 20 492 20 C492 20 471 20 471 20 C470 16 468 2 467 0 L467 0 Z M427 959 C395 1006 377 1029 371 1029 C356 1029 345 1019 342 1005 C341 999 361 977 400 936 C400 936 517 813 517 813 C517 813 525 820 525 820 C525 820 427 959 427 959 L427 959 Z M275 302 C275 302 475 705 475 705 C475 705 525 302 525 302 C525 302 275 302 275 302 L275 302 Z " />
<glyph glyph-name="Aacute" unicode="&#xc1;" horiz-adv-x="696" d="M521 813 C521 813 681 936 681 936 C735 978 762 1000 764 1005 C766 1019 758 1029 743 1029 C739 1029 712 1006 663 959 C663 959 515 820 515 820 C515 820 521 813 521 813 L521 813 Z M467 0 C467 0 562 0 562 0 C562 0 621 0 621 0 C621 0 681 0 681 0 C682 4 684 18 685 20 C685 20 661 20 661 20 C634 20 619 27 606 115 C606 115 528 732 528 732 C528 732 523 770 523 770 C523 770 517 770 517 770 C496 746 481 733 472 732 C472 732 473 722 473 722 C473 722 473 722 473 722 C473 722 184 151 184 151 C121 29 92 20 46 20 C46 20 23 20 23 20 C23 18 23 8 20 0 C20 0 108 0 108 0 C108 0 125 0 125 0 C125 0 241 0 241 0 C241 0 244 20 244 20 C244 20 223 20 223 20 C168 20 143 29 196 143 C196 143 268 287 268 287 C268 287 527 287 527 287 C527 287 546 126 546 126 C556 27 535 20 492 20 C492 20 471 20 471 20 C470 16 468 2 467 0 L467 0 Z M275 302 C275 302 475 705 475 705 C475 705 525 302 525 302 C525 302 275 302 275 302 L275 302 Z " />
<glyph glyph-name="Acircumflex" unicode="&#xc2;" horiz-adv-x="696" d="M467 0 C467 0 562 0 562 0 C562 0 621 0 621 0 C621 0 681 0 681 0 C682 4 684 18 685 20 C685 20 661 20 661 20 C634 20 619 27 606 115 C606 115 528 732 528 732 C528 732 523 770 523 770 C523 770 517 770 517 770 C496 746 481 733 472 732 C472 732 473 722 473 722 C473 722 473 722 473 722 C473 722 184 151 184 151 C121 29 92 20 46 20 C46 20 23 20 23 20 C23 18 23 8 20 0 C20 0 108 0 108 0 C108 0 125 0 125 0 C125 0 241 0 241 0 C241 0 244 20 244 20 C244 20 223 20 223 20 C168 20 143 29 196 143 C196 143 268 287 268 287 C268 287 527 287 527 287 C527 287 546 126 546 126 C556 27 535 20 492 20 C492 20 471 20 471 20 C470 16 468 2 467 0 L467 0 Z M543 977 C543 977 655 808 655 808 C655 808 663 813 663 813 C663 813 567 1015 567 1015 C565 1021 559 1033 553 1033 C546 1033 537 1021 532 1015 C532 1015 365 813 365 813 C365 813 371 808 371 808 C371 808 543 977 543 977 L543 977 Z M275 302 C275 302 475 705 475 705 C475 705 525 302 525 302 C525 302 275 302 275 302 L275 302 Z " />
<glyph glyph-name="Atilde" unicode="&#xc3;" horiz-adv-x="696" d="M382 870 C390 914 409 936 439 936 C506 936 540 871 607 871 C652 871 680 903 692 966 C692 966 683 966 683 966 C675 926 656 906 624 906 C557 906 524 971 456 971 C413 971 385 937 373 870 C373 870 382 870 382 870 L382 870 Z M467 0 C467 0 562 0 562 0 C562 0 621 0 621 0 C621 0 681 0 681 0 C682 4 684 18 685 20 C685 20 661 20 661 20 C634 20 619 27 606 115 C606 115 528 732 528 732 C528 732 523 770 523 770 C523 770 517 770 517 770 C496 746 481 733 472 732 C472 732 473 722 473 722 C473 722 473 722 473 722 C473 722 184 151 184 151 C121 29 92 20 46 20 C46 20 23 20 23 20 C23 18 23 8 20 0 C20 0 108 0 108 0 C108 0 125 0 125 0 C125 0 241 0 241 0 C241 0 244 20 244 20 C244 20 223 20 223 20 C168 20 143 29 196 143 C196 143 268 287 268 287 C268 287 527 287 527 287 C527 287 546 126 546 126 C556 27 535 20 492 20 C492 20 471 20 471 20 C470 16 468 2 467 0 L467 0 Z M275 302 C275 302 475 705 475 705 C475 705 525 302 525 302 C525 302 275 302 275 302 L275 302 Z " />
<glyph glyph-name="Adieresis" unicode="&#xc4;" horiz-adv-x="696" d="M592 865 C614 865 626 876 630 897 C634 919 625 930 603 930 C582 930 569 919 565 897 C561 876 570 865 592 865 L592 865 Z M454 865 C476 865 488 876 492 897 C496 919 487 930 466 930 C444 930 431 919 428 897 C424 876 433 865 454 865 L454 865 Z M467 0 C467 0 562 0 562 0 C562 0 621 0 621 0 C621 0 681 0 681 0 C682 4 684 18 685 20 C685 20 661 20 661 20 C634 20 619 27 606 115 C606 115 528 732 528 732 C528 732 523 770 523 770 C523 770 517 770 517 770 C496 746 481 733 472 732 C472 732 473 722 473 722 C473 722 473 722 473 722 C473 722 184 151 184 151 C121 29 92 20 46 20 C46 20 23 20 23 20 C23 18 23 8 20 0 C20 0 108 0 108 0 C108 0 125 0 125 0 C125 0 241 0 241 0 C241 0 244 20 244 20 C244 20 223 20 223 20 C168 20 143 29 196 143 C196 143 268 287 268 287 C268 287 527 287 527 287 C527 287 546 126 546 126 C556 27 535 20 492 20 C492 20 471 20 471 20 C470 16 468 2 467 0 L467 0 Z M275 302 C275 302 475 705 475 705 C475 705 525 302 525 302 C525 302 275 302 275 302 L275 302 Z " />
<glyph glyph-name="Aring" unicode="&#xc5;" horiz-adv-x="696" d="M515 822 C467 822 440 855 448 905 C458 960 491 988 545 988 C599 988 621 960 612 905 C603 855 564 822 515 822 L515 822 Z M434 905 C424 848 456 810 513 810 C571 810 617 848 627 905 C638 968 611 1000 547 1000 C483 1000 445 968 434 905 L434 905 Z M467 0 C467 0 562 0 562 0 C562 0 621 0 621 0 C621 0 681 0 681 0 C682 4 684 18 685 20 C685 20 661 20 661 20 C634 20 619 27 606 115 C606 115 528 732 528 732 C528 732 523 770 523 770 C523 770 517 770 517 770 C496 746 481 733 472 732 C472 732 473 722 473 722 C473 722 473 722 473 722 C473 722 184 151 184 151 C121 29 92 20 46 20 C46 20 23 20 23 20 C23 18 23 8 20 0 C20 0 108 0 108 0 C108 0 125 0 125 0 C125 0 241 0 241 0 C241 0 244 20 244 20 C244 20 223 20 223 20 C168 20 143 29 196 143 C196 143 268 287 268 287 C268 287 527 287 527 287 C527 287 546 126 546 126 C556 27 535 20 492 20 C492 20 471 20 471 20 C470 16 468 2 467 0 L467 0 Z M275 302 C275 302 475 705 475 705 C475 705 525 302 525 302 C525 302 275 302 275 302 L275 302 Z " />
<glyph glyph-name="Egrave" unicode="&#xc8;" horiz-adv-x="590" d="M604 650 C604 650 624 650 624 650 C628 683 631 716 635 750 C635 750 515 750 515 750 C515 750 325 750 325 750 C325 750 269 750 269 750 C269 750 195 750 195 750 C194 740 192 738 192 730 C192 730 202 730 202 730 C244 730 265 725 254 665 C254 665 254 665 254 665 C254 665 151 82 151 82 C140 25 118 20 77 20 C77 20 66 20 66 20 C68 20 63 0 63 0 C63 0 137 0 137 0 C137 0 193 0 193 0 C193 0 408 0 408 0 C408 0 528 0 528 0 C538 34 549 67 559 100 C559 100 539 100 539 100 C539 100 536 89 536 89 C520 38 505 12 411 12 C411 12 275 12 275 12 C204 12 199 30 205 65 C206 71 207 78 208 85 C208 85 208 85 208 85 C208 85 261 385 261 385 C261 385 390 385 390 385 C490 385 486 350 473 287 C473 287 493 287 493 287 C507 356 518 426 530 497 C530 497 510 497 510 497 C510 497 508 486 508 486 C498 428 486 398 393 398 C393 398 263 398 263 398 C263 398 317 703 317 703 C324 746 325 750 325 750 C325 750 323 738 323 738 C323 738 514 738 514 738 C631 738 611 710 604 650 C604 650 604 650 604 650 L604 650 Z M376 959 C344 1006 326 1029 320 1029 C305 1029 294 1019 291 1005 C290 999 310 977 349 936 C349 936 467 813 467 813 C467 813 474 820 474 820 C474 820 376 959 376 959 L376 959 Z " />
<glyph glyph-name="Eacute" unicode="&#xc9;" horiz-adv-x="590" d="M470 813 C470 813 630 936 630 936 C685 978 712 1000 713 1005 C716 1019 707 1029 692 1029 C688 1029 662 1006 612 959 C612 959 464 820 464 820 C464 820 470 813 470 813 L470 813 Z M604 650 C604 650 624 650 624 650 C628 683 631 716 635 750 C635 750 515 750 515 750 C515 750 325 750 325 750 C325 750 269 750 269 750 C269 750 195 750 195 750 C194 740 192 738 192 730 C192 730 202 730 202 730 C244 730 265 725 254 665 C254 665 254 665 254 665 C254 665 151 82 151 82 C140 25 118 20 77 20 C77 20 66 20 66 20 C68 20 63 0 63 0 C63 0 137 0 137 0 C137 0 193 0 193 0 C193 0 408 0 408 0 C408 0 528 0 528 0 C538 34 549 67 559 100 C559 100 539 100 539 100 C539 100 536 89 536 89 C520 38 505 12 411 12 C411 12 275 12 275 12 C204 12 199 30 205 65 C206 71 207 78 208 85 C208 85 208 85 208 85 C208 85 261 385 261 385 C261 385 390 385 390 385 C490 385 486 350 473 287 C473 287 493 287 493 287 C507 356 518 426 530 497 C530 497 510 497 510 497 C510 497 508 486 508 486 C498 428 486 398 393 398 C393 398 263 398 263 398 C263 398 317 703 317 703 C324 746 325 750 325 750 C325 750 323 738 323 738 C323 738 514 738 514 738 C631 738 611 710 604 650 C604 650 604 650 604 650 L604 650 Z " />
<glyph glyph-name="Ecircumflex" unicode="&#xca;" horiz-adv-x="590" d="M604 650 C604 650 624 650 624 650 C628 683 631 716 635 750 C635 750 515 750 515 750 C515 750 325 750 325 750 C325 750 269 750 269 750 C269 750 195 750 195 750 C194 740 192 738 192 730 C192 730 202 730 202 730 C244 730 265 725 254 665 C254 665 254 665 254 665 C254 665 151 82 151 82 C140 25 118 20 77 20 C77 20 66 20 66 20 C68 20 63 0 63 0 C63 0 137 0 137 0 C137 0 193 0 193 0 C193 0 408 0 408 0 C408 0 528 0 528 0 C538 34 549 67 559 100 C559 100 539 100 539 100 C539 100 536 89 536 89 C520 38 505 12 411 12 C411 12 275 12 275 12 C204 12 199 30 205 65 C206 71 207 78 208 85 C208 85 208 85 208 85 C208 85 261 385 261 385 C261 385 390 385 390 385 C490 385 486 350 473 287 C473 287 493 287 493 287 C507 356 518 426 530 497 C530 497 510 497 510 497 C510 497 508 486 508 486 C498 428 486 398 393 398 C393 398 263 398 263 398 C263 398 317 703 317 703 C324 746 325 750 325 750 C325 750 323 738 323 738 C323 738 514 738 514 738 C631 738 611 710 604 650 C604 650 604 650 604 650 L604 650 Z M492 977 C492 977 604 808 604 808 C604 808 612 813 612 813 C612 813 516 1015 516 1015 C514 1021 508 1033 502 1033 C496 1033 486 1021 481 1015 C481 1015 314 813 314 813 C314 813 320 808 320 808 C320 808 492 977 492 977 L492 977 Z " />
<glyph glyph-name="Edieresis" unicode="&#xcb;" horiz-adv-x="590" d="M541 865 C563 865 575 876 579 897 C583 919 574 930 552 930 C531 930 518 919 514 897 C510 876 519 865 541 865 L541 865 Z M403 865 C425 865 437 876 441 897 C445 919 436 930 415 930 C393 930 380 919 377 897 C373 876 382 865 403 865 L403 865 Z M604 650 C604 650 624 650 624 650 C628 683 631 716 635 750 C635 750 515 750 515 750 C515 750 325 750 325 750 C325 750 269 750 269 750 C269 750 195 750 195 750 C194 740 192 738 192 730 C192 730 202 730 202 730 C244 730 265 725 254 665 C254 665 254 665 254 665 C254 665 151 82 151 82 C140 25 118 20 77 20 C77 20 66 20 66 20 C68 20 63 0 63 0 C63 0 137 0 137 0 C137 0 193 0 193 0 C193 0 408 0 408 0 C408 0 528 0 528 0 C538 34 549 67 559 100 C559 100 539 100 539 100 C539 100 536 89 536 89 C520 38 505 12 411 12 C411 12 275 12 275 12 C204 12 199 30 205 65 C206 71 207 78 208 85 C208 85 208 85 208 85 C208 85 261 385 261 385 C261 385 390 385 390 385 C490 385 486 350 473 287 C473 287 493 287 493 287 C507 356 518 426 530 497 C530 497 510 497 510 497 C510 497 508 486 508 486 C498 428 486 398 393 398 C393 398 263 398 263 398 C263 398 317 703 317 703 C324 746 325 750 325 750 C325 750 323 738 323 738 C323 738 514 738 514 738 C631 738 611 710 604 650 C604 650 604 650 604 650 L604 650 Z " />
<glyph glyph-name="Igrave" unicode="&#xcc;" horiz-adv-x="324" d="M405 750 C405 750 201 750 201 750 C200 740 198 738 198 730 C198 730 208 730 208 730 C250 730 271 726 261 670 C261 670 157 80 157 80 C147 24 125 20 83 20 C83 20 72 20 72 20 C74 20 69 0 69 0 C69 0 272 0 272 0 C273 4 275 18 276 20 C276 20 265 20 265 20 C224 20 203 24 213 80 C213 80 317 670 317 670 C327 726 349 730 390 730 C390 730 401 730 401 730 C401 730 404 750 405 750 L405 750 Z M227 959 C195 1006 177 1029 171 1029 C156 1029 145 1019 142 1005 C141 999 161 977 200 936 C200 936 318 813 318 813 C318 813 325 820 325 820 C325 820 227 959 227 959 L227 959 Z " />
<glyph glyph-name="Iacute" unicode="&#xcd;" horiz-adv-x="324" d="M321 813 C321 813 481 936 481 936 C536 978 563 1000 564 1005 C567 1019 558 1029 543 1029 C539 1029 513 1006 463 959 C463 959 316 820 316 820 C316 820 321 813 321 813 L321 813 Z M405 750 C405 750 201 750 201 750 C200 740 198 738 198 730 C198 730 208 730 208 730 C250 730 271 726 261 670 C261 670 157 80 157 80 C147 24 125 20 83 20 C83 20 72 20 72 20 C74 20 69 0 69 0 C69 0 272 0 272 0 C273 4 275 18 276 20 C276 20 265 20 265 20 C224 20 203 24 213 80 C213 80 317 670 317 670 C327 726 349 730 390 730 C390 730 401 730 401 730 C401 730 404 750 405 750 L405 750 Z " />
<glyph glyph-name="Icircumflex" unicode="&#xce;" horiz-adv-x="324" d="M405 750 C405 750 201 750 201 750 C200 740 198 738 198 730 C198 730 208 730 208 730 C250 730 271 726 261 670 C261 670 157 80 157 80 C147 24 125 20 83 20 C83 20 72 20 72 20 C74 20 69 0 69 0 C69 0 272 0 272 0 C273 4 275 18 276 20 C276 20 265 20 265 20 C224 20 203 24 213 80 C213 80 317 670 317 670 C327 726 349 730 390 730 C390 730 401 730 401 730 C401 730 404 750 405 750 L405 750 Z M343 977 C343 977 455 808 455 808 C455 808 463 813 463 813 C463 813 367 1015 367 1015 C365 1021 359 1033 353 1033 C347 1033 337 1021 332 1015 C332 1015 165 813 165 813 C165 813 171 808 171 808 C171 808 343 977 343 977 L343 977 Z " />
<glyph glyph-name="Idieresis" unicode="&#xcf;" horiz-adv-x="324" d="M392 865 C414 865 426 876 430 897 C434 919 425 930 403 930 C382 930 369 919 365 897 C361 876 370 865 392 865 L392 865 Z M254 865 C276 865 289 876 292 897 C296 919 287 930 266 930 C244 930 231 919 228 897 C224 876 233 865 254 865 L254 865 Z M405 750 C405 750 201 750 201 750 C200 740 198 738 198 730 C198 730 208 730 208 730 C250 730 271 726 261 670 C261 670 157 80 157 80 C147 24 125 20 83 20 C83 20 72 20 72 20 C74 20 69 0 69 0 C69 0 272 0 272 0 C273 4 275 18 276 20 C276 20 265 20 265 20 C224 20 203 24 213 80 C213 80 317 670 317 670 C327 726 349 730 390 730 C390 730 401 730 401 730 C401 730 404 750 405 750 L405 750 Z " />
<glyph glyph-name="Ntilde" unicode="&#xd1;" horiz-adv-x="726" d="M373 870 C380 914 399 936 429 936 C497 936 530 871 597 871 C643 871 671 903 682 966 C682 966 673 966 673 966 C666 926 647 906 615 906 C548 906 514 971 447 971 C404 971 376 937 364 870 C364 870 373 870 373 870 L373 870 Z M176 730 C176 730 203 730 203 730 C213 730 221 729 233 707 C233 707 243 688 243 688 C243 688 143 127 143 127 C123 28 100 20 60 20 C60 20 37 20 37 20 C36 10 34 8 34 0 C34 0 121 0 121 0 C121 0 138 0 138 0 C138 0 226 0 226 0 C227 4 229 18 230 20 C230 20 207 20 207 20 C163 20 143 28 163 140 C163 140 162 140 162 140 C162 140 254 667 254 667 C254 667 546 79 546 79 C546 79 585 0 585 0 C585 0 597 0 597 0 C597 0 715 649 715 649 C731 724 759 730 806 730 C806 730 817 730 817 730 C817 730 820 750 820 750 C820 750 733 750 733 750 C733 750 716 750 716 750 C716 750 629 750 629 750 C628 750 625 730 625 730 C625 730 636 730 636 730 C687 730 712 723 695 630 C695 630 695 630 695 630 C695 630 603 101 603 101 C603 101 598 110 598 110 C598 110 281 750 281 750 C281 750 268 750 268 750 C268 750 254 750 254 750 C254 750 212 750 212 750 C212 750 180 750 180 750 C180 750 177 730 176 730 L176 730 Z " />
<glyph glyph-name="Ograve" unicode="&#xd2;" horiz-adv-x="805" d="M395 5 C216 5 148 129 191 375 C234 621 348 745 530 745 C721 745 796 621 753 375 C710 129 589 5 395 5 L395 5 Z M127 375 C82 119 170 -10 389 -10 C628 -10 772 119 817 375 C862 631 768 760 535 760 C309 760 172 631 127 375 L127 375 Z M457 959 C425 1006 408 1029 402 1029 C387 1029 375 1019 372 1005 C371 999 391 977 430 936 C430 936 548 813 548 813 C548 813 555 820 555 820 C555 820 457 959 457 959 L457 959 Z " />
<glyph glyph-name="Oacute" unicode="&#xd3;" horiz-adv-x="805" d="M551 813 C551 813 712 936 712 936 C766 978 793 1000 794 1005 C797 1019 788 1029 773 1029 C769 1029 743 1006 693 959 C693 959 546 820 546 820 C546 820 551 813 551 813 L551 813 Z M395 5 C216 5 148 129 191 375 C234 621 348 745 530 745 C721 745 796 621 753 375 C710 129 589 5 395 5 L395 5 Z M127 375 C82 119 170 -10 389 -10 C628 -10 772 119 817 375 C862 631 768 760 535 760 C309 760 172 631 127 375 L127 375 Z " />
<glyph glyph-name="Ocircumflex" unicode="&#xd4;" horiz-adv-x="805" d="M395 5 C216 5 148 129 191 375 C234 621 348 745 530 745 C721 745 796 621 753 375 C710 129 589 5 395 5 L395 5 Z M127 375 C82 119 170 -10 389 -10 C628 -10 772 119 817 375 C862 631 768 760 535 760 C309 760 172 631 127 375 L127 375 Z M573 977 C573 977 686 808 686 808 C686 808 693 813 693 813 C693 813 598 1015 598 1015 C595 1021 589 1033 583 1033 C577 1033 567 1021 562 1015 C562 1015 395 813 395 813 C395 813 401 808 401 808 C401 808 573 977 573 977 L573 977 Z " />
<glyph glyph-name="Otilde" unicode="&#xd5;" horiz-adv-x="805" d="M413 870 C420 914 439 936 469 936 C537 936 570 871 637 871 C683 871 711 903 722 966 C722 966 713 966 713 966 C706 926 687 906 655 906 C588 906 554 971 487 971 C443 971 415 937 404 870 C404 870 413 870 413 870 L413 870 Z M395 5 C216 5 148 129 191 375 C234 621 348 745 530 745 C721 745 796 621 753 375 C710 129 589 5 395 5 L395 5 Z M127 375 C82 119 170 -10 389 -10 C628 -10 772 119 817 375 C862 631 768 760 535 760 C309 760 172 631 127 375 L127 375 Z " />
<glyph glyph-name="Odieresis" unicode="&#xd6;" horiz-adv-x="805" d="M622 865 C644 865 656 876 660 897 C664 919 655 930 634 930 C612 930 599 919 596 897 C592 876 601 865 622 865 L622 865 Z M485 865 C506 865 519 876 523 897 C527 919 518 930 496 930 C475 930 462 919 458 897 C454 876 463 865 485 865 L485 865 Z M395 5 C216 5 148 129 191 375 C234 621 348 745 530 745 C721 745 796 621 753 375 C710 129 589 5 395 5 L395 5 Z M127 375 C82 119 170 -10 389 -10 C628 -10 772 119 817 375 C862 631 768 760 535 760 C309 760 172 631 127 375 L127 375 Z " />
<glyph glyph-name="Oslash" unicode="&#xd8;" horiz-adv-x="805" d="M67 -18 C67 -18 167 75 167 75 C212 19 286 -10 389 -10 C628 -10 772 119 817 375 C838 496 828 589 787 653 C787 653 893 752 893 752 C893 752 877 768 877 768 C877 768 774 672 774 672 C726 731 646 760 535 760 C309 760 172 631 127 375 C105 252 114 158 154 94 C154 94 51 -2 51 -2 C51 -2 67 -18 67 -18 L67 -18 Z M395 5 C300 5 236 40 204 110 C204 110 747 616 747 616 C768 556 771 476 753 375 C710 129 589 5 395 5 C395 5 395 5 395 5 L395 5 Z M195 132 C174 192 173 273 191 375 C234 621 348 745 530 745 C633 745 702 709 737 638 C737 638 195 132 195 132 L195 132 Z " />
<glyph glyph-name="Ugrave" unicode="&#xd9;" horiz-adv-x="655" d="M559 730 C559 730 569 730 569 730 C611 730 632 725 621 665 C621 665 523 110 523 110 C523 110 504 0 504 0 C504 0 512 0 512 0 C512 0 642 55 642 55 C642 55 644 65 644 65 C575 61 570 63 579 110 C579 110 677 665 677 665 C690 744 691 750 692 750 C692 750 562 750 562 750 C561 740 559 738 559 730 L559 730 Z M157 730 C157 730 167 730 167 730 C209 730 230 725 219 665 C219 665 140 220 140 220 C114 67 148 -10 242 -10 C365 -10 462 44 530 150 C530 150 534 175 534 175 C471 76 382 26 271 26 C199 26 174 91 196 220 C196 220 275 665 275 665 C289 744 290 750 290 750 C290 750 160 750 160 750 C159 740 157 738 157 730 L157 730 Z M387 959 C355 1006 337 1029 331 1029 C316 1029 305 1019 302 1005 C301 999 321 977 360 936 C360 936 477 813 477 813 C477 813 485 820 485 820 C485 820 387 959 387 959 L387 959 Z " />
<glyph glyph-name="Uacute" unicode="&#xda;" horiz-adv-x="655" d="M481 813 C481 813 641 936 641 936 C695 978 722 1000 724 1005 C726 1019 718 1029 703 1029 C699 1029 672 1006 623 959 C623 959 475 820 475 820 C475 820 481 813 481 813 L481 813 Z M559 730 C559 730 569 730 569 730 C611 730 632 725 621 665 C621 665 523 110 523 110 C523 110 504 0 504 0 C504 0 512 0 512 0 C512 0 642 55 642 55 C642 55 644 65 644 65 C575 61 570 63 579 110 C579 110 677 665 677 665 C690 744 691 750 692 750 C692 750 562 750 562 750 C561 740 559 738 559 730 L559 730 Z M157 730 C157 730 167 730 167 730 C209 730 230 725 219 665 C219 665 140 220 140 220 C114 67 148 -10 242 -10 C365 -10 462 44 530 150 C530 150 534 175 534 175 C471 76 382 26 271 26 C199 26 174 91 196 220 C196 220 275 665 275 665 C289 744 290 750 290 750 C290 750 160 750 160 750 C159 740 157 738 157 730 L157 730 Z " />
<glyph glyph-name="Ucircumflex" unicode="&#xdb;" horiz-adv-x="655" d="M559 730 C559 730 569 730 569 730 C611 730 632 725 621 665 C621 665 523 110 523 110 C523 110 504 0 504 0 C504 0 512 0 512 0 C512 0 642 55 642 55 C642 55 644 65 644 65 C575 61 570 63 579 110 C579 110 677 665 677 665 C690 744 691 750 692 750 C692 750 562 750 562 750 C561 740 559 738 559 730 L559 730 Z M157 730 C157 730 167 730 167 730 C209 730 230 725 219 665 C219 665 140 220 140 220 C114 67 148 -10 242 -10 C365 -10 462 44 530 150 C530 150 534 175 534 175 C471 76 382 26 271 26 C199 26 174 91 196 220 C196 220 275 665 275 665 C289 744 290 750 290 750 C290 750 160 750 160 750 C159 740 157 738 157 730 L157 730 Z M503 977 C503 977 615 808 615 808 C615 808 623 813 623 813 C623 813 527 1015 527 1015 C525 1021 519 1033 513 1033 C507 1033 497 1021 492 1015 C492 1015 325 813 325 813 C325 813 331 808 331 808 C331 808 503 977 503 977 L503 977 Z " />
<glyph glyph-name="Udieresis" unicode="&#xdc;" horiz-adv-x="655" d="M552 865 C574 865 586 876 590 897 C594 919 585 930 563 930 C542 930 529 919 525 897 C521 876 530 865 552 865 L552 865 Z M414 865 C436 865 448 876 452 897 C456 919 447 930 426 930 C404 930 391 919 388 897 C384 876 393 865 414 865 L414 865 Z M559 730 C559 730 569 730 569 730 C611 730 632 725 621 665 C621 665 523 110 523 110 C523 110 504 0 504 0 C504 0 512 0 512 0 C512 0 642 55 642 55 C642 55 644 65 644 65 C575 61 570 63 579 110 C579 110 677 665 677 665 C690 744 691 750 692 750 C692 750 562 750 562 750 C561 740 559 738 559 730 L559 730 Z M157 730 C157 730 167 730 167 730 C209 730 230 725 219 665 C219 665 140 220 140 220 C114 67 148 -10 242 -10 C365 -10 462 44 530 150 C530 150 534 175 534 175 C471 76 382 26 271 26 C199 26 174 91 196 220 C196 220 275 665 275 665 C289 744 290 750 290 750 C290 750 160 750 160 750 C159 740 157 738 157 730 L157 730 Z " />
<glyph glyph-name="Yacute" unicode="&#xdd;" horiz-adv-x="668" d="M490 813 C490 813 651 936 651 936 C705 978 732 1000 733 1005 C736 1019 727 1029 712 1029 C708 1029 682 1006 632 959 C632 959 485 820 485 820 C485 820 490 813 490 813 L490 813 Z M331 750 C331 750 257 750 257 750 C257 750 191 750 191 750 C191 750 158 750 158 750 C158 750 154 730 154 730 C154 730 180 730 180 730 C191 730 200 724 234 649 C234 649 370 329 370 329 C370 329 370 329 370 329 C370 329 326 80 326 80 C316 24 294 20 252 20 C252 20 242 20 242 20 C241 16 239 2 238 0 C238 0 442 0 442 0 C442 0 445 20 445 20 C445 20 434 20 434 20 C393 20 372 24 382 80 C382 80 427 332 427 332 C427 332 629 610 629 610 C629 610 629 610 629 610 C710 722 728 730 751 730 C751 730 776 730 776 730 C776 730 779 750 779 750 C779 750 730 750 730 750 C730 750 702 750 702 750 C702 750 629 750 629 750 C628 750 625 730 625 730 C625 730 645 730 645 730 C670 730 681 725 647 671 C647 671 424 350 424 350 C424 350 315 610 315 610 C315 610 316 610 316 610 C268 722 279 730 308 730 C308 730 328 730 328 730 C328 730 331 750 331 750 L331 750 Z " />
<glyph glyph-name="agrave" unicode="&#xe0;" horiz-adv-x="512" d="M536 77 C536 77 526 83 526 83 C515 48 493 31 462 31 C425 31 408 48 414 81 C414 81 463 358 463 358 C484 474 444 510 353 510 C227 510 147 420 137 360 C133 337 139 325 156 325 C178 325 192 338 193 350 C197 367 179 378 181 392 C188 433 244 495 332 495 C402 495 432 467 417 377 C417 377 398 272 398 272 C118 190 85 180 68 80 C57 20 90 -10 166 -10 C240 -10 296 9 365 84 C365 84 364 81 364 81 C354 24 378 -5 435 -5 C483 -5 517 23 536 77 C536 77 536 77 536 77 L536 77 Z M275 709 C243 756 225 779 219 779 C204 779 193 769 190 755 C189 749 209 727 248 686 C248 686 366 563 366 563 C366 563 373 570 373 570 C373 570 275 709 275 709 L275 709 Z M396 260 C396 260 367 97 367 97 C308 33 261 17 198 17 C137 17 111 40 119 86 C136 183 164 192 396 260 C396 260 396 260 396 260 L396 260 Z " />
<glyph glyph-name="aacute" unicode="&#xe1;" horiz-adv-x="512" d="M369 563 C369 563 530 686 530 686 C584 728 611 750 612 755 C614 769 606 779 591 779 C587 779 561 756 511 709 C511 709 364 570 364 570 C364 570 369 563 369 563 L369 563 Z M536 77 C536 77 526 83 526 83 C515 48 493 31 462 31 C425 31 408 48 414 81 C414 81 463 358 463 358 C484 474 444 510 353 510 C227 510 147 420 137 360 C133 337 139 325 156 325 C178 325 192 338 193 350 C197 367 179 378 181 392 C188 433 244 495 332 495 C402 495 432 467 417 377 C417 377 398 272 398 272 C118 190 85 180 68 80 C57 20 90 -10 166 -10 C240 -10 296 9 365 84 C365 84 364 81 364 81 C354 24 378 -5 435 -5 C483 -5 517 23 536 77 C536 77 536 77 536 77 L536 77 Z M396 260 C396 260 367 97 367 97 C308 33 261 17 198 17 C137 17 111 40 119 86 C136 183 164 192 396 260 C396 260 396 260 396 260 L396 260 Z " />
<glyph glyph-name="acircumflex" unicode="&#xe2;" horiz-adv-x="512" d="M536 77 C536 77 526 83 526 83 C515 48 493 31 462 31 C425 31 408 48 414 81 C414 81 463 358 463 358 C484 474 444 510 353 510 C227 510 147 420 137 360 C133 337 139 325 156 325 C178 325 192 338 193 350 C197 367 179 378 181 392 C188 433 244 495 332 495 C402 495 432 467 417 377 C417 377 398 272 398 272 C118 190 85 180 68 80 C57 20 90 -10 166 -10 C240 -10 296 9 365 84 C365 84 364 81 364 81 C354 24 378 -5 435 -5 C483 -5 517 23 536 77 C536 77 536 77 536 77 L536 77 Z M391 727 C391 727 503 558 503 558 C503 558 511 563 511 563 C511 563 415 765 415 765 C413 771 407 783 401 783 C395 783 385 771 380 765 C380 765 213 563 213 563 C213 563 219 558 219 558 C219 558 391 727 391 727 L391 727 Z M396 260 C396 260 367 97 367 97 C308 33 261 17 198 17 C137 17 111 40 119 86 C136 183 164 192 396 260 C396 260 396 260 396 260 L396 260 Z " />
<glyph glyph-name="atilde" unicode="&#xe3;" horiz-adv-x="512" d="M230 620 C238 664 257 686 287 686 C354 686 388 621 455 621 C500 621 528 653 540 716 C540 716 531 716 531 716 C524 676 505 656 473 656 C405 656 372 721 305 721 C261 721 233 687 221 620 C221 620 230 620 230 620 L230 620 Z M536 77 C536 77 526 83 526 83 C515 48 493 31 462 31 C425 31 408 48 414 81 C414 81 463 358 463 358 C484 474 444 510 353 510 C227 510 147 420 137 360 C133 337 139 325 156 325 C178 325 192 338 193 350 C197 367 179 378 181 392 C188 433 244 495 332 495 C402 495 432 467 417 377 C417 377 398 272 398 272 C118 190 85 180 68 80 C57 20 90 -10 166 -10 C240 -10 296 9 365 84 C365 84 364 81 364 81 C354 24 378 -5 435 -5 C483 -5 517 23 536 77 C536 77 536 77 536 77 L536 77 Z M396 260 C396 260 367 97 367 97 C308 33 261 17 198 17 C137 17 111 40 119 86 C136 183 164 192 396 260 C396 260 396 260 396 260 L396 260 Z " />
<glyph glyph-name="adieresis" unicode="&#xe4;" horiz-adv-x="512" d="M440 615 C462 615 474 626 478 647 C482 669 473 680 451 680 C430 680 417 669 413 647 C409 626 418 615 440 615 L440 615 Z M302 615 C324 615 336 626 340 647 C344 669 335 680 314 680 C293 680 280 669 276 647 C272 626 281 615 302 615 L302 615 Z M536 77 C536 77 526 83 526 83 C515 48 493 31 462 31 C425 31 408 48 414 81 C414 81 463 358 463 358 C484 474 444 510 353 510 C227 510 147 420 137 360 C133 337 139 325 156 325 C178 325 192 338 193 350 C197 367 179 378 181 392 C188 433 244 495 332 495 C402 495 432 467 417 377 C417 377 398 272 398 272 C118 190 85 180 68 80 C57 20 90 -10 166 -10 C240 -10 296 9 365 84 C365 84 364 81 364 81 C354 24 378 -5 435 -5 C483 -5 517 23 536 77 C536 77 536 77 536 77 L536 77 Z M396 260 C396 260 367 97 367 97 C308 33 261 17 198 17 C137 17 111 40 119 86 C136 183 164 192 396 260 C396 260 396 260 396 260 L396 260 Z " />
<glyph glyph-name="aring" unicode="&#xe5;" horiz-adv-x="512" d="M364 572 C315 572 288 605 297 655 C306 710 339 738 393 738 C448 738 470 710 460 655 C452 605 413 572 364 572 L364 572 Z M282 655 C272 598 304 560 362 560 C419 560 465 598 475 655 C486 718 459 750 395 750 C331 750 293 718 282 655 L282 655 Z M536 77 C536 77 526 83 526 83 C515 48 493 31 462 31 C425 31 408 48 414 81 C414 81 463 358 463 358 C484 474 444 510 353 510 C227 510 147 420 137 360 C133 337 139 325 156 325 C178 325 192 338 193 350 C197 367 179 378 181 392 C188 433 244 495 332 495 C402 495 432 467 417 377 C417 377 398 272 398 272 C118 190 85 180 68 80 C57 20 90 -10 166 -10 C240 -10 296 9 365 84 C365 84 364 81 364 81 C354 24 378 -5 435 -5 C483 -5 517 23 536 77 C536 77 536 77 536 77 L536 77 Z M396 260 C396 260 367 97 367 97 C308 33 261 17 198 17 C137 17 111 40 119 86 C136 183 164 192 396 260 C396 260 396 260 396 260 L396 260 Z " />
<glyph glyph-name="egrave" unicode="&#xe8;" horiz-adv-x="534" d="M312 709 C280 756 263 779 257 779 C242 779 230 769 227 755 C226 749 246 727 286 686 C286 686 403 563 403 563 C403 563 410 570 410 570 C410 570 312 709 312 709 L312 709 Z M170 340 C170 340 509 340 509 340 C509 340 565 340 565 340 C565 476 506 510 390 510 C224 510 124 418 91 235 C63 72 125 -10 275 -10 C384 -10 465 38 517 133 C517 133 511 136 511 136 C471 61 397 23 293 23 C170 23 121 101 148 255 C153 286 161 315 170 340 L170 340 Z M550 355 C551 355 552 355 553 355 C553 355 550 355 550 355 L550 355 Z M509 355 C509 355 175 352 175 352 C214 450 285 499 385 499 C464 499 506 469 509 355 L509 355 Z " />
<glyph glyph-name="eacute" unicode="&#xe9;" horiz-adv-x="534" d="M406 563 C406 563 567 686 567 686 C621 728 648 750 649 755 C652 769 643 779 629 779 C624 779 598 756 548 709 C548 709 401 570 401 570 C401 570 406 563 406 563 L406 563 Z M170 340 C170 340 509 340 509 340 C509 340 565 340 565 340 C565 476 506 510 390 510 C224 510 124 418 91 235 C63 72 125 -10 275 -10 C384 -10 465 38 517 133 C517 133 511 136 511 136 C471 61 397 23 293 23 C170 23 121 101 148 255 C153 286 161 315 170 340 L170 340 Z M550 355 C551 355 552 355 553 355 C553 355 550 355 550 355 L550 355 Z M509 355 C509 355 175 352 175 352 C214 450 285 499 385 499 C464 499 506 469 509 355 L509 355 Z " />
<glyph glyph-name="ecircumflex" unicode="&#xea;" horiz-adv-x="534" d="M428 727 C428 727 541 558 541 558 C541 558 549 563 549 563 C549 563 453 765 453 765 C450 771 444 783 438 783 C432 783 422 771 418 765 C418 765 251 563 251 563 C251 563 256 558 256 558 C256 558 428 727 428 727 L428 727 Z M170 340 C170 340 509 340 509 340 C509 340 565 340 565 340 C565 476 506 510 390 510 C224 510 124 418 91 235 C63 72 125 -10 275 -10 C384 -10 465 38 517 133 C517 133 511 136 511 136 C471 61 397 23 293 23 C170 23 121 101 148 255 C153 286 161 315 170 340 L170 340 Z M550 355 C551 355 552 355 553 355 C553 355 550 355 550 355 L550 355 Z M509 355 C509 355 175 352 175 352 C214 450 285 499 385 499 C464 499 506 469 509 355 L509 355 Z " />
<glyph glyph-name="edieresis" unicode="&#xeb;" horiz-adv-x="534" d="M477 615 C499 615 511 626 516 647 C519 669 510 680 489 680 C468 680 455 669 451 647 C447 626 456 615 477 615 L477 615 Z M340 615 C362 615 374 626 378 647 C382 669 373 680 351 680 C330 680 317 669 313 647 C309 626 318 615 340 615 L340 615 Z M170 340 C170 340 509 340 509 340 C509 340 565 340 565 340 C565 476 506 510 390 510 C224 510 124 418 91 235 C63 72 125 -10 275 -10 C384 -10 465 38 517 133 C517 133 511 136 511 136 C471 61 397 23 293 23 C170 23 121 101 148 255 C153 286 161 315 170 340 L170 340 Z M550 355 C551 355 552 355 553 355 C553 355 550 355 550 355 L550 355 Z M509 355 C509 355 175 352 175 352 C214 450 285 499 385 499 C464 499 506 469 509 355 L509 355 Z " />
<glyph glyph-name="igrave" unicode="&#xec;" horiz-adv-x="264" d="M67 0 C67 0 232 0 232 0 C232 2 235 12 235 20 C235 20 225 20 225 20 C193 20 178 21 180 35 C180 35 242 390 242 390 C242 390 262 500 262 500 C262 500 253 500 253 500 C253 500 145 445 145 445 C145 445 143 435 143 435 C197 438 201 436 192 390 C192 390 130 35 130 35 C128 21 112 20 81 20 C81 20 71 20 71 20 C70 16 68 2 67 0 L67 0 Z M161 709 C129 756 111 779 105 779 C90 779 78 769 76 755 C75 749 95 727 134 686 C134 686 251 563 251 563 C251 563 259 570 259 570 C259 570 161 709 161 709 L161 709 Z " />
<glyph glyph-name="iacute" unicode="&#xed;" horiz-adv-x="264" d="M67 0 C67 0 232 0 232 0 C232 2 235 12 235 20 C235 20 225 20 225 20 C193 20 178 21 180 35 C180 35 242 390 242 390 C242 390 262 500 262 500 C262 500 253 500 253 500 C253 500 145 445 145 445 C145 445 143 435 143 435 C197 438 201 436 192 390 C192 390 130 35 130 35 C128 21 112 20 81 20 C81 20 71 20 71 20 C70 16 68 2 67 0 L67 0 Z M161 709 C129 756 111 779 105 779 C90 779 78 769 76 755 C75 749 95 727 134 686 C134 686 251 563 251 563 C251 563 259 570 259 570 C259 570 161 709 161 709 L161 709 Z " />
<glyph glyph-name="icircumflex" unicode="&#xee;" horiz-adv-x="264" d="M67 0 C67 0 232 0 232 0 C232 2 235 12 235 20 C235 20 225 20 225 20 C193 20 178 21 180 35 C180 35 242 390 242 390 C242 390 262 500 262 500 C262 500 253 500 253 500 C253 500 145 445 145 445 C145 445 143 435 143 435 C197 438 201 436 192 390 C192 390 130 35 130 35 C128 21 112 20 81 20 C81 20 71 20 71 20 C70 16 68 2 67 0 L67 0 Z M277 727 C277 727 389 558 389 558 C389 558 397 563 397 563 C397 563 301 765 301 765 C298 771 293 783 287 783 C280 783 271 771 266 765 C266 765 99 563 99 563 C99 563 105 558 105 558 C105 558 277 727 277 727 L277 727 Z " />
<glyph glyph-name="idieresis" unicode="&#xef;" horiz-adv-x="264" d="M326 615 C347 615 360 626 364 647 C368 669 359 680 337 680 C316 680 303 669 299 647 C295 626 304 615 326 615 L326 615 Z M188 615 C210 615 222 626 226 647 C230 669 221 680 200 680 C178 680 165 669 161 647 C157 626 166 615 188 615 L188 615 Z M67 0 C67 0 232 0 232 0 C232 2 235 12 235 20 C235 20 225 20 225 20 C193 20 178 21 180 35 C180 35 242 390 242 390 C242 390 262 500 262 500 C262 500 253 500 253 500 C253 500 145 445 145 445 C145 445 143 435 143 435 C197 438 201 436 192 390 C192 390 130 35 130 35 C128 21 112 20 81 20 C81 20 71 20 71 20 C70 16 68 2 67 0 L67 0 Z " />
<glyph glyph-name="ntilde" unicode="&#xf1;" horiz-adv-x="535" d="M239 620 C247 664 266 686 296 686 C363 686 396 621 464 621 C509 621 537 653 548 716 C548 716 540 716 540 716 C532 676 513 656 481 656 C414 656 380 721 313 721 C270 721 242 687 230 620 C230 620 239 620 239 620 L239 620 Z M338 0 C338 0 501 0 501 0 C501 2 504 12 504 20 C504 20 494 20 494 20 C464 20 449 21 451 35 C451 35 509 365 509 365 C526 461 499 510 401 510 C344 510 281 465 215 376 C215 376 213 368 213 368 C213 368 219 400 219 400 C235 493 236 500 236 500 C236 500 228 500 228 500 C228 500 120 463 120 463 C120 463 115 443 117 443 C117 443 128 447 128 447 C163 459 179 459 166 385 C166 385 166 385 166 385 C166 385 104 35 104 35 C102 21 86 20 56 20 C56 20 45 20 45 20 C47 20 42 0 42 0 C42 0 204 0 204 0 C205 4 207 18 208 20 C208 20 197 20 197 20 C167 20 152 21 154 35 C154 35 212 362 212 362 C268 436 319 473 365 473 C448 473 472 437 459 365 C459 365 401 35 401 35 C399 21 383 20 353 20 C353 20 342 20 342 20 C341 16 339 2 338 0 L338 0 Z " />
<glyph glyph-name="ograve" unicode="&#xf2;" horiz-adv-x="609" d="M308 5 C174 5 121 87 150 250 C178 413 260 495 394 495 C529 495 582 413 553 250 C524 87 442 5 308 5 L308 5 Z M94 250 C64 77 135 -10 305 -10 C476 -10 578 77 608 250 C639 423 568 510 397 510 C226 510 125 423 94 250 L94 250 Z M319 709 C287 756 270 779 264 779 C249 779 237 769 234 755 C233 749 253 727 292 686 C292 686 410 563 410 563 C410 563 417 570 417 570 C417 570 319 709 319 709 L319 709 Z " />
<glyph glyph-name="oacute" unicode="&#xf3;" horiz-adv-x="609" d="M413 563 C413 563 574 686 574 686 C628 728 655 750 656 755 C659 769 650 779 635 779 C631 779 605 756 555 709 C555 709 408 570 408 570 C408 570 413 563 413 563 L413 563 Z M308 5 C174 5 121 87 150 250 C178 413 260 495 394 495 C529 495 582 413 553 250 C524 87 442 5 308 5 L308 5 Z M94 250 C64 77 135 -10 305 -10 C476 -10 578 77 608 250 C639 423 568 510 397 510 C226 510 125 423 94 250 L94 250 Z " />
<glyph glyph-name="ocircumflex" unicode="&#xf4;" horiz-adv-x="609" d="M308 5 C174 5 121 87 150 250 C178 413 260 495 394 495 C529 495 582 413 553 250 C524 87 442 5 308 5 L308 5 Z M94 250 C64 77 135 -10 305 -10 C476 -10 578 77 608 250 C639 423 568 510 397 510 C226 510 125 423 94 250 L94 250 Z M435 727 C435 727 548 558 548 558 C548 558 555 563 555 563 C555 563 460 765 460 765 C457 771 451 783 445 783 C439 783 429 771 425 765 C425 765 257 563 257 563 C257 563 263 558 263 558 C263 558 435 727 435 727 L435 727 Z " />
<glyph glyph-name="otilde" unicode="&#xf5;" horiz-adv-x="609" d="M275 620 C282 664 301 686 331 686 C399 686 432 621 499 621 C545 621 573 653 584 716 C584 716 575 716 575 716 C568 676 549 656 517 656 C450 656 416 721 349 721 C305 721 277 687 266 620 C266 620 275 620 275 620 L275 620 Z M308 5 C174 5 121 87 150 250 C178 413 260 495 394 495 C529 495 582 413 553 250 C524 87 442 5 308 5 L308 5 Z M94 250 C64 77 135 -10 305 -10 C476 -10 578 77 608 250 C639 423 568 510 397 510 C226 510 125 423 94 250 L94 250 Z " />
<glyph glyph-name="odieresis" unicode="&#xf6;" horiz-adv-x="609" d="M484 615 C506 615 518 626 522 647 C526 669 517 680 496 680 C475 680 462 669 458 647 C454 626 463 615 484 615 L484 615 Z M347 615 C368 615 381 626 385 647 C389 669 380 680 358 680 C337 680 324 669 320 647 C316 626 325 615 347 615 L347 615 Z M308 5 C174 5 121 87 150 250 C178 413 260 495 394 495 C529 495 582 413 553 250 C524 87 442 5 308 5 L308 5 Z M94 250 C64 77 135 -10 305 -10 C476 -10 578 77 608 250 C639 423 568 510 397 510 C226 510 125 423 94 250 L94 250 Z " />
<glyph glyph-name="oslash" unicode="&#xf8;" horiz-adv-x="609" d="M54 -16 C54 -16 130 49 130 49 C166 10 224 -10 305 -10 C476 -10 578 77 608 250 C623 332 614 395 583 439 C583 439 659 504 659 504 C659 504 649 516 649 516 C649 516 573 451 573 451 C537 490 478 510 397 510 C226 510 125 423 94 250 C80 168 88 105 120 62 C120 62 43 -4 43 -4 C43 -4 54 -16 54 -16 L54 -16 Z M308 5 C236 5 187 29 162 77 C162 77 548 408 548 408 C563 369 565 316 553 250 C524 87 442 5 308 5 C308 5 308 5 308 5 L308 5 Z M155 92 C140 131 138 184 150 250 C178 413 260 495 394 495 C467 495 516 471 541 423 C541 423 155 92 155 92 L155 92 Z " />
<glyph glyph-name="ugrave" unicode="&#xf9;" horiz-adv-x="514" d="M417 480 C417 480 427 480 427 480 C451 480 463 479 461 465 C461 465 403 137 403 137 C359 62 304 25 238 25 C171 25 144 70 160 160 C160 160 214 465 214 465 C220 498 220 500 220 500 C220 500 124 500 124 500 C124 500 120 480 120 480 C120 480 131 480 131 480 C155 480 166 479 164 465 C164 465 110 160 110 160 C90 47 123 -10 209 -10 C285 -10 349 34 400 121 C400 121 395 90 395 90 C378 -3 377 -10 377 -10 C377 -10 386 -10 386 -10 C386 -10 491 15 491 15 C491 15 494 35 495 35 C495 35 483 32 483 32 C452 24 436 26 444 90 C444 90 445 90 445 90 C445 90 511 465 511 465 C517 498 517 500 517 500 C517 500 420 500 420 500 C420 500 417 480 417 480 L417 480 Z M268 709 C236 756 218 779 212 779 C197 779 185 769 183 755 C182 749 202 727 241 686 C241 686 358 563 358 563 C358 563 366 570 366 570 C366 570 268 709 268 709 L268 709 Z M495 35 C495 35 495 35 495 35 C495 35 495 35 495 35 L495 35 Z " />
<glyph glyph-name="uacute" unicode="&#xfa;" horiz-adv-x="514" d="M361 563 C361 563 522 686 522 686 C576 728 603 750 604 755 C607 769 598 779 584 779 C579 779 553 756 503 709 C503 709 356 570 356 570 C356 570 361 563 361 563 L361 563 Z M417 480 C417 480 427 480 427 480 C451 480 463 479 461 465 C461 465 403 137 403 137 C359 62 304 25 238 25 C171 25 144 70 160 160 C160 160 214 465 214 465 C220 498 220 500 220 500 C220 500 124 500 124 500 C124 500 120 480 120 480 C120 480 131 480 131 480 C155 480 166 479 164 465 C164 465 110 160 110 160 C90 47 123 -10 209 -10 C285 -10 349 34 400 121 C400 121 395 90 395 90 C378 -3 377 -10 377 -10 C377 -10 386 -10 386 -10 C386 -10 491 15 491 15 C491 15 494 35 495 35 C495 35 483 32 483 32 C452 24 436 26 444 90 C444 90 445 90 445 90 C445 90 511 465 511 465 C517 498 517 500 517 500 C517 500 420 500 420 500 C420 500 417 480 417 480 L417 480 Z M495 35 C495 35 495 35 495 35 C495 35 495 35 495 35 L495 35 Z " />
<glyph glyph-name="ucircumflex" unicode="&#xfb;" horiz-adv-x="514" d="M417 480 C417 480 427 480 427 480 C451 480 463 479 461 465 C461 465 403 137 403 137 C359 62 304 25 238 25 C171 25 144 70 160 160 C160 160 214 465 214 465 C220 498 220 500 220 500 C220 500 124 500 124 500 C124 500 120 480 120 480 C120 480 131 480 131 480 C155 480 166 479 164 465 C164 465 110 160 110 160 C90 47 123 -10 209 -10 C285 -10 349 34 400 121 C400 121 395 90 395 90 C378 -3 377 -10 377 -10 C377 -10 386 -10 386 -10 C386 -10 491 15 491 15 C491 15 494 35 495 35 C495 35 483 32 483 32 C452 24 436 26 444 90 C444 90 445 90 445 90 C445 90 511 465 511 465 C517 498 517 500 517 500 C517 500 420 500 420 500 C420 500 417 480 417 480 L417 480 Z M384 727 C384 727 496 558 496 558 C496 558 504 563 504 563 C504 563 408 765 408 765 C405 771 399 783 393 783 C387 783 378 771 373 765 C373 765 206 563 206 563 C206 563 211 558 211 558 C211 558 384 727 384 727 L384 727 Z M495 35 C495 35 495 35 495 35 C495 35 495 35 495 35 L495 35 Z " />
<glyph glyph-name="udieresis" unicode="&#xfc;" horiz-adv-x="514" d="M433 615 C454 615 467 626 471 647 C475 669 466 680 444 680 C423 680 410 669 406 647 C402 626 411 615 433 615 L433 615 Z M295 615 C317 615 329 626 333 647 C337 669 328 680 306 680 C285 680 272 669 268 647 C264 626 273 615 295 615 L295 615 Z M417 480 C417 480 427 480 427 480 C451 480 463 479 461 465 C461 465 403 137 403 137 C359 62 304 25 238 25 C171 25 144 70 160 160 C160 160 214 465 214 465 C220 498 220 500 220 500 C220 500 124 500 124 500 C124 500 120 480 120 480 C120 480 131 480 131 480 C155 480 166 479 164 465 C164 465 110 160 110 160 C90 47 123 -10 209 -10 C285 -10 349 34 400 121 C400 121 395 90 395 90 C378 -3 377 -10 377 -10 C377 -10 386 -10 386 -10 C386 -10 491 15 491 15 C491 15 494 35 495 35 C495 35 483 32 483 32 C452 24 436 26 444 90 C444 90 445 90 445 90 C445 90 511 465 511 465 C517 498 517 500 517 500 C517 500 420 500 420 500 C420 500 417 480 417 480 L417 480 Z M495 35 C495 35 495 35 495 35 C495 35 495 35 495 35 L495 35 Z " />
<glyph glyph-name="ydieresis" unicode="&#xff;" horiz-adv-x="495" d="M434 615 C456 615 468 626 472 647 C476 669 467 680 446 680 C424 680 411 669 407 647 C403 626 412 615 434 615 L434 615 Z M296 615 C318 615 330 626 335 647 C338 669 329 680 308 680 C287 680 274 669 270 647 C266 626 275 615 296 615 L296 615 Z M566 500 C566 500 513 500 513 500 C513 500 490 500 490 500 C490 500 423 500 423 500 C423 500 420 480 420 480 C420 480 441 480 441 480 C465 480 477 478 466 455 C466 455 259 57 259 57 C259 57 205 462 205 462 C204 479 212 480 227 480 C227 480 249 480 249 480 C249 480 252 500 253 500 C253 500 200 500 200 500 C200 500 145 500 145 500 C145 500 103 500 103 500 C102 500 99 480 99 480 C99 480 125 480 125 480 C141 480 149 478 152 453 C152 453 152 453 152 453 C152 453 224 -10 224 -10 C224 -10 157 -140 157 -140 C148 -157 137 -165 122 -165 C109 -165 110 -147 97 -147 C78 -147 67 -155 64 -172 C60 -193 68 -203 88 -203 C121 -203 146 -186 164 -154 C164 -154 239 -10 239 -10 C239 -10 478 434 478 434 C478 434 478 434 478 434 C500 477 514 480 538 480 C538 480 562 480 562 480 C562 480 565 500 566 500 L566 500 Z " />
<glyph glyph-name="Amacron" unicode="&#x100;" horiz-adv-x="696" d="M379 901 C379 901 679 901 679 901 C679 901 686 936 686 936 C686 936 386 936 386 936 C386 936 379 901 379 901 L379 901 Z M467 0 C467 0 562 0 562 0 C562 0 621 0 621 0 C621 0 681 0 681 0 C682 4 684 18 685 20 C685 20 661 20 661 20 C634 20 619 27 606 115 C606 115 528 732 528 732 C528 732 523 770 523 770 C523 770 517 770 517 770 C496 746 481 733 472 732 C472 732 473 722 473 722 C473 722 473 722 473 722 C473 722 184 151 184 151 C121 29 92 20 46 20 C46 20 23 20 23 20 C23 18 23 8 20 0 C20 0 108 0 108 0 C108 0 125 0 125 0 C125 0 241 0 241 0 C241 0 244 20 244 20 C244 20 223 20 223 20 C168 20 143 29 196 143 C196 143 268 287 268 287 C268 287 527 287 527 287 C527 287 546 126 546 126 C556 27 535 20 492 20 C492 20 471 20 471 20 C470 16 468 2 467 0 L467 0 Z M275 302 C275 302 475 705 475 705 C475 705 525 302 525 302 C525 302 275 302 275 302 L275 302 Z " />
<glyph glyph-name="amacron" unicode="&#x101;" horiz-adv-x="512" d="M228 651 C228 651 528 651 528 651 C528 651 534 686 534 686 C534 686 234 686 234 686 C234 686 228 651 228 651 L228 651 Z M536 77 C536 77 526 83 526 83 C515 48 493 31 462 31 C425 31 408 48 414 81 C414 81 463 358 463 358 C484 474 444 510 353 510 C227 510 147 420 137 360 C133 337 139 325 156 325 C178 325 192 338 193 350 C197 367 179 378 181 392 C188 433 244 495 332 495 C402 495 432 467 417 377 C417 377 398 272 398 272 C118 190 85 180 68 80 C57 20 90 -10 166 -10 C240 -10 296 9 365 84 C365 84 364 81 364 81 C354 24 378 -5 435 -5 C483 -5 517 23 536 77 C536 77 536 77 536 77 L536 77 Z M396 260 C396 260 367 97 367 97 C308 33 261 17 198 17 C137 17 111 40 119 86 C136 183 164 192 396 260 C396 260 396 260 396 260 L396 260 Z " />
<glyph glyph-name="Abreve" unicode="&#x102;" horiz-adv-x="696" d="M422 995 C413 924 449 889 527 889 C607 889 655 924 670 994 C670 994 660 995 660 995 C649 948 607 924 533 924 C460 924 426 948 432 996 C432 996 422 995 422 995 L422 995 Z M467 0 C467 0 562 0 562 0 C562 0 621 0 621 0 C621 0 681 0 681 0 C682 4 684 18 685 20 C685 20 661 20 661 20 C634 20 619 27 606 115 C606 115 528 732 528 732 C528 732 523 770 523 770 C523 770 517 770 517 770 C496 746 481 733 472 732 C472 732 473 722 473 722 C473 722 473 722 473 722 C473 722 184 151 184 151 C121 29 92 20 46 20 C46 20 23 20 23 20 C23 18 23 8 20 0 C20 0 108 0 108 0 C108 0 125 0 125 0 C125 0 241 0 241 0 C241 0 244 20 244 20 C244 20 223 20 223 20 C168 20 143 29 196 143 C196 143 268 287 268 287 C268 287 527 287 527 287 C527 287 546 126 546 126 C556 27 535 20 492 20 C492 20 471 20 471 20 C470 16 468 2 467 0 L467 0 Z M275 302 C275 302 475 705 475 705 C475 705 525 302 525 302 C525 302 275 302 275 302 L275 302 Z " />
<glyph glyph-name="abreve" unicode="&#x103;" horiz-adv-x="512" d="M270 745 C261 674 297 639 375 639 C455 639 503 674 518 744 C518 744 508 745 508 745 C497 698 455 674 382 674 C309 674 275 698 280 746 C280 746 270 745 270 745 L270 745 Z M536 77 C536 77 526 83 526 83 C515 48 493 31 462 31 C425 31 408 48 414 81 C414 81 463 358 463 358 C484 474 444 510 353 510 C227 510 147 420 137 360 C133 337 139 325 156 325 C178 325 192 338 193 350 C197 367 179 378 181 392 C188 433 244 495 332 495 C402 495 432 467 417 377 C417 377 398 272 398 272 C118 190 85 180 68 80 C57 20 90 -10 166 -10 C240 -10 296 9 365 84 C365 84 364 81 364 81 C354 24 378 -5 435 -5 C483 -5 517 23 536 77 C536 77 536 77 536 77 L536 77 Z M396 260 C396 260 367 97 367 97 C308 33 261 17 198 17 C137 17 111 40 119 86 C136 183 164 192 396 260 C396 260 396 260 396 260 L396 260 Z " />
<glyph glyph-name="Cacute" unicode="&#x106;" horiz-adv-x="703" d="M532 813 C532 813 692 936 692 936 C747 978 774 1000 775 1005 C778 1019 769 1029 754 1029 C750 1029 724 1006 674 959 C674 959 527 820 527 820 C527 820 532 813 532 813 L532 813 Z M755 555 C759 580 764 606 769 632 C769 632 773 658 782 709 C782 709 767 709 767 709 C767 709 764 702 759 689 C757 684 733 692 691 720 C654 746 604 760 516 760 C303 760 173 631 128 375 C83 119 164 -10 370 -10 C451 -10 509 3 558 28 C558 28 559 28 559 28 C559 28 647 58 647 58 C653 60 654 53 652 38 C652 38 664 38 664 38 C668 64 673 90 678 116 C678 116 678 118 679 121 C679 121 679 121 679 121 C679 121 679 121 679 121 C680 131 685 156 692 195 C692 195 677 195 677 195 C676 195 674 190 669 180 C643 128 590 65 534 35 C491 14 442 3 377 3 C209 3 146 128 189 375 C233 621 343 746 519 746 C568 746 603 740 632 729 C694 703 730 625 740 555 C740 555 755 555 755 555 L755 555 Z " />
<glyph glyph-name="Ccircumflex" unicode="&#x108;" horiz-adv-x="703" d="M755 555 C759 580 764 606 769 632 C769 632 773 658 782 709 C782 709 767 709 767 709 C767 709 764 702 759 689 C757 684 733 692 691 720 C654 746 604 760 516 760 C303 760 173 631 128 375 C83 119 164 -10 370 -10 C451 -10 509 3 558 28 C558 28 559 28 559 28 C559 28 647 58 647 58 C653 60 654 53 652 38 C652 38 664 38 664 38 C668 64 673 90 678 116 C678 116 678 118 679 121 C679 121 679 121 679 121 C679 121 679 121 679 121 C680 131 685 156 692 195 C692 195 677 195 677 195 C676 195 674 190 669 180 C643 128 590 65 534 35 C491 14 442 3 377 3 C209 3 146 128 189 375 C233 621 343 746 519 746 C568 746 603 740 632 729 C694 703 730 625 740 555 C740 555 755 555 755 555 L755 555 Z M554 977 C554 977 666 808 666 808 C666 808 674 813 674 813 C674 813 578 1015 578 1015 C576 1021 570 1033 564 1033 C558 1033 548 1021 543 1015 C543 1015 376 813 376 813 C376 813 382 808 382 808 C382 808 554 977 554 977 L554 977 Z " />
<glyph glyph-name="Cdotaccent" unicode="&#x10a;" horiz-adv-x="703" d="M534 865 C556 865 568 876 572 897 C576 919 567 930 546 930 C524 930 511 919 508 897 C504 876 512 865 534 865 L534 865 Z M755 555 C759 580 764 606 769 632 C769 632 773 658 782 709 C782 709 767 709 767 709 C767 709 764 702 759 689 C757 684 733 692 691 720 C654 746 604 760 516 760 C303 760 173 631 128 375 C83 119 164 -10 370 -10 C451 -10 509 3 558 28 C558 28 559 28 559 28 C559 28 647 58 647 58 C653 60 654 53 652 38 C652 38 664 38 664 38 C668 64 673 90 678 116 C678 116 678 118 679 121 C679 121 679 121 679 121 C679 121 679 121 679 121 C680 131 685 156 692 195 C692 195 677 195 677 195 C676 195 674 190 669 180 C643 128 590 65 534 35 C491 14 442 3 377 3 C209 3 146 128 189 375 C233 621 343 746 519 746 C568 746 603 740 632 729 C694 703 730 625 740 555 C740 555 755 555 755 555 L755 555 Z " />
<glyph glyph-name="cdotaccent" unicode="&#x10b;" horiz-adv-x="471" d="M377 615 C398 615 411 626 415 647 C419 669 410 680 388 680 C367 680 354 669 350 647 C346 626 355 615 377 615 L377 615 Z M464 128 C464 128 458 131 458 131 C412 58 350 21 273 21 C162 21 120 103 148 264 C176 420 245 499 353 499 C417 499 455 467 466 405 C469 388 476 380 487 380 C509 380 519 388 516 405 C503 475 450 510 358 510 C214 510 125 419 93 239 C64 73 117 -10 250 -10 C335 -10 407 36 464 128 L464 128 Z " />
<glyph glyph-name="Ccaron" unicode="&#x10c;" horiz-adv-x="703" d="M755 555 C759 580 764 606 769 632 C769 632 773 658 782 709 C782 709 767 709 767 709 C767 709 764 702 759 689 C757 684 733 692 691 720 C654 746 604 760 516 760 C303 760 173 631 128 375 C83 119 164 -10 370 -10 C451 -10 509 3 558 28 C558 28 559 28 559 28 C559 28 647 58 647 58 C653 60 654 53 652 38 C652 38 664 38 664 38 C668 64 673 90 678 116 C678 116 678 118 679 121 C679 121 679 121 679 121 C679 121 679 121 679 121 C680 131 685 156 692 195 C692 195 677 195 677 195 C676 195 674 190 669 180 C643 128 590 65 534 35 C491 14 442 3 377 3 C209 3 146 128 189 375 C233 621 343 746 519 746 C568 746 603 740 632 729 C694 703 730 625 740 555 C740 555 755 555 755 555 L755 555 Z M536 873 C536 873 708 1042 708 1042 C708 1042 714 1037 714 1037 C714 1037 547 835 547 835 C542 829 532 817 526 817 C520 817 514 829 511 835 C511 835 415 1037 415 1037 C415 1037 423 1042 423 1042 C423 1042 536 873 536 873 L536 873 Z " />
<glyph glyph-name="ccaron" unicode="&#x10d;" horiz-adv-x="471" d="M464 128 C464 128 458 131 458 131 C412 58 350 21 273 21 C162 21 120 103 148 264 C176 420 245 499 353 499 C417 499 455 467 466 405 C469 388 476 380 487 380 C509 380 519 388 516 405 C503 475 450 510 358 510 C214 510 125 419 93 239 C64 73 117 -10 250 -10 C335 -10 407 36 464 128 L464 128 Z M378 623 C378 623 550 792 550 792 C550 792 556 787 556 787 C556 787 389 585 389 585 C384 579 374 567 368 567 C362 567 356 579 354 585 C354 585 258 787 258 787 C258 787 266 792 266 792 C266 792 378 623 378 623 L378 623 Z " />
<glyph glyph-name="Dcaron" unicode="&#x10e;" horiz-adv-x="787" d="M63 0 C63 0 137 0 137 0 C137 0 193 0 193 0 C193 0 273 0 273 0 C578 0 751 101 799 375 C843 624 752 750 445 750 C445 750 325 750 325 750 C325 750 269 750 269 750 C269 750 195 750 195 750 C194 740 192 738 192 730 C192 730 202 730 202 730 C244 730 265 725 254 665 C254 665 254 665 254 665 C254 665 151 82 151 82 C140 25 118 20 77 20 C77 20 66 20 66 20 C68 20 63 0 63 0 C63 0 63 0 63 0 L63 0 Z M558 873 C558 873 730 1042 730 1042 C730 1042 736 1037 736 1037 C736 1037 569 835 569 835 C564 829 554 817 548 817 C542 817 536 829 534 835 C534 835 438 1037 438 1037 C438 1037 446 1042 446 1042 C446 1042 558 873 558 873 L558 873 Z M323 739 C323 739 398 739 398 739 C693 739 780 617 738 375 C690 109 534 11 258 11 C202 11 199 29 205 66 C206 72 207 78 208 85 C208 85 208 85 208 85 C208 85 317 703 317 703 C320 721 322 732 323 739 L323 739 Z " />
<glyph glyph-name="dcaron" unicode="&#x10f;" horiz-adv-x="574" d="M528 701 C528 701 539 704 539 704 C571 713 588 714 581 663 C581 663 542 446 542 446 C514 486 468 510 406 510 C215 510 130 424 100 254 C69 82 133 -5 289 -5 C367 -5 430 21 477 72 C464 -4 462 -10 462 -10 C462 -10 471 -10 471 -10 C471 -10 576 15 576 15 C576 15 579 35 580 35 C580 35 569 32 569 32 C535 24 519 27 535 120 C535 120 535 120 535 120 C535 120 631 665 631 665 C645 744 646 750 646 750 C646 750 637 750 637 750 C637 750 531 721 531 721 C530 711 528 709 528 701 C528 701 528 701 528 701 L528 701 Z M714 647 C737 695 750 730 754 751 C755 757 747 759 733 759 C721 759 703 702 689 652 C689 652 657 541 657 541 C657 541 665 540 665 540 C665 540 714 647 714 647 L714 647 Z M580 35 C580 35 580 35 580 35 C580 35 580 35 580 35 C580 35 580 35 580 35 L580 35 Z M479 89 C435 41 379 16 313 16 C177 16 124 100 153 267 C180 419 251 495 409 495 C468 495 511 454 533 392 C533 392 483 110 483 110 C482 103 481 96 479 89 C479 89 479 89 479 89 L479 89 Z " />
<glyph glyph-name="Emacron" unicode="&#x112;" horiz-adv-x="590" d="M329 901 C329 901 629 901 629 901 C629 901 635 936 635 936 C635 936 335 936 335 936 C335 936 329 901 329 901 L329 901 Z M604 650 C604 650 624 650 624 650 C628 683 631 716 635 750 C635 750 515 750 515 750 C515 750 325 750 325 750 C325 750 269 750 269 750 C269 750 195 750 195 750 C194 740 192 738 192 730 C192 730 202 730 202 730 C244 730 265 725 254 665 C254 665 254 665 254 665 C254 665 151 82 151 82 C140 25 118 20 77 20 C77 20 66 20 66 20 C68 20 63 0 63 0 C63 0 137 0 137 0 C137 0 193 0 193 0 C193 0 408 0 408 0 C408 0 528 0 528 0 C538 34 549 67 559 100 C559 100 539 100 539 100 C539 100 536 89 536 89 C520 38 505 12 411 12 C411 12 275 12 275 12 C204 12 199 30 205 65 C206 71 207 78 208 85 C208 85 208 85 208 85 C208 85 261 385 261 385 C261 385 390 385 390 385 C490 385 486 350 473 287 C473 287 493 287 493 287 C507 356 518 426 530 497 C530 497 510 497 510 497 C510 497 508 486 508 486 C498 428 486 398 393 398 C393 398 263 398 263 398 C263 398 317 703 317 703 C324 746 325 750 325 750 C325 750 323 738 323 738 C323 738 514 738 514 738 C631 738 611 710 604 650 C604 650 604 650 604 650 L604 650 Z " />
<glyph glyph-name="emacron" unicode="&#x113;" horiz-adv-x="534" d="M265 651 C265 651 565 651 565 651 C565 651 571 686 571 686 C571 686 271 686 271 686 C271 686 265 651 265 651 L265 651 Z M170 340 C170 340 509 340 509 340 C509 340 565 340 565 340 C565 476 506 510 390 510 C224 510 124 418 91 235 C63 72 125 -10 275 -10 C384 -10 465 38 517 133 C517 133 511 136 511 136 C471 61 397 23 293 23 C170 23 121 101 148 255 C153 286 161 315 170 340 L170 340 Z M550 355 C551 355 552 355 553 355 C553 355 550 355 550 355 L550 355 Z M509 355 C509 355 175 352 175 352 C214 450 285 499 385 499 C464 499 506 469 509 355 L509 355 Z " />
<glyph glyph-name="Ebreve" unicode="&#x114;" horiz-adv-x="590" d="M371 995 C362 924 398 889 476 889 C556 889 604 924 619 994 C619 994 609 995 609 995 C598 948 556 924 483 924 C409 924 375 948 381 996 C381 996 371 995 371 995 L371 995 Z M604 650 C604 650 624 650 624 650 C628 683 631 716 635 750 C635 750 515 750 515 750 C515 750 325 750 325 750 C325 750 269 750 269 750 C269 750 195 750 195 750 C194 740 192 738 192 730 C192 730 202 730 202 730 C244 730 265 725 254 665 C254 665 254 665 254 665 C254 665 151 82 151 82 C140 25 118 20 77 20 C77 20 66 20 66 20 C68 20 63 0 63 0 C63 0 137 0 137 0 C137 0 193 0 193 0 C193 0 408 0 408 0 C408 0 528 0 528 0 C538 34 549 67 559 100 C559 100 539 100 539 100 C539 100 536 89 536 89 C520 38 505 12 411 12 C411 12 275 12 275 12 C204 12 199 30 205 65 C206 71 207 78 208 85 C208 85 208 85 208 85 C208 85 261 385 261 385 C261 385 390 385 390 385 C490 385 486 350 473 287 C473 287 493 287 493 287 C507 356 518 426 530 497 C530 497 510 497 510 497 C510 497 508 486 508 486 C498 428 486 398 393 398 C393 398 263 398 263 398 C263 398 317 703 317 703 C324 746 325 750 325 750 C325 750 323 738 323 738 C323 738 514 738 514 738 C631 738 611 710 604 650 C604 650 604 650 604 650 L604 650 Z " />
<glyph glyph-name="ebreve" unicode="&#x115;" horiz-adv-x="534" d="M307 745 C298 674 334 639 413 639 C492 639 540 674 556 744 C556 744 545 745 545 745 C534 698 492 674 419 674 C346 674 312 698 318 746 C318 746 307 745 307 745 L307 745 Z M170 340 C170 340 509 340 509 340 C509 340 565 340 565 340 C565 476 506 510 390 510 C224 510 124 418 91 235 C63 72 125 -10 275 -10 C384 -10 465 38 517 133 C517 133 511 136 511 136 C471 61 397 23 293 23 C170 23 121 101 148 255 C153 286 161 315 170 340 L170 340 Z M550 355 C551 355 552 355 553 355 C553 355 550 355 550 355 L550 355 Z M509 355 C509 355 175 352 175 352 C214 450 285 499 385 499 C464 499 506 469 509 355 L509 355 Z " />
<glyph glyph-name="Edotaccent" unicode="&#x116;" horiz-adv-x="590" d="M472 865 C494 865 506 876 510 897 C514 919 505 930 484 930 C462 930 449 919 446 897 C442 876 450 865 472 865 L472 865 Z M604 650 C604 650 624 650 624 650 C628 683 631 716 635 750 C635 750 515 750 515 750 C515 750 325 750 325 750 C325 750 269 750 269 750 C269 750 195 750 195 750 C194 740 192 738 192 730 C192 730 202 730 202 730 C244 730 265 725 254 665 C254 665 254 665 254 665 C254 665 151 82 151 82 C140 25 118 20 77 20 C77 20 66 20 66 20 C68 20 63 0 63 0 C63 0 137 0 137 0 C137 0 193 0 193 0 C193 0 408 0 408 0 C408 0 528 0 528 0 C538 34 549 67 559 100 C559 100 539 100 539 100 C539 100 536 89 536 89 C520 38 505 12 411 12 C411 12 275 12 275 12 C204 12 199 30 205 65 C206 71 207 78 208 85 C208 85 208 85 208 85 C208 85 261 385 261 385 C261 385 390 385 390 385 C490 385 486 350 473 287 C473 287 493 287 493 287 C507 356 518 426 530 497 C530 497 510 497 510 497 C510 497 508 486 508 486 C498 428 486 398 393 398 C393 398 263 398 263 398 C263 398 317 703 317 703 C324 746 325 750 325 750 C325 750 323 738 323 738 C323 738 514 738 514 738 C631 738 611 710 604 650 C604 650 604 650 604 650 L604 650 Z " />
<glyph glyph-name="edotaccent" unicode="&#x117;" horiz-adv-x="534" d="M409 615 C430 615 443 626 447 647 C451 669 442 680 420 680 C399 680 386 669 382 647 C378 626 387 615 409 615 L409 615 Z M170 340 C170 340 509 340 509 340 C509 340 565 340 565 340 C565 476 506 510 390 510 C224 510 124 418 91 235 C63 72 125 -10 275 -10 C384 -10 465 38 517 133 C517 133 511 136 511 136 C471 61 397 23 293 23 C170 23 121 101 148 255 C153 286 161 315 170 340 L170 340 Z M550 355 C551 355 552 355 553 355 C553 355 550 355 550 355 L550 355 Z M509 355 C509 355 175 352 175 352 C214 450 285 499 385 499 C464 499 506 469 509 355 L509 355 Z " />
<glyph glyph-name="Ecaron" unicode="&#x11a;" horiz-adv-x="590" d="M604 650 C604 650 624 650 624 650 C628 683 631 716 635 750 C635 750 515 750 515 750 C515 750 325 750 325 750 C325 750 269 750 269 750 C269 750 195 750 195 750 C194 740 192 738 192 730 C192 730 202 730 202 730 C244 730 265 725 254 665 C254 665 254 665 254 665 C254 665 151 82 151 82 C140 25 118 20 77 20 C77 20 66 20 66 20 C68 20 63 0 63 0 C63 0 137 0 137 0 C137 0 193 0 193 0 C193 0 408 0 408 0 C408 0 528 0 528 0 C538 34 549 67 559 100 C559 100 539 100 539 100 C539 100 536 89 536 89 C520 38 505 12 411 12 C411 12 275 12 275 12 C204 12 199 30 205 65 C206 71 207 78 208 85 C208 85 208 85 208 85 C208 85 261 385 261 385 C261 385 390 385 390 385 C490 385 486 350 473 287 C473 287 493 287 493 287 C507 356 518 426 530 497 C530 497 510 497 510 497 C510 497 508 486 508 486 C498 428 486 398 393 398 C393 398 263 398 263 398 C263 398 317 703 317 703 C324 746 325 750 325 750 C325 750 323 738 323 738 C323 738 514 738 514 738 C631 738 611 710 604 650 C604 650 604 650 604 650 L604 650 Z M474 873 C474 873 646 1042 646 1042 C646 1042 651 1037 651 1037 C651 1037 485 835 485 835 C480 829 470 817 464 817 C458 817 452 829 449 835 C449 835 353 1037 353 1037 C353 1037 361 1042 361 1042 C361 1042 474 873 474 873 L474 873 Z " />
<glyph glyph-name="ecaron" unicode="&#x11b;" horiz-adv-x="534" d="M410 623 C410 623 582 792 582 792 C582 792 588 787 588 787 C588 787 421 585 421 585 C416 579 406 567 400 567 C394 567 388 579 386 585 C386 585 290 787 290 787 C290 787 298 792 298 792 C298 792 410 623 410 623 L410 623 Z M170 340 C170 340 509 340 509 340 C509 340 565 340 565 340 C565 476 506 510 390 510 C224 510 124 418 91 235 C63 72 125 -10 275 -10 C384 -10 465 38 517 133 C517 133 511 136 511 136 C471 61 397 23 293 23 C170 23 121 101 148 255 C153 286 161 315 170 340 L170 340 Z M550 355 C551 355 552 355 553 355 C553 355 550 355 550 355 L550 355 Z M509 355 C509 355 175 352 175 352 C214 450 285 499 385 499 C464 499 506 469 509 355 L509 355 Z " />
<glyph glyph-name="Gcircumflex" unicode="&#x11c;" horiz-adv-x="758" d="M755 555 C759 580 764 606 769 632 C769 632 773 658 782 709 C782 709 767 709 767 709 C767 709 764 702 759 689 C757 684 733 692 691 720 C654 746 604 760 516 760 C303 760 173 631 128 375 C83 119 165 -10 374 -10 C491 -10 565 3 639 28 C639 28 641 28 641 28 C641 28 641 28 641 28 C668 38 696 48 725 61 C725 61 722 69 722 69 C695 57 669 47 643 38 C643 38 679 245 679 245 C689 301 706 305 739 305 C739 305 749 305 749 305 C750 305 753 325 753 325 C753 325 567 325 567 325 C567 325 564 305 563 305 C563 305 574 305 574 305 C614 305 633 301 623 245 C623 245 594 72 594 72 C584 40 545 19 477 10 C477 10 533 13 533 13 C490 7 442 4 381 4 C381 4 477 10 477 10 C450 6 418 4 381 4 C210 4 146 129 189 375 C233 621 343 746 519 746 C568 746 603 740 632 729 C694 703 730 625 740 555 C740 555 755 555 755 555 L755 555 Z M554 977 C554 977 666 808 666 808 C666 808 674 813 674 813 C674 813 578 1015 578 1015 C576 1021 570 1033 564 1033 C558 1033 548 1021 543 1015 C543 1015 376 813 376 813 C376 813 382 808 382 808 C382 808 554 977 554 977 L554 977 Z " />
<glyph glyph-name="Gbreve" unicode="&#x11e;" horiz-adv-x="758" d="M433 995 C424 924 460 889 538 889 C618 889 666 924 681 994 C681 994 671 995 671 995 C660 948 618 924 545 924 C471 924 437 948 443 996 C443 996 433 995 433 995 L433 995 Z M755 555 C759 580 764 606 769 632 C769 632 773 658 782 709 C782 709 767 709 767 709 C767 709 764 702 759 689 C757 684 733 692 691 720 C654 746 604 760 516 760 C303 760 173 631 128 375 C83 119 165 -10 374 -10 C491 -10 565 3 639 28 C639 28 641 28 641 28 C641 28 641 28 641 28 C668 38 696 48 725 61 C725 61 722 69 722 69 C695 57 669 47 643 38 C643 38 679 245 679 245 C689 301 706 305 739 305 C739 305 749 305 749 305 C750 305 753 325 753 325 C753 325 567 325 567 325 C567 325 564 305 563 305 C563 305 574 305 574 305 C614 305 633 301 623 245 C623 245 594 72 594 72 C584 40 545 19 477 10 C477 10 533 13 533 13 C490 7 442 4 381 4 C381 4 477 10 477 10 C450 6 418 4 381 4 C210 4 146 129 189 375 C233 621 343 746 519 746 C568 746 603 740 632 729 C694 703 730 625 740 555 C740 555 755 555 755 555 L755 555 Z " />
<glyph glyph-name="gbreve" unicode="&#x11f;" horiz-adv-x="520" d="M266 745 C257 674 293 639 372 639 C451 639 499 674 515 744 C515 744 505 745 505 745 C493 698 451 674 378 674 C305 674 271 698 277 746 C277 746 266 745 266 745 L266 745 Z M195 350 C213 448 264 498 347 498 C431 498 464 448 447 350 C429 250 378 200 294 200 C211 200 178 250 195 350 L195 350 Z M169 17 C174 17 180 17 186 17 C186 17 299 17 299 17 C417 17 441 -19 428 -90 C413 -176 348 -219 233 -219 C115 -219 64 -173 80 -81 C89 -32 119 1 169 17 C169 17 169 17 169 17 L169 17 Z M157 18 C87 0 46 -38 36 -93 C20 -184 85 -230 228 -230 C372 -230 453 -179 471 -79 C488 18 459 67 313 67 C313 67 197 67 197 67 C133 67 104 86 111 122 C118 166 179 188 292 188 C409 188 478 242 497 350 C500 365 501 380 501 393 C529 447 561 474 596 474 C615 474 622 461 618 434 C616 422 622 416 638 416 C652 416 660 424 663 440 C669 477 655 495 621 495 C571 495 530 465 500 405 C494 475 444 510 349 510 C233 510 164 456 145 350 C131 265 158 213 228 195 C138 186 87 157 79 107 C69 54 96 25 157 18 C157 18 157 18 157 18 L157 18 Z " />
<glyph glyph-name="Gdotaccent" unicode="&#x120;" horiz-adv-x="758" d="M534 865 C556 865 568 876 572 897 C576 919 567 930 546 930 C524 930 511 919 508 897 C504 876 512 865 534 865 L534 865 Z M755 555 C759 580 764 606 769 632 C769 632 773 658 782 709 C782 709 767 709 767 709 C767 709 764 702 759 689 C757 684 733 692 691 720 C654 746 604 760 516 760 C303 760 173 631 128 375 C83 119 165 -10 374 -10 C491 -10 565 3 639 28 C639 28 641 28 641 28 C641 28 641 28 641 28 C668 38 696 48 725 61 C725 61 722 69 722 69 C695 57 669 47 643 38 C643 38 679 245 679 245 C689 301 706 305 739 305 C739 305 749 305 749 305 C750 305 753 325 753 325 C753 325 567 325 567 325 C567 325 564 305 563 305 C563 305 574 305 574 305 C614 305 633 301 623 245 C623 245 594 72 594 72 C584 40 545 19 477 10 C477 10 533 13 533 13 C490 7 442 4 381 4 C381 4 477 10 477 10 C450 6 418 4 381 4 C210 4 146 129 189 375 C233 621 343 746 519 746 C568 746 603 740 632 729 C694 703 730 625 740 555 C740 555 755 555 755 555 L755 555 Z " />
<glyph glyph-name="gdotaccent" unicode="&#x121;" horiz-adv-x="520" d="M368 615 C389 615 402 626 406 647 C410 669 401 680 379 680 C358 680 345 669 341 647 C337 626 346 615 368 615 L368 615 Z M195 350 C213 448 264 498 347 498 C431 498 464 448 447 350 C429 250 378 200 294 200 C211 200 178 250 195 350 L195 350 Z M169 17 C174 17 180 17 186 17 C186 17 299 17 299 17 C417 17 441 -19 428 -90 C413 -176 348 -219 233 -219 C115 -219 64 -173 80 -81 C89 -32 119 1 169 17 C169 17 169 17 169 17 L169 17 Z M157 18 C87 0 46 -38 36 -93 C20 -184 85 -230 228 -230 C372 -230 453 -179 471 -79 C488 18 459 67 313 67 C313 67 197 67 197 67 C133 67 104 86 111 122 C118 166 179 188 292 188 C409 188 478 242 497 350 C500 365 501 380 501 393 C529 447 561 474 596 474 C615 474 622 461 618 434 C616 422 622 416 638 416 C652 416 660 424 663 440 C669 477 655 495 621 495 C571 495 530 465 500 405 C494 475 444 510 349 510 C233 510 164 456 145 350 C131 265 158 213 228 195 C138 186 87 157 79 107 C69 54 96 25 157 18 C157 18 157 18 157 18 L157 18 Z " />
<glyph glyph-name="Hcircumflex" unicode="&#x124;" horiz-adv-x="778" d="M859 750 C859 750 655 750 655 750 C654 740 652 738 652 730 C652 730 662 730 662 730 C704 730 725 726 715 670 C715 670 666 391 666 391 C666 391 298 391 298 391 C298 391 347 670 347 670 C357 726 379 730 420 730 C420 730 431 730 431 730 C431 730 434 750 435 750 C435 750 231 750 231 750 C230 740 228 738 228 730 C228 730 238 730 238 730 C280 730 301 726 291 670 C291 670 187 80 187 80 C177 24 155 20 113 20 C113 20 102 20 102 20 C104 20 99 0 99 0 C99 0 302 0 302 0 C303 4 305 18 306 20 C306 20 295 20 295 20 C254 20 233 24 243 80 C243 80 295 375 295 375 C295 375 663 375 663 375 C663 375 611 80 611 80 C601 24 579 20 537 20 C537 20 526 20 526 20 C526 18 526 8 523 0 C523 0 726 0 726 0 C727 4 729 18 730 20 C730 20 719 20 719 20 C678 20 657 24 667 80 C667 80 771 670 771 670 C781 726 803 730 844 730 C844 730 855 730 855 730 C855 730 858 750 859 750 L859 750 Z M585 977 C585 977 697 808 697 808 C697 808 705 813 705 813 C705 813 609 1015 609 1015 C607 1021 601 1033 595 1033 C589 1033 579 1021 574 1015 C574 1015 407 813 407 813 C407 813 413 808 413 808 C413 808 585 977 585 977 L585 977 Z " />
<glyph glyph-name="Itilde" unicode="&#x128;" horiz-adv-x="324" d="M182 870 C190 914 209 936 239 936 C306 936 340 871 407 871 C452 871 480 903 492 966 C492 966 483 966 483 966 C475 926 456 906 424 906 C357 906 324 971 257 971 C213 971 185 937 173 870 C173 870 182 870 182 870 L182 870 Z M405 750 C405 750 201 750 201 750 C200 740 198 738 198 730 C198 730 208 730 208 730 C250 730 271 726 261 670 C261 670 157 80 157 80 C147 24 125 20 83 20 C83 20 72 20 72 20 C74 20 69 0 69 0 C69 0 272 0 272 0 C273 4 275 18 276 20 C276 20 265 20 265 20 C224 20 203 24 213 80 C213 80 317 670 317 670 C327 726 349 730 390 730 C390 730 401 730 401 730 C401 730 404 750 405 750 L405 750 Z " />
<glyph glyph-name="itilde" unicode="&#x129;" horiz-adv-x="264" d="M116 620 C124 664 143 686 173 686 C240 686 273 621 341 621 C386 621 414 653 425 716 C425 716 417 716 417 716 C409 676 390 656 358 656 C291 656 258 721 190 721 C147 721 119 687 107 620 C107 620 116 620 116 620 L116 620 Z M67 0 C67 0 232 0 232 0 C232 2 235 12 235 20 C235 20 225 20 225 20 C193 20 178 21 180 35 C180 35 242 390 242 390 C242 390 262 500 262 500 C262 500 253 500 253 500 C253 500 145 445 145 445 C145 445 143 435 143 435 C197 438 201 436 192 390 C192 390 130 35 130 35 C128 21 112 20 81 20 C81 20 71 20 71 20 C70 16 68 2 67 0 L67 0 Z " />
<glyph glyph-name="Imacron" unicode="&#x12a;" horiz-adv-x="324" d="M180 901 C180 901 480 901 480 901 C480 901 486 936 486 936 C486 936 186 936 186 936 C186 936 180 901 180 901 L180 901 Z M405 750 C405 750 201 750 201 750 C200 740 198 738 198 730 C198 730 208 730 208 730 C250 730 271 726 261 670 C261 670 157 80 157 80 C147 24 125 20 83 20 C83 20 72 20 72 20 C74 20 69 0 69 0 C69 0 272 0 272 0 C273 4 275 18 276 20 C276 20 265 20 265 20 C224 20 203 24 213 80 C213 80 317 670 317 670 C327 726 349 730 390 730 C390 730 401 730 401 730 C401 730 404 750 405 750 L405 750 Z " />
<glyph glyph-name="imacron" unicode="&#x12b;" horiz-adv-x="264" d="M113 651 C113 651 413 651 413 651 C413 651 419 686 419 686 C419 686 119 686 119 686 C119 686 113 651 113 651 L113 651 Z M67 0 C67 0 232 0 232 0 C232 2 235 12 235 20 C235 20 225 20 225 20 C193 20 178 21 180 35 C180 35 242 390 242 390 C242 390 262 500 262 500 C262 500 253 500 253 500 C253 500 145 445 145 445 C145 445 143 435 143 435 C197 438 201 436 192 390 C192 390 130 35 130 35 C128 21 112 20 81 20 C81 20 71 20 71 20 C70 16 68 2 67 0 L67 0 Z " />
<glyph glyph-name="Ibreve" unicode="&#x12c;" horiz-adv-x="324" d="M222 995 C213 924 249 889 327 889 C407 889 455 924 470 994 C470 994 460 995 460 995 C449 948 407 924 334 924 C260 924 226 948 232 996 C232 996 222 995 222 995 L222 995 Z M405 750 C405 750 201 750 201 750 C200 740 198 738 198 730 C198 730 208 730 208 730 C250 730 271 726 261 670 C261 670 157 80 157 80 C147 24 125 20 83 20 C83 20 72 20 72 20 C74 20 69 0 69 0 C69 0 272 0 272 0 C273 4 275 18 276 20 C276 20 265 20 265 20 C224 20 203 24 213 80 C213 80 317 670 317 670 C327 726 349 730 390 730 C390 730 401 730 401 730 C401 730 404 750 405 750 L405 750 Z " />
<glyph glyph-name="ibreve" unicode="&#x12d;" horiz-adv-x="264" d="M155 745 C147 674 182 639 261 639 C340 639 388 674 404 744 C404 744 394 745 394 745 C383 698 341 674 267 674 C194 674 160 698 166 746 C166 746 155 745 155 745 L155 745 Z M67 0 C67 0 232 0 232 0 C232 2 235 12 235 20 C235 20 225 20 225 20 C193 20 178 21 180 35 C180 35 242 390 242 390 C242 390 262 500 262 500 C262 500 253 500 253 500 C253 500 145 445 145 445 C145 445 143 435 143 435 C197 438 201 436 192 390 C192 390 130 35 130 35 C128 21 112 20 81 20 C81 20 71 20 71 20 C70 16 68 2 67 0 L67 0 Z " />
<glyph glyph-name="Idotaccent" unicode="&#x130;" horiz-adv-x="324" d="M323 865 C345 865 357 876 361 897 C365 919 356 930 335 930 C313 930 300 919 297 897 C293 876 301 865 323 865 L323 865 Z M405 750 C405 750 201 750 201 750 C200 740 198 738 198 730 C198 730 208 730 208 730 C250 730 271 726 261 670 C261 670 157 80 157 80 C147 24 125 20 83 20 C83 20 72 20 72 20 C74 20 69 0 69 0 C69 0 272 0 272 0 C273 4 275 18 276 20 C276 20 265 20 265 20 C224 20 203 24 213 80 C213 80 317 670 317 670 C327 726 349 730 390 730 C390 730 401 730 401 730 C401 730 404 750 405 750 L405 750 Z " />
<glyph glyph-name="dotlessi" unicode="&#x131;" horiz-adv-x="264" d="M67 0 C67 0 232 0 232 0 C232 2 235 12 235 20 C235 20 225 20 225 20 C193 20 178 21 180 35 C180 35 242 390 242 390 C242 390 262 500 262 500 C262 500 253 500 253 500 C253 500 145 445 145 445 C145 445 143 435 143 435 C197 438 201 436 192 390 C192 390 130 35 130 35 C128 21 112 20 81 20 C81 20 71 20 71 20 C70 16 68 2 67 0 L67 0 Z " />
<glyph glyph-name="Jcircumflex" unicode="&#x134;" horiz-adv-x="324" d="M405 750 C405 750 201 750 201 750 C200 740 198 738 198 730 C198 730 208 730 208 730 C250 730 271 726 261 670 C261 670 137 -31 137 -31 C110 -188 48 -200 -4 -200 C-35 -200 -8 -153 -40 -153 C-57 -153 -68 -162 -71 -180 C-75 -206 -59 -220 -21 -220 C63 -220 164 -199 212 75 C212 75 317 670 317 670 C327 726 349 730 390 730 C390 730 401 730 401 730 C401 730 404 750 405 750 L405 750 Z M343 977 C343 977 455 808 455 808 C455 808 463 813 463 813 C463 813 367 1015 367 1015 C365 1021 359 1033 353 1033 C347 1033 337 1021 332 1015 C332 1015 165 813 165 813 C165 813 171 808 171 808 C171 808 343 977 343 977 L343 977 Z " />
<glyph glyph-name="Lacute" unicode="&#x139;" horiz-adv-x="589" d="M321 813 C321 813 481 936 481 936 C536 978 563 1000 564 1005 C567 1019 558 1029 543 1029 C539 1029 513 1006 463 959 C463 959 316 820 316 820 C316 820 321 813 321 813 L321 813 Z M69 0 C69 0 143 0 143 0 C143 0 199 0 199 0 C199 0 346 0 346 0 C346 0 531 0 531 0 C531 0 534 0 534 0 C534 0 535 9 535 9 C552 48 569 84 586 123 C582 124 569 125 567 125 C567 125 562 115 562 115 C531 45 504 10 350 10 C350 10 280 10 280 10 C207 10 205 29 211 69 C212 74 213 79 214 85 C214 85 214 85 214 85 C214 85 317 668 317 668 C328 725 350 730 390 730 C390 730 401 730 401 730 C401 730 404 750 405 750 C405 750 331 750 331 750 C331 750 275 750 275 750 C275 750 201 750 201 750 C200 740 198 738 198 730 C198 730 208 730 208 730 C250 730 271 725 260 665 C260 665 260 665 260 665 C260 665 157 82 157 82 C146 25 124 20 83 20 C83 20 72 20 72 20 C74 20 69 0 69 0 C69 0 69 0 69 0 L69 0 Z " />
<glyph glyph-name="Lcaron" unicode="&#x13d;" horiz-adv-x="589" d="M69 0 C69 0 143 0 143 0 C143 0 199 0 199 0 C199 0 346 0 346 0 C346 0 531 0 531 0 C531 0 534 0 534 0 C534 0 535 9 535 9 C552 48 569 84 586 123 C582 124 569 125 567 125 C567 125 562 115 562 115 C531 45 504 10 350 10 C350 10 280 10 280 10 C207 10 205 29 211 69 C212 74 213 79 214 85 C214 85 214 85 214 85 C214 85 317 668 317 668 C328 725 350 730 390 730 C390 730 401 730 401 730 C401 730 404 750 405 750 C405 750 331 750 331 750 C331 750 275 750 275 750 C275 750 201 750 201 750 C200 740 198 738 198 730 C198 730 208 730 208 730 C250 730 271 725 260 665 C260 665 260 665 260 665 C260 665 157 82 157 82 C146 25 124 20 83 20 C83 20 72 20 72 20 C74 20 69 0 69 0 C69 0 69 0 69 0 L69 0 Z M489 697 C511 745 525 780 528 801 C529 807 522 809 507 809 C495 809 478 752 464 702 C464 702 431 591 431 591 C431 591 440 590 440 590 C440 590 489 697 489 697 L489 697 Z " />
<glyph glyph-name="lcaron" unicode="&#x13e;" horiz-adv-x="244" d="M168 701 C168 701 179 704 179 704 C212 713 229 713 218 647 C218 647 110 35 110 35 C108 21 92 20 62 20 C62 20 51 20 51 20 C53 20 48 0 48 0 C48 0 210 0 210 0 C211 4 213 18 214 20 C214 20 203 20 203 20 C173 20 158 21 160 35 C160 35 269 650 269 650 C285 743 286 750 286 750 C286 750 278 750 278 750 C278 750 172 721 172 721 C171 721 168 701 168 701 L168 701 Z M355 647 C377 695 391 730 394 751 C396 757 388 759 373 759 C362 759 344 702 330 652 C330 652 297 541 297 541 C297 541 306 540 306 540 C306 540 355 647 355 647 L355 647 Z " />
<glyph glyph-name="Nacute" unicode="&#x143;" horiz-adv-x="726" d="M411 813 C411 813 572 936 572 936 C626 978 653 1000 654 1005 C657 1019 648 1029 634 1029 C629 1029 603 1006 553 959 C553 959 406 820 406 820 C406 820 411 813 411 813 L411 813 Z M176 730 C176 730 203 730 203 730 C213 730 221 729 233 707 C233 707 243 688 243 688 C243 688 143 127 143 127 C123 28 100 20 60 20 C60 20 37 20 37 20 C36 10 34 8 34 0 C34 0 121 0 121 0 C121 0 138 0 138 0 C138 0 226 0 226 0 C227 4 229 18 230 20 C230 20 207 20 207 20 C163 20 143 28 163 140 C163 140 162 140 162 140 C162 140 254 667 254 667 C254 667 546 79 546 79 C546 79 585 0 585 0 C585 0 597 0 597 0 C597 0 715 649 715 649 C731 724 759 730 806 730 C806 730 817 730 817 730 C817 730 820 750 820 750 C820 750 733 750 733 750 C733 750 716 750 716 750 C716 750 629 750 629 750 C628 750 625 730 625 730 C625 730 636 730 636 730 C687 730 712 723 695 630 C695 630 695 630 695 630 C695 630 603 101 603 101 C603 101 598 110 598 110 C598 110 281 750 281 750 C281 750 268 750 268 750 C268 750 254 750 254 750 C254 750 212 750 212 750 C212 750 180 750 180 750 C180 750 177 730 176 730 L176 730 Z " />
<glyph glyph-name="Ncaron" unicode="&#x147;" horiz-adv-x="726" d="M176 730 C176 730 203 730 203 730 C213 730 221 729 233 707 C233 707 243 688 243 688 C243 688 143 127 143 127 C123 28 100 20 60 20 C60 20 37 20 37 20 C36 10 34 8 34 0 C34 0 121 0 121 0 C121 0 138 0 138 0 C138 0 226 0 226 0 C227 4 229 18 230 20 C230 20 207 20 207 20 C163 20 143 28 163 140 C163 140 162 140 162 140 C162 140 254 667 254 667 C254 667 546 79 546 79 C546 79 585 0 585 0 C585 0 597 0 597 0 C597 0 715 649 715 649 C731 724 759 730 806 730 C806 730 817 730 817 730 C817 730 820 750 820 750 C820 750 733 750 733 750 C733 750 716 750 716 750 C716 750 629 750 629 750 C628 750 625 730 625 730 C625 730 636 730 636 730 C687 730 712 723 695 630 C695 630 695 630 695 630 C695 630 603 101 603 101 C603 101 598 110 598 110 C598 110 281 750 281 750 C281 750 268 750 268 750 C268 750 254 750 254 750 C254 750 212 750 212 750 C212 750 180 750 180 750 C180 750 177 730 176 730 L176 730 Z M515 873 C515 873 687 1042 687 1042 C687 1042 693 1037 693 1037 C693 1037 526 835 526 835 C521 829 511 817 505 817 C499 817 494 829 491 835 C491 835 395 1037 395 1037 C395 1037 403 1042 403 1042 C403 1042 515 873 515 873 L515 873 Z " />
<glyph glyph-name="ncaron" unicode="&#x148;" horiz-adv-x="535" d="M338 0 C338 0 501 0 501 0 C501 2 504 12 504 20 C504 20 494 20 494 20 C464 20 449 21 451 35 C451 35 509 365 509 365 C526 461 499 510 401 510 C344 510 281 465 215 376 C215 376 213 368 213 368 C213 368 219 400 219 400 C235 493 236 500 236 500 C236 500 228 500 228 500 C228 500 120 463 120 463 C120 463 115 443 117 443 C117 443 128 447 128 447 C163 459 179 459 166 385 C166 385 166 385 166 385 C166 385 104 35 104 35 C102 21 86 20 56 20 C56 20 45 20 45 20 C47 20 42 0 42 0 C42 0 204 0 204 0 C205 4 207 18 208 20 C208 20 197 20 197 20 C167 20 152 21 154 35 C154 35 212 362 212 362 C268 436 319 473 365 473 C448 473 472 437 459 365 C459 365 401 35 401 35 C399 21 383 20 353 20 C353 20 342 20 342 20 C341 16 339 2 338 0 L338 0 Z M381 623 C381 623 553 792 553 792 C553 792 559 787 559 787 C559 787 392 585 392 585 C387 579 377 567 371 567 C365 567 360 579 357 585 C357 585 261 787 261 787 C261 787 269 792 269 792 C269 792 381 623 381 623 L381 623 Z " />
<glyph glyph-name="Omacron" unicode="&#x14c;" horiz-adv-x="805" d="M410 901 C410 901 710 901 710 901 C710 901 716 936 716 936 C716 936 416 936 416 936 C416 936 410 901 410 901 L410 901 Z M395 5 C216 5 148 129 191 375 C234 621 348 745 530 745 C721 745 796 621 753 375 C710 129 589 5 395 5 L395 5 Z M127 375 C82 119 170 -10 389 -10 C628 -10 772 119 817 375 C862 631 768 760 535 760 C309 760 172 631 127 375 L127 375 Z " />
<glyph glyph-name="omacron" unicode="&#x14d;" horiz-adv-x="609" d="M272 651 C272 651 572 651 572 651 C572 651 578 686 578 686 C578 686 278 686 278 686 C278 686 272 651 272 651 L272 651 Z M308 5 C174 5 121 87 150 250 C178 413 260 495 394 495 C529 495 582 413 553 250 C524 87 442 5 308 5 L308 5 Z M94 250 C64 77 135 -10 305 -10 C476 -10 578 77 608 250 C639 423 568 510 397 510 C226 510 125 423 94 250 L94 250 Z " />
<glyph glyph-name="Obreve" unicode="&#x14e;" horiz-adv-x="805" d="M452 995 C443 924 479 889 558 889 C637 889 685 924 701 994 C701 994 690 995 690 995 C679 948 637 924 564 924 C491 924 457 948 463 996 C463 996 452 995 452 995 L452 995 Z M395 5 C216 5 148 129 191 375 C234 621 348 745 530 745 C721 745 796 621 753 375 C710 129 589 5 395 5 L395 5 Z M127 375 C82 119 170 -10 389 -10 C628 -10 772 119 817 375 C862 631 768 760 535 760 C309 760 172 631 127 375 L127 375 Z " />
<glyph glyph-name="obreve" unicode="&#x14f;" horiz-adv-x="609" d="M314 745 C305 674 341 639 420 639 C499 639 547 674 563 744 C563 744 552 745 552 745 C541 698 499 674 426 674 C353 674 319 698 325 746 C325 746 314 745 314 745 L314 745 Z M308 5 C174 5 121 87 150 250 C178 413 260 495 394 495 C529 495 582 413 553 250 C524 87 442 5 308 5 L308 5 Z M94 250 C64 77 135 -10 305 -10 C476 -10 578 77 608 250 C639 423 568 510 397 510 C226 510 125 423 94 250 L94 250 Z " />
<glyph glyph-name="Racute" unicode="&#x154;" horiz-adv-x="676" d="M461 813 C461 813 621 936 621 936 C675 978 702 1000 704 1005 C706 1019 698 1029 683 1029 C679 1029 652 1006 602 959 C602 959 455 820 455 820 C455 820 461 813 461 813 L461 813 Z M192 730 C192 730 202 730 202 730 C244 730 265 725 254 665 C254 665 152 85 152 85 C141 25 119 20 77 20 C77 20 66 20 66 20 C68 20 63 0 63 0 C63 0 266 0 266 0 C267 4 269 18 270 20 C270 20 259 20 259 20 C218 20 197 25 208 85 C208 85 257 366 257 366 C257 366 395 366 395 366 C402 338 436 242 495 80 C527 -5 516 0 667 0 C667 0 669 11 669 11 C581 11 588 7 561 80 C502 237 466 334 453 368 C560 379 621 425 641 540 C666 680 607 750 467 750 C467 750 325 750 325 750 C325 750 195 750 195 750 C194 740 192 738 192 730 C192 730 192 730 192 730 L192 730 Z M323 739 C323 739 448 739 448 739 C558 739 603 676 582 551 C558 420 501 380 401 380 C401 380 260 380 260 380 C260 380 259 377 259 377 C259 377 310 665 310 665 C317 707 321 728 323 739 L323 739 Z " />
<glyph glyph-name="Rcaron" unicode="&#x158;" horiz-adv-x="676" d="M192 730 C192 730 202 730 202 730 C244 730 265 725 254 665 C254 665 152 85 152 85 C141 25 119 20 77 20 C77 20 66 20 66 20 C68 20 63 0 63 0 C63 0 266 0 266 0 C267 4 269 18 270 20 C270 20 259 20 259 20 C218 20 197 25 208 85 C208 85 257 366 257 366 C257 366 395 366 395 366 C402 338 436 242 495 80 C527 -5 516 0 667 0 C667 0 669 11 669 11 C581 11 588 7 561 80 C502 237 466 334 453 368 C560 379 621 425 641 540 C666 680 607 750 467 750 C467 750 325 750 325 750 C325 750 195 750 195 750 C194 740 192 738 192 730 C192 730 192 730 192 730 L192 730 Z M464 873 C464 873 637 1042 637 1042 C637 1042 642 1037 642 1037 C642 1037 475 835 475 835 C471 829 461 817 455 817 C448 817 443 829 440 835 C440 835 344 1037 344 1037 C344 1037 352 1042 352 1042 C352 1042 464 873 464 873 L464 873 Z M323 739 C323 739 448 739 448 739 C558 739 603 676 582 551 C558 420 501 380 401 380 C401 380 260 380 260 380 C260 380 259 377 259 377 C259 377 310 665 310 665 C317 707 321 728 323 739 L323 739 Z " />
<glyph glyph-name="rcaron" unicode="&#x159;" horiz-adv-x="373" d="M51 0 C51 0 214 0 214 0 C214 2 217 12 217 20 C217 20 207 20 207 20 C174 20 158 21 160 35 C160 35 219 365 219 365 C258 446 306 487 362 487 C380 487 388 475 384 452 C380 432 388 422 408 422 C428 422 439 432 443 452 C450 490 432 510 389 510 C318 510 262 470 223 391 C223 391 225 400 225 400 C241 493 242 500 242 500 C242 500 234 500 234 500 C234 500 126 463 126 463 C126 463 121 443 123 443 C123 443 134 447 134 447 C169 459 185 459 172 385 C172 385 172 385 172 385 C172 385 110 35 110 35 C108 21 93 20 66 20 C66 20 55 20 55 20 C54 16 52 2 51 0 C51 0 51 0 51 0 L51 0 Z M339 623 C339 623 511 792 511 792 C511 792 517 787 517 787 C517 787 350 585 350 585 C345 579 335 567 329 567 C323 567 318 579 315 585 C315 585 219 787 219 787 C219 787 227 792 227 792 C227 792 339 623 339 623 L339 623 Z " />
<glyph glyph-name="Sacute" unicode="&#x15a;" horiz-adv-x="545" d="M424 813 C424 813 585 936 585 936 C639 978 666 1000 667 1005 C670 1019 661 1029 646 1029 C642 1029 616 1006 566 959 C566 959 419 820 419 820 C419 820 424 813 424 813 L424 813 Z M563 575 C568 599 572 624 577 649 C576 649 581 674 590 723 C590 723 575 723 575 723 C575 723 566 702 566 702 C564 697 548 702 523 721 C523 721 523 721 523 721 C489 747 441 760 380 760 C265 760 196 699 175 577 C159 489 204 418 346 346 C463 286 501 231 490 165 C471 61 408 8 303 8 C256 8 216 17 184 36 C143 63 115 146 106 215 C106 215 91 215 91 215 C91 215 79 148 79 148 C79 148 79 148 79 148 C79 148 79 148 79 148 C79 148 76 131 76 131 C71 103 66 75 61 46 C61 46 76 46 76 46 C76 46 79 55 86 72 C88 78 109 69 147 37 C147 37 148 37 148 37 C186 6 237 -10 300 -10 C435 -10 515 54 537 181 C553 271 515 340 389 404 C255 473 211 532 222 598 C240 696 292 746 378 746 C395 746 411 745 426 743 C426 743 424 743 424 743 C426 743 428 742 430 742 C439 740 448 738 457 736 C457 736 439 740 439 740 C503 721 539 646 548 575 C548 575 563 575 563 575 L563 575 Z M439 740 C439 740 426 743 426 743 C427 742 428 742 430 742 C433 741 436 741 439 740 C439 740 439 740 439 740 L439 740 Z " />
<glyph glyph-name="Scircumflex" unicode="&#x15c;" horiz-adv-x="545" d="M563 575 C568 599 572 624 577 649 C576 649 581 674 590 723 C590 723 575 723 575 723 C575 723 566 702 566 702 C564 697 548 702 523 721 C523 721 523 721 523 721 C489 747 441 760 380 760 C265 760 196 699 175 577 C159 489 204 418 346 346 C463 286 501 231 490 165 C471 61 408 8 303 8 C256 8 216 17 184 36 C143 63 115 146 106 215 C106 215 91 215 91 215 C91 215 79 148 79 148 C79 148 79 148 79 148 C79 148 79 148 79 148 C79 148 76 131 76 131 C71 103 66 75 61 46 C61 46 76 46 76 46 C76 46 79 55 86 72 C88 78 109 69 147 37 C147 37 148 37 148 37 C186 6 237 -10 300 -10 C435 -10 515 54 537 181 C553 271 515 340 389 404 C255 473 211 532 222 598 C240 696 292 746 378 746 C395 746 411 745 426 743 C426 743 424 743 424 743 C426 743 428 742 430 742 C439 740 448 738 457 736 C457 736 439 740 439 740 C503 721 539 646 548 575 C548 575 563 575 563 575 L563 575 Z M446 977 C446 977 559 808 559 808 C559 808 566 813 566 813 C566 813 471 1015 471 1015 C468 1021 462 1033 456 1033 C450 1033 440 1021 435 1015 C435 1015 268 813 268 813 C268 813 274 808 274 808 C274 808 446 977 446 977 L446 977 Z M439 740 C439 740 426 743 426 743 C427 742 428 742 430 742 C433 741 436 741 439 740 C439 740 439 740 439 740 L439 740 Z " />
<glyph glyph-name="Scaron" unicode="&#x160;" horiz-adv-x="545" d="M563 575 C568 599 572 624 577 649 C576 649 581 674 590 723 C590 723 575 723 575 723 C575 723 566 702 566 702 C564 697 548 702 523 721 C523 721 523 721 523 721 C489 747 441 760 380 760 C265 760 196 699 175 577 C159 489 204 418 346 346 C463 286 501 231 490 165 C471 61 408 8 303 8 C256 8 216 17 184 36 C143 63 115 146 106 215 C106 215 91 215 91 215 C91 215 79 148 79 148 C79 148 79 148 79 148 C79 148 79 148 79 148 C79 148 76 131 76 131 C71 103 66 75 61 46 C61 46 76 46 76 46 C76 46 79 55 86 72 C88 78 109 69 147 37 C147 37 148 37 148 37 C186 6 237 -10 300 -10 C435 -10 515 54 537 181 C553 271 515 340 389 404 C255 473 211 532 222 598 C240 696 292 746 378 746 C395 746 411 745 426 743 C426 743 424 743 424 743 C426 743 428 742 430 742 C439 740 448 738 457 736 C457 736 439 740 439 740 C503 721 539 646 548 575 C548 575 563 575 563 575 L563 575 Z M428 873 C428 873 600 1042 600 1042 C600 1042 606 1037 606 1037 C606 1037 439 835 439 835 C434 829 424 817 418 817 C412 817 406 829 403 835 C403 835 308 1037 308 1037 C308 1037 315 1042 315 1042 C315 1042 428 873 428 873 L428 873 Z M439 740 C439 740 426 743 426 743 C427 742 428 742 430 742 C433 741 436 741 439 740 C439 740 439 740 439 740 L439 740 Z " />
<glyph glyph-name="scaron" unicode="&#x161;" horiz-adv-x="435" d="M99 146 C95 120 92 103 91 95 C91 95 90 95 90 95 C90 95 90 94 90 94 C90 92 90 91 90 91 C87 72 83 54 80 35 C80 35 100 35 100 35 C101 40 102 44 102 49 C103 38 122 21 162 5 C183 -5 209 -10 238 -10 C334 -10 391 34 407 121 C418 187 390 233 298 269 C203 306 173 349 183 406 C194 467 231 498 294 498 C297 498 301 498 304 498 C304 498 294 498 294 498 C298 498 302 498 306 498 C306 498 304 498 304 498 C384 494 416 439 405 384 C405 380 404 376 403 373 C403 373 423 373 423 373 C427 390 430 408 433 425 C433 425 433 425 433 425 C433 425 433 426 433 426 C433 430 434 435 435 439 C435 439 447 505 447 505 C447 505 427 505 427 505 C426 499 425 492 423 485 C422 480 407 482 376 494 C355 505 328 510 296 510 C209 510 159 469 145 389 C133 320 165 271 269 231 C350 200 375 161 366 107 C353 37 311 2 240 2 C226 2 212 3 200 6 C133 22 108 81 117 135 C118 139 119 143 119 146 C119 146 99 146 99 146 L99 146 Z M349 623 C349 623 521 792 521 792 C521 792 527 787 527 787 C527 787 360 585 360 585 C355 579 345 567 339 567 C333 567 328 579 325 585 C325 585 229 787 229 787 C229 787 237 792 237 792 C237 792 349 623 349 623 L349 623 Z " />
<glyph glyph-name="Tcaron" unicode="&#x164;" horiz-adv-x="775" d="M863 664 C859 685 855 706 852 726 C852 726 850 736 850 736 C850 736 852 750 852 750 C852 750 847 750 847 750 C847 750 840 789 840 789 C840 789 836 789 830 790 C830 790 820 790 820 790 C824 758 828 750 727 750 C727 750 548 750 548 750 C548 750 492 750 492 750 C492 750 312 750 312 750 C219 750 218 760 229 781 C229 781 234 790 234 790 C234 790 224 790 224 790 C217 789 214 789 214 789 C207 776 199 763 192 750 C192 750 187 750 187 750 C187 750 185 737 185 737 C172 713 159 689 146 664 C150 663 163 662 165 662 C165 662 171 673 171 673 C193 715 212 736 305 736 C305 736 490 736 490 736 C490 736 374 80 374 80 C364 24 342 20 300 20 C300 20 289 20 289 20 C289 18 289 8 286 0 C286 0 489 0 489 0 C490 4 492 18 493 20 C493 20 482 20 482 20 C440 20 419 24 430 80 C430 80 546 736 546 736 C546 736 730 736 730 736 C823 736 834 715 842 673 C842 673 844 662 844 662 C848 663 861 664 863 664 C863 664 863 664 863 664 L863 664 Z M541 873 C541 873 714 1042 714 1042 C714 1042 719 1037 719 1037 C719 1037 552 835 552 835 C548 829 538 817 532 817 C525 817 520 829 517 835 C517 835 421 1037 421 1037 C421 1037 429 1042 429 1042 C429 1042 541 873 541 873 L541 873 Z " />
<glyph glyph-name="tcaron" unicode="&#x165;" horiz-adv-x="339" d="M387 500 C387 500 233 500 233 500 C233 500 254 620 254 620 C254 620 251 620 251 620 C251 620 118 500 118 500 C118 500 116 490 116 490 C116 490 181 490 181 490 C181 490 118 129 118 129 C98 18 133 -10 210 -10 C255 -10 299 16 341 68 C341 68 336 71 336 71 C305 33 269 14 230 14 C174 14 149 35 165 118 C186 237 207 356 228 474 C228 474 382 474 382 474 C382 474 387 500 387 500 L387 500 Z M500 647 C522 695 536 730 539 751 C541 757 533 759 518 759 C507 759 489 702 475 652 C475 652 442 541 442 541 C442 541 451 540 451 540 C451 540 500 647 500 647 L500 647 Z " />
<glyph glyph-name="Utilde" unicode="&#x168;" horiz-adv-x="655" d="M342 870 C350 914 369 936 399 936 C466 936 500 871 567 871 C612 871 640 903 652 966 C652 966 643 966 643 966 C635 926 616 906 584 906 C517 906 484 971 416 971 C373 971 345 937 333 870 C333 870 342 870 342 870 L342 870 Z M559 730 C559 730 569 730 569 730 C611 730 632 725 621 665 C621 665 523 110 523 110 C523 110 504 0 504 0 C504 0 512 0 512 0 C512 0 642 55 642 55 C642 55 644 65 644 65 C575 61 570 63 579 110 C579 110 677 665 677 665 C690 744 691 750 692 750 C692 750 562 750 562 750 C561 740 559 738 559 730 L559 730 Z M157 730 C157 730 167 730 167 730 C209 730 230 725 219 665 C219 665 140 220 140 220 C114 67 148 -10 242 -10 C365 -10 462 44 530 150 C530 150 534 175 534 175 C471 76 382 26 271 26 C199 26 174 91 196 220 C196 220 275 665 275 665 C289 744 290 750 290 750 C290 750 160 750 160 750 C159 740 157 738 157 730 L157 730 Z " />
<glyph glyph-name="utilde" unicode="&#x169;" horiz-adv-x="514" d="M223 620 C231 664 250 686 280 686 C347 686 380 621 448 621 C493 621 521 653 532 716 C532 716 524 716 524 716 C516 676 497 656 465 656 C398 656 364 721 297 721 C254 721 226 687 214 620 C214 620 223 620 223 620 L223 620 Z M417 480 C417 480 427 480 427 480 C451 480 463 479 461 465 C461 465 403 137 403 137 C359 62 304 25 238 25 C171 25 144 70 160 160 C160 160 214 465 214 465 C220 498 220 500 220 500 C220 500 124 500 124 500 C124 500 120 480 120 480 C120 480 131 480 131 480 C155 480 166 479 164 465 C164 465 110 160 110 160 C90 47 123 -10 209 -10 C285 -10 349 34 400 121 C400 121 395 90 395 90 C378 -3 377 -10 377 -10 C377 -10 386 -10 386 -10 C386 -10 491 15 491 15 C491 15 494 35 495 35 C495 35 483 32 483 32 C452 24 436 26 444 90 C444 90 445 90 445 90 C445 90 511 465 511 465 C517 498 517 500 517 500 C517 500 420 500 420 500 C420 500 417 480 417 480 L417 480 Z M495 35 C495 35 495 35 495 35 C495 35 495 35 495 35 L495 35 Z " />
<glyph glyph-name="Umacron" unicode="&#x16a;" horiz-adv-x="655" d="M340 901 C340 901 640 901 640 901 C640 901 646 936 646 936 C646 936 346 936 346 936 C346 936 340 901 340 901 L340 901 Z M559 730 C559 730 569 730 569 730 C611 730 632 725 621 665 C621 665 523 110 523 110 C523 110 504 0 504 0 C504 0 512 0 512 0 C512 0 642 55 642 55 C642 55 644 65 644 65 C575 61 570 63 579 110 C579 110 677 665 677 665 C690 744 691 750 692 750 C692 750 562 750 562 750 C561 740 559 738 559 730 L559 730 Z M157 730 C157 730 167 730 167 730 C209 730 230 725 219 665 C219 665 140 220 140 220 C114 67 148 -10 242 -10 C365 -10 462 44 530 150 C530 150 534 175 534 175 C471 76 382 26 271 26 C199 26 174 91 196 220 C196 220 275 665 275 665 C289 744 290 750 290 750 C290 750 160 750 160 750 C159 740 157 738 157 730 L157 730 Z " />
<glyph glyph-name="umacron" unicode="&#x16b;" horiz-adv-x="514" d="M220 651 C220 651 520 651 520 651 C520 651 526 686 526 686 C526 686 226 686 226 686 C226 686 220 651 220 651 L220 651 Z M417 480 C417 480 427 480 427 480 C451 480 463 479 461 465 C461 465 403 137 403 137 C359 62 304 25 238 25 C171 25 144 70 160 160 C160 160 214 465 214 465 C220 498 220 500 220 500 C220 500 124 500 124 500 C124 500 120 480 120 480 C120 480 131 480 131 480 C155 480 166 479 164 465 C164 465 110 160 110 160 C90 47 123 -10 209 -10 C285 -10 349 34 400 121 C400 121 395 90 395 90 C378 -3 377 -10 377 -10 C377 -10 386 -10 386 -10 C386 -10 491 15 491 15 C491 15 494 35 495 35 C495 35 483 32 483 32 C452 24 436 26 444 90 C444 90 445 90 445 90 C445 90 511 465 511 465 C517 498 517 500 517 500 C517 500 420 500 420 500 C420 500 417 480 417 480 L417 480 Z M495 35 C495 35 495 35 495 35 C495 35 495 35 495 35 L495 35 Z " />
<glyph glyph-name="Ubreve" unicode="&#x16c;" horiz-adv-x="655" d="M382 995 C373 924 409 889 487 889 C567 889 615 924 630 994 C630 994 620 995 620 995 C609 948 567 924 493 924 C420 924 386 948 392 996 C392 996 382 995 382 995 L382 995 Z M559 730 C559 730 569 730 569 730 C611 730 632 725 621 665 C621 665 523 110 523 110 C523 110 504 0 504 0 C504 0 512 0 512 0 C512 0 642 55 642 55 C642 55 644 65 644 65 C575 61 570 63 579 110 C579 110 677 665 677 665 C690 744 691 750 692 750 C692 750 562 750 562 750 C561 740 559 738 559 730 L559 730 Z M157 730 C157 730 167 730 167 730 C209 730 230 725 219 665 C219 665 140 220 140 220 C114 67 148 -10 242 -10 C365 -10 462 44 530 150 C530 150 534 175 534 175 C471 76 382 26 271 26 C199 26 174 91 196 220 C196 220 275 665 275 665 C289 744 290 750 290 750 C290 750 160 750 160 750 C159 740 157 738 157 730 L157 730 Z " />
<glyph glyph-name="ubreve" unicode="&#x16d;" horiz-adv-x="514" d="M262 745 C253 674 289 639 368 639 C447 639 495 674 511 744 C511 744 501 745 501 745 C490 698 448 674 374 674 C301 674 267 698 273 746 C273 746 262 745 262 745 L262 745 Z M417 480 C417 480 427 480 427 480 C451 480 463 479 461 465 C461 465 403 137 403 137 C359 62 304 25 238 25 C171 25 144 70 160 160 C160 160 214 465 214 465 C220 498 220 500 220 500 C220 500 124 500 124 500 C124 500 120 480 120 480 C120 480 131 480 131 480 C155 480 166 479 164 465 C164 465 110 160 110 160 C90 47 123 -10 209 -10 C285 -10 349 34 400 121 C400 121 395 90 395 90 C378 -3 377 -10 377 -10 C377 -10 386 -10 386 -10 C386 -10 491 15 491 15 C491 15 494 35 495 35 C495 35 483 32 483 32 C452 24 436 26 444 90 C444 90 445 90 445 90 C445 90 511 465 511 465 C517 498 517 500 517 500 C517 500 420 500 420 500 C420 500 417 480 417 480 L417 480 Z M495 35 C495 35 495 35 495 35 C495 35 495 35 495 35 L495 35 Z " />
<glyph glyph-name="Uring" unicode="&#x16e;" horiz-adv-x="655" d="M475 822 C427 822 400 855 408 905 C418 960 451 988 505 988 C559 988 581 960 572 905 C563 855 524 822 475 822 L475 822 Z M394 905 C384 848 416 810 473 810 C531 810 577 848 587 905 C598 968 571 1000 507 1000 C443 1000 405 968 394 905 L394 905 Z M559 730 C559 730 569 730 569 730 C611 730 632 725 621 665 C621 665 523 110 523 110 C523 110 504 0 504 0 C504 0 512 0 512 0 C512 0 642 55 642 55 C642 55 644 65 644 65 C575 61 570 63 579 110 C579 110 677 665 677 665 C690 744 691 750 692 750 C692 750 562 750 562 750 C561 740 559 738 559 730 L559 730 Z M157 730 C157 730 167 730 167 730 C209 730 230 725 219 665 C219 665 140 220 140 220 C114 67 148 -10 242 -10 C365 -10 462 44 530 150 C530 150 534 175 534 175 C471 76 382 26 271 26 C199 26 174 91 196 220 C196 220 275 665 275 665 C289 744 290 750 290 750 C290 750 160 750 160 750 C159 740 157 738 157 730 L157 730 Z " />
<glyph glyph-name="uring" unicode="&#x16f;" horiz-adv-x="514" d="M356 572 C308 572 281 605 289 655 C299 710 331 738 386 738 C440 738 462 710 453 655 C444 605 405 572 356 572 L356 572 Z M274 655 C264 598 297 560 354 560 C412 560 457 598 467 655 C479 718 452 750 388 750 C324 750 286 718 274 655 L274 655 Z M417 480 C417 480 427 480 427 480 C451 480 463 479 461 465 C461 465 403 137 403 137 C359 62 304 25 238 25 C171 25 144 70 160 160 C160 160 214 465 214 465 C220 498 220 500 220 500 C220 500 124 500 124 500 C124 500 120 480 120 480 C120 480 131 480 131 480 C155 480 166 479 164 465 C164 465 110 160 110 160 C90 47 123 -10 209 -10 C285 -10 349 34 400 121 C400 121 395 90 395 90 C378 -3 377 -10 377 -10 C377 -10 386 -10 386 -10 C386 -10 491 15 491 15 C491 15 494 35 495 35 C495 35 483 32 483 32 C452 24 436 26 444 90 C444 90 445 90 445 90 C445 90 511 465 511 465 C517 498 517 500 517 500 C517 500 420 500 420 500 C420 500 417 480 417 480 L417 480 Z M495 35 C495 35 495 35 495 35 C495 35 495 35 495 35 L495 35 Z " />
<glyph glyph-name="Wcircumflex" unicode="&#x174;" horiz-adv-x="1021" d="M1129 750 C1129 750 1068 750 1068 750 C1068 750 1045 750 1045 750 C1045 750 929 750 929 750 C929 750 926 730 926 730 C926 730 947 730 947 730 C1002 730 1029 723 989 630 C989 630 733 82 733 82 C733 82 663 640 663 640 C663 640 663 640 663 640 C652 724 676 730 726 730 C726 730 747 730 747 730 C748 730 751 750 751 750 C751 750 649 750 649 750 C649 750 584 750 584 750 C584 750 524 750 524 750 C524 750 521 730 520 730 C520 730 544 730 544 730 C569 730 584 728 591 700 C600 633 610 567 619 500 C619 500 619 500 619 500 C619 500 357 70 357 70 C357 70 358 71 358 71 C358 71 276 631 276 631 C266 723 290 730 336 730 C336 730 357 730 357 730 C358 730 361 750 361 750 C361 750 259 750 259 750 C259 750 198 750 198 750 C198 750 158 750 158 750 C158 750 155 730 155 730 C155 730 181 730 181 730 C194 730 202 722 218 610 C218 610 218 610 218 610 C249 403 279 196 309 -10 C309 -10 324 -10 324 -10 C324 -10 623 474 623 474 C646 313 668 152 690 -10 C690 -10 705 -10 705 -10 C705 -10 1012 633 1012 633 C1057 723 1074 730 1102 730 C1102 730 1125 730 1125 730 C1126 730 1129 750 1129 750 C1129 750 1129 750 1129 750 L1129 750 Z M673 977 C673 977 785 808 785 808 C785 808 793 813 793 813 C793 813 697 1015 697 1015 C695 1021 689 1033 683 1033 C677 1033 667 1021 662 1015 C662 1015 495 813 495 813 C495 813 501 808 501 808 C501 808 673 977 673 977 L673 977 Z " />
<glyph glyph-name="Ycircumflex" unicode="&#x176;" horiz-adv-x="668" d="M331 750 C331 750 257 750 257 750 C257 750 191 750 191 750 C191 750 158 750 158 750 C158 750 154 730 154 730 C154 730 180 730 180 730 C191 730 200 724 234 649 C234 649 370 329 370 329 C370 329 370 329 370 329 C370 329 326 80 326 80 C316 24 294 20 252 20 C252 20 242 20 242 20 C241 16 239 2 238 0 C238 0 442 0 442 0 C442 0 445 20 445 20 C445 20 434 20 434 20 C393 20 372 24 382 80 C382 80 427 332 427 332 C427 332 629 610 629 610 C629 610 629 610 629 610 C710 722 728 730 751 730 C751 730 776 730 776 730 C776 730 779 750 779 750 C779 750 730 750 730 750 C730 750 702 750 702 750 C702 750 629 750 629 750 C628 750 625 730 625 730 C625 730 645 730 645 730 C670 730 681 725 647 671 C647 671 424 350 424 350 C424 350 315 610 315 610 C315 610 316 610 316 610 C268 722 279 730 308 730 C308 730 328 730 328 730 C328 730 331 750 331 750 L331 750 Z M512 977 C512 977 625 808 625 808 C625 808 632 813 632 813 C632 813 537 1015 537 1015 C534 1021 528 1033 522 1033 C516 1033 506 1021 501 1015 C501 1015 334 813 334 813 C334 813 340 808 340 808 C340 808 512 977 512 977 L512 977 Z " />
<glyph glyph-name="Ydieresis" unicode="&#x178;" horiz-adv-x="668" d="M561 865 C583 865 595 876 599 897 C603 919 594 930 573 930 C551 930 538 919 535 897 C531 876 539 865 561 865 L561 865 Z M424 865 C445 865 458 876 462 897 C465 919 456 930 435 930 C414 930 401 919 397 897 C393 876 402 865 424 865 L424 865 Z M331 750 C331 750 257 750 257 750 C257 750 191 750 191 750 C191 750 158 750 158 750 C158 750 154 730 154 730 C154 730 180 730 180 730 C191 730 200 724 234 649 C234 649 370 329 370 329 C370 329 370 329 370 329 C370 329 326 80 326 80 C316 24 294 20 252 20 C252 20 242 20 242 20 C241 16 239 2 238 0 C238 0 442 0 442 0 C442 0 445 20 445 20 C445 20 434 20 434 20 C393 20 372 24 382 80 C382 80 427 332 427 332 C427 332 629 610 629 610 C629 610 629 610 629 610 C710 722 728 730 751 730 C751 730 776 730 776 730 C776 730 779 750 779 750 C779 750 730 750 730 750 C730 750 702 750 702 750 C702 750 629 750 629 750 C628 750 625 730 625 730 C625 730 645 730 645 730 C670 730 681 725 647 671 C647 671 424 350 424 350 C424 350 315 610 315 610 C315 610 316 610 316 610 C268 722 279 730 308 730 C308 730 328 730 328 730 C328 730 331 750 331 750 L331 750 Z " />
<glyph glyph-name="Zacute" unicode="&#x179;" horiz-adv-x="642" d="M490 813 C490 813 651 936 651 936 C705 978 732 1000 733 1005 C736 1019 727 1029 712 1029 C708 1029 682 1006 632 959 C632 959 485 820 485 820 C485 820 490 813 490 813 L490 813 Z M186 616 C186 616 194 637 194 637 C221 702 244 735 367 735 C367 735 367 735 367 735 C367 735 677 738 677 738 C677 738 27 12 27 12 C27 12 25 0 25 0 C25 0 86 0 86 0 C86 0 446 0 446 0 C446 0 606 0 606 0 C624 42 642 81 658 123 C654 124 641 125 639 125 C639 125 620 94 620 94 C591 47 568 21 482 17 C482 17 97 13 97 13 C97 13 740 738 740 738 C740 738 742 750 742 750 C742 750 688 750 688 750 C688 750 372 750 372 750 C372 750 202 750 202 750 C202 750 160 618 160 618 C165 617 184 616 186 616 C186 616 186 616 186 616 L186 616 Z " />
<glyph glyph-name="Zdotaccent" unicode="&#x17b;" horiz-adv-x="642" d="M493 865 C514 865 527 876 531 897 C534 919 525 930 504 930 C483 930 470 919 466 897 C462 876 471 865 493 865 L493 865 Z M186 616 C186 616 194 637 194 637 C221 702 244 735 367 735 C367 735 367 735 367 735 C367 735 677 738 677 738 C677 738 27 12 27 12 C27 12 25 0 25 0 C25 0 86 0 86 0 C86 0 446 0 446 0 C446 0 606 0 606 0 C624 42 642 81 658 123 C654 124 641 125 639 125 C639 125 620 94 620 94 C591 47 568 21 482 17 C482 17 97 13 97 13 C97 13 740 738 740 738 C740 738 742 750 742 750 C742 750 688 750 688 750 C688 750 372 750 372 750 C372 750 202 750 202 750 C202 750 160 618 160 618 C165 617 184 616 186 616 C186 616 186 616 186 616 L186 616 Z " />
<glyph glyph-name="zdotaccent" unicode="&#x17c;" horiz-adv-x="475" d="M373 615 C395 615 407 626 411 647 C415 669 406 680 385 680 C364 680 351 669 347 647 C343 626 352 615 373 615 L373 615 Z M140 415 C140 415 152 415 152 415 C152 415 165 425 165 425 C206 460 234 479 288 484 C288 484 460 487 460 487 C460 487 42 12 42 12 C42 12 40 0 40 0 C40 0 93 0 93 0 C93 0 384 0 384 0 C384 0 430 0 430 0 C438 27 449 57 457 85 C457 85 447 85 447 85 C447 85 434 75 434 75 C390 40 361 20 299 16 C299 16 104 13 104 13 C104 13 521 488 521 488 C521 488 523 500 523 500 C523 500 472 500 472 500 C472 500 223 500 223 500 C212 500 201 506 207 519 C207 519 211 528 211 528 C211 528 191 528 191 528 C173 491 159 452 140 415 L140 415 Z " />
<glyph glyph-name="Zcaron" unicode="&#x17d;" horiz-adv-x="642" d="M186 616 C186 616 194 637 194 637 C221 702 244 735 367 735 C367 735 367 735 367 735 C367 735 677 738 677 738 C677 738 27 12 27 12 C27 12 25 0 25 0 C25 0 86 0 86 0 C86 0 446 0 446 0 C446 0 606 0 606 0 C624 42 642 81 658 123 C654 124 641 125 639 125 C639 125 620 94 620 94 C591 47 568 21 482 17 C482 17 97 13 97 13 C97 13 740 738 740 738 C740 738 742 750 742 750 C742 750 688 750 688 750 C688 750 372 750 372 750 C372 750 202 750 202 750 C202 750 160 618 160 618 C165 617 184 616 186 616 C186 616 186 616 186 616 L186 616 Z M494 873 C494 873 666 1042 666 1042 C666 1042 672 1037 672 1037 C672 1037 505 835 505 835 C500 829 490 817 484 817 C478 817 472 829 470 835 C470 835 374 1037 374 1037 C374 1037 381 1042 381 1042 C381 1042 494 873 494 873 L494 873 Z " />
<glyph glyph-name="zcaron" unicode="&#x17e;" horiz-adv-x="475" d="M140 415 C140 415 152 415 152 415 C152 415 165 425 165 425 C206 460 234 479 288 484 C288 484 460 487 460 487 C460 487 42 12 42 12 C42 12 40 0 40 0 C40 0 93 0 93 0 C93 0 384 0 384 0 C384 0 430 0 430 0 C438 27 449 57 457 85 C457 85 447 85 447 85 C447 85 434 75 434 75 C390 40 361 20 299 16 C299 16 104 13 104 13 C104 13 521 488 521 488 C521 488 523 500 523 500 C523 500 472 500 472 500 C472 500 223 500 223 500 C212 500 201 506 207 519 C207 519 211 528 211 528 C211 528 191 528 191 528 C173 491 159 452 140 415 L140 415 Z M375 623 C375 623 547 792 547 792 C547 792 553 787 553 787 C553 787 386 585 386 585 C381 579 371 567 365 567 C359 567 353 579 351 585 C351 585 255 787 255 787 C255 787 262 792 262 792 C262 792 375 623 375 623 L375 623 Z " />
<glyph glyph-name="SmallLetterOwithogon" unicode="&#x1eb;" horiz-adv-x="719" d="M936 -49 C936 -49 933 -45 933 -45 C893 -74 809 -89 683 -89 C554 -89 443 -63 353 -10 C563 -9 686 92 721 292 C757 492 671 593 466 593 C268 593 150 492 114 292 C86 130 194 33 287 1 C418 -86 546 -131 668 -131 C772 -131 862 -103 936 -49 L936 -49 Z M354 3 C346 3 336 4 327 6 C327 7 326 7 326 7 C326 7 325 7 325 7 C247 27 142 122 172 292 C205 483 302 580 461 580 C629 580 697 483 663 292 C630 100 526 3 354 3 C354 3 354 3 354 3 L354 3 Z " />
<glyph glyph-name="CapitalLetterAwithdo" unicode="&#x226;" horiz-adv-x="696" d="M523 865 C545 865 557 876 561 897 C565 919 556 930 534 930 C513 930 500 919 496 897 C492 876 501 865 523 865 L523 865 Z M467 0 C467 0 562 0 562 0 C562 0 621 0 621 0 C621 0 681 0 681 0 C682 4 684 18 685 20 C685 20 661 20 661 20 C634 20 619 27 606 115 C606 115 528 732 528 732 C528 732 523 770 523 770 C523 770 517 770 517 770 C496 746 481 733 472 732 C472 732 473 722 473 722 C473 722 473 722 473 722 C473 722 184 151 184 151 C121 29 92 20 46 20 C46 20 23 20 23 20 C23 18 23 8 20 0 C20 0 108 0 108 0 C108 0 125 0 125 0 C125 0 241 0 241 0 C241 0 244 20 244 20 C244 20 223 20 223 20 C168 20 143 29 196 143 C196 143 268 287 268 287 C268 287 527 287 527 287 C527 287 546 126 546 126 C556 27 535 20 492 20 C492 20 471 20 471 20 C470 16 468 2 467 0 L467 0 Z M275 302 C275 302 475 705 475 705 C475 705 525 302 525 302 C525 302 275 302 275 302 L275 302 Z " />
<glyph glyph-name="LETTERSMALLCAPITALG" unicode="&#x262;" horiz-adv-x="678" d="M651 417 C655 440 659 465 663 488 C663 488 664 489 664 489 C664 489 664 490 663 490 C664 491 664 492 664 493 C664 493 669 519 678 570 C678 570 663 570 663 570 C663 570 660 563 654 550 C652 545 627 552 580 573 C580 573 579 573 579 573 C549 586 508 593 445 593 C261 593 150 492 115 292 C79 91 154 -10 337 -10 C412 -10 469 -1 527 16 C527 16 560 24 560 24 C560 24 561 27 561 27 C587 37 615 48 645 61 C645 61 643 68 643 68 C614 56 588 45 562 36 C562 36 586 173 586 173 C596 229 614 233 646 233 C646 233 657 233 657 233 C657 235 660 245 660 253 C660 253 480 253 480 253 C479 249 477 235 476 233 C476 233 487 233 487 233 C527 233 546 229 536 173 C536 173 510 21 510 21 C510 21 510 21 510 21 C510 21 518 67 518 67 C513 35 479 15 419 7 C419 7 446 8 446 8 C416 4 382 2 344 2 C194 2 136 99 170 292 C203 484 297 581 448 581 C477 581 500 579 520 575 C582 560 623 493 633 432 C633 432 636 417 636 417 C636 417 651 417 651 417 L651 417 Z M419 7 C397 4 372 2 344 2 C344 2 419 7 419 7 L419 7 Z " />
<glyph glyph-name="LETTERSMALLCAPITALI" unicode="&#x26a;" horiz-adv-x="321" d="M171 563 C171 563 182 563 182 563 C224 563 245 559 234 503 C234 503 160 80 160 80 C150 24 128 20 86 20 C86 20 75 20 75 20 C75 18 75 8 72 0 C72 0 270 0 270 0 C270 0 273 20 273 20 C273 20 262 20 262 20 C221 20 200 24 210 80 C210 80 285 503 285 503 C295 559 316 563 358 563 C358 563 369 563 369 563 C369 563 374 583 372 583 C372 583 175 583 175 583 C174 579 172 565 171 563 L171 563 Z " />
<glyph glyph-name="LETTERSMALLCAPITALN" unicode="&#x274;" horiz-adv-x="648" d="M713 583 C713 583 626 583 626 583 C626 583 611 583 611 583 C611 583 524 583 524 583 C523 579 521 565 520 563 C520 563 531 563 531 563 C582 563 606 556 590 463 C590 463 590 463 590 463 C590 463 521 67 521 67 C521 67 515 78 515 78 C515 78 250 583 250 583 C250 583 238 583 238 583 C238 583 225 583 225 583 C225 583 187 583 187 583 C187 583 156 583 156 583 C156 583 151 563 153 563 C153 563 179 563 179 563 C190 563 197 562 209 543 C209 543 216 531 216 531 C216 531 144 124 144 124 C123 28 101 20 60 20 C60 20 38 20 38 20 C37 16 35 2 34 0 C34 0 122 0 122 0 C122 0 137 0 137 0 C137 0 225 0 225 0 C225 2 228 12 228 20 C228 20 206 20 206 20 C165 20 144 27 157 116 C157 116 226 513 226 513 C226 513 479 56 479 56 C479 56 509 0 509 0 C509 0 520 0 520 0 C520 0 607 481 607 481 C624 557 651 563 699 563 C699 563 710 563 710 563 C708 563 713 583 713 583 C713 583 713 583 713 583 L713 583 Z " />
<glyph glyph-name="LETTERSMALLCAPITALR" unicode="&#x280;" horiz-adv-x="579" d="M64 0 C64 0 262 0 262 0 C263 4 265 18 266 20 C266 20 255 20 255 20 C213 20 192 25 203 85 C203 85 276 498 276 498 C284 541 287 562 289 573 C289 573 362 573 362 573 C462 573 504 525 487 430 C469 328 418 296 328 296 C328 296 241 296 241 296 C241 296 238 283 238 283 C238 283 323 283 323 283 C330 261 361 187 417 62 C446 -4 436 0 570 0 C570 0 572 10 572 10 C494 10 500 7 476 62 C422 182 389 257 377 285 C472 294 526 330 541 420 C560 528 506 583 379 583 C379 583 291 583 291 583 C291 583 167 583 167 583 C167 583 162 563 164 563 C164 563 174 563 174 563 C216 563 236 558 226 498 C226 498 153 85 153 85 C142 25 120 20 79 20 C79 20 68 20 68 20 C67 16 65 2 64 0 L64 0 Z " />
<glyph glyph-name="LETTERSMALLCAPITALY" unicode="&#x28f;" horiz-adv-x="586" d="M297 583 C297 583 223 583 223 583 C223 583 164 583 164 583 C164 583 131 583 131 583 C130 579 128 565 127 563 C127 563 154 563 154 563 C166 563 175 556 216 472 C216 472 318 255 318 255 C318 255 318 255 318 255 C318 255 287 80 287 80 C277 24 255 20 214 20 C214 20 203 20 203 20 C202 10 200 8 200 0 C200 0 397 0 397 0 C398 4 400 18 401 20 C401 20 390 20 390 20 C349 20 328 24 338 80 C338 80 369 257 369 257 C369 257 369 257 369 257 C369 257 512 443 512 443 C512 443 512 443 512 443 C597 555 615 563 639 563 C639 563 663 563 663 563 C664 567 666 581 667 583 C667 583 619 583 619 583 C619 583 594 583 594 583 C594 583 520 583 520 583 C519 579 517 565 516 563 C516 563 536 563 536 563 C562 563 573 558 534 501 C534 501 500 454 500 454 C500 454 499 453 499 453 C499 453 499 453 499 453 C499 453 367 272 367 272 C367 272 288 443 288 443 C288 443 288 443 288 443 C235 555 246 563 274 563 C274 563 293 563 293 563 C294 567 296 581 297 583 L297 583 Z " />
<glyph glyph-name="LETTERSMALLCAPITALB" unicode="&#x299;" horiz-adv-x="516" d="M64 0 C64 0 188 0 188 0 C188 0 188 2 191 16 C191 16 188 0 188 0 C188 0 308 0 308 0 C420 0 479 16 503 152 C519 243 489 294 413 303 C484 320 527 367 540 443 C557 536 543 583 351 583 C351 583 291 583 291 583 C291 583 167 583 167 583 C167 583 162 563 164 563 C164 563 174 563 174 563 C216 563 236 558 226 498 C226 498 153 85 153 85 C142 25 120 20 79 20 C79 20 68 20 68 20 C67 16 65 2 64 0 L64 0 Z M289 573 C289 573 329 573 329 573 C494 573 505 528 490 437 C474 349 423 304 340 304 C340 304 242 304 242 304 C242 304 241 298 241 298 C241 298 276 498 276 498 C284 541 287 562 289 573 L289 573 Z M343 295 C343 295 353 295 353 295 C433 295 465 247 448 152 C425 25 381 10 297 10 C297 10 247 10 247 10 C210 10 195 31 201 75 C202 78 202 81 203 85 C203 85 240 295 240 295 C240 295 343 295 343 295 L343 295 Z " />
<glyph glyph-name="LETTERSMALLCAPITALH" unicode="&#x29c;" horiz-adv-x="702" d="M753 583 C753 583 555 583 555 583 C555 583 550 563 552 563 C552 563 562 563 562 563 C604 563 625 559 615 503 C615 503 580 305 580 305 C580 305 278 305 278 305 C278 305 313 503 313 503 C323 559 345 563 387 563 C387 563 397 563 397 563 C398 567 400 581 401 583 C401 583 203 583 203 583 C203 583 198 563 200 563 C200 563 210 563 210 563 C252 563 273 559 263 503 C263 503 188 80 188 80 C178 24 156 20 115 20 C115 20 104 20 104 20 C103 16 101 2 100 0 C100 0 298 0 298 0 C299 4 301 18 302 20 C302 20 291 20 291 20 C249 20 228 24 238 80 C238 80 275 291 275 291 C275 291 577 291 577 291 C577 291 540 80 540 80 C530 24 508 20 467 20 C467 20 456 20 456 20 C455 16 453 2 452 0 C452 0 650 0 650 0 C651 4 653 18 654 20 C654 20 643 20 643 20 C601 20 580 24 591 80 C591 80 665 503 665 503 C675 559 697 563 739 563 C739 563 750 563 750 563 C748 563 753 583 753 583 L753 583 Z " />
<glyph glyph-name="LETTERSMALLCAPITALL" unicode="&#x29f;" horiz-adv-x="511" d="M72 0 C72 0 146 0 146 0 C146 0 196 0 196 0 C196 0 269 0 269 0 C269 0 454 0 454 0 C454 0 456 0 456 0 C456 0 457 6 457 6 C474 45 491 84 508 122 C504 123 491 124 489 124 C489 124 484 114 484 114 C453 44 426 9 275 9 C205 9 202 29 208 68 C208 68 284 498 284 498 C284 498 284 498 284 498 C294 558 316 563 358 563 C358 563 369 563 369 563 C369 563 374 583 372 583 C372 583 299 583 299 583 C299 583 248 583 248 583 C248 583 175 583 175 583 C174 579 172 565 171 563 C171 563 182 563 182 563 C224 563 244 558 233 498 C233 498 233 498 233 498 C233 498 160 79 160 79 C148 25 127 20 86 20 C86 20 75 20 75 20 C75 18 75 8 72 0 C72 0 72 0 72 0 L72 0 Z " />
<glyph glyph-name="LETTERSMALLCAPITALA" unicode="&#x1d00;" horiz-adv-x="621" d="M398 0 C398 0 493 0 493 0 C493 0 546 0 546 0 C546 0 606 0 606 0 C606 0 609 20 609 20 C609 20 585 20 585 20 C560 20 545 26 529 108 C529 108 458 571 458 571 C458 571 453 603 453 603 C453 603 447 603 447 603 C430 583 416 572 407 571 C407 571 409 560 409 560 C409 560 199 170 199 170 C199 170 199 170 199 170 C126 30 96 20 47 20 C47 20 24 20 24 20 C24 18 24 8 21 0 C21 0 108 0 108 0 C108 0 124 0 124 0 C124 0 239 0 239 0 C240 4 242 18 243 20 C243 20 222 20 222 20 C167 20 143 29 198 141 C198 141 241 222 241 222 C241 222 460 222 460 222 C460 222 473 133 473 133 C487 28 466 20 422 20 C422 20 401 20 401 20 C401 18 401 8 398 0 L398 0 Z M248 235 C248 235 411 545 411 545 C411 545 458 235 458 235 C458 235 248 235 248 235 L248 235 Z " />
<glyph glyph-name="LETTERSMALLCAPITALC" unicode="&#x1d04;" horiz-adv-x="623" d="M651 417 C655 440 659 465 663 488 C663 488 664 489 664 489 C664 489 664 490 663 490 C664 491 664 492 664 493 C664 493 669 519 678 570 C678 570 663 570 663 570 C663 570 660 563 654 550 C652 545 627 552 580 573 C580 573 579 573 579 573 C549 586 508 593 445 593 C261 593 150 492 115 292 C79 91 151 -10 330 -10 C394 -10 440 -2 478 13 C488 15 526 23 563 31 C568 32 570 25 567 10 C567 10 579 10 579 10 C583 36 588 62 593 88 C593 88 593 90 594 94 C594 94 594 94 594 94 C594 94 594 94 594 94 C596 104 600 128 607 166 C607 166 592 166 592 166 C591 166 589 161 584 152 C556 97 502 36 446 16 C416 7 380 2 336 2 C192 2 136 99 170 292 C203 484 297 581 448 581 C477 581 500 579 520 575 C582 560 623 493 633 432 C633 432 636 417 636 417 C636 417 651 417 651 417 L651 417 Z " />
<glyph glyph-name="LETTERSMALLCAPITALD" unicode="&#x1d05;" horiz-adv-x="707" d="M64 0 C64 0 138 0 138 0 C138 0 188 0 188 0 C188 0 244 0 244 0 C515 0 666 79 704 292 C738 485 653 583 375 583 C375 583 291 583 291 583 C291 583 241 583 241 583 C241 583 167 583 167 583 C167 583 162 563 164 563 C164 563 174 563 174 563 C216 563 236 558 226 499 C226 499 153 85 153 85 C153 85 153 85 153 85 C142 25 120 20 79 20 C79 20 68 20 68 20 C67 16 65 2 64 0 L64 0 Z M289 573 C289 573 333 573 333 573 C600 573 681 479 648 292 C612 86 475 10 231 10 C194 10 194 28 200 66 C200 66 276 498 276 498 C276 498 276 498 276 498 C284 541 287 562 289 573 C289 573 289 573 289 573 L289 573 Z " />
<glyph glyph-name="LETTERSMALLCAPITALE" unicode="&#x1d07;" horiz-adv-x="526" d="M511 485 C511 485 531 485 531 485 C533 516 537 552 541 583 C541 583 421 583 421 583 C421 583 291 583 291 583 C291 583 241 583 241 583 C241 583 167 583 167 583 C167 583 162 563 164 563 C164 563 174 563 174 563 C216 563 236 558 226 499 C226 499 153 85 153 85 C153 85 153 85 153 85 C142 25 120 20 79 20 C79 20 68 20 68 20 C67 16 65 2 64 0 C64 0 138 0 138 0 C138 0 188 0 188 0 C188 0 194 32 194 32 C194 32 190 11 190 11 C190 11 188 0 188 0 C188 0 343 0 343 0 C343 0 463 0 463 0 C473 34 483 66 495 99 C495 99 475 99 475 99 C475 99 471 88 471 88 C455 37 440 11 347 11 C347 11 270 11 270 11 C198 11 194 29 200 66 C200 66 276 498 276 498 C276 498 276 498 276 498 C284 541 287 562 289 573 C289 573 420 573 420 573 C535 573 517 543 511 485 L511 485 Z M241 299 C241 299 311 299 311 299 C404 299 406 270 396 212 C396 212 394 201 394 201 C394 201 414 201 414 201 C420 234 425 267 431 299 C431 299 431 299 431 299 C431 299 433 311 433 311 C433 311 433 311 433 311 C438 344 444 377 451 410 C451 410 431 410 431 410 C431 410 429 399 429 399 C418 341 406 311 313 311 C313 311 243 311 243 311 C243 311 241 299 241 299 L241 299 Z " />
<glyph glyph-name="LETTERSMALLCAPITALJ" unicode="&#x1d0a;" horiz-adv-x="321" d="M171 563 C171 563 182 563 182 563 C224 563 245 559 234 503 C234 503 141 -26 141 -26 C112 -190 57 -202 11 -202 C-17 -202 7 -160 -21 -160 C-37 -160 -47 -168 -50 -184 C-54 -208 -39 -220 -5 -220 C71 -220 161 -200 208 70 C208 70 285 503 285 503 C295 559 316 563 358 563 C358 563 369 563 369 563 C369 563 374 583 372 583 C372 583 175 583 175 583 C174 579 172 565 171 563 L171 563 Z " />
<glyph glyph-name="LETTERSMALLCAPITALK" unicode="&#x1d0b;" horiz-adv-x="589" d="M569 20 C569 20 541 20 541 20 C522 20 491 47 464 82 C464 82 284 324 284 324 C284 324 478 511 478 511 C530 559 549 563 574 563 C574 563 598 563 598 563 C596 563 601 583 601 583 C601 583 552 583 552 583 C552 583 533 583 533 583 C533 583 435 583 435 583 C434 579 432 565 431 563 C431 563 450 563 450 563 C492 563 505 555 392 443 C392 443 392 443 392 443 C392 443 240 292 240 292 C240 292 398 85 398 85 C398 85 398 85 398 85 C402 80 405 75 409 71 C409 71 463 0 463 0 C463 0 463 0 463 0 C463 0 463 0 463 0 C463 0 463 0 463 0 C463 0 524 0 524 0 C524 0 565 0 565 0 C566 4 568 18 569 20 C569 20 569 20 569 20 L569 20 Z M365 583 C365 583 291 583 291 583 C291 583 241 583 241 583 C241 583 167 583 167 583 C167 583 162 563 164 563 C164 563 174 563 174 563 C216 563 237 560 230 523 C230 523 230 523 230 523 C230 523 147 53 147 53 C139 23 117 20 79 20 C79 20 68 20 68 20 C67 16 65 2 64 0 C64 0 138 0 138 0 C138 0 188 0 188 0 C188 0 262 0 262 0 C263 4 265 18 266 20 C266 20 255 20 255 20 C213 20 192 23 199 60 C199 60 199 60 199 60 C199 60 280 523 280 523 C280 523 281 523 281 523 C287 560 309 563 351 563 C351 563 361 563 361 563 C362 567 364 581 365 583 C365 583 365 583 365 583 L365 583 Z " />
<glyph glyph-name="LETTERSMALLCAPITALM" unicode="&#x1d0d;" horiz-adv-x="741" d="M818 583 C818 583 744 583 744 583 C744 583 714 583 714 583 C714 583 696 583 696 583 C696 583 411 68 411 68 C411 68 279 583 279 583 C279 583 253 583 253 583 C253 583 240 583 240 583 C240 583 219 583 219 583 C219 583 154 583 154 583 C154 583 149 563 151 563 C151 563 174 563 174 563 C199 563 215 560 229 533 C229 533 145 138 145 138 C120 28 98 20 55 20 C55 20 33 20 33 20 C32 16 30 2 29 0 C29 0 116 0 116 0 C116 0 134 0 134 0 C134 0 222 0 222 0 C222 0 225 20 225 20 C225 20 203 20 203 20 C164 20 143 26 155 105 C155 105 238 510 238 510 C283 340 328 170 373 0 C373 0 386 0 386 0 C386 0 690 540 690 540 C690 540 625 85 625 85 C625 85 625 85 625 85 C616 25 594 20 550 20 C550 20 539 20 539 20 C541 20 536 0 536 0 C536 0 613 0 613 0 C613 0 663 0 663 0 C663 0 733 0 733 0 C734 4 736 18 737 20 C737 20 726 20 726 20 C686 20 666 25 675 85 C675 85 675 85 675 85 C675 85 724 442 724 442 C743 554 760 563 791 563 C791 563 814 563 814 563 C815 567 817 581 818 583 C818 583 818 583 818 583 L818 583 Z " />
<glyph glyph-name="LETTERSMALLCAPITALO" unicode="&#x1d0f;" horiz-adv-x="724" d="M354 3 C199 3 138 100 172 292 C205 483 302 580 461 580 C629 580 697 483 663 292 C630 100 526 3 354 3 L354 3 Z M114 292 C79 91 158 -10 349 -10 C561 -10 686 91 721 292 C757 492 671 593 466 593 C268 593 150 492 114 292 L114 292 Z " />
<glyph glyph-name="LETTERSMALLCAPITALP" unicode="&#x1d18;" horiz-adv-x="453" d="M176 563 C176 563 187 563 187 563 C229 563 249 558 239 499 C239 499 166 85 166 85 C166 85 166 85 166 85 C155 25 133 20 91 20 C91 20 80 20 80 20 C80 18 80 8 77 0 C77 0 151 0 151 0 C151 0 201 0 201 0 C201 0 275 0 275 0 C275 2 278 12 278 20 C278 20 268 20 268 20 C227 20 206 25 215 80 C215 80 249 273 249 273 C249 273 284 273 284 273 C415 273 487 308 507 420 C526 528 481 583 374 583 C374 583 304 583 304 583 C304 583 254 583 254 583 C254 583 180 583 180 583 C179 579 177 565 176 563 L176 563 Z M303 575 C303 575 360 575 360 575 C444 575 479 526 462 429 C442 318 386 284 286 284 C286 284 251 284 251 284 C251 284 289 498 289 498 C289 498 289 498 289 498 C297 544 301 565 303 575 L303 575 Z " />
<glyph glyph-name="LETTERSMALLCAPITALT" unicode="&#x1d1b;" horiz-adv-x="715" d="M731 623 C735 591 739 583 638 583 C638 583 486 583 486 583 C486 583 435 583 435 583 C435 583 282 583 282 583 C189 583 188 593 199 614 C199 614 204 623 204 623 C204 623 184 623 184 623 C177 610 170 596 163 583 C163 583 158 583 158 583 C158 583 156 571 156 571 C156 571 156 571 156 571 C143 547 130 523 117 498 C117 498 126 498 126 498 C133 497 136 497 136 497 C136 497 142 508 142 508 C164 550 183 571 276 571 C276 571 433 571 433 571 C433 571 346 80 346 80 C336 24 314 20 273 20 C273 20 262 20 262 20 C261 10 259 8 259 0 C259 0 456 0 456 0 C457 4 459 18 460 20 C460 20 449 20 449 20 C408 20 387 24 397 80 C397 80 484 571 484 571 C484 571 641 571 641 571 C734 571 745 550 752 508 C752 508 754 497 754 497 C754 497 758 497 764 498 C764 498 774 498 774 498 C770 519 766 540 763 560 C763 560 761 571 761 571 C761 571 761 571 761 571 C761 571 763 583 763 583 C763 583 759 583 759 583 C759 583 751 623 751 623 C751 623 731 623 731 623 L731 623 Z " />
<glyph glyph-name="LETTERSMALLCAPITALU" unicode="&#x1d1c;" horiz-adv-x="571" d="M451 563 C451 563 462 563 462 563 C504 563 524 558 514 498 C514 498 453 154 453 154 C453 154 453 155 453 155 C396 67 320 22 225 22 C180 22 168 82 189 202 C189 202 241 498 241 498 C255 577 256 583 256 583 C256 583 132 583 132 583 C132 583 127 563 129 563 C129 563 139 563 139 563 C181 563 201 558 191 498 C191 498 139 202 139 202 C114 61 134 -10 199 -10 C305 -10 389 38 449 132 C449 132 445 110 445 110 C445 110 426 0 426 0 C426 0 434 0 434 0 C434 0 559 55 559 55 C559 55 561 65 561 65 C492 61 487 63 496 110 C496 110 564 498 564 498 C578 577 579 583 579 583 C579 583 455 583 455 583 C454 579 452 565 451 563 L451 563 Z " />
<glyph glyph-name="LETTERSMALLCAPITALV" unicode="&#x1d20;" horiz-adv-x="634" d="M343 583 C343 583 227 583 227 583 C227 583 169 583 169 583 C169 583 131 583 131 583 C131 583 126 563 128 563 C128 563 154 563 154 563 C165 563 172 561 179 535 C179 535 276 76 276 76 C276 76 294 -10 294 -10 C294 -10 305 -10 305 -10 C305 -10 596 487 596 487 C639 557 658 563 683 563 C683 563 707 563 707 563 C708 567 710 581 711 583 C711 583 652 583 652 583 C652 583 632 583 632 583 C632 583 516 583 516 583 C515 579 513 565 512 563 C512 563 533 563 533 563 C591 563 616 555 552 443 C552 443 552 443 552 443 C552 443 294 -10 294 -10 C294 -10 343 76 343 76 C343 76 259 445 259 445 C235 555 262 563 319 563 C319 563 339 563 339 563 C340 567 342 581 343 583 C343 583 343 583 343 583 L343 583 Z " />
<glyph glyph-name="LETTERSMALLCAPITALW" unicode="&#x1d21;" horiz-adv-x="895" d="M973 583 C973 583 913 583 913 583 C913 583 892 583 892 583 C892 583 776 583 776 583 C775 579 773 565 772 563 C772 563 793 563 793 563 C850 563 876 556 828 454 C828 454 637 74 637 74 C637 74 573 473 573 473 C573 473 573 473 573 473 C558 557 583 563 633 563 C633 563 653 563 653 563 C654 567 656 581 657 583 C657 583 555 583 555 583 C555 583 497 583 497 583 C497 583 437 583 437 583 C436 579 434 565 433 563 C433 563 457 563 457 563 C485 563 500 560 506 528 C514 482 521 435 529 389 C529 389 322 63 322 63 C322 63 322 64 322 64 C322 64 249 454 249 454 C233 556 256 563 303 563 C303 563 323 563 323 563 C324 567 326 581 327 583 C327 583 225 583 225 583 C225 583 170 583 170 583 C170 583 131 583 131 583 C131 583 126 563 128 563 C128 563 154 563 154 563 C166 563 174 556 190 471 C218 311 247 150 275 -10 C275 -10 288 -10 288 -10 C288 -10 532 368 532 368 C553 242 574 116 595 -10 C595 -10 608 -10 608 -10 C608 -10 841 443 841 443 C841 443 841 443 841 443 C841 443 841 443 841 443 C841 443 863 486 863 486 C902 557 919 563 945 563 C945 563 969 563 969 563 C970 567 972 581 973 583 C973 583 973 583 973 583 L973 583 Z " />
<glyph glyph-name="LETTERSMALLCAPITALZ" unicode="&#x1d22;" horiz-adv-x="582" d="M578 123 C578 123 559 92 559 92 C530 45 508 20 423 15 C423 15 92 12 92 12 C92 12 651 573 651 573 C651 573 653 583 653 583 C653 583 604 583 604 583 C604 583 343 583 343 583 C343 583 173 583 173 583 C159 541 146 497 132 453 C137 452 155 451 157 451 C157 451 166 472 166 472 C192 537 215 570 339 570 C339 570 339 570 339 570 C339 570 593 573 593 573 C593 573 27 11 27 11 C27 11 25 0 25 0 C25 0 80 0 80 0 C80 0 386 0 386 0 C386 0 546 0 546 0 C562 40 581 81 597 121 C597 121 578 123 578 123 L578 123 Z " />
<glyph glyph-name="Wgrave" unicode="&#x1e80;" horiz-adv-x="1021" d="M1129 750 C1129 750 1068 750 1068 750 C1068 750 1045 750 1045 750 C1045 750 929 750 929 750 C929 750 926 730 926 730 C926 730 947 730 947 730 C1002 730 1029 723 989 630 C989 630 733 82 733 82 C733 82 663 640 663 640 C663 640 663 640 663 640 C652 724 676 730 726 730 C726 730 747 730 747 730 C748 730 751 750 751 750 C751 750 649 750 649 750 C649 750 584 750 584 750 C584 750 524 750 524 750 C524 750 521 730 520 730 C520 730 544 730 544 730 C569 730 584 728 591 700 C600 633 610 567 619 500 C619 500 619 500 619 500 C619 500 357 70 357 70 C357 70 358 71 358 71 C358 71 276 631 276 631 C266 723 290 730 336 730 C336 730 357 730 357 730 C358 730 361 750 361 750 C361 750 259 750 259 750 C259 750 198 750 198 750 C198 750 158 750 158 750 C158 750 155 730 155 730 C155 730 181 730 181 730 C194 730 202 722 218 610 C218 610 218 610 218 610 C249 403 279 196 309 -10 C309 -10 324 -10 324 -10 C324 -10 623 474 623 474 C646 313 668 152 690 -10 C690 -10 705 -10 705 -10 C705 -10 1012 633 1012 633 C1057 723 1074 730 1102 730 C1102 730 1125 730 1125 730 C1126 730 1129 750 1129 750 C1129 750 1129 750 1129 750 L1129 750 Z M557 959 C525 1006 507 1029 501 1029 C486 1029 475 1019 472 1005 C471 999 491 977 530 936 C530 936 648 813 648 813 C648 813 655 820 655 820 C655 820 557 959 557 959 L557 959 Z " />
<glyph glyph-name="Wacute" unicode="&#x1e82;" horiz-adv-x="1021" d="M651 813 C651 813 811 936 811 936 C866 978 893 1000 894 1005 C897 1019 888 1029 873 1029 C869 1029 843 1006 793 959 C793 959 645 820 645 820 C645 820 651 813 651 813 L651 813 Z M1129 750 C1129 750 1068 750 1068 750 C1068 750 1045 750 1045 750 C1045 750 929 750 929 750 C929 750 926 730 926 730 C926 730 947 730 947 730 C1002 730 1029 723 989 630 C989 630 733 82 733 82 C733 82 663 640 663 640 C663 640 663 640 663 640 C652 724 676 730 726 730 C726 730 747 730 747 730 C748 730 751 750 751 750 C751 750 649 750 649 750 C649 750 584 750 584 750 C584 750 524 750 524 750 C524 750 521 730 520 730 C520 730 544 730 544 730 C569 730 584 728 591 700 C600 633 610 567 619 500 C619 500 619 500 619 500 C619 500 357 70 357 70 C357 70 358 71 358 71 C358 71 276 631 276 631 C266 723 290 730 336 730 C336 730 357 730 357 730 C358 730 361 750 361 750 C361 750 259 750 259 750 C259 750 198 750 198 750 C198 750 158 750 158 750 C158 750 155 730 155 730 C155 730 181 730 181 730 C194 730 202 722 218 610 C218 610 218 610 218 610 C249 403 279 196 309 -10 C309 -10 324 -10 324 -10 C324 -10 623 474 623 474 C646 313 668 152 690 -10 C690 -10 705 -10 705 -10 C705 -10 1012 633 1012 633 C1057 723 1074 730 1102 730 C1102 730 1125 730 1125 730 C1126 730 1129 750 1129 750 C1129 750 1129 750 1129 750 L1129 750 Z " />
<glyph glyph-name="Wdieresis" unicode="&#x1e84;" horiz-adv-x="1021" d="M722 865 C744 865 756 876 760 897 C764 919 755 930 733 930 C712 930 699 919 695 897 C691 876 700 865 722 865 L722 865 Z M584 865 C606 865 618 876 622 897 C626 919 617 930 596 930 C574 930 561 919 558 897 C554 876 563 865 584 865 L584 865 Z M1129 750 C1129 750 1068 750 1068 750 C1068 750 1045 750 1045 750 C1045 750 929 750 929 750 C929 750 926 730 926 730 C926 730 947 730 947 730 C1002 730 1029 723 989 630 C989 630 733 82 733 82 C733 82 663 640 663 640 C663 640 663 640 663 640 C652 724 676 730 726 730 C726 730 747 730 747 730 C748 730 751 750 751 750 C751 750 649 750 649 750 C649 750 584 750 584 750 C584 750 524 750 524 750 C524 750 521 730 520 730 C520 730 544 730 544 730 C569 730 584 728 591 700 C600 633 610 567 619 500 C619 500 619 500 619 500 C619 500 357 70 357 70 C357 70 358 71 358 71 C358 71 276 631 276 631 C266 723 290 730 336 730 C336 730 357 730 357 730 C358 730 361 750 361 750 C361 750 259 750 259 750 C259 750 198 750 198 750 C198 750 158 750 158 750 C158 750 155 730 155 730 C155 730 181 730 181 730 C194 730 202 722 218 610 C218 610 218 610 218 610 C249 403 279 196 309 -10 C309 -10 324 -10 324 -10 C324 -10 623 474 623 474 C646 313 668 152 690 -10 C690 -10 705 -10 705 -10 C705 -10 1012 633 1012 633 C1057 723 1074 730 1102 730 C1102 730 1125 730 1125 730 C1126 730 1129 750 1129 750 C1129 750 1129 750 1129 750 L1129 750 Z " />
<glyph glyph-name="CapitalLetterEWITHTI" unicode="&#x1ebc;" horiz-adv-x="590" d="M331 870 C339 914 358 936 388 936 C455 936 489 871 556 871 C601 871 629 903 641 966 C641 966 632 966 632 966 C624 926 605 906 573 906 C506 906 473 971 406 971 C362 971 334 937 322 870 C322 870 331 870 331 870 L331 870 Z M604 650 C604 650 624 650 624 650 C628 683 631 716 635 750 C635 750 515 750 515 750 C515 750 325 750 325 750 C325 750 269 750 269 750 C269 750 195 750 195 750 C194 740 192 738 192 730 C192 730 202 730 202 730 C244 730 265 725 254 665 C254 665 254 665 254 665 C254 665 151 82 151 82 C140 25 118 20 77 20 C77 20 66 20 66 20 C68 20 63 0 63 0 C63 0 137 0 137 0 C137 0 193 0 193 0 C193 0 408 0 408 0 C408 0 528 0 528 0 C538 34 549 67 559 100 C559 100 539 100 539 100 C539 100 536 89 536 89 C520 38 505 12 411 12 C411 12 275 12 275 12 C204 12 199 30 205 65 C206 71 207 78 208 85 C208 85 208 85 208 85 C208 85 261 385 261 385 C261 385 390 385 390 385 C490 385 486 350 473 287 C473 287 493 287 493 287 C507 356 518 426 530 497 C530 497 510 497 510 497 C510 497 508 486 508 486 C498 428 486 398 393 398 C393 398 263 398 263 398 C263 398 317 703 317 703 C324 746 325 750 325 750 C325 750 323 738 323 738 C323 738 514 738 514 738 C631 738 611 710 604 650 C604 650 604 650 604 650 L604 650 Z " />
<glyph glyph-name="Ygrave" unicode="&#x1ef2;" horiz-adv-x="668" d="M331 750 C331 750 257 750 257 750 C257 750 191 750 191 750 C191 750 158 750 158 750 C158 750 154 730 154 730 C154 730 180 730 180 730 C191 730 200 724 234 649 C234 649 370 329 370 329 C370 329 370 329 370 329 C370 329 326 80 326 80 C316 24 294 20 252 20 C252 20 242 20 242 20 C241 16 239 2 238 0 C238 0 442 0 442 0 C442 0 445 20 445 20 C445 20 434 20 434 20 C393 20 372 24 382 80 C382 80 427 332 427 332 C427 332 629 610 629 610 C629 610 629 610 629 610 C710 722 728 730 751 730 C751 730 776 730 776 730 C776 730 779 750 779 750 C779 750 730 750 730 750 C730 750 702 750 702 750 C702 750 629 750 629 750 C628 750 625 730 625 730 C625 730 645 730 645 730 C670 730 681 725 647 671 C647 671 424 350 424 350 C424 350 315 610 315 610 C315 610 316 610 316 610 C268 722 279 730 308 730 C308 730 328 730 328 730 C328 730 331 750 331 750 L331 750 Z M396 959 C364 1006 346 1029 340 1029 C325 1029 314 1019 311 1005 C310 999 330 977 369 936 C369 936 487 813 487 813 C487 813 494 820 494 820 C494 820 396 959 396 959 L396 959 Z " />
<glyph glyph-name="quoteleft" unicode="&#x2018;" horiz-adv-x="508" d="" />
<glyph glyph-name="quoteright" unicode="&#x2019;" horiz-adv-x="48" d="" />
<glyph glyph-name="quotedblleft" unicode="&#x201c;" horiz-adv-x="508" d="M264 640 C258 640 253 638 249 634 C249 635 249 635 249 636 C257 681 282 718 323 749 C323 749 315 760 315 760 C270 727 242 682 232 627 C228 604 236 593 256 593 C272 593 281 601 283 616 C286 632 280 640 264 640 L264 640 Z " />
<glyph glyph-name="quotedblright" unicode="&#x201d;" horiz-adv-x="508" d="M293 720 C282 661 264 622 238 604 C238 604 247 593 247 593 C276 614 297 661 309 731 C313 750 305 760 285 760 C270 760 260 752 257 736 C255 721 261 713 277 713 C283 713 289 715 293 720 C293 720 293 720 293 720 L293 720 Z " />
<glyph glyph-name="Euro" unicode="&#x20ac;" horiz-adv-x="753" d="M805 555 C809 580 814 606 819 632 C819 632 823 658 832 709 C832 709 817 709 817 709 C817 709 814 702 809 689 C807 684 783 692 741 720 C704 746 654 760 566 760 C371 760 245 651 191 436 C191 436 137 436 137 436 C137 436 126 400 126 400 C126 400 183 400 183 400 C181 392 179 383 178 375 C177 367 175 358 174 350 C174 350 117 350 117 350 C117 350 105 314 105 314 C105 314 169 314 169 314 C147 99 231 -10 420 -10 C501 -10 559 3 608 28 C608 28 609 28 609 28 C609 28 697 58 697 58 C703 60 704 53 702 38 C702 38 714 38 714 38 C718 64 723 90 728 116 C728 116 728 118 729 121 C729 121 729 121 729 121 C729 121 729 121 729 121 C730 131 735 156 742 195 C742 195 727 195 727 195 C726 195 724 190 719 180 C693 128 640 65 584 35 C541 14 492 3 427 3 C273 3 208 107 230 314 C230 314 537 314 537 314 C537 314 549 350 549 350 C549 350 235 350 235 350 C236 358 238 367 239 375 C241 383 242 392 244 400 C244 400 557 400 557 400 C557 400 569 436 569 436 C569 436 252 436 252 436 C302 642 408 746 569 746 C618 746 653 740 682 729 C744 703 780 625 790 555 C790 555 805 555 805 555 L805 555 Z " />
<glyph glyph-name="LETTERSMALLCAPITALF" unicode="&#xa730;" horiz-adv-x="501" d="M533 489 C535 519 539 553 541 583 C541 583 421 583 421 583 C421 583 291 583 291 583 C291 583 241 583 241 583 C241 583 167 583 167 583 C167 583 162 563 164 563 C164 563 174 563 174 563 C216 563 236 558 226 499 C226 499 153 85 153 85 C153 85 153 85 153 85 C142 25 120 20 79 20 C79 20 68 20 68 20 C67 16 65 2 64 0 C64 0 138 0 138 0 C138 0 188 0 188 0 C188 0 262 0 262 0 C263 4 265 18 266 20 C266 20 255 20 255 20 C214 20 193 25 202 80 C202 80 276 498 276 498 C276 498 276 498 276 498 C290 577 291 583 291 583 C291 583 290 575 290 575 C290 575 340 575 340 575 C508 575 518 549 514 498 C514 498 513 487 513 487 C531 489 529 489 533 489 L533 489 Z M403 198 C409 228 414 258 419 287 C419 287 419 287 419 287 C419 287 421 299 421 299 C421 299 421 299 421 299 C426 329 431 359 437 389 C437 389 425 389 425 389 C425 389 415 357 415 357 C404 319 391 299 301 299 C301 299 241 299 241 299 C241 299 239 287 239 287 C239 287 374 287 374 287 C393 276 394 257 393 230 C393 230 391 198 391 198 C391 198 403 198 403 198 L403 198 Z " />
<glyph glyph-name="LETTERSMALLCAPITALS" unicode="&#xa731;" horiz-adv-x="484" d="M477 433 C481 455 485 477 489 499 C489 499 489 499 489 499 C489 499 489 499 489 500 C489 502 490 505 490 507 C490 507 495 532 503 580 C503 580 488 580 488 580 C488 580 485 573 480 560 C477 554 463 556 438 568 C410 585 372 593 325 593 C228 593 170 545 153 450 C142 383 180 327 299 266 C401 214 434 171 426 125 C412 46 359 6 269 6 C237 6 210 10 186 18 C144 38 113 106 103 167 C101 176 100 181 100 181 C100 181 85 181 85 181 C75 125 70 97 71 97 C65 69 60 41 56 13 C56 13 71 13 71 13 C70 13 74 22 80 39 C83 45 103 41 141 21 C173 0 214 -10 266 -10 C383 -10 451 40 469 139 C481 208 447 262 339 318 C225 376 187 421 196 469 C209 543 252 581 323 581 C332 581 340 580 348 579 C348 579 323 581 323 581 C342 581 360 579 376 576 C376 576 348 579 348 579 C416 566 453 499 462 433 C462 433 477 433 477 433 L477 433 Z " />
<glyph glyph-name="[namenotfound]" unicode="&#xf078;" horiz-adv-x="626" d="M702 583 C702 583 657 583 657 583 C657 583 634 583 634 583 C634 583 539 583 539 583 C541 583 536 563 536 563 C536 563 555 563 555 563 C592 563 606 556 528 463 C528 463 399 318 399 318 C399 318 330 458 330 458 C283 556 299 563 333 563 C333 563 352 563 352 563 C353 567 355 581 356 583 C356 583 268 583 268 583 C268 583 209 583 209 583 C209 583 169 583 169 583 C169 583 168 580 168 573 C166 566 165 563 166 563 C166 563 191 563 191 563 C209 563 221 555 274 451 C274 451 357 282 357 282 C357 282 207 120 207 120 C207 120 207 120 207 120 C121 27 97 20 64 20 C64 20 40 20 40 20 C40 18 40 8 37 0 C37 0 96 0 96 0 C96 0 116 0 116 0 C116 0 246 0 246 0 C246 0 249 20 249 20 C249 20 230 20 230 20 C171 20 145 27 220 115 C220 115 362 273 362 273 C362 273 427 140 427 140 C427 140 427 140 427 140 C481 28 467 20 431 20 C431 20 411 20 411 20 C411 18 411 8 408 0 C408 0 496 0 496 0 C496 0 556 0 556 0 C556 0 602 0 602 0 C602 0 607 20 605 20 C605 20 581 20 581 20 C557 20 541 28 487 140 C487 140 487 140 487 140 C487 140 404 309 404 309 C404 309 501 414 501 414 C501 414 501 413 501 413 C509 422 517 431 524 439 C524 439 578 497 578 497 C636 557 654 563 674 563 C674 563 698 563 698 563 C699 567 701 581 702 583 C702 583 702 583 702 583 L702 583 Z " />
</font>
</svg>
