<?xml version="1.0" encoding="UTF-8"?>
<svg xmlns="http://www.w3.org/2000/svg" xmlns:xlink="http://www.w3.org/1999/xlink" version="1.2" >
<font id="Aludra Regular">
<font-face  font-family="Aludra" units-per-em="1024" ascent="975" descent="-300" font-style="normal" font-weight="400" font-stretch="normal" cap-height="750" x-height="500" underline-position="0" underline-thickness="0" />
<missing-glyph  horiz-adv-x="472" d="M0 700 C0 700 432 700 432 700 C432 700 432 0 432 0 C432 0 0 0 0 0 C0 0 0 700 0 700 L0 700 Z M50 50 C50 50 382 50 382 50 C382 50 382 650 382 650 C382 650 50 650 50 650 C50 650 50 50 50 50 L50 50 Z " />
<glyph glyph-name="NULL" d="" />
<glyph glyph-name="CR" unicode="&#xd;" horiz-adv-x="256" d="" />
<glyph glyph-name="space" unicode="&#x20;" horiz-adv-x="250" d="" />
<glyph glyph-name="exclam" unicode="&#x21;" horiz-adv-x="244" d="M122 -5 C162 -5 182 15 182 55 C182 95 162 115 122 115 C82 115 62 95 62 55 C62 15 82 -5 122 -5 L122 -5 Z M122 755 C68 755 63 720 70 650 C70 650 114 210 114 210 C114 210 130 210 130 210 C130 210 174 650 174 650 C181 720 176 755 122 755 L122 755 Z " />
<glyph glyph-name="quotedbl" unicode="&#x22;" horiz-adv-x="325" d="M740 750 C711 750 709 735 715 705 C715 705 745 560 745 560 C745 560 755 560 755 560 C755 560 785 705 785 705 C791 735 789 750 760 750 C760 750 740 750 740 750 L740 750 Z " />
<glyph glyph-name="numbersign" unicode="&#x23;" horiz-adv-x="544" d="M390 667 C390 667 364 493 364 493 C364 493 226 493 226 493 C226 493 252 667 252 667 C252 667 219 667 219 667 C219 667 193 493 193 493 C193 493 68 493 68 493 C68 493 59 427 59 427 C59 427 183 427 183 427 C183 427 155 233 155 233 C155 233 27 233 27 233 C27 233 17 167 17 167 C17 167 145 167 145 167 C145 167 120 0 120 0 C120 0 154 0 154 0 C154 0 179 167 179 167 C179 167 316 167 316 167 C316 167 291 0 291 0 C291 0 324 0 324 0 C324 0 349 167 349 167 C349 167 469 167 469 167 C469 167 478 233 478 233 C478 233 359 233 359 233 C359 233 387 427 387 427 C387 427 516 427 516 427 C516 427 525 493 525 493 C525 493 397 493 397 493 C397 493 423 667 423 667 C423 667 390 667 390 667 L390 667 Z M217 427 C217 427 354 427 354 427 C354 427 326 233 326 233 C326 233 188 233 188 233 C188 233 217 427 217 427 L217 427 Z " />
<glyph glyph-name="dollar" unicode="&#x24;" horiz-adv-x="550" d="M299 825 C299 825 299 758 299 758 C285 759 271 760 256 760 C254 760 251 760 249 760 C249 760 249 825 249 825 C249 825 219 825 219 825 C219 825 219 758 219 758 C117 746 65 681 65 564 C65 467 107 397 219 344 C219 344 219 30 219 30 C210 32 202 35 194 39 C194 39 194 39 194 39 C135 64 89 148 65 219 C65 219 50 219 50 219 C50 219 50 147 50 147 C50 147 50 45 50 45 C50 45 65 45 65 45 C65 45 67 54 70 70 C71 76 94 66 138 35 C138 35 139 35 139 35 C163 18 190 6 219 -2 C219 -2 219 -75 219 -75 C219 -75 249 -75 249 -75 C249 -75 249 -7 249 -7 C262 -9 276 -10 291 -10 C294 -10 296 -10 299 -10 C299 -10 299 -75 299 -75 C299 -75 329 -75 329 -75 C329 -75 329 -8 329 -8 C450 3 510 70 510 194 C510 297 461 368 329 420 C329 420 329 724 329 724 C387 700 431 642 450 586 C453 576 455 571 455 571 C455 571 470 571 470 571 C470 571 470 643 470 643 C470 643 470 724 470 724 C470 724 455 724 455 724 C455 724 453 717 450 704 C448 698 432 703 404 722 C404 722 404 722 404 722 C382 736 357 746 329 753 C329 753 329 825 329 825 C329 825 299 825 299 825 L299 825 Z M291 734 C291 734 285 735 285 735 C287 735 289 735 291 734 L291 734 Z M299 733 C299 733 299 432 299 432 C281 440 264 448 249 456 C249 456 249 736 249 736 C251 736 254 736 256 736 C271 736 285 735 298 733 C298 733 299 733 299 733 C299 733 299 733 299 733 L299 733 Z M249 331 C254 330 258 328 263 326 C276 321 288 316 299 311 C299 311 299 20 299 20 C296 20 294 20 291 20 C276 20 262 21 249 23 C249 23 249 331 249 331 L249 331 Z M329 297 C405 258 434 216 434 166 C434 83 399 35 329 23 C329 23 329 297 329 297 L329 297 Z M219 474 C162 511 140 551 140 600 C140 675 167 719 219 732 C219 732 219 474 219 474 L219 474 Z " />
<glyph glyph-name="ampersand" unicode="&#x26;" horiz-adv-x="316" d="M326 465 C434 499 489 548 489 611 C489 710 431 760 315 760 C202 760 145 706 145 599 C145 551 176 510 237 438 C106 396 40 316 40 199 C40 60 109 -10 245 -10 C344 -10 433 32 513 115 C513 115 535 90 535 90 C591 23 647 -10 700 -10 C777 -10 823 42 835 146 C835 146 820 151 820 151 C813 90 784 59 735 59 C694 59 652 84 609 134 C609 134 568 181 568 181 C628 262 682 368 730 500 C730 500 710 500 710 500 C664 373 610 274 550 203 C550 203 348 439 348 439 C340 448 333 457 326 465 C326 465 326 465 326 465 L326 465 Z M318 475 C253 551 220 593 220 644 C220 708 252 740 315 740 C385 740 420 698 420 616 C420 546 386 498 318 475 C318 475 318 475 318 475 L318 475 Z M490 143 C430 94 365 69 294 69 C184 69 129 121 129 224 C129 331 167 400 244 430 C253 419 263 408 274 395 C274 395 490 143 490 143 L490 143 Z " />
<glyph glyph-name="quotesingle" unicode="&#x27;" horiz-adv-x="204" d="" />
<glyph glyph-name="parenleft" unicode="&#x28;" horiz-adv-x="470" d="M320 760 C154 648 70 484 70 273 C70 71 152 -93 313 -214 C313 -214 318 -205 318 -205 C193 -111 130 50 130 273 C130 503 196 663 325 750 C325 750 320 760 320 760 L320 760 Z " />
<glyph glyph-name="parenright" unicode="&#x29;" horiz-adv-x="470" d="M25 750 C155 666 220 506 220 273 C220 37 157 -123 32 -204 C32 -204 37 -214 37 -214 C198 -109 280 54 280 273 C280 489 196 652 30 760 C30 760 25 750 25 750 L25 750 Z " />
<glyph glyph-name="asterisk" unicode="&#x2a;" horiz-adv-x="296" d="M143 630 C143 630 33 592 33 592 C12 585 7 572 17 553 C28 535 42 533 59 548 C59 548 147 624 147 624 C147 624 124 510 124 510 C120 488 129 477 150 477 C171 477 180 488 176 510 C176 510 153 624 153 624 C153 624 241 548 241 548 C258 533 272 535 283 553 C293 572 288 585 267 592 C267 592 157 630 157 630 C157 630 267 668 267 668 C288 675 293 688 283 707 C272 725 258 727 241 712 C241 712 153 636 153 636 C153 636 176 750 176 750 C180 772 171 783 150 783 C129 783 120 772 124 750 C124 750 147 636 147 636 C147 636 59 712 59 712 C42 727 28 725 17 707 C7 688 12 675 33 668 C33 668 143 630 143 630 L143 630 Z " />
<glyph glyph-name="plus" unicode="&#x2b;" horiz-adv-x="620" d="M277 460 C277 460 277 280 277 280 C277 280 100 280 100 280 C100 280 100 220 100 220 C100 220 277 220 277 220 C277 220 277 40 277 40 C277 40 343 40 343 40 C343 40 343 220 343 220 C343 220 520 220 520 220 C520 220 520 280 520 280 C520 280 343 280 343 280 C343 280 343 460 343 460 C343 460 277 460 277 460 L277 460 Z " />
<glyph glyph-name="comma" unicode="&#x2c;" horiz-adv-x="264" d="M159 7 C160 0 160 -7 160 -15 C160 -68 128 -95 65 -95 C65 -95 65 -115 65 -115 C151 -115 195 -71 195 16 C195 82 172 115 125 115 C85 115 65 95 65 55 C65 15 85 -5 125 -5 C140 -5 151 -1 159 7 C159 7 159 7 159 7 L159 7 Z " />
<glyph glyph-name="hyphen" unicode="&#x2d;" horiz-adv-x="430" d="M80 252 C80 252 350 252 350 252 C350 252 350 318 350 318 C350 318 80 318 80 318 C80 318 80 252 80 252 L80 252 Z " />
<glyph glyph-name="period" unicode="&#x2e;" horiz-adv-x="195" d="M125 -5 C165 -5 185 15 185 55 C185 95 165 115 125 115 C85 115 65 95 65 55 C65 15 85 -5 125 -5 L125 -5 Z " />
<glyph glyph-name="slash" unicode="&#x2f;" horiz-adv-x="389" d="M309 770 C309 770 27 -80 27 -80 C27 -80 77 -80 77 -80 C77 -80 359 770 359 770 C359 770 309 770 309 770 L309 770 Z " />
<glyph glyph-name="zero" unicode="0" horiz-adv-x="610" d="M305 25 C173 25 85 101 85 250 C85 385 159 475 305 475 C437 475 525 399 525 250 C525 115 451 25 305 25 L305 25 Z M45 250 C45 77 150 -10 305 -10 C478 -10 565 95 565 250 C565 423 460 510 305 510 C132 510 45 405 45 250 L45 250 Z " />
<glyph glyph-name="one" unicode="1" horiz-adv-x="305" d="M266 500 C266 500 40 500 40 500 C40 500 40 480 40 480 C40 480 51 480 51 480 C90 480 110 479 110 465 C110 465 110 35 110 35 C110 21 90 20 51 20 C51 20 40 20 40 20 C40 20 40 0 40 0 C40 0 266 0 266 0 C266 0 266 20 266 20 C266 20 255 20 255 20 C215 20 195 21 195 35 C195 35 195 465 195 465 C195 479 215 480 255 480 C255 480 266 480 266 480 C266 480 266 500 266 500 L266 500 Z " />
<glyph glyph-name="two" unicode="2" horiz-adv-x="541" d="M61 290 C81 393 137 445 227 445 C313 445 357 405 357 325 C357 200 226 114 30 15 C30 15 30 0 30 0 C30 0 303 0 303 0 C303 0 430 0 430 0 C455 39 479 77 503 117 C499 118 487 120 486 121 C486 121 479 110 479 110 C464 87 449 75 347 75 C347 75 172 75 172 75 C338 168 441 252 441 345 C441 455 384 510 270 510 C148 510 72 437 44 294 C44 294 61 290 61 290 L61 290 Z " />
<glyph glyph-name="three" unicode="3" horiz-adv-x="434" d="M17 -215 C17 -215 20 -232 20 -232 C269 -206 395 -126 395 7 C395 120 333 186 209 203 C209 203 202 200 202 200 C321 259 380 314 380 386 C380 468 325 510 218 510 C111 510 45 457 20 351 C20 351 39 346 39 346 C55 415 103 450 183 450 C254 450 290 419 290 356 C290 272 226 224 99 170 C99 170 99 153 99 153 C236 134 305 77 305 -17 C305 -129 208 -195 17 -215 C17 -215 17 -215 17 -215 L17 -215 Z " />
<glyph glyph-name="four" unicode="4" horiz-adv-x="620" d="M590 -39 C592 -26 593 -13 595 0 C595 0 595 0 595 0 C595 0 595 1 595 1 C600 38 605 75 611 111 C611 111 591 111 591 111 C591 111 589 100 589 100 C586 77 576 65 474 65 C474 65 415 65 415 65 C415 65 415 530 415 530 C415 530 404 530 404 530 C404 530 15 15 15 15 C15 15 15 0 15 0 C15 0 330 0 330 0 C330 0 330 -220 330 -220 C330 -220 415 -220 415 -220 C415 -220 415 0 415 0 C415 0 515 0 515 0 C571 0 574 -9 571 -28 C571 -28 570 -39 570 -39 C570 -39 590 -39 590 -39 L590 -39 Z M92 64 C92 64 331 382 331 382 C331 382 330 381 330 381 C330 381 330 65 330 65 C330 65 93 65 93 65 C93 65 92 64 92 64 L92 64 Z " />
<glyph glyph-name="five" unicode="5" horiz-adv-x="435" d="M60 -234 C290 -206 406 -111 406 50 C406 201 301 277 94 277 C94 277 76 277 76 277 C76 277 103 424 103 424 C103 424 343 426 343 426 C343 426 353 485 353 485 C357 503 360 521 363 540 C363 540 343 540 343 540 C336 509 338 500 236 500 C236 500 87 500 87 500 C87 500 32 201 32 201 C32 201 47 187 47 187 C47 187 85 187 85 187 C248 187 331 131 331 21 C331 -116 240 -196 59 -218 C59 -218 60 -234 60 -234 L60 -234 Z " />
<glyph glyph-name="six" unicode="6" horiz-adv-x="568" d="M550 750 C218 680 50 526 50 291 C50 91 131 -10 290 -10 C439 -10 515 74 515 239 C515 390 441 466 295 466 C231 466 184 446 155 406 C203 580 336 691 553 737 C553 737 550 750 550 750 L550 750 Z M135 246 C135 376 185 441 285 441 C381 441 430 375 430 243 C430 92 381 15 285 15 C185 15 135 93 135 246 L135 246 Z " />
<glyph glyph-name="seven" unicode="7" horiz-adv-x="454" d="M9 385 C9 385 29 385 29 385 C29 385 33 395 33 395 C44 419 53 431 100 431 C100 431 401 431 401 431 C401 431 110 -220 110 -220 C110 -220 175 -220 175 -220 C175 -220 450 485 450 485 C450 485 450 500 450 500 C450 500 145 500 145 500 C85 500 83 508 90 522 C90 522 94 532 94 532 C94 532 74 532 74 532 C52 482 31 434 9 385 L9 385 Z " />
<glyph glyph-name="eight" unicode="8" horiz-adv-x="541" d="M216 372 C226 367 236 363 246 359 C373 308 437 273 437 154 C437 58 381 10 270 10 C166 10 114 65 114 174 C114 268 148 335 216 372 C216 372 216 372 216 372 L216 372 Z M194 383 C92 333 40 263 40 174 C40 52 117 -10 270 -10 C424 -10 502 58 502 191 C502 318 445 365 331 415 C427 461 476 523 476 598 C476 706 406 760 268 760 C133 760 65 700 65 580 C65 489 108 429 194 383 C194 383 194 383 194 383 L194 383 Z M309 424 C299 429 289 433 278 437 C182 476 133 527 133 612 C133 697 178 740 268 740 C358 740 404 690 404 590 C404 513 372 458 309 424 C309 424 309 424 309 424 L309 424 Z " />
<glyph glyph-name="nine" unicode="9" horiz-adv-x="568" d="M18 -250 C350 -180 518 -26 518 209 C518 409 438 510 278 510 C129 510 53 426 53 261 C53 110 127 34 273 34 C338 34 385 54 414 95 C366 -80 233 -191 15 -237 C15 -237 18 -250 18 -250 L18 -250 Z M434 254 C433 124 383 59 283 59 C187 59 138 125 138 257 C138 408 187 485 283 485 C383 485 433 407 434 254 L434 254 Z " />
<glyph glyph-name="colon" unicode="&#x3a;" horiz-adv-x="135" d="M125 385 C165 385 185 405 185 445 C185 485 165 505 125 505 C85 505 65 485 65 445 C65 405 85 385 125 385 L125 385 Z M125 -5 C165 -5 185 15 185 55 C185 95 165 115 125 115 C85 115 65 95 65 55 C65 15 85 -5 125 -5 L125 -5 Z " />
<glyph glyph-name="semicolon" unicode="&#x3b;" horiz-adv-x="264" d="M125 385 C165 385 185 405 185 445 C185 485 165 505 125 505 C85 505 65 485 65 445 C65 405 85 385 125 385 L125 385 Z M159 7 C160 0 160 -7 160 -15 C160 -68 128 -95 65 -95 C65 -95 65 -115 65 -115 C151 -115 195 -71 195 16 C195 82 172 115 125 115 C85 115 65 95 65 55 C65 15 85 -5 125 -5 C140 -5 151 -1 159 7 C159 7 159 7 159 7 L159 7 Z " />
<glyph glyph-name="equal" unicode="&#x3d;" horiz-adv-x="533" d="M83 219 C83 219 83 181 83 181 C83 181 463 181 463 181 C463 181 463 219 463 219 C463 219 83 219 83 219 L83 219 Z M83 319 C83 319 83 281 83 281 C83 281 463 281 463 281 C463 281 463 319 463 319 C463 319 83 319 83 319 L83 319 Z " />
<glyph glyph-name="question" unicode="&#x3f;" horiz-adv-x="299" d="M125 -5 C165 -5 185 15 185 55 C185 95 165 115 125 115 C85 115 65 95 65 55 C65 15 85 -5 125 -5 L125 -5 Z M125 210 C125 210 125 360 125 360 C228 360 247 388 285 444 C305 473 315 511 315 555 C315 691 258 760 145 760 C92 760 65 739 65 697 C65 669 80 655 111 655 C134 655 153 670 176 670 C251 670 289 628 289 545 C289 528 281 508 266 485 C246 455 236 440 97 440 C97 440 110 210 110 210 C110 210 125 210 125 210 L125 210 Z " />
<glyph glyph-name="at" unicode="&#x40;" horiz-adv-x="1160" d="M1041 0 C968 -157 818 -236 596 -236 C281 -236 122 -70 122 259 C122 588 276 754 580 754 C885 754 1039 616 1039 343 C1039 120 978 7 856 7 C750 7 713 72 745 200 C745 200 815 480 815 480 C815 480 735 480 735 480 C735 480 717 406 717 406 C702 462 658 490 585 490 C388 490 289 390 289 192 C289 70 348 8 466 8 C554 8 617 41 655 106 C662 21 724 -22 840 -22 C1016 -22 1105 101 1105 343 C1105 632 929 778 580 778 C231 778 55 604 55 259 C55 -86 236 -260 596 -260 C830 -260 990 -173 1070 0 C1070 0 1041 0 1041 0 L1041 0 Z M704 356 C704 356 665 200 665 200 C641 104 589 55 510 55 C425 55 382 106 382 208 C382 380 450 466 583 466 C663 466 704 429 704 356 L704 356 Z " />
<glyph glyph-name="A" unicode="A" horiz-adv-x="748" d="M478 0 C478 0 573 0 573 0 C573 0 672 0 672 0 C672 0 733 0 733 0 C733 0 733 20 733 20 C733 20 709 20 709 20 C680 20 662 28 628 140 C628 140 627 140 627 140 C627 140 443 720 443 720 C443 720 427 770 427 770 C427 770 417 770 417 770 C396 740 373 723 348 720 C348 720 351 710 351 710 C351 710 351 710 351 710 C351 710 173 170 173 170 C173 170 173 170 173 170 C173 168 172 167 172 165 C172 165 169 156 169 156 C126 29 98 20 51 20 C51 20 29 20 29 20 C29 20 29 0 29 0 C29 0 117 0 117 0 C117 0 146 0 146 0 C146 0 262 0 262 0 C262 0 262 20 262 20 C262 20 241 20 241 20 C187 20 160 28 188 133 C188 133 234 279 234 279 C234 279 486 279 486 279 C486 279 529 140 529 140 C529 140 529 140 529 140 C564 28 544 20 499 20 C499 20 478 20 478 20 C478 20 478 0 478 0 L478 0 Z M242 304 C242 304 361 680 361 680 C361 680 478 304 478 304 C478 304 242 304 242 304 L242 304 Z " />
<glyph glyph-name="B" unicode="B" horiz-adv-x="669" d="M64 0 C64 0 233 0 233 0 C233 0 353 0 353 0 C537 0 630 20 630 197 C630 307 569 371 450 388 C553 412 604 473 604 570 C604 690 574 750 318 750 C318 750 233 750 233 750 C233 750 64 750 64 750 C64 750 64 730 64 730 C64 730 75 730 75 730 C117 730 138 725 138 665 C138 665 138 85 138 85 C138 25 117 20 75 20 C75 20 64 20 64 20 C64 20 64 0 64 0 L64 0 Z M233 731 C233 731 280 731 280 731 C485 731 509 674 509 560 C509 449 448 393 328 393 C328 393 233 393 233 393 C233 393 233 665 233 665 C233 665 233 731 233 731 L233 731 Z M316 377 C455 377 525 316 525 197 C525 37 459 19 329 19 C329 19 279 19 279 19 C248 19 233 39 233 80 C233 80 233 85 233 85 C233 85 233 377 233 377 C233 377 316 377 316 377 L316 377 Z " />
<glyph glyph-name="C" unicode="C" horiz-adv-x="735" d="M693 547 C693 547 693 631 693 631 C693 631 693 712 693 712 C693 712 678 712 678 712 C678 712 676 705 673 692 C671 685 645 694 596 723 C596 723 596 723 596 723 C554 748 500 760 409 760 C171 760 51 631 51 375 C51 119 168 -10 399 -10 C488 -10 546 3 592 30 C600 32 636 44 672 56 C677 58 680 51 680 35 C680 35 692 35 692 35 C692 35 692 118 692 118 C692 118 693 119 693 119 C693 119 692 120 692 120 C692 120 692 203 692 203 C692 203 677 203 677 203 C660 149 624 89 567 52 C526 25 477 12 408 12 C240 12 155 134 155 375 C155 615 244 736 419 736 C459 736 491 732 517 724 C517 724 517 724 517 724 C592 701 651 626 673 562 C676 552 678 547 678 547 C678 547 693 547 693 547 L693 547 Z " />
<glyph glyph-name="D" unicode="D" horiz-adv-x="828" d="M53 0 C53 0 127 0 127 0 C127 0 222 0 222 0 C222 0 302 0 302 0 C615 0 773 101 773 375 C773 624 657 750 342 750 C342 750 222 750 222 750 C222 750 127 750 127 750 C127 750 53 750 53 750 C53 750 53 730 53 730 C53 730 64 730 64 730 C106 730 127 725 127 665 C127 665 127 85 127 85 C127 25 106 20 64 20 C64 20 53 20 53 20 C53 20 53 0 53 0 L53 0 Z M222 731 C222 731 266 731 266 731 C561 731 669 612 669 375 C669 115 536 19 274 19 C222 19 222 39 222 80 C222 80 222 85 222 85 C222 85 222 665 222 665 C222 665 222 731 222 731 L222 731 Z " />
<glyph glyph-name="E" unicode="E" horiz-adv-x="619" d="M539 642 C539 642 536 696 536 696 C534 714 533 732 532 750 C532 750 412 750 412 750 C412 750 222 750 222 750 C222 750 127 750 127 750 C127 750 53 750 53 750 C53 750 53 730 53 730 C53 730 64 730 64 730 C106 730 127 725 127 665 C127 665 127 85 127 85 C127 25 106 20 64 20 C64 20 53 20 53 20 C53 20 53 0 53 0 C53 0 127 0 127 0 C127 0 222 0 222 0 C222 0 437 0 437 0 C437 0 557 0 557 0 C561 36 568 72 572 108 C572 108 552 108 552 108 C552 108 551 97 551 97 C543 46 533 20 440 20 C440 20 302 20 302 20 C222 20 222 40 222 80 C222 80 222 85 222 85 C222 85 222 385 222 385 C222 385 352 385 352 385 C445 385 452 356 452 297 C452 297 452 287 452 287 C452 287 472 287 472 287 C472 287 472 385 472 385 C472 385 472 408 472 408 C472 408 472 506 472 506 C472 506 452 506 452 506 C452 506 452 495 452 495 C452 437 445 408 352 408 C352 408 222 408 222 408 C222 408 222 665 222 665 C222 665 222 730 222 730 C222 730 413 730 413 730 C525 730 515 704 519 651 C519 651 519 642 519 642 C519 642 539 642 539 642 L539 642 Z " />
<glyph glyph-name="F" unicode="F" horiz-adv-x="594" d="M541 648 C537 681 534 716 532 750 C532 750 412 750 412 750 C412 750 222 750 222 750 C222 750 127 750 127 750 C127 750 53 750 53 750 C53 750 53 730 53 730 C53 730 64 730 64 730 C106 730 127 725 127 665 C127 665 127 85 127 85 C127 25 106 20 64 20 C64 20 53 20 53 20 C53 20 53 0 53 0 C53 0 127 0 127 0 C127 0 222 0 222 0 C222 0 296 0 296 0 C296 0 296 20 296 20 C296 20 285 20 285 20 C243 20 222 25 222 85 C222 85 222 362 222 362 C222 362 430 362 430 362 C440 351 443 335 446 315 C446 315 450 283 450 283 C450 283 462 283 462 283 C462 283 462 362 462 362 C462 362 462 385 462 385 C462 385 462 464 462 464 C462 464 450 464 450 464 C450 464 446 432 446 432 C442 401 433 385 342 385 C342 385 222 385 222 385 C222 385 222 665 222 665 C222 665 222 734 222 734 C222 734 333 734 333 734 C501 734 516 708 520 657 C520 657 521 646 521 646 C525 647 539 648 541 648 C541 648 541 648 541 648 L541 648 Z " />
<glyph glyph-name="G" unicode="G" horiz-adv-x="792" d="M693 547 C693 547 693 631 693 631 C693 631 693 712 693 712 C693 712 678 712 678 712 C678 712 676 705 673 692 C671 685 645 694 596 723 C596 723 596 723 596 723 C554 748 500 760 409 760 C171 760 51 631 51 375 C51 119 170 -10 407 -10 C572 -10 648 13 747 60 C747 60 741 73 741 73 C717 62 694 52 670 44 C670 44 670 245 670 245 C670 301 686 305 719 305 C719 305 730 305 730 305 C730 305 730 325 730 325 C730 325 505 325 505 325 C505 325 505 305 505 305 C505 305 515 305 515 305 C555 305 575 301 575 245 C575 245 577 22 577 22 C577 22 577 22 577 22 C577 22 576 113 576 113 C576 46 522 13 415 13 C242 13 155 135 155 375 C155 615 244 736 419 736 C459 736 491 732 517 724 C517 724 517 724 517 724 C592 701 651 626 673 562 C676 552 678 547 678 547 C678 547 693 547 693 547 L693 547 Z " />
<glyph glyph-name="H" unicode="H" horiz-adv-x="817" d="M765 750 C765 750 523 750 523 750 C523 750 523 730 523 730 C523 730 534 730 534 730 C576 730 597 726 597 670 C597 670 597 396 597 396 C597 396 258 396 258 396 C258 396 258 670 258 670 C258 726 279 730 321 730 C321 730 332 730 332 730 C332 730 332 750 332 750 C332 750 89 750 89 750 C89 750 89 730 89 730 C89 730 100 730 100 730 C142 730 163 726 163 670 C163 670 163 80 163 80 C163 24 142 20 100 20 C100 20 89 20 89 20 C89 20 89 0 89 0 C89 0 332 0 332 0 C332 0 332 20 332 20 C332 20 321 20 321 20 C279 20 258 24 258 80 C258 80 258 370 258 370 C258 370 597 370 597 370 C597 370 597 80 597 80 C597 24 576 20 534 20 C534 20 523 20 523 20 C523 20 523 0 523 0 C523 0 765 0 765 0 C765 0 765 20 765 20 C765 20 755 20 755 20 C713 20 692 24 692 80 C692 80 692 670 692 670 C692 726 713 730 755 730 C755 730 765 730 765 730 C765 730 765 750 765 750 L765 750 Z " />
<glyph glyph-name="I" unicode="I" horiz-adv-x="343" d="M292 750 C292 750 49 750 49 750 C49 750 49 730 49 730 C49 730 60 730 60 730 C102 730 123 726 123 670 C123 670 123 80 123 80 C123 24 102 20 60 20 C60 20 49 20 49 20 C49 20 49 0 49 0 C49 0 292 0 292 0 C292 0 292 20 292 20 C292 20 281 20 281 20 C239 20 218 24 218 80 C218 80 218 670 218 670 C218 726 239 730 281 730 C281 730 292 730 292 730 C292 730 292 750 292 750 L292 750 Z " />
<glyph glyph-name="J" unicode="J" horiz-adv-x="343" d="M292 750 C292 750 49 750 49 750 C49 750 49 730 49 730 C49 730 60 730 60 730 C102 730 123 726 123 670 C123 670 123 -68 123 -68 C123 -179 69 -187 22 -187 C-32 -187 0 -107 -53 -107 C-83 -107 -98 -122 -98 -152 C-98 -197 -66 -220 -2 -220 C101 -220 219 -197 218 112 C218 112 218 670 218 670 C218 726 239 730 281 730 C281 730 292 730 292 730 C292 730 292 750 292 750 L292 750 Z " />
<glyph glyph-name="K" unicode="K" horiz-adv-x="729" d="M706 20 C706 20 679 20 679 20 C658 20 623 49 592 85 C592 85 592 85 592 85 C592 85 296 434 296 434 C296 434 473 640 473 640 C473 640 473 640 473 640 C474 641 475 642 476 644 C476 644 506 679 506 679 C549 726 568 730 593 730 C593 730 617 730 617 730 C617 730 617 750 617 750 C617 750 567 750 567 750 C567 750 529 750 529 750 C529 750 431 750 431 750 C431 750 431 730 431 730 C431 730 449 730 449 730 C492 730 506 722 414 610 C414 610 415 610 415 610 C415 610 222 375 222 375 C222 375 222 690 222 690 C222 727 243 730 285 730 C285 730 296 730 296 730 C296 730 296 750 296 750 C296 750 222 750 222 750 C222 750 127 750 127 750 C127 750 53 750 53 750 C53 750 53 730 53 730 C53 730 64 730 64 730 C106 730 127 727 127 690 C127 690 127 60 127 60 C127 23 106 20 64 20 C64 20 53 20 53 20 C53 20 53 0 53 0 C53 0 127 0 127 0 C127 0 222 0 222 0 C222 0 296 0 296 0 C296 0 296 20 296 20 C296 20 285 20 285 20 C243 20 222 23 222 60 C222 60 222 375 222 375 C222 375 540 0 540 0 C540 0 540 0 540 0 C540 0 540 0 540 0 C540 0 540 0 540 0 C540 0 664 0 664 0 C664 0 706 0 706 0 C706 0 706 20 706 20 L706 20 Z " />
<glyph glyph-name="L" unicode="L" horiz-adv-x="642" d="M587 16 C587 16 587 16 587 16 C596 54 608 92 618 130 C614 131 600 132 598 132 C598 132 595 121 595 121 C576 51 555 16 402 16 C402 16 332 16 332 16 C252 16 252 37 252 80 C252 80 252 85 252 85 C252 85 252 665 252 665 C252 725 273 730 315 730 C315 730 326 730 326 730 C326 730 326 750 326 750 C326 750 252 750 252 750 C252 750 157 750 157 750 C157 750 83 750 83 750 C83 750 83 730 83 730 C83 730 94 730 94 730 C136 730 157 725 157 665 C157 665 157 85 157 85 C157 25 136 20 94 20 C94 20 83 20 83 20 C83 20 83 0 83 0 C83 0 157 0 157 0 C157 0 252 0 252 0 C252 0 398 0 398 0 C398 0 583 0 583 0 C583 0 587 16 587 16 L587 16 Z " />
<glyph glyph-name="M" unicode="M" horiz-adv-x="895" d="M47 730 C47 730 70 730 70 730 C97 730 114 727 133 694 C133 694 116 125 116 125 C110 28 88 20 48 20 C48 20 25 20 25 20 C25 20 25 0 25 0 C25 0 112 0 112 0 C112 0 146 0 146 0 C146 0 233 0 233 0 C233 0 233 20 233 20 C233 20 211 20 211 20 C171 20 150 26 148 104 C148 104 156 640 156 640 C243 427 329 214 415 0 C415 0 439 0 439 0 C439 0 668 661 668 661 C668 661 683 78 683 78 C682 25 660 20 619 20 C619 20 609 20 609 20 C609 20 609 0 609 0 C609 0 685 0 685 0 C685 0 780 0 780 0 C780 0 851 0 851 0 C851 0 851 20 851 20 C851 20 840 20 840 20 C803 20 782 24 778 74 C778 74 761 581 761 581 C761 581 762 580 762 580 C758 720 774 730 807 730 C807 730 830 730 830 730 C830 730 830 750 830 750 C830 750 756 750 756 750 C756 750 699 750 699 750 C699 750 666 750 666 750 C666 750 456 121 456 121 C456 121 456 124 456 124 C456 124 226 750 226 750 C226 750 158 750 158 750 C158 750 135 750 135 750 C135 750 112 750 112 750 C112 750 47 750 47 750 C47 750 47 730 47 730 L47 730 Z " />
<glyph glyph-name="N" unicode="N" horiz-adv-x="749" d="M22 730 C22 730 48 730 48 730 C60 730 68 728 88 702 C88 702 125 651 125 651 C125 651 124 150 124 150 C124 150 124 150 124 150 C124 29 102 20 59 20 C59 20 36 20 36 20 C36 20 36 0 36 0 C36 0 124 0 124 0 C124 0 152 0 152 0 C152 0 240 0 240 0 C240 0 240 20 240 20 C240 20 217 20 217 20 C176 20 154 27 151 116 C151 116 149 618 149 618 C149 618 499 135 499 135 C499 135 597 0 597 0 C597 0 616 0 616 0 C616 0 622 630 622 630 C622 630 622 630 622 630 C622 723 648 730 699 730 C699 730 710 730 710 730 C710 730 710 750 710 750 C710 750 623 750 623 750 C623 750 595 750 595 750 C595 750 507 750 507 750 C507 750 507 730 507 730 C507 730 518 730 518 730 C569 730 595 723 595 630 C595 630 595 630 595 630 C595 630 597 163 597 163 C597 163 577 190 577 190 C577 190 171 750 171 750 C171 750 148 750 148 750 C148 750 125 750 125 750 C125 750 53 750 53 750 C53 750 22 750 22 750 C22 750 22 730 22 730 L22 730 Z " />
<glyph glyph-name="O" unicode="O" horiz-adv-x="818" d="M413 15 C244 15 159 136 159 375 C159 614 244 735 413 735 C595 735 687 614 687 375 C687 136 595 15 413 15 L413 15 Z M50 375 C50 119 170 -10 408 -10 C666 -10 796 119 796 375 C796 631 669 760 418 760 C173 760 50 631 50 375 L50 375 Z " />
<glyph glyph-name="P" unicode="P" horiz-adv-x="591" d="M66 730 C66 730 77 730 77 730 C119 730 140 725 140 665 C140 665 140 85 140 85 C140 25 119 20 77 20 C77 20 66 20 66 20 C66 20 66 0 66 0 C66 0 140 0 140 0 C140 0 235 0 235 0 C235 0 308 0 308 0 C308 0 308 20 308 20 C308 20 298 20 298 20 C256 20 235 25 235 85 C235 85 235 345 235 345 C235 345 285 345 285 345 C476 345 572 391 572 539 C572 679 492 750 335 750 C335 750 235 750 235 750 C235 750 140 750 140 750 C140 750 66 750 66 750 C66 750 66 730 66 730 L66 730 Z M235 365 C235 365 235 665 235 665 C235 665 235 734 235 734 C235 734 311 734 311 734 C425 734 483 674 483 555 C483 410 416 365 285 365 C285 365 235 365 235 365 L235 365 Z " />
<glyph glyph-name="Q" unicode="Q" horiz-adv-x="845" d="M1146 -44 C1146 -44 1139 -36 1139 -36 C1101 -68 999 -84 835 -84 C680 -84 546 -59 433 -10 C674 -1 796 127 796 375 C796 631 669 760 418 760 C173 760 50 631 50 375 C50 194 169 77 281 23 C494 -100 674 -163 821 -163 C942 -163 1051 -123 1146 -44 L1146 -44 Z M413 15 C399 15 382 18 364 25 C363 26 362 26 361 27 C361 27 360 27 360 27 C272 63 159 179 159 375 C159 614 244 735 413 735 C595 735 687 614 687 375 C687 136 595 15 413 15 C413 15 413 15 413 15 L413 15 Z " />
<glyph glyph-name="R" unicode="R" horiz-adv-x="776" d="M53 730 C53 730 64 730 64 730 C106 730 127 725 127 665 C127 665 127 85 127 85 C127 25 106 20 64 20 C64 20 53 20 53 20 C53 20 53 0 53 0 C53 0 296 0 296 0 C296 0 296 20 296 20 C296 20 285 20 285 20 C243 20 222 25 222 85 C222 85 222 356 222 356 C222 356 326 356 326 356 C344 323 403 230 504 80 C560 -5 545 0 742 0 C742 0 742 19 742 19 C651 19 659 15 615 80 C516 227 453 321 426 362 C533 378 586 428 586 538 C586 679 501 750 331 750 C331 750 222 750 222 750 C222 750 53 750 53 750 C53 750 53 730 53 730 L53 730 Z M222 731 C222 731 303 731 303 731 C421 731 481 673 481 557 C481 422 431 380 331 380 C331 380 222 380 222 380 C222 380 222 665 222 665 C222 665 222 731 222 731 L222 731 Z " />
<glyph glyph-name="S" unicode="S" horiz-adv-x="550" d="M470 571 C470 571 470 643 470 643 C470 643 470 724 470 724 C470 724 455 724 455 724 C455 724 453 717 450 704 C448 698 432 703 404 722 C404 722 404 722 404 722 C366 747 316 760 256 760 C129 760 65 694 65 564 C65 455 118 380 263 326 C388 278 434 229 434 166 C434 69 386 20 291 20 C255 20 223 26 194 39 C194 39 194 39 194 39 C135 64 89 148 65 219 C65 219 50 219 50 219 C50 219 50 147 50 147 C50 147 50 45 50 45 C50 45 65 45 65 45 C65 45 67 54 70 70 C71 76 94 66 138 35 C138 35 139 35 139 35 C181 5 232 -10 291 -10 C437 -10 510 58 510 194 C510 299 459 371 320 424 C188 475 140 529 140 600 C140 691 179 736 256 736 C271 736 285 735 298 733 C371 720 428 651 450 586 C453 576 455 571 455 571 C455 571 470 571 470 571 L470 571 Z M291 734 C291 734 285 735 285 735 C287 735 289 735 291 734 L291 734 Z " />
<glyph glyph-name="T" unicode="T" horiz-adv-x="775" d="M98 790 C98 790 88 790 88 790 C81 789 78 789 78 789 C73 776 69 763 64 750 C64 750 55 750 55 750 C55 750 55 726 55 726 C55 726 55 726 55 726 C46 702 38 678 29 654 C33 653 46 652 48 652 C48 652 52 663 52 663 C67 705 82 726 175 726 C175 726 340 726 340 726 C340 726 340 80 340 80 C340 24 319 20 277 20 C277 20 266 20 266 20 C266 20 266 0 266 0 C266 0 509 0 509 0 C509 0 509 20 509 20 C509 20 498 20 498 20 C456 20 435 24 435 80 C435 80 435 726 435 726 C435 726 600 726 600 726 C693 726 708 705 723 663 C723 663 727 652 727 652 C731 653 744 654 746 654 C737 678 729 702 720 726 C720 726 720 726 720 726 C720 726 720 750 720 750 C720 750 711 750 711 750 C706 763 702 776 697 789 C697 789 694 789 687 790 C687 790 677 790 677 790 C687 760 693 750 591 750 C591 750 435 750 435 750 C435 750 340 750 340 750 C340 750 184 750 184 750 C82 750 88 759 98 790 C98 790 98 790 98 790 L98 790 Z " />
<glyph glyph-name="U" unicode="U" horiz-adv-x="713" d="M449 730 C449 730 460 730 460 730 C502 730 523 725 523 665 C523 665 523 188 523 188 C481 97 409 51 309 51 C228 51 187 108 187 220 C187 220 187 665 187 665 C187 665 187 750 187 750 C187 750 18 750 18 750 C18 750 18 730 18 730 C18 730 29 730 29 730 C71 730 92 725 92 665 C92 665 92 220 92 220 C92 67 152 -10 271 -10 C391 -10 475 42 523 145 C523 145 523 110 523 110 C523 110 523 0 523 0 C523 0 538 0 538 0 C538 0 691 55 691 55 C691 55 691 65 691 65 C623 61 618 63 618 110 C618 110 618 665 618 665 C618 665 618 750 618 750 C618 750 449 750 449 750 C449 750 449 730 449 730 L449 730 Z " />
<glyph glyph-name="V" unicode="V" horiz-adv-x="783" d="M279 750 C279 750 163 750 163 750 C163 750 53 750 53 750 C53 750 16 750 16 750 C16 750 16 730 16 730 C16 730 42 730 42 730 C55 730 62 727 77 690 C77 690 77 690 77 690 C77 690 302 128 302 128 C302 128 358 -10 358 -10 C358 -10 377 -10 377 -10 C377 -10 621 610 621 610 C621 610 621 610 621 610 C621 611 622 612 622 613 C622 613 639 657 639 657 C668 724 685 730 711 730 C711 730 735 730 735 730 C735 730 735 750 735 750 C735 750 676 750 676 750 C676 750 638 750 638 750 C638 750 522 750 522 750 C522 750 522 730 522 730 C522 730 543 730 543 730 C601 730 628 722 586 610 C586 610 586 610 586 610 C586 610 409 128 409 128 C409 128 209 634 209 634 C177 723 204 730 258 730 C258 730 279 730 279 730 C279 730 279 750 279 750 L279 750 Z " />
<glyph glyph-name="W" unicode="W" horiz-adv-x="1109" d="M1063 750 C1063 750 1002 750 1002 750 C1002 750 963 750 963 750 C963 750 847 750 847 750 C847 750 847 730 847 730 C847 730 868 730 868 730 C928 730 956 722 924 610 C924 610 924 610 924 610 C924 610 793 137 793 137 C793 137 793 138 793 138 C793 138 611 640 611 640 C611 640 611 640 611 640 C610 641 610 643 609 644 C609 644 605 657 605 657 C582 725 606 730 652 730 C652 730 673 730 673 730 C673 730 673 750 673 750 C673 750 571 750 571 750 C571 750 461 750 461 750 C461 750 402 750 402 750 C402 750 402 730 402 730 C402 730 426 730 426 730 C453 730 469 727 483 693 C507 629 532 564 557 499 C557 499 412 118 412 118 C412 118 412 120 412 120 C412 120 223 637 223 637 C194 723 216 730 262 730 C262 730 283 730 283 730 C283 730 283 750 283 750 C283 750 181 750 181 750 C181 750 77 750 77 750 C77 750 38 750 38 750 C38 750 38 730 38 730 C38 730 65 730 65 730 C77 730 87 722 129 610 C129 610 130 610 130 610 C207 403 285 197 363 -10 C363 -10 388 -10 388 -10 C388 -10 573 457 573 457 C633 301 692 145 752 -10 C752 -10 777 -10 777 -10 C777 -10 961 610 961 610 C961 610 961 610 961 610 C992 722 1009 730 1039 730 C1039 730 1063 730 1063 730 C1063 730 1063 750 1063 750 L1063 750 Z " />
<glyph glyph-name="X" unicode="X" horiz-adv-x="778" d="M739 750 C739 750 694 750 694 750 C694 750 651 750 651 750 C651 750 556 750 556 750 C556 750 556 730 556 730 C556 730 576 730 576 730 C616 730 631 721 547 600 C547 600 547 600 547 600 C547 600 424 422 424 422 C424 422 303 610 303 610 C303 610 304 610 304 610 C231 722 245 730 282 730 C282 730 301 730 301 730 C301 730 301 750 301 750 C301 750 213 750 213 750 C213 750 101 750 101 750 C101 750 61 750 61 750 C61 750 61 730 61 730 C61 730 86 730 86 730 C105 730 119 722 191 610 C191 610 191 610 191 610 C191 610 357 352 357 352 C357 352 190 120 190 120 C190 120 190 120 190 120 C124 27 102 20 68 20 C68 20 45 20 45 20 C45 20 45 0 45 0 C45 0 104 0 104 0 C104 0 142 0 142 0 C142 0 272 0 272 0 C272 0 272 20 272 20 C272 20 253 20 253 20 C193 20 165 27 219 112 C219 112 369 333 369 333 C369 333 504 124 504 124 C565 27 550 20 516 20 C516 20 496 20 496 20 C496 20 496 0 496 0 C496 0 584 0 584 0 C584 0 697 0 697 0 C697 0 744 0 744 0 C744 0 744 20 744 20 C744 20 719 20 719 20 C696 20 679 28 607 140 C607 140 607 140 607 140 C607 140 437 404 437 404 C437 404 568 580 568 580 C568 580 568 580 568 580 C569 582 571 584 572 586 C572 586 646 686 646 686 C681 726 696 730 715 730 C715 730 739 730 739 730 C739 730 739 750 739 750 L739 750 Z " />
<glyph glyph-name="Y" unicode="Y" horiz-adv-x="828" d="M300 750 C300 750 226 750 226 750 C226 750 114 750 114 750 C114 750 81 750 81 750 C81 750 81 730 81 730 C81 730 107 730 107 730 C120 730 131 722 202 610 C202 610 203 610 203 610 C203 610 385 322 385 322 C385 322 385 80 385 80 C385 24 364 20 322 20 C322 20 311 20 311 20 C311 20 311 0 311 0 C311 0 554 0 554 0 C554 0 554 20 554 20 C554 20 543 20 543 20 C501 20 480 24 480 80 C480 80 480 325 480 325 C480 325 653 640 653 640 C700 723 716 730 738 730 C738 730 762 730 762 730 C762 730 762 750 762 750 C762 750 713 750 713 750 C713 750 666 750 666 750 C666 750 592 750 592 750 C592 750 592 730 592 730 C592 730 612 730 612 730 C636 730 650 726 632 682 C632 682 604 625 604 625 C603 624 602 622 601 620 C601 620 601 620 601 620 C601 620 470 356 470 356 C470 356 313 610 313 610 C313 610 313 610 313 610 C309 616 306 622 302 627 C302 627 294 640 294 640 C243 723 254 730 280 730 C280 730 300 730 300 730 C300 730 300 750 300 750 L300 750 Z " />
<glyph glyph-name="Z" unicode="Z" horiz-adv-x="653" d="M139 0 C139 0 457 0 457 0 C457 0 617 0 617 0 C627 44 640 88 650 134 C646 135 633 136 631 136 C631 136 617 105 617 105 C597 59 578 33 497 28 C497 28 154 22 154 22 C154 22 621 730 621 730 C621 730 621 750 621 750 C621 750 528 750 528 750 C528 750 251 750 251 750 C251 750 81 750 81 750 C75 701 67 655 61 607 C66 606 84 605 87 605 C87 605 92 626 92 626 C105 685 121 718 212 724 C212 724 513 728 513 728 C513 728 36 20 36 20 C36 20 36 0 36 0 C36 0 139 0 139 0 L139 0 Z " />
<glyph glyph-name="bracketleft" unicode="&#x5b;" horiz-adv-x="294" d="M135 725 C135 725 345 725 345 725 C345 725 345 750 345 750 C345 750 135 750 135 750 C135 750 105 750 105 750 C105 750 105 -195 105 -195 C105 -195 135 -195 135 -195 C135 -195 345 -195 345 -195 C345 -195 345 -170 345 -170 C345 -170 135 -170 135 -170 C135 -170 135 725 135 725 L135 725 Z " />
<glyph glyph-name="backslash" unicode="&#x5c;" horiz-adv-x="347" d="M27 770 C27 770 287 -80 287 -80 C287 -80 337 -80 337 -80 C337 -80 77 770 77 770 C77 770 27 770 27 770 L27 770 Z " />
<glyph glyph-name="bracketright" unicode="&#x5d;" horiz-adv-x="297" d="M158 725 C158 725 158 -170 158 -170 C158 -170 -52 -170 -52 -170 C-52 -170 -52 -195 -52 -195 C-52 -195 158 -195 158 -195 C158 -195 188 -195 188 -195 C188 -195 188 750 188 750 C188 750 158 750 158 750 C158 750 -52 750 -52 750 C-52 750 -52 725 -52 725 C-52 725 158 725 158 725 L158 725 Z " />
<glyph glyph-name="underscore" unicode="&#x5f;" horiz-adv-x="455" d="M5 -50 C5 -50 5 -97 5 -97 C5 -97 450 -97 450 -97 C450 -97 450 -50 450 -50 C450 -50 5 -50 5 -50 L5 -50 Z " />
<glyph glyph-name="a" unicode="a" horiz-adv-x="513" d="M523 102 C523 102 509 109 509 109 C503 74 485 56 454 56 C418 56 400 71 400 102 C400 102 400 355 400 355 C400 473 353 510 259 510 C130 510 65 420 65 360 C65 320 81 300 114 300 C143 300 158 323 158 343 C158 365 138 380 138 403 C138 435 168 484 228 484 C286 484 315 461 315 386 C315 386 315 275 315 275 C73 201 45 191 45 88 C45 23 83 -10 158 -10 C218 -10 263 8 316 79 C323 23 358 -5 419 -5 C476 -5 511 31 523 102 L523 102 Z M315 255 C315 255 315 102 315 102 C315 101 315 101 315 100 C277 49 245 35 203 35 C154 35 130 56 130 97 C130 196 149 204 315 255 L315 255 Z " />
<glyph glyph-name="b" unicode="b" horiz-adv-x="593" d="M36 693 C36 693 46 696 46 696 C79 705 95 704 95 630 C95 630 95 0 95 0 C95 0 100 0 100 0 C100 0 130 67 130 67 C130 67 130 65 130 65 C167 15 228 -10 312 -10 C469 -10 548 78 548 253 C548 420 472 505 322 505 C264 505 216 483 180 438 C180 438 180 650 180 650 C180 650 180 750 180 750 C180 750 165 750 165 750 C165 750 36 713 36 713 C36 713 36 693 36 693 L36 693 Z M180 413 C211 451 246 470 287 470 C397 470 453 394 453 242 C453 87 407 9 316 9 C245 9 199 29 180 70 C180 70 180 195 180 195 C180 195 180 413 180 413 L180 413 Z " />
<glyph glyph-name="c" unicode="c" horiz-adv-x="500" d="M470 128 C470 128 458 133 458 133 C432 73 381 42 308 42 C190 42 130 120 130 273 C130 418 184 491 289 491 C336 491 370 462 390 405 C401 377 415 363 433 363 C471 363 486 377 475 405 C450 475 389 510 294 510 C127 510 42 418 42 236 C42 72 121 -10 278 -10 C365 -10 430 36 470 128 L470 128 Z " />
<glyph glyph-name="d" unicode="d" horiz-adv-x="574" d="M573 42 C532 34 514 26 514 127 C514 127 514 665 514 665 C514 665 514 750 514 750 C514 750 499 750 499 750 C499 750 369 713 369 713 C369 713 369 693 369 693 C369 693 379 696 379 696 C412 705 429 706 429 645 C429 645 429 472 429 472 C395 496 348 510 290 510 C112 510 46 423 46 251 C46 81 120 -5 265 -5 C338 -5 392 19 429 66 C429 66 429 -10 429 -10 C429 -10 444 -10 444 -10 C444 -10 573 22 573 22 C573 22 573 42 573 42 L573 42 Z M429 96 C396 52 352 30 300 30 C189 30 133 112 133 274 C133 414 178 485 300 485 C353 485 400 449 429 395 C429 395 429 110 429 110 C429 110 429 96 429 96 L429 96 Z " />
<glyph glyph-name="e" unicode="e" horiz-adv-x="535" d="M135 340 C135 340 411 340 411 340 C411 340 505 340 505 340 C481 476 415 510 296 510 C127 510 41 416 41 231 C41 71 119 -10 273 -10 C385 -10 458 38 493 132 C493 132 483 136 483 136 C461 76 397 46 293 46 C185 46 130 120 130 266 C130 293 132 318 135 340 L135 340 Z M471 365 C475 365 478 365 482 365 C482 365 471 365 471 365 L471 365 Z M406 364 C406 364 139 360 139 360 C159 447 210 491 291 491 C350 491 385 464 406 364 C406 364 406 364 406 364 L406 364 Z " />
<glyph glyph-name="f" unicode="f" horiz-adv-x="348" d="M41 0 C41 0 245 0 245 0 C245 0 245 20 245 20 C245 20 234 20 234 20 C202 20 185 21 185 35 C185 35 185 455 185 455 C185 455 338 455 338 455 C338 455 338 500 338 500 C338 500 185 500 185 500 C185 652 213 729 290 729 C367 729 346 635 410 635 C440 635 455 650 455 680 C455 730 410 755 320 755 C159 755 100 669 100 500 C100 500 7 465 7 465 C7 465 7 455 7 455 C7 455 100 455 100 455 C100 455 100 35 100 35 C100 21 84 20 51 20 C51 20 41 20 41 20 C41 20 41 0 41 0 L41 0 Z " />
<glyph glyph-name="g" unicode="g" horiz-adv-x="552" d="M160 350 C160 443 192 490 255 490 C318 490 350 443 350 350 C350 256 318 208 255 208 C192 208 160 256 160 350 L160 350 Z M156 1 C163 0 170 0 177 0 C177 0 291 0 291 0 C390 0 415 -30 415 -88 C415 -170 366 -211 270 -211 C168 -211 116 -165 116 -75 C116 -38 129 -13 156 1 C156 1 156 1 156 1 L156 1 Z M135 3 C75 -15 45 -48 45 -95 C45 -185 119 -230 265 -230 C411 -230 485 -176 485 -68 C485 33 447 84 300 84 C300 84 182 84 182 84 C130 85 104 100 104 130 C104 169 155 188 255 188 C375 188 435 242 435 350 C435 371 433 390 428 407 C448 442 471 460 496 460 C506 460 511 450 511 430 C511 410 524 400 550 400 C573 400 585 413 585 440 C585 477 567 495 532 495 C484 495 447 472 421 426 C397 482 342 510 255 510 C135 510 75 456 75 350 C75 271 107 221 171 200 C94 188 55 156 55 105 C55 48 82 14 135 3 C135 3 135 3 135 3 L135 3 Z " />
<glyph glyph-name="h" unicode="h" horiz-adv-x="606" d="M37 693 C37 693 47 696 47 696 C80 705 96 704 96 630 C96 630 96 35 96 35 C96 21 80 20 47 20 C47 20 37 20 37 20 C37 20 37 0 37 0 C37 0 241 0 241 0 C241 0 241 20 241 20 C241 20 230 20 230 20 C198 20 181 21 181 35 C181 35 181 360 181 360 C216 420 265 450 328 450 C396 450 421 410 421 330 C421 330 421 35 421 35 C421 21 405 20 372 20 C372 20 361 20 361 20 C361 20 361 0 361 0 C361 0 566 0 566 0 C566 0 566 20 566 20 C566 20 555 20 555 20 C523 20 506 21 506 35 C506 35 506 330 506 330 C506 450 471 510 376 510 C295 510 230 468 181 385 C181 385 181 650 181 650 C181 650 181 750 181 750 C181 750 166 750 166 750 C166 750 37 713 37 713 C37 713 37 693 37 693 L37 693 Z " />
<glyph glyph-name="i" unicode="i" horiz-adv-x="281" d="M148 615 C185 615 203 633 203 670 C203 707 185 725 148 725 C111 725 93 707 93 670 C93 633 111 615 148 615 L148 615 Z M46 443 C46 443 56 446 56 446 C89 455 105 454 105 380 C105 380 105 35 105 35 C105 21 91 20 63 20 C63 20 53 20 53 20 C53 20 53 0 53 0 C53 0 243 0 243 0 C243 0 243 20 243 20 C243 20 232 20 232 20 C204 20 190 21 190 35 C190 35 190 400 190 400 C190 400 190 500 190 500 C190 500 175 500 175 500 C175 500 46 463 46 463 C46 463 46 443 46 443 L46 443 Z " />
<glyph glyph-name="j" unicode="j" horiz-adv-x="270" d="M138 615 C175 615 193 633 193 670 C193 707 175 725 138 725 C101 725 83 707 83 670 C83 633 101 615 138 615 L138 615 Z M36 443 C36 443 46 446 46 446 C79 455 95 454 95 380 C95 380 95 50 95 50 C95 -42 78 -99 44 -119 C8 -119 -24 -100 -60 -100 C-90 -100 -105 -113 -105 -140 C-105 -173 -85 -188 -45 -185 C-38 -184 -2 -166 60 -130 C140 -84 180 -24 180 50 C180 50 180 400 180 400 C180 400 180 500 180 500 C180 500 165 500 165 500 C165 500 36 463 36 463 C36 463 36 443 36 443 L36 443 Z " />
<glyph glyph-name="k" unicode="k" horiz-adv-x="582" d="M529 500 C529 500 509 500 509 500 C509 500 473 500 473 500 C473 500 343 500 343 500 C343 500 343 480 343 480 C343 480 361 480 361 480 C415 480 432 471 292 359 C292 359 190 280 190 280 C190 280 190 650 190 650 C190 650 190 750 190 750 C190 750 175 750 175 750 C175 750 46 713 46 713 C46 713 46 693 46 693 C46 693 56 696 56 696 C89 705 105 704 105 630 C105 630 105 35 105 35 C105 21 91 20 63 20 C63 20 53 20 53 20 C53 20 53 0 53 0 C53 0 243 0 243 0 C243 0 243 20 243 20 C243 20 232 20 232 20 C204 20 190 21 190 35 C190 35 190 280 190 280 C190 280 400 30 400 30 C406 21 398 20 383 20 C383 20 366 20 366 20 C366 20 366 0 366 0 C366 0 425 0 425 0 C425 0 535 0 535 0 C535 0 557 0 557 0 C557 0 557 20 557 20 C557 20 530 20 530 20 C523 20 518 21 506 35 C506 35 506 35 506 35 C506 35 272 316 272 316 C272 316 464 465 464 465 C464 465 464 465 464 465 C483 479 490 480 503 480 C503 480 529 480 529 480 C529 480 529 500 529 500 L529 500 Z " />
<glyph glyph-name="l" unicode="l" horiz-adv-x="271" d="M36 693 C36 693 46 696 46 696 C79 705 95 704 95 630 C95 630 95 35 95 35 C95 21 80 20 50 20 C50 20 39 20 39 20 C39 20 39 0 39 0 C39 0 237 0 237 0 C237 0 237 20 237 20 C237 20 226 20 226 20 C195 20 180 21 180 35 C180 35 180 650 180 650 C180 650 180 750 180 750 C180 750 165 750 165 750 C165 750 36 713 36 713 C36 713 36 693 36 693 L36 693 Z " />
<glyph glyph-name="m" unicode="m" horiz-adv-x="875" d="M647 0 C647 0 845 0 845 0 C845 0 845 20 845 20 C845 20 834 20 834 20 C801 20 785 22 785 55 C785 55 785 330 785 330 C785 450 757 510 648 510 C580 510 522 471 477 393 C466 471 431 510 342 510 C277 510 221 470 174 390 C174 390 174 400 174 400 C174 400 174 500 174 500 C174 500 159 500 159 500 C159 500 30 453 30 453 C30 453 30 433 30 433 C30 433 40 437 40 437 C73 448 89 449 89 375 C89 375 89 55 89 55 C89 22 73 20 40 20 C40 20 30 20 30 20 C30 20 30 0 30 0 C30 0 224 0 224 0 C224 0 224 20 224 20 C224 20 213 20 213 20 C187 20 174 22 174 55 C174 55 174 365 174 365 C206 419 251 447 307 447 C377 447 395 408 395 330 C395 330 395 55 395 55 C395 22 381 20 353 20 C353 20 342 20 342 20 C342 20 342 0 342 0 C342 0 525 0 525 0 C525 0 525 20 525 20 C525 20 515 20 515 20 C492 20 480 22 480 55 C480 55 480 330 480 330 C480 345 480 358 479 371 C510 421 554 447 613 447 C682 447 700 408 700 330 C700 330 700 55 700 55 C700 22 686 20 658 20 C658 20 647 20 647 20 C647 20 647 0 647 0 L647 0 Z " />
<glyph glyph-name="n" unicode="n" horiz-adv-x="570" d="M30 433 C30 433 40 437 40 437 C73 448 89 449 89 375 C89 375 89 35 89 35 C89 21 74 20 44 20 C44 20 33 20 33 20 C33 20 33 0 33 0 C33 0 231 0 231 0 C231 0 231 20 231 20 C231 20 220 20 220 20 C189 20 174 21 174 35 C174 35 174 360 174 360 C208 418 247 448 292 448 C367 448 395 408 395 330 C395 330 395 35 395 35 C395 21 380 20 349 20 C349 20 338 20 338 20 C338 20 338 0 338 0 C338 0 536 0 536 0 C536 0 536 20 536 20 C536 20 525 20 525 20 C495 20 480 21 480 35 C480 35 480 330 480 330 C480 450 443 510 342 510 C279 510 223 468 174 385 C174 385 174 400 174 400 C174 400 174 500 174 500 C174 500 159 500 159 500 C159 500 30 453 30 453 C30 453 30 433 30 433 L30 433 Z " />
<glyph glyph-name="o" unicode="o" horiz-adv-x="609" d="M302 16 C190 16 134 95 134 250 C134 405 190 484 302 484 C414 484 470 405 470 250 C470 95 414 16 302 16 L302 16 Z M41 250 C41 77 129 -10 302 -10 C476 -10 564 77 564 250 C564 423 476 510 302 510 C129 510 41 423 41 250 L41 250 Z " />
<glyph glyph-name="p" unicode="p" horiz-adv-x="592" d="M31 433 C31 433 41 437 41 437 C74 448 90 449 90 375 C90 375 90 -150 90 -150 C90 -197 74 -200 41 -200 C41 -200 31 -200 31 -200 C31 -200 31 -220 31 -220 C31 -220 235 -220 235 -220 C235 -220 235 -200 235 -200 C235 -200 224 -200 224 -200 C192 -200 175 -197 175 -150 C175 -150 175 46 175 46 C210 12 260 -5 324 -5 C473 -5 548 100 548 257 C548 425 473 510 324 510 C258 510 208 486 175 440 C175 440 175 500 175 500 C175 500 160 500 160 500 C160 500 31 453 31 453 C31 453 31 433 31 433 L31 433 Z M175 406 C206 451 243 475 285 475 C397 475 454 393 454 230 C454 101 408 15 316 15 C255 15 208 44 175 101 C175 101 175 400 175 400 C175 400 175 406 175 406 L175 406 Z " />
<glyph glyph-name="q" unicode="q" horiz-adv-x="606" d="M351 -220 C351 -220 555 -220 555 -220 C555 -220 555 -200 555 -200 C555 -200 544 -200 544 -200 C512 -200 495 -199 495 -185 C495 -185 495 500 495 500 C495 500 490 500 490 500 C490 500 462 440 462 440 C418 487 361 510 295 510 C112 510 44 423 44 251 C44 81 117 -5 262 -5 C324 -5 374 18 410 62 C410 62 410 -185 410 -185 C410 -199 394 -200 361 -200 C361 -200 351 -200 351 -200 C351 -200 351 -220 351 -220 L351 -220 Z M410 390 C410 390 410 91 410 91 C378 50 340 30 298 30 C188 30 132 112 132 275 C132 418 175 491 290 491 C335 491 375 457 410 390 C410 390 410 390 410 390 L410 390 Z " />
<glyph glyph-name="r" unicode="r" horiz-adv-x="430" d="M36 433 C36 433 46 437 46 437 C79 448 95 449 95 375 C95 375 95 35 95 35 C95 21 81 20 53 20 C53 20 43 20 43 20 C43 20 43 0 43 0 C43 0 240 0 240 0 C240 0 240 20 240 20 C240 20 229 20 229 20 C197 20 180 21 180 35 C180 35 180 357 180 357 C205 432 240 470 286 470 C309 470 320 458 320 435 C320 402 337 385 370 385 C403 385 420 402 420 435 C420 485 388 510 325 510 C254 510 206 473 180 401 C180 401 180 500 180 500 C180 500 165 500 165 500 C165 500 36 453 36 453 C36 453 36 433 36 433 L36 433 Z " />
<glyph glyph-name="s" unicode="s" horiz-adv-x="439" d="M364 369 C364 369 364 426 364 426 C364 426 364 507 364 507 C364 507 344 507 344 507 C344 507 344 486 344 486 C344 481 328 483 296 495 C273 505 247 510 216 510 C119 510 70 466 70 380 C70 297 108 245 210 218 C293 195 324 160 324 106 C324 42 292 10 229 10 C172 10 127 39 98 96 C93 110 91 124 91 138 C91 138 91 150 91 150 C91 150 71 150 71 150 C71 150 71 94 71 94 C71 94 71 34 71 34 C71 34 91 34 91 34 C91 34 91 49 91 49 C91 37 116 17 166 1 C185 -6 206 -10 229 -10 C336 -10 390 37 390 130 C390 206 352 254 248 282 C162 306 130 346 130 409 C130 463 159 490 216 490 C301 490 344 435 344 381 C344 381 344 369 344 369 C344 369 364 369 364 369 L364 369 Z " />
<glyph glyph-name="t" unicode="t" horiz-adv-x="378" d="M333 500 C333 500 180 500 180 500 C180 500 180 620 180 620 C180 620 174 620 174 620 C174 620 30 466 30 466 C30 466 30 456 30 456 C30 456 95 456 95 456 C95 456 95 160 95 160 C95 24 141 -10 232 -10 C296 -10 342 26 368 96 C368 96 358 100 358 100 C341 53 307 30 258 30 C204 30 177 52 178 141 C178 141 180 455 180 455 C180 455 333 455 333 455 C333 455 333 500 333 500 L333 500 Z " />
<glyph glyph-name="u" unicode="u" horiz-adv-x="557" d="M531 42 C491 34 472 25 472 107 C472 107 472 465 472 465 C472 465 472 500 472 500 C472 500 340 500 340 500 C340 500 340 480 340 480 C340 480 351 480 351 480 C375 480 387 479 387 465 C387 465 387 144 387 144 C360 81 317 49 258 49 C197 49 166 86 166 160 C166 160 166 465 166 465 C166 465 166 500 166 500 C166 500 35 500 35 500 C35 500 35 480 35 480 C35 480 46 480 46 480 C69 480 81 479 81 465 C81 465 81 160 81 160 C81 47 127 -10 219 -10 C295 -10 351 33 387 119 C387 119 387 90 387 90 C387 90 387 -10 387 -10 C387 -10 402 -10 402 -10 C402 -10 531 22 531 22 C531 22 531 42 531 42 L531 42 Z " />
<glyph glyph-name="v" unicode="v" horiz-adv-x="556" d="M514 500 C514 500 462 500 462 500 C462 500 423 500 423 500 C423 500 356 500 356 500 C356 500 356 480 356 480 C356 480 377 480 377 480 C403 480 415 478 406 450 C406 450 406 450 406 450 C406 450 289 104 289 104 C289 104 172 453 172 453 C172 453 172 453 172 453 C163 478 170 480 187 480 C187 480 209 480 209 480 C209 480 209 500 209 500 C209 500 156 500 156 500 C156 500 63 500 63 500 C63 500 22 500 22 500 C22 500 22 480 22 480 C22 480 47 480 47 480 C63 480 72 478 80 453 C80 453 80 453 80 453 C80 453 250 -10 250 -10 C250 -10 275 -10 275 -10 C275 -10 438 434 438 434 C438 434 438 434 438 434 C452 477 465 480 490 480 C490 480 514 480 514 480 C514 480 514 500 514 500 L514 500 Z " />
<glyph glyph-name="w" unicode="w" horiz-adv-x="831" d="M796 500 C796 500 744 500 744 500 C744 500 704 500 704 500 C704 500 638 500 638 500 C638 500 638 480 638 480 C638 480 659 480 659 480 C681 480 693 478 690 460 C690 460 523 -10 523 -10 C523 -10 548 -10 548 -10 C548 -10 719 434 719 434 C719 434 719 434 719 434 C734 477 747 480 772 480 C772 480 796 480 796 480 C796 480 796 500 796 500 L796 500 Z M481 500 C481 500 434 500 434 500 C434 500 339 500 339 500 C339 500 300 500 300 500 C300 500 300 480 300 480 C300 480 326 480 326 480 C338 480 345 479 351 468 C351 468 393 350 393 350 C393 350 393 350 393 350 C393 350 305 104 305 104 C305 104 183 460 183 460 C183 460 183 460 183 460 C176 479 182 480 194 480 C194 480 216 480 216 480 C216 480 216 500 216 500 C216 500 169 500 169 500 C169 500 74 500 74 500 C74 500 36 500 36 500 C36 500 36 480 36 480 C36 480 62 480 62 480 C74 480 81 479 87 464 C87 464 264 -10 264 -10 C264 -10 289 -10 289 -10 C289 -10 409 306 409 306 C409 306 523 -10 523 -10 C523 -10 563 103 563 103 C563 103 447 460 447 460 C447 460 447 460 447 460 C441 479 446 480 458 480 C458 480 481 480 481 480 C481 480 481 500 481 500 L481 500 Z " />
<glyph glyph-name="x" unicode="x" horiz-adv-x="588" d="M38 0 C38 0 76 0 76 0 C76 0 115 0 115 0 C115 0 186 0 186 0 C186 0 186 20 186 20 C186 20 166 20 166 20 C139 20 127 23 157 64 C157 64 156 64 156 64 C156 64 254 216 254 216 C254 216 361 52 361 52 C378 22 371 20 357 20 C357 20 338 20 338 20 C338 20 338 0 338 0 C338 0 394 0 394 0 C394 0 498 0 498 0 C498 0 531 0 531 0 C531 0 531 20 531 20 C531 20 505 20 505 20 C492 20 483 23 458 62 C458 62 458 62 458 62 C458 62 314 284 314 284 C314 284 438 458 438 458 C455 478 465 480 481 480 C481 480 506 480 506 480 C506 480 506 500 506 500 C506 500 468 500 468 500 C468 500 429 500 429 500 C429 500 366 500 366 500 C366 500 366 480 366 480 C366 480 385 480 385 480 C404 480 412 478 396 450 C396 450 301 304 301 304 C301 304 207 448 207 448 C190 478 197 480 211 480 C211 480 230 480 230 480 C230 480 230 500 230 500 C230 500 174 500 174 500 C174 500 70 500 70 500 C70 500 44 500 44 500 C44 500 44 480 44 480 C44 480 72 480 72 480 C79 480 85 478 105 445 C105 445 106 445 106 445 C106 445 243 234 243 234 C243 234 111 50 111 50 C90 22 79 20 63 20 C63 20 38 20 38 20 C38 20 38 0 38 0 L38 0 Z " />
<glyph glyph-name="y" unicode="y" horiz-adv-x="552" d="M526 500 C526 500 474 500 474 500 C474 500 435 500 435 500 C435 500 368 500 368 500 C368 500 368 480 368 480 C368 480 389 480 389 480 C415 480 427 478 417 450 C417 450 417 450 417 450 C417 450 296 103 296 103 C296 103 166 453 166 453 C166 453 166 453 166 453 C156 478 163 480 180 480 C180 480 201 480 201 480 C201 480 201 500 201 500 C201 500 148 500 148 500 C148 500 55 500 55 500 C55 500 14 500 14 500 C14 500 14 480 14 480 C14 480 40 480 40 480 C53 480 62 478 70 462 C70 462 256 -10 256 -10 C256 -10 211 -140 211 -140 C205 -157 195 -165 181 -165 C158 -165 155 -135 132 -135 C100 -135 84 -149 84 -177 C84 -212 101 -230 134 -230 C179 -230 210 -208 226 -163 C226 -163 281 -10 281 -10 C281 -10 454 446 454 446 C467 478 479 480 501 480 C501 480 526 480 526 480 C526 480 526 500 526 500 L526 500 Z " />
<glyph glyph-name="z" unicode="z" horiz-adv-x="475" d="M64 404 C64 404 76 404 76 404 C76 404 87 415 87 415 C123 450 148 469 204 473 C204 473 333 477 333 477 C333 477 40 20 40 20 C40 20 40 0 40 0 C40 0 130 0 130 0 C130 0 348 0 348 0 C348 0 430 0 430 0 C432 16 435 32 437 48 C437 48 443 96 443 96 C443 96 433 96 433 96 C433 96 422 85 422 85 C382 49 355 29 285 26 C285 26 276 26 276 26 C274 26 271 26 269 26 C269 26 269 26 269 26 C269 26 144 23 144 23 C144 23 435 480 435 480 C435 480 435 500 435 500 C435 500 348 500 348 500 C348 500 135 500 135 500 C123 500 112 506 115 519 C115 519 118 528 118 528 C118 528 98 528 98 528 C86 487 76 445 64 404 C64 404 64 404 64 404 L64 404 Z " />
<glyph glyph-name="bar" unicode="&#x7c;" horiz-adv-x="186" d="M60 800 C60 800 60 -250 60 -250 C60 -250 126 -250 126 -250 C126 -250 126 800 126 800 C126 800 60 800 60 800 L60 800 Z " />
<glyph glyph-name="exclamdown" unicode="&#xa1;" horiz-adv-x="244" d="M122 505 C82 505 62 485 62 445 C62 405 82 385 122 385 C162 385 182 405 182 445 C182 485 162 505 122 505 L122 505 Z M122 -255 C176 -255 181 -220 174 -150 C174 -150 130 290 130 290 C130 290 114 290 114 290 C114 290 70 -150 70 -150 C63 -220 68 -255 122 -255 L122 -255 Z " />
<glyph glyph-name="cent" unicode="&#xa2;" horiz-adv-x="500" d="M264 575 C264 575 264 509 264 509 C117 498 42 407 42 236 C42 77 116 -5 264 -10 C264 -10 264 -75 264 -75 C264 -75 294 -75 294 -75 C294 -75 294 -9 294 -9 C373 -4 432 42 470 128 C470 128 458 133 458 133 C432 73 381 42 308 42 C303 42 299 42 294 42 C294 42 294 491 294 491 C338 489 371 460 390 405 C401 377 415 363 433 363 C471 363 486 377 475 405 C450 475 389 510 294 510 C294 510 294 575 294 575 C294 575 264 575 264 575 L264 575 Z M264 46 C175 64 130 140 130 273 C130 406 175 478 264 490 C264 490 264 46 264 46 L264 46 Z " />
<glyph glyph-name="questiondown" unicode="&#xbf;" horiz-adv-x="299" d="M174 505 C135 505 114 485 114 445 C114 405 135 385 174 385 C214 385 234 405 234 445 C234 485 214 505 174 505 L174 505 Z M175 290 C175 290 174 140 174 140 C72 140 52 112 15 56 C-5 27 -15 -11 -15 -55 C-15 -191 42 -260 154 -260 C208 -260 234 -239 234 -197 C234 -169 219 -155 189 -155 C166 -155 146 -170 124 -170 C48 -170 10 -128 10 -45 C10 -28 18 -8 34 15 C53 45 64 60 202 60 C202 60 190 290 190 290 C190 290 175 290 175 290 L175 290 Z " />
<glyph glyph-name="Agrave" unicode="&#xc0;" horiz-adv-x="736" d="M466 0 C466 0 561 0 561 0 C561 0 660 0 660 0 C660 0 721 0 721 0 C721 0 721 20 721 20 C721 20 697 20 697 20 C668 20 650 28 616 140 C616 140 615 140 615 140 C615 140 431 720 431 720 C431 720 415 770 415 770 C415 770 405 770 405 770 C384 740 361 723 336 720 C336 720 339 710 339 710 C339 710 339 710 339 710 C339 710 161 170 161 170 C161 170 161 170 161 170 C161 168 160 167 160 165 C160 165 157 156 157 156 C114 29 86 20 39 20 C39 20 17 20 17 20 C17 20 17 0 17 0 C17 0 105 0 105 0 C105 0 134 0 134 0 C134 0 250 0 250 0 C250 0 250 20 250 20 C250 20 229 20 229 20 C175 20 148 28 176 133 C176 133 222 279 222 279 C222 279 474 279 474 279 C474 279 517 140 517 140 C517 140 517 140 517 140 C552 28 532 20 487 20 C487 20 466 20 466 20 C466 20 466 0 466 0 L466 0 Z M283 971 C249 1016 230 1038 222 1038 C197 1038 180 1021 180 996 C180 987 201 967 244 932 C244 932 386 812 386 812 C386 812 397 823 397 823 C397 823 283 971 283 971 L283 971 Z M230 304 C230 304 349 680 349 680 C349 680 466 304 466 304 C466 304 230 304 230 304 L230 304 Z " />
<glyph glyph-name="Aacute" unicode="&#xc1;" horiz-adv-x="736" d="M391 812 C391 812 533 932 533 932 C576 969 597 989 597 996 C597 1021 580 1038 555 1038 C549 1038 529 1016 495 971 C495 971 381 823 381 823 C381 823 391 812 391 812 L391 812 Z M466 0 C466 0 561 0 561 0 C561 0 660 0 660 0 C660 0 721 0 721 0 C721 0 721 20 721 20 C721 20 697 20 697 20 C668 20 650 28 616 140 C616 140 615 140 615 140 C615 140 431 720 431 720 C431 720 415 770 415 770 C415 770 405 770 405 770 C384 740 361 723 336 720 C336 720 339 710 339 710 C339 710 339 710 339 710 C339 710 161 170 161 170 C161 170 161 170 161 170 C161 168 160 167 160 165 C160 165 157 156 157 156 C114 29 86 20 39 20 C39 20 17 20 17 20 C17 20 17 0 17 0 C17 0 105 0 105 0 C105 0 134 0 134 0 C134 0 250 0 250 0 C250 0 250 20 250 20 C250 20 229 20 229 20 C175 20 148 28 176 133 C176 133 222 279 222 279 C222 279 474 279 474 279 C474 279 517 140 517 140 C517 140 517 140 517 140 C552 28 532 20 487 20 C487 20 466 20 466 20 C466 20 466 0 466 0 L466 0 Z M230 304 C230 304 349 680 349 680 C349 680 466 304 466 304 C466 304 230 304 230 304 L230 304 Z " />
<glyph glyph-name="Acircumflex" unicode="&#xc2;" horiz-adv-x="736" d="M466 0 C466 0 561 0 561 0 C561 0 660 0 660 0 C660 0 721 0 721 0 C721 0 721 20 721 20 C721 20 697 20 697 20 C668 20 650 28 616 140 C616 140 615 140 615 140 C615 140 431 720 431 720 C431 720 415 770 415 770 C415 770 405 770 405 770 C384 740 361 723 336 720 C336 720 339 710 339 710 C339 710 339 710 339 710 C339 710 161 170 161 170 C161 170 161 170 161 170 C161 168 160 167 160 165 C160 165 157 156 157 156 C114 29 86 20 39 20 C39 20 17 20 17 20 C17 20 17 0 17 0 C17 0 105 0 105 0 C105 0 134 0 134 0 C134 0 250 0 250 0 C250 0 250 20 250 20 C250 20 229 20 229 20 C175 20 148 28 176 133 C176 133 222 279 222 279 C222 279 474 279 474 279 C474 279 517 140 517 140 C517 140 517 140 517 140 C552 28 532 20 487 20 C487 20 466 20 466 20 C466 20 466 0 466 0 L466 0 Z M384 945 C384 945 524 806 524 806 C524 806 536 816 536 816 C536 816 414 1005 414 1005 C407 1015 394 1035 384 1035 C373 1035 360 1015 354 1005 C354 1005 232 816 232 816 C232 816 243 806 243 806 C243 806 384 945 384 945 L384 945 Z M230 304 C230 304 349 680 349 680 C349 680 466 304 466 304 C466 304 230 304 230 304 L230 304 Z " />
<glyph glyph-name="Atilde" unicode="&#xc3;" horiz-adv-x="736" d="M243 870 C243 910 257 930 285 930 C351 930 392 865 458 865 C512 865 539 905 539 985 C539 985 524 985 524 985 C524 945 508 925 478 925 C412 925 370 990 304 990 C254 990 228 950 228 870 C228 870 243 870 243 870 L243 870 Z M466 0 C466 0 561 0 561 0 C561 0 660 0 660 0 C660 0 721 0 721 0 C721 0 721 20 721 20 C721 20 697 20 697 20 C668 20 650 28 616 140 C616 140 615 140 615 140 C615 140 431 720 431 720 C431 720 415 770 415 770 C415 770 405 770 405 770 C384 740 361 723 336 720 C336 720 339 710 339 710 C339 710 339 710 339 710 C339 710 161 170 161 170 C161 170 161 170 161 170 C161 168 160 167 160 165 C160 165 157 156 157 156 C114 29 86 20 39 20 C39 20 17 20 17 20 C17 20 17 0 17 0 C17 0 105 0 105 0 C105 0 134 0 134 0 C134 0 250 0 250 0 C250 0 250 20 250 20 C250 20 229 20 229 20 C175 20 148 28 176 133 C176 133 222 279 222 279 C222 279 474 279 474 279 C474 279 517 140 517 140 C517 140 517 140 517 140 C552 28 532 20 487 20 C487 20 466 20 466 20 C466 20 466 0 466 0 L466 0 Z M230 304 C230 304 349 680 349 680 C349 680 466 304 466 304 C466 304 230 304 230 304 L230 304 Z " />
<glyph glyph-name="Adieresis" unicode="&#xc4;" horiz-adv-x="736" d="M459 865 C495 865 514 883 514 920 C514 957 495 975 459 975 C422 975 404 957 404 920 C404 883 422 865 459 865 L459 865 Z M309 865 C345 865 364 883 364 920 C364 957 345 975 309 975 C272 975 254 957 254 920 C254 883 272 865 309 865 L309 865 Z M466 0 C466 0 561 0 561 0 C561 0 660 0 660 0 C660 0 721 0 721 0 C721 0 721 20 721 20 C721 20 697 20 697 20 C668 20 650 28 616 140 C616 140 615 140 615 140 C615 140 431 720 431 720 C431 720 415 770 415 770 C415 770 405 770 405 770 C384 740 361 723 336 720 C336 720 339 710 339 710 C339 710 339 710 339 710 C339 710 161 170 161 170 C161 170 161 170 161 170 C161 168 160 167 160 165 C160 165 157 156 157 156 C114 29 86 20 39 20 C39 20 17 20 17 20 C17 20 17 0 17 0 C17 0 105 0 105 0 C105 0 134 0 134 0 C134 0 250 0 250 0 C250 0 250 20 250 20 C250 20 229 20 229 20 C175 20 148 28 176 133 C176 133 222 279 222 279 C222 279 474 279 474 279 C474 279 517 140 517 140 C517 140 517 140 517 140 C552 28 532 20 487 20 C487 20 466 20 466 20 C466 20 466 0 466 0 L466 0 Z M230 304 C230 304 349 680 349 680 C349 680 466 304 466 304 C466 304 230 304 230 304 L230 304 Z " />
<glyph glyph-name="Aring" unicode="&#xc5;" horiz-adv-x="736" d="M384 830 C340 830 311 860 311 905 C311 955 335 980 384 980 C432 980 456 955 456 905 C456 860 427 830 384 830 L384 830 Z M286 905 C286 848 325 810 384 810 C442 810 481 848 481 905 C481 968 448 1000 384 1000 C319 1000 286 968 286 905 L286 905 Z M466 0 C466 0 561 0 561 0 C561 0 660 0 660 0 C660 0 721 0 721 0 C721 0 721 20 721 20 C721 20 697 20 697 20 C668 20 650 28 616 140 C616 140 615 140 615 140 C615 140 431 720 431 720 C431 720 415 770 415 770 C415 770 405 770 405 770 C384 740 361 723 336 720 C336 720 339 710 339 710 C339 710 339 710 339 710 C339 710 161 170 161 170 C161 170 161 170 161 170 C161 168 160 167 160 165 C160 165 157 156 157 156 C114 29 86 20 39 20 C39 20 17 20 17 20 C17 20 17 0 17 0 C17 0 105 0 105 0 C105 0 134 0 134 0 C134 0 250 0 250 0 C250 0 250 20 250 20 C250 20 229 20 229 20 C175 20 148 28 176 133 C176 133 222 279 222 279 C222 279 474 279 474 279 C474 279 517 140 517 140 C517 140 517 140 517 140 C552 28 532 20 487 20 C487 20 466 20 466 20 C466 20 466 0 466 0 L466 0 Z M230 304 C230 304 349 680 349 680 C349 680 466 304 466 304 C466 304 230 304 230 304 L230 304 Z " />
<glyph glyph-name="Egrave" unicode="&#xc8;" horiz-adv-x="619" d="M539 642 C539 642 536 696 536 696 C534 714 533 732 532 750 C532 750 412 750 412 750 C412 750 222 750 222 750 C222 750 127 750 127 750 C127 750 53 750 53 750 C53 750 53 730 53 730 C53 730 64 730 64 730 C106 730 127 725 127 665 C127 665 127 85 127 85 C127 25 106 20 64 20 C64 20 53 20 53 20 C53 20 53 0 53 0 C53 0 127 0 127 0 C127 0 222 0 222 0 C222 0 437 0 437 0 C437 0 557 0 557 0 C561 36 568 72 572 108 C572 108 552 108 552 108 C552 108 551 97 551 97 C543 46 533 20 440 20 C440 20 302 20 302 20 C222 20 222 40 222 80 C222 80 222 85 222 85 C222 85 222 385 222 385 C222 385 352 385 352 385 C445 385 452 356 452 297 C452 297 452 287 452 287 C452 287 472 287 472 287 C472 287 472 385 472 385 C472 385 472 408 472 408 C472 408 472 506 472 506 C472 506 452 506 452 506 C452 506 452 495 452 495 C452 437 445 408 352 408 C352 408 222 408 222 408 C222 408 222 665 222 665 C222 665 222 730 222 730 C222 730 413 730 413 730 C525 730 515 704 519 651 C519 651 519 642 519 642 C519 642 539 642 539 642 L539 642 Z M229 971 C195 1016 176 1038 168 1038 C143 1038 126 1021 126 996 C126 987 147 967 190 932 C190 932 332 812 332 812 C332 812 342 823 342 823 C342 823 229 971 229 971 L229 971 Z " />
<glyph glyph-name="Eacute" unicode="&#xc9;" horiz-adv-x="619" d="M337 812 C337 812 479 932 479 932 C522 969 543 989 543 996 C543 1021 526 1038 501 1038 C495 1038 475 1016 440 971 C440 971 326 823 326 823 C326 823 337 812 337 812 L337 812 Z M539 642 C539 642 536 696 536 696 C534 714 533 732 532 750 C532 750 412 750 412 750 C412 750 222 750 222 750 C222 750 127 750 127 750 C127 750 53 750 53 750 C53 750 53 730 53 730 C53 730 64 730 64 730 C106 730 127 725 127 665 C127 665 127 85 127 85 C127 25 106 20 64 20 C64 20 53 20 53 20 C53 20 53 0 53 0 C53 0 127 0 127 0 C127 0 222 0 222 0 C222 0 437 0 437 0 C437 0 557 0 557 0 C561 36 568 72 572 108 C572 108 552 108 552 108 C552 108 551 97 551 97 C543 46 533 20 440 20 C440 20 302 20 302 20 C222 20 222 40 222 80 C222 80 222 85 222 85 C222 85 222 385 222 385 C222 385 352 385 352 385 C445 385 452 356 452 297 C452 297 452 287 452 287 C452 287 472 287 472 287 C472 287 472 385 472 385 C472 385 472 408 472 408 C472 408 472 506 472 506 C472 506 452 506 452 506 C452 506 452 495 452 495 C452 437 445 408 352 408 C352 408 222 408 222 408 C222 408 222 665 222 665 C222 665 222 730 222 730 C222 730 413 730 413 730 C525 730 515 704 519 651 C519 651 519 642 519 642 C519 642 539 642 539 642 L539 642 Z " />
<glyph glyph-name="Ecircumflex" unicode="&#xca;" horiz-adv-x="619" d="M539 642 C539 642 536 696 536 696 C534 714 533 732 532 750 C532 750 412 750 412 750 C412 750 222 750 222 750 C222 750 127 750 127 750 C127 750 53 750 53 750 C53 750 53 730 53 730 C53 730 64 730 64 730 C106 730 127 725 127 665 C127 665 127 85 127 85 C127 25 106 20 64 20 C64 20 53 20 53 20 C53 20 53 0 53 0 C53 0 127 0 127 0 C127 0 222 0 222 0 C222 0 437 0 437 0 C437 0 557 0 557 0 C561 36 568 72 572 108 C572 108 552 108 552 108 C552 108 551 97 551 97 C543 46 533 20 440 20 C440 20 302 20 302 20 C222 20 222 40 222 80 C222 80 222 85 222 85 C222 85 222 385 222 385 C222 385 352 385 352 385 C445 385 452 356 452 297 C452 297 452 287 452 287 C452 287 472 287 472 287 C472 287 472 385 472 385 C472 385 472 408 472 408 C472 408 472 506 472 506 C472 506 452 506 452 506 C452 506 452 495 452 495 C452 437 445 408 352 408 C352 408 222 408 222 408 C222 408 222 665 222 665 C222 665 222 730 222 730 C222 730 413 730 413 730 C525 730 515 704 519 651 C519 651 519 642 519 642 C519 642 539 642 539 642 L539 642 Z M329 945 C329 945 470 806 470 806 C470 806 481 816 481 816 C481 816 360 1005 360 1005 C353 1015 340 1035 329 1035 C319 1035 306 1015 300 1005 C300 1005 178 816 178 816 C178 816 189 806 189 806 C189 806 329 945 329 945 L329 945 Z " />
<glyph glyph-name="Edieresis" unicode="&#xcb;" horiz-adv-x="619" d="M404 865 C441 865 459 883 459 920 C459 957 441 975 404 975 C368 975 349 957 349 920 C349 883 368 865 404 865 L404 865 Z M254 865 C291 865 309 883 309 920 C309 957 291 975 254 975 C218 975 199 957 199 920 C199 883 218 865 254 865 L254 865 Z M539 642 C539 642 536 696 536 696 C534 714 533 732 532 750 C532 750 412 750 412 750 C412 750 222 750 222 750 C222 750 127 750 127 750 C127 750 53 750 53 750 C53 750 53 730 53 730 C53 730 64 730 64 730 C106 730 127 725 127 665 C127 665 127 85 127 85 C127 25 106 20 64 20 C64 20 53 20 53 20 C53 20 53 0 53 0 C53 0 127 0 127 0 C127 0 222 0 222 0 C222 0 437 0 437 0 C437 0 557 0 557 0 C561 36 568 72 572 108 C572 108 552 108 552 108 C552 108 551 97 551 97 C543 46 533 20 440 20 C440 20 302 20 302 20 C222 20 222 40 222 80 C222 80 222 85 222 85 C222 85 222 385 222 385 C222 385 352 385 352 385 C445 385 452 356 452 297 C452 297 452 287 452 287 C452 287 472 287 472 287 C472 287 472 385 472 385 C472 385 472 408 472 408 C472 408 472 506 472 506 C472 506 452 506 452 506 C452 506 452 495 452 495 C452 437 445 408 352 408 C352 408 222 408 222 408 C222 408 222 665 222 665 C222 665 222 730 222 730 C222 730 413 730 413 730 C525 730 515 704 519 651 C519 651 519 642 519 642 C519 642 539 642 539 642 L539 642 Z " />
<glyph glyph-name="Igrave" unicode="&#xcc;" horiz-adv-x="343" d="M292 750 C292 750 49 750 49 750 C49 750 49 730 49 730 C49 730 60 730 60 730 C102 730 123 726 123 670 C123 670 123 80 123 80 C123 24 102 20 60 20 C60 20 49 20 49 20 C49 20 49 0 49 0 C49 0 292 0 292 0 C292 0 292 20 292 20 C292 20 281 20 281 20 C239 20 218 24 218 80 C218 80 218 670 218 670 C218 726 239 730 281 730 C281 730 292 730 292 730 C292 730 292 750 292 750 L292 750 Z M70 971 C36 1016 17 1038 9 1038 C-16 1038 -33 1021 -33 996 C-33 987 -12 967 31 932 C31 932 173 812 173 812 C173 812 184 823 184 823 C184 823 70 971 70 971 L70 971 Z " />
<glyph glyph-name="Iacute" unicode="&#xcd;" horiz-adv-x="343" d="M178 812 C178 812 320 932 320 932 C363 969 384 989 384 996 C384 1021 367 1038 342 1038 C336 1038 316 1016 282 971 C282 971 168 823 168 823 C168 823 178 812 178 812 L178 812 Z M292 750 C292 750 49 750 49 750 C49 750 49 730 49 730 C49 730 60 730 60 730 C102 730 123 726 123 670 C123 670 123 80 123 80 C123 24 102 20 60 20 C60 20 49 20 49 20 C49 20 49 0 49 0 C49 0 292 0 292 0 C292 0 292 20 292 20 C292 20 281 20 281 20 C239 20 218 24 218 80 C218 80 218 670 218 670 C218 726 239 730 281 730 C281 730 292 730 292 730 C292 730 292 750 292 750 L292 750 Z " />
<glyph glyph-name="Icircumflex" unicode="&#xce;" horiz-adv-x="343" d="M292 750 C292 750 49 750 49 750 C49 750 49 730 49 730 C49 730 60 730 60 730 C102 730 123 726 123 670 C123 670 123 80 123 80 C123 24 102 20 60 20 C60 20 49 20 49 20 C49 20 49 0 49 0 C49 0 292 0 292 0 C292 0 292 20 292 20 C292 20 281 20 281 20 C239 20 218 24 218 80 C218 80 218 670 218 670 C218 726 239 730 281 730 C281 730 292 730 292 730 C292 730 292 750 292 750 L292 750 Z M171 945 C171 945 311 806 311 806 C311 806 323 816 323 816 C323 816 201 1005 201 1005 C194 1015 181 1035 171 1035 C160 1035 147 1015 141 1005 C141 1005 19 816 19 816 C19 816 30 806 30 806 C30 806 171 945 171 945 L171 945 Z " />
<glyph glyph-name="Idieresis" unicode="&#xcf;" horiz-adv-x="343" d="M246 865 C282 865 301 883 301 920 C301 957 282 975 246 975 C209 975 191 957 191 920 C191 883 209 865 246 865 L246 865 Z M96 865 C132 865 151 883 151 920 C151 957 132 975 96 975 C59 975 41 957 41 920 C41 883 59 865 96 865 L96 865 Z M292 750 C292 750 49 750 49 750 C49 750 49 730 49 730 C49 730 60 730 60 730 C102 730 123 726 123 670 C123 670 123 80 123 80 C123 24 102 20 60 20 C60 20 49 20 49 20 C49 20 49 0 49 0 C49 0 292 0 292 0 C292 0 292 20 292 20 C292 20 281 20 281 20 C239 20 218 24 218 80 C218 80 218 670 218 670 C218 726 239 730 281 730 C281 730 292 730 292 730 C292 730 292 750 292 750 L292 750 Z " />
<glyph glyph-name="Ntilde" unicode="&#xd1;" horiz-adv-x="744" d="M228 870 C228 910 242 930 270 930 C335 930 377 865 443 865 C497 865 524 905 524 985 C524 985 509 985 509 985 C509 945 493 925 462 925 C397 925 355 990 289 990 C239 990 213 950 213 870 C213 870 228 870 228 870 L228 870 Z M17 730 C17 730 43 730 43 730 C55 730 63 728 83 702 C83 702 120 651 120 651 C120 651 119 150 119 150 C119 150 119 150 119 150 C119 29 97 20 54 20 C54 20 31 20 31 20 C31 20 31 0 31 0 C31 0 119 0 119 0 C119 0 147 0 147 0 C147 0 235 0 235 0 C235 0 235 20 235 20 C235 20 212 20 212 20 C171 20 149 27 146 116 C146 116 144 618 144 618 C144 618 494 135 494 135 C494 135 592 0 592 0 C592 0 611 0 611 0 C611 0 617 630 617 630 C617 630 617 630 617 630 C617 723 643 730 694 730 C694 730 705 730 705 730 C705 730 705 750 705 750 C705 750 618 750 618 750 C618 750 590 750 590 750 C590 750 502 750 502 750 C502 750 502 730 502 730 C502 730 513 730 513 730 C564 730 590 723 590 630 C590 630 590 630 590 630 C590 630 592 163 592 163 C592 163 572 190 572 190 C572 190 166 750 166 750 C166 750 143 750 143 750 C143 750 120 750 120 750 C120 750 48 750 48 750 C48 750 17 750 17 750 C17 750 17 730 17 730 L17 730 Z " />
<glyph glyph-name="Ograve" unicode="&#xd2;" horiz-adv-x="850" d="M413 15 C244 15 159 136 159 375 C159 614 244 735 413 735 C595 735 687 614 687 375 C687 136 595 15 413 15 L413 15 Z M50 375 C50 119 170 -10 408 -10 C666 -10 796 119 796 375 C796 631 669 760 418 760 C173 760 50 631 50 375 L50 375 Z M317 971 C284 1016 265 1038 256 1038 C231 1038 214 1021 214 996 C214 987 235 967 278 932 C278 932 420 812 420 812 C420 812 431 823 431 823 C431 823 317 971 317 971 L317 971 Z " />
<glyph glyph-name="Oacute" unicode="&#xd3;" horiz-adv-x="850" d="M425 812 C425 812 567 932 567 932 C610 969 632 989 632 996 C632 1021 615 1038 589 1038 C583 1038 563 1016 529 971 C529 971 415 823 415 823 C415 823 425 812 425 812 L425 812 Z M413 15 C244 15 159 136 159 375 C159 614 244 735 413 735 C595 735 687 614 687 375 C687 136 595 15 413 15 L413 15 Z M50 375 C50 119 170 -10 408 -10 C666 -10 796 119 796 375 C796 631 669 760 418 760 C173 760 50 631 50 375 L50 375 Z " />
<glyph glyph-name="Ocircumflex" unicode="&#xd4;" horiz-adv-x="850" d="M413 15 C244 15 159 136 159 375 C159 614 244 735 413 735 C595 735 687 614 687 375 C687 136 595 15 413 15 L413 15 Z M50 375 C50 119 170 -10 408 -10 C666 -10 796 119 796 375 C796 631 669 760 418 760 C173 760 50 631 50 375 L50 375 Z M418 945 C418 945 558 806 558 806 C558 806 570 816 570 816 C570 816 448 1005 448 1005 C441 1015 428 1035 418 1035 C407 1035 394 1015 388 1005 C388 1005 266 816 266 816 C266 816 277 806 277 806 C277 806 418 945 418 945 L418 945 Z " />
<glyph glyph-name="Otilde" unicode="&#xd5;" horiz-adv-x="850" d="M278 870 C278 910 292 930 319 930 C385 930 426 865 492 865 C546 865 573 905 573 985 C573 985 558 985 558 985 C558 945 542 925 512 925 C446 925 404 990 338 990 C288 990 263 950 263 870 C263 870 278 870 278 870 L278 870 Z M413 15 C244 15 159 136 159 375 C159 614 244 735 413 735 C595 735 687 614 687 375 C687 136 595 15 413 15 L413 15 Z M50 375 C50 119 170 -10 408 -10 C666 -10 796 119 796 375 C796 631 669 760 418 760 C173 760 50 631 50 375 L50 375 Z " />
<glyph glyph-name="Odieresis" unicode="&#xd6;" horiz-adv-x="850" d="M493 865 C529 865 548 883 548 920 C548 957 529 975 493 975 C456 975 438 957 438 920 C438 883 456 865 493 865 L493 865 Z M343 865 C379 865 398 883 398 920 C398 957 379 975 343 975 C306 975 288 957 288 920 C288 883 306 865 343 865 L343 865 Z M413 15 C244 15 159 136 159 375 C159 614 244 735 413 735 C595 735 687 614 687 375 C687 136 595 15 413 15 L413 15 Z M50 375 C50 119 170 -10 408 -10 C666 -10 796 119 796 375 C796 631 669 760 418 760 C173 760 50 631 50 375 L50 375 Z " />
<glyph glyph-name="Oslash" unicode="&#xd8;" horiz-adv-x="850" d="M65 -25 C65 -25 157 70 157 70 C216 17 300 -10 408 -10 C666 -10 796 119 796 375 C796 492 769 583 716 647 C716 647 811 745 811 745 C811 745 780 775 780 775 C780 775 686 678 686 678 C623 733 534 760 418 760 C173 760 50 631 50 375 C50 256 76 165 127 101 C127 101 34 5 34 5 C34 5 65 -25 65 -25 L65 -25 Z M413 15 C320 15 252 52 210 125 C210 125 653 582 653 582 C676 528 687 459 687 375 C687 136 595 15 413 15 L413 15 Z M191 167 C170 221 159 291 159 375 C159 614 244 735 413 735 C514 735 588 698 633 623 C633 623 191 167 191 167 L191 167 Z " />
<glyph glyph-name="Ugrave" unicode="&#xd9;" horiz-adv-x="713" d="M449 730 C449 730 460 730 460 730 C502 730 523 725 523 665 C523 665 523 188 523 188 C481 97 409 51 309 51 C228 51 187 108 187 220 C187 220 187 665 187 665 C187 665 187 750 187 750 C187 750 18 750 18 750 C18 750 18 730 18 730 C18 730 29 730 29 730 C71 730 92 725 92 665 C92 665 92 220 92 220 C92 67 152 -10 271 -10 C391 -10 475 42 523 145 C523 145 523 110 523 110 C523 110 523 0 523 0 C523 0 538 0 538 0 C538 0 691 55 691 55 C691 55 691 65 691 65 C623 61 618 63 618 110 C618 110 618 665 618 665 C618 665 618 750 618 750 C618 750 449 750 449 750 C449 750 449 730 449 730 L449 730 Z M254 971 C221 1016 202 1038 194 1038 C168 1038 151 1021 151 996 C151 987 173 967 215 932 C215 932 357 812 357 812 C357 812 368 823 368 823 C368 823 254 971 254 971 L254 971 Z " />
<glyph glyph-name="Uacute" unicode="&#xda;" horiz-adv-x="713" d="M363 812 C363 812 505 932 505 932 C547 969 569 989 569 996 C569 1021 552 1038 526 1038 C520 1038 501 1016 466 971 C466 971 352 823 352 823 C352 823 363 812 363 812 L363 812 Z M449 730 C449 730 460 730 460 730 C502 730 523 725 523 665 C523 665 523 188 523 188 C481 97 409 51 309 51 C228 51 187 108 187 220 C187 220 187 665 187 665 C187 665 187 750 187 750 C187 750 18 750 18 750 C18 750 18 730 18 730 C18 730 29 730 29 730 C71 730 92 725 92 665 C92 665 92 220 92 220 C92 67 152 -10 271 -10 C391 -10 475 42 523 145 C523 145 523 110 523 110 C523 110 523 0 523 0 C523 0 538 0 538 0 C538 0 691 55 691 55 C691 55 691 65 691 65 C623 61 618 63 618 110 C618 110 618 665 618 665 C618 665 618 750 618 750 C618 750 449 750 449 750 C449 750 449 730 449 730 L449 730 Z " />
<glyph glyph-name="Ucircumflex" unicode="&#xdb;" horiz-adv-x="713" d="M449 730 C449 730 460 730 460 730 C502 730 523 725 523 665 C523 665 523 188 523 188 C481 97 409 51 309 51 C228 51 187 108 187 220 C187 220 187 665 187 665 C187 665 187 750 187 750 C187 750 18 750 18 750 C18 750 18 730 18 730 C18 730 29 730 29 730 C71 730 92 725 92 665 C92 665 92 220 92 220 C92 67 152 -10 271 -10 C391 -10 475 42 523 145 C523 145 523 110 523 110 C523 110 523 0 523 0 C523 0 538 0 538 0 C538 0 691 55 691 55 C691 55 691 65 691 65 C623 61 618 63 618 110 C618 110 618 665 618 665 C618 665 618 750 618 750 C618 750 449 750 449 750 C449 750 449 730 449 730 L449 730 Z M355 945 C355 945 495 806 495 806 C495 806 507 816 507 816 C507 816 385 1005 385 1005 C378 1015 365 1035 355 1035 C345 1035 332 1015 325 1005 C325 1005 203 816 203 816 C203 816 215 806 215 806 C215 806 355 945 355 945 L355 945 Z " />
<glyph glyph-name="Udieresis" unicode="&#xdc;" horiz-adv-x="713" d="M430 865 C467 865 485 883 485 920 C485 957 467 975 430 975 C393 975 375 957 375 920 C375 883 393 865 430 865 L430 865 Z M280 865 C317 865 335 883 335 920 C335 957 317 975 280 975 C243 975 225 957 225 920 C225 883 243 865 280 865 L280 865 Z M449 730 C449 730 460 730 460 730 C502 730 523 725 523 665 C523 665 523 188 523 188 C481 97 409 51 309 51 C228 51 187 108 187 220 C187 220 187 665 187 665 C187 665 187 750 187 750 C187 750 18 750 18 750 C18 750 18 730 18 730 C18 730 29 730 29 730 C71 730 92 725 92 665 C92 665 92 220 92 220 C92 67 152 -10 271 -10 C391 -10 475 42 523 145 C523 145 523 110 523 110 C523 110 523 0 523 0 C523 0 538 0 538 0 C538 0 691 55 691 55 C691 55 691 65 691 65 C623 61 618 63 618 110 C618 110 618 665 618 665 C618 665 618 750 618 750 C618 750 449 750 449 750 C449 750 449 730 449 730 L449 730 Z " />
<glyph glyph-name="Yacute" unicode="&#xdd;" horiz-adv-x="718" d="M374 812 C374 812 516 932 516 932 C559 969 580 989 580 996 C580 1021 563 1038 538 1038 C532 1038 512 1016 477 971 C477 971 364 823 364 823 C364 823 374 812 374 812 L374 812 Z M234 750 C234 750 160 750 160 750 C160 750 48 750 48 750 C48 750 15 750 15 750 C15 750 15 730 15 730 C15 730 41 730 41 730 C54 730 65 722 136 610 C136 610 137 610 137 610 C137 610 319 322 319 322 C319 322 319 80 319 80 C319 24 298 20 256 20 C256 20 245 20 245 20 C245 20 245 0 245 0 C245 0 488 0 488 0 C488 0 488 20 488 20 C488 20 477 20 477 20 C435 20 414 24 414 80 C414 80 414 325 414 325 C414 325 587 640 587 640 C634 723 650 730 672 730 C672 730 696 730 696 730 C696 730 696 750 696 750 C696 750 647 750 647 750 C647 750 600 750 600 750 C600 750 526 750 526 750 C526 750 526 730 526 730 C526 730 546 730 546 730 C570 730 584 726 566 682 C566 682 538 625 538 625 C537 624 536 622 535 620 C535 620 535 620 535 620 C535 620 404 356 404 356 C404 356 247 610 247 610 C247 610 247 610 247 610 C243 616 240 622 236 627 C236 627 228 640 228 640 C177 723 188 730 214 730 C214 730 234 730 234 730 C234 730 234 750 234 750 L234 750 Z " />
<glyph glyph-name="agrave" unicode="&#xe0;" horiz-adv-x="513" d="M523 102 C523 102 509 109 509 109 C503 74 485 56 454 56 C418 56 400 71 400 102 C400 102 400 355 400 355 C400 473 353 510 259 510 C130 510 65 420 65 360 C65 320 81 300 114 300 C143 300 158 323 158 343 C158 365 138 380 138 403 C138 435 168 484 228 484 C286 484 315 461 315 386 C315 386 315 275 315 275 C73 201 45 191 45 88 C45 23 83 -10 158 -10 C218 -10 263 8 316 79 C323 23 358 -5 419 -5 C476 -5 511 31 523 102 L523 102 Z M158 721 C125 766 106 788 98 788 C72 788 55 771 55 746 C55 737 77 717 119 682 C119 682 261 562 261 562 C261 562 272 573 272 573 C272 573 158 721 158 721 L158 721 Z M315 255 C315 255 315 102 315 102 C315 101 315 101 315 100 C277 49 245 35 203 35 C154 35 130 56 130 97 C130 196 149 204 315 255 L315 255 Z " />
<glyph glyph-name="aacute" unicode="&#xe1;" horiz-adv-x="513" d="M267 562 C267 562 409 682 409 682 C451 719 473 739 473 746 C473 771 456 788 430 788 C424 788 405 766 370 721 C370 721 256 573 256 573 C256 573 267 562 267 562 L267 562 Z M523 102 C523 102 509 109 509 109 C503 74 485 56 454 56 C418 56 400 71 400 102 C400 102 400 355 400 355 C400 473 353 510 259 510 C130 510 65 420 65 360 C65 320 81 300 114 300 C143 300 158 323 158 343 C158 365 138 380 138 403 C138 435 168 484 228 484 C286 484 315 461 315 386 C315 386 315 275 315 275 C73 201 45 191 45 88 C45 23 83 -10 158 -10 C218 -10 263 8 316 79 C323 23 358 -5 419 -5 C476 -5 511 31 523 102 L523 102 Z M315 255 C315 255 315 102 315 102 C315 101 315 101 315 100 C277 49 245 35 203 35 C154 35 130 56 130 97 C130 196 149 204 315 255 L315 255 Z " />
<glyph glyph-name="acircumflex" unicode="&#xe2;" horiz-adv-x="513" d="M523 102 C523 102 509 109 509 109 C503 74 485 56 454 56 C418 56 400 71 400 102 C400 102 400 355 400 355 C400 473 353 510 259 510 C130 510 65 420 65 360 C65 320 81 300 114 300 C143 300 158 323 158 343 C158 365 138 380 138 403 C138 435 168 484 228 484 C286 484 315 461 315 386 C315 386 315 275 315 275 C73 201 45 191 45 88 C45 23 83 -10 158 -10 C218 -10 263 8 316 79 C323 23 358 -5 419 -5 C476 -5 511 31 523 102 L523 102 Z M259 695 C259 695 399 556 399 556 C399 556 411 566 411 566 C411 566 289 755 289 755 C282 765 269 785 259 785 C249 785 236 765 229 755 C229 755 107 566 107 566 C107 566 119 556 119 556 C119 556 259 695 259 695 L259 695 Z M315 255 C315 255 315 102 315 102 C315 101 315 101 315 100 C277 49 245 35 203 35 C154 35 130 56 130 97 C130 196 149 204 315 255 L315 255 Z " />
<glyph glyph-name="atilde" unicode="&#xe3;" horiz-adv-x="513" d="M119 620 C119 660 133 680 160 680 C226 680 268 615 334 615 C387 615 414 655 414 735 C414 735 399 735 399 735 C399 695 384 675 353 675 C287 675 246 740 180 740 C129 740 104 700 104 620 C104 620 119 620 119 620 L119 620 Z M523 102 C523 102 509 109 509 109 C503 74 485 56 454 56 C418 56 400 71 400 102 C400 102 400 355 400 355 C400 473 353 510 259 510 C130 510 65 420 65 360 C65 320 81 300 114 300 C143 300 158 323 158 343 C158 365 138 380 138 403 C138 435 168 484 228 484 C286 484 315 461 315 386 C315 386 315 275 315 275 C73 201 45 191 45 88 C45 23 83 -10 158 -10 C218 -10 263 8 316 79 C323 23 358 -5 419 -5 C476 -5 511 31 523 102 L523 102 Z M315 255 C315 255 315 102 315 102 C315 101 315 101 315 100 C277 49 245 35 203 35 C154 35 130 56 130 97 C130 196 149 204 315 255 L315 255 Z " />
<glyph glyph-name="adieresis" unicode="&#xe4;" horiz-adv-x="513" d="M334 615 C371 615 389 633 389 670 C389 707 371 725 334 725 C297 725 279 707 279 670 C279 633 297 615 334 615 L334 615 Z M184 615 C221 615 239 633 239 670 C239 707 221 725 184 725 C147 725 129 707 129 670 C129 633 147 615 184 615 L184 615 Z M523 102 C523 102 509 109 509 109 C503 74 485 56 454 56 C418 56 400 71 400 102 C400 102 400 355 400 355 C400 473 353 510 259 510 C130 510 65 420 65 360 C65 320 81 300 114 300 C143 300 158 323 158 343 C158 365 138 380 138 403 C138 435 168 484 228 484 C286 484 315 461 315 386 C315 386 315 275 315 275 C73 201 45 191 45 88 C45 23 83 -10 158 -10 C218 -10 263 8 316 79 C323 23 358 -5 419 -5 C476 -5 511 31 523 102 L523 102 Z M315 255 C315 255 315 102 315 102 C315 101 315 101 315 100 C277 49 245 35 203 35 C154 35 130 56 130 97 C130 196 149 204 315 255 L315 255 Z " />
<glyph glyph-name="aring" unicode="&#xe5;" horiz-adv-x="513" d="M259 580 C216 580 187 610 187 655 C187 705 211 730 259 730 C308 730 332 705 332 655 C332 610 303 580 259 580 L259 580 Z M162 655 C162 598 201 560 259 560 C318 560 357 598 357 655 C357 718 324 750 259 750 C195 750 162 718 162 655 L162 655 Z M523 102 C523 102 509 109 509 109 C503 74 485 56 454 56 C418 56 400 71 400 102 C400 102 400 355 400 355 C400 473 353 510 259 510 C130 510 65 420 65 360 C65 320 81 300 114 300 C143 300 158 323 158 343 C158 365 138 380 138 403 C138 435 168 484 228 484 C286 484 315 461 315 386 C315 386 315 275 315 275 C73 201 45 191 45 88 C45 23 83 -10 158 -10 C218 -10 263 8 316 79 C323 23 358 -5 419 -5 C476 -5 511 31 523 102 L523 102 Z M315 255 C315 255 315 102 315 102 C315 101 315 101 315 100 C277 49 245 35 203 35 C154 35 130 56 130 97 C130 196 149 204 315 255 L315 255 Z " />
<glyph glyph-name="egrave" unicode="&#xe8;" horiz-adv-x="535" d="M195 721 C162 766 143 788 135 788 C110 788 93 771 93 746 C93 737 114 717 157 682 C157 682 299 562 299 562 C299 562 309 573 309 573 C309 573 195 721 195 721 L195 721 Z M135 340 C135 340 411 340 411 340 C411 340 505 340 505 340 C481 476 415 510 296 510 C127 510 41 416 41 231 C41 71 119 -10 273 -10 C385 -10 458 38 493 132 C493 132 483 136 483 136 C461 76 397 46 293 46 C185 46 130 120 130 266 C130 293 132 318 135 340 L135 340 Z M471 365 C475 365 478 365 482 365 C482 365 471 365 471 365 L471 365 Z M406 364 C406 364 139 360 139 360 C159 447 210 491 291 491 C350 491 385 464 406 364 C406 364 406 364 406 364 L406 364 Z " />
<glyph glyph-name="eacute" unicode="&#xe9;" horiz-adv-x="535" d="M304 562 C304 562 446 682 446 682 C489 719 510 739 510 746 C510 771 493 788 468 788 C462 788 442 766 407 721 C407 721 293 573 293 573 C293 573 304 562 304 562 L304 562 Z M135 340 C135 340 411 340 411 340 C411 340 505 340 505 340 C481 476 415 510 296 510 C127 510 41 416 41 231 C41 71 119 -10 273 -10 C385 -10 458 38 493 132 C493 132 483 136 483 136 C461 76 397 46 293 46 C185 46 130 120 130 266 C130 293 132 318 135 340 L135 340 Z M471 365 C475 365 478 365 482 365 C482 365 471 365 471 365 L471 365 Z M406 364 C406 364 139 360 139 360 C159 447 210 491 291 491 C350 491 385 464 406 364 C406 364 406 364 406 364 L406 364 Z " />
<glyph glyph-name="ecircumflex" unicode="&#xea;" horiz-adv-x="535" d="M296 695 C296 695 437 556 437 556 C437 556 448 566 448 566 C448 566 326 755 326 755 C320 765 307 785 296 785 C286 785 273 765 266 755 C266 755 144 566 144 566 C144 566 156 556 156 556 C156 556 296 695 296 695 L296 695 Z M135 340 C135 340 411 340 411 340 C411 340 505 340 505 340 C481 476 415 510 296 510 C127 510 41 416 41 231 C41 71 119 -10 273 -10 C385 -10 458 38 493 132 C493 132 483 136 483 136 C461 76 397 46 293 46 C185 46 130 120 130 266 C130 293 132 318 135 340 L135 340 Z M471 365 C475 365 478 365 482 365 C482 365 471 365 471 365 L471 365 Z M406 364 C406 364 139 360 139 360 C159 447 210 491 291 491 C350 491 385 464 406 364 C406 364 406 364 406 364 L406 364 Z " />
<glyph glyph-name="edieresis" unicode="&#xeb;" horiz-adv-x="535" d="M371 615 C408 615 426 633 426 670 C426 707 408 725 371 725 C335 725 316 707 316 670 C316 633 335 615 371 615 L371 615 Z M221 615 C258 615 276 633 276 670 C276 707 258 725 221 725 C185 725 166 707 166 670 C166 633 185 615 221 615 L221 615 Z M135 340 C135 340 411 340 411 340 C411 340 505 340 505 340 C481 476 415 510 296 510 C127 510 41 416 41 231 C41 71 119 -10 273 -10 C385 -10 458 38 493 132 C493 132 483 136 483 136 C461 76 397 46 293 46 C185 46 130 120 130 266 C130 293 132 318 135 340 L135 340 Z M471 365 C475 365 478 365 482 365 C482 365 471 365 471 365 L471 365 Z M406 364 C406 364 139 360 139 360 C159 447 210 491 291 491 C350 491 385 464 406 364 C406 364 406 364 406 364 L406 364 Z " />
<glyph glyph-name="igrave" unicode="&#xec;" horiz-adv-x="290" d="M59 0 C59 0 258 0 258 0 C258 0 258 20 258 20 C258 20 247 20 247 20 C216 20 200 21 200 35 C200 35 200 390 200 390 C200 390 200 500 200 500 C200 500 185 500 185 500 C185 500 58 445 58 445 C58 445 58 435 58 435 C111 438 115 436 115 390 C115 390 115 35 115 35 C115 21 100 20 69 20 C69 20 59 20 59 20 C59 20 59 0 59 0 L59 0 Z M56 721 C23 766 4 788 -4 788 C-30 788 -47 771 -47 746 C-47 737 -25 717 18 682 C18 682 160 562 160 562 C160 562 170 573 170 573 C170 573 56 721 56 721 L56 721 Z " />
<glyph glyph-name="iacute" unicode="&#xed;" horiz-adv-x="290" d="M59 0 C59 0 258 0 258 0 C258 0 258 20 258 20 C258 20 247 20 247 20 C216 20 200 21 200 35 C200 35 200 390 200 390 C200 390 200 500 200 500 C200 500 185 500 185 500 C185 500 58 445 58 445 C58 445 58 435 58 435 C111 438 115 436 115 390 C115 390 115 35 115 35 C115 21 100 20 69 20 C69 20 59 20 59 20 C59 20 59 0 59 0 L59 0 Z M56 721 C23 766 4 788 -4 788 C-30 788 -47 771 -47 746 C-47 737 -25 717 18 682 C18 682 160 562 160 562 C160 562 170 573 170 573 C170 573 56 721 56 721 L56 721 Z " />
<glyph glyph-name="icircumflex" unicode="&#xee;" horiz-adv-x="290" d="M59 0 C59 0 258 0 258 0 C258 0 258 20 258 20 C258 20 247 20 247 20 C216 20 200 21 200 35 C200 35 200 390 200 390 C200 390 200 500 200 500 C200 500 185 500 185 500 C185 500 58 445 58 445 C58 445 58 435 58 435 C111 438 115 436 115 390 C115 390 115 35 115 35 C115 21 100 20 69 20 C69 20 59 20 59 20 C59 20 59 0 59 0 L59 0 Z M157 695 C157 695 298 556 298 556 C298 556 309 566 309 566 C309 566 187 755 187 755 C181 765 168 785 157 785 C147 785 134 765 127 755 C127 755 5 566 5 566 C5 566 17 556 17 556 C17 556 157 695 157 695 L157 695 Z " />
<glyph glyph-name="idieresis" unicode="&#xef;" horiz-adv-x="290" d="M232 615 C269 615 287 633 287 670 C287 707 269 725 232 725 C196 725 177 707 177 670 C177 633 196 615 232 615 L232 615 Z M82 615 C119 615 137 633 137 670 C137 707 119 725 82 725 C46 725 27 707 27 670 C27 633 46 615 82 615 L82 615 Z M59 0 C59 0 258 0 258 0 C258 0 258 20 258 20 C258 20 247 20 247 20 C216 20 200 21 200 35 C200 35 200 390 200 390 C200 390 200 500 200 500 C200 500 185 500 185 500 C185 500 58 445 58 445 C58 445 58 435 58 435 C111 438 115 436 115 390 C115 390 115 35 115 35 C115 21 100 20 69 20 C69 20 59 20 59 20 C59 20 59 0 59 0 L59 0 Z " />
<glyph glyph-name="ntilde" unicode="&#xf1;" horiz-adv-x="570" d="M144 620 C144 660 158 680 186 680 C252 680 293 615 359 615 C413 615 440 655 440 735 C440 735 425 735 425 735 C425 695 409 675 379 675 C313 675 271 740 205 740 C155 740 129 700 129 620 C129 620 144 620 144 620 L144 620 Z M30 433 C30 433 40 437 40 437 C73 448 89 449 89 375 C89 375 89 35 89 35 C89 21 74 20 44 20 C44 20 33 20 33 20 C33 20 33 0 33 0 C33 0 231 0 231 0 C231 0 231 20 231 20 C231 20 220 20 220 20 C189 20 174 21 174 35 C174 35 174 360 174 360 C208 418 247 448 292 448 C367 448 395 408 395 330 C395 330 395 35 395 35 C395 21 380 20 349 20 C349 20 338 20 338 20 C338 20 338 0 338 0 C338 0 536 0 536 0 C536 0 536 20 536 20 C536 20 525 20 525 20 C495 20 480 21 480 35 C480 35 480 330 480 330 C480 450 443 510 342 510 C279 510 223 468 174 385 C174 385 174 400 174 400 C174 400 174 500 174 500 C174 500 159 500 159 500 C159 500 30 453 30 453 C30 453 30 433 30 433 L30 433 Z " />
<glyph glyph-name="ograve" unicode="&#xf2;" horiz-adv-x="609" d="M302 16 C190 16 134 95 134 250 C134 405 190 484 302 484 C414 484 470 405 470 250 C470 95 414 16 302 16 L302 16 Z M41 250 C41 77 129 -10 302 -10 C476 -10 564 77 564 250 C564 423 476 510 302 510 C129 510 41 423 41 250 L41 250 Z M201 721 C168 766 149 788 141 788 C115 788 98 771 98 746 C98 737 120 717 163 682 C163 682 305 562 305 562 C305 562 315 573 315 573 C315 573 201 721 201 721 L201 721 Z " />
<glyph glyph-name="oacute" unicode="&#xf3;" horiz-adv-x="609" d="M310 562 C310 562 452 682 452 682 C495 719 516 739 516 746 C516 771 499 788 474 788 C468 788 448 766 413 721 C413 721 299 573 299 573 C299 573 310 562 310 562 L310 562 Z M302 16 C190 16 134 95 134 250 C134 405 190 484 302 484 C414 484 470 405 470 250 C470 95 414 16 302 16 L302 16 Z M41 250 C41 77 129 -10 302 -10 C476 -10 564 77 564 250 C564 423 476 510 302 510 C129 510 41 423 41 250 L41 250 Z " />
<glyph glyph-name="ocircumflex" unicode="&#xf4;" horiz-adv-x="609" d="M302 16 C190 16 134 95 134 250 C134 405 190 484 302 484 C414 484 470 405 470 250 C470 95 414 16 302 16 L302 16 Z M41 250 C41 77 129 -10 302 -10 C476 -10 564 77 564 250 C564 423 476 510 302 510 C129 510 41 423 41 250 L41 250 Z M302 695 C302 695 443 556 443 556 C443 556 454 566 454 566 C454 566 332 755 332 755 C326 765 313 785 302 785 C292 785 279 765 272 755 C272 755 150 566 150 566 C150 566 162 556 162 556 C162 556 302 695 302 695 L302 695 Z " />
<glyph glyph-name="otilde" unicode="&#xf5;" horiz-adv-x="609" d="M162 620 C162 660 176 680 203 680 C269 680 311 615 377 615 C431 615 458 655 458 735 C458 735 443 735 443 735 C443 695 427 675 396 675 C330 675 289 740 223 740 C172 740 147 700 147 620 C147 620 162 620 162 620 L162 620 Z M302 16 C190 16 134 95 134 250 C134 405 190 484 302 484 C414 484 470 405 470 250 C470 95 414 16 302 16 L302 16 Z M41 250 C41 77 129 -10 302 -10 C476 -10 564 77 564 250 C564 423 476 510 302 510 C129 510 41 423 41 250 L41 250 Z " />
<glyph glyph-name="odieresis" unicode="&#xf6;" horiz-adv-x="609" d="M377 615 C414 615 432 633 432 670 C432 707 414 725 377 725 C341 725 322 707 322 670 C322 633 341 615 377 615 L377 615 Z M227 615 C264 615 282 633 282 670 C282 707 264 725 227 725 C191 725 172 707 172 670 C172 633 191 615 227 615 L227 615 Z M302 16 C190 16 134 95 134 250 C134 405 190 484 302 484 C414 484 470 405 470 250 C470 95 414 16 302 16 L302 16 Z M41 250 C41 77 129 -10 302 -10 C476 -10 564 77 564 250 C564 423 476 510 302 510 C129 510 41 423 41 250 L41 250 Z " />
<glyph glyph-name="oslash" unicode="&#xf8;" horiz-adv-x="609" d="M51 -21 C51 -21 118 45 118 45 C161 8 222 -10 302 -10 C476 -10 564 77 564 250 C564 329 546 390 509 433 C509 433 575 499 575 499 C575 499 553 521 553 521 C553 521 487 455 487 455 C443 492 382 510 302 510 C129 510 41 423 41 250 C41 171 59 110 96 67 C96 67 30 1 30 1 C30 1 51 -21 51 -21 L51 -21 Z M302 16 C238 16 193 42 165 92 C165 92 452 377 452 377 C464 343 470 300 470 250 C470 95 414 16 302 16 C302 16 302 16 302 16 L302 16 Z M152 122 C140 157 134 199 134 250 C134 405 190 484 302 484 C366 484 411 458 439 408 C439 408 152 122 152 122 L152 122 Z " />
<glyph glyph-name="ugrave" unicode="&#xf9;" horiz-adv-x="549" d="M523 42 C483 34 464 25 464 107 C464 107 464 465 464 465 C464 465 464 500 464 500 C464 500 332 500 332 500 C332 500 332 480 332 480 C332 480 343 480 343 480 C367 480 379 479 379 465 C379 465 379 144 379 144 C352 81 309 49 250 49 C189 49 158 86 158 160 C158 160 158 465 158 465 C158 465 158 500 158 500 C158 500 27 500 27 500 C27 500 27 480 27 480 C27 480 38 480 38 480 C61 480 73 479 73 465 C73 465 73 160 73 160 C73 47 119 -10 211 -10 C287 -10 343 33 379 119 C379 119 379 90 379 90 C379 90 379 -10 379 -10 C379 -10 394 -10 394 -10 C394 -10 523 22 523 22 C523 22 523 42 523 42 L523 42 Z M168 721 C134 766 115 788 107 788 C82 788 65 771 65 746 C65 737 86 717 129 682 C129 682 271 562 271 562 C271 562 282 573 282 573 C282 573 168 721 168 721 L168 721 Z " />
<glyph glyph-name="uacute" unicode="&#xfa;" horiz-adv-x="549" d="M276 562 C276 562 418 682 418 682 C461 719 482 739 482 746 C482 771 465 788 440 788 C434 788 414 766 379 721 C379 721 266 573 266 573 C266 573 276 562 276 562 L276 562 Z M523 42 C483 34 464 25 464 107 C464 107 464 465 464 465 C464 465 464 500 464 500 C464 500 332 500 332 500 C332 500 332 480 332 480 C332 480 343 480 343 480 C367 480 379 479 379 465 C379 465 379 144 379 144 C352 81 309 49 250 49 C189 49 158 86 158 160 C158 160 158 465 158 465 C158 465 158 500 158 500 C158 500 27 500 27 500 C27 500 27 480 27 480 C27 480 38 480 38 480 C61 480 73 479 73 465 C73 465 73 160 73 160 C73 47 119 -10 211 -10 C287 -10 343 33 379 119 C379 119 379 90 379 90 C379 90 379 -10 379 -10 C379 -10 394 -10 394 -10 C394 -10 523 22 523 22 C523 22 523 42 523 42 L523 42 Z " />
<glyph glyph-name="ucircumflex" unicode="&#xfb;" horiz-adv-x="549" d="M523 42 C483 34 464 25 464 107 C464 107 464 465 464 465 C464 465 464 500 464 500 C464 500 332 500 332 500 C332 500 332 480 332 480 C332 480 343 480 343 480 C367 480 379 479 379 465 C379 465 379 144 379 144 C352 81 309 49 250 49 C189 49 158 86 158 160 C158 160 158 465 158 465 C158 465 158 500 158 500 C158 500 27 500 27 500 C27 500 27 480 27 480 C27 480 38 480 38 480 C61 480 73 479 73 465 C73 465 73 160 73 160 C73 47 119 -10 211 -10 C287 -10 343 33 379 119 C379 119 379 90 379 90 C379 90 379 -10 379 -10 C379 -10 394 -10 394 -10 C394 -10 523 22 523 22 C523 22 523 42 523 42 L523 42 Z M268 695 C268 695 409 556 409 556 C409 556 420 566 420 566 C420 566 299 755 299 755 C292 765 279 785 269 785 C258 785 245 765 239 755 C239 755 117 566 117 566 C117 566 128 556 128 556 C128 556 268 695 268 695 L268 695 Z " />
<glyph glyph-name="udieresis" unicode="&#xfc;" horiz-adv-x="549" d="M344 615 C380 615 399 633 399 670 C399 707 380 725 344 725 C307 725 289 707 289 670 C289 633 307 615 344 615 L344 615 Z M194 615 C230 615 249 633 249 670 C249 707 230 725 194 725 C157 725 139 707 139 670 C139 633 157 615 194 615 L194 615 Z M523 42 C483 34 464 25 464 107 C464 107 464 465 464 465 C464 465 464 500 464 500 C464 500 332 500 332 500 C332 500 332 480 332 480 C332 480 343 480 343 480 C367 480 379 479 379 465 C379 465 379 144 379 144 C352 81 309 49 250 49 C189 49 158 86 158 160 C158 160 158 465 158 465 C158 465 158 500 158 500 C158 500 27 500 27 500 C27 500 27 480 27 480 C27 480 38 480 38 480 C61 480 73 479 73 465 C73 465 73 160 73 160 C73 47 119 -10 211 -10 C287 -10 343 33 379 119 C379 119 379 90 379 90 C379 90 379 -10 379 -10 C379 -10 394 -10 394 -10 C394 -10 523 22 523 22 C523 22 523 42 523 42 L523 42 Z " />
<glyph glyph-name="ydieresis" unicode="&#xff;" horiz-adv-x="536" d="M359 615 C395 615 414 633 414 670 C414 707 395 725 359 725 C322 725 304 707 304 670 C304 633 322 615 359 615 L359 615 Z M209 615 C245 615 264 633 264 670 C264 707 245 725 209 725 C172 725 154 707 154 670 C154 633 172 615 209 615 L209 615 Z M518 500 C518 500 466 500 466 500 C466 500 427 500 427 500 C427 500 360 500 360 500 C360 500 360 480 360 480 C360 480 381 480 381 480 C407 480 419 478 409 450 C409 450 409 450 409 450 C409 450 288 103 288 103 C288 103 158 453 158 453 C158 453 158 453 158 453 C148 478 155 480 172 480 C172 480 193 480 193 480 C193 480 193 500 193 500 C193 500 140 500 140 500 C140 500 47 500 47 500 C47 500 6 500 6 500 C6 500 6 480 6 480 C6 480 32 480 32 480 C45 480 54 478 62 462 C62 462 248 -10 248 -10 C248 -10 203 -140 203 -140 C197 -157 187 -165 173 -165 C150 -165 147 -135 124 -135 C92 -135 76 -149 76 -177 C76 -212 93 -230 126 -230 C171 -230 202 -208 218 -163 C218 -163 273 -10 273 -10 C273 -10 446 446 446 446 C459 478 471 480 493 480 C493 480 518 480 518 480 C518 480 518 500 518 500 L518 500 Z " />
<glyph glyph-name="Amacron" unicode="&#x100;" horiz-adv-x="736" d="M234 895 C234 895 534 895 534 895 C534 895 534 954 534 954 C534 954 234 954 234 954 C234 954 234 895 234 895 L234 895 Z M466 0 C466 0 561 0 561 0 C561 0 660 0 660 0 C660 0 721 0 721 0 C721 0 721 20 721 20 C721 20 697 20 697 20 C668 20 650 28 616 140 C616 140 615 140 615 140 C615 140 431 720 431 720 C431 720 415 770 415 770 C415 770 405 770 405 770 C384 740 361 723 336 720 C336 720 339 710 339 710 C339 710 339 710 339 710 C339 710 161 170 161 170 C161 170 161 170 161 170 C161 168 160 167 160 165 C160 165 157 156 157 156 C114 29 86 20 39 20 C39 20 17 20 17 20 C17 20 17 0 17 0 C17 0 105 0 105 0 C105 0 134 0 134 0 C134 0 250 0 250 0 C250 0 250 20 250 20 C250 20 229 20 229 20 C175 20 148 28 176 133 C176 133 222 279 222 279 C222 279 474 279 474 279 C474 279 517 140 517 140 C517 140 517 140 517 140 C552 28 532 20 487 20 C487 20 466 20 466 20 C466 20 466 0 466 0 L466 0 Z M230 304 C230 304 349 680 349 680 C349 680 466 304 466 304 C466 304 230 304 230 304 L230 304 Z " />
<glyph glyph-name="amacron" unicode="&#x101;" horiz-adv-x="513" d="M109 645 C109 645 409 645 409 645 C409 645 409 704 409 704 C409 704 109 704 109 704 C109 704 109 645 109 645 L109 645 Z M523 102 C523 102 509 109 509 109 C503 74 485 56 454 56 C418 56 400 71 400 102 C400 102 400 355 400 355 C400 473 353 510 259 510 C130 510 65 420 65 360 C65 320 81 300 114 300 C143 300 158 323 158 343 C158 365 138 380 138 403 C138 435 168 484 228 484 C286 484 315 461 315 386 C315 386 315 275 315 275 C73 201 45 191 45 88 C45 23 83 -10 158 -10 C218 -10 263 8 316 79 C323 23 358 -5 419 -5 C476 -5 511 31 523 102 L523 102 Z M315 255 C315 255 315 102 315 102 C315 101 315 101 315 100 C277 49 245 35 203 35 C154 35 130 56 130 97 C130 196 149 204 315 255 L315 255 Z " />
<glyph glyph-name="Abreve" unicode="&#x102;" horiz-adv-x="736" d="M249 994 C256 912 302 870 384 870 C466 870 511 911 518 992 C518 992 500 995 500 995 C497 952 458 930 384 930 C310 930 271 952 267 997 C267 997 249 994 249 994 L249 994 Z M466 0 C466 0 561 0 561 0 C561 0 660 0 660 0 C660 0 721 0 721 0 C721 0 721 20 721 20 C721 20 697 20 697 20 C668 20 650 28 616 140 C616 140 615 140 615 140 C615 140 431 720 431 720 C431 720 415 770 415 770 C415 770 405 770 405 770 C384 740 361 723 336 720 C336 720 339 710 339 710 C339 710 339 710 339 710 C339 710 161 170 161 170 C161 170 161 170 161 170 C161 168 160 167 160 165 C160 165 157 156 157 156 C114 29 86 20 39 20 C39 20 17 20 17 20 C17 20 17 0 17 0 C17 0 105 0 105 0 C105 0 134 0 134 0 C134 0 250 0 250 0 C250 0 250 20 250 20 C250 20 229 20 229 20 C175 20 148 28 176 133 C176 133 222 279 222 279 C222 279 474 279 474 279 C474 279 517 140 517 140 C517 140 517 140 517 140 C552 28 532 20 487 20 C487 20 466 20 466 20 C466 20 466 0 466 0 L466 0 Z M230 304 C230 304 349 680 349 680 C349 680 466 304 466 304 C466 304 230 304 230 304 L230 304 Z " />
<glyph glyph-name="abreve" unicode="&#x103;" horiz-adv-x="513" d="M125 744 C132 662 177 620 259 620 C341 620 387 661 394 742 C394 742 376 745 376 745 C372 702 333 680 259 680 C185 680 146 702 142 747 C142 747 125 744 125 744 L125 744 Z M523 102 C523 102 509 109 509 109 C503 74 485 56 454 56 C418 56 400 71 400 102 C400 102 400 355 400 355 C400 473 353 510 259 510 C130 510 65 420 65 360 C65 320 81 300 114 300 C143 300 158 323 158 343 C158 365 138 380 138 403 C138 435 168 484 228 484 C286 484 315 461 315 386 C315 386 315 275 315 275 C73 201 45 191 45 88 C45 23 83 -10 158 -10 C218 -10 263 8 316 79 C323 23 358 -5 419 -5 C476 -5 511 31 523 102 L523 102 Z M315 255 C315 255 315 102 315 102 C315 101 315 101 315 100 C277 49 245 35 203 35 C154 35 130 56 130 97 C130 196 149 204 315 255 L315 255 Z " />
<glyph glyph-name="Cacute" unicode="&#x106;" horiz-adv-x="735" d="M417 812 C417 812 559 932 559 932 C602 969 623 989 623 996 C623 1021 606 1038 581 1038 C575 1038 555 1016 520 971 C520 971 407 823 407 823 C407 823 417 812 417 812 L417 812 Z M693 547 C693 547 693 631 693 631 C693 631 693 712 693 712 C693 712 678 712 678 712 C678 712 676 705 673 692 C671 685 645 694 596 723 C596 723 596 723 596 723 C554 748 500 760 409 760 C171 760 51 631 51 375 C51 119 168 -10 399 -10 C488 -10 546 3 592 30 C600 32 636 44 672 56 C677 58 680 51 680 35 C680 35 692 35 692 35 C692 35 692 118 692 118 C692 118 693 119 693 119 C693 119 692 120 692 120 C692 120 692 203 692 203 C692 203 677 203 677 203 C660 149 624 89 567 52 C526 25 477 12 408 12 C240 12 155 134 155 375 C155 615 244 736 419 736 C459 736 491 732 517 724 C517 724 517 724 517 724 C592 701 651 626 673 562 C676 552 678 547 678 547 C678 547 693 547 693 547 L693 547 Z " />
<glyph glyph-name="Ccircumflex" unicode="&#x108;" horiz-adv-x="735" d="M693 547 C693 547 693 631 693 631 C693 631 693 712 693 712 C693 712 678 712 678 712 C678 712 676 705 673 692 C671 685 645 694 596 723 C596 723 596 723 596 723 C554 748 500 760 409 760 C171 760 51 631 51 375 C51 119 168 -10 399 -10 C488 -10 546 3 592 30 C600 32 636 44 672 56 C677 58 680 51 680 35 C680 35 692 35 692 35 C692 35 692 118 692 118 C692 118 693 119 693 119 C693 119 692 120 692 120 C692 120 692 203 692 203 C692 203 677 203 677 203 C660 149 624 89 567 52 C526 25 477 12 408 12 C240 12 155 134 155 375 C155 615 244 736 419 736 C459 736 491 732 517 724 C517 724 517 724 517 724 C592 701 651 626 673 562 C676 552 678 547 678 547 C678 547 693 547 693 547 L693 547 Z M409 945 C409 945 550 806 550 806 C550 806 561 816 561 816 C561 816 440 1005 440 1005 C433 1015 420 1035 409 1035 C399 1035 386 1015 380 1005 C380 1005 258 816 258 816 C258 816 269 806 269 806 C269 806 409 945 409 945 L409 945 Z " />
<glyph glyph-name="Cdotaccent" unicode="&#x10a;" horiz-adv-x="735" d="M409 865 C446 865 464 883 464 920 C464 957 446 975 409 975 C373 975 354 957 354 920 C354 883 373 865 409 865 L409 865 Z M693 547 C693 547 693 631 693 631 C693 631 693 712 693 712 C693 712 678 712 678 712 C678 712 676 705 673 692 C671 685 645 694 596 723 C596 723 596 723 596 723 C554 748 500 760 409 760 C171 760 51 631 51 375 C51 119 168 -10 399 -10 C488 -10 546 3 592 30 C600 32 636 44 672 56 C677 58 680 51 680 35 C680 35 692 35 692 35 C692 35 692 118 692 118 C692 118 693 119 693 119 C693 119 692 120 692 120 C692 120 692 203 692 203 C692 203 677 203 677 203 C660 149 624 89 567 52 C526 25 477 12 408 12 C240 12 155 134 155 375 C155 615 244 736 419 736 C459 736 491 732 517 724 C517 724 517 724 517 724 C592 701 651 626 673 562 C676 552 678 547 678 547 C678 547 693 547 693 547 L693 547 Z " />
<glyph glyph-name="cdotaccent" unicode="&#x10b;" horiz-adv-x="500" d="M294 615 C331 615 349 633 349 670 C349 707 331 725 294 725 C258 725 239 707 239 670 C239 633 258 615 294 615 L294 615 Z M470 128 C470 128 458 133 458 133 C432 73 381 42 308 42 C190 42 130 120 130 273 C130 418 184 491 289 491 C336 491 370 462 390 405 C401 377 415 363 433 363 C471 363 486 377 475 405 C450 475 389 510 294 510 C127 510 42 418 42 236 C42 72 121 -10 278 -10 C365 -10 430 36 470 128 L470 128 Z " />
<glyph glyph-name="Ccaron" unicode="&#x10c;" horiz-adv-x="735" d="M693 547 C693 547 693 631 693 631 C693 631 693 712 693 712 C693 712 678 712 678 712 C678 712 676 705 673 692 C671 685 645 694 596 723 C596 723 596 723 596 723 C554 748 500 760 409 760 C171 760 51 631 51 375 C51 119 168 -10 399 -10 C488 -10 546 3 592 30 C600 32 636 44 672 56 C677 58 680 51 680 35 C680 35 692 35 692 35 C692 35 692 118 692 118 C692 118 693 119 693 119 C693 119 692 120 692 120 C692 120 692 203 692 203 C692 203 677 203 677 203 C660 149 624 89 567 52 C526 25 477 12 408 12 C240 12 155 134 155 375 C155 615 244 736 419 736 C459 736 491 732 517 724 C517 724 517 724 517 724 C592 701 651 626 673 562 C676 552 678 547 678 547 C678 547 693 547 693 547 L693 547 Z M409 905 C409 905 550 1044 550 1044 C550 1044 561 1034 561 1034 C561 1034 440 845 440 845 C433 835 420 815 409 815 C399 815 386 835 380 845 C380 845 258 1034 258 1034 C258 1034 269 1044 269 1044 C269 1044 409 905 409 905 L409 905 Z " />
<glyph glyph-name="ccaron" unicode="&#x10d;" horiz-adv-x="500" d="M470 128 C470 128 458 133 458 133 C432 73 381 42 308 42 C190 42 130 120 130 273 C130 418 184 491 289 491 C336 491 370 462 390 405 C401 377 415 363 433 363 C471 363 486 377 475 405 C450 475 389 510 294 510 C127 510 42 418 42 236 C42 72 121 -10 278 -10 C365 -10 430 36 470 128 L470 128 Z M294 655 C294 655 435 794 435 794 C435 794 446 784 446 784 C446 784 324 595 324 595 C318 585 305 565 294 565 C284 565 271 585 264 595 C264 595 142 784 142 784 C142 784 154 794 154 794 C154 794 294 655 294 655 L294 655 Z " />
<glyph glyph-name="Dcaron" unicode="&#x10e;" horiz-adv-x="828" d="M53 0 C53 0 127 0 127 0 C127 0 222 0 222 0 C222 0 302 0 302 0 C615 0 773 101 773 375 C773 624 657 750 342 750 C342 750 222 750 222 750 C222 750 127 750 127 750 C127 750 53 750 53 750 C53 750 53 730 53 730 C53 730 64 730 64 730 C106 730 127 725 127 665 C127 665 127 85 127 85 C127 25 106 20 64 20 C64 20 53 20 53 20 C53 20 53 0 53 0 L53 0 Z M398 905 C398 905 538 1044 538 1044 C538 1044 550 1034 550 1034 C550 1034 428 845 428 845 C421 835 408 815 398 815 C387 815 374 835 368 845 C368 845 246 1034 246 1034 C246 1034 257 1044 257 1044 C257 1044 398 905 398 905 L398 905 Z M222 731 C222 731 266 731 266 731 C561 731 669 612 669 375 C669 115 536 19 274 19 C222 19 222 39 222 80 C222 80 222 85 222 85 C222 85 222 665 222 665 C222 665 222 731 222 731 L222 731 Z " />
<glyph glyph-name="dcaron" unicode="&#x10f;" horiz-adv-x="574" d="M573 42 C532 34 514 26 514 127 C514 127 514 665 514 665 C514 665 514 750 514 750 C514 750 499 750 499 750 C499 750 369 713 369 713 C369 713 369 693 369 693 C369 693 379 696 379 696 C412 705 429 706 429 645 C429 645 429 472 429 472 C395 496 348 510 290 510 C112 510 46 423 46 251 C46 81 120 -5 265 -5 C338 -5 392 19 429 66 C429 66 429 -10 429 -10 C429 -10 444 -10 444 -10 C444 -10 573 22 573 22 C573 22 573 42 573 42 L573 42 Z M614 641 C630 684 638 719 638 745 C638 755 625 758 600 758 C581 758 573 700 570 650 C570 650 560 539 560 539 C560 539 575 536 575 536 C575 536 614 641 614 641 L614 641 Z M429 96 C396 52 352 30 300 30 C189 30 133 112 133 274 C133 414 178 485 300 485 C353 485 400 449 429 395 C429 395 429 110 429 110 C429 110 429 96 429 96 L429 96 Z " />
<glyph glyph-name="Emacron" unicode="&#x112;" horiz-adv-x="619" d="M179 895 C179 895 479 895 479 895 C479 895 479 954 479 954 C479 954 179 954 179 954 C179 954 179 895 179 895 L179 895 Z M539 642 C539 642 536 696 536 696 C534 714 533 732 532 750 C532 750 412 750 412 750 C412 750 222 750 222 750 C222 750 127 750 127 750 C127 750 53 750 53 750 C53 750 53 730 53 730 C53 730 64 730 64 730 C106 730 127 725 127 665 C127 665 127 85 127 85 C127 25 106 20 64 20 C64 20 53 20 53 20 C53 20 53 0 53 0 C53 0 127 0 127 0 C127 0 222 0 222 0 C222 0 437 0 437 0 C437 0 557 0 557 0 C561 36 568 72 572 108 C572 108 552 108 552 108 C552 108 551 97 551 97 C543 46 533 20 440 20 C440 20 302 20 302 20 C222 20 222 40 222 80 C222 80 222 85 222 85 C222 85 222 385 222 385 C222 385 352 385 352 385 C445 385 452 356 452 297 C452 297 452 287 452 287 C452 287 472 287 472 287 C472 287 472 385 472 385 C472 385 472 408 472 408 C472 408 472 506 472 506 C472 506 452 506 452 506 C452 506 452 495 452 495 C452 437 445 408 352 408 C352 408 222 408 222 408 C222 408 222 665 222 665 C222 665 222 730 222 730 C222 730 413 730 413 730 C525 730 515 704 519 651 C519 651 519 642 519 642 C519 642 539 642 539 642 L539 642 Z " />
<glyph glyph-name="emacron" unicode="&#x113;" horiz-adv-x="535" d="M146 645 C146 645 446 645 446 645 C446 645 446 704 446 704 C446 704 146 704 146 704 C146 704 146 645 146 645 L146 645 Z M135 340 C135 340 411 340 411 340 C411 340 505 340 505 340 C481 476 415 510 296 510 C127 510 41 416 41 231 C41 71 119 -10 273 -10 C385 -10 458 38 493 132 C493 132 483 136 483 136 C461 76 397 46 293 46 C185 46 130 120 130 266 C130 293 132 318 135 340 L135 340 Z M471 365 C475 365 478 365 482 365 C482 365 471 365 471 365 L471 365 Z M406 364 C406 364 139 360 139 360 C159 447 210 491 291 491 C350 491 385 464 406 364 C406 364 406 364 406 364 L406 364 Z " />
<glyph glyph-name="Ebreve" unicode="&#x114;" horiz-adv-x="619" d="M195 994 C202 912 247 870 329 870 C412 870 457 911 464 992 C464 992 446 995 446 995 C442 952 403 930 329 930 C256 930 217 952 213 997 C213 997 195 994 195 994 L195 994 Z M539 642 C539 642 536 696 536 696 C534 714 533 732 532 750 C532 750 412 750 412 750 C412 750 222 750 222 750 C222 750 127 750 127 750 C127 750 53 750 53 750 C53 750 53 730 53 730 C53 730 64 730 64 730 C106 730 127 725 127 665 C127 665 127 85 127 85 C127 25 106 20 64 20 C64 20 53 20 53 20 C53 20 53 0 53 0 C53 0 127 0 127 0 C127 0 222 0 222 0 C222 0 437 0 437 0 C437 0 557 0 557 0 C561 36 568 72 572 108 C572 108 552 108 552 108 C552 108 551 97 551 97 C543 46 533 20 440 20 C440 20 302 20 302 20 C222 20 222 40 222 80 C222 80 222 85 222 85 C222 85 222 385 222 385 C222 385 352 385 352 385 C445 385 452 356 452 297 C452 297 452 287 452 287 C452 287 472 287 472 287 C472 287 472 385 472 385 C472 385 472 408 472 408 C472 408 472 506 472 506 C472 506 452 506 452 506 C452 506 452 495 452 495 C452 437 445 408 352 408 C352 408 222 408 222 408 C222 408 222 665 222 665 C222 665 222 730 222 730 C222 730 413 730 413 730 C525 730 515 704 519 651 C519 651 519 642 519 642 C519 642 539 642 539 642 L539 642 Z " />
<glyph glyph-name="ebreve" unicode="&#x115;" horiz-adv-x="535" d="M162 744 C169 662 214 620 296 620 C378 620 424 661 431 742 C431 742 413 745 413 745 C409 702 370 680 296 680 C223 680 184 702 180 747 C180 747 162 744 162 744 L162 744 Z M135 340 C135 340 411 340 411 340 C411 340 505 340 505 340 C481 476 415 510 296 510 C127 510 41 416 41 231 C41 71 119 -10 273 -10 C385 -10 458 38 493 132 C493 132 483 136 483 136 C461 76 397 46 293 46 C185 46 130 120 130 266 C130 293 132 318 135 340 L135 340 Z M471 365 C475 365 478 365 482 365 C482 365 471 365 471 365 L471 365 Z M406 364 C406 364 139 360 139 360 C159 447 210 491 291 491 C350 491 385 464 406 364 C406 364 406 364 406 364 L406 364 Z " />
<glyph glyph-name="Edotaccent" unicode="&#x116;" horiz-adv-x="619" d="M329 865 C366 865 384 883 384 920 C384 957 366 975 329 975 C293 975 274 957 274 920 C274 883 293 865 329 865 L329 865 Z M539 642 C539 642 536 696 536 696 C534 714 533 732 532 750 C532 750 412 750 412 750 C412 750 222 750 222 750 C222 750 127 750 127 750 C127 750 53 750 53 750 C53 750 53 730 53 730 C53 730 64 730 64 730 C106 730 127 725 127 665 C127 665 127 85 127 85 C127 25 106 20 64 20 C64 20 53 20 53 20 C53 20 53 0 53 0 C53 0 127 0 127 0 C127 0 222 0 222 0 C222 0 437 0 437 0 C437 0 557 0 557 0 C561 36 568 72 572 108 C572 108 552 108 552 108 C552 108 551 97 551 97 C543 46 533 20 440 20 C440 20 302 20 302 20 C222 20 222 40 222 80 C222 80 222 85 222 85 C222 85 222 385 222 385 C222 385 352 385 352 385 C445 385 452 356 452 297 C452 297 452 287 452 287 C452 287 472 287 472 287 C472 287 472 385 472 385 C472 385 472 408 472 408 C472 408 472 506 472 506 C472 506 452 506 452 506 C452 506 452 495 452 495 C452 437 445 408 352 408 C352 408 222 408 222 408 C222 408 222 665 222 665 C222 665 222 730 222 730 C222 730 413 730 413 730 C525 730 515 704 519 651 C519 651 519 642 519 642 C519 642 539 642 539 642 L539 642 Z " />
<glyph glyph-name="edotaccent" unicode="&#x117;" horiz-adv-x="535" d="M296 615 C333 615 351 633 351 670 C351 707 333 725 296 725 C260 725 241 707 241 670 C241 633 260 615 296 615 L296 615 Z M135 340 C135 340 411 340 411 340 C411 340 505 340 505 340 C481 476 415 510 296 510 C127 510 41 416 41 231 C41 71 119 -10 273 -10 C385 -10 458 38 493 132 C493 132 483 136 483 136 C461 76 397 46 293 46 C185 46 130 120 130 266 C130 293 132 318 135 340 L135 340 Z M471 365 C475 365 478 365 482 365 C482 365 471 365 471 365 L471 365 Z M406 364 C406 364 139 360 139 360 C159 447 210 491 291 491 C350 491 385 464 406 364 C406 364 406 364 406 364 L406 364 Z " />
<glyph glyph-name="Ecaron" unicode="&#x11a;" horiz-adv-x="619" d="M539 642 C539 642 536 696 536 696 C534 714 533 732 532 750 C532 750 412 750 412 750 C412 750 222 750 222 750 C222 750 127 750 127 750 C127 750 53 750 53 750 C53 750 53 730 53 730 C53 730 64 730 64 730 C106 730 127 725 127 665 C127 665 127 85 127 85 C127 25 106 20 64 20 C64 20 53 20 53 20 C53 20 53 0 53 0 C53 0 127 0 127 0 C127 0 222 0 222 0 C222 0 437 0 437 0 C437 0 557 0 557 0 C561 36 568 72 572 108 C572 108 552 108 552 108 C552 108 551 97 551 97 C543 46 533 20 440 20 C440 20 302 20 302 20 C222 20 222 40 222 80 C222 80 222 85 222 85 C222 85 222 385 222 385 C222 385 352 385 352 385 C445 385 452 356 452 297 C452 297 452 287 452 287 C452 287 472 287 472 287 C472 287 472 385 472 385 C472 385 472 408 472 408 C472 408 472 506 472 506 C472 506 452 506 452 506 C452 506 452 495 452 495 C452 437 445 408 352 408 C352 408 222 408 222 408 C222 408 222 665 222 665 C222 665 222 730 222 730 C222 730 413 730 413 730 C525 730 515 704 519 651 C519 651 519 642 519 642 C519 642 539 642 539 642 L539 642 Z M329 905 C329 905 470 1044 470 1044 C470 1044 481 1034 481 1034 C481 1034 360 845 360 845 C353 835 340 815 329 815 C319 815 306 835 300 845 C300 845 178 1034 178 1034 C178 1034 189 1044 189 1044 C189 1044 329 905 329 905 L329 905 Z " />
<glyph glyph-name="ecaron" unicode="&#x11b;" horiz-adv-x="535" d="M296 655 C296 655 437 794 437 794 C437 794 448 784 448 784 C448 784 326 595 326 595 C320 585 307 565 296 565 C286 565 273 585 266 595 C266 595 144 784 144 784 C144 784 156 794 156 794 C156 794 296 655 296 655 L296 655 Z M135 340 C135 340 411 340 411 340 C411 340 505 340 505 340 C481 476 415 510 296 510 C127 510 41 416 41 231 C41 71 119 -10 273 -10 C385 -10 458 38 493 132 C493 132 483 136 483 136 C461 76 397 46 293 46 C185 46 130 120 130 266 C130 293 132 318 135 340 L135 340 Z M471 365 C475 365 478 365 482 365 C482 365 471 365 471 365 L471 365 Z M406 364 C406 364 139 360 139 360 C159 447 210 491 291 491 C350 491 385 464 406 364 C406 364 406 364 406 364 L406 364 Z " />
<glyph glyph-name="Gcircumflex" unicode="&#x11c;" horiz-adv-x="792" d="M693 547 C693 547 693 631 693 631 C693 631 693 712 693 712 C693 712 678 712 678 712 C678 712 676 705 673 692 C671 685 645 694 596 723 C596 723 596 723 596 723 C554 748 500 760 409 760 C171 760 51 631 51 375 C51 119 170 -10 407 -10 C572 -10 648 13 747 60 C747 60 741 73 741 73 C717 62 694 52 670 44 C670 44 670 245 670 245 C670 301 686 305 719 305 C719 305 730 305 730 305 C730 305 730 325 730 325 C730 325 505 325 505 325 C505 325 505 305 505 305 C505 305 515 305 515 305 C555 305 575 301 575 245 C575 245 577 22 577 22 C577 22 577 22 577 22 C577 22 576 113 576 113 C576 46 522 13 415 13 C242 13 155 135 155 375 C155 615 244 736 419 736 C459 736 491 732 517 724 C517 724 517 724 517 724 C592 701 651 626 673 562 C676 552 678 547 678 547 C678 547 693 547 693 547 L693 547 Z M409 945 C409 945 550 806 550 806 C550 806 561 816 561 816 C561 816 440 1005 440 1005 C433 1015 420 1035 409 1035 C399 1035 386 1015 380 1005 C380 1005 258 816 258 816 C258 816 269 806 269 806 C269 806 409 945 409 945 L409 945 Z " />
<glyph glyph-name="Gbreve" unicode="&#x11e;" horiz-adv-x="792" d="M275 994 C282 912 327 870 409 870 C492 870 537 911 544 992 C544 992 526 995 526 995 C522 952 483 930 409 930 C336 930 297 952 293 997 C293 997 275 994 275 994 L275 994 Z M693 547 C693 547 693 631 693 631 C693 631 693 712 693 712 C693 712 678 712 678 712 C678 712 676 705 673 692 C671 685 645 694 596 723 C596 723 596 723 596 723 C554 748 500 760 409 760 C171 760 51 631 51 375 C51 119 170 -10 407 -10 C572 -10 648 13 747 60 C747 60 741 73 741 73 C717 62 694 52 670 44 C670 44 670 245 670 245 C670 301 686 305 719 305 C719 305 730 305 730 305 C730 305 730 325 730 325 C730 325 505 325 505 325 C505 325 505 305 505 305 C505 305 515 305 515 305 C555 305 575 301 575 245 C575 245 577 22 577 22 C577 22 577 22 577 22 C577 22 576 113 576 113 C576 46 522 13 415 13 C242 13 155 135 155 375 C155 615 244 736 419 736 C459 736 491 732 517 724 C517 724 517 724 517 724 C592 701 651 626 673 562 C676 552 678 547 678 547 C678 547 693 547 693 547 L693 547 Z " />
<glyph glyph-name="gbreve" unicode="&#x11f;" horiz-adv-x="520" d="M120 744 C127 662 173 620 255 620 C337 620 382 661 389 742 C389 742 372 745 372 745 C368 702 329 680 255 680 C181 680 142 702 138 747 C138 747 120 744 120 744 L120 744 Z M160 350 C160 443 192 490 255 490 C318 490 350 443 350 350 C350 256 318 208 255 208 C192 208 160 256 160 350 L160 350 Z M156 1 C163 0 170 0 177 0 C177 0 291 0 291 0 C390 0 415 -30 415 -88 C415 -170 366 -211 270 -211 C168 -211 116 -165 116 -75 C116 -38 129 -13 156 1 C156 1 156 1 156 1 L156 1 Z M135 3 C75 -15 45 -48 45 -95 C45 -185 119 -230 265 -230 C411 -230 485 -176 485 -68 C485 33 447 84 300 84 C300 84 182 84 182 84 C130 85 104 100 104 130 C104 169 155 188 255 188 C375 188 435 242 435 350 C435 371 433 390 428 407 C448 442 471 460 496 460 C506 460 511 450 511 430 C511 410 524 400 550 400 C573 400 585 413 585 440 C585 477 567 495 532 495 C484 495 447 472 421 426 C397 482 342 510 255 510 C135 510 75 456 75 350 C75 271 107 221 171 200 C94 188 55 156 55 105 C55 48 82 14 135 3 C135 3 135 3 135 3 L135 3 Z " />
<glyph glyph-name="Gdotaccent" unicode="&#x120;" horiz-adv-x="792" d="M409 865 C446 865 464 883 464 920 C464 957 446 975 409 975 C373 975 354 957 354 920 C354 883 373 865 409 865 L409 865 Z M693 547 C693 547 693 631 693 631 C693 631 693 712 693 712 C693 712 678 712 678 712 C678 712 676 705 673 692 C671 685 645 694 596 723 C596 723 596 723 596 723 C554 748 500 760 409 760 C171 760 51 631 51 375 C51 119 170 -10 407 -10 C572 -10 648 13 747 60 C747 60 741 73 741 73 C717 62 694 52 670 44 C670 44 670 245 670 245 C670 301 686 305 719 305 C719 305 730 305 730 305 C730 305 730 325 730 325 C730 325 505 325 505 325 C505 325 505 305 505 305 C505 305 515 305 515 305 C555 305 575 301 575 245 C575 245 577 22 577 22 C577 22 577 22 577 22 C577 22 576 113 576 113 C576 46 522 13 415 13 C242 13 155 135 155 375 C155 615 244 736 419 736 C459 736 491 732 517 724 C517 724 517 724 517 724 C592 701 651 626 673 562 C676 552 678 547 678 547 C678 547 693 547 693 547 L693 547 Z " />
<glyph glyph-name="gdotaccent" unicode="&#x121;" horiz-adv-x="520" d="M255 615 C291 615 310 633 310 670 C310 707 291 725 255 725 C218 725 200 707 200 670 C200 633 218 615 255 615 L255 615 Z M160 350 C160 443 192 490 255 490 C318 490 350 443 350 350 C350 256 318 208 255 208 C192 208 160 256 160 350 L160 350 Z M156 1 C163 0 170 0 177 0 C177 0 291 0 291 0 C390 0 415 -30 415 -88 C415 -170 366 -211 270 -211 C168 -211 116 -165 116 -75 C116 -38 129 -13 156 1 C156 1 156 1 156 1 L156 1 Z M135 3 C75 -15 45 -48 45 -95 C45 -185 119 -230 265 -230 C411 -230 485 -176 485 -68 C485 33 447 84 300 84 C300 84 182 84 182 84 C130 85 104 100 104 130 C104 169 155 188 255 188 C375 188 435 242 435 350 C435 371 433 390 428 407 C448 442 471 460 496 460 C506 460 511 450 511 430 C511 410 524 400 550 400 C573 400 585 413 585 440 C585 477 567 495 532 495 C484 495 447 472 421 426 C397 482 342 510 255 510 C135 510 75 456 75 350 C75 271 107 221 171 200 C94 188 55 156 55 105 C55 48 82 14 135 3 C135 3 135 3 135 3 L135 3 Z " />
<glyph glyph-name="Hcircumflex" unicode="&#x124;" horiz-adv-x="817" d="M765 750 C765 750 523 750 523 750 C523 750 523 730 523 730 C523 730 534 730 534 730 C576 730 597 726 597 670 C597 670 597 396 597 396 C597 396 258 396 258 396 C258 396 258 670 258 670 C258 726 279 730 321 730 C321 730 332 730 332 730 C332 730 332 750 332 750 C332 750 89 750 89 750 C89 750 89 730 89 730 C89 730 100 730 100 730 C142 730 163 726 163 670 C163 670 163 80 163 80 C163 24 142 20 100 20 C100 20 89 20 89 20 C89 20 89 0 89 0 C89 0 332 0 332 0 C332 0 332 20 332 20 C332 20 321 20 321 20 C279 20 258 24 258 80 C258 80 258 370 258 370 C258 370 597 370 597 370 C597 370 597 80 597 80 C597 24 576 20 534 20 C534 20 523 20 523 20 C523 20 523 0 523 0 C523 0 765 0 765 0 C765 0 765 20 765 20 C765 20 755 20 755 20 C713 20 692 24 692 80 C692 80 692 670 692 670 C692 726 713 730 755 730 C755 730 765 730 765 730 C765 730 765 750 765 750 L765 750 Z M427 945 C427 945 568 806 568 806 C568 806 579 816 579 816 C579 816 457 1005 457 1005 C451 1015 438 1035 427 1035 C417 1035 404 1015 397 1005 C397 1005 275 816 275 816 C275 816 287 806 287 806 C287 806 427 945 427 945 L427 945 Z " />
<glyph glyph-name="Itilde" unicode="&#x128;" horiz-adv-x="343" d="M30 870 C30 910 44 930 72 930 C138 930 179 865 245 865 C299 865 326 905 326 985 C326 985 311 985 311 985 C311 945 295 925 265 925 C199 925 157 990 91 990 C41 990 15 950 15 870 C15 870 30 870 30 870 L30 870 Z M292 750 C292 750 49 750 49 750 C49 750 49 730 49 730 C49 730 60 730 60 730 C102 730 123 726 123 670 C123 670 123 80 123 80 C123 24 102 20 60 20 C60 20 49 20 49 20 C49 20 49 0 49 0 C49 0 292 0 292 0 C292 0 292 20 292 20 C292 20 281 20 281 20 C239 20 218 24 218 80 C218 80 218 670 218 670 C218 726 239 730 281 730 C281 730 292 730 292 730 C292 730 292 750 292 750 L292 750 Z " />
<glyph glyph-name="itilde" unicode="&#x129;" horiz-adv-x="290" d="M17 620 C17 660 31 680 58 680 C124 680 166 615 232 615 C286 615 313 655 313 735 C313 735 298 735 298 735 C298 695 282 675 251 675 C185 675 144 740 78 740 C27 740 2 700 2 620 C2 620 17 620 17 620 L17 620 Z M59 0 C59 0 258 0 258 0 C258 0 258 20 258 20 C258 20 247 20 247 20 C216 20 200 21 200 35 C200 35 200 390 200 390 C200 390 200 500 200 500 C200 500 185 500 185 500 C185 500 58 445 58 445 C58 445 58 435 58 435 C111 438 115 436 115 390 C115 390 115 35 115 35 C115 21 100 20 69 20 C69 20 59 20 59 20 C59 20 59 0 59 0 L59 0 Z " />
<glyph glyph-name="Imacron" unicode="&#x12a;" horiz-adv-x="343" d="M21 895 C21 895 321 895 321 895 C321 895 321 954 321 954 C321 954 21 954 21 954 C21 954 21 895 21 895 L21 895 Z M292 750 C292 750 49 750 49 750 C49 750 49 730 49 730 C49 730 60 730 60 730 C102 730 123 726 123 670 C123 670 123 80 123 80 C123 24 102 20 60 20 C60 20 49 20 49 20 C49 20 49 0 49 0 C49 0 292 0 292 0 C292 0 292 20 292 20 C292 20 281 20 281 20 C239 20 218 24 218 80 C218 80 218 670 218 670 C218 726 239 730 281 730 C281 730 292 730 292 730 C292 730 292 750 292 750 L292 750 Z " />
<glyph glyph-name="imacron" unicode="&#x12b;" horiz-adv-x="290" d="M7 645 C7 645 307 645 307 645 C307 645 307 704 307 704 C307 704 7 704 7 704 C7 704 7 645 7 645 L7 645 Z M59 0 C59 0 258 0 258 0 C258 0 258 20 258 20 C258 20 247 20 247 20 C216 20 200 21 200 35 C200 35 200 390 200 390 C200 390 200 500 200 500 C200 500 185 500 185 500 C185 500 58 445 58 445 C58 445 58 435 58 435 C111 438 115 436 115 390 C115 390 115 35 115 35 C115 21 100 20 69 20 C69 20 59 20 59 20 C59 20 59 0 59 0 L59 0 Z " />
<glyph glyph-name="Ibreve" unicode="&#x12c;" horiz-adv-x="343" d="M36 994 C43 912 89 870 171 870 C253 870 298 911 305 992 C305 992 287 995 287 995 C284 952 245 930 171 930 C97 930 58 952 54 997 C54 997 36 994 36 994 L36 994 Z M292 750 C292 750 49 750 49 750 C49 750 49 730 49 730 C49 730 60 730 60 730 C102 730 123 726 123 670 C123 670 123 80 123 80 C123 24 102 20 60 20 C60 20 49 20 49 20 C49 20 49 0 49 0 C49 0 292 0 292 0 C292 0 292 20 292 20 C292 20 281 20 281 20 C239 20 218 24 218 80 C218 80 218 670 218 670 C218 726 239 730 281 730 C281 730 292 730 292 730 C292 730 292 750 292 750 L292 750 Z " />
<glyph glyph-name="ibreve" unicode="&#x12d;" horiz-adv-x="290" d="M23 744 C30 662 75 620 157 620 C239 620 285 661 292 742 C292 742 274 745 274 745 C270 702 231 680 157 680 C83 680 44 702 41 747 C41 747 23 744 23 744 L23 744 Z M59 0 C59 0 258 0 258 0 C258 0 258 20 258 20 C258 20 247 20 247 20 C216 20 200 21 200 35 C200 35 200 390 200 390 C200 390 200 500 200 500 C200 500 185 500 185 500 C185 500 58 445 58 445 C58 445 58 435 58 435 C111 438 115 436 115 390 C115 390 115 35 115 35 C115 21 100 20 69 20 C69 20 59 20 59 20 C59 20 59 0 59 0 L59 0 Z " />
<glyph glyph-name="Idotaccent" unicode="&#x130;" horiz-adv-x="343" d="M171 865 C207 865 226 883 226 920 C226 957 207 975 171 975 C134 975 116 957 116 920 C116 883 134 865 171 865 L171 865 Z M292 750 C292 750 49 750 49 750 C49 750 49 730 49 730 C49 730 60 730 60 730 C102 730 123 726 123 670 C123 670 123 80 123 80 C123 24 102 20 60 20 C60 20 49 20 49 20 C49 20 49 0 49 0 C49 0 292 0 292 0 C292 0 292 20 292 20 C292 20 281 20 281 20 C239 20 218 24 218 80 C218 80 218 670 218 670 C218 726 239 730 281 730 C281 730 292 730 292 730 C292 730 292 750 292 750 L292 750 Z " />
<glyph glyph-name="dotlessi" unicode="&#x131;" horiz-adv-x="290" d="M59 0 C59 0 258 0 258 0 C258 0 258 20 258 20 C258 20 247 20 247 20 C216 20 200 21 200 35 C200 35 200 390 200 390 C200 390 200 500 200 500 C200 500 185 500 185 500 C185 500 58 445 58 445 C58 445 58 435 58 435 C111 438 115 436 115 390 C115 390 115 35 115 35 C115 21 100 20 69 20 C69 20 59 20 59 20 C59 20 59 0 59 0 L59 0 Z " />
<glyph glyph-name="Jcircumflex" unicode="&#x134;" horiz-adv-x="343" d="M292 750 C292 750 49 750 49 750 C49 750 49 730 49 730 C49 730 60 730 60 730 C102 730 123 726 123 670 C123 670 123 -68 123 -68 C123 -179 69 -187 22 -187 C-32 -187 0 -107 -53 -107 C-83 -107 -98 -122 -98 -152 C-98 -197 -66 -220 -2 -220 C101 -220 219 -197 218 112 C218 112 218 670 218 670 C218 726 239 730 281 730 C281 730 292 730 292 730 C292 730 292 750 292 750 L292 750 Z M171 945 C171 945 311 806 311 806 C311 806 323 816 323 816 C323 816 201 1005 201 1005 C194 1015 181 1035 171 1035 C160 1035 147 1015 141 1005 C141 1005 19 816 19 816 C19 816 30 806 30 806 C30 806 171 945 171 945 L171 945 Z " />
<glyph glyph-name="Lacute" unicode="&#x139;" horiz-adv-x="608" d="M178 812 C178 812 320 932 320 932 C363 969 384 989 384 996 C384 1021 367 1038 342 1038 C336 1038 316 1016 282 971 C282 971 168 823 168 823 C168 823 178 812 178 812 L178 812 Z M553 16 C553 16 553 16 553 16 C562 54 574 92 584 130 C580 131 566 132 564 132 C564 132 561 121 561 121 C542 51 521 16 368 16 C368 16 298 16 298 16 C218 16 218 37 218 80 C218 80 218 85 218 85 C218 85 218 665 218 665 C218 725 239 730 281 730 C281 730 292 730 292 730 C292 730 292 750 292 750 C292 750 218 750 218 750 C218 750 123 750 123 750 C123 750 49 750 49 750 C49 750 49 730 49 730 C49 730 60 730 60 730 C102 730 123 725 123 665 C123 665 123 85 123 85 C123 25 102 20 60 20 C60 20 49 20 49 20 C49 20 49 0 49 0 C49 0 123 0 123 0 C123 0 218 0 218 0 C218 0 364 0 364 0 C364 0 549 0 549 0 C549 0 553 16 553 16 L553 16 Z " />
<glyph glyph-name="Lcaron" unicode="&#x13d;" horiz-adv-x="608" d="M553 16 C553 16 553 16 553 16 C562 54 574 92 584 130 C580 131 566 132 564 132 C564 132 561 121 561 121 C542 51 521 16 368 16 C368 16 298 16 298 16 C218 16 218 37 218 80 C218 80 218 85 218 85 C218 85 218 665 218 665 C218 725 239 730 281 730 C281 730 292 730 292 730 C292 730 292 750 292 750 C292 750 218 750 218 750 C218 750 123 750 123 750 C123 750 49 750 49 750 C49 750 49 730 49 730 C49 730 60 730 60 730 C102 730 123 725 123 665 C123 665 123 85 123 85 C123 25 102 20 60 20 C60 20 49 20 49 20 C49 20 49 0 49 0 C49 0 123 0 123 0 C123 0 218 0 218 0 C218 0 364 0 364 0 C364 0 549 0 549 0 C549 0 553 16 553 16 L553 16 Z M399 691 C416 734 424 769 424 795 C424 805 411 808 386 808 C366 808 359 750 355 700 C355 700 345 589 345 589 C345 589 360 586 360 586 C360 586 399 691 399 691 L399 691 Z " />
<glyph glyph-name="lcaron" unicode="&#x13e;" horiz-adv-x="271" d="M36 693 C36 693 46 696 46 696 C79 705 95 704 95 630 C95 630 95 35 95 35 C95 21 80 20 50 20 C50 20 39 20 39 20 C39 20 39 0 39 0 C39 0 237 0 237 0 C237 0 237 20 237 20 C237 20 226 20 226 20 C195 20 180 21 180 35 C180 35 180 650 180 650 C180 650 180 750 180 750 C180 750 165 750 165 750 C165 750 36 713 36 713 C36 713 36 693 36 693 L36 693 Z M280 641 C297 684 305 719 305 745 C305 755 292 758 267 758 C248 758 240 700 236 650 C236 650 227 539 227 539 C227 539 241 536 241 536 C241 536 280 641 280 641 L280 641 Z " />
<glyph glyph-name="Nacute" unicode="&#x143;" horiz-adv-x="744" d="M276 812 C276 812 418 932 418 932 C461 969 482 989 482 996 C482 1021 465 1038 440 1038 C434 1038 414 1016 379 971 C379 971 266 823 266 823 C266 823 276 812 276 812 L276 812 Z M17 730 C17 730 43 730 43 730 C55 730 63 728 83 702 C83 702 120 651 120 651 C120 651 119 150 119 150 C119 150 119 150 119 150 C119 29 97 20 54 20 C54 20 31 20 31 20 C31 20 31 0 31 0 C31 0 119 0 119 0 C119 0 147 0 147 0 C147 0 235 0 235 0 C235 0 235 20 235 20 C235 20 212 20 212 20 C171 20 149 27 146 116 C146 116 144 618 144 618 C144 618 494 135 494 135 C494 135 592 0 592 0 C592 0 611 0 611 0 C611 0 617 630 617 630 C617 630 617 630 617 630 C617 723 643 730 694 730 C694 730 705 730 705 730 C705 730 705 750 705 750 C705 750 618 750 618 750 C618 750 590 750 590 750 C590 750 502 750 502 750 C502 750 502 730 502 730 C502 730 513 730 513 730 C564 730 590 723 590 630 C590 630 590 630 590 630 C590 630 592 163 592 163 C592 163 572 190 572 190 C572 190 166 750 166 750 C166 750 143 750 143 750 C143 750 120 750 120 750 C120 750 48 750 48 750 C48 750 17 750 17 750 C17 750 17 730 17 730 L17 730 Z " />
<glyph glyph-name="Ncaron" unicode="&#x147;" horiz-adv-x="744" d="M17 730 C17 730 43 730 43 730 C55 730 63 728 83 702 C83 702 120 651 120 651 C120 651 119 150 119 150 C119 150 119 150 119 150 C119 29 97 20 54 20 C54 20 31 20 31 20 C31 20 31 0 31 0 C31 0 119 0 119 0 C119 0 147 0 147 0 C147 0 235 0 235 0 C235 0 235 20 235 20 C235 20 212 20 212 20 C171 20 149 27 146 116 C146 116 144 618 144 618 C144 618 494 135 494 135 C494 135 592 0 592 0 C592 0 611 0 611 0 C611 0 617 630 617 630 C617 630 617 630 617 630 C617 723 643 730 694 730 C694 730 705 730 705 730 C705 730 705 750 705 750 C705 750 618 750 618 750 C618 750 590 750 590 750 C590 750 502 750 502 750 C502 750 502 730 502 730 C502 730 513 730 513 730 C564 730 590 723 590 630 C590 630 590 630 590 630 C590 630 592 163 592 163 C592 163 572 190 572 190 C572 190 166 750 166 750 C166 750 143 750 143 750 C143 750 120 750 120 750 C120 750 48 750 48 750 C48 750 17 750 17 750 C17 750 17 730 17 730 L17 730 Z M368 905 C368 905 509 1044 509 1044 C509 1044 520 1034 520 1034 C520 1034 399 845 399 845 C392 835 379 815 368 815 C358 815 345 835 339 845 C339 845 217 1034 217 1034 C217 1034 228 1044 228 1044 C228 1044 368 905 368 905 L368 905 Z " />
<glyph glyph-name="ncaron" unicode="&#x148;" horiz-adv-x="570" d="M30 433 C30 433 40 437 40 437 C73 448 89 449 89 375 C89 375 89 35 89 35 C89 21 74 20 44 20 C44 20 33 20 33 20 C33 20 33 0 33 0 C33 0 231 0 231 0 C231 0 231 20 231 20 C231 20 220 20 220 20 C189 20 174 21 174 35 C174 35 174 360 174 360 C208 418 247 448 292 448 C367 448 395 408 395 330 C395 330 395 35 395 35 C395 21 380 20 349 20 C349 20 338 20 338 20 C338 20 338 0 338 0 C338 0 536 0 536 0 C536 0 536 20 536 20 C536 20 525 20 525 20 C495 20 480 21 480 35 C480 35 480 330 480 330 C480 450 443 510 342 510 C279 510 223 468 174 385 C174 385 174 400 174 400 C174 400 174 500 174 500 C174 500 159 500 159 500 C159 500 30 453 30 453 C30 453 30 433 30 433 L30 433 Z M284 655 C284 655 425 794 425 794 C425 794 436 784 436 784 C436 784 315 595 315 595 C308 585 295 565 285 565 C274 565 261 585 255 595 C255 595 133 784 133 784 C133 784 144 794 144 794 C144 794 284 655 284 655 L284 655 Z " />
<glyph glyph-name="Omacron" unicode="&#x14c;" horiz-adv-x="850" d="M268 895 C268 895 568 895 568 895 C568 895 568 954 568 954 C568 954 268 954 268 954 C268 954 268 895 268 895 L268 895 Z M413 15 C244 15 159 136 159 375 C159 614 244 735 413 735 C595 735 687 614 687 375 C687 136 595 15 413 15 L413 15 Z M50 375 C50 119 170 -10 408 -10 C666 -10 796 119 796 375 C796 631 669 760 418 760 C173 760 50 631 50 375 L50 375 Z " />
<glyph glyph-name="omacron" unicode="&#x14d;" horiz-adv-x="609" d="M152 645 C152 645 452 645 452 645 C452 645 452 704 452 704 C452 704 152 704 152 704 C152 704 152 645 152 645 L152 645 Z M302 16 C190 16 134 95 134 250 C134 405 190 484 302 484 C414 484 470 405 470 250 C470 95 414 16 302 16 L302 16 Z M41 250 C41 77 129 -10 302 -10 C476 -10 564 77 564 250 C564 423 476 510 302 510 C129 510 41 423 41 250 L41 250 Z " />
<glyph glyph-name="Obreve" unicode="&#x14e;" horiz-adv-x="850" d="M283 994 C290 912 336 870 418 870 C500 870 545 911 552 992 C552 992 534 995 534 995 C531 952 492 930 418 930 C344 930 305 952 301 997 C301 997 283 994 283 994 L283 994 Z M413 15 C244 15 159 136 159 375 C159 614 244 735 413 735 C595 735 687 614 687 375 C687 136 595 15 413 15 L413 15 Z M50 375 C50 119 170 -10 408 -10 C666 -10 796 119 796 375 C796 631 669 760 418 760 C173 760 50 631 50 375 L50 375 Z " />
<glyph glyph-name="obreve" unicode="&#x14f;" horiz-adv-x="609" d="M168 744 C175 662 220 620 302 620 C384 620 430 661 437 742 C437 742 419 745 419 745 C415 702 376 680 302 680 C228 680 189 702 186 747 C186 747 168 744 168 744 L168 744 Z M302 16 C190 16 134 95 134 250 C134 405 190 484 302 484 C414 484 470 405 470 250 C470 95 414 16 302 16 L302 16 Z M41 250 C41 77 129 -10 302 -10 C476 -10 564 77 564 250 C564 423 476 510 302 510 C129 510 41 423 41 250 L41 250 Z " />
<glyph glyph-name="Racute" unicode="&#x154;" horiz-adv-x="751" d="M312 812 C312 812 454 932 454 932 C496 969 518 989 518 996 C518 1021 501 1038 475 1038 C470 1038 450 1016 415 971 C415 971 301 823 301 823 C301 823 312 812 312 812 L312 812 Z M53 730 C53 730 64 730 64 730 C106 730 127 725 127 665 C127 665 127 85 127 85 C127 25 106 20 64 20 C64 20 53 20 53 20 C53 20 53 0 53 0 C53 0 296 0 296 0 C296 0 296 20 296 20 C296 20 285 20 285 20 C243 20 222 25 222 85 C222 85 222 356 222 356 C222 356 326 356 326 356 C344 323 403 230 504 80 C560 -5 545 0 742 0 C742 0 742 19 742 19 C651 19 659 15 615 80 C516 227 453 321 426 362 C533 378 586 428 586 538 C586 679 501 750 331 750 C331 750 222 750 222 750 C222 750 53 750 53 750 C53 750 53 730 53 730 L53 730 Z M222 731 C222 731 303 731 303 731 C421 731 481 673 481 557 C481 422 431 380 331 380 C331 380 222 380 222 380 C222 380 222 665 222 665 C222 665 222 731 222 731 L222 731 Z " />
<glyph glyph-name="Rcaron" unicode="&#x158;" horiz-adv-x="751" d="M53 730 C53 730 64 730 64 730 C106 730 127 725 127 665 C127 665 127 85 127 85 C127 25 106 20 64 20 C64 20 53 20 53 20 C53 20 53 0 53 0 C53 0 296 0 296 0 C296 0 296 20 296 20 C296 20 285 20 285 20 C243 20 222 25 222 85 C222 85 222 356 222 356 C222 356 326 356 326 356 C344 323 403 230 504 80 C560 -5 545 0 742 0 C742 0 742 19 742 19 C651 19 659 15 615 80 C516 227 453 321 426 362 C533 378 586 428 586 538 C586 679 501 750 331 750 C331 750 222 750 222 750 C222 750 53 750 53 750 C53 750 53 730 53 730 L53 730 Z M304 905 C304 905 445 1044 445 1044 C445 1044 456 1034 456 1034 C456 1034 334 845 334 845 C328 835 315 815 304 815 C294 815 281 835 274 845 C274 845 152 1034 152 1034 C152 1034 164 1044 164 1044 C164 1044 304 905 304 905 L304 905 Z M222 731 C222 731 303 731 303 731 C421 731 481 673 481 557 C481 422 431 380 331 380 C331 380 222 380 222 380 C222 380 222 665 222 665 C222 665 222 731 222 731 L222 731 Z " />
<glyph glyph-name="rcaron" unicode="&#x159;" horiz-adv-x="430" d="M36 433 C36 433 46 437 46 437 C79 448 95 449 95 375 C95 375 95 35 95 35 C95 21 81 20 53 20 C53 20 43 20 43 20 C43 20 43 0 43 0 C43 0 240 0 240 0 C240 0 240 20 240 20 C240 20 229 20 229 20 C197 20 180 21 180 35 C180 35 180 357 180 357 C205 432 240 470 286 470 C309 470 320 458 320 435 C320 402 337 385 370 385 C403 385 420 402 420 435 C420 485 388 510 325 510 C254 510 206 473 180 401 C180 401 180 500 180 500 C180 500 165 500 165 500 C165 500 36 453 36 453 C36 453 36 433 36 433 L36 433 Z M250 655 C250 655 391 794 391 794 C391 794 402 784 402 784 C402 784 281 595 281 595 C274 585 261 565 250 565 C240 565 227 585 221 595 C221 595 99 784 99 784 C99 784 110 794 110 794 C110 794 250 655 250 655 L250 655 Z " />
<glyph glyph-name="Sacute" unicode="&#x15a;" horiz-adv-x="550" d="M281 812 C281 812 423 932 423 932 C466 969 487 989 487 996 C487 1021 470 1038 445 1038 C439 1038 419 1016 385 971 C385 971 271 823 271 823 C271 823 281 812 281 812 L281 812 Z M470 571 C470 571 470 643 470 643 C470 643 470 724 470 724 C470 724 455 724 455 724 C455 724 453 717 450 704 C448 698 432 703 404 722 C404 722 404 722 404 722 C366 747 316 760 256 760 C129 760 65 694 65 564 C65 455 118 380 263 326 C388 278 434 229 434 166 C434 69 386 20 291 20 C255 20 223 26 194 39 C194 39 194 39 194 39 C135 64 89 148 65 219 C65 219 50 219 50 219 C50 219 50 147 50 147 C50 147 50 45 50 45 C50 45 65 45 65 45 C65 45 67 54 70 70 C71 76 94 66 138 35 C138 35 139 35 139 35 C181 5 232 -10 291 -10 C437 -10 510 58 510 194 C510 299 459 371 320 424 C188 475 140 529 140 600 C140 691 179 736 256 736 C271 736 285 735 298 733 C371 720 428 651 450 586 C453 576 455 571 455 571 C455 571 470 571 470 571 L470 571 Z M291 734 C291 734 285 735 285 735 C287 735 289 735 291 734 L291 734 Z " />
<glyph glyph-name="Scircumflex" unicode="&#x15c;" horiz-adv-x="550" d="M470 571 C470 571 470 643 470 643 C470 643 470 724 470 724 C470 724 455 724 455 724 C455 724 453 717 450 704 C448 698 432 703 404 722 C404 722 404 722 404 722 C366 747 316 760 256 760 C129 760 65 694 65 564 C65 455 118 380 263 326 C388 278 434 229 434 166 C434 69 386 20 291 20 C255 20 223 26 194 39 C194 39 194 39 194 39 C135 64 89 148 65 219 C65 219 50 219 50 219 C50 219 50 147 50 147 C50 147 50 45 50 45 C50 45 65 45 65 45 C65 45 67 54 70 70 C71 76 94 66 138 35 C138 35 139 35 139 35 C181 5 232 -10 291 -10 C437 -10 510 58 510 194 C510 299 459 371 320 424 C188 475 140 529 140 600 C140 691 179 736 256 736 C271 736 285 735 298 733 C371 720 428 651 450 586 C453 576 455 571 455 571 C455 571 470 571 470 571 L470 571 Z M274 945 C274 945 414 806 414 806 C414 806 426 816 426 816 C426 816 304 1005 304 1005 C297 1015 284 1035 274 1035 C263 1035 250 1015 244 1005 C244 1005 122 816 122 816 C122 816 133 806 133 806 C133 806 274 945 274 945 L274 945 Z M291 734 C291 734 285 735 285 735 C287 735 289 735 291 734 L291 734 Z " />
<glyph glyph-name="Scaron" unicode="&#x160;" horiz-adv-x="550" d="M470 571 C470 571 470 643 470 643 C470 643 470 724 470 724 C470 724 455 724 455 724 C455 724 453 717 450 704 C448 698 432 703 404 722 C404 722 404 722 404 722 C366 747 316 760 256 760 C129 760 65 694 65 564 C65 455 118 380 263 326 C388 278 434 229 434 166 C434 69 386 20 291 20 C255 20 223 26 194 39 C194 39 194 39 194 39 C135 64 89 148 65 219 C65 219 50 219 50 219 C50 219 50 147 50 147 C50 147 50 45 50 45 C50 45 65 45 65 45 C65 45 67 54 70 70 C71 76 94 66 138 35 C138 35 139 35 139 35 C181 5 232 -10 291 -10 C437 -10 510 58 510 194 C510 299 459 371 320 424 C188 475 140 529 140 600 C140 691 179 736 256 736 C271 736 285 735 298 733 C371 720 428 651 450 586 C453 576 455 571 455 571 C455 571 470 571 470 571 L470 571 Z M274 905 C274 905 414 1044 414 1044 C414 1044 426 1034 426 1034 C426 1034 304 845 304 845 C297 835 284 815 274 815 C263 815 250 835 244 845 C244 845 122 1034 122 1034 C122 1034 133 1044 133 1044 C133 1044 274 905 274 905 L274 905 Z M291 734 C291 734 285 735 285 735 C287 735 289 735 291 734 L291 734 Z " />
<glyph glyph-name="scaron" unicode="&#x161;" horiz-adv-x="439" d="M364 369 C364 369 364 426 364 426 C364 426 364 507 364 507 C364 507 344 507 344 507 C344 507 344 486 344 486 C344 481 328 483 296 495 C273 505 247 510 216 510 C119 510 70 466 70 380 C70 297 108 245 210 218 C293 195 324 160 324 106 C324 42 292 10 229 10 C172 10 127 39 98 96 C93 110 91 124 91 138 C91 138 91 150 91 150 C91 150 71 150 71 150 C71 150 71 94 71 94 C71 94 71 34 71 34 C71 34 91 34 91 34 C91 34 91 49 91 49 C91 37 116 17 166 1 C185 -6 206 -10 229 -10 C336 -10 390 37 390 130 C390 206 352 254 248 282 C162 306 130 346 130 409 C130 463 159 490 216 490 C301 490 344 435 344 381 C344 381 344 369 344 369 C344 369 364 369 364 369 L364 369 Z M229 655 C229 655 369 794 369 794 C369 794 381 784 381 784 C381 784 259 595 259 595 C252 585 239 565 229 565 C218 565 205 585 199 595 C199 595 77 784 77 784 C77 784 89 794 89 794 C89 794 229 655 229 655 L229 655 Z " />
<glyph glyph-name="Tcaron" unicode="&#x164;" horiz-adv-x="775" d="M98 790 C98 790 88 790 88 790 C81 789 78 789 78 789 C73 776 69 763 64 750 C64 750 55 750 55 750 C55 750 55 726 55 726 C55 726 55 726 55 726 C46 702 38 678 29 654 C33 653 46 652 48 652 C48 652 52 663 52 663 C67 705 82 726 175 726 C175 726 340 726 340 726 C340 726 340 80 340 80 C340 24 319 20 277 20 C277 20 266 20 266 20 C266 20 266 0 266 0 C266 0 509 0 509 0 C509 0 509 20 509 20 C509 20 498 20 498 20 C456 20 435 24 435 80 C435 80 435 726 435 726 C435 726 600 726 600 726 C693 726 708 705 723 663 C723 663 727 652 727 652 C731 653 744 654 746 654 C737 678 729 702 720 726 C720 726 720 726 720 726 C720 726 720 750 720 750 C720 750 711 750 711 750 C706 763 702 776 697 789 C697 789 694 789 687 790 C687 790 677 790 677 790 C687 760 693 750 591 750 C591 750 435 750 435 750 C435 750 340 750 340 750 C340 750 184 750 184 750 C82 750 88 759 98 790 C98 790 98 790 98 790 L98 790 Z M387 905 C387 905 528 1044 528 1044 C528 1044 539 1034 539 1034 C539 1034 418 845 418 845 C411 835 398 815 388 815 C377 815 364 835 358 845 C358 845 236 1034 236 1034 C236 1034 247 1044 247 1044 C247 1044 387 905 387 905 L387 905 Z " />
<glyph glyph-name="tcaron" unicode="&#x165;" horiz-adv-x="378" d="M333 500 C333 500 180 500 180 500 C180 500 180 620 180 620 C180 620 174 620 174 620 C174 620 30 466 30 466 C30 466 30 456 30 456 C30 456 95 456 95 456 C95 456 95 160 95 160 C95 24 141 -10 232 -10 C296 -10 342 26 368 96 C368 96 358 100 358 100 C341 53 307 30 258 30 C204 30 177 52 178 141 C178 141 180 455 180 455 C180 455 333 455 333 455 C333 455 333 500 333 500 L333 500 Z M438 641 C455 684 463 719 463 745 C463 755 450 758 425 758 C405 758 398 700 394 650 C394 650 384 539 384 539 C384 539 399 536 399 536 C399 536 438 641 438 641 L438 641 Z " />
<glyph glyph-name="Utilde" unicode="&#x168;" horiz-adv-x="713" d="M215 870 C215 910 229 930 256 930 C322 930 364 865 430 865 C483 865 510 905 510 985 C510 985 495 985 495 985 C495 945 480 925 449 925 C383 925 342 990 276 990 C225 990 200 950 200 870 C200 870 215 870 215 870 L215 870 Z M449 730 C449 730 460 730 460 730 C502 730 523 725 523 665 C523 665 523 188 523 188 C481 97 409 51 309 51 C228 51 187 108 187 220 C187 220 187 665 187 665 C187 665 187 750 187 750 C187 750 18 750 18 750 C18 750 18 730 18 730 C18 730 29 730 29 730 C71 730 92 725 92 665 C92 665 92 220 92 220 C92 67 152 -10 271 -10 C391 -10 475 42 523 145 C523 145 523 110 523 110 C523 110 523 0 523 0 C523 0 538 0 538 0 C538 0 691 55 691 55 C691 55 691 65 691 65 C623 61 618 63 618 110 C618 110 618 665 618 665 C618 665 618 750 618 750 C618 750 449 750 449 750 C449 750 449 730 449 730 L449 730 Z " />
<glyph glyph-name="utilde" unicode="&#x169;" horiz-adv-x="549" d="M128 620 C128 660 142 680 170 680 C236 680 277 615 343 615 C397 615 424 655 424 735 C424 735 409 735 409 735 C409 695 393 675 363 675 C297 675 255 740 189 740 C139 740 113 700 113 620 C113 620 128 620 128 620 L128 620 Z M523 42 C483 34 464 25 464 107 C464 107 464 465 464 465 C464 465 464 500 464 500 C464 500 332 500 332 500 C332 500 332 480 332 480 C332 480 343 480 343 480 C367 480 379 479 379 465 C379 465 379 144 379 144 C352 81 309 49 250 49 C189 49 158 86 158 160 C158 160 158 465 158 465 C158 465 158 500 158 500 C158 500 27 500 27 500 C27 500 27 480 27 480 C27 480 38 480 38 480 C61 480 73 479 73 465 C73 465 73 160 73 160 C73 47 119 -10 211 -10 C287 -10 343 33 379 119 C379 119 379 90 379 90 C379 90 379 -10 379 -10 C379 -10 394 -10 394 -10 C394 -10 523 22 523 22 C523 22 523 42 523 42 L523 42 Z " />
<glyph glyph-name="Umacron" unicode="&#x16a;" horiz-adv-x="713" d="M205 895 C205 895 505 895 505 895 C505 895 505 954 505 954 C505 954 205 954 205 954 C205 954 205 895 205 895 L205 895 Z M449 730 C449 730 460 730 460 730 C502 730 523 725 523 665 C523 665 523 188 523 188 C481 97 409 51 309 51 C228 51 187 108 187 220 C187 220 187 665 187 665 C187 665 187 750 187 750 C187 750 18 750 18 750 C18 750 18 730 18 730 C18 730 29 730 29 730 C71 730 92 725 92 665 C92 665 92 220 92 220 C92 67 152 -10 271 -10 C391 -10 475 42 523 145 C523 145 523 110 523 110 C523 110 523 0 523 0 C523 0 538 0 538 0 C538 0 691 55 691 55 C691 55 691 65 691 65 C623 61 618 63 618 110 C618 110 618 665 618 665 C618 665 618 750 618 750 C618 750 449 750 449 750 C449 750 449 730 449 730 L449 730 Z " />
<glyph glyph-name="umacron" unicode="&#x16b;" horiz-adv-x="549" d="M119 645 C119 645 419 645 419 645 C419 645 419 704 419 704 C419 704 119 704 119 704 C119 704 119 645 119 645 L119 645 Z M523 42 C483 34 464 25 464 107 C464 107 464 465 464 465 C464 465 464 500 464 500 C464 500 332 500 332 500 C332 500 332 480 332 480 C332 480 343 480 343 480 C367 480 379 479 379 465 C379 465 379 144 379 144 C352 81 309 49 250 49 C189 49 158 86 158 160 C158 160 158 465 158 465 C158 465 158 500 158 500 C158 500 27 500 27 500 C27 500 27 480 27 480 C27 480 38 480 38 480 C61 480 73 479 73 465 C73 465 73 160 73 160 C73 47 119 -10 211 -10 C287 -10 343 33 379 119 C379 119 379 90 379 90 C379 90 379 -10 379 -10 C379 -10 394 -10 394 -10 C394 -10 523 22 523 22 C523 22 523 42 523 42 L523 42 Z " />
<glyph glyph-name="Ubreve" unicode="&#x16c;" horiz-adv-x="713" d="M221 994 C228 912 273 870 355 870 C437 870 483 911 490 992 C490 992 472 995 472 995 C468 952 429 930 355 930 C281 930 242 952 238 997 C238 997 221 994 221 994 L221 994 Z M449 730 C449 730 460 730 460 730 C502 730 523 725 523 665 C523 665 523 188 523 188 C481 97 409 51 309 51 C228 51 187 108 187 220 C187 220 187 665 187 665 C187 665 187 750 187 750 C187 750 18 750 18 750 C18 750 18 730 18 730 C18 730 29 730 29 730 C71 730 92 725 92 665 C92 665 92 220 92 220 C92 67 152 -10 271 -10 C391 -10 475 42 523 145 C523 145 523 110 523 110 C523 110 523 0 523 0 C523 0 538 0 538 0 C538 0 691 55 691 55 C691 55 691 65 691 65 C623 61 618 63 618 110 C618 110 618 665 618 665 C618 665 618 750 618 750 C618 750 449 750 449 750 C449 750 449 730 449 730 L449 730 Z " />
<glyph glyph-name="ubreve" unicode="&#x16d;" horiz-adv-x="549" d="M134 744 C141 662 186 620 269 620 C351 620 396 661 403 742 C403 742 385 745 385 745 C381 702 342 680 269 680 C195 680 156 702 152 747 C152 747 134 744 134 744 L134 744 Z M523 42 C483 34 464 25 464 107 C464 107 464 465 464 465 C464 465 464 500 464 500 C464 500 332 500 332 500 C332 500 332 480 332 480 C332 480 343 480 343 480 C367 480 379 479 379 465 C379 465 379 144 379 144 C352 81 309 49 250 49 C189 49 158 86 158 160 C158 160 158 465 158 465 C158 465 158 500 158 500 C158 500 27 500 27 500 C27 500 27 480 27 480 C27 480 38 480 38 480 C61 480 73 479 73 465 C73 465 73 160 73 160 C73 47 119 -10 211 -10 C287 -10 343 33 379 119 C379 119 379 90 379 90 C379 90 379 -10 379 -10 C379 -10 394 -10 394 -10 C394 -10 523 22 523 22 C523 22 523 42 523 42 L523 42 Z " />
<glyph glyph-name="Uring" unicode="&#x16e;" horiz-adv-x="713" d="M355 830 C312 830 283 860 283 905 C283 955 307 980 355 980 C404 980 428 955 428 905 C428 860 399 830 355 830 L355 830 Z M258 905 C258 848 297 810 355 810 C414 810 453 848 453 905 C453 968 420 1000 355 1000 C291 1000 258 968 258 905 L258 905 Z M449 730 C449 730 460 730 460 730 C502 730 523 725 523 665 C523 665 523 188 523 188 C481 97 409 51 309 51 C228 51 187 108 187 220 C187 220 187 665 187 665 C187 665 187 750 187 750 C187 750 18 750 18 750 C18 750 18 730 18 730 C18 730 29 730 29 730 C71 730 92 725 92 665 C92 665 92 220 92 220 C92 67 152 -10 271 -10 C391 -10 475 42 523 145 C523 145 523 110 523 110 C523 110 523 0 523 0 C523 0 538 0 538 0 C538 0 691 55 691 55 C691 55 691 65 691 65 C623 61 618 63 618 110 C618 110 618 665 618 665 C618 665 618 750 618 750 C618 750 449 750 449 750 C449 750 449 730 449 730 L449 730 Z " />
<glyph glyph-name="uring" unicode="&#x16f;" horiz-adv-x="549" d="M269 580 C225 580 196 610 196 655 C196 705 220 730 269 730 C317 730 341 705 341 655 C341 610 312 580 269 580 L269 580 Z M171 655 C171 598 210 560 269 560 C327 560 366 598 366 655 C366 718 333 750 269 750 C204 750 171 718 171 655 L171 655 Z M523 42 C483 34 464 25 464 107 C464 107 464 465 464 465 C464 465 464 500 464 500 C464 500 332 500 332 500 C332 500 332 480 332 480 C332 480 343 480 343 480 C367 480 379 479 379 465 C379 465 379 144 379 144 C352 81 309 49 250 49 C189 49 158 86 158 160 C158 160 158 465 158 465 C158 465 158 500 158 500 C158 500 27 500 27 500 C27 500 27 480 27 480 C27 480 38 480 38 480 C61 480 73 479 73 465 C73 465 73 160 73 160 C73 47 119 -10 211 -10 C287 -10 343 33 379 119 C379 119 379 90 379 90 C379 90 379 -10 379 -10 C379 -10 394 -10 394 -10 C394 -10 523 22 523 22 C523 22 523 42 523 42 L523 42 Z " />
<glyph glyph-name="Wcircumflex" unicode="&#x174;" horiz-adv-x="1065" d="M1041 750 C1041 750 980 750 980 750 C980 750 941 750 941 750 C941 750 825 750 825 750 C825 750 825 730 825 730 C825 730 846 730 846 730 C906 730 934 722 902 610 C902 610 902 610 902 610 C902 610 771 137 771 137 C771 137 771 138 771 138 C771 138 589 640 589 640 C589 640 589 640 589 640 C588 641 588 643 587 644 C587 644 583 657 583 657 C560 725 584 730 630 730 C630 730 651 730 651 730 C651 730 651 750 651 750 C651 750 549 750 549 750 C549 750 439 750 439 750 C439 750 380 750 380 750 C380 750 380 730 380 730 C380 730 404 730 404 730 C431 730 447 727 461 693 C485 629 510 564 535 499 C535 499 390 118 390 118 C390 118 390 120 390 120 C390 120 201 637 201 637 C172 723 194 730 240 730 C240 730 261 730 261 730 C261 730 261 750 261 750 C261 750 159 750 159 750 C159 750 55 750 55 750 C55 750 16 750 16 750 C16 750 16 730 16 730 C16 730 43 730 43 730 C55 730 65 722 107 610 C107 610 108 610 108 610 C185 403 263 197 341 -10 C341 -10 366 -10 366 -10 C366 -10 551 457 551 457 C611 301 670 145 730 -10 C730 -10 755 -10 755 -10 C755 -10 939 610 939 610 C939 610 939 610 939 610 C970 722 987 730 1017 730 C1017 730 1041 730 1041 730 C1041 730 1041 750 1041 750 L1041 750 Z M517 945 C517 945 658 806 658 806 C658 806 669 816 669 816 C669 816 548 1005 548 1005 C541 1015 528 1035 517 1035 C507 1035 494 1015 488 1005 C488 1005 366 816 366 816 C366 816 377 806 377 806 C377 806 517 945 517 945 L517 945 Z " />
<glyph glyph-name="Ycircumflex" unicode="&#x176;" horiz-adv-x="718" d="M234 750 C234 750 160 750 160 750 C160 750 48 750 48 750 C48 750 15 750 15 750 C15 750 15 730 15 730 C15 730 41 730 41 730 C54 730 65 722 136 610 C136 610 137 610 137 610 C137 610 319 322 319 322 C319 322 319 80 319 80 C319 24 298 20 256 20 C256 20 245 20 245 20 C245 20 245 0 245 0 C245 0 488 0 488 0 C488 0 488 20 488 20 C488 20 477 20 477 20 C435 20 414 24 414 80 C414 80 414 325 414 325 C414 325 587 640 587 640 C634 723 650 730 672 730 C672 730 696 730 696 730 C696 730 696 750 696 750 C696 750 647 750 647 750 C647 750 600 750 600 750 C600 750 526 750 526 750 C526 750 526 730 526 730 C526 730 546 730 546 730 C570 730 584 726 566 682 C566 682 538 625 538 625 C537 624 536 622 535 620 C535 620 535 620 535 620 C535 620 404 356 404 356 C404 356 247 610 247 610 C247 610 247 610 247 610 C243 616 240 622 236 627 C236 627 228 640 228 640 C177 723 188 730 214 730 C214 730 234 730 234 730 C234 730 234 750 234 750 L234 750 Z M366 945 C366 945 507 806 507 806 C507 806 518 816 518 816 C518 816 397 1005 397 1005 C390 1015 377 1035 367 1035 C356 1035 343 1015 337 1005 C337 1005 215 816 215 816 C215 816 226 806 226 806 C226 806 366 945 366 945 L366 945 Z " />
<glyph glyph-name="Ydieresis" unicode="&#x178;" horiz-adv-x="718" d="M442 865 C478 865 497 883 497 920 C497 957 478 975 442 975 C405 975 387 957 387 920 C387 883 405 865 442 865 L442 865 Z M292 865 C328 865 347 883 347 920 C347 957 328 975 292 975 C255 975 237 957 237 920 C237 883 255 865 292 865 L292 865 Z M234 750 C234 750 160 750 160 750 C160 750 48 750 48 750 C48 750 15 750 15 750 C15 750 15 730 15 730 C15 730 41 730 41 730 C54 730 65 722 136 610 C136 610 137 610 137 610 C137 610 319 322 319 322 C319 322 319 80 319 80 C319 24 298 20 256 20 C256 20 245 20 245 20 C245 20 245 0 245 0 C245 0 488 0 488 0 C488 0 488 20 488 20 C488 20 477 20 477 20 C435 20 414 24 414 80 C414 80 414 325 414 325 C414 325 587 640 587 640 C634 723 650 730 672 730 C672 730 696 730 696 730 C696 730 696 750 696 750 C696 750 647 750 647 750 C647 750 600 750 600 750 C600 750 526 750 526 750 C526 750 526 730 526 730 C526 730 546 730 546 730 C570 730 584 726 566 682 C566 682 538 625 538 625 C537 624 536 622 535 620 C535 620 535 620 535 620 C535 620 404 356 404 356 C404 356 247 610 247 610 C247 610 247 610 247 610 C243 616 240 622 236 627 C236 627 228 640 228 640 C177 723 188 730 214 730 C214 730 234 730 234 730 C234 730 234 750 234 750 L234 750 Z " />
<glyph glyph-name="Zacute" unicode="&#x179;" horiz-adv-x="642" d="M348 812 C348 812 490 932 490 932 C532 969 554 989 554 996 C554 1021 537 1038 511 1038 C505 1038 485 1016 451 971 C451 971 337 823 337 823 C337 823 348 812 348 812 L348 812 Z M128 0 C128 0 446 0 446 0 C446 0 606 0 606 0 C616 44 629 88 639 134 C635 135 622 136 620 136 C620 136 606 105 606 105 C586 59 567 33 486 28 C486 28 143 22 143 22 C143 22 610 730 610 730 C610 730 610 750 610 750 C610 750 517 750 517 750 C517 750 240 750 240 750 C240 750 70 750 70 750 C64 701 56 655 50 607 C55 606 73 605 76 605 C76 605 81 626 81 626 C94 685 110 718 201 724 C201 724 502 728 502 728 C502 728 25 20 25 20 C25 20 25 0 25 0 C25 0 128 0 128 0 L128 0 Z " />
<glyph glyph-name="Zdotaccent" unicode="&#x17b;" horiz-adv-x="642" d="M340 865 C377 865 395 883 395 920 C395 957 377 975 340 975 C303 975 285 957 285 920 C285 883 303 865 340 865 L340 865 Z M128 0 C128 0 446 0 446 0 C446 0 606 0 606 0 C616 44 629 88 639 134 C635 135 622 136 620 136 C620 136 606 105 606 105 C586 59 567 33 486 28 C486 28 143 22 143 22 C143 22 610 730 610 730 C610 730 610 750 610 750 C610 750 517 750 517 750 C517 750 240 750 240 750 C240 750 70 750 70 750 C64 701 56 655 50 607 C55 606 73 605 76 605 C76 605 81 626 81 626 C94 685 110 718 201 724 C201 724 502 728 502 728 C502 728 25 20 25 20 C25 20 25 0 25 0 C25 0 128 0 128 0 L128 0 Z " />
<glyph glyph-name="zdotaccent" unicode="&#x17c;" horiz-adv-x="475" d="M265 615 C302 615 320 633 320 670 C320 707 302 725 265 725 C228 725 210 707 210 670 C210 633 228 615 265 615 L265 615 Z M64 404 C64 404 76 404 76 404 C76 404 87 415 87 415 C123 450 148 469 204 473 C204 473 333 477 333 477 C333 477 40 20 40 20 C40 20 40 0 40 0 C40 0 130 0 130 0 C130 0 348 0 348 0 C348 0 430 0 430 0 C432 16 435 32 437 48 C437 48 443 96 443 96 C443 96 433 96 433 96 C433 96 422 85 422 85 C382 49 355 29 285 26 C285 26 276 26 276 26 C274 26 271 26 269 26 C269 26 269 26 269 26 C269 26 144 23 144 23 C144 23 435 480 435 480 C435 480 435 500 435 500 C435 500 348 500 348 500 C348 500 135 500 135 500 C123 500 112 506 115 519 C115 519 118 528 118 528 C118 528 98 528 98 528 C86 487 76 445 64 404 C64 404 64 404 64 404 L64 404 Z " />
<glyph glyph-name="Zcaron" unicode="&#x17d;" horiz-adv-x="642" d="M340 905 C340 905 480 1044 480 1044 C480 1044 492 1034 492 1034 C492 1034 370 845 370 845 C363 835 350 815 340 815 C329 815 316 835 310 845 C310 845 188 1034 188 1034 C188 1034 200 1044 200 1044 C200 1044 340 905 340 905 L340 905 Z M128 0 C128 0 446 0 446 0 C446 0 606 0 606 0 C616 44 629 88 639 134 C635 135 622 136 620 136 C620 136 606 105 606 105 C586 59 567 33 486 28 C486 28 143 22 143 22 C143 22 610 730 610 730 C610 730 610 750 610 750 C610 750 517 750 517 750 C517 750 240 750 240 750 C240 750 70 750 70 750 C64 701 56 655 50 607 C55 606 73 605 76 605 C76 605 81 626 81 626 C94 685 110 718 201 724 C201 724 502 728 502 728 C502 728 25 20 25 20 C25 20 25 0 25 0 C25 0 128 0 128 0 L128 0 Z " />
<glyph glyph-name="zcaron" unicode="&#x17e;" horiz-adv-x="475" d="M64 404 C64 404 76 404 76 404 C76 404 87 415 87 415 C123 450 148 469 204 473 C204 473 333 477 333 477 C333 477 40 20 40 20 C40 20 40 0 40 0 C40 0 130 0 130 0 C130 0 348 0 348 0 C348 0 430 0 430 0 C432 16 435 32 437 48 C437 48 443 96 443 96 C443 96 433 96 433 96 C433 96 422 85 422 85 C382 49 355 29 285 26 C285 26 276 26 276 26 C274 26 271 26 269 26 C269 26 269 26 269 26 C269 26 144 23 144 23 C144 23 435 480 435 480 C435 480 435 500 435 500 C435 500 348 500 348 500 C348 500 135 500 135 500 C123 500 112 506 115 519 C115 519 118 528 118 528 C118 528 98 528 98 528 C86 487 76 445 64 404 C64 404 64 404 64 404 L64 404 Z M265 655 C265 655 405 794 405 794 C405 794 417 784 417 784 C417 784 295 595 295 595 C288 585 275 565 265 565 C254 565 241 585 235 595 C235 595 113 784 113 784 C113 784 125 794 125 794 C125 794 265 655 265 655 L265 655 Z " />
<glyph glyph-name="SmallLetterOwithogon" unicode="&#x1eb;" horiz-adv-x="759" d="M985 -45 C985 -45 979 -38 979 -38 C942 -69 855 -85 722 -85 C606 -85 494 -60 385 -10 C601 -4 710 97 710 292 C710 492 598 593 376 593 C161 593 53 492 53 292 C53 155 150 65 244 21 C244 21 244 21 244 21 C453 -97 609 -156 709 -156 C804 -156 897 -119 985 -45 L985 -45 Z M371 13 C297 13 150 107 150 292 C150 477 225 571 372 571 C532 571 612 477 612 292 C612 107 531 13 371 13 L371 13 Z " />
<glyph glyph-name="CapitalLetterAwithdo" unicode="&#x226;" horiz-adv-x="736" d="M384 865 C420 865 439 883 439 920 C439 957 420 975 384 975 C347 975 329 957 329 920 C329 883 347 865 384 865 L384 865 Z M466 0 C466 0 561 0 561 0 C561 0 660 0 660 0 C660 0 721 0 721 0 C721 0 721 20 721 20 C721 20 697 20 697 20 C668 20 650 28 616 140 C616 140 615 140 615 140 C615 140 431 720 431 720 C431 720 415 770 415 770 C415 770 405 770 405 770 C384 740 361 723 336 720 C336 720 339 710 339 710 C339 710 339 710 339 710 C339 710 161 170 161 170 C161 170 161 170 161 170 C161 168 160 167 160 165 C160 165 157 156 157 156 C114 29 86 20 39 20 C39 20 17 20 17 20 C17 20 17 0 17 0 C17 0 105 0 105 0 C105 0 134 0 134 0 C134 0 250 0 250 0 C250 0 250 20 250 20 C250 20 229 20 229 20 C175 20 148 28 176 133 C176 133 222 279 222 279 C222 279 474 279 474 279 C474 279 517 140 517 140 C517 140 517 140 517 140 C552 28 532 20 487 20 C487 20 466 20 466 20 C466 20 466 0 466 0 L466 0 Z M230 304 C230 304 349 680 349 680 C349 680 466 304 466 304 C466 304 230 304 230 304 L230 304 Z " />
<glyph glyph-name="LETTERSMALLCAPITALG" unicode="&#x262;" horiz-adv-x="709" d="M609 410 C609 410 609 492 609 492 C609 492 609 572 609 572 C609 572 594 572 594 572 C594 572 592 565 589 552 C588 547 565 552 521 569 C486 585 439 593 365 593 C158 593 53 492 53 292 C53 91 158 -10 367 -10 C446 -10 503 -1 559 17 C559 17 587 24 587 24 C587 24 587 27 587 27 C612 36 637 47 664 60 C664 60 658 72 658 72 C633 61 610 51 587 42 C587 42 587 173 587 173 C587 229 603 233 636 233 C636 233 646 233 646 233 C646 233 646 253 646 253 C646 253 431 253 431 253 C431 253 431 233 431 233 C431 233 442 233 442 233 C481 233 501 229 501 173 C501 173 502 94 502 94 C500 39 457 11 375 11 C224 11 148 105 148 292 C148 478 224 572 374 572 C396 572 415 571 432 569 C509 557 568 488 589 425 C592 415 594 410 594 410 C594 410 609 410 609 410 L609 410 Z " />
<glyph glyph-name="LETTERSMALLCAPITALI" unicode="&#x26a;" horiz-adv-x="339" d="M287 583 C287 583 54 583 54 583 C54 583 54 563 54 563 C54 563 65 563 65 563 C107 563 128 559 128 503 C128 503 128 80 128 80 C128 24 107 20 65 20 C65 20 54 20 54 20 C54 20 54 0 54 0 C54 0 287 0 287 0 C287 0 287 20 287 20 C287 20 277 20 277 20 C234 20 213 24 213 80 C213 80 213 503 213 503 C213 559 234 563 277 563 C277 563 287 563 287 563 C287 563 287 583 287 583 L287 583 Z " />
<glyph glyph-name="LETTERSMALLCAPITALN" unicode="&#x274;" horiz-adv-x="664" d="M26 563 C26 563 52 563 52 563 C65 563 73 561 99 528 C99 528 99 528 99 528 C99 528 120 502 120 502 C120 502 119 120 119 120 C115 27 93 20 54 20 C54 20 31 20 31 20 C31 20 31 0 31 0 C31 0 119 0 119 0 C119 0 145 0 145 0 C145 0 233 0 233 0 C233 0 233 20 233 20 C233 20 210 20 210 20 C169 20 148 27 144 116 C144 116 143 473 143 473 C143 473 441 95 441 95 C441 95 516 0 516 0 C516 0 533 0 533 0 C533 0 538 463 538 463 C538 463 538 463 538 463 C537 556 563 563 615 563 C615 563 626 563 626 563 C626 563 626 583 626 583 C626 583 539 583 539 583 C539 583 513 583 513 583 C513 583 426 583 426 583 C426 583 426 563 426 563 C426 563 437 563 437 563 C484 563 510 557 514 484 C514 484 515 107 515 107 C515 107 494 135 494 135 C494 135 162 583 162 583 C162 583 142 583 142 583 C142 583 120 583 120 583 C120 583 56 583 56 583 C56 583 26 583 26 583 C26 583 26 563 26 563 L26 563 Z " />
<glyph glyph-name="LETTERSMALLCAPITALR" unicode="&#x280;" horiz-adv-x="616" d="M56 563 C56 563 66 563 66 563 C108 563 129 558 129 498 C129 498 129 85 129 85 C129 25 108 20 66 20 C66 20 56 20 56 20 C56 20 56 0 56 0 C56 0 289 0 289 0 C289 0 289 20 289 20 C289 20 278 20 278 20 C236 20 215 25 215 85 C215 85 215 274 215 274 C215 274 270 274 270 274 C284 247 331 176 410 62 C457 -4 444 0 606 0 C606 0 606 17 606 17 C538 17 544 14 510 62 C433 173 382 245 359 279 C455 291 503 331 503 418 C503 528 426 583 274 583 C274 583 215 583 215 583 C215 583 56 583 56 583 C56 583 56 563 56 563 L56 563 Z M215 566 C215 566 248 566 248 566 C355 566 409 522 409 435 C409 329 364 296 274 296 C274 296 215 296 215 296 C215 296 215 498 215 498 C215 498 215 566 215 566 L215 566 Z " />
<glyph glyph-name="LETTERSMALLCAPITALY" unicode="&#x28f;" horiz-adv-x="631" d="M225 583 C225 583 151 583 151 583 C151 583 50 583 50 583 C50 583 18 583 18 583 C18 583 18 563 18 563 C18 563 45 563 45 563 C57 563 70 555 146 443 C146 443 146 443 146 443 C146 443 280 248 280 248 C280 248 280 80 280 80 C280 24 259 20 217 20 C217 20 206 20 206 20 C206 20 206 0 206 0 C206 0 439 0 439 0 C439 0 439 20 439 20 C439 20 428 20 428 20 C386 20 365 24 365 80 C365 80 365 251 365 251 C365 251 478 443 478 443 C478 443 478 443 478 443 C544 555 561 563 584 563 C584 563 608 563 608 563 C608 563 608 583 608 583 C608 583 560 583 560 583 C560 583 518 583 518 583 C518 583 444 583 444 583 C444 583 444 563 444 563 C444 563 464 563 464 563 C488 563 501 559 483 516 C483 516 450 455 450 455 C450 455 449 454 449 453 C449 453 449 453 449 453 C449 453 356 277 356 277 C356 277 245 443 245 443 C245 443 245 443 245 443 C169 555 177 563 206 563 C206 563 225 563 225 563 C225 563 225 583 225 583 L225 583 Z " />
<glyph glyph-name="LETTERSMALLCAPITALB" unicode="&#x299;" horiz-adv-x="561" d="M56 0 C56 0 215 0 215 0 C215 0 335 0 335 0 C458 0 521 16 521 153 C521 240 482 291 404 304 C467 324 498 371 498 444 C498 536 475 583 274 583 C274 583 215 583 215 583 C215 583 56 583 56 583 C56 583 56 563 56 563 C56 563 66 563 66 563 C108 563 129 558 129 498 C129 498 129 85 129 85 C129 25 108 20 66 20 C66 20 56 20 56 20 C56 20 56 0 56 0 L56 0 Z M215 566 C215 566 240 566 240 566 C395 566 413 522 413 435 C413 350 379 307 311 307 C311 307 215 307 215 307 C215 307 215 498 215 498 C215 498 215 566 215 566 L215 566 Z M304 292 C386 292 427 245 427 153 C427 31 389 17 313 17 C313 17 263 17 263 17 C231 17 215 38 215 80 C215 80 215 85 215 85 C215 85 215 292 215 292 C215 292 304 292 304 292 L304 292 Z " />
<glyph glyph-name="LETTERSMALLCAPITALH" unicode="&#x29c;" horiz-adv-x="737" d="M685 583 C685 583 452 583 452 583 C452 583 452 563 452 563 C452 563 463 563 463 563 C505 563 526 559 526 503 C526 503 526 309 526 309 C526 309 251 309 251 309 C251 309 251 503 251 503 C251 559 272 563 314 563 C314 563 325 563 325 563 C325 563 325 583 325 583 C325 583 92 583 92 583 C92 583 92 563 92 563 C92 563 102 563 102 563 C144 563 165 559 165 503 C165 503 165 80 165 80 C165 24 144 20 102 20 C102 20 92 20 92 20 C92 20 92 0 92 0 C92 0 325 0 325 0 C325 0 325 20 325 20 C325 20 314 20 314 20 C272 20 251 24 251 80 C251 80 251 286 251 286 C251 286 526 286 526 286 C526 286 526 80 526 80 C526 24 505 20 463 20 C463 20 452 20 452 20 C452 20 452 0 452 0 C452 0 685 0 685 0 C685 0 685 20 685 20 C685 20 675 20 675 20 C633 20 612 24 612 80 C612 80 612 503 612 503 C612 559 633 563 675 563 C675 563 685 563 685 563 C685 563 685 583 685 583 L685 583 Z " />
<glyph glyph-name="LETTERSMALLCAPITALL" unicode="&#x29f;" horiz-adv-x="529" d="M473 12 C482 51 493 90 504 128 C500 129 486 130 484 130 C484 130 482 120 482 120 C463 50 442 15 291 15 C291 15 213 37 213 80 C213 80 213 85 213 85 C213 85 213 498 213 498 C213 558 234 563 277 563 C277 563 287 563 287 563 C287 563 287 583 287 583 C287 583 213 583 213 583 C213 583 128 583 128 583 C128 583 54 583 54 583 C54 583 54 563 54 563 C54 563 65 563 65 563 C107 563 128 558 128 498 C128 498 128 85 128 85 C128 25 107 20 65 20 C65 20 54 20 54 20 C54 20 54 0 54 0 C54 0 128 0 128 0 C128 0 213 0 213 0 C213 0 285 0 285 0 C285 0 470 0 470 0 C470 0 473 12 473 12 L473 12 Z " />
<glyph glyph-name="LETTERSMALLCAPITALA" unicode="&#x1d00;" horiz-adv-x="656" d="M397 0 C397 0 491 0 491 0 C491 0 581 0 581 0 C581 0 641 0 641 0 C641 0 641 20 641 20 C641 20 617 20 617 20 C588 20 571 28 533 140 C533 140 532 140 532 140 C532 140 386 562 386 562 C386 562 372 603 372 603 C372 603 363 603 363 603 C346 580 326 566 301 562 C301 562 304 552 304 552 C304 552 304 552 304 552 C304 552 155 137 155 137 C114 28 86 20 41 20 C41 20 18 20 18 20 C18 20 18 0 18 0 C18 0 106 0 106 0 C106 0 131 0 131 0 C131 0 247 0 247 0 C247 0 247 20 247 20 C247 20 227 20 227 20 C168 20 142 30 190 170 C190 170 190 170 190 170 C190 170 205 215 205 215 C205 215 418 215 418 215 C418 215 451 117 451 117 C479 27 459 20 417 20 C417 20 397 20 397 20 C397 20 397 0 397 0 L397 0 Z M213 237 C213 237 313 528 313 528 C313 528 411 237 411 237 C411 237 213 237 213 237 L213 237 Z " />
<glyph glyph-name="LETTERSMALLCAPITALC" unicode="&#x1d04;" horiz-adv-x="652" d="M609 410 C609 410 609 492 609 492 C609 492 609 572 609 572 C609 572 594 572 594 572 C594 572 592 565 589 552 C588 547 565 552 521 569 C486 585 439 593 365 593 C158 593 53 492 53 292 C53 91 155 -10 357 -10 C424 -10 471 -3 508 12 C508 12 508 12 508 12 C508 12 549 20 589 29 C594 30 597 23 597 8 C597 8 609 8 609 8 C609 8 609 92 609 92 C609 92 609 173 609 173 C609 173 594 173 594 173 C594 173 592 168 589 158 C571 103 520 39 456 21 C456 21 456 21 456 21 C431 14 402 10 365 10 C221 10 148 105 148 292 C148 478 224 572 374 572 C396 572 415 571 432 569 C509 557 568 488 589 425 C592 415 594 410 594 410 C594 410 609 410 609 410 L609 410 Z " />
<glyph glyph-name="LETTERSMALLCAPITALD" unicode="&#x1d05;" horiz-adv-x="743" d="M56 0 C56 0 129 0 129 0 C129 0 215 0 215 0 C215 0 271 0 271 0 C548 0 688 79 688 292 C688 485 583 583 299 583 C299 583 215 583 215 583 C215 583 129 583 129 583 C129 583 56 583 56 583 C56 583 56 563 56 563 C56 563 66 563 66 563 C108 563 129 558 129 498 C129 498 129 85 129 85 C129 25 108 20 66 20 C66 20 56 20 56 20 C56 20 56 0 56 0 L56 0 Z M215 566 C215 566 231 566 231 566 C496 566 594 474 594 292 C594 91 477 17 245 17 C215 17 215 38 215 80 C215 80 215 85 215 85 C215 85 215 498 215 498 C215 498 215 566 215 566 L215 566 Z " />
<glyph glyph-name="LETTERSMALLCAPITALE" unicode="&#x1d07;" horiz-adv-x="552" d="M472 477 C470 513 467 549 465 583 C465 583 345 583 345 583 C345 583 215 583 215 583 C215 583 129 583 129 583 C129 583 56 583 56 583 C56 583 56 563 56 563 C56 563 66 563 66 563 C108 563 129 558 129 498 C129 498 129 85 129 85 C129 25 108 20 66 20 C66 20 56 20 56 20 C56 20 56 0 56 0 C56 0 129 0 129 0 C129 0 215 0 215 0 C215 0 370 0 370 0 C370 0 490 0 490 0 C494 35 499 71 505 106 C505 106 485 106 485 106 C485 106 483 95 483 95 C476 44 466 18 372 18 C372 18 295 18 295 18 C215 18 215 39 215 80 C215 80 215 85 215 85 C215 85 215 299 215 299 C215 299 285 299 285 299 C378 299 385 270 385 212 C385 212 385 201 385 201 C385 201 405 201 405 201 C405 201 405 299 405 299 C405 299 405 320 405 320 C405 320 405 418 405 418 C405 418 385 418 385 418 C385 418 385 407 385 407 C385 349 378 320 285 320 C285 320 215 320 215 320 C215 320 215 498 215 498 C215 498 215 565 215 565 C215 565 346 565 346 565 C458 565 448 539 452 486 C452 486 452 477 452 477 C452 477 472 477 472 477 L472 477 Z " />
<glyph glyph-name="LETTERSMALLCAPITALJ" unicode="&#x1d0a;" horiz-adv-x="339" d="M287 583 C287 583 54 583 54 583 C54 583 54 563 54 563 C54 563 65 563 65 563 C107 563 128 559 128 503 C128 503 128 -59 128 -59 C128 -181 80 -190 38 -190 C-11 -190 18 -118 -30 -118 C-57 -118 -70 -132 -70 -158 C-70 -199 -41 -220 16 -220 C108 -220 214 -197 214 103 C214 103 213 503 213 503 C213 559 234 563 277 563 C277 563 287 563 287 563 C287 563 287 583 287 583 L287 583 Z " />
<glyph glyph-name="LETTERSMALLCAPITALK" unicode="&#x1d0b;" horiz-adv-x="637" d="M614 20 C614 20 587 20 587 20 C568 20 536 45 507 77 C507 77 280 346 280 346 C280 346 425 516 425 516 C465 559 483 563 508 563 C508 563 531 563 531 563 C531 563 531 583 531 583 C531 583 482 583 482 583 C482 583 450 583 450 583 C450 583 352 583 352 583 C352 583 352 563 352 563 C352 563 370 563 370 563 C412 563 426 555 343 450 C343 450 215 292 215 292 C215 292 215 523 215 523 C215 560 236 563 278 563 C278 563 289 563 289 563 C289 563 289 583 289 583 C289 583 215 583 215 583 C215 583 129 583 129 583 C129 583 56 583 56 583 C56 583 56 563 56 563 C56 563 66 563 66 563 C108 563 129 560 129 523 C129 523 129 60 129 60 C129 23 108 20 66 20 C66 20 56 20 56 20 C56 20 56 0 56 0 C56 0 129 0 129 0 C129 0 215 0 215 0 C215 0 289 0 289 0 C289 0 289 20 289 20 C289 20 278 20 278 20 C236 20 215 23 215 60 C215 60 215 292 215 292 C215 292 394 85 394 85 C394 85 394 85 394 85 C417 58 433 40 444 28 C444 28 468 0 468 0 C468 0 468 0 468 0 C468 0 468 0 468 0 C468 0 468 0 468 0 C468 0 572 0 572 0 C572 0 614 0 614 0 C614 0 614 20 614 20 L614 20 Z " />
<glyph glyph-name="LETTERSMALLCAPITALM" unicode="&#x1d0d;" horiz-adv-x="773" d="M48 563 C48 563 72 563 72 563 C97 563 114 560 133 532 C133 532 118 128 118 128 C111 28 89 20 49 20 C49 20 26 20 26 20 C26 20 26 0 26 0 C26 0 113 0 113 0 C113 0 143 0 143 0 C143 0 231 0 231 0 C231 0 231 20 231 20 C231 20 208 20 208 20 C169 20 147 26 146 108 C146 108 155 491 155 491 C229 327 302 163 377 0 C377 0 398 0 398 0 C398 0 593 511 593 511 C593 511 608 67 608 67 C605 24 583 20 544 20 C544 20 534 20 534 20 C534 20 534 0 534 0 C534 0 610 0 610 0 C610 0 696 0 696 0 C696 0 766 0 766 0 C766 0 766 20 766 20 C766 20 756 20 756 20 C719 20 699 24 693 70 C693 70 678 446 678 446 C678 555 694 563 723 563 C723 563 746 563 746 563 C746 563 746 583 746 583 C746 583 673 583 673 583 C673 583 621 583 621 583 C621 583 591 583 591 583 C591 583 420 117 420 117 C420 117 216 583 216 583 C216 583 157 583 157 583 C157 583 135 583 135 583 C135 583 113 583 113 583 C113 583 48 583 48 583 C48 583 48 563 48 563 L48 563 Z " />
<glyph glyph-name="LETTERSMALLCAPITALO" unicode="&#x1d0f;" horiz-adv-x="764" d="M371 13 C224 13 150 107 150 292 C150 477 225 571 372 571 C532 571 612 477 612 292 C612 107 531 13 371 13 L371 13 Z M53 292 C53 91 158 -10 366 -10 C595 -10 710 91 710 292 C710 492 598 593 376 593 C161 593 53 492 53 292 L53 292 Z " />
<glyph glyph-name="LETTERSMALLCAPITALP" unicode="&#x1d18;" horiz-adv-x="496" d="M77 563 C77 563 88 563 88 563 C130 563 151 558 151 498 C151 498 151 85 151 85 C151 25 130 20 88 20 C88 20 77 20 77 20 C77 20 77 0 77 0 C77 0 151 0 151 0 C151 0 236 0 236 0 C236 0 310 0 310 0 C310 0 310 20 310 20 C310 20 299 20 299 20 C257 20 236 25 236 85 C236 85 236 266 236 266 C236 266 271 266 271 266 C408 266 477 302 477 419 C477 528 420 583 306 583 C306 583 236 583 236 583 C236 583 151 583 151 583 C151 583 77 583 77 583 C77 583 77 563 77 563 L77 563 Z M236 284 C236 284 236 498 236 498 C236 498 236 569 236 569 C236 569 284 569 284 569 C359 569 397 523 397 433 C397 319 355 284 271 284 C271 284 236 284 236 284 L236 284 Z " />
<glyph glyph-name="LETTERSMALLCAPITALT" unicode="&#x1d1b;" horiz-adv-x="715" d="M97 623 C97 623 77 623 77 623 C72 609 68 596 63 583 C63 583 55 583 55 583 C55 583 55 562 55 562 C55 562 55 562 55 562 C54 560 54 558 53 556 C53 556 29 490 29 490 C33 489 46 488 48 488 C48 488 52 499 52 499 C67 541 82 562 175 562 C175 562 315 562 315 562 C315 562 315 80 315 80 C315 24 294 20 252 20 C252 20 241 20 241 20 C241 20 241 0 241 0 C241 0 474 0 474 0 C474 0 474 20 474 20 C474 20 463 20 463 20 C421 20 400 24 400 80 C400 80 400 562 400 562 C400 562 540 562 540 562 C633 562 648 541 663 499 C663 499 667 488 667 488 C671 489 684 490 686 490 C686 490 662 556 662 556 C661 558 661 560 660 562 C660 562 660 562 660 562 C660 562 660 583 660 583 C660 583 652 583 652 583 C647 596 643 609 638 623 C638 623 618 623 618 623 C628 593 634 583 532 583 C532 583 400 583 400 583 C400 583 315 583 315 583 C315 583 183 583 183 583 C81 583 87 592 97 623 C97 623 97 623 97 623 L97 623 Z " />
<glyph glyph-name="LETTERSMALLCAPITALU" unicode="&#x1d1c;" horiz-adv-x="624" d="M370 563 C370 563 380 563 380 563 C422 563 443 558 443 498 C443 498 443 167 443 167 C406 86 344 45 260 45 C207 45 180 98 180 202 C180 202 180 498 180 498 C180 498 180 583 180 583 C180 583 21 583 21 583 C21 583 21 563 21 563 C21 563 31 563 31 563 C73 563 94 558 94 498 C94 498 94 202 94 202 C94 61 138 -10 226 -10 C328 -10 401 36 443 128 C443 128 443 110 443 110 C443 110 443 0 443 0 C443 0 457 0 457 0 C457 0 602 55 602 55 C602 55 602 65 602 65 C534 61 529 63 529 110 C529 110 529 498 529 498 C529 498 529 583 529 583 C529 583 370 583 370 583 C370 583 370 563 370 563 L370 563 Z " />
<glyph glyph-name="LETTERSMALLCAPITALV" unicode="&#x1d20;" horiz-adv-x="675" d="M270 583 C270 583 154 583 154 583 C154 583 56 583 56 583 C56 583 19 583 19 583 C19 583 19 563 19 563 C19 563 45 563 45 563 C56 563 64 561 77 535 C77 535 256 130 256 130 C256 130 318 -10 318 -10 C318 -10 335 -10 335 -10 C335 -10 530 443 530 443 C530 443 530 443 530 443 C531 446 532 449 533 451 C533 451 548 486 548 486 C581 557 598 563 624 563 C624 563 648 563 648 563 C648 563 648 583 648 583 C648 583 590 583 590 583 C590 583 556 583 556 583 C556 583 440 583 440 583 C440 583 440 563 440 563 C440 563 460 563 460 563 C516 563 542 556 506 458 C506 458 318 -10 318 -10 C318 -10 374 130 374 130 C374 130 222 443 222 443 C222 443 222 443 222 443 C173 555 196 563 250 563 C250 563 270 563 270 563 C270 563 270 583 270 583 L270 583 Z " />
<glyph glyph-name="LETTERSMALLCAPITALW" unicode="&#x1d21;" horiz-adv-x="935" d="M910 583 C910 583 850 583 850 583 C850 583 814 583 814 583 C814 583 699 583 699 583 C699 583 699 563 699 563 C699 563 719 563 719 563 C774 563 802 556 776 462 C776 462 672 125 672 125 C672 125 527 473 527 473 C527 473 527 473 527 473 C492 557 514 563 563 563 C563 563 583 563 583 563 C583 563 583 583 583 583 C583 583 481 583 481 583 C481 583 382 583 382 583 C382 583 324 583 324 583 C324 583 324 563 324 563 C324 563 348 563 348 563 C376 563 392 560 407 523 C407 523 407 523 407 523 C426 478 445 433 464 388 C464 388 351 106 351 106 C351 106 351 108 351 108 C351 108 210 443 210 443 C210 443 210 443 210 443 C163 555 184 563 233 563 C233 563 253 563 253 563 C253 563 253 583 253 583 C253 583 151 583 151 583 C151 583 57 583 57 583 C57 583 20 583 20 583 C20 583 20 563 20 563 C20 563 46 563 46 563 C59 563 69 555 115 443 C115 443 115 443 115 443 C178 292 241 141 304 -10 C304 -10 326 -10 326 -10 C326 -10 478 353 478 353 C529 232 579 111 630 -10 C630 -10 653 -10 653 -10 C653 -10 823 502 823 502 C845 558 862 563 886 563 C886 563 910 563 910 563 C910 563 910 583 910 583 L910 583 Z " />
<glyph glyph-name="LETTERSMALLCAPITALZ" unicode="&#x1d22;" horiz-adv-x="582" d="M118 0 C118 0 386 0 386 0 C386 0 546 0 546 0 C556 45 567 87 579 131 C575 132 561 133 559 133 C559 133 545 102 545 102 C525 56 507 30 425 25 C425 25 133 20 133 20 C133 20 550 565 550 565 C550 565 550 583 550 583 C550 583 466 583 466 583 C466 583 240 583 240 583 C240 583 70 583 70 583 C64 536 58 491 50 444 C53 444 66 441 76 441 C76 441 81 462 81 462 C94 521 109 554 201 560 C201 560 451 564 451 564 C451 564 25 18 25 18 C25 18 25 0 25 0 C25 0 118 0 118 0 L118 0 Z " />
<glyph glyph-name="Wgrave" unicode="&#x1e80;" horiz-adv-x="1065" d="M1041 750 C1041 750 980 750 980 750 C980 750 941 750 941 750 C941 750 825 750 825 750 C825 750 825 730 825 730 C825 730 846 730 846 730 C906 730 934 722 902 610 C902 610 902 610 902 610 C902 610 771 137 771 137 C771 137 771 138 771 138 C771 138 589 640 589 640 C589 640 589 640 589 640 C588 641 588 643 587 644 C587 644 583 657 583 657 C560 725 584 730 630 730 C630 730 651 730 651 730 C651 730 651 750 651 750 C651 750 549 750 549 750 C549 750 439 750 439 750 C439 750 380 750 380 750 C380 750 380 730 380 730 C380 730 404 730 404 730 C431 730 447 727 461 693 C485 629 510 564 535 499 C535 499 390 118 390 118 C390 118 390 120 390 120 C390 120 201 637 201 637 C172 723 194 730 240 730 C240 730 261 730 261 730 C261 730 261 750 261 750 C261 750 159 750 159 750 C159 750 55 750 55 750 C55 750 16 750 16 750 C16 750 16 730 16 730 C16 730 43 730 43 730 C55 730 65 722 107 610 C107 610 108 610 108 610 C185 403 263 197 341 -10 C341 -10 366 -10 366 -10 C366 -10 551 457 551 457 C611 301 670 145 730 -10 C730 -10 755 -10 755 -10 C755 -10 939 610 939 610 C939 610 939 610 939 610 C970 722 987 730 1017 730 C1017 730 1041 730 1041 730 C1041 730 1041 750 1041 750 L1041 750 Z M417 971 C383 1016 364 1038 356 1038 C331 1038 314 1021 314 996 C314 987 335 967 378 932 C378 932 520 812 520 812 C520 812 530 823 530 823 C530 823 417 971 417 971 L417 971 Z " />
<glyph glyph-name="Wacute" unicode="&#x1e82;" horiz-adv-x="1065" d="M525 812 C525 812 667 932 667 932 C710 969 731 989 731 996 C731 1021 714 1038 689 1038 C683 1038 663 1016 628 971 C628 971 514 823 514 823 C514 823 525 812 525 812 L525 812 Z M1041 750 C1041 750 980 750 980 750 C980 750 941 750 941 750 C941 750 825 750 825 750 C825 750 825 730 825 730 C825 730 846 730 846 730 C906 730 934 722 902 610 C902 610 902 610 902 610 C902 610 771 137 771 137 C771 137 771 138 771 138 C771 138 589 640 589 640 C589 640 589 640 589 640 C588 641 588 643 587 644 C587 644 583 657 583 657 C560 725 584 730 630 730 C630 730 651 730 651 730 C651 730 651 750 651 750 C651 750 549 750 549 750 C549 750 439 750 439 750 C439 750 380 750 380 750 C380 750 380 730 380 730 C380 730 404 730 404 730 C431 730 447 727 461 693 C485 629 510 564 535 499 C535 499 390 118 390 118 C390 118 390 120 390 120 C390 120 201 637 201 637 C172 723 194 730 240 730 C240 730 261 730 261 730 C261 730 261 750 261 750 C261 750 159 750 159 750 C159 750 55 750 55 750 C55 750 16 750 16 750 C16 750 16 730 16 730 C16 730 43 730 43 730 C55 730 65 722 107 610 C107 610 108 610 108 610 C185 403 263 197 341 -10 C341 -10 366 -10 366 -10 C366 -10 551 457 551 457 C611 301 670 145 730 -10 C730 -10 755 -10 755 -10 C755 -10 939 610 939 610 C939 610 939 610 939 610 C970 722 987 730 1017 730 C1017 730 1041 730 1041 730 C1041 730 1041 750 1041 750 L1041 750 Z " />
<glyph glyph-name="Wdieresis" unicode="&#x1e84;" horiz-adv-x="1065" d="M592 865 C629 865 647 883 647 920 C647 957 629 975 592 975 C556 975 537 957 537 920 C537 883 556 865 592 865 L592 865 Z M442 865 C479 865 497 883 497 920 C497 957 479 975 442 975 C406 975 387 957 387 920 C387 883 406 865 442 865 L442 865 Z M1041 750 C1041 750 980 750 980 750 C980 750 941 750 941 750 C941 750 825 750 825 750 C825 750 825 730 825 730 C825 730 846 730 846 730 C906 730 934 722 902 610 C902 610 902 610 902 610 C902 610 771 137 771 137 C771 137 771 138 771 138 C771 138 589 640 589 640 C589 640 589 640 589 640 C588 641 588 643 587 644 C587 644 583 657 583 657 C560 725 584 730 630 730 C630 730 651 730 651 730 C651 730 651 750 651 750 C651 750 549 750 549 750 C549 750 439 750 439 750 C439 750 380 750 380 750 C380 750 380 730 380 730 C380 730 404 730 404 730 C431 730 447 727 461 693 C485 629 510 564 535 499 C535 499 390 118 390 118 C390 118 390 120 390 120 C390 120 201 637 201 637 C172 723 194 730 240 730 C240 730 261 730 261 730 C261 730 261 750 261 750 C261 750 159 750 159 750 C159 750 55 750 55 750 C55 750 16 750 16 750 C16 750 16 730 16 730 C16 730 43 730 43 730 C55 730 65 722 107 610 C107 610 108 610 108 610 C185 403 263 197 341 -10 C341 -10 366 -10 366 -10 C366 -10 551 457 551 457 C611 301 670 145 730 -10 C730 -10 755 -10 755 -10 C755 -10 939 610 939 610 C939 610 939 610 939 610 C970 722 987 730 1017 730 C1017 730 1041 730 1041 730 C1041 730 1041 750 1041 750 L1041 750 Z " />
<glyph glyph-name="CapitalLetterEWITHTI" unicode="&#x1ebc;" horiz-adv-x="619" d="M189 870 C189 910 203 930 231 930 C296 930 338 865 404 865 C458 865 485 905 485 985 C485 985 470 985 470 985 C470 945 454 925 423 925 C358 925 316 990 250 990 C200 990 174 950 174 870 C174 870 189 870 189 870 L189 870 Z M539 642 C539 642 536 696 536 696 C534 714 533 732 532 750 C532 750 412 750 412 750 C412 750 222 750 222 750 C222 750 127 750 127 750 C127 750 53 750 53 750 C53 750 53 730 53 730 C53 730 64 730 64 730 C106 730 127 725 127 665 C127 665 127 85 127 85 C127 25 106 20 64 20 C64 20 53 20 53 20 C53 20 53 0 53 0 C53 0 127 0 127 0 C127 0 222 0 222 0 C222 0 437 0 437 0 C437 0 557 0 557 0 C561 36 568 72 572 108 C572 108 552 108 552 108 C552 108 551 97 551 97 C543 46 533 20 440 20 C440 20 302 20 302 20 C222 20 222 40 222 80 C222 80 222 85 222 85 C222 85 222 385 222 385 C222 385 352 385 352 385 C445 385 452 356 452 297 C452 297 452 287 452 287 C452 287 472 287 472 287 C472 287 472 385 472 385 C472 385 472 408 472 408 C472 408 472 506 472 506 C472 506 452 506 452 506 C452 506 452 495 452 495 C452 437 445 408 352 408 C352 408 222 408 222 408 C222 408 222 665 222 665 C222 665 222 730 222 730 C222 730 413 730 413 730 C525 730 515 704 519 651 C519 651 519 642 519 642 C519 642 539 642 539 642 L539 642 Z " />
<glyph glyph-name="Ygrave" unicode="&#x1ef2;" horiz-adv-x="718" d="M234 750 C234 750 160 750 160 750 C160 750 48 750 48 750 C48 750 15 750 15 750 C15 750 15 730 15 730 C15 730 41 730 41 730 C54 730 65 722 136 610 C136 610 137 610 137 610 C137 610 319 322 319 322 C319 322 319 80 319 80 C319 24 298 20 256 20 C256 20 245 20 245 20 C245 20 245 0 245 0 C245 0 488 0 488 0 C488 0 488 20 488 20 C488 20 477 20 477 20 C435 20 414 24 414 80 C414 80 414 325 414 325 C414 325 587 640 587 640 C634 723 650 730 672 730 C672 730 696 730 696 730 C696 730 696 750 696 750 C696 750 647 750 647 750 C647 750 600 750 600 750 C600 750 526 750 526 750 C526 750 526 730 526 730 C526 730 546 730 546 730 C570 730 584 726 566 682 C566 682 538 625 538 625 C537 624 536 622 535 620 C535 620 535 620 535 620 C535 620 404 356 404 356 C404 356 247 610 247 610 C247 610 247 610 247 610 C243 616 240 622 236 627 C236 627 228 640 228 640 C177 723 188 730 214 730 C214 730 234 730 234 730 C234 730 234 750 234 750 L234 750 Z M266 971 C232 1016 213 1038 205 1038 C180 1038 163 1021 163 996 C163 987 184 967 227 932 C227 932 369 812 369 812 C369 812 379 823 379 823 C379 823 266 971 266 971 L266 971 Z " />
<glyph glyph-name="quoteleft" unicode="&#x2018;" horiz-adv-x="578" d="" />
<glyph glyph-name="quoteright" unicode="&#x2019;" horiz-adv-x="118" d="" />
<glyph glyph-name="quotedblleft" unicode="&#x201c;" horiz-adv-x="578" d="M217 640 C206 640 198 637 193 630 C193 630 193 630 193 630 C193 679 214 719 257 749 C257 749 247 760 247 760 C194 723 167 674 167 614 C167 578 184 560 217 560 C244 560 257 573 257 600 C257 627 244 640 217 640 L217 640 Z " />
<glyph glyph-name="quotedblright" unicode="&#x201d;" horiz-adv-x="578" d="M241 690 C240 643 220 603 181 571 C181 571 192 560 192 560 C242 602 267 652 267 711 C267 743 250 760 217 760 C190 760 177 747 177 720 C177 693 190 680 217 680 C228 680 236 683 241 690 C241 690 241 690 241 690 L241 690 Z " />
<glyph glyph-name="Euro" unicode="&#x20ac;" horiz-adv-x="785" d="M743 547 C743 547 743 631 743 631 C743 631 743 712 743 712 C743 712 728 712 728 712 C728 712 726 705 723 692 C721 685 695 694 646 723 C646 723 646 723 646 723 C604 748 550 760 459 760 C249 760 131 660 106 461 C106 461 64 461 64 461 C64 461 55 400 55 400 C55 400 101 400 101 400 C101 392 101 383 101 375 C101 367 101 358 101 350 C101 350 55 350 55 350 C55 350 46 289 46 289 C46 289 106 289 106 289 C130 90 245 -10 449 -10 C538 -10 596 3 642 30 C650 32 686 44 722 56 C727 58 730 51 730 35 C730 35 742 35 742 35 C742 35 742 118 742 118 C742 118 743 119 743 119 C743 119 742 120 742 120 C742 120 742 203 742 203 C742 203 727 203 727 203 C710 149 674 89 617 52 C576 25 527 12 458 12 C311 12 228 105 209 289 C209 289 508 289 508 289 C508 289 516 350 516 350 C516 350 205 350 205 350 C205 358 205 367 205 375 C205 383 205 392 205 400 C205 400 516 400 516 400 C516 400 525 461 525 461 C525 461 209 461 209 461 C229 644 316 736 469 736 C509 736 541 732 567 724 C567 724 567 724 567 724 C642 701 701 626 723 562 C726 552 728 547 728 547 C728 547 743 547 743 547 L743 547 Z " />
<glyph glyph-name="LETTERSMALLCAPITALF" unicode="&#xa730;" horiz-adv-x="527" d="M474 483 C470 515 467 550 465 583 C465 583 345 583 345 583 C345 583 215 583 215 583 C215 583 129 583 129 583 C129 583 56 583 56 583 C56 583 56 563 56 563 C56 563 66 563 66 563 C108 563 129 558 129 498 C129 498 129 85 129 85 C129 25 108 20 66 20 C66 20 56 20 56 20 C56 20 56 0 56 0 C56 0 129 0 129 0 C129 0 215 0 215 0 C215 0 289 0 289 0 C289 0 289 20 289 20 C289 20 278 20 278 20 C236 20 215 25 215 85 C215 85 215 279 215 279 C215 279 361 279 361 279 C373 268 376 251 379 230 C379 230 383 198 383 198 C383 198 395 198 395 198 C395 198 395 279 395 279 C395 279 395 299 395 299 C395 299 395 381 395 381 C395 381 383 381 383 381 C383 381 379 349 379 349 C375 316 366 299 275 299 C275 299 215 299 215 299 C215 299 215 498 215 498 C215 498 215 569 215 569 C215 569 266 569 266 569 C434 569 448 543 453 492 C453 492 454 481 454 481 C458 482 472 483 474 483 C474 483 474 483 474 483 L474 483 Z " />
<glyph glyph-name="LETTERSMALLCAPITALS" unicode="&#xa731;" horiz-adv-x="488" d="M408 429 C408 429 408 501 408 501 C408 501 408 581 408 581 C408 581 393 581 393 581 C393 581 391 574 388 561 C387 555 369 557 338 572 C338 572 337 572 337 572 C308 586 272 593 229 593 C121 593 67 541 67 438 C67 355 112 295 233 247 C341 205 381 168 381 126 C381 54 340 17 259 17 C234 17 211 20 190 26 C136 44 91 111 71 170 C68 180 66 185 66 185 C66 185 51 185 51 185 C51 185 51 114 51 114 C51 114 51 12 51 12 C51 12 66 12 66 12 C66 12 68 21 71 37 C72 44 96 39 143 15 C143 15 143 15 143 15 C176 -2 214 -10 259 -10 C385 -10 449 44 449 151 C449 231 405 289 284 336 C174 379 134 420 134 471 C134 538 166 572 229 572 C306 572 367 508 388 444 C391 434 393 429 393 429 C393 429 408 429 408 429 L408 429 Z " />
<glyph glyph-name="[namenotfound]" unicode="&#xf078;" horiz-adv-x="661" d="M631 583 C631 583 588 583 588 583 C588 583 549 583 549 583 C549 583 455 583 455 583 C455 583 455 563 455 563 C455 563 474 563 474 563 C511 563 525 555 453 455 C453 455 361 332 361 332 C361 332 272 459 272 459 C207 556 220 563 254 563 C254 563 274 563 274 563 C274 563 274 583 274 583 C274 583 186 583 186 583 C186 583 85 583 85 583 C85 583 46 583 46 583 C46 583 46 563 46 563 C46 563 71 563 71 563 C89 563 103 556 171 459 C171 459 180 446 180 446 C180 445 181 444 182 443 C182 443 182 443 182 443 C182 443 300 273 300 273 C300 273 158 93 158 93 C102 26 80 20 50 20 C50 20 27 20 27 20 C27 20 27 0 27 0 C27 0 85 0 85 0 C85 0 119 0 119 0 C119 0 249 0 249 0 C249 0 249 20 249 20 C249 20 230 20 230 20 C172 20 144 27 197 104 C197 104 231 150 231 150 C231 150 231 150 231 150 C231 150 231 150 231 150 C231 150 311 257 311 257 C311 257 394 138 394 138 C469 28 457 20 420 20 C420 20 401 20 401 20 C401 20 401 0 401 0 C401 0 489 0 489 0 C489 0 591 0 591 0 C591 0 636 0 636 0 C636 0 636 20 636 20 C636 20 612 20 612 20 C592 20 576 25 528 91 C528 91 372 316 372 316 C372 316 451 413 451 413 C451 413 451 413 451 413 C453 415 454 417 456 420 C456 420 540 524 540 524 C574 559 589 563 607 563 C607 563 631 563 631 563 C631 563 631 583 631 583 L631 583 Z " />
</font>
</svg>
