<?xml version="1.0" encoding="UTF-8"?>
<svg xmlns="http://www.w3.org/2000/svg" xmlns:xlink="http://www.w3.org/1999/xlink" version="1.2" >
<font id="Aludra Thin">
<font-face  font-family="Aludra" units-per-em="1024" ascent="975" descent="-300" font-style="normal" font-weight="100" font-stretch="normal" cap-height="750" x-height="500" underline-position="0" underline-thickness="0" />
<missing-glyph  horiz-adv-x="472" d="M0 700 C0 700 432 700 432 700 C432 700 432 0 432 0 C432 0 0 0 0 0 C0 0 0 700 0 700 L0 700 Z M50 50 C50 50 382 50 382 50 C382 50 382 650 382 650 C382 650 50 650 50 650 C50 650 50 50 50 50 L50 50 Z " />
<glyph glyph-name="NULL" d="" />
<glyph glyph-name="CR" unicode="&#xd;" horiz-adv-x="256" d="" />
<glyph glyph-name="space" unicode="&#x20;" horiz-adv-x="250" d="" />
<glyph glyph-name="exclam" unicode="&#x21;" horiz-adv-x="164" d="M82 -5 C95 -5 102 2 102 15 C102 28 95 35 82 35 C69 35 62 28 62 15 C62 2 69 -5 82 -5 L82 -5 Z M82 755 C71 755 69 733 70 688 C70 688 80 210 80 210 C80 210 84 210 84 210 C84 210 94 688 94 688 C95 733 94 755 82 755 L82 755 Z " />
<glyph glyph-name="quotedbl" unicode="&#x22;" horiz-adv-x="325" d="M748 750 C741 750 741 735 742 705 C742 705 749 560 749 560 C749 560 751 560 751 560 C751 560 758 705 758 705 C759 735 759 750 752 750 C752 750 748 750 748 750 L748 750 Z " />
<glyph glyph-name="numbersign" unicode="&#x23;" horiz-adv-x="525" d="M390 692 C390 692 359 468 359 468 C359 468 205 468 205 468 C205 468 236 692 236 692 C236 692 228 692 228 692 C228 692 197 468 197 468 C197 468 61 468 61 468 C61 468 59 452 59 452 C59 452 195 452 195 452 C195 452 162 208 162 208 C162 208 23 208 23 208 C23 208 21 192 21 192 C21 192 159 192 159 192 C159 192 133 0 133 0 C133 0 141 0 141 0 C141 0 167 192 167 192 C167 192 321 192 321 192 C321 192 295 0 295 0 C295 0 303 0 303 0 C303 0 329 192 329 192 C329 192 460 192 460 192 C460 192 462 208 462 208 C462 208 332 208 332 208 C332 208 365 452 365 452 C365 452 503 452 503 452 C503 452 505 468 505 468 C505 468 367 468 367 468 C367 468 398 692 398 692 C398 692 390 692 390 692 L390 692 Z M203 452 C203 452 357 452 357 452 C357 452 324 208 324 208 C324 208 170 208 170 208 C170 208 203 452 203 452 L203 452 Z " />
<glyph glyph-name="dollar" unicode="&#x24;" horiz-adv-x="540" d="M307 825 C307 825 307 754 307 754 C287 758 265 760 241 760 C241 760 241 825 241 825 C241 825 227 825 227 825 C227 825 227 760 227 760 C129 756 80 698 80 588 C80 522 121 464 227 403 C227 403 227 7 227 7 C208 12 190 19 173 28 C173 28 174 28 174 28 C128 53 89 155 70 237 C70 237 55 237 55 237 C55 237 55 149 55 149 C55 149 55 4 55 4 C55 4 70 4 70 4 C70 4 72 16 75 40 C78 61 99 68 136 44 C163 23 193 9 227 0 C227 0 227 -75 227 -75 C227 -75 241 -75 241 -75 C241 -75 241 -3 241 -3 C262 -8 284 -10 307 -10 C307 -10 307 -75 307 -75 C307 -75 321 -75 321 -75 C321 -75 321 -10 321 -10 C441 -6 501 55 501 171 C501 256 452 323 321 385 C321 385 321 742 321 742 C321 742 307 746 307 746 C307 746 307 392 307 392 C283 403 261 414 241 425 C241 425 241 754 241 754 C262 754 282 752 300 749 C300 749 299 749 299 749 C301 749 303 748 305 748 C305 748 306 747 307 747 C307 747 307 747 307 747 C312 746 316 744 321 742 C321 742 321 744 321 744 C335 740 349 735 361 729 C361 729 323 741 323 741 C377 716 419 642 435 574 C438 560 440 553 440 553 C440 553 455 553 455 553 C455 553 455 641 455 641 C455 641 455 756 455 756 C455 756 440 756 440 756 C440 756 438 746 435 727 C433 711 419 703 395 716 C374 732 350 743 321 750 C321 750 321 825 321 825 C321 825 307 825 307 825 L307 825 Z M321 742 C321 742 321 742 321 742 C322 742 322 742 323 741 C323 741 321 742 321 742 L321 742 Z M307 746 C307 746 300 749 300 749 C301 748 303 748 305 748 C305 748 306 747 307 747 C307 747 307 746 307 746 L307 746 Z M241 395 C260 384 280 374 303 363 C304 362 306 362 307 361 C307 361 307 -3 307 -3 C284 -3 262 -1 241 4 C241 4 241 395 241 395 L241 395 Z M321 354 C439 296 483 237 483 164 C483 57 429 1 321 -3 C321 -3 321 354 321 354 L321 354 Z M227 433 C133 489 97 540 97 597 C97 697 140 750 227 754 C227 754 227 433 227 433 L227 433 Z " />
<glyph glyph-name="ampersand" unicode="&#x26;" horiz-adv-x="326" d="M311 471 C311 471 314 468 314 468 C404 496 449 545 449 614 C449 711 404 760 315 760 C212 760 160 709 160 607 C160 576 208 522 302 412 C302 412 526 150 526 150 C446 56 356 9 257 9 C138 9 78 76 78 210 C78 327 136 404 252 439 C252 439 248 440 248 440 C121 402 57 322 57 203 C57 62 120 -10 245 -10 C350 -10 445 42 531 145 C531 145 563 107 563 107 C630 29 675 -10 700 -10 C771 -10 814 43 827 149 C827 149 823 150 823 150 C811 54 773 6 708 6 C687 6 644 43 581 117 C581 117 544 161 544 161 C608 244 667 357 719 500 C719 500 714 500 714 500 C662 358 604 246 539 166 C539 166 320 422 320 422 C225 533 177 587 177 618 C177 709 223 755 315 755 C393 755 433 708 433 615 C433 544 392 495 311 471 C311 471 311 471 311 471 L311 471 Z " />
<glyph glyph-name="quotesingle" unicode="&#x27;" horiz-adv-x="204" d="" />
<glyph glyph-name="parenleft" unicode="&#x28;" horiz-adv-x="405" d="M320 760 C169 658 93 495 93 273 C93 60 167 -104 313 -214 C313 -214 314 -212 314 -212 C177 -108 107 54 107 273 C107 499 179 662 321 758 C321 758 320 760 320 760 L320 760 Z " />
<glyph glyph-name="parenright" unicode="&#x29;" horiz-adv-x="405" d="M29 758 C171 666 243 503 243 273 C243 40 173 -122 36 -212 C36 -212 37 -214 37 -214 C183 -119 257 44 257 273 C257 499 181 662 30 760 C30 760 29 758 29 758 L29 758 Z " />
<glyph glyph-name="asterisk" unicode="&#x2a;" horiz-adv-x="245" d="M149 631 C149 631 49 695 49 695 C44 698 41 697 39 694 C37 691 38 687 43 685 C43 685 149 631 149 631 C149 631 149 630 149 630 C149 630 149 629 149 629 C149 629 43 575 43 575 C33 571 39 559 49 565 C49 565 149 629 149 629 C149 629 144 510 144 510 C144 505 146 502 150 502 C154 502 156 505 156 510 C156 510 151 629 151 629 C151 629 251 565 251 565 C256 562 259 563 261 566 C263 569 262 573 257 575 C257 575 151 629 151 629 C151 629 151 630 151 630 C151 630 151 631 151 631 C151 631 257 685 257 685 C267 689 261 701 251 695 C251 695 151 631 151 631 C151 631 156 750 156 750 C156 755 154 758 150 758 C146 758 144 755 144 750 C144 750 149 631 149 631 L149 631 Z " />
<glyph glyph-name="plus" unicode="&#x2b;" horiz-adv-x="620" d="M302 460 C302 460 302 257 302 257 C302 257 100 257 100 257 C100 257 100 243 100 243 C100 243 302 243 302 243 C302 243 302 40 302 40 C302 40 318 40 318 40 C318 40 318 243 318 243 C318 243 520 243 520 243 C520 243 520 257 520 257 C520 257 318 257 318 257 C318 257 318 460 318 460 C318 460 302 460 302 460 L302 460 Z " />
<glyph glyph-name="comma" unicode="&#x2c;" horiz-adv-x="258" d="M151 109 C144 113 135 115 125 115 C85 115 65 95 65 55 C65 15 85 -5 125 -5 C158 -5 175 15 175 55 C175 55 175 55 175 55 C178 41 180 23 180 3 C180 -70 141 -106 65 -106 C65 -106 65 -111 65 -111 C147 -111 188 -70 188 10 C188 64 176 97 151 109 C151 109 151 109 151 109 L151 109 Z " />
<glyph glyph-name="hyphen" unicode="&#x2d;" horiz-adv-x="430" d="M80 277 C80 277 350 277 350 277 C350 277 350 293 350 293 C350 293 80 293 80 293 C80 293 80 277 80 277 L80 277 Z " />
<glyph glyph-name="period" unicode="&#x2e;" horiz-adv-x="195" d="M125 -5 C138 -5 145 2 145 15 C145 28 138 35 125 35 C112 35 105 28 105 15 C105 2 112 -5 125 -5 L125 -5 Z " />
<glyph glyph-name="slash" unicode="&#x2f;" horiz-adv-x="369" d="M328 770 C328 770 46 -80 46 -80 C46 -80 58 -80 58 -80 C58 -80 340 770 340 770 C340 770 328 770 328 770 L328 770 Z " />
<glyph glyph-name="zero" unicode="0" horiz-adv-x="602" d="M305 -2 C160 -2 62 83 62 250 C62 401 144 502 305 502 C450 502 548 417 548 250 C548 99 466 -2 305 -2 L305 -2 Z M53 250 C53 77 154 -10 305 -10 C472 -10 557 95 557 250 C557 423 456 510 305 510 C138 510 53 405 53 250 L53 250 Z " />
<glyph glyph-name="one" unicode="1" horiz-adv-x="300" d="M260 500 C260 500 40 500 40 500 C40 500 40 480 40 480 C40 480 70 480 70 480 C117 480 140 479 140 465 C140 465 140 35 140 35 C140 21 117 20 70 20 C70 20 40 20 40 20 C40 20 40 0 40 0 C40 0 260 0 260 0 C260 0 260 20 260 20 C260 20 230 20 230 20 C183 20 160 21 160 35 C160 35 160 465 160 465 C160 479 183 480 230 480 C230 480 260 480 260 480 C260 480 260 500 260 500 L260 500 Z " />
<glyph glyph-name="two" unicode="2" horiz-adv-x="515" d="M51 292 C77 427 141 495 241 495 C343 495 395 442 395 337 C395 208 248 114 30 4 C30 4 30 0 30 0 C30 0 329 0 329 0 C329 0 420 0 420 0 C436 26 452 50 468 76 C468 76 455 82 452 83 C452 83 433 53 433 53 C419 30 403 18 301 18 C301 18 65 18 65 18 C276 127 415 222 415 341 C415 453 360 510 251 510 C143 510 75 437 47 293 C47 293 51 292 51 292 L51 292 Z " />
<glyph glyph-name="three" unicode="3" horiz-adv-x="400" d="M19 -228 C19 -228 20 -232 20 -232 C247 -208 361 -134 361 -11 C361 87 279 149 117 171 C117 171 88 159 88 159 C255 136 340 77 340 -16 C340 -134 232 -205 19 -228 L19 -228 Z M24 350 C24 350 28 349 28 349 C51 447 109 496 203 496 C297 496 345 456 345 375 C345 293 259 235 88 163 C88 163 88 159 88 159 C273 237 366 298 366 382 C366 467 314 510 212 510 C112 510 49 456 24 350 L24 350 Z " />
<glyph glyph-name="four" unicode="4" horiz-adv-x="620" d="M595 3 C599 28 602 54 606 80 C606 80 586 80 586 80 C586 80 582 50 582 50 C579 27 569 15 467 15 C467 15 415 15 415 15 C415 15 415 530 415 530 C415 530 412 530 412 530 C412 530 15 4 15 4 C15 4 15 0 15 0 C15 0 395 0 395 0 C395 0 395 -220 395 -220 C395 -220 415 -220 415 -220 C415 -220 415 0 415 0 C415 0 515 0 515 0 C571 0 574 -8 571 -25 C571 -25 567 -55 567 -55 C567 -55 587 -55 587 -55 C589 -37 592 -18 595 0 C595 0 595 0 595 0 C595 0 595 3 595 3 L595 3 Z M32 14 C32 14 396 496 396 496 C396 496 395 495 395 495 C395 495 395 15 395 15 C395 15 33 15 33 15 C33 15 32 14 32 14 L32 14 Z " />
<glyph glyph-name="five" unicode="5" horiz-adv-x="421" d="M60 -231 C280 -204 391 -111 391 45 C391 188 291 260 93 260 C93 260 89 260 89 260 C89 260 137 482 137 482 C137 482 338 483 338 483 C342 501 346 522 348 540 C348 540 328 540 328 540 C328 540 326 527 326 527 C323 509 314 500 221 500 C221 500 133 500 133 500 C133 500 78 242 78 242 C78 242 81 239 81 239 C81 239 90 239 90 239 C279 239 374 172 374 38 C374 -113 268 -202 60 -227 C60 -227 60 -231 60 -231 L60 -231 Z " />
<glyph glyph-name="six" unicode="6" horiz-adv-x="565" d="M550 750 C228 682 66 525 66 283 C66 88 144 -10 298 -10 C442 -10 515 74 515 240 C515 387 434 461 272 461 C174 461 114 424 92 351 C122 556 276 688 551 747 C551 747 550 750 550 750 L550 750 Z M86 272 C86 394 148 456 270 456 C419 456 495 384 495 241 C495 78 428 -4 297 -4 C157 -4 86 89 86 272 L86 272 Z " />
<glyph glyph-name="seven" unicode="7" horiz-adv-x="440" d="M121 -220 C121 -220 136 -220 136 -220 C136 -220 435 485 435 485 C435 485 435 500 435 500 C435 500 145 500 145 500 C106 500 107 508 114 525 C114 525 121 540 121 540 C121 540 101 540 101 540 C95 527 89 514 83 500 C83 500 80 500 80 500 C80 500 73 484 73 484 C73 484 76 484 76 484 C75 482 75 481 74 479 C74 479 47 419 47 419 C47 419 67 419 67 419 C67 419 76 439 76 439 C89 469 99 484 146 484 C146 484 425 484 425 484 C425 484 430 485 430 485 C430 485 121 -220 121 -220 L121 -220 Z " />
<glyph glyph-name="eight" unicode="8" horiz-adv-x="543" d="M255 394 C259 392 262 391 266 389 C414 329 488 290 488 175 C488 56 418 -5 278 -5 C141 -5 71 55 71 174 C71 275 133 349 255 394 C255 394 255 394 255 394 L255 394 Z M250 396 C120 348 54 272 54 174 C54 52 129 -10 278 -10 C428 -10 503 55 503 184 C503 302 432 343 290 401 C413 447 475 512 475 596 C475 705 408 760 276 760 C144 760 78 702 78 586 C78 502 136 445 250 396 C250 396 250 396 250 396 L250 396 Z M285 403 C281 405 278 406 274 408 C154 456 94 511 94 594 C94 701 155 755 276 755 C397 755 458 701 458 595 C458 509 400 445 285 403 C285 403 285 403 285 403 L285 403 Z " />
<glyph glyph-name="nine" unicode="9" horiz-adv-x="565" d="M16 -250 C337 -182 500 -25 500 217 C500 412 422 510 268 510 C124 510 51 426 51 260 C51 113 132 39 293 39 C393 39 454 77 475 153 C446 -54 292 -188 15 -247 C15 -247 16 -250 16 -250 L16 -250 Z M480 228 C480 106 418 44 296 44 C146 44 71 116 71 259 C71 422 137 504 269 504 C409 504 480 411 480 228 L480 228 Z " />
<glyph glyph-name="colon" unicode="&#x3a;" horiz-adv-x="135" d="M125 385 C138 385 145 392 145 405 C145 418 138 425 125 425 C112 425 105 418 105 405 C105 392 112 385 125 385 L125 385 Z M125 -5 C138 -5 145 2 145 15 C145 28 138 35 125 35 C112 35 105 28 105 15 C105 2 112 -5 125 -5 L125 -5 Z " />
<glyph glyph-name="semicolon" unicode="&#x3b;" horiz-adv-x="258" d="M125 385 C138 385 145 392 145 405 C145 418 138 425 125 425 C112 425 105 418 105 405 C105 392 112 385 125 385 L125 385 Z M151 109 C144 113 135 115 125 115 C85 115 65 95 65 55 C65 15 85 -5 125 -5 C158 -5 175 15 175 55 C175 55 175 55 175 55 C178 41 180 23 180 3 C180 -70 141 -106 65 -106 C65 -106 65 -111 65 -111 C147 -111 188 -70 188 10 C188 64 176 97 151 109 C151 109 151 109 151 109 L151 109 Z " />
<glyph glyph-name="equal" unicode="&#x3d;" horiz-adv-x="523" d="M73 204 C73 204 73 196 73 196 C73 196 453 196 453 196 C453 196 453 204 453 204 C453 204 73 204 73 204 L73 204 Z M73 304 C73 304 73 296 73 296 C73 296 453 296 453 296 C453 296 453 304 453 304 C453 304 73 304 73 304 L73 304 Z " />
<glyph glyph-name="question" unicode="&#x3f;" horiz-adv-x="309" d="M125 -5 C138 -5 145 2 145 15 C145 28 138 35 125 35 C112 35 105 28 105 15 C105 2 112 -5 125 -5 L125 -5 Z M119 145 C119 145 125 360 125 360 C211 360 233 393 278 460 C296 486 305 517 305 551 C305 690 251 760 145 760 C132 760 126 755 126 745 C126 738 130 735 137 735 C142 735 147 739 152 739 C250 739 299 675 299 549 C299 522 290 495 273 469 C233 410 213 380 118 380 C118 380 115 145 115 145 C115 145 119 145 119 145 L119 145 Z " />
<glyph glyph-name="at" unicode="&#x40;" horiz-adv-x="1121" d="M1046 0 C972 -160 809 -241 562 -241 C236 -241 71 -73 71 259 C71 591 235 759 561 759 C887 759 1051 619 1051 343 C1051 116 983 2 849 2 C694 2 632 68 665 200 C665 200 735 480 735 480 C735 480 716 480 716 480 C716 480 689 370 689 370 C684 450 643 490 566 490 C393 490 305 393 305 201 C305 79 361 17 473 17 C550 17 605 63 638 153 C630 48 700 -5 846 -5 C993 -5 1067 112 1067 343 C1067 623 897 764 561 764 C225 764 55 594 55 259 C55 -76 225 -246 562 -246 C812 -246 977 -163 1053 0 C1053 0 1046 0 1046 0 L1046 0 Z M685 356 C685 356 646 200 646 200 C617 86 563 28 483 28 C379 28 327 87 327 205 C327 390 407 484 565 484 C645 484 685 441 685 356 L685 356 Z " />
<glyph glyph-name="A" unicode="A" horiz-adv-x="716" d="M463 0 C463 0 598 0 598 0 C598 0 622 0 622 0 C622 0 711 0 711 0 C711 0 711 20 711 20 C711 20 681 20 681 20 C640 20 616 27 584 128 C584 128 405 743 405 743 C405 743 397 770 397 770 C397 770 395 770 395 770 C382 751 378 742 383 743 C383 743 386 733 386 733 C386 733 197 157 197 157 C153 29 115 20 47 20 C47 20 17 20 17 20 C17 20 17 0 17 0 C17 0 145 0 145 0 C145 0 152 0 152 0 C152 0 317 0 317 0 C317 0 317 20 317 20 C317 20 294 20 294 20 C207 20 165 29 201 152 C201 152 247 294 247 294 C247 294 513 294 513 294 C513 294 563 120 563 120 C586 27 553 20 488 20 C488 20 463 20 463 20 C463 20 463 0 463 0 L463 0 Z M249 299 C249 299 388 726 388 726 C388 726 511 299 511 299 C511 299 249 299 249 299 L249 299 Z " />
<glyph glyph-name="B" unicode="B" horiz-adv-x="585" d="M59 0 C59 0 187 0 187 0 C187 0 307 0 307 0 C465 0 545 20 545 193 C545 316 480 380 352 387 C477 401 539 462 539 568 C539 689 511 750 272 750 C272 750 187 750 187 750 C187 750 59 750 59 750 C59 750 59 730 59 730 C59 730 89 730 89 730 C139 730 164 725 164 665 C164 665 164 85 164 85 C164 25 139 20 89 20 C89 20 59 20 59 20 C59 20 59 0 59 0 L59 0 Z M187 746 C187 746 263 745 263 745 C491 745 517 685 517 566 C517 447 439 387 286 387 C286 387 187 387 187 387 C187 387 187 665 187 665 C187 665 187 746 187 746 L187 746 Z M288 383 C288 383 317 383 317 383 C453 383 521 319 521 193 C521 24 447 4 301 4 C301 4 251 4 251 4 C209 4 187 30 187 80 C187 80 187 85 187 85 C187 85 187 383 187 383 C187 383 288 383 288 383 L288 383 Z " />
<glyph glyph-name="C" unicode="C" horiz-adv-x="675" d="M627 536 C627 536 627 626 627 626 C627 626 627 741 627 741 C627 741 612 741 612 741 C612 741 610 731 607 713 C604 695 576 693 526 724 C526 724 525 724 525 724 C485 748 436 760 358 760 C167 760 71 631 71 375 C71 119 164 -10 347 -10 C424 -10 477 3 521 28 C521 28 522 28 522 28 C522 28 565 31 607 34 C612 35 615 25 615 4 C615 4 627 4 627 4 C627 4 627 124 627 124 C627 124 627 214 627 214 C627 214 612 214 612 214 C595 139 558 52 497 23 C497 23 497 23 497 23 C458 4 412 -5 349 -5 C180 -5 95 123 95 375 C95 627 184 754 360 754 C411 754 449 748 481 737 C481 737 477 738 477 738 C540 717 590 631 607 557 C610 543 612 536 612 536 C612 536 627 536 627 536 L627 536 Z " />
<glyph glyph-name="D" unicode="D" horiz-adv-x="772" d="M59 0 C59 0 164 0 164 0 C164 0 187 0 187 0 C187 0 267 0 267 0 C567 0 718 101 718 375 C718 624 607 750 307 750 C307 750 187 750 187 750 C187 750 164 750 164 750 C164 750 59 750 59 750 C59 750 59 730 59 730 C59 730 89 730 89 730 C139 730 164 725 164 665 C164 665 164 85 164 85 C164 25 139 20 89 20 C89 20 59 20 59 20 C59 20 59 0 59 0 L59 0 Z M187 746 C187 746 289 746 289 746 C584 746 693 621 693 375 C693 104 548 4 260 4 C187 4 187 30 187 80 C187 80 187 85 187 85 C187 85 187 665 187 665 C187 665 187 746 187 746 L187 746 Z " />
<glyph glyph-name="E" unicode="E" horiz-adv-x="594" d="M506 620 C502 663 499 707 497 750 C497 750 377 750 377 750 C377 750 187 750 187 750 C187 750 164 750 164 750 C164 750 59 750 59 750 C59 750 59 730 59 730 C59 730 89 730 89 730 C139 730 164 725 164 665 C164 665 164 85 164 85 C164 25 139 20 89 20 C89 20 59 20 59 20 C59 20 59 0 59 0 C59 0 164 0 164 0 C164 0 187 0 187 0 C187 0 402 0 402 0 C402 0 522 0 522 0 C528 43 534 86 540 130 C540 130 520 130 520 130 C520 130 516 100 516 100 C507 37 496 5 402 5 C402 5 267 5 267 5 C187 5 187 30 187 80 C187 80 187 85 187 85 C187 85 187 385 187 385 C187 385 317 385 317 385 C410 385 417 348 417 275 C417 275 417 245 417 245 C417 245 437 245 437 245 C437 245 437 385 437 385 C437 385 437 390 437 390 C437 390 437 530 437 530 C437 530 417 530 417 530 C417 530 417 500 417 500 C417 427 410 390 317 390 C317 390 187 390 187 390 C187 390 187 665 187 665 C187 665 187 745 187 745 C187 745 377 745 377 745 C489 745 480 709 485 638 C485 638 486 620 486 620 C486 620 506 620 506 620 L506 620 Z " />
<glyph glyph-name="F" unicode="F" horiz-adv-x="569" d="M508 624 C504 665 501 708 497 750 C497 750 377 750 377 750 C377 750 187 750 187 750 C187 750 164 750 164 750 C164 750 59 750 59 750 C59 750 59 730 59 730 C59 730 89 730 89 730 C139 730 164 725 164 665 C164 665 164 85 164 85 C164 25 139 20 89 20 C89 20 59 20 59 20 C59 20 59 0 59 0 C59 0 164 0 164 0 C164 0 187 0 187 0 C187 0 292 0 292 0 C292 0 292 20 292 20 C292 20 262 20 262 20 C212 20 187 25 187 85 C187 85 187 380 187 380 C187 380 355 380 355 380 C399 369 406 337 411 286 C411 286 415 240 415 240 C415 240 427 240 427 240 C427 240 427 380 427 380 C427 380 427 385 427 385 C427 385 427 525 427 525 C427 525 415 525 415 525 C415 525 411 479 411 479 C405 417 395 385 307 385 C307 385 187 385 187 385 C187 385 187 665 187 665 C187 665 187 746 187 746 C187 746 297 746 297 746 C465 746 480 714 485 651 C485 651 488 621 488 621 C490 621 500 621 508 624 L508 624 Z " />
<glyph glyph-name="G" unicode="G" horiz-adv-x="748" d="M627 536 C627 536 627 626 627 626 C627 626 627 741 627 741 C627 741 612 741 612 741 C612 741 610 731 607 713 C604 695 576 693 526 724 C526 724 525 724 525 724 C485 748 436 760 358 760 C167 760 71 631 71 375 C71 119 164 -10 349 -10 C457 -10 528 1 594 24 C594 24 606 27 606 27 C606 27 606 28 606 28 C632 38 658 49 686 62 C686 62 684 65 684 65 C657 53 632 42 606 32 C606 32 607 245 607 245 C607 301 625 305 662 305 C662 305 692 305 692 305 C692 305 692 325 692 325 C692 325 484 325 484 325 C484 325 484 305 484 305 C484 305 514 305 514 305 C561 305 584 301 584 245 C584 245 585 45 585 45 C584 35 576 26 560 19 C560 19 567 20 567 20 C563 19 558 17 553 16 C517 2 449 -5 351 -5 C351 -5 560 19 560 19 C558 18 556 17 553 16 C499 2 437 -5 351 -5 C181 -5 95 123 95 375 C95 627 184 754 360 754 C411 754 449 748 481 737 C481 737 477 738 477 738 C540 717 590 631 607 557 C610 543 612 536 612 536 C612 536 627 536 627 536 L627 536 Z " />
<glyph glyph-name="H" unicode="H" horiz-adv-x="783" d="M743 750 C743 750 511 750 511 750 C511 750 511 730 511 730 C511 730 541 730 541 730 C591 730 616 726 616 670 C616 670 616 386 616 386 C616 386 223 386 223 386 C223 386 223 670 223 670 C223 726 248 730 298 730 C298 730 328 730 328 730 C328 730 328 750 328 750 C328 750 95 750 95 750 C95 750 95 730 95 730 C95 730 125 730 125 730 C175 730 200 726 200 670 C200 670 200 80 200 80 C200 24 175 20 125 20 C125 20 95 20 95 20 C95 20 95 0 95 0 C95 0 328 0 328 0 C328 0 328 20 328 20 C328 20 298 20 298 20 C248 20 223 24 223 80 C223 80 223 380 223 380 C223 380 616 380 616 380 C616 380 616 80 616 80 C616 24 591 20 541 20 C541 20 511 20 511 20 C511 20 511 0 511 0 C511 0 743 0 743 0 C743 0 743 20 743 20 C743 20 713 20 713 20 C663 20 638 24 638 80 C638 80 638 670 638 670 C638 726 663 730 713 730 C713 730 743 730 743 730 C743 730 743 750 743 750 L743 750 Z " />
<glyph glyph-name="I" unicode="I" horiz-adv-x="346" d="M306 750 C306 750 74 750 74 750 C74 750 74 730 74 730 C74 730 104 730 104 730 C154 730 179 726 179 670 C179 670 179 80 179 80 C179 24 154 20 104 20 C104 20 74 20 74 20 C74 20 74 0 74 0 C74 0 306 0 306 0 C306 0 306 20 306 20 C306 20 276 20 276 20 C226 20 201 24 201 80 C201 80 201 670 201 670 C201 726 226 730 276 730 C276 730 306 730 306 730 C306 730 306 750 306 750 L306 750 Z " />
<glyph glyph-name="J" unicode="J" horiz-adv-x="346" d="M306 750 C306 750 74 750 74 750 C74 750 74 730 74 730 C74 730 104 730 104 730 C154 730 179 726 179 670 C179 670 179 1 179 1 C179 -197 115 -212 59 -212 C46 -212 55 -193 42 -193 C35 -193 31 -197 31 -204 C31 -215 39 -220 54 -220 C122 -220 201 -202 201 43 C201 43 201 670 201 670 C201 726 226 730 276 730 C276 730 306 730 306 730 C306 730 306 750 306 750 L306 750 Z " />
<glyph glyph-name="K" unicode="K" horiz-adv-x="666" d="M647 20 C647 20 609 20 609 20 C578 20 534 49 499 85 C499 85 499 85 499 85 C499 85 204 389 204 389 C204 389 421 639 421 639 C421 639 422 640 422 640 C494 724 521 730 565 730 C565 730 595 730 595 730 C595 730 595 750 595 750 C595 750 517 750 517 750 C517 750 508 750 508 750 C508 750 368 750 368 750 C368 750 368 730 368 730 C368 730 391 730 391 730 C457 730 484 722 388 610 C388 610 389 611 389 611 C389 611 187 375 187 375 C187 375 187 690 187 690 C187 727 212 730 262 730 C262 730 292 730 292 730 C292 730 292 750 292 750 C292 750 187 750 187 750 C187 750 164 750 164 750 C164 750 59 750 59 750 C59 750 59 730 59 730 C59 730 89 730 89 730 C139 730 164 727 164 690 C164 690 164 60 164 60 C164 23 139 20 89 20 C89 20 59 20 59 20 C59 20 59 0 59 0 C59 0 164 0 164 0 C164 0 187 0 187 0 C187 0 292 0 292 0 C292 0 292 20 292 20 C292 20 262 20 262 20 C212 20 187 23 187 60 C187 60 187 375 187 375 C187 375 469 85 469 85 C469 85 469 85 469 85 C469 85 552 0 552 0 C552 0 581 0 581 0 C581 0 647 0 647 0 C647 0 647 20 647 20 L647 20 Z " />
<glyph glyph-name="L" unicode="L" horiz-adv-x="611" d="M536 4 C550 58 565 112 580 166 C579 166 560 169 560 169 C560 169 552 139 552 139 C528 49 505 4 351 4 C351 4 281 4 281 4 C201 4 201 30 201 80 C201 80 201 85 201 85 C201 85 201 665 201 665 C201 725 226 730 276 730 C276 730 306 730 306 730 C306 730 306 750 306 750 C306 750 201 750 201 750 C201 750 179 750 179 750 C179 750 74 750 74 750 C74 750 74 730 74 730 C74 730 104 730 104 730 C154 730 179 725 179 665 C179 665 179 85 179 85 C179 25 154 20 104 20 C104 20 74 20 74 20 C74 20 74 0 74 0 C74 0 179 0 179 0 C179 0 201 0 201 0 C201 0 350 0 350 0 C350 0 535 0 535 0 C535 0 536 4 536 4 L536 4 Z " />
<glyph glyph-name="M" unicode="M" horiz-adv-x="830" d="M41 730 C41 730 71 730 71 730 C112 730 137 727 157 693 C157 693 142 150 142 150 C142 150 142 150 142 150 C139 29 107 20 44 20 C44 20 14 20 14 20 C14 20 14 0 14 0 C14 0 138 0 138 0 C138 0 146 0 146 0 C146 0 271 0 271 0 C271 0 271 20 271 20 C271 20 241 20 241 20 C182 20 150 27 149 119 C149 119 162 684 162 684 C164 682 165 679 167 675 C254 450 341 225 427 0 C427 0 433 0 433 0 C433 0 690 729 690 729 C690 729 707 85 707 85 C707 85 706 85 706 85 C708 25 682 20 631 20 C631 20 601 20 601 20 C601 20 601 0 601 0 C601 0 709 0 709 0 C709 0 731 0 731 0 C731 0 834 0 834 0 C834 0 834 20 834 20 C834 20 804 20 804 20 C755 20 730 25 729 85 C729 85 729 85 729 85 C729 85 715 582 715 582 C715 582 715 580 715 580 C711 720 736 730 786 730 C786 730 815 730 815 730 C815 730 815 750 815 750 C815 750 710 750 710 750 C710 750 697 750 697 750 C697 750 689 750 689 750 C689 750 437 28 437 28 C437 28 437 29 437 29 C437 29 165 750 165 750 C165 750 164 750 164 750 C164 750 159 750 159 750 C159 750 138 750 138 750 C138 750 41 750 41 750 C41 750 41 730 41 730 L41 730 Z " />
<glyph glyph-name="N" unicode="N" horiz-adv-x="750" d="M74 730 C74 730 111 730 111 730 C124 730 133 729 144 718 C144 718 143 150 143 150 C143 150 143 150 143 150 C143 29 111 20 48 20 C48 20 18 20 18 20 C18 20 18 0 18 0 C18 0 143 0 143 0 C143 0 150 0 150 0 C150 0 275 0 275 0 C275 0 275 20 275 20 C275 20 245 20 245 20 C182 20 150 28 150 140 C150 140 150 140 150 140 C150 140 149 712 149 712 C153 708 157 702 161 695 C161 695 161 696 161 696 C161 696 579 32 579 32 C579 32 599 0 599 0 C599 0 603 0 603 0 C603 0 605 630 605 630 C605 630 605 630 605 630 C605 723 637 730 700 730 C700 730 730 730 730 730 C730 730 730 750 730 750 C730 750 605 750 605 750 C605 750 598 750 598 750 C598 750 473 750 473 750 C473 750 473 730 473 730 C473 730 503 730 503 730 C566 730 598 723 598 630 C598 630 598 630 598 630 C598 630 599 42 599 42 C599 42 598 44 598 44 C598 44 154 750 154 750 C154 750 149 750 149 750 C149 750 144 750 144 750 C144 750 127 750 127 750 C127 750 74 750 74 750 C74 750 74 730 74 730 L74 730 Z " />
<glyph glyph-name="O" unicode="O" horiz-adv-x="767" d="M378 -4 C191 -4 96 123 96 375 C96 627 193 754 386 754 C586 754 687 627 687 375 C687 123 583 -4 378 -4 L378 -4 Z M71 375 C71 119 174 -10 377 -10 C600 -10 713 119 713 375 C713 631 603 760 387 760 C177 760 71 631 71 375 L71 375 Z " />
<glyph glyph-name="P" unicode="P" horiz-adv-x="532" d="M65 730 C65 730 95 730 95 730 C145 730 170 725 170 665 C170 665 170 85 170 85 C170 25 145 20 95 20 C95 20 65 20 65 20 C65 20 65 0 65 0 C65 0 170 0 170 0 C170 0 192 0 192 0 C192 0 297 0 297 0 C297 0 297 20 297 20 C297 20 267 20 267 20 C217 20 192 25 192 85 C192 85 192 360 192 360 C192 360 242 360 242 360 C422 360 513 403 513 542 C513 680 439 750 292 750 C292 750 192 750 192 750 C192 750 170 750 170 750 C170 750 65 750 65 750 C65 750 65 730 65 730 L65 730 Z M192 365 C192 365 192 665 192 665 C192 665 192 746 192 746 C192 746 287 746 287 746 C423 746 492 679 492 546 C492 408 408 365 242 365 C242 365 192 365 192 365 L192 365 Z " />
<glyph glyph-name="Q" unicode="Q" horiz-adv-x="762" d="M1063 -52 C1063 -52 1061 -50 1061 -50 C1028 -78 935 -92 785 -92 C605 -92 467 -64 377 -10 C600 -10 713 119 713 375 C713 631 603 760 387 760 C177 760 71 631 71 375 C71 138 246 10 352 -8 C352 -8 352 -8 352 -8 C457 -76 601 -111 782 -111 C922 -111 1016 -91 1063 -52 L1063 -52 Z M378 -4 C374 -4 371 -4 367 -3 C366 -3 366 -3 366 -3 C366 -3 365 -3 365 -3 C268 7 96 134 96 375 C96 627 193 754 386 754 C586 754 687 627 687 375 C687 123 583 -4 378 -4 C378 -4 378 -4 378 -4 L378 -4 Z " />
<glyph glyph-name="R" unicode="R" horiz-adv-x="650" d="M59 730 C59 730 89 730 89 730 C139 730 164 725 164 665 C164 665 164 85 164 85 C164 25 139 20 89 20 C89 20 59 20 59 20 C59 20 59 0 59 0 C59 0 292 0 292 0 C292 0 292 20 292 20 C292 20 262 20 262 20 C212 20 187 25 187 85 C187 85 187 374 187 374 C187 374 355 374 355 374 C362 355 407 256 491 80 C531 -5 522 0 641 0 C641 0 641 4 641 4 C547 4 555 -1 517 80 C437 251 390 349 378 375 C479 380 531 422 531 542 C531 680 472 750 356 750 C356 750 187 750 187 750 C187 750 59 750 59 750 C59 750 59 730 59 730 L59 730 Z M187 746 C187 746 350 746 350 746 C454 746 506 679 506 546 C506 427 462 386 375 381 C375 381 375 381 375 381 C375 381 372 380 372 380 C366 380 361 380 356 380 C356 380 187 380 187 380 C187 380 187 665 187 665 C187 665 187 746 187 746 L187 746 Z " />
<glyph glyph-name="S" unicode="S" horiz-adv-x="540" d="M455 553 C455 553 455 641 455 641 C455 641 455 756 455 756 C455 756 440 756 440 756 C440 756 438 746 435 727 C433 711 419 703 395 716 C356 745 303 760 238 760 C133 760 80 702 80 588 C80 508 140 440 303 363 C435 302 483 241 483 164 C483 53 425 -3 310 -3 C258 -3 212 7 173 28 C173 28 174 28 174 28 C128 53 89 155 70 237 C70 237 55 237 55 237 C55 237 55 149 55 149 C55 149 55 4 55 4 C55 4 70 4 70 4 C70 4 72 16 75 40 C78 61 99 68 136 44 C182 8 240 -10 310 -10 C437 -10 501 51 501 171 C501 257 451 324 317 387 C156 461 97 525 97 597 C97 701 144 754 238 754 C260 754 281 752 300 749 C300 749 299 749 299 749 C301 749 303 748 305 748 C325 744 344 737 361 729 C361 729 323 741 323 741 C377 716 419 642 435 574 C438 560 440 553 440 553 C440 553 455 553 455 553 L455 553 Z M323 741 C323 741 300 749 300 749 C301 748 303 748 305 748 C311 746 317 744 323 741 C323 741 323 741 323 741 L323 741 Z " />
<glyph glyph-name="T" unicode="T" horiz-adv-x="775" d="M757 642 C745 677 733 711 720 745 C720 745 720 750 720 750 C720 750 718 750 718 750 C713 763 709 776 704 789 C704 789 700 789 694 790 C694 790 683 790 683 790 C683 790 688 777 688 777 C695 759 691 750 598 750 C598 750 399 750 399 750 C399 750 376 750 376 750 C376 750 177 750 177 750 C84 750 80 759 87 777 C87 777 92 790 92 790 C92 790 81 790 81 790 C75 789 71 789 71 789 C66 776 62 763 57 750 C57 750 55 750 55 750 C55 750 55 745 55 745 C42 711 30 677 18 642 C20 642 29 639 37 639 C37 639 48 669 48 669 C66 719 82 744 175 744 C175 744 376 744 376 744 C376 744 376 80 376 80 C376 24 351 20 301 20 C301 20 271 20 271 20 C271 20 271 0 271 0 C271 0 504 0 504 0 C504 0 504 20 504 20 C504 20 474 20 474 20 C424 20 399 24 399 80 C399 80 399 744 399 744 C399 744 600 744 600 744 C693 744 709 719 727 669 C727 669 738 639 738 639 C740 639 750 640 757 642 L757 642 Z " />
<glyph glyph-name="U" unicode="U" horiz-adv-x="643" d="M401 730 C401 730 431 730 431 730 C481 730 506 725 506 665 C506 665 506 164 506 164 C457 58 371 4 249 4 C185 4 152 77 152 220 C152 220 152 665 152 665 C152 665 152 750 152 750 C152 750 24 750 24 750 C24 750 24 730 24 730 C24 730 54 730 54 730 C104 730 129 725 129 665 C129 665 129 220 129 220 C129 67 166 -10 240 -10 C366 -10 456 45 506 153 C506 153 506 110 506 110 C506 110 506 0 506 0 C506 0 510 0 510 0 C510 0 633 55 633 55 C633 55 633 65 633 65 C536 60 529 62 529 110 C529 110 529 665 529 665 C529 665 529 750 529 750 C529 750 401 750 401 750 C401 750 401 730 401 730 L401 730 Z " />
<glyph glyph-name="V" unicode="V" horiz-adv-x="737" d="M284 750 C284 750 119 750 119 750 C119 750 94 750 94 750 C94 750 35 750 35 750 C35 750 35 730 35 730 C35 730 72 730 72 730 C91 730 101 727 112 690 C112 690 113 688 113 688 C113 688 319 30 319 30 C319 30 332 -10 332 -10 C332 -10 337 -10 337 -10 C337 -10 571 640 571 640 C605 723 629 730 669 730 C669 730 699 730 699 730 C699 730 699 750 699 750 C699 750 611 750 611 750 C611 750 602 750 602 750 C602 750 437 750 437 750 C437 750 437 730 437 730 C437 730 460 730 460 730 C550 730 592 722 552 610 C552 610 552 610 552 610 C552 610 332 -10 332 -10 C332 -10 346 30 346 30 C346 30 161 617 161 617 C131 722 173 730 261 730 C261 730 284 730 284 730 C284 730 284 750 284 750 L284 750 Z " />
<glyph glyph-name="W" unicode="W" horiz-adv-x="1066" d="M1028 750 C1028 750 939 750 939 750 C939 750 930 750 930 750 C930 750 765 750 765 750 C765 750 765 730 765 730 C765 730 789 730 789 730 C876 730 918 722 891 620 C891 620 714 33 714 33 C714 33 558 642 558 642 C558 642 559 640 559 640 C537 724 574 730 651 730 C651 730 675 730 675 730 C675 730 675 750 675 750 C675 750 530 750 530 750 C530 750 505 750 505 750 C505 750 415 750 415 750 C415 750 415 730 415 730 C415 730 445 730 445 730 C488 730 511 727 520 690 C520 690 521 689 521 689 C537 626 553 563 569 500 C569 500 569 500 569 500 C569 500 345 28 345 28 C345 28 345 28 345 28 C345 28 180 610 180 610 C180 610 180 610 180 610 C149 722 185 730 261 730 C261 730 285 730 285 730 C285 730 285 750 285 750 C285 750 140 750 140 750 C140 750 116 750 116 750 C116 750 56 750 56 750 C56 750 56 730 56 730 C56 730 94 730 94 730 C111 730 122 723 151 622 C210 412 268 200 327 -10 C327 -10 333 -10 333 -10 C333 -10 572 490 572 490 C615 323 658 156 701 -10 C701 -10 707 -10 707 -10 C707 -10 896 610 896 610 C896 610 897 610 897 610 C930 722 955 730 998 730 C998 730 1028 730 1028 730 C1028 730 1028 750 1028 750 L1028 750 Z " />
<glyph glyph-name="X" unicode="X" horiz-adv-x="745" d="M716 750 C716 750 643 750 643 750 C643 750 633 750 633 750 C633 750 498 750 498 750 C498 750 498 730 498 730 C498 730 522 730 522 730 C586 730 614 721 545 609 C545 609 408 391 408 391 C408 391 275 610 275 610 C275 610 275 610 275 610 C207 722 232 730 291 730 C291 730 315 730 315 730 C315 730 315 750 315 750 C315 750 190 750 190 750 C190 750 164 750 164 750 C164 750 101 750 101 750 C101 750 101 730 101 730 C101 730 134 730 134 730 C162 730 181 722 248 610 C248 610 249 610 249 610 C249 610 392 373 392 373 C392 373 210 97 210 97 C159 26 130 20 84 20 C84 20 54 20 54 20 C54 20 54 0 54 0 C54 0 145 0 145 0 C145 0 154 0 154 0 C154 0 339 0 339 0 C339 0 339 20 339 20 C339 20 317 20 317 20 C217 20 172 29 252 150 C252 150 252 150 252 150 C252 150 395 369 395 369 C395 369 533 140 533 140 C533 140 533 140 533 140 C600 28 575 20 516 20 C516 20 493 20 493 20 C493 20 493 0 493 0 C493 0 618 0 618 0 C618 0 644 0 644 0 C644 0 717 0 717 0 C717 0 717 20 717 20 C717 20 686 20 686 20 C652 20 630 27 571 120 C571 120 410 386 410 386 C410 386 535 582 535 582 C535 582 535 580 535 580 C622 720 648 730 685 730 C685 730 716 730 716 730 C716 730 716 750 716 750 L716 750 Z " />
<glyph glyph-name="Y" unicode="Y" horiz-adv-x="775" d="M286 750 C286 750 181 750 181 750 C181 750 154 750 154 750 C154 750 101 750 101 750 C101 750 101 730 101 730 C101 730 138 730 138 730 C157 730 171 722 234 610 C234 610 234 610 234 610 C234 610 391 336 391 336 C391 336 391 80 391 80 C391 24 366 20 316 20 C316 20 286 20 286 20 C286 20 286 0 286 0 C286 0 518 0 518 0 C518 0 518 20 518 20 C518 20 488 20 488 20 C438 20 413 24 413 80 C413 80 413 336 413 336 C413 336 564 610 564 610 C564 610 564 610 564 610 C625 722 648 730 684 730 C684 730 715 730 715 730 C715 730 715 750 715 750 C715 750 641 750 641 750 C641 750 630 750 630 750 C630 750 525 750 525 750 C525 750 525 730 525 730 C525 730 550 730 550 730 C593 730 613 723 573 645 C573 645 411 344 411 344 C411 344 251 626 251 626 C199 723 217 730 261 730 C261 730 286 730 286 730 C286 730 286 750 286 750 L286 750 Z " />
<glyph glyph-name="Z" unicode="Z" horiz-adv-x="663" d="M82 574 C82 574 89 604 89 604 C107 692 124 739 230 744 C230 744 595 745 595 745 C595 745 36 5 36 5 C36 5 36 0 36 0 C36 0 60 0 60 0 C60 0 457 0 457 0 C457 0 617 0 617 0 C631 53 644 105 656 158 C654 158 645 161 637 161 C637 161 620 117 620 117 C594 48 572 11 481 7 C481 7 64 5 64 5 C64 5 621 745 621 745 C621 745 621 750 621 750 C621 750 599 750 599 750 C599 750 251 750 251 750 C251 750 81 750 81 750 C77 721 73 692 69 664 C69 664 57 577 57 577 C60 577 72 576 82 574 L82 574 Z " />
<glyph glyph-name="bracketleft" unicode="&#x5b;" horiz-adv-x="277" d="M117 744 C117 744 327 744 327 744 C327 744 327 750 327 750 C327 750 117 750 117 750 C117 750 110 750 110 750 C110 750 110 -195 110 -195 C110 -195 117 -195 117 -195 C117 -195 327 -195 327 -195 C327 -195 327 -189 327 -189 C327 -189 117 -189 117 -189 C117 -189 117 744 117 744 L117 744 Z " />
<glyph glyph-name="backslash" unicode="&#x5c;" horiz-adv-x="327" d="M46 770 C46 770 306 -80 306 -80 C306 -80 318 -80 318 -80 C318 -80 58 770 58 770 C58 770 46 770 46 770 L46 770 Z " />
<glyph glyph-name="bracketright" unicode="&#x5d;" horiz-adv-x="280" d="M163 744 C163 744 163 -189 163 -189 C163 -189 -47 -189 -47 -189 C-47 -189 -47 -195 -47 -195 C-47 -195 163 -195 163 -195 C163 -195 170 -195 170 -195 C170 -195 170 750 170 750 C170 750 163 750 163 750 C163 750 -47 750 -47 750 C-47 750 -47 744 -47 744 C-47 744 163 744 163 744 L163 744 Z " />
<glyph glyph-name="underscore" unicode="&#x5f;" horiz-adv-x="455" d="M5 -50 C5 -50 5 -61 5 -61 C5 -61 450 -61 450 -61 C450 -61 450 -50 450 -50 C450 -50 5 -50 5 -50 L5 -50 Z " />
<glyph glyph-name="a" unicode="a" horiz-adv-x="511" d="M522 56 C522 56 514 60 514 60 C508 26 490 9 459 9 C420 9 400 27 400 64 C400 64 400 361 400 361 C400 475 355 510 266 510 C143 510 81 420 81 360 C81 351 84 346 91 346 C108 346 116 351 116 356 C116 369 96 365 96 373 C96 425 151 504 259 504 C339 504 380 472 380 368 C380 368 380 268 380 268 C94 181 61 171 61 74 C61 18 100 -10 177 -10 C264 -10 322 10 380 91 C380 91 380 64 380 64 C380 18 404 -5 451 -5 C491 -5 515 16 522 56 L522 56 Z M380 264 C380 264 380 97 380 97 C326 21 270 1 188 1 C117 1 81 26 81 76 C81 173 112 182 380 264 C380 264 380 264 380 264 L380 264 Z " />
<glyph glyph-name="b" unicode="b" horiz-adv-x="585" d="M86 701 C86 701 116 710 116 710 C153 720 171 720 171 645 C171 645 171 0 171 0 C171 0 172 0 172 0 C172 0 178 70 178 70 C178 70 178 65 178 65 C220 15 279 -10 353 -10 C478 -10 541 77 541 251 C541 420 470 505 329 505 C283 505 236 473 191 409 C191 409 191 650 191 650 C191 650 191 750 191 750 C191 750 187 750 187 750 C187 750 86 721 86 721 C86 721 86 701 86 701 L86 701 Z M191 403 C234 465 279 497 321 497 C452 497 518 413 518 248 C518 80 463 -5 355 -5 C288 -5 233 20 191 70 C191 70 191 195 191 195 C191 195 191 403 191 403 L191 403 Z " />
<glyph glyph-name="c" unicode="c" horiz-adv-x="448" d="M419 128 C419 128 416 129 416 129 C378 45 318 2 237 2 C132 2 79 86 79 254 C79 421 135 505 246 505 C324 505 375 471 400 405 C402 398 405 395 410 395 C419 395 422 398 420 405 C395 475 337 510 247 510 C122 510 59 420 59 242 C59 75 117 -10 230 -10 C314 -10 378 36 419 128 L419 128 Z " />
<glyph glyph-name="d" unicode="d" horiz-adv-x="593" d="M599 35 C599 35 569 28 569 28 C532 19 514 21 514 114 C514 114 514 665 514 665 C514 665 514 750 514 750 C514 750 510 750 510 750 C510 750 409 721 409 721 C409 721 409 701 409 701 C409 701 439 710 439 710 C476 720 494 721 494 660 C494 660 494 413 494 413 C459 472 404 510 339 510 C137 510 63 425 63 256 C63 82 146 -5 310 -5 C393 -5 455 23 494 77 C494 77 494 -10 494 -10 C494 -10 497 -10 497 -10 C497 -10 599 15 599 15 C599 15 599 35 599 35 L599 35 Z M494 84 C456 31 397 3 319 3 C162 3 83 90 83 261 C83 422 152 504 341 504 C404 504 459 457 494 387 C494 387 494 110 494 110 C494 110 494 84 494 84 L494 84 Z " />
<glyph glyph-name="e" unicode="e" horiz-adv-x="534" d="M88 340 C88 340 482 340 482 340 C482 340 504 340 504 340 C480 476 417 510 304 510 C140 510 58 419 58 238 C58 73 133 -10 281 -10 C387 -10 459 38 494 134 C494 134 491 135 491 135 C459 47 390 3 286 3 C148 3 79 85 79 246 C79 281 82 312 88 340 L88 340 Z M499 346 C499 346 499 346 499 346 C499 346 499 346 499 346 C499 346 499 346 499 346 L499 346 Z M481 346 C481 346 89 345 89 345 C115 451 186 505 302 505 C400 505 457 473 481 346 C481 346 481 346 481 346 L481 346 Z " />
<glyph glyph-name="f" unicode="f" horiz-adv-x="319" d="M51 0 C51 0 241 0 241 0 C241 0 241 20 241 20 C241 20 211 20 211 20 C174 20 156 21 156 35 C156 35 156 489 156 489 C156 489 309 489 309 489 C309 489 309 500 309 500 C309 500 156 500 156 500 C156 665 190 749 284 749 C376 749 305 635 381 635 C411 635 426 650 426 680 C426 730 381 755 291 755 C178 755 136 669 136 500 C136 500 26 492 26 492 C26 492 26 489 26 489 C26 489 136 489 136 489 C136 489 136 35 136 35 C136 21 118 20 81 20 C81 20 51 20 51 20 C51 20 51 0 51 0 L51 0 Z " />
<glyph glyph-name="g" unicode="g" horiz-adv-x="520" d="M111 350 C111 453 162 505 263 505 C364 505 415 453 415 350 C415 246 364 193 263 193 C162 193 111 246 111 350 L111 350 Z M181 32 C183 32 185 32 188 32 C188 32 300 32 300 32 C434 32 468 -10 468 -93 C468 -181 403 -225 273 -225 C141 -225 75 -178 75 -86 C75 -24 110 15 181 32 L181 32 Z M176 32 C98 14 59 -27 59 -91 C59 -183 130 -230 272 -230 C413 -230 485 -182 485 -88 C485 5 448 52 302 52 C302 52 189 52 189 52 C114 52 76 73 76 115 C76 164 139 188 263 188 C377 188 435 242 435 350 C435 362 434 373 433 383 C438 452 470 487 527 487 C554 487 568 470 568 438 C568 433 571 431 577 431 C582 431 585 434 585 440 C585 477 568 495 535 495 C474 495 439 460 432 392 C418 470 361 510 263 510 C149 510 91 456 91 350 C91 257 134 204 220 191 C116 185 64 158 64 110 C64 61 102 35 176 32 C176 32 176 32 176 32 L176 32 Z " />
<glyph glyph-name="h" unicode="h" horiz-adv-x="548" d="M47 701 C47 701 77 710 77 710 C114 720 132 720 132 645 C132 645 132 35 132 35 C132 21 114 20 77 20 C77 20 47 20 47 20 C47 20 47 0 47 0 C47 0 237 0 237 0 C237 0 237 20 237 20 C237 20 207 20 207 20 C170 20 152 21 152 35 C152 35 152 363 152 363 C203 451 255 496 306 496 C381 496 408 462 408 395 C408 395 408 35 408 35 C408 21 390 20 353 20 C353 20 323 20 323 20 C323 20 323 0 323 0 C323 0 513 0 513 0 C513 0 513 20 513 20 C513 20 483 20 483 20 C446 20 428 21 428 35 C428 35 428 395 428 395 C428 471 398 510 318 510 C262 510 206 463 152 369 C152 369 152 650 152 650 C152 650 152 750 152 750 C152 750 148 750 148 750 C148 750 47 721 47 721 C47 721 47 701 47 701 L47 701 Z " />
<glyph glyph-name="i" unicode="i" horiz-adv-x="271" d="M151 615 C164 615 171 622 171 635 C171 648 164 655 151 655 C138 655 131 648 131 635 C131 622 138 615 151 615 L151 615 Z M56 451 C56 451 86 460 86 460 C123 470 141 470 141 395 C141 395 141 35 141 35 C141 21 126 20 96 20 C96 20 66 20 66 20 C66 20 66 0 66 0 C66 0 236 0 236 0 C236 0 236 20 236 20 C236 20 206 20 206 20 C176 20 161 21 161 35 C161 35 161 400 161 400 C161 400 161 500 161 500 C161 500 157 500 157 500 C157 500 56 471 56 471 C56 471 56 451 56 451 L56 451 Z " />
<glyph glyph-name="j" unicode="j" horiz-adv-x="241" d="M141 615 C154 615 161 622 161 635 C161 648 154 655 141 655 C128 655 121 648 121 635 C121 622 128 615 141 615 L141 615 Z M46 451 C46 451 76 460 76 460 C113 470 131 470 131 395 C131 395 131 12 131 12 C131 -66 118 -113 92 -127 C52 -127 17 -100 -24 -100 C-54 -100 -69 -113 -69 -140 C-69 -173 -49 -188 -9 -185 C-2 -184 34 -166 96 -130 C133 -109 151 -61 151 12 C151 12 151 400 151 400 C151 400 151 500 151 500 C151 500 147 500 147 500 C147 500 46 471 46 471 C46 471 46 451 46 451 L46 451 Z " />
<glyph glyph-name="k" unicode="k" horiz-adv-x="464" d="M438 500 C438 500 393 500 393 500 C393 500 384 500 384 500 C384 500 199 500 199 500 C199 500 199 480 199 480 C199 480 221 480 221 480 C312 480 350 471 228 346 C228 346 161 280 161 280 C161 280 161 650 161 650 C161 650 161 750 161 750 C161 750 157 750 157 750 C157 750 56 721 56 721 C56 721 56 701 56 701 C56 701 86 710 86 710 C123 720 141 720 141 645 C141 645 141 35 141 35 C141 21 126 20 96 20 C96 20 66 20 66 20 C66 20 66 0 66 0 C66 0 236 0 236 0 C236 0 236 20 236 20 C236 20 206 20 206 20 C176 20 161 21 161 35 C161 35 161 280 161 280 C161 280 349 32 349 32 C354 21 340 20 313 20 C313 20 288 20 288 20 C288 20 288 0 288 0 C288 0 373 0 373 0 C373 0 399 0 399 0 C399 0 439 0 439 0 C439 0 439 20 439 20 C439 20 395 20 395 20 C389 20 385 21 377 29 C377 29 179 290 179 290 C179 290 361 468 361 468 C374 479 384 480 400 480 C400 480 438 480 438 480 C438 480 438 500 438 500 L438 500 Z " />
<glyph glyph-name="l" unicode="l" horiz-adv-x="261" d="M46 701 C46 701 76 710 76 710 C113 720 131 720 131 645 C131 645 131 35 131 35 C131 21 114 20 81 20 C81 20 51 20 51 20 C51 20 51 0 51 0 C51 0 231 0 231 0 C231 0 231 20 231 20 C231 20 201 20 201 20 C168 20 151 21 151 35 C151 35 151 650 151 650 C151 650 151 750 151 750 C151 750 147 750 147 750 C147 750 46 721 46 721 C46 721 46 701 46 701 L46 701 Z " />
<glyph glyph-name="m" unicode="m" horiz-adv-x="833" d="M628 0 C628 0 808 0 808 0 C808 0 808 20 808 20 C808 20 778 20 778 20 C741 20 723 22 723 55 C723 55 723 395 723 395 C723 471 697 510 593 510 C539 510 486 465 434 376 C434 376 434 395 434 395 C434 471 408 510 304 510 C251 510 197 464 145 374 C145 374 145 400 145 400 C145 400 145 500 145 500 C145 500 141 500 141 500 C141 500 40 463 40 463 C40 463 40 443 40 443 C40 443 70 454 70 454 C107 467 125 468 125 394 C125 394 125 55 125 55 C125 22 107 20 70 20 C70 20 40 20 40 20 C40 20 40 0 40 0 C40 0 215 0 215 0 C215 0 215 20 215 20 C215 20 185 20 185 20 C158 20 145 22 145 55 C145 55 145 368 145 368 C194 452 245 495 296 495 C390 495 414 461 414 395 C414 395 414 55 414 55 C414 22 399 20 369 20 C369 20 339 20 339 20 C339 20 339 0 339 0 C339 0 499 0 499 0 C499 0 499 20 499 20 C499 20 469 20 469 20 C446 20 434 22 434 55 C434 55 434 370 434 370 C482 453 532 495 585 495 C679 495 703 461 703 395 C703 395 703 55 703 55 C703 22 688 20 658 20 C658 20 628 20 628 20 C628 20 628 0 628 0 L628 0 Z " />
<glyph glyph-name="n" unicode="n" horiz-adv-x="544" d="M40 443 C40 443 70 454 70 454 C107 467 125 468 125 394 C125 394 125 35 125 35 C125 21 108 20 75 20 C75 20 45 20 45 20 C45 20 45 0 45 0 C45 0 225 0 225 0 C225 0 225 20 225 20 C225 20 195 20 195 20 C162 20 145 21 145 35 C145 35 145 363 145 363 C196 451 246 495 292 495 C381 495 414 461 414 395 C414 395 414 35 414 35 C414 21 397 20 364 20 C364 20 334 20 334 20 C334 20 334 0 334 0 C334 0 514 0 514 0 C514 0 514 20 514 20 C514 20 484 20 484 20 C451 20 434 21 434 35 C434 35 434 395 434 395 C434 471 399 510 304 510 C253 510 199 463 145 369 C145 369 145 400 145 400 C145 400 145 500 145 500 C145 500 141 500 141 500 C141 500 40 463 40 463 C40 463 40 443 40 443 L40 443 Z " />
<glyph glyph-name="o" unicode="o" horiz-adv-x="609" d="M311 -4 C158 -4 81 81 81 250 C81 419 158 504 311 504 C465 504 542 419 542 250 C542 81 465 -4 311 -4 L311 -4 Z M58 250 C58 77 143 -10 311 -10 C479 -10 564 77 564 250 C564 423 479 510 311 510 C143 510 58 423 58 250 L58 250 Z " />
<glyph glyph-name="p" unicode="p" horiz-adv-x="545" d="M41 443 C41 443 71 454 71 454 C108 467 126 468 126 394 C126 394 126 -150 126 -150 C126 -197 108 -200 71 -200 C71 -200 41 -200 41 -200 C41 -200 41 -220 41 -220 C41 -220 231 -220 231 -220 C231 -220 231 -200 231 -200 C231 -200 201 -200 201 -200 C164 -200 146 -197 146 -150 C146 -150 146 98 146 98 C181 29 230 -5 288 -5 C429 -5 500 98 500 252 C500 423 429 510 288 510 C226 510 178 482 146 428 C146 428 146 500 146 500 C146 500 142 500 142 500 C142 500 41 463 41 463 C41 463 41 443 41 443 L41 443 Z M146 420 C178 474 223 502 279 502 C412 502 479 416 479 245 C479 99 414 0 286 0 C230 0 183 39 146 116 C146 116 146 400 146 400 C146 400 146 420 146 420 L146 420 Z " />
<glyph glyph-name="q" unicode="q" horiz-adv-x="626" d="M391 -220 C391 -220 581 -220 581 -220 C581 -220 581 -200 581 -200 C581 -200 551 -200 551 -200 C514 -200 496 -199 496 -185 C496 -185 496 500 496 500 C496 500 495 500 495 500 C495 500 488 440 488 440 C444 487 386 510 317 510 C130 510 61 425 61 256 C61 82 142 -5 303 -5 C381 -5 439 21 476 72 C476 72 476 -185 476 -185 C476 -199 457 -200 421 -200 C421 -200 391 -200 391 -200 C391 -200 391 -220 391 -220 L391 -220 Z M476 428 C476 428 476 79 476 79 C440 29 384 3 311 3 C159 3 82 90 82 261 C82 423 145 505 316 505 C373 505 427 479 476 428 C476 428 476 428 476 428 L476 428 Z " />
<glyph glyph-name="r" unicode="r" horiz-adv-x="343" d="M46 443 C46 443 76 454 76 454 C113 467 131 468 131 394 C131 394 131 35 131 35 C131 21 116 20 86 20 C86 20 56 20 56 20 C56 20 56 0 56 0 C56 0 236 0 236 0 C236 0 236 20 236 20 C236 20 206 20 206 20 C169 20 151 21 151 35 C151 35 151 370 151 370 C176 457 222 501 287 501 C302 501 310 489 310 466 C310 458 314 454 322 454 C330 454 334 458 334 466 C334 495 321 510 296 510 C225 510 176 467 151 381 C151 381 151 400 151 400 C151 400 151 500 151 500 C151 500 147 500 147 500 C147 500 46 463 46 463 C46 463 46 443 46 443 L46 443 Z " />
<glyph glyph-name="s" unicode="s" horiz-adv-x="431" d="M352 356 C352 356 352 424 352 424 C352 424 352 510 352 510 C352 510 332 510 332 510 C332 510 332 481 332 481 C332 477 314 481 278 496 C278 496 277 496 277 496 C254 505 227 510 197 510 C120 510 81 472 81 396 C81 333 125 285 244 242 C333 210 366 168 366 108 C366 33 326 -5 248 -5 C231 -5 215 -3 200 0 C131 17 96 86 96 147 C96 147 96 163 96 163 C96 163 76 163 76 163 C76 163 76 96 76 96 C76 96 76 11 76 11 C76 11 96 11 96 11 C96 11 96 32 96 32 C96 31 122 21 173 2 C173 2 173 2 173 2 C195 -6 220 -10 248 -10 C337 -10 382 31 382 114 C382 178 347 224 253 258 C138 300 96 345 96 403 C96 471 130 505 197 505 C210 505 223 504 234 501 C234 501 197 505 197 505 C216 505 234 503 250 499 C250 499 234 501 234 501 C299 486 332 429 332 372 C332 372 332 356 332 356 C332 356 352 356 352 356 L352 356 Z " />
<glyph glyph-name="t" unicode="t" horiz-adv-x="306" d="M269 500 C269 500 115 500 115 500 C115 500 115 620 115 620 C115 620 114 620 114 620 C114 620 30 500 30 500 C30 500 30 490 30 490 C30 490 95 490 95 490 C95 490 95 103 95 103 C95 13 129 -10 196 -10 C228 -10 262 8 296 45 C296 45 294 46 294 46 C266 15 234 -1 202 -1 C143 -1 114 19 114 98 C114 98 115 489 115 489 C115 489 269 489 269 489 C269 489 269 500 269 500 L269 500 Z " />
<glyph glyph-name="u" unicode="u" horiz-adv-x="531" d="M511 35 C511 35 481 28 481 28 C444 19 426 20 426 94 C426 94 426 465 426 465 C426 465 426 500 426 500 C426 500 340 500 340 500 C340 500 340 480 340 480 C340 480 370 480 370 480 C394 480 406 479 406 465 C406 465 406 129 406 129 C372 46 319 4 247 4 C174 4 137 56 137 160 C137 160 137 465 137 465 C137 465 137 500 137 500 C137 500 51 500 51 500 C51 500 51 480 51 480 C51 480 81 480 81 480 C105 480 117 479 117 465 C117 465 117 160 117 160 C117 47 158 -10 238 -10 C314 -10 370 35 406 123 C406 123 406 90 406 90 C406 90 406 -10 406 -10 C406 -10 410 -10 410 -10 C410 -10 511 15 511 15 C511 15 511 35 511 35 L511 35 Z " />
<glyph glyph-name="v" unicode="v" horiz-adv-x="519" d="M484 500 C484 500 405 500 405 500 C405 500 396 500 396 500 C396 500 301 500 301 500 C301 500 301 480 301 480 C301 480 328 480 328 480 C366 480 386 478 382 456 C382 456 238 17 238 17 C238 17 133 453 133 453 C133 453 134 453 134 453 C127 478 140 480 166 480 C166 480 197 480 197 480 C197 480 197 500 197 500 C197 500 122 500 122 500 C122 500 101 500 101 500 C101 500 36 500 36 500 C36 500 36 480 36 480 C36 480 71 480 71 480 C94 480 106 478 112 453 C112 453 113 453 113 453 C113 453 229 -10 229 -10 C229 -10 235 -10 235 -10 C235 -10 383 434 383 434 C383 434 384 436 384 436 C398 477 417 480 453 480 C453 480 484 480 484 480 C484 480 484 500 484 500 L484 500 Z " />
<glyph glyph-name="w" unicode="w" horiz-adv-x="740" d="M713 500 C713 500 635 500 635 500 C635 500 625 500 625 500 C625 500 530 500 530 500 C530 500 530 480 530 480 C530 480 557 480 557 480 C594 480 613 478 612 460 C612 460 453 -10 453 -10 C453 -10 459 -10 459 -10 C459 -10 615 441 615 441 C629 477 648 480 682 480 C682 480 713 480 713 480 C713 480 713 500 713 500 L713 500 Z M429 500 C429 500 363 500 363 500 C363 500 341 500 341 500 C341 500 279 500 279 500 C279 500 279 480 279 480 C279 480 316 480 316 480 C335 480 345 479 349 460 C349 460 350 460 350 460 C350 460 374 350 374 350 C374 350 261 -10 261 -10 C261 -10 266 -10 266 -10 C266 -10 377 335 377 335 C377 335 453 -10 453 -10 C453 -10 462 17 462 17 C462 17 370 465 370 465 C369 479 378 480 394 480 C394 480 429 480 429 480 C429 480 429 500 429 500 L429 500 Z M236 500 C236 500 171 500 171 500 C171 500 148 500 148 500 C148 500 87 500 87 500 C87 500 87 480 87 480 C87 480 123 480 123 480 C141 480 151 479 156 464 C156 464 261 -10 261 -10 C261 -10 269 17 269 17 C269 17 178 467 178 467 C177 479 186 480 202 480 C202 480 236 480 236 480 C236 480 236 500 236 500 L236 500 Z " />
<glyph glyph-name="x" unicode="x" horiz-adv-x="559" d="M56 0 C56 0 118 0 118 0 C118 0 127 0 127 0 C127 0 227 0 227 0 C227 0 227 20 227 20 C227 20 202 20 202 20 C162 20 143 23 164 58 C164 58 277 234 277 234 C277 234 392 54 392 54 C409 22 398 20 373 20 C373 20 346 20 346 20 C346 20 346 0 346 0 C346 0 426 0 426 0 C426 0 451 0 451 0 C451 0 503 0 503 0 C503 0 503 20 503 20 C503 20 466 20 466 20 C447 20 436 23 412 62 C412 62 412 62 412 62 C412 62 291 252 291 252 C291 252 403 448 403 448 C422 478 438 480 463 480 C463 480 497 480 497 480 C497 480 497 500 497 500 C497 500 433 500 433 500 C433 500 424 500 424 500 C424 500 334 500 334 500 C334 500 334 480 334 480 C334 480 360 480 360 480 C392 480 408 477 395 447 C395 447 288 256 288 256 C288 256 174 436 174 436 C174 436 174 436 174 436 C148 477 160 480 186 480 C186 480 213 480 213 480 C213 480 213 500 213 500 C213 500 133 500 133 500 C133 500 109 500 109 500 C109 500 67 500 67 500 C67 500 67 480 67 480 C67 480 111 480 111 480 C117 480 121 479 133 462 C133 462 275 238 275 238 C275 238 160 64 160 64 C160 64 160 64 160 64 C133 23 117 20 90 20 C90 20 56 20 56 20 C56 20 56 0 56 0 L56 0 Z " />
<glyph glyph-name="y" unicode="y" horiz-adv-x="515" d="M495 500 C495 500 417 500 417 500 C417 500 408 500 408 500 C408 500 313 500 313 500 C313 500 313 480 313 480 C313 480 340 480 340 480 C381 480 400 478 391 450 C391 450 391 450 391 450 C391 450 235 -10 235 -10 C235 -10 244 17 244 17 C244 17 127 453 127 453 C127 453 127 453 127 453 C120 478 132 480 158 480 C158 480 189 480 189 480 C189 480 189 500 189 500 C189 500 114 500 114 500 C114 500 93 500 93 500 C93 500 28 500 28 500 C28 500 28 480 28 480 C28 480 63 480 63 480 C86 480 99 478 106 453 C106 453 106 453 106 453 C106 453 235 -10 235 -10 C235 -10 191 -140 191 -140 C185 -157 175 -165 161 -165 C156 -165 154 -158 149 -158 C142 -158 138 -161 138 -168 C138 -176 142 -180 150 -180 C171 -180 186 -168 194 -145 C194 -145 241 -10 241 -10 C241 -10 397 441 397 441 C411 477 430 480 464 480 C464 480 495 480 495 480 C495 480 495 500 495 500 L495 500 Z " />
<glyph glyph-name="z" unicode="z" horiz-adv-x="475" d="M62 394 C62 394 74 394 74 394 C74 394 90 424 90 424 C113 467 132 491 215 494 C215 494 411 495 411 495 C411 495 40 5 40 5 C40 5 40 0 40 0 C40 0 61 0 61 0 C61 0 415 0 415 0 C415 0 430 0 430 0 C436 36 439 72 445 106 C445 106 435 106 435 106 C435 106 421 76 421 76 C400 33 381 9 285 6 C285 6 65 5 65 5 C65 5 435 495 435 495 C435 495 435 500 435 500 C435 500 415 500 415 500 C415 500 135 500 135 500 C123 500 112 508 116 523 C116 523 121 540 121 540 C121 540 101 540 101 540 C87 491 74 443 62 394 C62 394 62 394 62 394 L62 394 Z " />
<glyph glyph-name="bar" unicode="&#x7c;" horiz-adv-x="135" d="M60 800 C60 800 60 -250 60 -250 C60 -250 76 -250 76 -250 C76 -250 76 800 76 800 C76 800 60 800 60 800 L60 800 Z " />
<glyph glyph-name="exclamdown" unicode="&#xa1;" horiz-adv-x="164" d="M82 505 C69 505 62 498 62 485 C62 472 69 465 82 465 C96 465 102 472 102 485 C102 498 96 505 82 505 L82 505 Z M82 -255 C94 -255 95 -233 94 -188 C94 -188 84 290 84 290 C84 290 80 290 80 290 C80 290 70 -188 70 -188 C69 -233 70 -255 82 -255 L82 -255 Z " />
<glyph glyph-name="cent" unicode="&#xa2;" horiz-adv-x="448" d="M225 575 C225 575 225 509 225 509 C115 499 59 409 59 242 C59 77 115 -7 225 -10 C225 -10 225 -75 225 -75 C225 -75 239 -75 239 -75 C239 -75 239 -10 239 -10 C319 -7 379 39 419 128 C419 128 416 129 416 129 C378 46 319 3 239 2 C239 2 239 505 239 505 C241 505 244 505 246 505 C324 505 375 471 400 405 C402 398 405 395 410 395 C419 395 422 398 420 405 C395 475 337 510 247 510 C244 510 242 510 239 510 C239 510 239 575 239 575 C239 575 225 575 225 575 L225 575 Z M225 2 C128 9 79 93 79 254 C79 410 128 494 225 504 C225 504 225 2 225 2 L225 2 Z " />
<glyph glyph-name="questiondown" unicode="&#xbf;" horiz-adv-x="309" d="M184 505 C171 505 164 498 164 485 C164 472 171 465 184 465 C197 465 204 472 204 485 C204 498 197 505 184 505 L184 505 Z M190 355 C190 355 184 140 184 140 C98 140 76 107 31 40 C13 14 4 -17 4 -51 C4 -190 58 -260 164 -260 C177 -260 183 -255 183 -245 C183 -238 179 -235 172 -235 C167 -235 162 -239 157 -239 C59 -239 10 -175 10 -49 C10 -22 19 5 36 31 C76 90 96 120 191 120 C191 120 194 355 194 355 C194 355 190 355 190 355 L190 355 Z " />
<glyph glyph-name="Agrave" unicode="&#xc0;" horiz-adv-x="716" d="M463 0 C463 0 598 0 598 0 C598 0 622 0 622 0 C622 0 711 0 711 0 C711 0 711 20 711 20 C711 20 681 20 681 20 C640 20 616 27 584 128 C584 128 405 743 405 743 C405 743 397 770 397 770 C397 770 395 770 395 770 C382 751 378 742 383 743 C383 743 386 733 386 733 C386 733 197 157 197 157 C153 29 115 20 47 20 C47 20 17 20 17 20 C17 20 17 0 17 0 C17 0 145 0 145 0 C145 0 152 0 152 0 C152 0 317 0 317 0 C317 0 317 20 317 20 C317 20 294 20 294 20 C207 20 165 29 201 152 C201 152 247 294 247 294 C247 294 513 294 513 294 C513 294 563 120 563 120 C586 27 553 20 488 20 C488 20 463 20 463 20 C463 20 463 0 463 0 L463 0 Z M271 949 C224 997 199 1022 196 1022 C190 1022 186 1018 186 1012 C186 1009 211 985 262 940 C262 940 398 814 398 814 C398 814 401 817 401 817 C401 817 271 949 271 949 L271 949 Z M249 299 C249 299 388 726 388 726 C388 726 511 299 511 299 C511 299 249 299 249 299 L249 299 Z " />
<glyph glyph-name="Aacute" unicode="&#xc1;" horiz-adv-x="716" d="M400 814 C400 814 536 940 536 940 C587 987 612 1011 612 1012 C612 1018 608 1022 602 1022 C601 1022 576 997 527 949 C527 949 397 817 397 817 C397 817 400 814 400 814 L400 814 Z M463 0 C463 0 598 0 598 0 C598 0 622 0 622 0 C622 0 711 0 711 0 C711 0 711 20 711 20 C711 20 681 20 681 20 C640 20 616 27 584 128 C584 128 405 743 405 743 C405 743 397 770 397 770 C397 770 395 770 395 770 C382 751 378 742 383 743 C383 743 386 733 386 733 C386 733 197 157 197 157 C153 29 115 20 47 20 C47 20 17 20 17 20 C17 20 17 0 17 0 C17 0 145 0 145 0 C145 0 152 0 152 0 C152 0 317 0 317 0 C317 0 317 20 317 20 C317 20 294 20 294 20 C207 20 165 29 201 152 C201 152 247 294 247 294 C247 294 513 294 513 294 C513 294 563 120 563 120 C586 27 553 20 488 20 C488 20 463 20 463 20 C463 20 463 0 463 0 L463 0 Z M249 299 C249 299 388 726 388 726 C388 726 511 299 511 299 C511 299 249 299 249 299 L249 299 Z " />
<glyph glyph-name="Acircumflex" unicode="&#xc2;" horiz-adv-x="716" d="M463 0 C463 0 598 0 598 0 C598 0 622 0 622 0 C622 0 711 0 711 0 C711 0 711 20 711 20 C711 20 681 20 681 20 C640 20 616 27 584 128 C584 128 405 743 405 743 C405 743 397 770 397 770 C397 770 395 770 395 770 C382 751 378 742 383 743 C383 743 386 733 386 733 C386 733 197 157 197 157 C153 29 115 20 47 20 C47 20 17 20 17 20 C17 20 17 0 17 0 C17 0 145 0 145 0 C145 0 152 0 152 0 C152 0 317 0 317 0 C317 0 317 20 317 20 C317 20 294 20 294 20 C207 20 165 29 201 152 C201 152 247 294 247 294 C247 294 513 294 513 294 C513 294 563 120 563 120 C586 27 553 20 488 20 C488 20 463 20 463 20 C463 20 463 0 463 0 L463 0 Z M394 1007 C394 1007 538 809 538 809 C538 809 541 811 541 811 C541 811 401 1024 401 1024 C399 1026 396 1031 394 1031 C392 1031 389 1026 387 1024 C387 1024 247 811 247 811 C247 811 250 809 250 809 C250 809 394 1007 394 1007 L394 1007 Z M249 299 C249 299 388 726 388 726 C388 726 511 299 511 299 C511 299 249 299 249 299 L249 299 Z " />
<glyph glyph-name="Atilde" unicode="&#xc3;" horiz-adv-x="716" d="M251 870 C251 917 267 941 299 941 C368 941 415 876 483 876 C522 876 541 901 541 951 C541 951 537 951 537 951 C537 911 521 891 488 891 C419 891 372 956 304 956 C266 956 247 927 247 870 C247 870 251 870 251 870 L251 870 Z M463 0 C463 0 598 0 598 0 C598 0 622 0 622 0 C622 0 711 0 711 0 C711 0 711 20 711 20 C711 20 681 20 681 20 C640 20 616 27 584 128 C584 128 405 743 405 743 C405 743 397 770 397 770 C397 770 395 770 395 770 C382 751 378 742 383 743 C383 743 386 733 386 733 C386 733 197 157 197 157 C153 29 115 20 47 20 C47 20 17 20 17 20 C17 20 17 0 17 0 C17 0 145 0 145 0 C145 0 152 0 152 0 C152 0 317 0 317 0 C317 0 317 20 317 20 C317 20 294 20 294 20 C207 20 165 29 201 152 C201 152 247 294 247 294 C247 294 513 294 513 294 C513 294 563 120 563 120 C586 27 553 20 488 20 C488 20 463 20 463 20 C463 20 463 0 463 0 L463 0 Z M249 299 C249 299 388 726 388 726 C388 726 511 299 511 299 C511 299 249 299 249 299 L249 299 Z " />
<glyph glyph-name="Adieresis" unicode="&#xc4;" horiz-adv-x="716" d="M458 865 C471 865 478 872 478 885 C478 898 471 905 458 905 C445 905 438 898 438 885 C438 872 445 865 458 865 L458 865 Z M331 865 C344 865 351 872 351 885 C351 898 344 905 331 905 C318 905 311 898 311 885 C311 872 318 865 331 865 L331 865 Z M463 0 C463 0 598 0 598 0 C598 0 622 0 622 0 C622 0 711 0 711 0 C711 0 711 20 711 20 C711 20 681 20 681 20 C640 20 616 27 584 128 C584 128 405 743 405 743 C405 743 397 770 397 770 C397 770 395 770 395 770 C382 751 378 742 383 743 C383 743 386 733 386 733 C386 733 197 157 197 157 C153 29 115 20 47 20 C47 20 17 20 17 20 C17 20 17 0 17 0 C17 0 145 0 145 0 C145 0 152 0 152 0 C152 0 317 0 317 0 C317 0 317 20 317 20 C317 20 294 20 294 20 C207 20 165 29 201 152 C201 152 247 294 247 294 C247 294 513 294 513 294 C513 294 563 120 563 120 C586 27 553 20 488 20 C488 20 463 20 463 20 C463 20 463 0 463 0 L463 0 Z M249 299 C249 299 388 726 388 726 C388 726 511 299 511 299 C511 299 249 299 249 299 L249 299 Z " />
<glyph glyph-name="Aring" unicode="&#xc5;" horiz-adv-x="716" d="M394 815 C340 815 304 851 304 905 C304 965 334 995 394 995 C454 995 484 965 484 905 C484 851 448 815 394 815 L394 815 Z M298 905 C298 848 337 810 394 810 C451 810 490 848 490 905 C490 968 458 1000 394 1000 C330 1000 298 968 298 905 L298 905 Z M463 0 C463 0 598 0 598 0 C598 0 622 0 622 0 C622 0 711 0 711 0 C711 0 711 20 711 20 C711 20 681 20 681 20 C640 20 616 27 584 128 C584 128 405 743 405 743 C405 743 397 770 397 770 C397 770 395 770 395 770 C382 751 378 742 383 743 C383 743 386 733 386 733 C386 733 197 157 197 157 C153 29 115 20 47 20 C47 20 17 20 17 20 C17 20 17 0 17 0 C17 0 145 0 145 0 C145 0 152 0 152 0 C152 0 317 0 317 0 C317 0 317 20 317 20 C317 20 294 20 294 20 C207 20 165 29 201 152 C201 152 247 294 247 294 C247 294 513 294 513 294 C513 294 563 120 563 120 C586 27 553 20 488 20 C488 20 463 20 463 20 C463 20 463 0 463 0 L463 0 Z M249 299 C249 299 388 726 388 726 C388 726 511 299 511 299 C511 299 249 299 249 299 L249 299 Z " />
<glyph glyph-name="Egrave" unicode="&#xc8;" horiz-adv-x="594" d="M506 620 C502 663 499 707 497 750 C497 750 377 750 377 750 C377 750 187 750 187 750 C187 750 164 750 164 750 C164 750 59 750 59 750 C59 750 59 730 59 730 C59 730 89 730 89 730 C139 730 164 725 164 665 C164 665 164 85 164 85 C164 25 139 20 89 20 C89 20 59 20 59 20 C59 20 59 0 59 0 C59 0 164 0 164 0 C164 0 187 0 187 0 C187 0 402 0 402 0 C402 0 522 0 522 0 C528 43 534 86 540 130 C540 130 520 130 520 130 C520 130 516 100 516 100 C507 37 496 5 402 5 C402 5 267 5 267 5 C187 5 187 30 187 80 C187 80 187 85 187 85 C187 85 187 385 187 385 C187 385 317 385 317 385 C410 385 417 348 417 275 C417 275 417 245 417 245 C417 245 437 245 437 245 C437 245 437 385 437 385 C437 385 437 390 437 390 C437 390 437 530 437 530 C437 530 417 530 417 530 C417 530 417 500 417 500 C417 427 410 390 317 390 C317 390 187 390 187 390 C187 390 187 665 187 665 C187 665 187 745 187 745 C187 745 377 745 377 745 C489 745 480 709 485 638 C485 638 486 620 486 620 C486 620 506 620 506 620 L506 620 Z M207 949 C161 997 136 1022 133 1022 C127 1022 123 1018 123 1012 C123 1009 148 985 198 940 C198 940 335 814 335 814 C335 814 337 817 337 817 C337 817 207 949 207 949 L207 949 Z " />
<glyph glyph-name="Eacute" unicode="&#xc9;" horiz-adv-x="594" d="M336 814 C336 814 473 940 473 940 C523 987 549 1011 549 1012 C549 1018 545 1022 539 1022 C537 1022 512 997 464 949 C464 949 334 817 334 817 C334 817 336 814 336 814 L336 814 Z M506 620 C502 663 499 707 497 750 C497 750 377 750 377 750 C377 750 187 750 187 750 C187 750 164 750 164 750 C164 750 59 750 59 750 C59 750 59 730 59 730 C59 730 89 730 89 730 C139 730 164 725 164 665 C164 665 164 85 164 85 C164 25 139 20 89 20 C89 20 59 20 59 20 C59 20 59 0 59 0 C59 0 164 0 164 0 C164 0 187 0 187 0 C187 0 402 0 402 0 C402 0 522 0 522 0 C528 43 534 86 540 130 C540 130 520 130 520 130 C520 130 516 100 516 100 C507 37 496 5 402 5 C402 5 267 5 267 5 C187 5 187 30 187 80 C187 80 187 85 187 85 C187 85 187 385 187 385 C187 385 317 385 317 385 C410 385 417 348 417 275 C417 275 417 245 417 245 C417 245 437 245 437 245 C437 245 437 385 437 385 C437 385 437 390 437 390 C437 390 437 530 437 530 C437 530 417 530 417 530 C417 530 417 500 417 500 C417 427 410 390 317 390 C317 390 187 390 187 390 C187 390 187 665 187 665 C187 665 187 745 187 745 C187 745 377 745 377 745 C489 745 480 709 485 638 C485 638 486 620 486 620 C486 620 506 620 506 620 L506 620 Z " />
<glyph glyph-name="Ecircumflex" unicode="&#xca;" horiz-adv-x="594" d="M506 620 C502 663 499 707 497 750 C497 750 377 750 377 750 C377 750 187 750 187 750 C187 750 164 750 164 750 C164 750 59 750 59 750 C59 750 59 730 59 730 C59 730 89 730 89 730 C139 730 164 725 164 665 C164 665 164 85 164 85 C164 25 139 20 89 20 C89 20 59 20 59 20 C59 20 59 0 59 0 C59 0 164 0 164 0 C164 0 187 0 187 0 C187 0 402 0 402 0 C402 0 522 0 522 0 C528 43 534 86 540 130 C540 130 520 130 520 130 C520 130 516 100 516 100 C507 37 496 5 402 5 C402 5 267 5 267 5 C187 5 187 30 187 80 C187 80 187 85 187 85 C187 85 187 385 187 385 C187 385 317 385 317 385 C410 385 417 348 417 275 C417 275 417 245 417 245 C417 245 437 245 437 245 C437 245 437 385 437 385 C437 385 437 390 437 390 C437 390 437 530 437 530 C437 530 417 530 417 530 C417 530 417 500 417 500 C417 427 410 390 317 390 C317 390 187 390 187 390 C187 390 187 665 187 665 C187 665 187 745 187 745 C187 745 377 745 377 745 C489 745 480 709 485 638 C485 638 486 620 486 620 C486 620 506 620 506 620 L506 620 Z M331 1007 C331 1007 475 809 475 809 C475 809 477 811 477 811 C477 811 338 1024 338 1024 C336 1026 333 1031 331 1031 C328 1031 325 1026 324 1024 C324 1024 184 811 184 811 C184 811 187 809 187 809 C187 809 331 1007 331 1007 L331 1007 Z " />
<glyph glyph-name="Edieresis" unicode="&#xcb;" horiz-adv-x="594" d="M394 865 C407 865 414 872 414 885 C414 898 407 905 394 905 C381 905 374 898 374 885 C374 872 381 865 394 865 L394 865 Z M267 865 C280 865 287 872 287 885 C287 898 280 905 267 905 C254 905 247 898 247 885 C247 872 254 865 267 865 L267 865 Z M506 620 C502 663 499 707 497 750 C497 750 377 750 377 750 C377 750 187 750 187 750 C187 750 164 750 164 750 C164 750 59 750 59 750 C59 750 59 730 59 730 C59 730 89 730 89 730 C139 730 164 725 164 665 C164 665 164 85 164 85 C164 25 139 20 89 20 C89 20 59 20 59 20 C59 20 59 0 59 0 C59 0 164 0 164 0 C164 0 187 0 187 0 C187 0 402 0 402 0 C402 0 522 0 522 0 C528 43 534 86 540 130 C540 130 520 130 520 130 C520 130 516 100 516 100 C507 37 496 5 402 5 C402 5 267 5 267 5 C187 5 187 30 187 80 C187 80 187 85 187 85 C187 85 187 385 187 385 C187 385 317 385 317 385 C410 385 417 348 417 275 C417 275 417 245 417 245 C417 245 437 245 437 245 C437 245 437 385 437 385 C437 385 437 390 437 390 C437 390 437 530 437 530 C437 530 417 530 417 530 C417 530 417 500 417 500 C417 427 410 390 317 390 C317 390 187 390 187 390 C187 390 187 665 187 665 C187 665 187 745 187 745 C187 745 377 745 377 745 C489 745 480 709 485 638 C485 638 486 620 486 620 C486 620 506 620 506 620 L506 620 Z " />
<glyph glyph-name="Igrave" unicode="&#xcc;" horiz-adv-x="346" d="M306 750 C306 750 74 750 74 750 C74 750 74 730 74 730 C74 730 104 730 104 730 C154 730 179 726 179 670 C179 670 179 80 179 80 C179 24 154 20 104 20 C104 20 74 20 74 20 C74 20 74 0 74 0 C74 0 306 0 306 0 C306 0 306 20 306 20 C306 20 276 20 276 20 C226 20 201 24 201 80 C201 80 201 670 201 670 C201 726 226 730 276 730 C276 730 306 730 306 730 C306 730 306 750 306 750 L306 750 Z M67 949 C20 997 -5 1022 -8 1022 C-14 1022 -18 1018 -18 1012 C-18 1009 7 985 58 940 C58 940 194 814 194 814 C194 814 197 817 197 817 C197 817 67 949 67 949 L67 949 Z " />
<glyph glyph-name="Iacute" unicode="&#xcd;" horiz-adv-x="346" d="M196 814 C196 814 332 940 332 940 C383 987 408 1011 408 1012 C408 1018 404 1022 398 1022 C397 1022 372 997 323 949 C323 949 193 817 193 817 C193 817 196 814 196 814 L196 814 Z M306 750 C306 750 74 750 74 750 C74 750 74 730 74 730 C74 730 104 730 104 730 C154 730 179 726 179 670 C179 670 179 80 179 80 C179 24 154 20 104 20 C104 20 74 20 74 20 C74 20 74 0 74 0 C74 0 306 0 306 0 C306 0 306 20 306 20 C306 20 276 20 276 20 C226 20 201 24 201 80 C201 80 201 670 201 670 C201 726 226 730 276 730 C276 730 306 730 306 730 C306 730 306 750 306 750 L306 750 Z " />
<glyph glyph-name="Icircumflex" unicode="&#xce;" horiz-adv-x="346" d="M306 750 C306 750 74 750 74 750 C74 750 74 730 74 730 C74 730 104 730 104 730 C154 730 179 726 179 670 C179 670 179 80 179 80 C179 24 154 20 104 20 C104 20 74 20 74 20 C74 20 74 0 74 0 C74 0 306 0 306 0 C306 0 306 20 306 20 C306 20 276 20 276 20 C226 20 201 24 201 80 C201 80 201 670 201 670 C201 726 226 730 276 730 C276 730 306 730 306 730 C306 730 306 750 306 750 L306 750 Z M190 1007 C190 1007 334 809 334 809 C334 809 337 811 337 811 C337 811 197 1024 197 1024 C195 1026 192 1031 190 1031 C188 1031 185 1026 183 1024 C183 1024 43 811 43 811 C43 811 46 809 46 809 C46 809 190 1007 190 1007 L190 1007 Z " />
<glyph glyph-name="Idieresis" unicode="&#xcf;" horiz-adv-x="346" d="M254 865 C267 865 274 872 274 885 C274 898 267 905 254 905 C241 905 234 898 234 885 C234 872 241 865 254 865 L254 865 Z M126 865 C139 865 146 872 146 885 C146 898 139 905 126 905 C113 905 106 898 106 885 C106 872 113 865 126 865 L126 865 Z M306 750 C306 750 74 750 74 750 C74 750 74 730 74 730 C74 730 104 730 104 730 C154 730 179 726 179 670 C179 670 179 80 179 80 C179 24 154 20 104 20 C104 20 74 20 74 20 C74 20 74 0 74 0 C74 0 306 0 306 0 C306 0 306 20 306 20 C306 20 276 20 276 20 C226 20 201 24 201 80 C201 80 201 670 201 670 C201 726 226 730 276 730 C276 730 306 730 306 730 C306 730 306 750 306 750 L306 750 Z " />
<glyph glyph-name="Ntilde" unicode="&#xd1;" horiz-adv-x="750" d="M231 870 C231 917 247 941 279 941 C348 941 395 876 464 876 C502 876 521 901 521 951 C521 951 517 951 517 951 C517 911 501 891 468 891 C399 891 352 956 284 956 C247 956 228 927 228 870 C228 870 231 870 231 870 L231 870 Z M74 730 C74 730 111 730 111 730 C124 730 133 729 144 718 C144 718 143 150 143 150 C143 150 143 150 143 150 C143 29 111 20 48 20 C48 20 18 20 18 20 C18 20 18 0 18 0 C18 0 143 0 143 0 C143 0 150 0 150 0 C150 0 275 0 275 0 C275 0 275 20 275 20 C275 20 245 20 245 20 C182 20 150 28 150 140 C150 140 150 140 150 140 C150 140 149 712 149 712 C153 708 157 702 161 695 C161 695 161 696 161 696 C161 696 579 32 579 32 C579 32 599 0 599 0 C599 0 603 0 603 0 C603 0 605 630 605 630 C605 630 605 630 605 630 C605 723 637 730 700 730 C700 730 730 730 730 730 C730 730 730 750 730 750 C730 750 605 750 605 750 C605 750 598 750 598 750 C598 750 473 750 473 750 C473 750 473 730 473 730 C473 730 503 730 503 730 C566 730 598 723 598 630 C598 630 598 630 598 630 C598 630 599 42 599 42 C599 42 598 44 598 44 C598 44 154 750 154 750 C154 750 149 750 149 750 C149 750 144 750 144 750 C144 750 127 750 127 750 C127 750 74 750 74 750 C74 750 74 730 74 730 L74 730 Z " />
<glyph glyph-name="Ograve" unicode="&#xd2;" horiz-adv-x="767" d="M378 -4 C191 -4 96 123 96 375 C96 627 193 754 386 754 C586 754 687 627 687 375 C687 123 583 -4 378 -4 L378 -4 Z M71 375 C71 119 174 -10 377 -10 C600 -10 713 119 713 375 C713 631 603 760 387 760 C177 760 71 631 71 375 L71 375 Z M263 949 C217 997 192 1022 189 1022 C183 1022 179 1018 179 1012 C179 1009 204 985 254 940 C254 940 391 814 391 814 C391 814 393 817 393 817 C393 817 263 949 263 949 L263 949 Z " />
<glyph glyph-name="Oacute" unicode="&#xd3;" horiz-adv-x="767" d="M392 814 C392 814 529 940 529 940 C579 987 605 1011 605 1012 C605 1018 601 1022 595 1022 C593 1022 568 997 520 949 C520 949 390 817 390 817 C390 817 392 814 392 814 L392 814 Z M378 -4 C191 -4 96 123 96 375 C96 627 193 754 386 754 C586 754 687 627 687 375 C687 123 583 -4 378 -4 L378 -4 Z M71 375 C71 119 174 -10 377 -10 C600 -10 713 119 713 375 C713 631 603 760 387 760 C177 760 71 631 71 375 L71 375 Z " />
<glyph glyph-name="Ocircumflex" unicode="&#xd4;" horiz-adv-x="767" d="M378 -4 C191 -4 96 123 96 375 C96 627 193 754 386 754 C586 754 687 627 687 375 C687 123 583 -4 378 -4 L378 -4 Z M71 375 C71 119 174 -10 377 -10 C600 -10 713 119 713 375 C713 631 603 760 387 760 C177 760 71 631 71 375 L71 375 Z M387 1007 C387 1007 531 809 531 809 C531 809 533 811 533 811 C533 811 394 1024 394 1024 C392 1026 389 1031 387 1031 C384 1031 381 1026 380 1024 C380 1024 240 811 240 811 C240 811 243 809 243 809 C243 809 387 1007 387 1007 L387 1007 Z " />
<glyph glyph-name="Otilde" unicode="&#xd5;" horiz-adv-x="767" d="M243 870 C243 917 259 941 291 941 C360 941 407 876 476 876 C514 876 533 901 533 951 C533 951 530 951 530 951 C530 911 513 891 481 891 C412 891 365 956 296 956 C259 956 240 927 240 870 C240 870 243 870 243 870 L243 870 Z M378 -4 C191 -4 96 123 96 375 C96 627 193 754 386 754 C586 754 687 627 687 375 C687 123 583 -4 378 -4 L378 -4 Z M71 375 C71 119 174 -10 377 -10 C600 -10 713 119 713 375 C713 631 603 760 387 760 C177 760 71 631 71 375 L71 375 Z " />
<glyph glyph-name="Odieresis" unicode="&#xd6;" horiz-adv-x="767" d="M450 865 C463 865 470 872 470 885 C470 898 463 905 450 905 C437 905 430 898 430 885 C430 872 437 865 450 865 L450 865 Z M323 865 C336 865 343 872 343 885 C343 898 336 905 323 905 C310 905 303 898 303 885 C303 872 310 865 323 865 L323 865 Z M378 -4 C191 -4 96 123 96 375 C96 627 193 754 386 754 C586 754 687 627 687 375 C687 123 583 -4 378 -4 L378 -4 Z M71 375 C71 119 174 -10 377 -10 C600 -10 713 119 713 375 C713 631 603 760 387 760 C177 760 71 631 71 375 L71 375 Z " />
<glyph glyph-name="Oslash" unicode="&#xd8;" horiz-adv-x="767" d="M74 -13 C74 -13 152 81 152 81 C203 20 278 -10 377 -10 C600 -10 713 119 713 375 C713 500 687 595 635 659 C635 659 716 757 716 757 C716 757 709 763 709 763 C709 763 628 666 628 666 C574 729 493 760 387 760 C177 760 71 631 71 375 C71 248 96 153 146 88 C146 88 67 -7 67 -7 C67 -7 74 -13 74 -13 L74 -13 Z M378 -4 C283 -4 211 29 164 95 C164 95 622 645 622 645 C665 582 687 492 687 375 C687 123 583 -4 378 -4 C378 -4 378 -4 378 -4 L378 -4 Z M159 103 C117 166 96 257 96 375 C96 627 193 754 386 754 C489 754 566 720 617 652 C617 652 159 103 159 103 L159 103 Z " />
<glyph glyph-name="Ugrave" unicode="&#xd9;" horiz-adv-x="643" d="M401 730 C401 730 431 730 431 730 C481 730 506 725 506 665 C506 665 506 164 506 164 C457 58 371 4 249 4 C185 4 152 77 152 220 C152 220 152 665 152 665 C152 665 152 750 152 750 C152 750 24 750 24 750 C24 750 24 730 24 730 C24 730 54 730 54 730 C104 730 129 725 129 665 C129 665 129 220 129 220 C129 67 166 -10 240 -10 C366 -10 456 45 506 153 C506 153 506 110 506 110 C506 110 506 0 506 0 C506 0 510 0 510 0 C510 0 633 55 633 55 C633 55 633 65 633 65 C536 60 529 62 529 110 C529 110 529 665 529 665 C529 665 529 750 529 750 C529 750 401 750 401 750 C401 750 401 730 401 730 L401 730 Z M206 949 C159 997 134 1022 131 1022 C125 1022 121 1018 121 1012 C121 1009 146 985 197 940 C197 940 333 814 333 814 C333 814 336 817 336 817 C336 817 206 949 206 949 L206 949 Z " />
<glyph glyph-name="Uacute" unicode="&#xda;" horiz-adv-x="643" d="M335 814 C335 814 471 940 471 940 C522 987 547 1011 547 1012 C547 1018 543 1022 537 1022 C536 1022 511 997 462 949 C462 949 332 817 332 817 C332 817 335 814 335 814 L335 814 Z M401 730 C401 730 431 730 431 730 C481 730 506 725 506 665 C506 665 506 164 506 164 C457 58 371 4 249 4 C185 4 152 77 152 220 C152 220 152 665 152 665 C152 665 152 750 152 750 C152 750 24 750 24 750 C24 750 24 730 24 730 C24 730 54 730 54 730 C104 730 129 725 129 665 C129 665 129 220 129 220 C129 67 166 -10 240 -10 C366 -10 456 45 506 153 C506 153 506 110 506 110 C506 110 506 0 506 0 C506 0 510 0 510 0 C510 0 633 55 633 55 C633 55 633 65 633 65 C536 60 529 62 529 110 C529 110 529 665 529 665 C529 665 529 750 529 750 C529 750 401 750 401 750 C401 750 401 730 401 730 L401 730 Z " />
<glyph glyph-name="Ucircumflex" unicode="&#xdb;" horiz-adv-x="643" d="M401 730 C401 730 431 730 431 730 C481 730 506 725 506 665 C506 665 506 164 506 164 C457 58 371 4 249 4 C185 4 152 77 152 220 C152 220 152 665 152 665 C152 665 152 750 152 750 C152 750 24 750 24 750 C24 750 24 730 24 730 C24 730 54 730 54 730 C104 730 129 725 129 665 C129 665 129 220 129 220 C129 67 166 -10 240 -10 C366 -10 456 45 506 153 C506 153 506 110 506 110 C506 110 506 0 506 0 C506 0 510 0 510 0 C510 0 633 55 633 55 C633 55 633 65 633 65 C536 60 529 62 529 110 C529 110 529 665 529 665 C529 665 529 750 529 750 C529 750 401 750 401 750 C401 750 401 730 401 730 L401 730 Z M329 1007 C329 1007 473 809 473 809 C473 809 476 811 476 811 C476 811 336 1024 336 1024 C334 1026 331 1031 329 1031 C327 1031 324 1026 322 1024 C322 1024 182 811 182 811 C182 811 185 809 185 809 C185 809 329 1007 329 1007 L329 1007 Z " />
<glyph glyph-name="Udieresis" unicode="&#xdc;" horiz-adv-x="643" d="M393 865 C406 865 413 872 413 885 C413 898 406 905 393 905 C380 905 373 898 373 885 C373 872 380 865 393 865 L393 865 Z M265 865 C278 865 285 872 285 885 C285 898 278 905 265 905 C252 905 245 898 245 885 C245 872 252 865 265 865 L265 865 Z M401 730 C401 730 431 730 431 730 C481 730 506 725 506 665 C506 665 506 164 506 164 C457 58 371 4 249 4 C185 4 152 77 152 220 C152 220 152 665 152 665 C152 665 152 750 152 750 C152 750 24 750 24 750 C24 750 24 730 24 730 C24 730 54 730 54 730 C104 730 129 725 129 665 C129 665 129 220 129 220 C129 67 166 -10 240 -10 C366 -10 456 45 506 153 C506 153 506 110 506 110 C506 110 506 0 506 0 C506 0 510 0 510 0 C510 0 633 55 633 55 C633 55 633 65 633 65 C536 60 529 62 529 110 C529 110 529 665 529 665 C529 665 529 750 529 750 C529 750 401 750 401 750 C401 750 401 730 401 730 L401 730 Z " />
<glyph glyph-name="Yacute" unicode="&#xdd;" horiz-adv-x="665" d="M342 814 C342 814 479 940 479 940 C529 987 554 1011 554 1012 C554 1018 550 1022 544 1022 C543 1022 518 997 469 949 C469 949 339 817 339 817 C339 817 342 814 342 814 L342 814 Z M220 750 C220 750 115 750 115 750 C115 750 88 750 88 750 C88 750 35 750 35 750 C35 750 35 730 35 730 C35 730 72 730 72 730 C91 730 105 722 168 610 C168 610 168 610 168 610 C168 610 325 336 325 336 C325 336 325 80 325 80 C325 24 300 20 250 20 C250 20 220 20 220 20 C220 20 220 0 220 0 C220 0 452 0 452 0 C452 0 452 20 452 20 C452 20 422 20 422 20 C372 20 347 24 347 80 C347 80 347 336 347 336 C347 336 498 610 498 610 C498 610 498 610 498 610 C559 722 582 730 618 730 C618 730 649 730 649 730 C649 730 649 750 649 750 C649 750 575 750 575 750 C575 750 564 750 564 750 C564 750 459 750 459 750 C459 750 459 730 459 730 C459 730 484 730 484 730 C527 730 547 723 507 645 C507 645 345 344 345 344 C345 344 185 626 185 626 C133 723 151 730 195 730 C195 730 220 730 220 730 C220 730 220 750 220 750 L220 750 Z " />
<glyph glyph-name="agrave" unicode="&#xe0;" horiz-adv-x="511" d="M522 56 C522 56 514 60 514 60 C508 26 490 9 459 9 C420 9 400 27 400 64 C400 64 400 361 400 361 C400 475 355 510 266 510 C143 510 81 420 81 360 C81 351 84 346 91 346 C108 346 116 351 116 356 C116 369 96 365 96 373 C96 425 151 504 259 504 C339 504 380 472 380 368 C380 368 380 268 380 268 C94 181 61 171 61 74 C61 18 100 -10 177 -10 C264 -10 322 10 380 91 C380 91 380 64 380 64 C380 18 404 -5 451 -5 C491 -5 515 16 522 56 L522 56 Z M143 699 C96 747 71 772 68 772 C62 772 58 768 58 762 C58 759 83 735 134 690 C134 690 270 564 270 564 C270 564 273 567 273 567 C273 567 143 699 143 699 L143 699 Z M380 264 C380 264 380 97 380 97 C326 21 270 1 188 1 C117 1 81 26 81 76 C81 173 112 182 380 264 C380 264 380 264 380 264 L380 264 Z " />
<glyph glyph-name="aacute" unicode="&#xe1;" horiz-adv-x="511" d="M272 564 C272 564 408 690 408 690 C459 737 484 761 484 762 C484 768 480 772 474 772 C473 772 448 747 399 699 C399 699 269 567 269 567 C269 567 272 564 272 564 L272 564 Z M522 56 C522 56 514 60 514 60 C508 26 490 9 459 9 C420 9 400 27 400 64 C400 64 400 361 400 361 C400 475 355 510 266 510 C143 510 81 420 81 360 C81 351 84 346 91 346 C108 346 116 351 116 356 C116 369 96 365 96 373 C96 425 151 504 259 504 C339 504 380 472 380 368 C380 368 380 268 380 268 C94 181 61 171 61 74 C61 18 100 -10 177 -10 C264 -10 322 10 380 91 C380 91 380 64 380 64 C380 18 404 -5 451 -5 C491 -5 515 16 522 56 L522 56 Z M380 264 C380 264 380 97 380 97 C326 21 270 1 188 1 C117 1 81 26 81 76 C81 173 112 182 380 264 C380 264 380 264 380 264 L380 264 Z " />
<glyph glyph-name="acircumflex" unicode="&#xe2;" horiz-adv-x="511" d="M522 56 C522 56 514 60 514 60 C508 26 490 9 459 9 C420 9 400 27 400 64 C400 64 400 361 400 361 C400 475 355 510 266 510 C143 510 81 420 81 360 C81 351 84 346 91 346 C108 346 116 351 116 356 C116 369 96 365 96 373 C96 425 151 504 259 504 C339 504 380 472 380 368 C380 368 380 268 380 268 C94 181 61 171 61 74 C61 18 100 -10 177 -10 C264 -10 322 10 380 91 C380 91 380 64 380 64 C380 18 404 -5 451 -5 C491 -5 515 16 522 56 L522 56 Z M266 757 C266 757 410 559 410 559 C410 559 413 561 413 561 C413 561 273 774 273 774 C271 776 268 781 266 781 C264 781 261 776 259 774 C259 774 119 561 119 561 C119 561 122 559 122 559 C122 559 266 757 266 757 L266 757 Z M380 264 C380 264 380 97 380 97 C326 21 270 1 188 1 C117 1 81 26 81 76 C81 173 112 182 380 264 C380 264 380 264 380 264 L380 264 Z " />
<glyph glyph-name="atilde" unicode="&#xe3;" horiz-adv-x="511" d="M123 620 C123 667 139 691 171 691 C240 691 287 626 355 626 C394 626 413 651 413 701 C413 701 409 701 409 701 C409 661 393 641 360 641 C291 641 244 706 175 706 C138 706 119 677 119 620 C119 620 123 620 123 620 L123 620 Z M522 56 C522 56 514 60 514 60 C508 26 490 9 459 9 C420 9 400 27 400 64 C400 64 400 361 400 361 C400 475 355 510 266 510 C143 510 81 420 81 360 C81 351 84 346 91 346 C108 346 116 351 116 356 C116 369 96 365 96 373 C96 425 151 504 259 504 C339 504 380 472 380 368 C380 368 380 268 380 268 C94 181 61 171 61 74 C61 18 100 -10 177 -10 C264 -10 322 10 380 91 C380 91 380 64 380 64 C380 18 404 -5 451 -5 C491 -5 515 16 522 56 L522 56 Z M380 264 C380 264 380 97 380 97 C326 21 270 1 188 1 C117 1 81 26 81 76 C81 173 112 182 380 264 C380 264 380 264 380 264 L380 264 Z " />
<glyph glyph-name="adieresis" unicode="&#xe4;" horiz-adv-x="511" d="M330 615 C343 615 350 622 350 635 C350 648 343 655 330 655 C317 655 310 648 310 635 C310 622 317 615 330 615 L330 615 Z M202 615 C215 615 222 622 222 635 C222 648 215 655 202 655 C189 655 182 648 182 635 C182 622 189 615 202 615 L202 615 Z M522 56 C522 56 514 60 514 60 C508 26 490 9 459 9 C420 9 400 27 400 64 C400 64 400 361 400 361 C400 475 355 510 266 510 C143 510 81 420 81 360 C81 351 84 346 91 346 C108 346 116 351 116 356 C116 369 96 365 96 373 C96 425 151 504 259 504 C339 504 380 472 380 368 C380 368 380 268 380 268 C94 181 61 171 61 74 C61 18 100 -10 177 -10 C264 -10 322 10 380 91 C380 91 380 64 380 64 C380 18 404 -5 451 -5 C491 -5 515 16 522 56 L522 56 Z M380 264 C380 264 380 97 380 97 C326 21 270 1 188 1 C117 1 81 26 81 76 C81 173 112 182 380 264 C380 264 380 264 380 264 L380 264 Z " />
<glyph glyph-name="aring" unicode="&#xe5;" horiz-adv-x="511" d="M266 565 C212 565 176 601 176 655 C176 715 206 745 266 745 C326 745 356 715 356 655 C356 601 320 565 266 565 L266 565 Z M170 655 C170 598 209 560 266 560 C323 560 362 598 362 655 C362 718 330 750 266 750 C202 750 170 718 170 655 L170 655 Z M522 56 C522 56 514 60 514 60 C508 26 490 9 459 9 C420 9 400 27 400 64 C400 64 400 361 400 361 C400 475 355 510 266 510 C143 510 81 420 81 360 C81 351 84 346 91 346 C108 346 116 351 116 356 C116 369 96 365 96 373 C96 425 151 504 259 504 C339 504 380 472 380 368 C380 368 380 268 380 268 C94 181 61 171 61 74 C61 18 100 -10 177 -10 C264 -10 322 10 380 91 C380 91 380 64 380 64 C380 18 404 -5 451 -5 C491 -5 515 16 522 56 L522 56 Z M380 264 C380 264 380 97 380 97 C326 21 270 1 188 1 C117 1 81 26 81 76 C81 173 112 182 380 264 C380 264 380 264 380 264 L380 264 Z " />
<glyph glyph-name="egrave" unicode="&#xe8;" horiz-adv-x="534" d="M180 699 C134 747 109 772 105 772 C100 772 96 768 96 762 C96 759 121 735 171 690 C171 690 308 564 308 564 C308 564 310 567 310 567 C310 567 180 699 180 699 L180 699 Z M88 340 C88 340 482 340 482 340 C482 340 504 340 504 340 C480 476 417 510 304 510 C140 510 58 419 58 238 C58 73 133 -10 281 -10 C387 -10 459 38 494 134 C494 134 491 135 491 135 C459 47 390 3 286 3 C148 3 79 85 79 246 C79 281 82 312 88 340 L88 340 Z M499 346 C499 346 499 346 499 346 C499 346 499 346 499 346 C499 346 499 346 499 346 L499 346 Z M481 346 C481 346 89 345 89 345 C115 451 186 505 302 505 C400 505 457 473 481 346 C481 346 481 346 481 346 L481 346 Z " />
<glyph glyph-name="eacute" unicode="&#xe9;" horiz-adv-x="534" d="M309 564 C309 564 446 690 446 690 C496 737 522 761 522 762 C522 768 518 772 512 772 C510 772 485 747 437 699 C437 699 307 567 307 567 C307 567 309 564 309 564 L309 564 Z M88 340 C88 340 482 340 482 340 C482 340 504 340 504 340 C480 476 417 510 304 510 C140 510 58 419 58 238 C58 73 133 -10 281 -10 C387 -10 459 38 494 134 C494 134 491 135 491 135 C459 47 390 3 286 3 C148 3 79 85 79 246 C79 281 82 312 88 340 L88 340 Z M499 346 C499 346 499 346 499 346 C499 346 499 346 499 346 C499 346 499 346 499 346 L499 346 Z M481 346 C481 346 89 345 89 345 C115 451 186 505 302 505 C400 505 457 473 481 346 C481 346 481 346 481 346 L481 346 Z " />
<glyph glyph-name="ecircumflex" unicode="&#xea;" horiz-adv-x="534" d="M304 757 C304 757 447 559 447 559 C447 559 450 561 450 561 C450 561 311 774 311 774 C309 776 306 781 304 781 C300 781 298 778 297 774 C297 774 297 774 297 774 C297 774 157 561 157 561 C157 561 160 559 160 559 C160 559 304 757 304 757 L304 757 Z M88 340 C88 340 482 340 482 340 C482 340 504 340 504 340 C480 476 417 510 304 510 C140 510 58 419 58 238 C58 73 133 -10 281 -10 C387 -10 459 38 494 134 C494 134 491 135 491 135 C459 47 390 3 286 3 C148 3 79 85 79 246 C79 281 82 312 88 340 L88 340 Z M499 346 C499 346 499 346 499 346 C499 346 499 346 499 346 C499 346 499 346 499 346 L499 346 Z M481 346 C481 346 89 345 89 345 C115 451 186 505 302 505 C400 505 457 473 481 346 C481 346 481 346 481 346 L481 346 Z " />
<glyph glyph-name="edieresis" unicode="&#xeb;" horiz-adv-x="534" d="M367 615 C380 615 387 622 387 635 C387 648 380 655 367 655 C354 655 347 648 347 635 C347 622 354 615 367 615 L367 615 Z M240 615 C253 615 260 622 260 635 C260 648 253 655 240 655 C227 655 220 648 220 635 C220 622 227 615 240 615 L240 615 Z M88 340 C88 340 482 340 482 340 C482 340 504 340 504 340 C480 476 417 510 304 510 C140 510 58 419 58 238 C58 73 133 -10 281 -10 C387 -10 459 38 494 134 C494 134 491 135 491 135 C459 47 390 3 286 3 C148 3 79 85 79 246 C79 281 82 312 88 340 L88 340 Z M499 346 C499 346 499 346 499 346 C499 346 499 346 499 346 C499 346 499 346 499 346 L499 346 Z M481 346 C481 346 89 345 89 345 C115 451 186 505 302 505 C400 505 457 473 481 346 C481 346 481 346 481 346 L481 346 Z " />
<glyph glyph-name="igrave" unicode="&#xec;" horiz-adv-x="261" d="M51 0 C51 0 234 0 234 0 C234 0 234 20 234 20 C234 20 204 20 204 20 C169 20 151 21 151 35 C151 35 151 390 151 390 C151 390 151 500 151 500 C151 500 147 500 147 500 C147 500 50 445 50 445 C50 445 50 435 50 435 C125 439 131 437 131 390 C131 390 131 35 131 35 C131 21 114 20 81 20 C81 20 51 20 51 20 C51 20 51 0 51 0 L51 0 Z M18 699 C-29 747 -54 772 -57 772 C-63 772 -67 768 -67 762 C-67 759 -42 735 9 690 C9 690 145 564 145 564 C145 564 148 567 148 567 C148 567 18 699 18 699 L18 699 Z " />
<glyph glyph-name="iacute" unicode="&#xed;" horiz-adv-x="261" d="M51 0 C51 0 234 0 234 0 C234 0 234 20 234 20 C234 20 204 20 204 20 C169 20 151 21 151 35 C151 35 151 390 151 390 C151 390 151 500 151 500 C151 500 147 500 147 500 C147 500 50 445 50 445 C50 445 50 435 50 435 C125 439 131 437 131 390 C131 390 131 35 131 35 C131 21 114 20 81 20 C81 20 51 20 51 20 C51 20 51 0 51 0 L51 0 Z M18 699 C-29 747 -54 772 -57 772 C-63 772 -67 768 -67 762 C-67 759 -42 735 9 690 C9 690 145 564 145 564 C145 564 148 567 148 567 C148 567 18 699 18 699 L18 699 Z " />
<glyph glyph-name="icircumflex" unicode="&#xee;" horiz-adv-x="261" d="M51 0 C51 0 234 0 234 0 C234 0 234 20 234 20 C234 20 204 20 204 20 C169 20 151 21 151 35 C151 35 151 390 151 390 C151 390 151 500 151 500 C151 500 147 500 147 500 C147 500 50 445 50 445 C50 445 50 435 50 435 C125 439 131 437 131 390 C131 390 131 35 131 35 C131 21 114 20 81 20 C81 20 51 20 51 20 C51 20 51 0 51 0 L51 0 Z M141 757 C141 757 285 559 285 559 C285 559 288 561 288 561 C288 561 148 774 148 774 C146 776 143 781 141 781 C139 781 136 776 134 774 C134 774 -6 561 -6 561 C-6 561 -3 559 -3 559 C-3 559 141 757 141 757 L141 757 Z " />
<glyph glyph-name="idieresis" unicode="&#xef;" horiz-adv-x="261" d="M205 615 C218 615 225 622 225 635 C225 648 218 655 205 655 C192 655 185 648 185 635 C185 622 192 615 205 615 L205 615 Z M77 615 C90 615 97 622 97 635 C97 648 90 655 77 655 C64 655 57 648 57 635 C57 622 64 615 77 615 L77 615 Z M51 0 C51 0 234 0 234 0 C234 0 234 20 234 20 C234 20 204 20 204 20 C169 20 151 21 151 35 C151 35 151 390 151 390 C151 390 151 500 151 500 C151 500 147 500 147 500 C147 500 50 445 50 445 C50 445 50 435 50 435 C125 439 131 437 131 390 C131 390 131 35 131 35 C131 21 114 20 81 20 C81 20 51 20 51 20 C51 20 51 0 51 0 L51 0 Z " />
<glyph glyph-name="ntilde" unicode="&#xf1;" horiz-adv-x="544" d="M136 620 C136 667 152 691 184 691 C253 691 300 626 369 626 C407 626 426 651 426 701 C426 701 423 701 423 701 C423 661 406 641 374 641 C305 641 258 706 189 706 C152 706 133 677 133 620 C133 620 136 620 136 620 L136 620 Z M40 443 C40 443 70 454 70 454 C107 467 125 468 125 394 C125 394 125 35 125 35 C125 21 108 20 75 20 C75 20 45 20 45 20 C45 20 45 0 45 0 C45 0 225 0 225 0 C225 0 225 20 225 20 C225 20 195 20 195 20 C162 20 145 21 145 35 C145 35 145 363 145 363 C196 451 246 495 292 495 C381 495 414 461 414 395 C414 395 414 35 414 35 C414 21 397 20 364 20 C364 20 334 20 334 20 C334 20 334 0 334 0 C334 0 514 0 514 0 C514 0 514 20 514 20 C514 20 484 20 484 20 C451 20 434 21 434 35 C434 35 434 395 434 395 C434 471 399 510 304 510 C253 510 199 463 145 369 C145 369 145 400 145 400 C145 400 145 500 145 500 C145 500 141 500 141 500 C141 500 40 463 40 463 C40 463 40 443 40 443 L40 443 Z " />
<glyph glyph-name="ograve" unicode="&#xf2;" horiz-adv-x="609" d="M311 -4 C158 -4 81 81 81 250 C81 419 158 504 311 504 C465 504 542 419 542 250 C542 81 465 -4 311 -4 L311 -4 Z M58 250 C58 77 143 -10 311 -10 C479 -10 564 77 564 250 C564 423 479 510 311 510 C143 510 58 423 58 250 L58 250 Z M188 699 C141 747 116 772 113 772 C107 772 103 768 103 762 C103 759 128 735 179 690 C179 690 316 564 316 564 C316 564 318 567 318 567 C318 567 188 699 188 699 L188 699 Z " />
<glyph glyph-name="oacute" unicode="&#xf3;" horiz-adv-x="609" d="M317 564 C317 564 454 690 454 690 C504 737 529 761 529 762 C529 768 525 772 519 772 C518 772 493 747 444 699 C444 699 314 567 314 567 C314 567 317 564 317 564 L317 564 Z M311 -4 C158 -4 81 81 81 250 C81 419 158 504 311 504 C465 504 542 419 542 250 C542 81 465 -4 311 -4 L311 -4 Z M58 250 C58 77 143 -10 311 -10 C479 -10 564 77 564 250 C564 423 479 510 311 510 C143 510 58 423 58 250 L58 250 Z " />
<glyph glyph-name="ocircumflex" unicode="&#xf4;" horiz-adv-x="609" d="M311 -4 C158 -4 81 81 81 250 C81 419 158 504 311 504 C465 504 542 419 542 250 C542 81 465 -4 311 -4 L311 -4 Z M58 250 C58 77 143 -10 311 -10 C479 -10 564 77 564 250 C564 423 479 510 311 510 C143 510 58 423 58 250 L58 250 Z M311 757 C311 757 455 559 455 559 C455 559 458 561 458 561 C458 561 318 774 318 774 C317 776 314 781 311 781 C309 781 306 776 304 774 C304 774 165 561 165 561 C165 561 167 559 167 559 C167 559 311 757 311 757 L311 757 Z " />
<glyph glyph-name="otilde" unicode="&#xf5;" horiz-adv-x="609" d="M168 620 C168 667 184 691 216 691 C285 691 332 626 401 626 C439 626 458 651 458 701 C458 701 454 701 454 701 C454 661 438 641 405 641 C337 641 289 706 221 706 C184 706 165 677 165 620 C165 620 168 620 168 620 L168 620 Z M311 -4 C158 -4 81 81 81 250 C81 419 158 504 311 504 C465 504 542 419 542 250 C542 81 465 -4 311 -4 L311 -4 Z M58 250 C58 77 143 -10 311 -10 C479 -10 564 77 564 250 C564 423 479 510 311 510 C143 510 58 423 58 250 L58 250 Z " />
<glyph glyph-name="odieresis" unicode="&#xf6;" horiz-adv-x="609" d="M375 615 C388 615 395 622 395 635 C395 648 388 655 375 655 C362 655 355 648 355 635 C355 622 362 615 375 615 L375 615 Z M248 615 C261 615 268 622 268 635 C268 648 261 655 248 655 C235 655 228 648 228 635 C228 622 235 615 248 615 L248 615 Z M311 -4 C158 -4 81 81 81 250 C81 419 158 504 311 504 C465 504 542 419 542 250 C542 81 465 -4 311 -4 L311 -4 Z M58 250 C58 77 143 -10 311 -10 C479 -10 564 77 564 250 C564 423 479 510 311 510 C143 510 58 423 58 250 L58 250 Z " />
<glyph glyph-name="oslash" unicode="&#xf8;" horiz-adv-x="609" d="M61 -12 C61 -12 124 53 124 53 C166 11 229 -10 311 -10 C479 -10 564 77 564 250 C564 335 544 399 503 442 C503 442 567 508 567 508 C567 508 561 512 561 512 C561 512 498 447 498 447 C456 489 393 510 311 510 C143 510 58 423 58 250 C58 165 79 101 119 57 C119 57 56 -8 56 -8 C56 -8 61 -12 61 -12 L61 -12 Z M311 -4 C232 -4 173 19 135 64 C135 64 492 431 492 431 C525 389 542 329 542 250 C542 81 465 -4 311 -4 C311 -4 311 -4 311 -4 L311 -4 Z M131 69 C98 111 81 171 81 250 C81 419 158 504 311 504 C390 504 449 481 488 436 C488 436 131 69 131 69 L131 69 Z " />
<glyph glyph-name="ugrave" unicode="&#xf9;" horiz-adv-x="523" d="M503 35 C503 35 473 28 473 28 C436 19 418 20 418 94 C418 94 418 465 418 465 C418 465 418 500 418 500 C418 500 332 500 332 500 C332 500 332 480 332 480 C332 480 362 480 362 480 C386 480 398 479 398 465 C398 465 398 129 398 129 C364 46 311 4 239 4 C166 4 129 56 129 160 C129 160 129 465 129 465 C129 465 129 500 129 500 C129 500 43 500 43 500 C43 500 43 480 43 480 C43 480 73 480 73 480 C97 480 109 479 109 465 C109 465 109 160 109 160 C109 47 150 -10 230 -10 C306 -10 362 35 398 123 C398 123 398 90 398 90 C398 90 398 -10 398 -10 C398 -10 402 -10 402 -10 C402 -10 503 15 503 15 C503 15 503 35 503 35 L503 35 Z M140 699 C94 747 69 772 65 772 C59 772 55 768 55 762 C55 759 81 735 131 690 C131 690 268 564 268 564 C268 564 270 567 270 567 C270 567 140 699 140 699 L140 699 Z " />
<glyph glyph-name="uacute" unicode="&#xfa;" horiz-adv-x="523" d="M269 564 C269 564 406 690 406 690 C456 737 482 761 482 762 C482 768 478 772 472 772 C470 772 445 747 397 699 C397 699 267 567 267 567 C267 567 269 564 269 564 L269 564 Z M503 35 C503 35 473 28 473 28 C436 19 418 20 418 94 C418 94 418 465 418 465 C418 465 418 500 418 500 C418 500 332 500 332 500 C332 500 332 480 332 480 C332 480 362 480 362 480 C386 480 398 479 398 465 C398 465 398 129 398 129 C364 46 311 4 239 4 C166 4 129 56 129 160 C129 160 129 465 129 465 C129 465 129 500 129 500 C129 500 43 500 43 500 C43 500 43 480 43 480 C43 480 73 480 73 480 C97 480 109 479 109 465 C109 465 109 160 109 160 C109 47 150 -10 230 -10 C306 -10 362 35 398 123 C398 123 398 90 398 90 C398 90 398 -10 398 -10 C398 -10 402 -10 402 -10 C402 -10 503 15 503 15 C503 15 503 35 503 35 L503 35 Z " />
<glyph glyph-name="ucircumflex" unicode="&#xfb;" horiz-adv-x="523" d="M503 35 C503 35 473 28 473 28 C436 19 418 20 418 94 C418 94 418 465 418 465 C418 465 418 500 418 500 C418 500 332 500 332 500 C332 500 332 480 332 480 C332 480 362 480 362 480 C386 480 398 479 398 465 C398 465 398 129 398 129 C364 46 311 4 239 4 C166 4 129 56 129 160 C129 160 129 465 129 465 C129 465 129 500 129 500 C129 500 43 500 43 500 C43 500 43 480 43 480 C43 480 73 480 73 480 C97 480 109 479 109 465 C109 465 109 160 109 160 C109 47 150 -10 230 -10 C306 -10 362 35 398 123 C398 123 398 90 398 90 C398 90 398 -10 398 -10 C398 -10 402 -10 402 -10 C402 -10 503 15 503 15 C503 15 503 35 503 35 L503 35 Z M264 757 C264 757 407 559 407 559 C407 559 410 561 410 561 C410 561 271 774 271 774 C269 776 266 781 264 781 C261 781 258 776 256 774 C256 774 117 561 117 561 C117 561 120 559 120 559 C120 559 264 757 264 757 L264 757 Z " />
<glyph glyph-name="udieresis" unicode="&#xfc;" horiz-adv-x="523" d="M327 615 C340 615 347 622 347 635 C347 648 340 655 327 655 C314 655 307 648 307 635 C307 622 314 615 327 615 L327 615 Z M200 615 C213 615 220 622 220 635 C220 648 213 655 200 655 C187 655 180 648 180 635 C180 622 187 615 200 615 L200 615 Z M503 35 C503 35 473 28 473 28 C436 19 418 20 418 94 C418 94 418 465 418 465 C418 465 418 500 418 500 C418 500 332 500 332 500 C332 500 332 480 332 480 C332 480 362 480 362 480 C386 480 398 479 398 465 C398 465 398 129 398 129 C364 46 311 4 239 4 C166 4 129 56 129 160 C129 160 129 465 129 465 C129 465 129 500 129 500 C129 500 43 500 43 500 C43 500 43 480 43 480 C43 480 73 480 73 480 C97 480 109 479 109 465 C109 465 109 160 109 160 C109 47 150 -10 230 -10 C306 -10 362 35 398 123 C398 123 398 90 398 90 C398 90 398 -10 398 -10 C398 -10 402 -10 402 -10 C402 -10 503 15 503 15 C503 15 503 35 503 35 L503 35 Z " />
<glyph glyph-name="ydieresis" unicode="&#xff;" horiz-adv-x="499" d="M317 615 C330 615 337 622 337 635 C337 648 330 655 317 655 C304 655 297 648 297 635 C297 622 304 615 317 615 L317 615 Z M190 615 C203 615 210 622 210 635 C210 648 203 655 190 655 C177 655 170 648 170 635 C170 622 177 615 190 615 L190 615 Z M487 500 C487 500 409 500 409 500 C409 500 400 500 400 500 C400 500 305 500 305 500 C305 500 305 480 305 480 C305 480 332 480 332 480 C373 480 392 478 383 450 C383 450 383 450 383 450 C383 450 227 -10 227 -10 C227 -10 236 17 236 17 C236 17 119 453 119 453 C119 453 119 453 119 453 C112 478 124 480 150 480 C150 480 181 480 181 480 C181 480 181 500 181 500 C181 500 106 500 106 500 C106 500 85 500 85 500 C85 500 20 500 20 500 C20 500 20 480 20 480 C20 480 55 480 55 480 C78 480 91 478 98 453 C98 453 98 453 98 453 C98 453 227 -10 227 -10 C227 -10 183 -140 183 -140 C177 -157 167 -165 153 -165 C148 -165 146 -158 141 -158 C134 -158 130 -161 130 -168 C130 -176 134 -180 142 -180 C163 -180 178 -168 186 -145 C186 -145 233 -10 233 -10 C233 -10 389 441 389 441 C403 477 422 480 456 480 C456 480 487 480 487 480 C487 480 487 500 487 500 L487 500 Z " />
<glyph glyph-name="Amacron" unicode="&#x100;" horiz-adv-x="716" d="M244 907 C244 907 544 907 544 907 C544 907 544 920 544 920 C544 920 244 920 244 920 C244 920 244 907 244 907 L244 907 Z M463 0 C463 0 598 0 598 0 C598 0 622 0 622 0 C622 0 711 0 711 0 C711 0 711 20 711 20 C711 20 681 20 681 20 C640 20 616 27 584 128 C584 128 405 743 405 743 C405 743 397 770 397 770 C397 770 395 770 395 770 C382 751 378 742 383 743 C383 743 386 733 386 733 C386 733 197 157 197 157 C153 29 115 20 47 20 C47 20 17 20 17 20 C17 20 17 0 17 0 C17 0 145 0 145 0 C145 0 152 0 152 0 C152 0 317 0 317 0 C317 0 317 20 317 20 C317 20 294 20 294 20 C207 20 165 29 201 152 C201 152 247 294 247 294 C247 294 513 294 513 294 C513 294 563 120 563 120 C586 27 553 20 488 20 C488 20 463 20 463 20 C463 20 463 0 463 0 L463 0 Z M249 299 C249 299 388 726 388 726 C388 726 511 299 511 299 C511 299 249 299 249 299 L249 299 Z " />
<glyph glyph-name="amacron" unicode="&#x101;" horiz-adv-x="511" d="M116 657 C116 657 416 657 416 657 C416 657 416 670 416 670 C416 670 116 670 116 670 C116 670 116 657 116 657 L116 657 Z M522 56 C522 56 514 60 514 60 C508 26 490 9 459 9 C420 9 400 27 400 64 C400 64 400 361 400 361 C400 475 355 510 266 510 C143 510 81 420 81 360 C81 351 84 346 91 346 C108 346 116 351 116 356 C116 369 96 365 96 373 C96 425 151 504 259 504 C339 504 380 472 380 368 C380 368 380 268 380 268 C94 181 61 171 61 74 C61 18 100 -10 177 -10 C264 -10 322 10 380 91 C380 91 380 64 380 64 C380 18 404 -5 451 -5 C491 -5 515 16 522 56 L522 56 Z M380 264 C380 264 380 97 380 97 C326 21 270 1 188 1 C117 1 81 26 81 76 C81 173 112 182 380 264 C380 264 380 264 380 264 L380 264 Z " />
<glyph glyph-name="Abreve" unicode="&#x102;" horiz-adv-x="716" d="M278 995 C279 934 318 904 394 904 C470 904 509 934 510 994 C510 994 506 995 506 995 C505 945 467 919 394 919 C321 919 283 945 283 995 C283 995 278 995 278 995 L278 995 Z M463 0 C463 0 598 0 598 0 C598 0 622 0 622 0 C622 0 711 0 711 0 C711 0 711 20 711 20 C711 20 681 20 681 20 C640 20 616 27 584 128 C584 128 405 743 405 743 C405 743 397 770 397 770 C397 770 395 770 395 770 C382 751 378 742 383 743 C383 743 386 733 386 733 C386 733 197 157 197 157 C153 29 115 20 47 20 C47 20 17 20 17 20 C17 20 17 0 17 0 C17 0 145 0 145 0 C145 0 152 0 152 0 C152 0 317 0 317 0 C317 0 317 20 317 20 C317 20 294 20 294 20 C207 20 165 29 201 152 C201 152 247 294 247 294 C247 294 513 294 513 294 C513 294 563 120 563 120 C586 27 553 20 488 20 C488 20 463 20 463 20 C463 20 463 0 463 0 L463 0 Z M249 299 C249 299 388 726 388 726 C388 726 511 299 511 299 C511 299 249 299 249 299 L249 299 Z " />
<glyph glyph-name="abreve" unicode="&#x103;" horiz-adv-x="511" d="M150 745 C151 684 190 654 266 654 C342 654 381 684 382 744 C382 744 378 745 378 745 C377 695 339 669 266 669 C193 669 155 695 154 745 C154 745 150 745 150 745 L150 745 Z M522 56 C522 56 514 60 514 60 C508 26 490 9 459 9 C420 9 400 27 400 64 C400 64 400 361 400 361 C400 475 355 510 266 510 C143 510 81 420 81 360 C81 351 84 346 91 346 C108 346 116 351 116 356 C116 369 96 365 96 373 C96 425 151 504 259 504 C339 504 380 472 380 368 C380 368 380 268 380 268 C94 181 61 171 61 74 C61 18 100 -10 177 -10 C264 -10 322 10 380 91 C380 91 380 64 380 64 C380 18 404 -5 451 -5 C491 -5 515 16 522 56 L522 56 Z M380 264 C380 264 380 97 380 97 C326 21 270 1 188 1 C117 1 81 26 81 76 C81 173 112 182 380 264 C380 264 380 264 380 264 L380 264 Z " />
<glyph glyph-name="Cacute" unicode="&#x106;" horiz-adv-x="675" d="M363 814 C363 814 500 940 500 940 C551 987 576 1011 576 1012 C576 1018 572 1022 566 1022 C564 1022 540 997 491 949 C491 949 361 817 361 817 C361 817 363 814 363 814 L363 814 Z M627 536 C627 536 627 626 627 626 C627 626 627 741 627 741 C627 741 612 741 612 741 C612 741 610 731 607 713 C604 695 576 693 526 724 C526 724 525 724 525 724 C485 748 436 760 358 760 C167 760 71 631 71 375 C71 119 164 -10 347 -10 C424 -10 477 3 521 28 C521 28 522 28 522 28 C522 28 565 31 607 34 C612 35 615 25 615 4 C615 4 627 4 627 4 C627 4 627 124 627 124 C627 124 627 214 627 214 C627 214 612 214 612 214 C595 139 558 52 497 23 C497 23 497 23 497 23 C458 4 412 -5 349 -5 C180 -5 95 123 95 375 C95 627 184 754 360 754 C411 754 449 748 481 737 C481 737 477 738 477 738 C540 717 590 631 607 557 C610 543 612 536 612 536 C612 536 627 536 627 536 L627 536 Z " />
<glyph glyph-name="Ccircumflex" unicode="&#x108;" horiz-adv-x="675" d="M627 536 C627 536 627 626 627 626 C627 626 627 741 627 741 C627 741 612 741 612 741 C612 741 610 731 607 713 C604 695 576 693 526 724 C526 724 525 724 525 724 C485 748 436 760 358 760 C167 760 71 631 71 375 C71 119 164 -10 347 -10 C424 -10 477 3 521 28 C521 28 522 28 522 28 C522 28 565 31 607 34 C612 35 615 25 615 4 C615 4 627 4 627 4 C627 4 627 124 627 124 C627 124 627 214 627 214 C627 214 612 214 612 214 C595 139 558 52 497 23 C497 23 497 23 497 23 C458 4 412 -5 349 -5 C180 -5 95 123 95 375 C95 627 184 754 360 754 C411 754 449 748 481 737 C481 737 477 738 477 738 C540 717 590 631 607 557 C610 543 612 536 612 536 C612 536 627 536 627 536 L627 536 Z M358 1007 C358 1007 502 809 502 809 C502 809 504 811 504 811 C504 811 365 1024 365 1024 C363 1026 360 1031 358 1031 C355 1031 352 1026 351 1024 C351 1024 211 811 211 811 C211 811 214 809 214 809 C214 809 358 1007 358 1007 L358 1007 Z " />
<glyph glyph-name="Cdotaccent" unicode="&#x10a;" horiz-adv-x="675" d="M358 865 C371 865 378 872 378 885 C378 898 371 905 358 905 C345 905 338 898 338 885 C338 872 345 865 358 865 L358 865 Z M627 536 C627 536 627 626 627 626 C627 626 627 741 627 741 C627 741 612 741 612 741 C612 741 610 731 607 713 C604 695 576 693 526 724 C526 724 525 724 525 724 C485 748 436 760 358 760 C167 760 71 631 71 375 C71 119 164 -10 347 -10 C424 -10 477 3 521 28 C521 28 522 28 522 28 C522 28 565 31 607 34 C612 35 615 25 615 4 C615 4 627 4 627 4 C627 4 627 124 627 124 C627 124 627 214 627 214 C627 214 612 214 612 214 C595 139 558 52 497 23 C497 23 497 23 497 23 C458 4 412 -5 349 -5 C180 -5 95 123 95 375 C95 627 184 754 360 754 C411 754 449 748 481 737 C481 737 477 738 477 738 C540 717 590 631 607 557 C610 543 612 536 612 536 C612 536 627 536 627 536 L627 536 Z " />
<glyph glyph-name="cdotaccent" unicode="&#x10b;" horiz-adv-x="448" d="M247 615 C260 615 267 622 267 635 C267 648 260 655 247 655 C234 655 227 648 227 635 C227 622 234 615 247 615 L247 615 Z M419 128 C419 128 416 129 416 129 C378 45 318 2 237 2 C132 2 79 86 79 254 C79 421 135 505 246 505 C324 505 375 471 400 405 C402 398 405 395 410 395 C419 395 422 398 420 405 C395 475 337 510 247 510 C122 510 59 420 59 242 C59 75 117 -10 230 -10 C314 -10 378 36 419 128 L419 128 Z " />
<glyph glyph-name="Ccaron" unicode="&#x10c;" horiz-adv-x="675" d="M627 536 C627 536 627 626 627 626 C627 626 627 741 627 741 C627 741 612 741 612 741 C612 741 610 731 607 713 C604 695 576 693 526 724 C526 724 525 724 525 724 C485 748 436 760 358 760 C167 760 71 631 71 375 C71 119 164 -10 347 -10 C424 -10 477 3 521 28 C521 28 522 28 522 28 C522 28 565 31 607 34 C612 35 615 25 615 4 C615 4 627 4 627 4 C627 4 627 124 627 124 C627 124 627 214 627 214 C627 214 612 214 612 214 C595 139 558 52 497 23 C497 23 497 23 497 23 C458 4 412 -5 349 -5 C180 -5 95 123 95 375 C95 627 184 754 360 754 C411 754 449 748 481 737 C481 737 477 738 477 738 C540 717 590 631 607 557 C610 543 612 536 612 536 C612 536 627 536 627 536 L627 536 Z M358 843 C358 843 502 1041 502 1041 C502 1041 504 1039 504 1039 C504 1039 365 826 365 826 C363 824 360 819 358 819 C355 819 352 824 351 826 C351 826 211 1039 211 1039 C211 1039 214 1041 214 1041 C214 1041 358 843 358 843 L358 843 Z " />
<glyph glyph-name="ccaron" unicode="&#x10d;" horiz-adv-x="448" d="M419 128 C419 128 416 129 416 129 C378 45 318 2 237 2 C132 2 79 86 79 254 C79 421 135 505 246 505 C324 505 375 471 400 405 C402 398 405 395 410 395 C419 395 422 398 420 405 C395 475 337 510 247 510 C122 510 59 420 59 242 C59 75 117 -10 230 -10 C314 -10 378 36 419 128 L419 128 Z M247 593 C247 593 391 791 391 791 C391 791 394 789 394 789 C394 789 254 576 254 576 C253 574 250 569 247 569 C245 569 242 574 240 576 C240 576 101 789 101 789 C101 789 103 791 103 791 C103 791 247 593 247 593 L247 593 Z " />
<glyph glyph-name="Dcaron" unicode="&#x10e;" horiz-adv-x="772" d="M59 0 C59 0 164 0 164 0 C164 0 187 0 187 0 C187 0 267 0 267 0 C567 0 718 101 718 375 C718 624 607 750 307 750 C307 750 187 750 187 750 C187 750 164 750 164 750 C164 750 59 750 59 750 C59 750 59 730 59 730 C59 730 89 730 89 730 C139 730 164 725 164 665 C164 665 164 85 164 85 C164 25 139 20 89 20 C89 20 59 20 59 20 C59 20 59 0 59 0 L59 0 Z M429 843 C429 843 573 1041 573 1041 C573 1041 575 1039 575 1039 C575 1039 436 826 436 826 C434 824 431 819 429 819 C426 819 423 824 422 826 C422 826 282 1039 282 1039 C282 1039 285 1041 285 1041 C285 1041 429 843 429 843 L429 843 Z M187 746 C187 746 289 746 289 746 C584 746 693 621 693 375 C693 104 548 4 260 4 C187 4 187 30 187 80 C187 80 187 85 187 85 C187 85 187 665 187 665 C187 665 187 746 187 746 L187 746 Z " />
<glyph glyph-name="dcaron" unicode="&#x10f;" horiz-adv-x="593" d="M599 35 C599 35 569 28 569 28 C532 19 514 21 514 114 C514 114 514 665 514 665 C514 665 514 750 514 750 C514 750 510 750 510 750 C510 750 409 721 409 721 C409 721 409 701 409 701 C409 701 439 710 439 710 C476 720 494 721 494 660 C494 660 494 413 494 413 C459 472 404 510 339 510 C137 510 63 425 63 256 C63 82 146 -5 310 -5 C393 -5 455 23 494 77 C494 77 494 -10 494 -10 C494 -10 497 -10 497 -10 C497 -10 599 15 599 15 C599 15 599 35 599 35 L599 35 Z M589 652 C601 708 607 743 607 757 C607 759 604 759 598 759 C593 759 585 703 578 654 C578 654 563 543 563 543 C563 543 566 543 566 543 C566 543 589 652 589 652 L589 652 Z M494 84 C456 31 397 3 319 3 C162 3 83 90 83 261 C83 422 152 504 341 504 C404 504 459 457 494 387 C494 387 494 110 494 110 C494 110 494 84 494 84 L494 84 Z " />
<glyph glyph-name="Emacron" unicode="&#x112;" horiz-adv-x="594" d="M181 907 C181 907 481 907 481 907 C481 907 481 920 481 920 C481 920 181 920 181 920 C181 920 181 907 181 907 L181 907 Z M506 620 C502 663 499 707 497 750 C497 750 377 750 377 750 C377 750 187 750 187 750 C187 750 164 750 164 750 C164 750 59 750 59 750 C59 750 59 730 59 730 C59 730 89 730 89 730 C139 730 164 725 164 665 C164 665 164 85 164 85 C164 25 139 20 89 20 C89 20 59 20 59 20 C59 20 59 0 59 0 C59 0 164 0 164 0 C164 0 187 0 187 0 C187 0 402 0 402 0 C402 0 522 0 522 0 C528 43 534 86 540 130 C540 130 520 130 520 130 C520 130 516 100 516 100 C507 37 496 5 402 5 C402 5 267 5 267 5 C187 5 187 30 187 80 C187 80 187 85 187 85 C187 85 187 385 187 385 C187 385 317 385 317 385 C410 385 417 348 417 275 C417 275 417 245 417 245 C417 245 437 245 437 245 C437 245 437 385 437 385 C437 385 437 390 437 390 C437 390 437 530 437 530 C437 530 417 530 417 530 C417 530 417 500 417 500 C417 427 410 390 317 390 C317 390 187 390 187 390 C187 390 187 665 187 665 C187 665 187 745 187 745 C187 745 377 745 377 745 C489 745 480 709 485 638 C485 638 486 620 486 620 C486 620 506 620 506 620 L506 620 Z " />
<glyph glyph-name="emacron" unicode="&#x113;" horiz-adv-x="534" d="M154 657 C154 657 454 657 454 657 C454 657 454 670 454 670 C454 670 154 670 154 670 C154 670 154 657 154 657 L154 657 Z M88 340 C88 340 482 340 482 340 C482 340 504 340 504 340 C480 476 417 510 304 510 C140 510 58 419 58 238 C58 73 133 -10 281 -10 C387 -10 459 38 494 134 C494 134 491 135 491 135 C459 47 390 3 286 3 C148 3 79 85 79 246 C79 281 82 312 88 340 L88 340 Z M499 346 C499 346 499 346 499 346 C499 346 499 346 499 346 C499 346 499 346 499 346 L499 346 Z M481 346 C481 346 89 345 89 345 C115 451 186 505 302 505 C400 505 457 473 481 346 C481 346 481 346 481 346 L481 346 Z " />
<glyph glyph-name="Ebreve" unicode="&#x114;" horiz-adv-x="594" d="M215 995 C216 934 255 904 331 904 C406 904 445 934 446 994 C446 994 442 995 442 995 C441 945 404 919 331 919 C258 919 220 945 219 995 C219 995 215 995 215 995 L215 995 Z M506 620 C502 663 499 707 497 750 C497 750 377 750 377 750 C377 750 187 750 187 750 C187 750 164 750 164 750 C164 750 59 750 59 750 C59 750 59 730 59 730 C59 730 89 730 89 730 C139 730 164 725 164 665 C164 665 164 85 164 85 C164 25 139 20 89 20 C89 20 59 20 59 20 C59 20 59 0 59 0 C59 0 164 0 164 0 C164 0 187 0 187 0 C187 0 402 0 402 0 C402 0 522 0 522 0 C528 43 534 86 540 130 C540 130 520 130 520 130 C520 130 516 100 516 100 C507 37 496 5 402 5 C402 5 267 5 267 5 C187 5 187 30 187 80 C187 80 187 85 187 85 C187 85 187 385 187 385 C187 385 317 385 317 385 C410 385 417 348 417 275 C417 275 417 245 417 245 C417 245 437 245 437 245 C437 245 437 385 437 385 C437 385 437 390 437 390 C437 390 437 530 437 530 C437 530 417 530 417 530 C417 530 417 500 417 500 C417 427 410 390 317 390 C317 390 187 390 187 390 C187 390 187 665 187 665 C187 665 187 745 187 745 C187 745 377 745 377 745 C489 745 480 709 485 638 C485 638 486 620 486 620 C486 620 506 620 506 620 L506 620 Z " />
<glyph glyph-name="ebreve" unicode="&#x115;" horiz-adv-x="534" d="M188 745 C189 684 228 654 304 654 C379 654 418 684 419 744 C419 744 415 745 415 745 C414 695 377 669 304 669 C231 669 193 695 192 745 C192 745 188 745 188 745 L188 745 Z M88 340 C88 340 482 340 482 340 C482 340 504 340 504 340 C480 476 417 510 304 510 C140 510 58 419 58 238 C58 73 133 -10 281 -10 C387 -10 459 38 494 134 C494 134 491 135 491 135 C459 47 390 3 286 3 C148 3 79 85 79 246 C79 281 82 312 88 340 L88 340 Z M499 346 C499 346 499 346 499 346 C499 346 499 346 499 346 C499 346 499 346 499 346 L499 346 Z M481 346 C481 346 89 345 89 345 C115 451 186 505 302 505 C400 505 457 473 481 346 C481 346 481 346 481 346 L481 346 Z " />
<glyph glyph-name="Edotaccent" unicode="&#x116;" horiz-adv-x="594" d="M331 865 C344 865 351 872 351 885 C351 898 344 905 331 905 C318 905 311 898 311 885 C311 872 318 865 331 865 L331 865 Z M506 620 C502 663 499 707 497 750 C497 750 377 750 377 750 C377 750 187 750 187 750 C187 750 164 750 164 750 C164 750 59 750 59 750 C59 750 59 730 59 730 C59 730 89 730 89 730 C139 730 164 725 164 665 C164 665 164 85 164 85 C164 25 139 20 89 20 C89 20 59 20 59 20 C59 20 59 0 59 0 C59 0 164 0 164 0 C164 0 187 0 187 0 C187 0 402 0 402 0 C402 0 522 0 522 0 C528 43 534 86 540 130 C540 130 520 130 520 130 C520 130 516 100 516 100 C507 37 496 5 402 5 C402 5 267 5 267 5 C187 5 187 30 187 80 C187 80 187 85 187 85 C187 85 187 385 187 385 C187 385 317 385 317 385 C410 385 417 348 417 275 C417 275 417 245 417 245 C417 245 437 245 437 245 C437 245 437 385 437 385 C437 385 437 390 437 390 C437 390 437 530 437 530 C437 530 417 530 417 530 C417 530 417 500 417 500 C417 427 410 390 317 390 C317 390 187 390 187 390 C187 390 187 665 187 665 C187 665 187 745 187 745 C187 745 377 745 377 745 C489 745 480 709 485 638 C485 638 486 620 486 620 C486 620 506 620 506 620 L506 620 Z " />
<glyph glyph-name="edotaccent" unicode="&#x117;" horiz-adv-x="534" d="M304 615 C317 615 324 622 324 635 C324 648 317 655 304 655 C291 655 284 648 284 635 C284 622 291 615 304 615 L304 615 Z M88 340 C88 340 482 340 482 340 C482 340 504 340 504 340 C480 476 417 510 304 510 C140 510 58 419 58 238 C58 73 133 -10 281 -10 C387 -10 459 38 494 134 C494 134 491 135 491 135 C459 47 390 3 286 3 C148 3 79 85 79 246 C79 281 82 312 88 340 L88 340 Z M499 346 C499 346 499 346 499 346 C499 346 499 346 499 346 C499 346 499 346 499 346 L499 346 Z M481 346 C481 346 89 345 89 345 C115 451 186 505 302 505 C400 505 457 473 481 346 C481 346 481 346 481 346 L481 346 Z " />
<glyph glyph-name="Ecaron" unicode="&#x11a;" horiz-adv-x="594" d="M506 620 C502 663 499 707 497 750 C497 750 377 750 377 750 C377 750 187 750 187 750 C187 750 164 750 164 750 C164 750 59 750 59 750 C59 750 59 730 59 730 C59 730 89 730 89 730 C139 730 164 725 164 665 C164 665 164 85 164 85 C164 25 139 20 89 20 C89 20 59 20 59 20 C59 20 59 0 59 0 C59 0 164 0 164 0 C164 0 187 0 187 0 C187 0 402 0 402 0 C402 0 522 0 522 0 C528 43 534 86 540 130 C540 130 520 130 520 130 C520 130 516 100 516 100 C507 37 496 5 402 5 C402 5 267 5 267 5 C187 5 187 30 187 80 C187 80 187 85 187 85 C187 85 187 385 187 385 C187 385 317 385 317 385 C410 385 417 348 417 275 C417 275 417 245 417 245 C417 245 437 245 437 245 C437 245 437 385 437 385 C437 385 437 390 437 390 C437 390 437 530 437 530 C437 530 417 530 417 530 C417 530 417 500 417 500 C417 427 410 390 317 390 C317 390 187 390 187 390 C187 390 187 665 187 665 C187 665 187 745 187 745 C187 745 377 745 377 745 C489 745 480 709 485 638 C485 638 486 620 486 620 C486 620 506 620 506 620 L506 620 Z M331 843 C331 843 475 1041 475 1041 C475 1041 477 1039 477 1039 C477 1039 338 826 338 826 C336 824 333 819 331 819 C328 819 325 824 324 826 C324 826 184 1039 184 1039 C184 1039 187 1041 187 1041 C187 1041 331 843 331 843 L331 843 Z " />
<glyph glyph-name="ecaron" unicode="&#x11b;" horiz-adv-x="534" d="M304 593 C304 593 447 791 447 791 C447 791 450 789 450 789 C450 789 311 576 311 576 C309 574 306 569 304 569 C300 569 298 572 297 576 C297 576 297 576 297 576 C297 576 157 789 157 789 C157 789 160 791 160 791 C160 791 304 593 304 593 L304 593 Z M88 340 C88 340 482 340 482 340 C482 340 504 340 504 340 C480 476 417 510 304 510 C140 510 58 419 58 238 C58 73 133 -10 281 -10 C387 -10 459 38 494 134 C494 134 491 135 491 135 C459 47 390 3 286 3 C148 3 79 85 79 246 C79 281 82 312 88 340 L88 340 Z M499 346 C499 346 499 346 499 346 C499 346 499 346 499 346 C499 346 499 346 499 346 L499 346 Z M481 346 C481 346 89 345 89 345 C115 451 186 505 302 505 C400 505 457 473 481 346 C481 346 481 346 481 346 L481 346 Z " />
<glyph glyph-name="Gcircumflex" unicode="&#x11c;" horiz-adv-x="748" d="M627 536 C627 536 627 626 627 626 C627 626 627 741 627 741 C627 741 612 741 612 741 C612 741 610 731 607 713 C604 695 576 693 526 724 C526 724 525 724 525 724 C485 748 436 760 358 760 C167 760 71 631 71 375 C71 119 164 -10 349 -10 C452 -10 520 0 584 21 C584 21 585 21 585 21 C585 21 606 26 606 26 C606 26 606 28 606 28 C632 38 658 49 686 62 C686 62 684 65 684 65 C657 53 632 42 606 32 C606 32 607 245 607 245 C607 301 625 305 662 305 C662 305 692 305 692 305 C692 305 692 325 692 325 C692 325 484 325 484 325 C484 325 484 305 484 305 C484 305 514 305 514 305 C561 305 584 301 584 245 C584 245 585 44 585 44 C584 34 576 25 560 18 C560 18 562 18 562 18 C561 18 560 18 558 18 C523 3 454 -5 351 -5 C351 -5 560 18 560 18 C560 18 559 18 558 18 C503 3 440 -5 351 -5 C181 -5 95 123 95 375 C95 627 184 754 360 754 C411 754 449 748 481 737 C481 737 477 738 477 738 C540 717 590 631 607 557 C610 543 612 536 612 536 C612 536 627 536 627 536 L627 536 Z M358 1007 C358 1007 502 809 502 809 C502 809 504 811 504 811 C504 811 365 1024 365 1024 C363 1026 360 1031 358 1031 C355 1031 352 1026 351 1024 C351 1024 211 811 211 811 C211 811 214 809 214 809 C214 809 358 1007 358 1007 L358 1007 Z " />
<glyph glyph-name="Gbreve" unicode="&#x11e;" horiz-adv-x="748" d="M242 995 C243 934 282 904 358 904 C434 904 473 934 474 994 C474 994 469 995 469 995 C468 945 431 919 358 919 C285 919 247 945 246 995 C246 995 242 995 242 995 L242 995 Z M627 536 C627 536 627 626 627 626 C627 626 627 741 627 741 C627 741 612 741 612 741 C612 741 610 731 607 713 C604 695 576 693 526 724 C526 724 525 724 525 724 C485 748 436 760 358 760 C167 760 71 631 71 375 C71 119 164 -10 349 -10 C452 -10 520 0 584 21 C584 21 585 21 585 21 C585 21 606 26 606 26 C606 26 606 28 606 28 C632 38 658 49 686 62 C686 62 684 65 684 65 C657 53 632 42 606 32 C606 32 607 245 607 245 C607 301 625 305 662 305 C662 305 692 305 692 305 C692 305 692 325 692 325 C692 325 484 325 484 325 C484 325 484 305 484 305 C484 305 514 305 514 305 C561 305 584 301 584 245 C584 245 585 44 585 44 C584 34 576 25 560 18 C560 18 562 18 562 18 C561 18 560 18 558 18 C523 3 454 -5 351 -5 C351 -5 560 18 560 18 C560 18 559 18 558 18 C503 3 440 -5 351 -5 C181 -5 95 123 95 375 C95 627 184 754 360 754 C411 754 449 748 481 737 C481 737 477 738 477 738 C540 717 590 631 607 557 C610 543 612 536 612 536 C612 536 627 536 627 536 L627 536 Z " />
<glyph glyph-name="gbreve" unicode="&#x11f;" horiz-adv-x="520" d="M147 745 C148 684 187 654 263 654 C339 654 378 684 379 744 C379 744 375 745 375 745 C374 695 336 669 263 669 C190 669 152 695 151 745 C151 745 147 745 147 745 L147 745 Z M111 350 C111 453 162 505 263 505 C364 505 415 453 415 350 C415 246 364 193 263 193 C162 193 111 246 111 350 L111 350 Z M181 32 C183 32 185 32 188 32 C188 32 300 32 300 32 C434 32 468 -10 468 -93 C468 -181 403 -225 273 -225 C141 -225 75 -178 75 -86 C75 -24 110 15 181 32 L181 32 Z M176 32 C98 14 59 -27 59 -91 C59 -183 130 -230 272 -230 C413 -230 485 -182 485 -88 C485 5 448 52 302 52 C302 52 189 52 189 52 C114 52 76 73 76 115 C76 164 139 188 263 188 C377 188 435 242 435 350 C435 362 434 373 433 383 C438 452 470 487 527 487 C554 487 568 470 568 438 C568 433 571 431 577 431 C582 431 585 434 585 440 C585 477 568 495 535 495 C474 495 439 460 432 392 C418 470 361 510 263 510 C149 510 91 456 91 350 C91 257 134 204 220 191 C116 185 64 158 64 110 C64 61 102 35 176 32 C176 32 176 32 176 32 L176 32 Z " />
<glyph glyph-name="Gdotaccent" unicode="&#x120;" horiz-adv-x="748" d="M358 865 C371 865 378 872 378 885 C378 898 371 905 358 905 C345 905 338 898 338 885 C338 872 345 865 358 865 L358 865 Z M627 536 C627 536 627 626 627 626 C627 626 627 741 627 741 C627 741 612 741 612 741 C612 741 610 731 607 713 C604 695 576 693 526 724 C526 724 525 724 525 724 C485 748 436 760 358 760 C167 760 71 631 71 375 C71 119 164 -10 349 -10 C452 -10 520 0 584 21 C584 21 585 21 585 21 C585 21 606 26 606 26 C606 26 606 28 606 28 C632 38 658 49 686 62 C686 62 684 65 684 65 C657 53 632 42 606 32 C606 32 607 245 607 245 C607 301 625 305 662 305 C662 305 692 305 692 305 C692 305 692 325 692 325 C692 325 484 325 484 325 C484 325 484 305 484 305 C484 305 514 305 514 305 C561 305 584 301 584 245 C584 245 585 44 585 44 C584 34 576 25 560 18 C560 18 562 18 562 18 C561 18 560 18 558 18 C523 3 454 -5 351 -5 C351 -5 560 18 560 18 C560 18 559 18 558 18 C503 3 440 -5 351 -5 C181 -5 95 123 95 375 C95 627 184 754 360 754 C411 754 449 748 481 737 C481 737 477 738 477 738 C540 717 590 631 607 557 C610 543 612 536 612 536 C612 536 627 536 627 536 L627 536 Z " />
<glyph glyph-name="gdotaccent" unicode="&#x121;" horiz-adv-x="520" d="M263 615 C276 615 283 622 283 635 C283 648 276 655 263 655 C250 655 243 648 243 635 C243 622 250 615 263 615 L263 615 Z M111 350 C111 453 162 505 263 505 C364 505 415 453 415 350 C415 246 364 193 263 193 C162 193 111 246 111 350 L111 350 Z M181 32 C183 32 185 32 188 32 C188 32 300 32 300 32 C434 32 468 -10 468 -93 C468 -181 403 -225 273 -225 C141 -225 75 -178 75 -86 C75 -24 110 15 181 32 L181 32 Z M176 32 C98 14 59 -27 59 -91 C59 -183 130 -230 272 -230 C413 -230 485 -182 485 -88 C485 5 448 52 302 52 C302 52 189 52 189 52 C114 52 76 73 76 115 C76 164 139 188 263 188 C377 188 435 242 435 350 C435 362 434 373 433 383 C438 452 470 487 527 487 C554 487 568 470 568 438 C568 433 571 431 577 431 C582 431 585 434 585 440 C585 477 568 495 535 495 C474 495 439 460 432 392 C418 470 361 510 263 510 C149 510 91 456 91 350 C91 257 134 204 220 191 C116 185 64 158 64 110 C64 61 102 35 176 32 C176 32 176 32 176 32 L176 32 Z " />
<glyph glyph-name="Hcircumflex" unicode="&#x124;" horiz-adv-x="783" d="M743 750 C743 750 511 750 511 750 C511 750 511 730 511 730 C511 730 541 730 541 730 C591 730 616 726 616 670 C616 670 616 386 616 386 C616 386 223 386 223 386 C223 386 223 670 223 670 C223 726 248 730 298 730 C298 730 328 730 328 730 C328 730 328 750 328 750 C328 750 95 750 95 750 C95 750 95 730 95 730 C95 730 125 730 125 730 C175 730 200 726 200 670 C200 670 200 80 200 80 C200 24 175 20 125 20 C125 20 95 20 95 20 C95 20 95 0 95 0 C95 0 328 0 328 0 C328 0 328 20 328 20 C328 20 298 20 298 20 C248 20 223 24 223 80 C223 80 223 380 223 380 C223 380 616 380 616 380 C616 380 616 80 616 80 C616 24 591 20 541 20 C541 20 511 20 511 20 C511 20 511 0 511 0 C511 0 743 0 743 0 C743 0 743 20 743 20 C743 20 713 20 713 20 C663 20 638 24 638 80 C638 80 638 670 638 670 C638 726 663 730 713 730 C713 730 743 730 743 730 C743 730 743 750 743 750 L743 750 Z M419 1007 C419 1007 563 809 563 809 C563 809 566 811 566 811 C566 811 426 1024 426 1024 C425 1026 422 1031 419 1031 C417 1031 414 1026 412 1024 C412 1024 273 811 273 811 C273 811 275 809 275 809 C275 809 419 1007 419 1007 L419 1007 Z " />
<glyph glyph-name="Itilde" unicode="&#x128;" horiz-adv-x="346" d="M47 870 C47 917 63 941 95 941 C164 941 211 876 279 876 C318 876 337 901 337 951 C337 951 333 951 333 951 C333 911 317 891 284 891 C215 891 168 956 99 956 C62 956 43 927 43 870 C43 870 47 870 47 870 L47 870 Z M306 750 C306 750 74 750 74 750 C74 750 74 730 74 730 C74 730 104 730 104 730 C154 730 179 726 179 670 C179 670 179 80 179 80 C179 24 154 20 104 20 C104 20 74 20 74 20 C74 20 74 0 74 0 C74 0 306 0 306 0 C306 0 306 20 306 20 C306 20 276 20 276 20 C226 20 201 24 201 80 C201 80 201 670 201 670 C201 726 226 730 276 730 C276 730 306 730 306 730 C306 730 306 750 306 750 L306 750 Z " />
<glyph glyph-name="itilde" unicode="&#x129;" horiz-adv-x="261" d="M-2 620 C-2 667 14 691 46 691 C115 691 162 626 230 626 C269 626 288 651 288 701 C288 701 284 701 284 701 C284 661 268 641 235 641 C166 641 119 706 50 706 C13 706 -6 677 -6 620 C-6 620 -2 620 -2 620 L-2 620 Z M51 0 C51 0 234 0 234 0 C234 0 234 20 234 20 C234 20 204 20 204 20 C169 20 151 21 151 35 C151 35 151 390 151 390 C151 390 151 500 151 500 C151 500 147 500 147 500 C147 500 50 445 50 445 C50 445 50 435 50 435 C125 439 131 437 131 390 C131 390 131 35 131 35 C131 21 114 20 81 20 C81 20 51 20 51 20 C51 20 51 0 51 0 L51 0 Z " />
<glyph glyph-name="Imacron" unicode="&#x12a;" horiz-adv-x="346" d="M40 907 C40 907 340 907 340 907 C340 907 340 920 340 920 C340 920 40 920 40 920 C40 920 40 907 40 907 L40 907 Z M306 750 C306 750 74 750 74 750 C74 750 74 730 74 730 C74 730 104 730 104 730 C154 730 179 726 179 670 C179 670 179 80 179 80 C179 24 154 20 104 20 C104 20 74 20 74 20 C74 20 74 0 74 0 C74 0 306 0 306 0 C306 0 306 20 306 20 C306 20 276 20 276 20 C226 20 201 24 201 80 C201 80 201 670 201 670 C201 726 226 730 276 730 C276 730 306 730 306 730 C306 730 306 750 306 750 L306 750 Z " />
<glyph glyph-name="imacron" unicode="&#x12b;" horiz-adv-x="261" d="M-9 657 C-9 657 291 657 291 657 C291 657 291 670 291 670 C291 670 -9 670 -9 670 C-9 670 -9 657 -9 657 L-9 657 Z M51 0 C51 0 234 0 234 0 C234 0 234 20 234 20 C234 20 204 20 204 20 C169 20 151 21 151 35 C151 35 151 390 151 390 C151 390 151 500 151 500 C151 500 147 500 147 500 C147 500 50 445 50 445 C50 445 50 435 50 435 C125 439 131 437 131 390 C131 390 131 35 131 35 C131 21 114 20 81 20 C81 20 51 20 51 20 C51 20 51 0 51 0 L51 0 Z " />
<glyph glyph-name="Ibreve" unicode="&#x12c;" horiz-adv-x="346" d="M74 995 C75 934 114 904 190 904 C266 904 305 934 306 994 C306 994 302 995 302 995 C301 945 263 919 190 919 C117 919 79 945 78 995 C78 995 74 995 74 995 L74 995 Z M306 750 C306 750 74 750 74 750 C74 750 74 730 74 730 C74 730 104 730 104 730 C154 730 179 726 179 670 C179 670 179 80 179 80 C179 24 154 20 104 20 C104 20 74 20 74 20 C74 20 74 0 74 0 C74 0 306 0 306 0 C306 0 306 20 306 20 C306 20 276 20 276 20 C226 20 201 24 201 80 C201 80 201 670 201 670 C201 726 226 730 276 730 C276 730 306 730 306 730 C306 730 306 750 306 750 L306 750 Z " />
<glyph glyph-name="ibreve" unicode="&#x12d;" horiz-adv-x="261" d="M25 745 C26 684 65 654 141 654 C217 654 256 684 257 744 C257 744 253 745 253 745 C252 695 214 669 141 669 C68 669 30 695 29 745 C29 745 25 745 25 745 L25 745 Z M51 0 C51 0 234 0 234 0 C234 0 234 20 234 20 C234 20 204 20 204 20 C169 20 151 21 151 35 C151 35 151 390 151 390 C151 390 151 500 151 500 C151 500 147 500 147 500 C147 500 50 445 50 445 C50 445 50 435 50 435 C125 439 131 437 131 390 C131 390 131 35 131 35 C131 21 114 20 81 20 C81 20 51 20 51 20 C51 20 51 0 51 0 L51 0 Z " />
<glyph glyph-name="Idotaccent" unicode="&#x130;" horiz-adv-x="346" d="M190 865 C203 865 210 872 210 885 C210 898 203 905 190 905 C177 905 170 898 170 885 C170 872 177 865 190 865 L190 865 Z M306 750 C306 750 74 750 74 750 C74 750 74 730 74 730 C74 730 104 730 104 730 C154 730 179 726 179 670 C179 670 179 80 179 80 C179 24 154 20 104 20 C104 20 74 20 74 20 C74 20 74 0 74 0 C74 0 306 0 306 0 C306 0 306 20 306 20 C306 20 276 20 276 20 C226 20 201 24 201 80 C201 80 201 670 201 670 C201 726 226 730 276 730 C276 730 306 730 306 730 C306 730 306 750 306 750 L306 750 Z " />
<glyph glyph-name="dotlessi" unicode="&#x131;" horiz-adv-x="261" d="M51 0 C51 0 234 0 234 0 C234 0 234 20 234 20 C234 20 204 20 204 20 C169 20 151 21 151 35 C151 35 151 390 151 390 C151 390 151 500 151 500 C151 500 147 500 147 500 C147 500 50 445 50 445 C50 445 50 435 50 435 C125 439 131 437 131 390 C131 390 131 35 131 35 C131 21 114 20 81 20 C81 20 51 20 51 20 C51 20 51 0 51 0 L51 0 Z " />
<glyph glyph-name="Jcircumflex" unicode="&#x134;" horiz-adv-x="346" d="M306 750 C306 750 74 750 74 750 C74 750 74 730 74 730 C74 730 104 730 104 730 C154 730 179 726 179 670 C179 670 179 1 179 1 C179 -197 115 -212 59 -212 C46 -212 55 -193 42 -193 C35 -193 31 -197 31 -204 C31 -215 39 -220 54 -220 C122 -220 201 -202 201 43 C201 43 201 670 201 670 C201 726 226 730 276 730 C276 730 306 730 306 730 C306 730 306 750 306 750 L306 750 Z M190 1007 C190 1007 334 809 334 809 C334 809 337 811 337 811 C337 811 197 1024 197 1024 C195 1026 192 1031 190 1031 C188 1031 185 1026 183 1024 C183 1024 43 811 43 811 C43 811 46 809 46 809 C46 809 190 1007 190 1007 L190 1007 Z " />
<glyph glyph-name="Lacute" unicode="&#x139;" horiz-adv-x="611" d="M196 814 C196 814 332 940 332 940 C383 987 408 1011 408 1012 C408 1018 404 1022 398 1022 C397 1022 372 997 323 949 C323 949 193 817 193 817 C193 817 196 814 196 814 L196 814 Z M536 4 C550 58 565 112 580 166 C579 166 560 169 560 169 C560 169 552 139 552 139 C528 49 505 4 351 4 C351 4 281 4 281 4 C201 4 201 30 201 80 C201 80 201 85 201 85 C201 85 201 665 201 665 C201 725 226 730 276 730 C276 730 306 730 306 730 C306 730 306 750 306 750 C306 750 201 750 201 750 C201 750 179 750 179 750 C179 750 74 750 74 750 C74 750 74 730 74 730 C74 730 104 730 104 730 C154 730 179 725 179 665 C179 665 179 85 179 85 C179 25 154 20 104 20 C104 20 74 20 74 20 C74 20 74 0 74 0 C74 0 179 0 179 0 C179 0 201 0 201 0 C201 0 350 0 350 0 C350 0 535 0 535 0 C535 0 536 4 536 4 L536 4 Z " />
<glyph glyph-name="Lcaron" unicode="&#x13d;" horiz-adv-x="611" d="M536 4 C550 58 565 112 580 166 C579 166 560 169 560 169 C560 169 552 139 552 139 C528 49 505 4 351 4 C351 4 281 4 281 4 C201 4 201 30 201 80 C201 80 201 85 201 85 C201 85 201 665 201 665 C201 725 226 730 276 730 C276 730 306 730 306 730 C306 730 306 750 306 750 C306 750 201 750 201 750 C201 750 179 750 179 750 C179 750 74 750 74 750 C74 750 74 730 74 730 C74 730 104 730 104 730 C154 730 179 725 179 665 C179 665 179 85 179 85 C179 25 154 20 104 20 C104 20 74 20 74 20 C74 20 74 0 74 0 C74 0 179 0 179 0 C179 0 201 0 201 0 C201 0 350 0 350 0 C350 0 535 0 535 0 C535 0 536 4 536 4 L536 4 Z M376 702 C388 758 394 793 394 807 C394 809 391 809 385 809 C380 809 372 753 366 704 C366 704 350 593 350 593 C350 593 354 593 354 593 C354 593 376 702 376 702 L376 702 Z " />
<glyph glyph-name="lcaron" unicode="&#x13e;" horiz-adv-x="261" d="M46 701 C46 701 76 710 76 710 C113 720 131 720 131 645 C131 645 131 35 131 35 C131 21 114 20 81 20 C81 20 51 20 51 20 C51 20 51 0 51 0 C51 0 231 0 231 0 C231 0 231 20 231 20 C231 20 201 20 201 20 C168 20 151 21 151 35 C151 35 151 650 151 650 C151 650 151 750 151 750 C151 750 147 750 147 750 C147 750 46 721 46 721 C46 721 46 701 46 701 L46 701 Z M226 652 C238 708 244 743 244 757 C244 759 241 759 235 759 C230 759 222 703 215 654 C215 654 200 543 200 543 C200 543 204 543 204 543 C204 543 226 652 226 652 L226 652 Z " />
<glyph glyph-name="Nacute" unicode="&#x143;" horiz-adv-x="750" d="M280 814 C280 814 416 940 416 940 C467 987 492 1011 492 1012 C492 1018 488 1022 482 1022 C481 1022 456 997 407 949 C407 949 277 817 277 817 C277 817 280 814 280 814 L280 814 Z M74 730 C74 730 111 730 111 730 C124 730 133 729 144 718 C144 718 143 150 143 150 C143 150 143 150 143 150 C143 29 111 20 48 20 C48 20 18 20 18 20 C18 20 18 0 18 0 C18 0 143 0 143 0 C143 0 150 0 150 0 C150 0 275 0 275 0 C275 0 275 20 275 20 C275 20 245 20 245 20 C182 20 150 28 150 140 C150 140 150 140 150 140 C150 140 149 712 149 712 C153 708 157 702 161 695 C161 695 161 696 161 696 C161 696 579 32 579 32 C579 32 599 0 599 0 C599 0 603 0 603 0 C603 0 605 630 605 630 C605 630 605 630 605 630 C605 723 637 730 700 730 C700 730 730 730 730 730 C730 730 730 750 730 750 C730 750 605 750 605 750 C605 750 598 750 598 750 C598 750 473 750 473 750 C473 750 473 730 473 730 C473 730 503 730 503 730 C566 730 598 723 598 630 C598 630 598 630 598 630 C598 630 599 42 599 42 C599 42 598 44 598 44 C598 44 154 750 154 750 C154 750 149 750 149 750 C149 750 144 750 144 750 C144 750 127 750 127 750 C127 750 74 750 74 750 C74 750 74 730 74 730 L74 730 Z " />
<glyph glyph-name="Ncaron" unicode="&#x147;" horiz-adv-x="750" d="M74 730 C74 730 111 730 111 730 C124 730 133 729 144 718 C144 718 143 150 143 150 C143 150 143 150 143 150 C143 29 111 20 48 20 C48 20 18 20 18 20 C18 20 18 0 18 0 C18 0 143 0 143 0 C143 0 150 0 150 0 C150 0 275 0 275 0 C275 0 275 20 275 20 C275 20 245 20 245 20 C182 20 150 28 150 140 C150 140 150 140 150 140 C150 140 149 712 149 712 C153 708 157 702 161 695 C161 695 161 696 161 696 C161 696 579 32 579 32 C579 32 599 0 599 0 C599 0 603 0 603 0 C603 0 605 630 605 630 C605 630 605 630 605 630 C605 723 637 730 700 730 C700 730 730 730 730 730 C730 730 730 750 730 750 C730 750 605 750 605 750 C605 750 598 750 598 750 C598 750 473 750 473 750 C473 750 473 730 473 730 C473 730 503 730 503 730 C566 730 598 723 598 630 C598 630 598 630 598 630 C598 630 599 42 599 42 C599 42 598 44 598 44 C598 44 154 750 154 750 C154 750 149 750 149 750 C149 750 144 750 144 750 C144 750 127 750 127 750 C127 750 74 750 74 750 C74 750 74 730 74 730 L74 730 Z M374 843 C374 843 518 1041 518 1041 C518 1041 521 1039 521 1039 C521 1039 381 826 381 826 C380 824 377 819 374 819 C372 819 369 824 367 826 C367 826 228 1039 228 1039 C228 1039 230 1041 230 1041 C230 1041 374 843 374 843 L374 843 Z " />
<glyph glyph-name="ncaron" unicode="&#x148;" horiz-adv-x="544" d="M40 443 C40 443 70 454 70 454 C107 467 125 468 125 394 C125 394 125 35 125 35 C125 21 108 20 75 20 C75 20 45 20 45 20 C45 20 45 0 45 0 C45 0 225 0 225 0 C225 0 225 20 225 20 C225 20 195 20 195 20 C162 20 145 21 145 35 C145 35 145 363 145 363 C196 451 246 495 292 495 C381 495 414 461 414 395 C414 395 414 35 414 35 C414 21 397 20 364 20 C364 20 334 20 334 20 C334 20 334 0 334 0 C334 0 514 0 514 0 C514 0 514 20 514 20 C514 20 484 20 484 20 C451 20 434 21 434 35 C434 35 434 395 434 395 C434 471 399 510 304 510 C253 510 199 463 145 369 C145 369 145 400 145 400 C145 400 145 500 145 500 C145 500 141 500 141 500 C141 500 40 463 40 463 C40 463 40 443 40 443 L40 443 Z M280 593 C280 593 423 791 423 791 C423 791 426 789 426 789 C426 789 287 576 287 576 C285 574 282 569 280 569 C277 569 274 574 272 576 C272 576 133 789 133 789 C133 789 136 791 136 791 C136 791 280 593 280 593 L280 593 Z " />
<glyph glyph-name="Omacron" unicode="&#x14c;" horiz-adv-x="767" d="M237 907 C237 907 537 907 537 907 C537 907 537 920 537 920 C537 920 237 920 237 920 C237 920 237 907 237 907 L237 907 Z M378 -4 C191 -4 96 123 96 375 C96 627 193 754 386 754 C586 754 687 627 687 375 C687 123 583 -4 378 -4 L378 -4 Z M71 375 C71 119 174 -10 377 -10 C600 -10 713 119 713 375 C713 631 603 760 387 760 C177 760 71 631 71 375 L71 375 Z " />
<glyph glyph-name="omacron" unicode="&#x14d;" horiz-adv-x="609" d="M161 657 C161 657 461 657 461 657 C461 657 461 670 461 670 C461 670 161 670 161 670 C161 670 161 657 161 657 L161 657 Z M311 -4 C158 -4 81 81 81 250 C81 419 158 504 311 504 C465 504 542 419 542 250 C542 81 465 -4 311 -4 L311 -4 Z M58 250 C58 77 143 -10 311 -10 C479 -10 564 77 564 250 C564 423 479 510 311 510 C143 510 58 423 58 250 L58 250 Z " />
<glyph glyph-name="Obreve" unicode="&#x14e;" horiz-adv-x="767" d="M271 995 C272 934 311 904 387 904 C462 904 501 934 502 994 C502 994 498 995 498 995 C497 945 460 919 387 919 C314 919 276 945 275 995 C275 995 271 995 271 995 L271 995 Z M378 -4 C191 -4 96 123 96 375 C96 627 193 754 386 754 C586 754 687 627 687 375 C687 123 583 -4 378 -4 L378 -4 Z M71 375 C71 119 174 -10 377 -10 C600 -10 713 119 713 375 C713 631 603 760 387 760 C177 760 71 631 71 375 L71 375 Z " />
<glyph glyph-name="obreve" unicode="&#x14f;" horiz-adv-x="609" d="M195 745 C196 684 235 654 311 654 C387 654 426 684 427 744 C427 744 423 745 423 745 C422 695 384 669 311 669 C238 669 201 695 200 745 C200 745 195 745 195 745 L195 745 Z M311 -4 C158 -4 81 81 81 250 C81 419 158 504 311 504 C465 504 542 419 542 250 C542 81 465 -4 311 -4 L311 -4 Z M58 250 C58 77 143 -10 311 -10 C479 -10 564 77 564 250 C564 423 479 510 311 510 C143 510 58 423 58 250 L58 250 Z " />
<glyph glyph-name="Racute" unicode="&#x154;" horiz-adv-x="650" d="M341 814 C341 814 478 940 478 940 C528 987 553 1011 553 1012 C553 1018 549 1022 543 1022 C542 1022 517 997 468 949 C468 949 338 817 338 817 C338 817 341 814 341 814 L341 814 Z M59 730 C59 730 89 730 89 730 C139 730 164 725 164 665 C164 665 164 85 164 85 C164 25 139 20 89 20 C89 20 59 20 59 20 C59 20 59 0 59 0 C59 0 292 0 292 0 C292 0 292 20 292 20 C292 20 262 20 262 20 C212 20 187 25 187 85 C187 85 187 374 187 374 C187 374 355 374 355 374 C362 355 407 256 491 80 C531 -5 522 0 641 0 C641 0 641 4 641 4 C547 4 555 -1 517 80 C437 251 390 349 378 375 C479 380 531 422 531 542 C531 680 472 750 356 750 C356 750 187 750 187 750 C187 750 59 750 59 750 C59 750 59 730 59 730 L59 730 Z M187 746 C187 746 350 746 350 746 C454 746 506 679 506 546 C506 427 462 386 375 381 C375 381 375 381 375 381 C375 381 372 380 372 380 C366 380 361 380 356 380 C356 380 187 380 187 380 C187 380 187 665 187 665 C187 665 187 746 187 746 L187 746 Z " />
<glyph glyph-name="Rcaron" unicode="&#x158;" horiz-adv-x="650" d="M59 730 C59 730 89 730 89 730 C139 730 164 725 164 665 C164 665 164 85 164 85 C164 25 139 20 89 20 C89 20 59 20 59 20 C59 20 59 0 59 0 C59 0 292 0 292 0 C292 0 292 20 292 20 C292 20 262 20 262 20 C212 20 187 25 187 85 C187 85 187 374 187 374 C187 374 355 374 355 374 C362 355 407 256 491 80 C531 -5 522 0 641 0 C641 0 641 4 641 4 C547 4 555 -1 517 80 C437 251 390 349 378 375 C479 380 531 422 531 542 C531 680 472 750 356 750 C356 750 187 750 187 750 C187 750 59 750 59 750 C59 750 59 730 59 730 L59 730 Z M335 843 C335 843 479 1041 479 1041 C479 1041 482 1039 482 1039 C482 1039 342 826 342 826 C341 824 338 819 335 819 C333 819 330 824 328 826 C328 826 189 1039 189 1039 C189 1039 191 1041 191 1041 C191 1041 335 843 335 843 L335 843 Z M187 746 C187 746 350 746 350 746 C454 746 506 679 506 546 C506 427 462 386 375 381 C375 381 375 381 375 381 C375 381 372 380 372 380 C366 380 361 380 356 380 C356 380 187 380 187 380 C187 380 187 665 187 665 C187 665 187 746 187 746 L187 746 Z " />
<glyph glyph-name="rcaron" unicode="&#x159;" horiz-adv-x="343" d="M46 443 C46 443 76 454 76 454 C113 467 131 468 131 394 C131 394 131 35 131 35 C131 21 116 20 86 20 C86 20 56 20 56 20 C56 20 56 0 56 0 C56 0 236 0 236 0 C236 0 236 20 236 20 C236 20 206 20 206 20 C169 20 151 21 151 35 C151 35 151 370 151 370 C176 457 222 501 287 501 C302 501 310 489 310 466 C310 458 314 454 322 454 C330 454 334 458 334 466 C334 495 321 510 296 510 C225 510 176 467 151 381 C151 381 151 400 151 400 C151 400 151 500 151 500 C151 500 147 500 147 500 C147 500 46 463 46 463 C46 463 46 443 46 443 L46 443 Z M231 593 C231 593 374 791 374 791 C374 791 377 789 377 789 C377 789 238 576 238 576 C236 574 233 569 231 569 C227 569 225 572 224 576 C224 576 224 576 224 576 C224 576 84 789 84 789 C84 789 87 791 87 791 C87 791 231 593 231 593 L231 593 Z " />
<glyph glyph-name="Sacute" unicode="&#x15a;" horiz-adv-x="540" d="M280 814 C280 814 416 940 416 940 C467 987 492 1011 492 1012 C492 1018 488 1022 482 1022 C481 1022 456 997 407 949 C407 949 277 817 277 817 C277 817 280 814 280 814 L280 814 Z M455 553 C455 553 455 641 455 641 C455 641 455 756 455 756 C455 756 440 756 440 756 C440 756 438 746 435 727 C433 711 419 703 395 716 C356 745 303 760 238 760 C133 760 80 702 80 588 C80 508 140 440 303 363 C435 302 483 241 483 164 C483 53 425 -3 310 -3 C258 -3 212 7 173 28 C173 28 174 28 174 28 C128 53 89 155 70 237 C70 237 55 237 55 237 C55 237 55 149 55 149 C55 149 55 4 55 4 C55 4 70 4 70 4 C70 4 72 16 75 40 C78 61 99 68 136 44 C182 8 240 -10 310 -10 C437 -10 501 51 501 171 C501 257 451 324 317 387 C156 461 97 525 97 597 C97 701 144 754 238 754 C260 754 281 752 300 749 C300 749 299 749 299 749 C301 749 303 748 305 748 C325 744 344 737 361 729 C361 729 323 741 323 741 C377 716 419 642 435 574 C438 560 440 553 440 553 C440 553 455 553 455 553 L455 553 Z M323 741 C323 741 300 749 300 749 C301 748 303 748 305 748 C311 746 317 744 323 741 C323 741 323 741 323 741 L323 741 Z " />
<glyph glyph-name="Scircumflex" unicode="&#x15c;" horiz-adv-x="540" d="M455 553 C455 553 455 641 455 641 C455 641 455 756 455 756 C455 756 440 756 440 756 C440 756 438 746 435 727 C433 711 419 703 395 716 C356 745 303 760 238 760 C133 760 80 702 80 588 C80 508 140 440 303 363 C435 302 483 241 483 164 C483 53 425 -3 310 -3 C258 -3 212 7 173 28 C173 28 174 28 174 28 C128 53 89 155 70 237 C70 237 55 237 55 237 C55 237 55 149 55 149 C55 149 55 4 55 4 C55 4 70 4 70 4 C70 4 72 16 75 40 C78 61 99 68 136 44 C182 8 240 -10 310 -10 C437 -10 501 51 501 171 C501 257 451 324 317 387 C156 461 97 525 97 597 C97 701 144 754 238 754 C260 754 281 752 300 749 C300 749 299 749 299 749 C301 749 303 748 305 748 C325 744 344 737 361 729 C361 729 323 741 323 741 C377 716 419 642 435 574 C438 560 440 553 440 553 C440 553 455 553 455 553 L455 553 Z M274 1007 C274 1007 418 809 418 809 C418 809 421 811 421 811 C421 811 281 1024 281 1024 C279 1026 276 1031 274 1031 C272 1031 269 1026 267 1024 C267 1024 127 811 127 811 C127 811 130 809 130 809 C130 809 274 1007 274 1007 L274 1007 Z M323 741 C323 741 300 749 300 749 C301 748 303 748 305 748 C311 746 317 744 323 741 C323 741 323 741 323 741 L323 741 Z " />
<glyph glyph-name="Scaron" unicode="&#x160;" horiz-adv-x="540" d="M455 553 C455 553 455 641 455 641 C455 641 455 756 455 756 C455 756 440 756 440 756 C440 756 438 746 435 727 C433 711 419 703 395 716 C356 745 303 760 238 760 C133 760 80 702 80 588 C80 508 140 440 303 363 C435 302 483 241 483 164 C483 53 425 -3 310 -3 C258 -3 212 7 173 28 C173 28 174 28 174 28 C128 53 89 155 70 237 C70 237 55 237 55 237 C55 237 55 149 55 149 C55 149 55 4 55 4 C55 4 70 4 70 4 C70 4 72 16 75 40 C78 61 99 68 136 44 C182 8 240 -10 310 -10 C437 -10 501 51 501 171 C501 257 451 324 317 387 C156 461 97 525 97 597 C97 701 144 754 238 754 C260 754 281 752 300 749 C300 749 299 749 299 749 C301 749 303 748 305 748 C325 744 344 737 361 729 C361 729 323 741 323 741 C377 716 419 642 435 574 C438 560 440 553 440 553 C440 553 455 553 455 553 L455 553 Z M274 843 C274 843 418 1041 418 1041 C418 1041 421 1039 421 1039 C421 1039 281 826 281 826 C279 824 276 819 274 819 C272 819 269 824 267 826 C267 826 127 1039 127 1039 C127 1039 130 1041 130 1041 C130 1041 274 843 274 843 L274 843 Z M323 741 C323 741 300 749 300 749 C301 748 303 748 305 748 C311 746 317 744 323 741 C323 741 323 741 323 741 L323 741 Z " />
<glyph glyph-name="scaron" unicode="&#x161;" horiz-adv-x="431" d="M352 356 C352 356 352 424 352 424 C352 424 352 510 352 510 C352 510 332 510 332 510 C332 510 332 481 332 481 C332 477 314 481 278 496 C278 496 277 496 277 496 C254 505 227 510 197 510 C120 510 81 472 81 396 C81 333 125 285 244 242 C333 210 366 168 366 108 C366 33 326 -5 248 -5 C231 -5 215 -3 200 0 C131 17 96 86 96 147 C96 147 96 163 96 163 C96 163 76 163 76 163 C76 163 76 96 76 96 C76 96 76 11 76 11 C76 11 96 11 96 11 C96 11 96 32 96 32 C96 31 122 21 173 2 C173 2 173 2 173 2 C195 -6 220 -10 248 -10 C337 -10 382 31 382 114 C382 178 347 224 253 258 C138 300 96 345 96 403 C96 471 130 505 197 505 C210 505 223 504 234 501 C234 501 197 505 197 505 C216 505 234 503 250 499 C250 499 234 501 234 501 C299 486 332 429 332 372 C332 372 332 356 332 356 C332 356 352 356 352 356 L352 356 Z M248 593 C248 593 392 791 392 791 C392 791 395 789 395 789 C395 789 255 576 255 576 C254 574 251 569 248 569 C246 569 243 574 241 576 C241 576 102 789 102 789 C102 789 104 791 104 791 C104 791 248 593 248 593 L248 593 Z " />
<glyph glyph-name="Tcaron" unicode="&#x164;" horiz-adv-x="775" d="M757 642 C745 677 733 711 720 745 C720 745 720 750 720 750 C720 750 718 750 718 750 C713 763 709 776 704 789 C704 789 700 789 694 790 C694 790 683 790 683 790 C683 790 688 777 688 777 C695 759 691 750 598 750 C598 750 399 750 399 750 C399 750 376 750 376 750 C376 750 177 750 177 750 C84 750 80 759 87 777 C87 777 92 790 92 790 C92 790 81 790 81 790 C75 789 71 789 71 789 C66 776 62 763 57 750 C57 750 55 750 55 750 C55 750 55 745 55 745 C42 711 30 677 18 642 C20 642 29 639 37 639 C37 639 48 669 48 669 C66 719 82 744 175 744 C175 744 376 744 376 744 C376 744 376 80 376 80 C376 24 351 20 301 20 C301 20 271 20 271 20 C271 20 271 0 271 0 C271 0 504 0 504 0 C504 0 504 20 504 20 C504 20 474 20 474 20 C424 20 399 24 399 80 C399 80 399 744 399 744 C399 744 600 744 600 744 C693 744 709 719 727 669 C727 669 738 639 738 639 C740 639 750 640 757 642 L757 642 Z M388 843 C388 843 531 1041 531 1041 C531 1041 534 1039 534 1039 C534 1039 395 826 395 826 C393 824 390 819 388 819 C385 819 382 824 380 826 C380 826 241 1039 241 1039 C241 1039 244 1041 244 1041 C244 1041 388 843 388 843 L388 843 Z " />
<glyph glyph-name="tcaron" unicode="&#x165;" horiz-adv-x="306" d="M269 500 C269 500 115 500 115 500 C115 500 115 620 115 620 C115 620 114 620 114 620 C114 620 30 500 30 500 C30 500 30 490 30 490 C30 490 95 490 95 490 C95 490 95 103 95 103 C95 13 129 -10 196 -10 C228 -10 262 8 296 45 C296 45 294 46 294 46 C266 15 234 -1 202 -1 C143 -1 114 19 114 98 C114 98 115 489 115 489 C115 489 269 489 269 489 C269 489 269 500 269 500 L269 500 Z M341 652 C353 708 359 743 359 757 C359 759 356 759 350 759 C345 759 337 703 331 654 C331 654 316 543 316 543 C316 543 319 543 319 543 C319 543 341 652 341 652 L341 652 Z " />
<glyph glyph-name="Utilde" unicode="&#x168;" horiz-adv-x="643" d="M186 870 C186 917 202 941 234 941 C303 941 350 876 418 876 C457 876 476 901 476 951 C476 951 472 951 472 951 C472 911 456 891 423 891 C354 891 307 956 238 956 C201 956 182 927 182 870 C182 870 186 870 186 870 L186 870 Z M401 730 C401 730 431 730 431 730 C481 730 506 725 506 665 C506 665 506 164 506 164 C457 58 371 4 249 4 C185 4 152 77 152 220 C152 220 152 665 152 665 C152 665 152 750 152 750 C152 750 24 750 24 750 C24 750 24 730 24 730 C24 730 54 730 54 730 C104 730 129 725 129 665 C129 665 129 220 129 220 C129 67 166 -10 240 -10 C366 -10 456 45 506 153 C506 153 506 110 506 110 C506 110 506 0 506 0 C506 0 510 0 510 0 C510 0 633 55 633 55 C633 55 633 65 633 65 C536 60 529 62 529 110 C529 110 529 665 529 665 C529 665 529 750 529 750 C529 750 401 750 401 750 C401 750 401 730 401 730 L401 730 Z " />
<glyph glyph-name="utilde" unicode="&#x169;" horiz-adv-x="523" d="M120 620 C120 667 136 691 168 691 C237 691 284 626 353 626 C391 626 410 651 410 701 C410 701 407 701 407 701 C407 661 390 641 358 641 C289 641 242 706 173 706 C136 706 117 677 117 620 C117 620 120 620 120 620 L120 620 Z M503 35 C503 35 473 28 473 28 C436 19 418 20 418 94 C418 94 418 465 418 465 C418 465 418 500 418 500 C418 500 332 500 332 500 C332 500 332 480 332 480 C332 480 362 480 362 480 C386 480 398 479 398 465 C398 465 398 129 398 129 C364 46 311 4 239 4 C166 4 129 56 129 160 C129 160 129 465 129 465 C129 465 129 500 129 500 C129 500 43 500 43 500 C43 500 43 480 43 480 C43 480 73 480 73 480 C97 480 109 479 109 465 C109 465 109 160 109 160 C109 47 150 -10 230 -10 C306 -10 362 35 398 123 C398 123 398 90 398 90 C398 90 398 -10 398 -10 C398 -10 402 -10 402 -10 C402 -10 503 15 503 15 C503 15 503 35 503 35 L503 35 Z " />
<glyph glyph-name="Umacron" unicode="&#x16a;" horiz-adv-x="643" d="M179 907 C179 907 479 907 479 907 C479 907 479 920 479 920 C479 920 179 920 179 920 C179 920 179 907 179 907 L179 907 Z M401 730 C401 730 431 730 431 730 C481 730 506 725 506 665 C506 665 506 164 506 164 C457 58 371 4 249 4 C185 4 152 77 152 220 C152 220 152 665 152 665 C152 665 152 750 152 750 C152 750 24 750 24 750 C24 750 24 730 24 730 C24 730 54 730 54 730 C104 730 129 725 129 665 C129 665 129 220 129 220 C129 67 166 -10 240 -10 C366 -10 456 45 506 153 C506 153 506 110 506 110 C506 110 506 0 506 0 C506 0 510 0 510 0 C510 0 633 55 633 55 C633 55 633 65 633 65 C536 60 529 62 529 110 C529 110 529 665 529 665 C529 665 529 750 529 750 C529 750 401 750 401 750 C401 750 401 730 401 730 L401 730 Z " />
<glyph glyph-name="umacron" unicode="&#x16b;" horiz-adv-x="523" d="M114 657 C114 657 414 657 414 657 C414 657 414 670 414 670 C414 670 114 670 114 670 C114 670 114 657 114 657 L114 657 Z M503 35 C503 35 473 28 473 28 C436 19 418 20 418 94 C418 94 418 465 418 465 C418 465 418 500 418 500 C418 500 332 500 332 500 C332 500 332 480 332 480 C332 480 362 480 362 480 C386 480 398 479 398 465 C398 465 398 129 398 129 C364 46 311 4 239 4 C166 4 129 56 129 160 C129 160 129 465 129 465 C129 465 129 500 129 500 C129 500 43 500 43 500 C43 500 43 480 43 480 C43 480 73 480 73 480 C97 480 109 479 109 465 C109 465 109 160 109 160 C109 47 150 -10 230 -10 C306 -10 362 35 398 123 C398 123 398 90 398 90 C398 90 398 -10 398 -10 C398 -10 402 -10 402 -10 C402 -10 503 15 503 15 C503 15 503 35 503 35 L503 35 Z " />
<glyph glyph-name="Ubreve" unicode="&#x16c;" horiz-adv-x="643" d="M213 995 C214 934 253 904 329 904 C405 904 444 934 445 994 C445 994 441 995 441 995 C440 945 402 919 329 919 C256 919 218 945 217 995 C217 995 213 995 213 995 L213 995 Z M401 730 C401 730 431 730 431 730 C481 730 506 725 506 665 C506 665 506 164 506 164 C457 58 371 4 249 4 C185 4 152 77 152 220 C152 220 152 665 152 665 C152 665 152 750 152 750 C152 750 24 750 24 750 C24 750 24 730 24 730 C24 730 54 730 54 730 C104 730 129 725 129 665 C129 665 129 220 129 220 C129 67 166 -10 240 -10 C366 -10 456 45 506 153 C506 153 506 110 506 110 C506 110 506 0 506 0 C506 0 510 0 510 0 C510 0 633 55 633 55 C633 55 633 65 633 65 C536 60 529 62 529 110 C529 110 529 665 529 665 C529 665 529 750 529 750 C529 750 401 750 401 750 C401 750 401 730 401 730 L401 730 Z " />
<glyph glyph-name="ubreve" unicode="&#x16d;" horiz-adv-x="523" d="M148 745 C149 684 188 654 264 654 C339 654 378 684 379 744 C379 744 375 745 375 745 C374 695 336 669 264 669 C191 669 153 695 152 745 C152 745 148 745 148 745 L148 745 Z M503 35 C503 35 473 28 473 28 C436 19 418 20 418 94 C418 94 418 465 418 465 C418 465 418 500 418 500 C418 500 332 500 332 500 C332 500 332 480 332 480 C332 480 362 480 362 480 C386 480 398 479 398 465 C398 465 398 129 398 129 C364 46 311 4 239 4 C166 4 129 56 129 160 C129 160 129 465 129 465 C129 465 129 500 129 500 C129 500 43 500 43 500 C43 500 43 480 43 480 C43 480 73 480 73 480 C97 480 109 479 109 465 C109 465 109 160 109 160 C109 47 150 -10 230 -10 C306 -10 362 35 398 123 C398 123 398 90 398 90 C398 90 398 -10 398 -10 C398 -10 402 -10 402 -10 C402 -10 503 15 503 15 C503 15 503 35 503 35 L503 35 Z " />
<glyph glyph-name="Uring" unicode="&#x16e;" horiz-adv-x="643" d="M329 815 C275 815 239 851 239 905 C239 965 269 995 329 995 C389 995 419 965 419 905 C419 851 383 815 329 815 L329 815 Z M233 905 C233 848 272 810 329 810 C386 810 425 848 425 905 C425 968 393 1000 329 1000 C265 1000 233 968 233 905 L233 905 Z M401 730 C401 730 431 730 431 730 C481 730 506 725 506 665 C506 665 506 164 506 164 C457 58 371 4 249 4 C185 4 152 77 152 220 C152 220 152 665 152 665 C152 665 152 750 152 750 C152 750 24 750 24 750 C24 750 24 730 24 730 C24 730 54 730 54 730 C104 730 129 725 129 665 C129 665 129 220 129 220 C129 67 166 -10 240 -10 C366 -10 456 45 506 153 C506 153 506 110 506 110 C506 110 506 0 506 0 C506 0 510 0 510 0 C510 0 633 55 633 55 C633 55 633 65 633 65 C536 60 529 62 529 110 C529 110 529 665 529 665 C529 665 529 750 529 750 C529 750 401 750 401 750 C401 750 401 730 401 730 L401 730 Z " />
<glyph glyph-name="uring" unicode="&#x16f;" horiz-adv-x="523" d="M264 565 C210 565 174 601 174 655 C174 715 204 745 264 745 C323 745 353 715 353 655 C353 601 317 565 264 565 L264 565 Z M168 655 C168 598 206 560 264 560 C321 560 359 598 359 655 C359 718 327 750 264 750 C200 750 168 718 168 655 L168 655 Z M503 35 C503 35 473 28 473 28 C436 19 418 20 418 94 C418 94 418 465 418 465 C418 465 418 500 418 500 C418 500 332 500 332 500 C332 500 332 480 332 480 C332 480 362 480 362 480 C386 480 398 479 398 465 C398 465 398 129 398 129 C364 46 311 4 239 4 C166 4 129 56 129 160 C129 160 129 465 129 465 C129 465 129 500 129 500 C129 500 43 500 43 500 C43 500 43 480 43 480 C43 480 73 480 73 480 C97 480 109 479 109 465 C109 465 109 160 109 160 C109 47 150 -10 230 -10 C306 -10 362 35 398 123 C398 123 398 90 398 90 C398 90 398 -10 398 -10 C398 -10 402 -10 402 -10 C402 -10 503 15 503 15 C503 15 503 35 503 35 L503 35 Z " />
<glyph glyph-name="Wcircumflex" unicode="&#x174;" horiz-adv-x="1022" d="M1006 750 C1006 750 917 750 917 750 C917 750 908 750 908 750 C908 750 743 750 743 750 C743 750 743 730 743 730 C743 730 767 730 767 730 C854 730 896 722 869 620 C869 620 692 33 692 33 C692 33 536 642 536 642 C536 642 537 640 537 640 C515 724 552 730 629 730 C629 730 653 730 653 730 C653 730 653 750 653 750 C653 750 508 750 508 750 C508 750 483 750 483 750 C483 750 393 750 393 750 C393 750 393 730 393 730 C393 730 423 730 423 730 C466 730 489 727 498 690 C498 690 499 689 499 689 C515 626 531 563 547 500 C547 500 547 500 547 500 C547 500 323 28 323 28 C323 28 323 28 323 28 C323 28 158 610 158 610 C158 610 158 610 158 610 C127 722 163 730 239 730 C239 730 263 730 263 730 C263 730 263 750 263 750 C263 750 118 750 118 750 C118 750 94 750 94 750 C94 750 34 750 34 750 C34 750 34 730 34 730 C34 730 72 730 72 730 C89 730 100 723 129 622 C188 412 246 200 305 -10 C305 -10 311 -10 311 -10 C311 -10 550 490 550 490 C593 323 636 156 679 -10 C679 -10 685 -10 685 -10 C685 -10 874 610 874 610 C874 610 875 610 875 610 C908 722 933 730 976 730 C976 730 1006 730 1006 730 C1006 730 1006 750 1006 750 L1006 750 Z M506 1007 C506 1007 650 809 650 809 C650 809 652 811 652 811 C652 811 513 1024 513 1024 C511 1026 508 1031 506 1031 C503 1031 500 1026 499 1024 C499 1024 359 811 359 811 C359 811 362 809 362 809 C362 809 506 1007 506 1007 L506 1007 Z " />
<glyph glyph-name="Ycircumflex" unicode="&#x176;" horiz-adv-x="665" d="M220 750 C220 750 115 750 115 750 C115 750 88 750 88 750 C88 750 35 750 35 750 C35 750 35 730 35 730 C35 730 72 730 72 730 C91 730 105 722 168 610 C168 610 168 610 168 610 C168 610 325 336 325 336 C325 336 325 80 325 80 C325 24 300 20 250 20 C250 20 220 20 220 20 C220 20 220 0 220 0 C220 0 452 0 452 0 C452 0 452 20 452 20 C452 20 422 20 422 20 C372 20 347 24 347 80 C347 80 347 336 347 336 C347 336 498 610 498 610 C498 610 498 610 498 610 C559 722 582 730 618 730 C618 730 649 730 649 730 C649 730 649 750 649 750 C649 750 575 750 575 750 C575 750 564 750 564 750 C564 750 459 750 459 750 C459 750 459 730 459 730 C459 730 484 730 484 730 C527 730 547 723 507 645 C507 645 345 344 345 344 C345 344 185 626 185 626 C133 723 151 730 195 730 C195 730 220 730 220 730 C220 730 220 750 220 750 L220 750 Z M336 1007 C336 1007 480 809 480 809 C480 809 483 811 483 811 C483 811 343 1024 343 1024 C342 1026 339 1031 336 1031 C334 1031 331 1026 329 1024 C329 1024 190 811 190 811 C190 811 192 809 192 809 C192 809 336 1007 336 1007 L336 1007 Z " />
<glyph glyph-name="Ydieresis" unicode="&#x178;" horiz-adv-x="665" d="M400 865 C413 865 420 872 420 885 C420 898 413 905 400 905 C387 905 380 898 380 885 C380 872 387 865 400 865 L400 865 Z M273 865 C286 865 293 872 293 885 C293 898 286 905 273 905 C260 905 253 898 253 885 C253 872 260 865 273 865 L273 865 Z M220 750 C220 750 115 750 115 750 C115 750 88 750 88 750 C88 750 35 750 35 750 C35 750 35 730 35 730 C35 730 72 730 72 730 C91 730 105 722 168 610 C168 610 168 610 168 610 C168 610 325 336 325 336 C325 336 325 80 325 80 C325 24 300 20 250 20 C250 20 220 20 220 20 C220 20 220 0 220 0 C220 0 452 0 452 0 C452 0 452 20 452 20 C452 20 422 20 422 20 C372 20 347 24 347 80 C347 80 347 336 347 336 C347 336 498 610 498 610 C498 610 498 610 498 610 C559 722 582 730 618 730 C618 730 649 730 649 730 C649 730 649 750 649 750 C649 750 575 750 575 750 C575 750 564 750 564 750 C564 750 459 750 459 750 C459 750 459 730 459 730 C459 730 484 730 484 730 C527 730 547 723 507 645 C507 645 345 344 345 344 C345 344 185 626 185 626 C133 723 151 730 195 730 C195 730 220 730 220 730 C220 730 220 750 220 750 L220 750 Z " />
<glyph glyph-name="Zacute" unicode="&#x179;" horiz-adv-x="652" d="M346 814 C346 814 482 940 482 940 C533 987 558 1011 558 1012 C558 1018 554 1022 548 1022 C547 1022 522 997 473 949 C473 949 343 817 343 817 C343 817 346 814 346 814 L346 814 Z M71 574 C71 574 78 604 78 604 C96 692 113 739 219 744 C219 744 584 745 584 745 C584 745 25 5 25 5 C25 5 25 0 25 0 C25 0 49 0 49 0 C49 0 446 0 446 0 C446 0 606 0 606 0 C620 53 633 105 645 158 C643 158 634 161 626 161 C626 161 609 117 609 117 C583 48 561 11 470 7 C470 7 53 5 53 5 C53 5 610 745 610 745 C610 745 610 750 610 750 C610 750 588 750 588 750 C588 750 240 750 240 750 C240 750 70 750 70 750 C66 721 62 692 58 664 C58 664 46 577 46 577 C49 577 61 576 71 574 L71 574 Z " />
<glyph glyph-name="Zdotaccent" unicode="&#x17b;" horiz-adv-x="652" d="M340 865 C353 865 360 872 360 885 C360 898 353 905 340 905 C327 905 320 898 320 885 C320 872 327 865 340 865 L340 865 Z M71 574 C71 574 78 604 78 604 C96 692 113 739 219 744 C219 744 584 745 584 745 C584 745 25 5 25 5 C25 5 25 0 25 0 C25 0 49 0 49 0 C49 0 446 0 446 0 C446 0 606 0 606 0 C620 53 633 105 645 158 C643 158 634 161 626 161 C626 161 609 117 609 117 C583 48 561 11 470 7 C470 7 53 5 53 5 C53 5 610 745 610 745 C610 745 610 750 610 750 C610 750 588 750 588 750 C588 750 240 750 240 750 C240 750 70 750 70 750 C66 721 62 692 58 664 C58 664 46 577 46 577 C49 577 61 576 71 574 L71 574 Z " />
<glyph glyph-name="zdotaccent" unicode="&#x17c;" horiz-adv-x="475" d="M265 615 C278 615 285 622 285 635 C285 648 278 655 265 655 C252 655 245 648 245 635 C245 622 252 615 265 615 L265 615 Z M62 394 C62 394 74 394 74 394 C74 394 90 424 90 424 C113 467 132 491 215 494 C215 494 411 495 411 495 C411 495 40 5 40 5 C40 5 40 0 40 0 C40 0 61 0 61 0 C61 0 415 0 415 0 C415 0 430 0 430 0 C436 36 439 72 445 106 C445 106 435 106 435 106 C435 106 421 76 421 76 C400 33 381 9 285 6 C285 6 65 5 65 5 C65 5 435 495 435 495 C435 495 435 500 435 500 C435 500 415 500 415 500 C415 500 135 500 135 500 C123 500 112 508 116 523 C116 523 121 540 121 540 C121 540 101 540 101 540 C87 491 74 443 62 394 C62 394 62 394 62 394 L62 394 Z " />
<glyph glyph-name="Zcaron" unicode="&#x17d;" horiz-adv-x="652" d="M71 574 C71 574 78 604 78 604 C96 692 113 739 219 744 C219 744 584 745 584 745 C584 745 25 5 25 5 C25 5 25 0 25 0 C25 0 49 0 49 0 C49 0 446 0 446 0 C446 0 606 0 606 0 C620 53 633 105 645 158 C643 158 634 161 626 161 C626 161 609 117 609 117 C583 48 561 11 470 7 C470 7 53 5 53 5 C53 5 610 745 610 745 C610 745 610 750 610 750 C610 750 588 750 588 750 C588 750 240 750 240 750 C240 750 70 750 70 750 C66 721 62 692 58 664 C58 664 46 577 46 577 C49 577 61 576 71 574 L71 574 Z M340 843 C340 843 484 1041 484 1041 C484 1041 487 1039 487 1039 C487 1039 347 826 347 826 C345 824 342 819 340 819 C338 819 335 824 333 826 C333 826 193 1039 193 1039 C193 1039 196 1041 196 1041 C196 1041 340 843 340 843 L340 843 Z " />
<glyph glyph-name="zcaron" unicode="&#x17e;" horiz-adv-x="475" d="M62 394 C62 394 74 394 74 394 C74 394 90 424 90 424 C113 467 132 491 215 494 C215 494 411 495 411 495 C411 495 40 5 40 5 C40 5 40 0 40 0 C40 0 61 0 61 0 C61 0 415 0 415 0 C415 0 430 0 430 0 C436 36 439 72 445 106 C445 106 435 106 435 106 C435 106 421 76 421 76 C400 33 381 9 285 6 C285 6 65 5 65 5 C65 5 435 495 435 495 C435 495 435 500 435 500 C435 500 415 500 415 500 C415 500 135 500 135 500 C123 500 112 508 116 523 C116 523 121 540 121 540 C121 540 101 540 101 540 C87 491 74 443 62 394 C62 394 62 394 62 394 L62 394 Z M265 593 C265 593 409 791 409 791 C409 791 412 789 412 789 C412 789 272 576 272 576 C270 574 267 569 265 569 C263 569 260 574 258 576 C258 576 118 789 118 789 C118 789 121 791 121 791 C121 791 265 593 265 593 L265 593 Z " />
<glyph glyph-name="SmallLetterOwithogon" unicode="&#x1eb;" horiz-adv-x="685" d="M910 -53 C910 -53 909 -51 909 -51 C876 -79 798 -93 678 -93 C543 -93 429 -65 338 -10 C338 -10 338 -10 338 -10 C535 -10 635 91 635 292 C635 492 539 593 348 593 C164 593 71 492 71 292 C71 107 222 7 315 -8 C421 -75 542 -109 675 -109 C786 -109 865 -90 910 -53 L910 -53 Z M339 -5 C336 -5 332 -5 329 -5 C329 -4 328 -4 328 -4 C328 -4 327 -4 327 -4 C243 5 94 104 94 292 C94 489 179 588 347 588 C523 588 612 489 612 292 C612 95 520 -5 339 -5 C339 -5 339 -5 339 -5 L339 -5 Z " />
<glyph glyph-name="CapitalLetterAwithdo" unicode="&#x226;" horiz-adv-x="716" d="M394 865 C407 865 414 872 414 885 C414 898 407 905 394 905 C381 905 374 898 374 885 C374 872 381 865 394 865 L394 865 Z M463 0 C463 0 598 0 598 0 C598 0 622 0 622 0 C622 0 711 0 711 0 C711 0 711 20 711 20 C711 20 681 20 681 20 C640 20 616 27 584 128 C584 128 405 743 405 743 C405 743 397 770 397 770 C397 770 395 770 395 770 C382 751 378 742 383 743 C383 743 386 733 386 733 C386 733 197 157 197 157 C153 29 115 20 47 20 C47 20 17 20 17 20 C17 20 17 0 17 0 C17 0 145 0 145 0 C145 0 152 0 152 0 C152 0 317 0 317 0 C317 0 317 20 317 20 C317 20 294 20 294 20 C207 20 165 29 201 152 C201 152 247 294 247 294 C247 294 513 294 513 294 C513 294 563 120 563 120 C586 27 553 20 488 20 C488 20 463 20 463 20 C463 20 463 0 463 0 L463 0 Z M249 299 C249 299 388 726 388 726 C388 726 511 299 511 299 C511 299 249 299 249 299 L249 299 Z " />
<glyph glyph-name="LETTERSMALLCAPITALG" unicode="&#x262;" horiz-adv-x="671" d="M550 397 C550 397 550 487 550 487 C550 487 550 583 550 583 C550 583 535 583 535 583 C535 583 533 573 530 555 C529 547 504 551 456 571 C424 586 382 593 319 593 C154 593 71 492 71 292 C71 91 153 -10 315 -10 C373 -10 420 -4 465 7 C432 -1 383 -5 316 -5 C316 -5 474 14 474 14 C428 1 379 -5 316 -5 C169 -5 94 95 94 292 C94 489 170 588 321 588 C354 588 381 586 404 581 C467 564 514 488 530 418 C533 404 535 397 535 397 C535 397 550 397 550 397 L550 397 Z M615 253 C615 253 409 253 409 253 C409 253 409 233 409 233 C409 233 439 233 439 233 C486 233 509 229 509 173 C509 173 510 38 510 38 C509 31 505 26 499 21 C491 18 482 16 474 14 C474 14 490 16 490 16 C484 13 477 10 469 8 C478 11 488 13 497 17 C497 17 510 18 510 18 C510 18 530 22 530 22 C530 22 530 28 530 28 C555 38 581 49 609 62 C609 62 608 65 608 65 C580 52 555 41 530 32 C530 32 530 173 530 173 C530 229 548 233 585 233 C585 233 615 233 615 233 C615 233 615 253 615 253 L615 253 Z M397 582 C397 582 394 583 394 583 C395 583 396 583 397 582 L397 582 Z M465 7 C466 7 467 8 469 8 C467 8 466 7 465 7 L465 7 Z " />
<glyph glyph-name="LETTERSMALLCAPITALI" unicode="&#x26a;" horiz-adv-x="345" d="M305 583 C305 583 75 583 75 583 C75 583 75 563 75 563 C75 563 105 563 105 563 C155 563 180 559 180 503 C180 503 180 80 180 80 C180 24 155 20 105 20 C105 20 75 20 75 20 C75 20 75 0 75 0 C75 0 305 0 305 0 C305 0 305 20 305 20 C305 20 275 20 275 20 C225 20 200 24 200 80 C200 80 200 503 200 503 C200 559 225 563 275 563 C275 563 305 563 305 563 C305 563 305 583 305 583 L305 583 Z " />
<glyph glyph-name="LETTERSMALLCAPITALN" unicode="&#x274;" horiz-adv-x="674" d="M77 563 C77 563 114 563 114 563 C126 563 134 562 144 554 C144 554 143 124 143 124 C138 28 106 20 48 20 C48 20 18 20 18 20 C18 20 18 0 18 0 C18 0 143 0 143 0 C143 0 150 0 150 0 C150 0 275 0 275 0 C275 0 275 20 275 20 C275 20 245 20 245 20 C187 20 155 27 150 112 C150 112 149 550 149 550 C154 545 160 538 166 528 C166 528 166 528 166 528 C166 528 508 22 508 22 C508 22 524 0 524 0 C524 0 528 0 528 0 C528 0 529 463 529 463 C529 463 529 463 529 463 C529 556 561 563 624 563 C624 563 654 563 654 563 C654 563 654 583 654 583 C654 583 529 583 529 583 C529 583 523 583 523 583 C523 583 398 583 398 583 C398 583 398 563 398 563 C398 563 428 563 428 563 C491 563 523 556 523 463 C523 463 523 463 523 463 C523 463 524 28 524 28 C524 28 521 31 521 31 C521 31 153 583 153 583 C153 583 149 583 149 583 C149 583 144 583 144 583 C144 583 129 583 129 583 C129 583 77 583 77 583 C77 583 77 563 77 563 L77 563 Z " />
<glyph glyph-name="LETTERSMALLCAPITALR" unicode="&#x280;" horiz-adv-x="573" d="M60 563 C60 563 90 563 90 563 C140 563 165 558 165 498 C165 498 165 85 165 85 C165 25 140 20 90 20 C90 20 60 20 60 20 C60 20 60 0 60 0 C60 0 290 0 290 0 C290 0 290 20 290 20 C290 20 260 20 260 20 C210 20 185 25 185 85 C185 85 185 291 185 291 C185 291 297 291 297 291 C303 277 345 201 424 62 C461 -4 452 0 563 0 C563 0 563 4 563 4 C475 4 482 0 447 62 C373 194 330 271 318 291 C409 295 455 329 455 421 C455 529 402 583 298 583 C298 583 185 583 185 583 C185 583 60 583 60 583 C60 583 60 563 60 563 L60 563 Z M185 579 C185 579 292 579 292 579 C386 579 433 527 433 425 C433 334 394 300 315 296 C315 297 315 297 315 297 C315 297 311 296 311 296 C307 296 303 296 298 296 C298 296 185 296 185 296 C185 296 185 498 185 498 C185 498 185 579 185 579 L185 579 Z " />
<glyph glyph-name="LETTERSMALLCAPITALY" unicode="&#x28f;" horiz-adv-x="587" d="M218 583 C218 583 113 583 113 583 C113 583 89 583 89 583 C89 583 36 583 36 583 C36 583 36 563 36 563 C36 563 73 563 73 563 C92 563 106 555 175 443 C175 443 175 443 175 443 C175 443 287 261 287 261 C287 261 287 80 287 80 C287 24 262 20 212 20 C212 20 182 20 182 20 C182 20 182 0 182 0 C182 0 412 0 412 0 C412 0 412 20 412 20 C412 20 382 20 382 20 C332 20 307 24 307 80 C307 80 307 261 307 261 C307 261 415 444 415 444 C415 444 415 443 415 443 C481 555 504 563 540 563 C540 563 571 563 571 563 C571 563 571 583 571 583 C571 583 497 583 497 583 C497 583 487 583 487 583 C487 583 382 583 382 583 C382 583 382 563 382 563 C382 563 407 563 407 563 C452 563 470 556 419 466 C419 466 413 455 413 455 C413 454 412 454 412 453 C412 453 412 453 412 453 C412 453 305 267 305 267 C305 267 190 457 190 457 C132 556 150 563 193 563 C193 563 218 563 218 563 C218 563 218 583 218 583 L218 583 Z " />
<glyph glyph-name="LETTERSMALLCAPITALB" unicode="&#x299;" horiz-adv-x="497" d="M60 0 C60 0 185 0 185 0 C185 0 305 0 305 0 C406 0 457 16 457 151 C457 251 414 301 330 301 C411 313 452 360 452 442 C452 536 431 583 245 583 C245 583 185 583 185 583 C185 583 60 583 60 583 C60 583 60 563 60 563 C60 563 90 563 90 563 C140 563 165 558 165 498 C165 498 165 85 165 85 C165 25 140 20 90 20 C90 20 60 20 60 20 C60 20 60 0 60 0 L60 0 Z M185 579 C185 579 237 579 237 579 C412 579 432 532 432 440 C432 348 382 301 284 301 C284 301 185 301 185 301 C185 301 185 498 185 498 C185 498 185 579 185 579 L185 579 Z M286 298 C286 298 317 298 317 298 C395 298 435 249 435 151 C435 19 390 4 300 4 C300 4 250 4 250 4 C207 4 185 30 185 80 C185 80 185 85 185 85 C185 85 185 298 185 298 C185 298 286 298 286 298 L286 298 Z " />
<glyph glyph-name="LETTERSMALLCAPITALH" unicode="&#x29c;" horiz-adv-x="710" d="M671 583 C671 583 441 583 441 583 C441 583 441 563 441 563 C441 563 471 563 471 563 C521 563 546 559 546 503 C546 503 546 301 546 301 C546 301 221 301 221 301 C221 301 221 503 221 503 C221 559 246 563 296 563 C296 563 326 563 326 563 C326 563 326 583 326 583 C326 583 96 583 96 583 C96 583 96 563 96 563 C96 563 126 563 126 563 C176 563 201 559 201 503 C201 503 201 80 201 80 C201 24 176 20 126 20 C126 20 96 20 96 20 C96 20 96 0 96 0 C96 0 326 0 326 0 C326 0 326 20 326 20 C326 20 296 20 296 20 C246 20 221 24 221 80 C221 80 221 295 221 295 C221 295 546 295 546 295 C546 295 546 80 546 80 C546 24 521 20 471 20 C471 20 441 20 441 20 C441 20 441 0 441 0 C441 0 671 0 671 0 C671 0 671 20 671 20 C671 20 641 20 641 20 C591 20 566 24 566 80 C566 80 566 503 566 503 C566 559 591 563 641 563 C641 563 671 563 671 563 C671 563 671 583 671 583 L671 583 Z " />
<glyph glyph-name="LETTERSMALLCAPITALL" unicode="&#x29f;" horiz-adv-x="535" d="M460 3 C460 3 460 3 460 3 C474 56 489 112 503 165 C501 165 492 168 484 168 C484 168 476 138 476 138 C452 49 428 4 278 3 C278 3 200 29 200 80 C200 80 200 85 200 85 C200 85 200 498 200 498 C200 558 225 563 275 563 C275 563 305 563 305 563 C305 563 305 583 305 583 C305 583 200 583 200 583 C200 583 180 583 180 583 C180 583 75 583 75 583 C75 583 75 563 75 563 C75 563 105 563 105 563 C155 563 180 558 180 498 C180 498 180 85 180 85 C180 25 155 20 105 20 C105 20 75 20 75 20 C75 20 75 0 75 0 C75 0 180 0 180 0 C180 0 200 0 200 0 C200 0 274 0 274 0 C274 0 459 0 459 0 C459 0 460 3 460 3 L460 3 Z " />
<glyph glyph-name="LETTERSMALLCAPITALA" unicode="&#x1d00;" horiz-adv-x="644" d="M394 0 C394 0 529 0 529 0 C529 0 550 0 550 0 C550 0 638 0 638 0 C638 0 638 20 638 20 C638 20 608 20 608 20 C569 20 545 27 515 111 C515 111 366 578 366 578 C366 578 359 603 359 603 C359 603 356 603 356 603 C344 586 341 577 346 578 C346 578 350 567 350 567 C350 567 194 137 194 137 C150 28 112 20 48 20 C48 20 18 20 18 20 C18 20 18 0 18 0 C18 0 145 0 145 0 C145 0 152 0 152 0 C152 0 317 0 317 0 C317 0 317 20 317 20 C317 20 293 20 293 20 C209 20 167 29 205 150 C205 150 233 228 233 228 C233 228 457 228 457 228 C457 228 489 127 489 127 C516 27 484 20 418 20 C418 20 394 20 394 20 C394 20 394 0 394 0 L394 0 Z M235 233 C235 233 351 561 351 561 C351 561 455 233 455 233 C455 233 235 233 235 233 L235 233 Z " />
<glyph glyph-name="LETTERSMALLCAPITALC" unicode="&#x1d04;" horiz-adv-x="598" d="M550 397 C550 397 550 487 550 487 C550 487 550 583 550 583 C550 583 535 583 535 583 C535 583 533 573 530 555 C529 547 504 551 456 571 C424 586 382 593 319 593 C154 593 71 492 71 292 C71 91 151 -10 310 -10 C367 -10 409 -3 443 11 C443 11 445 11 445 11 C495 32 525 24 530 6 C535 -13 538 -23 538 -23 C538 -23 550 -23 550 -23 C550 -23 550 96 550 96 C550 96 550 186 550 186 C550 186 535 186 535 186 C535 186 533 179 530 165 C516 104 478 36 432 13 C400 1 362 -5 312 -5 C167 -5 94 95 94 292 C94 489 170 588 321 588 C354 588 381 586 404 581 C467 564 514 488 530 418 C533 404 535 397 535 397 C535 397 550 397 550 397 L550 397 Z M397 582 C397 582 394 583 394 583 C395 583 396 583 397 582 L397 582 Z " />
<glyph glyph-name="LETTERSMALLCAPITALD" unicode="&#x1d05;" horiz-adv-x="695" d="M60 0 C60 0 165 0 165 0 C165 0 185 0 185 0 C185 0 241 0 241 0 C507 0 641 79 641 292 C641 485 541 583 269 583 C269 583 185 583 185 583 C185 583 165 583 165 583 C165 583 60 583 60 583 C60 583 60 563 60 563 C60 563 90 563 90 563 C140 563 165 558 165 498 C165 498 165 85 165 85 C165 25 140 20 90 20 C90 20 60 20 60 20 C60 20 60 0 60 0 L60 0 Z M185 579 C185 579 253 579 253 579 C520 579 618 483 618 292 C618 81 489 4 235 4 C185 4 185 30 185 80 C185 80 185 85 185 85 C185 85 185 498 185 498 C185 498 185 579 185 579 L185 579 Z " />
<glyph glyph-name="LETTERSMALLCAPITALE" unicode="&#x1d07;" horiz-adv-x="532" d="M444 454 C442 497 439 541 435 583 C435 583 315 583 315 583 C315 583 185 583 185 583 C185 583 165 583 165 583 C165 583 60 583 60 583 C60 583 60 563 60 563 C60 563 90 563 90 563 C140 563 165 558 165 498 C165 498 165 85 165 85 C165 25 140 20 90 20 C90 20 60 20 60 20 C60 20 60 0 60 0 C60 0 165 0 165 0 C165 0 185 0 185 0 C185 0 340 0 340 0 C340 0 460 0 460 0 C466 42 472 87 478 129 C478 129 458 129 458 129 C458 129 454 99 454 99 C445 36 434 4 341 4 C341 4 265 4 265 4 C185 4 185 30 185 80 C185 80 185 85 185 85 C185 85 185 299 185 299 C185 299 255 299 255 299 C348 299 355 262 355 189 C355 189 355 159 355 159 C355 159 375 159 375 159 C375 159 375 299 375 299 C375 299 375 304 375 304 C375 304 375 444 375 444 C375 444 355 444 355 444 C355 444 355 414 355 414 C355 341 348 304 255 304 C255 304 185 304 185 304 C185 304 185 498 185 498 C185 498 185 579 185 579 C185 579 315 579 315 579 C427 579 418 543 423 472 C423 472 424 454 424 454 C424 454 444 454 444 454 L444 454 Z " />
<glyph glyph-name="LETTERSMALLCAPITALJ" unicode="&#x1d0a;" horiz-adv-x="345" d="M305 583 C305 583 75 583 75 583 C75 583 75 563 75 563 C75 563 105 563 105 563 C155 563 180 559 180 503 C180 503 180 3 180 3 C180 -198 123 -213 73 -213 C62 -213 68 -196 58 -196 C51 -196 48 -199 48 -206 C48 -215 55 -220 68 -220 C130 -220 200 -202 200 41 C200 41 200 503 200 503 C200 559 225 563 275 563 C275 563 305 563 305 563 C305 563 305 583 305 583 L305 583 Z " />
<glyph glyph-name="LETTERSMALLCAPITALK" unicode="&#x1d0b;" horiz-adv-x="587" d="M567 20 C567 20 529 20 529 20 C499 20 454 49 418 85 C418 85 418 85 418 85 C418 85 201 304 201 304 C201 304 364 494 364 494 C422 558 448 563 488 563 C488 563 518 563 518 563 C518 563 518 583 518 583 C518 583 440 583 440 583 C440 583 432 583 432 583 C432 583 292 583 292 583 C292 583 292 563 292 563 C292 563 315 563 315 563 C376 563 404 556 334 467 C334 467 185 292 185 292 C185 292 185 523 185 523 C185 560 210 563 260 563 C260 563 290 563 290 563 C290 563 290 583 290 583 C290 583 185 583 185 583 C185 583 165 583 165 583 C165 583 60 583 60 583 C60 583 60 563 60 563 C60 563 90 563 90 563 C140 563 165 560 165 523 C165 523 165 60 165 60 C165 23 140 20 90 20 C90 20 60 20 60 20 C60 20 60 0 60 0 C60 0 165 0 165 0 C165 0 185 0 185 0 C185 0 290 0 290 0 C290 0 290 20 290 20 C290 20 260 20 260 20 C210 20 185 23 185 60 C185 60 185 292 185 292 C185 292 478 0 478 0 C478 0 502 0 502 0 C502 0 567 0 567 0 C567 0 567 20 567 20 L567 20 Z " />
<glyph glyph-name="LETTERSMALLCAPITALM" unicode="&#x1d0d;" horiz-adv-x="753" d="M42 563 C42 563 72 563 72 563 C111 563 136 560 157 531 C157 531 143 126 143 126 C134 28 103 20 44 20 C44 20 14 20 14 20 C14 20 14 0 14 0 C14 0 138 0 138 0 C138 0 145 0 145 0 C145 0 270 0 270 0 C270 0 270 20 270 20 C270 20 241 20 241 20 C178 20 146 28 150 140 C150 140 150 141 150 141 C150 141 162 523 162 523 C165 519 168 513 171 508 C244 338 316 169 390 0 C390 0 395 0 395 0 C395 0 615 566 615 566 C615 566 631 85 631 85 C631 85 631 85 631 85 C633 25 607 20 556 20 C556 20 526 20 526 20 C526 20 526 0 526 0 C526 0 634 0 634 0 C634 0 654 0 654 0 C654 0 756 0 756 0 C756 0 756 20 756 20 C756 20 726 20 726 20 C677 20 653 25 651 85 C651 85 651 85 651 85 C651 85 639 429 639 429 C636 554 661 563 709 563 C709 563 738 563 738 563 C738 563 738 583 738 583 C738 583 633 583 633 583 C633 583 621 583 621 583 C621 583 614 583 614 583 C614 583 400 25 400 25 C400 25 400 27 400 27 C400 27 164 579 164 579 C164 579 164 583 164 583 C164 583 162 583 162 583 C162 583 159 583 159 583 C159 583 138 583 138 583 C138 583 42 583 42 583 C42 583 42 563 42 563 L42 563 Z " />
<glyph glyph-name="LETTERSMALLCAPITALO" unicode="&#x1d0f;" horiz-adv-x="690" d="M339 -5 C176 -5 94 95 94 292 C94 489 179 588 347 588 C523 588 612 489 612 292 C612 95 520 -5 339 -5 L339 -5 Z M71 292 C71 91 161 -10 338 -10 C535 -10 635 91 635 292 C635 492 539 593 348 593 C164 593 71 492 71 292 L71 292 Z " />
<glyph glyph-name="LETTERSMALLCAPITALP" unicode="&#x1d18;" horiz-adv-x="435" d="M65 563 C65 563 95 563 95 563 C145 563 170 558 170 498 C170 498 170 85 170 85 C170 25 145 20 95 20 C95 20 65 20 65 20 C65 20 65 0 65 0 C65 0 170 0 170 0 C170 0 190 0 190 0 C190 0 295 0 295 0 C295 0 295 20 295 20 C295 20 265 20 265 20 C215 20 190 25 190 85 C190 85 190 280 190 280 C190 280 225 280 225 280 C351 280 415 313 415 422 C415 529 363 583 260 583 C260 583 190 583 190 583 C190 583 170 583 170 583 C170 583 65 583 65 583 C65 583 65 563 65 563 L65 563 Z M190 284 C190 284 190 498 190 498 C190 498 190 580 190 580 C190 580 255 580 255 580 C349 580 396 528 396 425 C396 317 339 284 225 284 C225 284 190 284 190 284 L190 284 Z " />
<glyph glyph-name="LETTERSMALLCAPITALT" unicode="&#x1d1b;" horiz-adv-x="715" d="M37 473 C37 473 48 503 48 503 C66 553 82 578 175 578 C175 578 347 578 347 578 C347 578 347 80 347 80 C347 24 322 20 272 20 C272 20 242 20 242 20 C242 20 242 0 242 0 C242 0 473 0 473 0 C473 0 473 20 473 20 C473 20 443 20 443 20 C393 20 368 24 368 80 C368 80 368 578 368 578 C368 578 540 578 540 578 C633 578 649 553 667 503 C667 503 678 473 678 473 C678 473 697 475 697 475 C686 510 673 545 660 579 C660 579 660 583 660 583 C660 583 659 583 659 583 C654 596 649 610 644 623 C644 623 624 623 624 623 C624 623 628 610 628 610 C635 592 631 583 538 583 C538 583 368 583 368 583 C368 583 347 583 347 583 C347 583 177 583 177 583 C84 583 80 592 87 610 C87 610 91 623 91 623 C91 623 71 623 71 623 C66 610 61 596 56 583 C56 583 55 583 55 583 C55 583 55 579 55 579 C42 545 29 510 18 475 C18 475 37 473 37 473 L37 473 Z " />
<glyph glyph-name="LETTERSMALLCAPITALU" unicode="&#x1d1c;" horiz-adv-x="565" d="M325 563 C325 563 355 563 355 563 C405 563 430 558 430 498 C430 498 430 145 430 145 C386 51 311 3 207 3 C169 3 150 70 150 202 C150 202 150 498 150 498 C150 498 150 583 150 583 C150 583 25 583 25 583 C25 583 25 563 25 563 C25 563 55 563 55 563 C105 563 130 558 130 498 C130 498 130 202 130 202 C130 61 153 -10 199 -10 C307 -10 385 39 430 136 C430 136 430 110 430 110 C430 110 430 0 430 0 C430 0 433 0 433 0 C433 0 554 55 554 55 C554 55 554 65 554 65 C457 60 450 62 450 110 C450 110 450 498 450 498 C450 498 450 583 450 583 C450 583 325 583 325 583 C325 583 325 563 325 563 L325 563 Z " />
<glyph glyph-name="LETTERSMALLCAPITALV" unicode="&#x1d20;" horiz-adv-x="638" d="M282 583 C282 583 117 583 117 583 C117 583 94 583 94 583 C94 583 36 583 36 583 C36 583 36 563 36 563 C36 563 73 563 73 563 C90 563 99 561 110 535 C110 535 283 30 283 30 C283 30 297 -10 297 -10 C297 -10 301 -10 301 -10 C301 -10 478 443 478 443 C478 443 479 443 479 443 C522 555 547 563 591 563 C591 563 621 563 621 563 C621 563 621 583 621 583 C621 583 533 583 533 583 C533 583 525 583 525 583 C525 583 360 583 360 583 C360 583 360 563 360 563 C360 563 384 563 384 563 C473 563 515 555 471 443 C471 443 471 443 471 443 C471 443 313 31 313 31 C313 31 166 444 166 444 C166 444 167 443 167 443 C129 555 171 563 259 563 C259 563 282 563 282 563 C282 563 282 583 282 583 L282 583 Z " />
<glyph glyph-name="LETTERSMALLCAPITALW" unicode="&#x1d21;" horiz-adv-x="899" d="M883 583 C883 583 795 583 795 583 C795 583 787 583 787 583 C787 583 622 583 622 583 C622 583 622 563 622 563 C622 563 645 563 645 563 C732 563 774 556 743 454 C743 454 600 28 600 28 C600 28 600 29 600 29 C600 29 474 486 474 486 C458 558 495 563 567 563 C567 563 592 563 592 563 C592 563 592 583 592 583 C592 583 447 583 447 583 C447 583 423 583 423 583 C423 583 334 583 334 583 C334 583 334 563 334 563 C334 563 364 563 364 563 C403 563 426 560 437 531 C450 484 464 436 477 388 C477 388 291 25 291 25 C291 25 155 461 155 461 C131 556 166 563 237 563 C237 563 262 563 262 563 C262 563 262 583 262 583 C262 583 117 583 117 583 C117 583 94 583 94 583 C94 583 35 583 35 583 C35 583 35 563 35 563 C35 563 73 563 73 563 C88 563 99 557 123 487 C173 322 224 156 273 -10 C273 -10 279 -10 279 -10 C279 -10 479 380 479 380 C515 250 551 120 587 -10 C587 -10 593 -10 593 -10 C593 -10 757 472 757 472 C789 556 813 563 853 563 C853 563 883 563 883 563 C883 563 883 583 883 583 L883 583 Z " />
<glyph glyph-name="LETTERSMALLCAPITALZ" unicode="&#x1d22;" horiz-adv-x="592" d="M47 0 C47 0 386 0 386 0 C386 0 546 0 546 0 C558 52 573 104 585 158 C583 158 573 159 566 161 C566 161 549 117 549 117 C521 43 498 6 387 6 C387 6 387 5 387 5 C387 5 51 4 51 4 C51 4 550 579 550 579 C550 579 550 583 550 583 C550 583 530 583 530 583 C530 583 240 583 240 583 C240 583 70 583 70 583 C62 526 54 469 46 411 C49 411 61 410 71 408 C71 408 78 438 78 438 C96 526 114 573 221 578 C221 578 526 579 526 579 C526 579 25 4 25 4 C25 4 25 0 25 0 C25 0 47 0 47 0 L47 0 Z " />
<glyph glyph-name="Wgrave" unicode="&#x1e80;" horiz-adv-x="1022" d="M1006 750 C1006 750 917 750 917 750 C917 750 908 750 908 750 C908 750 743 750 743 750 C743 750 743 730 743 730 C743 730 767 730 767 730 C854 730 896 722 869 620 C869 620 692 33 692 33 C692 33 536 642 536 642 C536 642 537 640 537 640 C515 724 552 730 629 730 C629 730 653 730 653 730 C653 730 653 750 653 750 C653 750 508 750 508 750 C508 750 483 750 483 750 C483 750 393 750 393 750 C393 750 393 730 393 730 C393 730 423 730 423 730 C466 730 489 727 498 690 C498 690 499 689 499 689 C515 626 531 563 547 500 C547 500 547 500 547 500 C547 500 323 28 323 28 C323 28 323 28 323 28 C323 28 158 610 158 610 C158 610 158 610 158 610 C127 722 163 730 239 730 C239 730 263 730 263 730 C263 730 263 750 263 750 C263 750 118 750 118 750 C118 750 94 750 94 750 C94 750 34 750 34 750 C34 750 34 730 34 730 C34 730 72 730 72 730 C89 730 100 723 129 622 C188 412 246 200 305 -10 C305 -10 311 -10 311 -10 C311 -10 550 490 550 490 C593 323 636 156 679 -10 C679 -10 685 -10 685 -10 C685 -10 874 610 874 610 C874 610 875 610 875 610 C908 722 933 730 976 730 C976 730 1006 730 1006 730 C1006 730 1006 750 1006 750 L1006 750 Z M382 949 C336 997 311 1022 308 1022 C302 1022 298 1018 298 1012 C298 1009 323 985 373 940 C373 940 510 814 510 814 C510 814 512 817 512 817 C512 817 382 949 382 949 L382 949 Z " />
<glyph glyph-name="Wacute" unicode="&#x1e82;" horiz-adv-x="1022" d="M511 814 C511 814 648 940 648 940 C698 987 724 1011 724 1012 C724 1018 720 1022 714 1022 C712 1022 687 997 639 949 C639 949 509 817 509 817 C509 817 511 814 511 814 L511 814 Z M1006 750 C1006 750 917 750 917 750 C917 750 908 750 908 750 C908 750 743 750 743 750 C743 750 743 730 743 730 C743 730 767 730 767 730 C854 730 896 722 869 620 C869 620 692 33 692 33 C692 33 536 642 536 642 C536 642 537 640 537 640 C515 724 552 730 629 730 C629 730 653 730 653 730 C653 730 653 750 653 750 C653 750 508 750 508 750 C508 750 483 750 483 750 C483 750 393 750 393 750 C393 750 393 730 393 730 C393 730 423 730 423 730 C466 730 489 727 498 690 C498 690 499 689 499 689 C515 626 531 563 547 500 C547 500 547 500 547 500 C547 500 323 28 323 28 C323 28 323 28 323 28 C323 28 158 610 158 610 C158 610 158 610 158 610 C127 722 163 730 239 730 C239 730 263 730 263 730 C263 730 263 750 263 750 C263 750 118 750 118 750 C118 750 94 750 94 750 C94 750 34 750 34 750 C34 750 34 730 34 730 C34 730 72 730 72 730 C89 730 100 723 129 622 C188 412 246 200 305 -10 C305 -10 311 -10 311 -10 C311 -10 550 490 550 490 C593 323 636 156 679 -10 C679 -10 685 -10 685 -10 C685 -10 874 610 874 610 C874 610 875 610 875 610 C908 722 933 730 976 730 C976 730 1006 730 1006 730 C1006 730 1006 750 1006 750 L1006 750 Z " />
<glyph glyph-name="Wdieresis" unicode="&#x1e84;" horiz-adv-x="1022" d="M569 865 C582 865 589 872 589 885 C589 898 582 905 569 905 C556 905 549 898 549 885 C549 872 556 865 569 865 L569 865 Z M442 865 C455 865 462 872 462 885 C462 898 455 905 442 905 C429 905 422 898 422 885 C422 872 429 865 442 865 L442 865 Z M1006 750 C1006 750 917 750 917 750 C917 750 908 750 908 750 C908 750 743 750 743 750 C743 750 743 730 743 730 C743 730 767 730 767 730 C854 730 896 722 869 620 C869 620 692 33 692 33 C692 33 536 642 536 642 C536 642 537 640 537 640 C515 724 552 730 629 730 C629 730 653 730 653 730 C653 730 653 750 653 750 C653 750 508 750 508 750 C508 750 483 750 483 750 C483 750 393 750 393 750 C393 750 393 730 393 730 C393 730 423 730 423 730 C466 730 489 727 498 690 C498 690 499 689 499 689 C515 626 531 563 547 500 C547 500 547 500 547 500 C547 500 323 28 323 28 C323 28 323 28 323 28 C323 28 158 610 158 610 C158 610 158 610 158 610 C127 722 163 730 239 730 C239 730 263 730 263 730 C263 730 263 750 263 750 C263 750 118 750 118 750 C118 750 94 750 94 750 C94 750 34 750 34 750 C34 750 34 730 34 730 C34 730 72 730 72 730 C89 730 100 723 129 622 C188 412 246 200 305 -10 C305 -10 311 -10 311 -10 C311 -10 550 490 550 490 C593 323 636 156 679 -10 C679 -10 685 -10 685 -10 C685 -10 874 610 874 610 C874 610 875 610 875 610 C908 722 933 730 976 730 C976 730 1006 730 1006 730 C1006 730 1006 750 1006 750 L1006 750 Z " />
<glyph glyph-name="CapitalLetterEWITHTI" unicode="&#x1ebc;" horiz-adv-x="594" d="M187 870 C187 917 203 941 235 941 C304 941 351 876 420 876 C458 876 477 901 477 951 C477 951 474 951 474 951 C474 911 457 891 425 891 C356 891 309 956 240 956 C203 956 184 927 184 870 C184 870 187 870 187 870 L187 870 Z M506 620 C502 663 499 707 497 750 C497 750 377 750 377 750 C377 750 187 750 187 750 C187 750 164 750 164 750 C164 750 59 750 59 750 C59 750 59 730 59 730 C59 730 89 730 89 730 C139 730 164 725 164 665 C164 665 164 85 164 85 C164 25 139 20 89 20 C89 20 59 20 59 20 C59 20 59 0 59 0 C59 0 164 0 164 0 C164 0 187 0 187 0 C187 0 402 0 402 0 C402 0 522 0 522 0 C528 43 534 86 540 130 C540 130 520 130 520 130 C520 130 516 100 516 100 C507 37 496 5 402 5 C402 5 267 5 267 5 C187 5 187 30 187 80 C187 80 187 85 187 85 C187 85 187 385 187 385 C187 385 317 385 317 385 C410 385 417 348 417 275 C417 275 417 245 417 245 C417 245 437 245 437 245 C437 245 437 385 437 385 C437 385 437 390 437 390 C437 390 437 530 437 530 C437 530 417 530 417 530 C417 530 417 500 417 500 C417 427 410 390 317 390 C317 390 187 390 187 390 C187 390 187 665 187 665 C187 665 187 745 187 745 C187 745 377 745 377 745 C489 745 480 709 485 638 C485 638 486 620 486 620 C486 620 506 620 506 620 L506 620 Z " />
<glyph glyph-name="Ygrave" unicode="&#x1ef2;" horiz-adv-x="665" d="M220 750 C220 750 115 750 115 750 C115 750 88 750 88 750 C88 750 35 750 35 750 C35 750 35 730 35 730 C35 730 72 730 72 730 C91 730 105 722 168 610 C168 610 168 610 168 610 C168 610 325 336 325 336 C325 336 325 80 325 80 C325 24 300 20 250 20 C250 20 220 20 220 20 C220 20 220 0 220 0 C220 0 452 0 452 0 C452 0 452 20 452 20 C452 20 422 20 422 20 C372 20 347 24 347 80 C347 80 347 336 347 336 C347 336 498 610 498 610 C498 610 498 610 498 610 C559 722 582 730 618 730 C618 730 649 730 649 730 C649 730 649 750 649 750 C649 750 575 750 575 750 C575 750 564 750 564 750 C564 750 459 750 459 750 C459 750 459 730 459 730 C459 730 484 730 484 730 C527 730 547 723 507 645 C507 645 345 344 345 344 C345 344 185 626 185 626 C133 723 151 730 195 730 C195 730 220 730 220 730 C220 730 220 750 220 750 L220 750 Z M213 949 C167 997 142 1022 138 1022 C132 1022 128 1018 128 1012 C128 1009 153 985 204 940 C204 940 341 814 341 814 C341 814 343 817 343 817 C343 817 213 949 213 949 L213 949 Z " />
<glyph glyph-name="quoteleft" unicode="&#x2018;" horiz-adv-x="448" d="" />
<glyph glyph-name="quoteright" unicode="&#x2019;" horiz-adv-x="40" d="" />
<glyph glyph-name="quotedblleft" unicode="&#x201c;" horiz-adv-x="448" d="M137 621 C143 621 146 624 146 631 C146 637 143 640 137 640 C137 640 137 653 137 653 C133 653 131 649 131 641 C131 687 146 723 177 749 C177 749 167 760 167 760 C139 737 125 696 125 638 C125 627 129 621 137 621 L137 621 Z " />
<glyph glyph-name="quotedblright" unicode="&#x201d;" horiz-adv-x="448" d="M143 744 C143 675 139 638 132 632 C132 632 143 621 143 621 C147 624 149 667 149 748 C149 756 145 760 137 760 C131 760 128 757 128 751 C128 744 131 741 137 741 C137 741 137 728 137 728 C141 728 143 733 143 744 C143 744 143 744 143 744 L143 744 Z " />
<glyph glyph-name="Euro" unicode="&#x20ac;" horiz-adv-x="725" d="M677 536 C677 536 677 626 677 626 C677 626 677 741 677 741 C677 741 662 741 662 741 C662 741 660 731 657 713 C654 695 626 693 576 724 C576 724 575 724 575 724 C535 748 486 760 408 760 C227 760 131 644 122 414 C122 414 57 414 57 414 C57 414 55 400 55 400 C55 400 121 400 121 400 C121 392 121 383 121 375 C121 367 121 358 121 350 C121 350 55 350 55 350 C55 350 53 336 53 336 C53 336 122 336 122 336 C131 106 224 -10 397 -10 C474 -10 527 3 571 28 C571 28 572 28 572 28 C572 28 615 31 657 34 C662 35 665 25 665 4 C665 4 677 4 677 4 C677 4 677 124 677 124 C677 124 677 214 677 214 C677 214 662 214 662 214 C645 139 608 52 547 23 C547 23 547 23 547 23 C508 4 462 -5 399 -5 C239 -5 154 110 146 336 C146 336 460 336 460 336 C460 336 462 350 462 350 C462 350 145 350 145 350 C145 358 145 367 145 375 C145 383 145 392 145 400 C145 400 462 400 462 400 C462 400 464 414 464 414 C464 414 146 414 146 414 C155 640 243 754 410 754 C461 754 499 748 531 737 C531 737 527 738 527 738 C590 717 640 631 657 557 C660 543 662 536 662 536 C662 536 677 536 677 536 L677 536 Z " />
<glyph glyph-name="LETTERSMALLCAPITALF" unicode="&#xa730;" horiz-adv-x="507" d="M446 457 C442 500 439 542 435 583 C435 583 315 583 315 583 C315 583 185 583 185 583 C185 583 165 583 165 583 C165 583 60 583 60 583 C60 583 60 563 60 563 C60 563 90 563 90 563 C140 563 165 558 165 498 C165 498 165 85 165 85 C165 25 140 20 90 20 C90 20 60 20 60 20 C60 20 60 0 60 0 C60 0 165 0 165 0 C165 0 185 0 185 0 C185 0 290 0 290 0 C290 0 290 20 290 20 C290 20 260 20 260 20 C210 20 185 25 185 85 C185 85 185 295 185 295 C185 295 289 295 289 295 C337 284 344 253 349 200 C349 200 353 154 353 154 C353 154 365 154 365 154 C365 154 365 295 365 295 C365 295 365 299 365 299 C365 299 365 440 365 440 C365 440 353 440 353 440 C353 440 349 394 349 394 C344 331 334 299 245 299 C245 299 185 299 185 299 C185 299 185 498 185 498 C185 498 185 580 185 580 C185 580 235 580 235 580 C403 580 418 548 424 485 C424 485 426 455 426 455 C430 456 444 457 446 457 C446 457 446 457 446 457 L446 457 Z " />
<glyph glyph-name="LETTERSMALLCAPITALS" unicode="&#xa731;" horiz-adv-x="480" d="M395 411 C395 411 395 498 395 498 C395 498 395 593 395 593 C395 593 380 593 380 593 C380 593 378 583 375 565 C374 556 356 555 325 571 C325 571 323 571 323 571 C294 586 257 593 213 593 C125 593 80 548 80 459 C80 400 131 346 269 281 C382 228 424 180 424 124 C424 39 374 -4 275 -4 C238 -4 205 1 176 12 C176 12 179 11 179 11 C133 26 93 108 76 182 C73 197 71 204 71 204 C71 204 56 204 56 204 C56 204 56 116 56 116 C56 116 56 -29 56 -29 C56 -29 71 -29 71 -29 C71 -29 73 -17 76 7 C79 30 102 41 145 19 C180 0 224 -10 275 -10 C385 -10 441 37 441 130 C441 195 398 248 281 302 C146 366 96 415 96 467 C96 547 135 588 213 588 C217 588 220 588 224 588 C224 588 223 588 223 588 C225 588 228 588 230 588 C256 586 278 582 298 575 C298 575 255 583 255 583 C316 564 360 497 375 432 C378 418 380 411 380 411 C380 411 395 411 395 411 L395 411 Z M255 583 C255 583 224 588 224 588 C226 588 228 588 230 588 C239 587 247 585 255 583 C255 583 255 583 255 583 L255 583 Z " />
<glyph glyph-name="[namenotfound]" unicode="&#xf078;" horiz-adv-x="634" d="M616 583 C616 583 544 583 544 583 C544 583 535 583 535 583 C535 583 400 583 400 583 C400 583 400 563 400 563 C400 563 423 563 423 563 C485 563 512 555 449 456 C449 456 347 305 347 305 C347 305 258 443 258 443 C258 443 258 443 258 443 C185 555 210 563 268 563 C268 563 292 563 292 563 C292 563 292 583 292 583 C292 583 167 583 167 583 C167 583 143 583 143 583 C143 583 81 583 81 583 C81 583 81 563 81 563 C81 563 114 563 114 563 C140 563 159 556 221 463 C221 463 333 289 333 289 C333 289 202 108 202 108 C140 26 111 20 63 20 C63 20 33 20 33 20 C33 20 33 0 33 0 C33 0 124 0 124 0 C124 0 132 0 132 0 C132 0 317 0 317 0 C317 0 317 20 317 20 C317 20 295 20 295 20 C195 20 152 29 239 150 C239 150 239 150 239 150 C239 150 336 286 336 286 C336 286 430 140 430 140 C430 140 430 140 430 140 C503 28 478 20 420 20 C420 20 396 20 396 20 C396 20 396 0 396 0 C396 0 521 0 521 0 C521 0 545 0 545 0 C545 0 617 0 617 0 C617 0 617 20 617 20 C617 20 586 20 586 20 C552 20 530 27 466 122 C466 122 350 301 350 301 C350 301 427 414 427 414 C427 414 427 413 427 413 C521 553 547 563 585 563 C585 563 616 563 616 563 C616 563 616 583 616 583 L616 583 Z " />
</font>
</svg>
