<?xml version="1.0" encoding="UTF-8"?>
<svg xmlns="http://www.w3.org/2000/svg" xmlns:xlink="http://www.w3.org/1999/xlink" version="1.2" >
<font id="Aludra Thin Italic">
<font-face  font-family="Aludra" units-per-em="1024" ascent="975" descent="-300" font-style="normal" font-weight="100" font-stretch="normal" cap-height="750" x-height="500" underline-position="0" underline-thickness="0" />
<missing-glyph  horiz-adv-x="472" d="M0 700 C0 700 432 700 432 700 C432 700 432 0 432 0 C432 0 0 0 0 0 C0 0 0 700 0 700 L0 700 Z M50 50 C50 50 382 50 382 50 C382 50 382 650 382 650 C382 650 50 650 50 650 C50 650 50 50 50 50 L50 50 Z " />
<glyph glyph-name="NULL" d="" />
<glyph glyph-name="CR" unicode="&#xd;" horiz-adv-x="256" d="" />
<glyph glyph-name="space" unicode="&#x20;" horiz-adv-x="250" d="" />
<glyph glyph-name="exclam" unicode="&#x21;" horiz-adv-x="164" d="M81 -5 C94 -5 102 2 105 15 C107 28 102 35 88 35 C75 35 67 28 65 15 C62 2 68 -5 81 -5 L81 -5 Z M215 755 C204 755 199 733 191 688 C191 688 117 210 117 210 C117 210 121 210 121 210 C121 210 216 688 216 688 C225 733 227 755 215 755 L215 755 Z " />
<glyph glyph-name="quotedbl" unicode="&#x22;" horiz-adv-x="325" d="M880 750 C873 750 870 735 866 705 C866 705 848 560 848 560 C848 560 850 560 850 560 C850 560 883 705 883 705 C889 735 891 750 885 750 C885 750 880 750 880 750 L880 750 Z " />
<glyph glyph-name="numbersign" unicode="&#x23;" horiz-adv-x="525" d="M512 692 C512 692 442 468 442 468 C442 468 288 468 288 468 C288 468 358 692 358 692 C358 692 350 692 350 692 C350 692 280 468 280 468 C280 468 143 468 143 468 C143 468 138 452 138 452 C138 452 275 452 275 452 C275 452 198 208 198 208 C198 208 60 208 60 208 C60 208 55 192 55 192 C55 192 193 192 193 192 C193 192 133 0 133 0 C133 0 141 0 141 0 C141 0 201 192 201 192 C201 192 355 192 355 192 C355 192 295 0 295 0 C295 0 303 0 303 0 C303 0 363 192 363 192 C363 192 494 192 494 192 C494 192 499 208 499 208 C499 208 368 208 368 208 C368 208 445 452 445 452 C445 452 583 452 583 452 C583 452 588 468 588 468 C588 468 450 468 450 468 C450 468 520 692 520 692 C520 692 512 692 512 692 L512 692 Z M283 452 C283 452 437 452 437 452 C437 452 360 208 360 208 C360 208 206 208 206 208 C206 208 283 452 283 452 L283 452 Z " />
<glyph glyph-name="dollar" unicode="&#x24;" horiz-adv-x="540" d="M452 825 C452 825 439 754 439 754 C420 758 399 760 376 760 C376 760 387 825 387 825 C387 825 372 825 372 825 C372 825 361 760 361 760 C262 756 203 698 183 588 C172 522 203 464 298 403 C298 403 228 7 228 7 C210 12 193 19 178 28 C178 28 179 28 179 28 C145 48 118 138 108 212 C108 212 93 212 93 212 C83 158 78 130 78 130 C73 103 68 75 64 47 C64 47 79 47 79 47 C78 47 82 56 88 73 C91 79 111 70 148 41 C170 22 196 8 227 0 C227 0 214 -75 214 -75 C214 -75 228 -75 228 -75 C228 -75 241 -3 241 -3 C261 -8 282 -10 305 -10 C305 -10 294 -75 294 -75 C294 -75 308 -75 308 -75 C308 -75 320 -10 320 -10 C440 -6 511 55 531 171 C546 256 510 322 389 385 C389 385 452 742 452 742 C452 742 438 747 438 747 C438 747 376 392 376 392 C354 403 334 414 316 425 C316 425 374 754 374 754 C395 754 414 752 432 749 C432 749 431 749 431 749 C433 749 434 748 436 748 C437 748 438 748 438 747 C438 747 438 747 438 747 C443 746 448 744 452 742 C452 742 453 744 453 744 C466 740 478 735 489 729 C489 729 454 741 454 741 C503 716 533 645 542 578 C542 578 557 578 557 578 C561 602 566 626 570 650 C570 650 574 674 583 722 C583 722 568 722 568 722 C567 722 565 715 559 701 C557 696 545 700 523 715 C504 731 481 743 454 750 C454 750 467 825 467 825 C467 825 452 825 452 825 L452 825 Z M452 742 C452 742 452 742 452 742 C453 742 453 741 454 741 C454 741 452 742 452 742 L452 742 Z M438 747 C438 747 432 749 432 749 C433 748 434 748 436 748 C437 748 437 748 438 747 C438 747 438 747 438 747 L438 747 Z M311 394 C328 384 346 374 367 363 C368 362 369 362 371 361 C371 361 307 -3 307 -3 C283 -3 262 -1 242 4 C242 4 311 394 311 394 L311 394 Z M384 354 C492 296 525 237 512 164 C493 57 428 1 321 -3 C321 -3 384 354 384 354 L384 354 Z M303 434 C220 489 193 541 202 597 C220 697 272 750 359 754 C359 754 303 434 303 434 L303 434 Z " />
<glyph glyph-name="ampersand" unicode="&#x26;" horiz-adv-x="307" d="M394 471 C394 471 396 468 396 468 C491 496 545 545 558 614 C574 711 538 760 449 760 C346 760 285 709 267 607 C262 576 300 522 375 412 C375 412 553 150 553 150 C456 56 357 9 258 9 C140 9 91 76 115 210 C136 327 208 404 329 439 C329 439 326 440 326 440 C192 402 114 322 93 203 C68 62 118 -10 243 -10 C349 -10 453 42 556 145 C556 145 582 107 582 107 C635 29 674 -10 698 -10 C769 -10 821 43 853 149 C853 149 850 150 850 150 C821 54 774 6 709 6 C688 6 652 43 601 117 C601 117 572 160 572 160 C651 243 730 357 807 500 C807 500 802 500 802 500 C725 358 647 246 568 166 C568 166 394 422 394 422 C319 533 281 587 286 618 C302 709 356 755 448 755 C527 755 558 708 541 615 C529 544 480 495 394 471 C394 471 394 471 394 471 L394 471 Z " />
<glyph glyph-name="quotesingle" unicode="&#x27;" horiz-adv-x="204" d="" />
<glyph glyph-name="parenleft" unicode="&#x28;" horiz-adv-x="405" d="M454 760 C285 658 180 495 141 273 C104 60 149 -104 275 -214 C275 -214 277 -212 277 -212 C157 -108 117 54 155 273 C195 499 296 662 455 758 C455 758 454 760 454 760 L454 760 Z " />
<glyph glyph-name="parenright" unicode="&#x29;" horiz-adv-x="405" d="M162 758 C288 666 332 503 291 273 C250 40 152 -122 -2 -212 C-2 -212 -1 -214 -1 -214 C162 -119 265 44 305 273 C345 499 298 662 164 760 C164 760 162 758 162 758 L162 758 Z " />
<glyph glyph-name="asterisk" unicode="&#x2a;" horiz-adv-x="245" d="M149 631 C149 631 49 695 49 695 C44 698 41 697 39 694 C37 691 38 687 43 685 C43 685 149 631 149 631 C149 631 149 630 149 630 C149 630 149 629 149 629 C149 629 43 575 43 575 C33 571 39 559 49 565 C49 565 149 629 149 629 C149 629 144 510 144 510 C144 505 146 502 150 502 C154 502 156 505 156 510 C156 510 151 629 151 629 C151 629 251 565 251 565 C256 562 259 563 261 566 C263 569 262 573 257 575 C257 575 151 629 151 629 C151 629 151 630 151 630 C151 630 151 631 151 631 C151 631 257 685 257 685 C267 689 261 701 251 695 C251 695 151 631 151 631 C151 631 156 750 156 750 C156 755 154 758 150 758 C146 758 144 755 144 750 C144 750 149 631 149 631 L149 631 Z " />
<glyph glyph-name="plus" unicode="&#x2b;" horiz-adv-x="620" d="M383 460 C383 460 347 257 347 257 C347 257 145 257 145 257 C145 257 143 243 143 243 C143 243 345 243 345 243 C345 243 309 40 309 40 C309 40 325 40 325 40 C325 40 361 243 361 243 C361 243 563 243 563 243 C563 243 565 257 565 257 C565 257 363 257 363 257 C363 257 399 460 399 460 C399 460 383 460 383 460 L383 460 Z " />
<glyph glyph-name="comma" unicode="&#x2c;" horiz-adv-x="258" d="M185 54 C185 40 184 23 180 3 C168 -70 123 -106 46 -106 C46 -106 45 -111 45 -111 C127 -111 176 -70 190 10 C199 63 193 95 171 108 C165 113 156 115 145 115 C105 115 82 95 75 55 C68 15 84 -5 124 -5 C157 -5 178 15 185 54 C185 54 185 54 185 54 L185 54 Z " />
<glyph glyph-name="hyphen" unicode="&#x2d;" horiz-adv-x="430" d="M129 277 C129 277 399 277 399 277 C399 277 402 293 402 293 C402 293 132 293 132 293 C132 293 129 277 129 277 L129 277 Z " />
<glyph glyph-name="period" unicode="&#x2e;" horiz-adv-x="195" d="M124 -5 C137 -5 145 2 148 15 C150 28 144 35 131 35 C118 35 110 28 108 15 C105 2 111 -5 124 -5 L124 -5 Z " />
<glyph glyph-name="slash" unicode="&#x2f;" horiz-adv-x="369" d="M464 770 C464 770 32 -80 32 -80 C32 -80 44 -80 44 -80 C44 -80 476 770 476 770 C476 770 464 770 464 770 L464 770 Z " />
<glyph glyph-name="zero" unicode="0" horiz-adv-x="602" d="M305 -2 C159 -2 77 83 106 250 C133 401 232 502 393 502 C539 502 622 417 592 250 C565 99 466 -2 305 -2 L305 -2 Z M97 250 C67 77 153 -10 303 -10 C471 -10 574 95 601 250 C632 423 546 510 395 510 C228 510 124 405 97 250 L97 250 Z " />
<glyph glyph-name="one" unicode="1" horiz-adv-x="240" d="M289 500 C289 500 128 500 128 500 C127 490 125 488 125 480 C125 480 135 480 135 480 C175 480 194 479 192 465 C192 465 116 35 116 35 C114 21 94 20 54 20 C54 20 44 20 44 20 C43 16 41 2 40 0 C40 0 201 0 201 0 C201 0 204 20 204 20 C204 20 193 20 193 20 C154 20 134 21 136 35 C136 35 212 465 212 465 C214 479 235 480 274 480 C274 480 285 480 285 480 C286 484 288 498 289 500 L289 500 Z " />
<glyph glyph-name="two" unicode="2" horiz-adv-x="515" d="M103 292 C152 427 228 495 328 495 C431 495 473 442 454 337 C432 208 268 114 31 4 C31 4 30 0 30 0 C30 0 329 0 329 0 C329 0 420 0 420 0 C436 20 451 39 467 59 C463 60 452 62 451 63 C451 63 442 53 442 53 C424 30 407 18 304 18 C304 18 68 18 68 18 C298 127 454 222 475 341 C495 453 450 510 341 510 C233 510 152 437 99 293 C99 293 103 292 103 292 L103 292 Z " />
<glyph glyph-name="three" unicode="3" horiz-adv-x="400" d="M-21 -228 C-21 -228 -21 -232 -21 -232 C210 -208 337 -134 359 -11 C376 87 305 149 147 171 C147 171 116 159 116 159 C279 136 353 77 337 -16 C316 -134 196 -205 -21 -228 L-21 -228 Z M86 350 C86 350 90 349 90 349 C129 447 197 496 291 496 C385 496 425 456 411 375 C397 293 300 235 117 163 C117 163 116 159 116 159 C315 237 419 298 434 382 C448 467 404 510 301 510 C201 510 129 456 86 350 L86 350 Z " />
<glyph glyph-name="four" unicode="4" horiz-adv-x="620" d="M614 61 C614 61 594 61 594 61 C594 61 591 50 591 50 C584 27 572 15 470 15 C470 15 417 15 417 15 C448 187 478 358 508 530 C508 530 506 530 506 530 C506 530 16 4 16 4 C16 4 15 0 15 0 C15 0 395 0 395 0 C395 0 356 -220 356 -220 C356 -220 376 -220 376 -220 C389 -147 402 -73 415 0 C415 0 515 0 515 0 C571 0 572 -9 566 -28 C566 -28 563 -39 563 -39 C563 -39 583 -39 583 -39 C593 -6 604 27 614 61 C614 61 614 61 614 61 L614 61 Z M34 14 C34 14 482 494 482 494 C482 494 397 15 397 15 C397 15 36 15 36 15 C36 15 34 14 34 14 L34 14 Z " />
<glyph glyph-name="five" unicode="5" horiz-adv-x="421" d="M19 -231 C244 -204 372 -111 399 45 C424 188 337 260 138 260 C138 260 135 260 135 260 C135 260 222 482 222 482 C222 482 423 483 423 483 C424 486 425 489 427 492 C427 492 430 500 430 500 C430 500 430 500 430 500 C434 513 438 527 444 540 C444 540 424 540 424 540 C411 510 413 500 310 500 C310 500 221 500 221 500 C221 500 121 242 121 242 C121 242 124 239 124 239 C124 239 132 239 132 239 C321 239 404 172 381 38 C354 -113 233 -202 20 -227 C20 -227 19 -231 19 -231 L19 -231 Z " />
<glyph glyph-name="six" unicode="6" horiz-adv-x="565" d="M682 750 C349 682 159 525 116 283 C82 88 142 -10 296 -10 C440 -10 528 74 557 240 C583 387 515 461 354 461 C255 461 188 424 153 350 C219 555 397 688 682 747 C682 747 682 750 682 750 L682 750 Z M134 272 C156 394 228 456 350 456 C500 456 563 384 537 241 C509 78 428 -4 296 -4 C156 -4 102 89 134 272 L134 272 Z " />
<glyph glyph-name="seven" unicode="7" horiz-adv-x="440" d="M171 500 C171 500 168 500 168 500 C168 500 158 484 158 484 C158 484 161 484 161 484 C152 469 143 454 133 438 C133 438 153 438 153 438 C153 438 158 447 158 447 C174 472 185 484 231 484 C231 484 511 484 511 484 C511 484 515 484 515 484 C515 484 82 -220 82 -220 C82 -220 97 -220 97 -220 C97 -220 521 485 521 485 C521 485 524 500 524 500 C524 500 233 500 233 500 C194 500 196 508 205 522 C205 522 211 532 211 532 C211 532 191 532 191 532 C184 521 178 510 171 500 C171 500 171 500 171 500 L171 500 Z " />
<glyph glyph-name="eight" unicode="8" horiz-adv-x="543" d="M325 394 C328 392 332 391 335 389 C472 329 539 290 519 175 C498 56 417 -5 277 -5 C140 -5 81 55 102 174 C120 275 195 349 325 394 L325 394 Z M320 396 C181 348 102 273 84 174 C63 52 127 -10 276 -10 C426 -10 513 55 536 184 C556 302 492 343 361 401 C492 447 565 512 580 596 C599 705 542 760 410 760 C279 760 202 702 181 586 C167 502 214 445 320 396 L320 396 Z M356 403 C353 405 349 406 346 408 C235 456 184 511 199 594 C218 701 288 755 409 755 C530 755 582 701 563 595 C548 509 478 445 356 403 C356 403 356 403 356 403 L356 403 Z " />
<glyph glyph-name="nine" unicode="9" horiz-adv-x="565" d="M-28 -250 C305 -182 495 -25 538 217 C572 412 512 510 358 510 C214 510 126 426 97 260 C71 113 139 39 300 39 C401 39 468 77 502 154 C437 -54 259 -188 -29 -247 C-29 -247 -28 -250 -28 -250 L-28 -250 Z M520 228 C498 106 426 44 304 44 C154 44 91 116 116 259 C145 422 226 504 358 504 C498 504 552 411 520 228 L520 228 Z " />
<glyph glyph-name="colon" unicode="&#x3a;" horiz-adv-x="135" d="M193 385 C206 385 214 392 216 405 C219 418 213 425 200 425 C187 425 179 418 176 405 C174 392 180 385 193 385 L193 385 Z M124 -5 C137 -5 145 2 148 15 C150 28 144 35 131 35 C118 35 110 28 108 15 C105 2 111 -5 124 -5 L124 -5 Z " />
<glyph glyph-name="semicolon" unicode="&#x3b;" horiz-adv-x="258" d="M193 385 C206 385 214 392 216 405 C219 418 213 425 200 425 C187 425 179 418 176 405 C174 392 180 385 193 385 L193 385 Z M185 54 C185 40 184 23 180 3 C168 -70 123 -106 46 -106 C46 -106 45 -111 45 -111 C127 -111 176 -70 190 10 C199 63 193 95 171 108 C165 113 156 115 145 115 C105 115 82 95 75 55 C68 15 84 -5 124 -5 C157 -5 178 15 185 54 C185 54 185 54 185 54 L185 54 Z " />
<glyph glyph-name="equal" unicode="&#x3d;" horiz-adv-x="523" d="M109 204 C109 204 108 196 108 196 C108 196 488 196 488 196 C488 196 489 204 489 204 C489 204 109 204 109 204 L109 204 Z M127 304 C127 304 125 296 125 296 C125 296 505 296 505 296 C505 296 507 304 507 304 C507 304 127 304 127 304 L127 304 Z " />
<glyph glyph-name="question" unicode="&#x3f;" horiz-adv-x="309" d="M124 -5 C137 -5 145 2 148 15 C150 28 144 35 131 35 C118 35 110 28 108 15 C105 2 111 -5 124 -5 L124 -5 Z M145 145 C145 145 188 360 188 360 C274 360 303 393 359 460 C382 486 396 517 402 551 C427 690 385 760 279 760 C266 760 259 755 258 745 C256 738 259 735 267 735 C272 735 277 739 283 739 C380 739 418 675 396 549 C391 522 378 495 356 469 C306 410 280 380 185 380 C185 380 141 145 141 145 C141 145 145 145 145 145 L145 145 Z " />
<glyph glyph-name="at" unicode="&#x40;" horiz-adv-x="1121" d="M1046 0 C944 -160 767 -241 519 -241 C193 -241 58 -73 116 259 C175 591 369 759 695 759 C1020 759 1160 619 1112 343 C1072 116 984 2 850 2 C694 2 644 68 700 200 C700 200 819 480 819 480 C819 480 801 480 801 480 C801 480 754 370 754 370 C763 450 729 490 652 490 C479 490 374 393 341 201 C319 79 364 17 476 17 C553 17 616 62 665 152 C639 48 699 -5 845 -5 C992 -5 1087 112 1127 343 C1177 623 1032 764 696 764 C360 764 160 594 101 259 C42 -76 182 -246 518 -246 C768 -246 948 -163 1053 0 C1053 0 1046 0 1046 0 L1046 0 Z M747 355 C747 355 681 200 681 200 C633 86 568 28 488 28 C384 28 342 87 363 205 C396 390 492 484 651 484 C730 484 763 441 747 355 C747 355 747 355 747 355 L747 355 Z " />
<glyph glyph-name="A" unicode="A" horiz-adv-x="674" d="M481 0 C481 0 575 0 575 0 C575 0 599 0 599 0 C599 0 660 0 660 0 C660 2 663 12 663 20 C663 20 639 20 639 20 C611 20 596 28 583 140 C583 140 583 140 583 140 C583 140 513 743 513 743 C513 743 510 770 510 770 C510 770 508 770 508 770 C492 751 486 742 491 743 C491 743 492 733 492 733 C492 733 492 733 492 733 C492 733 209 170 209 170 C209 170 208 170 208 170 C138 30 108 20 60 20 C60 20 38 20 38 20 C37 16 35 2 34 0 C34 0 123 0 123 0 C123 0 129 0 129 0 C129 0 245 0 245 0 C246 4 248 18 249 20 C249 20 228 20 228 20 C172 20 147 29 205 152 C205 152 277 294 277 294 C277 294 542 294 542 294 C542 294 559 140 559 140 C559 140 559 140 559 140 C573 28 551 20 505 20 C505 20 484 20 484 20 C483 10 481 8 481 0 L481 0 Z M279 299 C279 299 493 725 493 725 C493 725 541 299 541 299 C541 299 279 299 279 299 L279 299 Z " />
<glyph glyph-name="B" unicode="B" horiz-adv-x="577" d="M82 0 C82 0 178 0 178 0 C178 0 298 0 298 0 C457 0 541 20 571 193 C593 316 540 381 412 387 C539 401 612 462 631 568 C652 689 636 750 396 750 C396 750 311 750 311 750 C311 750 310 746 310 746 C310 746 386 745 386 745 C614 745 630 685 609 566 C588 447 499 387 346 387 C346 387 247 387 247 387 C247 387 246 383 246 383 C246 383 347 383 347 383 C347 383 377 383 377 383 C512 383 569 319 547 193 C517 24 440 4 294 4 C294 4 244 4 244 4 C201 4 184 29 192 76 C192 76 178 0 178 0 C178 0 179 6 193 85 C193 85 296 665 296 665 C309 744 310 750 311 750 C311 750 215 750 215 750 C214 750 211 730 211 730 C211 730 222 730 222 730 C264 730 284 725 273 665 C273 665 171 85 171 85 C160 25 138 20 97 20 C97 20 86 20 86 20 C85 16 83 2 82 0 L82 0 Z M192 76 C192 77 193 79 193 80 C193 80 192 76 192 76 L192 76 Z " />
<glyph glyph-name="C" unicode="C" horiz-adv-x="675" d="M726 561 C730 583 734 604 738 626 C738 626 738 626 738 626 C738 626 738 626 738 626 C738 629 739 631 739 634 C739 634 743 659 752 707 C752 707 737 707 737 707 C737 707 734 700 728 687 C726 682 700 692 654 724 C654 724 652 724 652 724 C617 748 570 760 492 760 C301 760 182 631 137 375 C92 119 162 -10 346 -10 C422 -10 478 3 526 28 C526 28 527 28 527 28 C527 28 572 44 618 61 C623 63 625 56 622 40 C622 40 634 40 634 40 C638 64 643 89 647 114 C647 114 648 117 649 124 C649 124 649 124 649 124 C649 124 649 124 649 124 C651 136 655 157 660 189 C660 189 645 189 645 189 C645 189 643 184 638 174 C608 116 552 46 501 23 C501 23 502 23 502 23 C460 4 412 -5 349 -5 C180 -5 117 123 162 375 C206 627 317 754 493 754 C544 754 582 748 611 737 C611 737 607 738 607 738 C666 717 701 634 711 561 C711 561 726 561 726 561 L726 561 Z " />
<glyph glyph-name="D" unicode="D" horiz-adv-x="753" d="M71 0 C71 0 145 0 145 0 C145 0 167 0 167 0 C167 0 285 665 285 665 C285 665 285 665 285 665 C285 667 286 669 286 671 C286 671 299 746 299 746 C299 746 401 746 401 746 C697 746 784 621 740 375 C692 104 529 4 242 4 C178 4 172 24 178 61 C178 61 167 0 167 0 C167 0 247 0 247 0 C547 0 717 101 765 375 C809 624 720 750 420 750 C420 750 300 750 300 750 C300 750 277 750 277 750 C277 750 204 750 204 750 C203 750 200 730 200 730 C200 730 211 730 211 730 C253 730 273 725 262 665 C262 665 262 665 262 665 C262 665 159 82 159 82 C148 25 126 20 86 20 C86 20 75 20 75 20 C74 16 72 2 71 0 C71 0 71 0 71 0 L71 0 Z M178 61 C179 67 181 73 182 80 C182 80 178 61 178 61 L178 61 Z " />
<glyph glyph-name="E" unicode="E" horiz-adv-x="565" d="M580 657 C580 657 600 657 600 657 C602 689 606 719 610 750 C610 750 490 750 490 750 C490 750 300 750 300 750 C300 750 277 750 277 750 C277 750 204 750 204 750 C203 750 200 730 200 730 C200 730 211 730 211 730 C253 730 273 725 262 665 C262 665 262 665 262 665 C262 665 159 82 159 82 C148 25 126 20 86 20 C86 20 75 20 75 20 C74 16 72 2 71 0 C71 0 145 0 145 0 C145 0 167 0 167 0 C167 0 382 0 382 0 C382 0 502 0 502 0 C512 31 522 61 532 93 C532 93 512 93 512 93 C512 93 508 82 508 82 C492 31 477 5 384 5 C384 5 248 5 248 5 C179 5 172 24 178 61 C178 61 168 5 168 5 C168 5 167 0 167 0 C167 0 235 385 235 385 C235 385 365 385 365 385 C463 385 461 350 448 287 C448 287 468 287 468 287 C474 320 479 352 485 385 C485 385 485 385 485 385 C485 385 486 390 486 390 C486 390 486 390 486 390 C491 423 497 456 504 489 C504 489 484 489 484 489 C484 489 482 478 482 478 C471 420 459 390 366 390 C366 390 236 390 236 390 C236 390 285 665 285 665 C285 665 285 665 285 665 C285 667 286 669 286 671 C286 671 299 745 299 745 C299 745 489 745 489 745 C605 745 586 716 580 657 C580 657 580 657 580 657 L580 657 Z M178 61 C179 67 181 73 182 80 C182 80 178 61 178 61 L178 61 Z " />
<glyph glyph-name="F" unicode="F" horiz-adv-x="540" d="M602 660 C604 690 606 720 610 750 C610 750 490 750 490 750 C490 750 300 750 300 750 C300 750 277 750 277 750 C277 750 204 750 204 750 C203 750 200 730 200 730 C200 730 211 730 211 730 C253 730 273 725 262 665 C262 665 262 665 262 665 C262 665 159 82 159 82 C148 25 126 20 86 20 C86 20 75 20 75 20 C74 16 72 2 71 0 C71 0 145 0 145 0 C145 0 167 0 167 0 C167 0 241 0 241 0 C242 4 244 18 245 20 C245 20 234 20 234 20 C194 20 173 25 181 78 C181 78 234 380 234 380 C234 380 410 380 410 380 C447 371 449 349 447 315 C447 315 445 283 445 283 C445 283 457 283 457 283 C463 316 469 349 474 382 C474 382 475 385 475 385 C475 385 475 385 475 385 C480 417 486 449 492 482 C492 482 480 482 480 482 C480 482 471 450 471 450 C458 407 444 385 355 385 C355 385 235 385 235 385 C235 385 285 665 285 665 C285 665 285 665 285 665 C285 667 286 669 286 671 C286 671 299 746 299 746 C299 746 409 746 409 746 C576 746 587 720 582 669 C582 669 582 658 582 658 C600 660 598 660 602 660 L602 660 Z " />
<glyph glyph-name="G" unicode="G" horiz-adv-x="729" d="M726 561 C730 583 734 604 738 626 C738 626 738 626 738 626 C738 626 738 626 738 626 C738 629 739 631 739 634 C739 634 743 659 752 707 C752 707 737 707 737 707 C737 707 734 700 728 687 C726 682 700 692 654 724 C654 724 652 724 652 724 C617 748 570 760 492 760 C301 760 182 631 137 375 C92 119 162 -10 347 -10 C455 -10 527 1 598 24 C598 24 611 27 611 27 C611 27 611 28 611 28 C639 38 667 49 697 62 C697 62 696 65 696 65 C667 52 639 42 612 32 C612 32 650 245 650 245 C660 301 677 305 709 305 C709 305 720 305 720 305 C720 305 723 325 724 325 C724 325 571 325 571 325 C570 315 568 313 568 305 C568 305 578 305 578 305 C618 305 637 301 627 245 C627 245 590 25 590 25 C590 25 590 25 590 25 C590 25 593 47 593 47 C591 36 581 27 563 19 C563 19 571 20 571 20 C566 19 560 17 555 16 C516 2 447 -5 350 -5 C350 -5 563 19 563 19 C561 18 558 17 555 16 C498 2 436 -5 350 -5 C180 -5 117 123 162 375 C206 627 317 754 493 754 C544 754 582 748 611 737 C611 737 607 738 607 738 C666 717 701 634 711 561 C711 561 726 561 726 561 L726 561 Z " />
<glyph glyph-name="H" unicode="H" horiz-adv-x="744" d="M825 750 C825 750 655 750 655 750 C654 740 652 738 652 730 C652 730 662 730 662 730 C704 730 725 726 715 670 C715 670 665 386 665 386 C665 386 272 386 272 386 C272 386 322 670 322 670 C331 726 353 730 395 730 C395 730 406 730 406 730 C407 740 409 742 409 750 C409 750 240 750 240 750 C239 750 236 730 236 730 C236 730 247 730 247 730 C289 730 309 726 299 670 C299 670 195 80 195 80 C185 24 163 20 122 20 C122 20 111 20 111 20 C110 16 108 2 107 0 C107 0 277 0 277 0 C278 4 280 18 281 20 C281 20 270 20 270 20 C228 20 207 24 218 80 C218 80 271 380 271 380 C271 380 664 380 664 380 C664 380 611 80 611 80 C601 24 579 20 537 20 C537 20 526 20 526 20 C526 18 526 8 523 0 C523 0 693 0 693 0 C693 2 696 12 696 20 C696 20 686 20 686 20 C644 20 623 24 633 80 C633 80 737 670 737 670 C747 726 769 730 811 730 C811 730 822 730 822 730 C822 730 825 750 825 750 L825 750 Z " />
<glyph glyph-name="I" unicode="I" horiz-adv-x="307" d="M388 750 C388 750 218 750 218 750 C218 750 215 730 214 730 C214 730 225 730 225 730 C267 730 287 726 278 670 C278 670 174 80 174 80 C163 24 142 20 100 20 C100 20 89 20 89 20 C88 10 86 8 86 0 C86 0 256 0 256 0 C256 0 259 20 259 20 C259 20 248 20 248 20 C207 20 186 24 196 80 C196 80 300 670 300 670 C310 726 332 730 374 730 C374 730 384 730 384 730 C385 730 388 750 388 750 L388 750 Z " />
<glyph glyph-name="J" unicode="J" horiz-adv-x="307" d="M388 750 C388 750 218 750 218 750 C218 750 215 730 214 730 C214 730 225 730 225 730 C267 730 287 726 278 670 C278 670 160 1 160 1 C124 -197 58 -212 3 -212 C-10 -212 1 -193 -12 -193 C-19 -193 -23 -197 -24 -204 C-26 -215 -19 -220 -4 -220 C64 -220 146 -202 190 43 C190 43 300 670 300 670 C310 726 332 730 374 730 C374 730 384 730 384 730 C385 730 388 750 388 750 L388 750 Z " />
<glyph glyph-name="K" unicode="K" horiz-adv-x="627" d="M606 20 C606 20 578 20 578 20 C557 20 524 49 495 85 C495 85 495 85 495 85 C495 85 253 389 253 389 C253 389 540 664 540 664 C606 725 626 730 652 730 C652 730 676 730 676 730 C676 730 679 750 680 750 C680 750 630 750 630 750 C630 750 621 750 621 750 C621 750 523 750 523 750 C523 750 520 730 519 730 C519 730 538 730 538 730 C580 730 592 722 476 610 C476 610 479 612 479 612 C479 612 251 392 251 392 C251 392 251 392 251 392 C251 392 234 375 234 375 C234 375 465 85 465 85 C465 85 465 85 465 85 C476 71 485 60 493 50 C493 50 533 0 533 0 C533 0 533 0 533 0 C533 0 533 0 533 0 C533 0 533 0 533 0 C533 0 562 0 562 0 C562 0 602 0 602 0 C603 4 605 18 606 20 C606 20 606 20 606 20 L606 20 Z M373 750 C373 750 300 750 300 750 C300 750 277 750 277 750 C277 750 204 750 204 750 C203 750 200 730 200 730 C200 730 211 730 211 730 C249 730 269 727 268 699 C268 699 154 52 154 52 C146 23 124 20 86 20 C86 20 75 20 75 20 C74 16 72 2 71 0 C71 0 145 0 145 0 C145 0 167 0 167 0 C167 0 241 0 241 0 C242 4 244 18 245 20 C245 20 234 20 234 20 C192 20 171 23 178 60 C178 60 178 60 178 60 C178 60 291 699 291 699 C299 728 321 730 359 730 C359 730 370 730 370 730 C371 740 373 742 373 750 C373 750 373 750 373 750 L373 750 Z " />
<glyph glyph-name="L" unicode="L" horiz-adv-x="606" d="M120 0 C120 0 193 0 193 0 C193 0 216 0 216 0 C216 0 224 47 224 47 C225 51 226 56 227 61 C227 61 217 4 217 4 C217 4 216 0 216 0 C216 0 365 0 365 0 C365 0 550 0 550 0 C550 0 551 0 551 0 C551 0 552 4 552 4 C552 4 552 4 552 4 C567 41 585 80 602 117 C600 117 591 120 583 120 C583 120 578 109 578 109 C547 39 520 4 367 4 C367 4 297 4 297 4 C227 4 221 24 227 63 C228 70 230 77 231 85 C231 85 231 85 231 85 C231 85 334 668 334 668 C345 725 367 730 408 730 C408 730 418 730 418 730 C419 730 422 750 422 750 C422 750 348 750 348 750 C348 750 326 750 326 750 C326 750 252 750 252 750 C252 750 249 730 248 730 C248 730 259 730 259 730 C300 730 320 725 312 669 C312 669 208 85 208 85 C208 85 208 85 208 85 C197 25 176 20 134 20 C134 20 123 20 123 20 C122 10 120 8 120 0 C120 0 120 0 120 0 L120 0 Z M227 64 C227 64 227 64 227 64 C227 64 227 64 227 64 C227 64 227 64 227 64 C227 64 227 64 227 64 L227 64 Z " />
<glyph glyph-name="M" unicode="M" horiz-adv-x="830" d="M181 730 C181 730 205 730 205 730 C232 730 248 727 261 694 C261 694 149 149 149 149 C149 149 149 150 149 150 C124 29 101 20 58 20 C58 20 35 20 35 20 C34 16 32 2 31 0 C31 0 119 0 119 0 C119 0 127 0 127 0 C127 0 214 0 214 0 C215 4 217 18 218 20 C218 20 195 20 195 20 C153 20 133 28 153 131 C153 131 155 140 155 140 C155 140 264 685 264 685 C265 681 266 678 267 674 C314 449 361 225 408 0 C408 0 413 0 413 0 C413 0 799 729 799 729 C799 729 700 75 700 75 C690 24 669 20 627 20 C627 20 617 20 617 20 C616 16 614 2 613 0 C613 0 689 0 689 0 C689 0 712 0 712 0 C712 0 783 0 783 0 C784 4 786 18 787 20 C787 20 776 20 776 20 C739 20 719 24 722 69 C722 69 798 581 798 581 C798 581 798 580 798 580 C819 720 837 730 870 730 C870 730 893 730 893 730 C894 730 897 750 897 750 C897 750 823 750 823 750 C823 750 810 750 810 750 C810 750 802 750 802 750 C802 750 423 28 423 28 C423 28 423 29 423 29 C423 29 278 750 278 750 C278 750 277 750 277 750 C277 750 272 750 272 750 C272 750 251 750 251 750 C251 750 185 750 185 750 C185 750 182 730 181 730 C181 730 181 730 181 730 L181 730 Z " />
<glyph glyph-name="N" unicode="N" horiz-adv-x="716" d="M208 730 C208 730 234 730 234 730 C243 730 249 729 257 719 C257 719 155 149 155 149 C155 149 155 150 155 150 C134 29 111 20 67 20 C67 20 45 20 45 20 C44 16 42 2 41 0 C41 0 129 0 129 0 C129 0 136 0 136 0 C136 0 224 0 224 0 C224 0 227 20 227 20 C227 20 204 20 204 20 C165 20 144 27 156 112 C156 112 261 713 261 713 C263 710 265 706 267 701 C267 701 570 32 570 32 C570 32 585 0 585 0 C585 0 589 0 589 0 C589 0 702 630 702 630 C702 630 702 630 702 630 C718 723 745 730 796 730 C796 730 807 730 807 730 C807 730 810 750 811 750 C811 750 723 750 723 750 C723 750 716 750 716 750 C716 750 629 750 629 750 C628 750 625 730 625 730 C625 730 636 730 636 730 C687 730 711 723 695 630 C695 630 695 630 695 630 C695 630 585 0 585 0 C585 0 592 42 592 42 C592 42 591 44 591 44 C591 44 272 750 272 750 C272 750 267 750 267 750 C267 750 262 750 262 750 C262 750 245 750 245 750 C245 750 212 750 212 750 C211 750 208 730 208 730 L208 730 Z " />
<glyph glyph-name="O" unicode="O" horiz-adv-x="735" d="M377 -4 C190 -4 118 123 162 375 C207 627 326 754 519 754 C719 754 798 627 753 375 C709 123 582 -4 377 -4 L377 -4 Z M137 375 C92 119 172 -10 375 -10 C598 -10 734 119 779 375 C824 631 737 760 521 760 C311 760 182 631 137 375 L137 375 Z " />
<glyph glyph-name="P" unicode="P" horiz-adv-x="502" d="M195 730 C195 730 205 730 205 730 C247 730 268 725 257 665 C257 665 257 665 257 665 C257 665 154 82 154 82 C143 25 121 20 80 20 C80 20 69 20 69 20 C69 18 69 8 66 0 C66 0 140 0 140 0 C140 0 162 0 162 0 C162 0 236 0 236 0 C236 2 239 12 239 20 C239 20 229 20 229 20 C187 20 166 25 177 85 C177 85 177 85 177 85 C177 85 226 364 226 364 C226 364 226 360 226 360 C226 360 276 360 276 360 C455 360 553 403 578 542 C602 680 540 750 394 750 C394 750 294 750 294 750 C294 750 294 746 294 746 C294 746 388 746 388 746 C524 746 581 679 558 546 C533 408 442 365 276 365 C276 365 226 365 226 365 C226 365 286 703 286 703 C293 746 294 750 294 750 C294 750 272 750 272 750 C272 750 198 750 198 750 C197 740 195 738 195 730 C195 730 195 730 195 730 L195 730 Z " />
<glyph glyph-name="Q" unicode="Q" horiz-adv-x="762" d="M1053 -52 C1053 -52 1052 -50 1052 -50 C1014 -78 919 -92 769 -92 C589 -92 457 -64 376 -10 C598 -10 734 119 779 375 C824 631 737 760 521 760 C311 760 182 631 137 375 C95 138 248 10 351 -8 C351 -8 351 -8 351 -8 C444 -76 582 -111 762 -111 C902 -111 1000 -91 1053 -52 L1053 -52 Z M377 -4 C374 -4 370 -4 367 -4 C366 -3 366 -3 366 -3 C366 -3 365 -3 365 -3 C270 7 120 133 162 375 C207 627 326 754 519 754 C719 754 798 627 753 375 C709 123 582 -4 377 -4 C377 -4 377 -4 377 -4 L377 -4 Z " />
<glyph glyph-name="R" unicode="R" horiz-adv-x="637" d="M200 730 C200 730 211 730 211 730 C253 730 273 725 262 665 C262 665 160 85 160 85 C149 25 127 20 86 20 C86 20 75 20 75 20 C74 16 72 2 71 0 C71 0 241 0 241 0 C242 4 244 18 245 20 C245 20 234 20 234 20 C192 20 171 25 182 85 C182 85 233 374 233 374 C233 374 401 374 401 374 C404 354 429 256 476 80 C498 -5 490 0 602 0 C602 0 603 4 603 4 C517 4 523 -1 502 80 C457 251 430 349 424 374 C527 379 586 422 607 542 C632 680 585 750 469 750 C469 750 300 750 300 750 C300 750 299 746 299 746 C299 746 462 746 462 746 C566 746 607 679 583 546 C562 427 511 385 423 381 C423 381 423 381 423 381 C423 381 419 380 419 380 C414 380 409 380 404 380 C404 380 234 380 234 380 C234 380 285 665 285 665 C298 744 299 750 300 750 C300 750 204 750 204 750 C203 750 200 730 200 730 C200 730 200 730 200 730 L200 730 Z " />
<glyph glyph-name="S" unicode="S" horiz-adv-x="540" d="M557 578 C561 602 566 626 570 650 C570 650 574 674 583 722 C583 722 568 722 568 722 C567 722 565 715 559 701 C557 696 545 700 523 715 C488 745 438 760 372 760 C267 760 204 702 183 588 C170 508 218 440 367 363 C488 302 526 241 512 164 C492 53 424 -3 310 -3 C258 -3 214 7 178 28 C178 28 179 28 179 28 C145 48 118 138 108 212 C108 212 93 212 93 212 C83 158 78 130 78 130 C73 103 68 75 64 47 C64 47 79 47 79 47 C78 47 82 56 88 73 C91 79 111 70 148 41 C187 7 241 -10 308 -10 C435 -10 510 51 531 171 C546 257 509 324 385 387 C238 461 190 525 202 597 C221 701 277 754 371 754 C393 754 413 752 432 749 C432 749 431 749 431 749 C433 749 434 748 436 748 C456 744 474 737 489 729 C489 729 454 741 454 741 C503 716 533 645 542 578 C542 578 557 578 557 578 L557 578 Z M454 741 C454 741 432 749 432 749 C433 748 434 748 436 748 C442 746 448 744 454 741 C454 741 454 741 454 741 L454 741 Z " />
<glyph glyph-name="T" unicode="T" horiz-adv-x="775" d="M303 0 C303 0 472 0 472 0 C473 4 475 18 476 20 C476 20 465 20 465 20 C424 20 403 24 413 80 C413 80 530 744 530 744 C530 744 731 744 731 744 C831 744 835 721 845 671 C845 671 855 671 855 671 C862 672 865 672 865 672 C860 695 855 720 851 744 C851 744 851 744 851 744 C851 744 852 750 852 750 C852 750 850 750 850 750 C847 763 845 776 843 789 C843 789 839 789 833 790 C833 790 823 790 823 790 C827 758 831 750 730 750 C730 750 531 750 531 750 C531 750 509 750 509 750 C509 750 309 750 309 750 C216 750 215 760 226 781 C226 781 231 790 231 790 C231 790 221 790 221 790 C214 789 210 789 210 789 C203 776 196 763 190 750 C190 750 187 750 187 750 C187 750 186 744 186 744 C186 744 186 744 186 744 C174 720 160 695 147 672 C147 672 150 672 157 671 C157 671 166 671 166 671 C166 671 172 681 172 681 C195 723 213 744 306 744 C306 744 508 744 508 744 C508 744 390 80 390 80 C380 24 358 20 317 20 C317 20 306 20 306 20 C305 10 303 8 303 0 C303 0 303 0 303 0 L303 0 Z " />
<glyph glyph-name="U" unicode="U" horiz-adv-x="604" d="M542 730 C542 730 552 730 552 730 C594 730 615 725 604 665 C604 665 515 163 515 163 C447 58 352 4 231 4 C166 4 146 77 171 220 C171 220 250 665 250 665 C263 744 264 750 265 750 C265 750 169 750 169 750 C168 750 165 730 165 730 C165 730 176 730 176 730 C218 730 238 725 227 665 C227 665 149 220 149 220 C122 67 146 -10 219 -10 C345 -10 443 45 513 152 C513 152 506 110 506 110 C506 110 487 0 487 0 C487 0 490 0 490 0 C490 0 592 55 592 55 C592 55 594 65 594 65 C525 61 520 63 529 110 C529 110 626 665 626 665 C640 744 641 750 641 750 C641 750 545 750 545 750 C545 750 542 730 542 730 L542 730 Z " />
<glyph glyph-name="V" unicode="V" horiz-adv-x="699" d="M348 750 C348 750 232 750 232 750 C232 750 206 750 206 750 C206 750 167 750 167 750 C166 740 164 738 164 730 C164 730 190 730 190 730 C200 730 207 728 212 708 C212 708 305 30 305 30 C305 30 311 -10 311 -10 C311 -10 315 -10 315 -10 C315 -10 649 610 649 610 C649 610 649 610 649 610 C708 722 727 730 756 730 C756 730 780 730 780 730 C781 740 783 742 783 750 C783 750 724 750 724 750 C724 750 715 750 715 750 C715 750 599 750 599 750 C598 740 596 738 596 730 C596 730 616 730 616 730 C671 730 697 723 651 629 C651 629 311 -10 311 -10 C311 -10 332 30 332 30 C332 30 251 612 251 612 C251 612 252 610 252 610 C236 722 265 730 324 730 C324 730 345 730 345 730 C345 730 348 750 348 750 L348 750 Z " />
<glyph glyph-name="W" unicode="W" horiz-adv-x="1027" d="M1113 750 C1113 750 1052 750 1052 750 C1052 750 1043 750 1043 750 C1043 750 927 750 927 750 C926 740 924 738 924 730 C924 730 944 730 944 730 C1004 730 1030 722 976 610 C976 610 976 610 976 610 C976 610 701 34 701 34 C701 34 652 640 652 640 C652 640 652 640 652 640 C645 724 670 730 720 730 C720 730 742 730 742 730 C742 730 745 750 745 750 C745 750 643 750 643 750 C643 750 617 750 617 750 C617 750 556 750 556 750 C556 750 553 730 552 730 C552 730 576 730 576 730 C603 730 618 727 622 694 C627 629 632 564 638 500 C638 500 331 28 331 28 C331 28 267 618 267 618 C258 722 282 730 331 730 C331 730 352 730 352 730 C352 730 355 750 355 750 C355 750 253 750 253 750 C253 750 229 750 229 750 C229 750 189 750 189 750 C188 750 185 730 185 730 C185 730 211 730 211 730 C224 730 232 722 243 610 C243 610 243 610 243 610 C264 403 285 196 306 -10 C306 -10 312 -10 312 -10 C312 -10 639 489 639 489 C653 323 667 157 680 -10 C680 -10 686 -10 686 -10 C686 -10 985 610 985 610 C985 610 985 610 985 610 C1038 722 1056 730 1086 730 C1086 730 1109 730 1109 730 C1110 730 1113 750 1113 750 C1113 750 1113 750 1113 750 L1113 750 Z " />
<glyph glyph-name="X" unicode="X" horiz-adv-x="706" d="M803 750 C803 750 756 750 756 750 C756 750 746 750 746 750 C746 750 651 750 651 750 C651 750 648 730 648 730 C648 730 668 730 668 730 C706 730 720 723 653 635 C653 635 457 391 457 391 C457 391 357 623 357 623 C316 723 332 730 368 730 C368 730 387 730 387 730 C388 730 391 750 391 750 C391 750 303 750 303 750 C303 750 277 750 277 750 C277 750 236 750 236 750 C236 750 233 730 232 730 C232 730 258 730 258 730 C276 730 287 722 334 617 C334 617 438 373 438 373 C438 373 228 122 228 122 C228 122 226 120 226 120 C148 27 126 20 92 20 C92 20 69 20 69 20 C68 16 66 2 65 0 C65 0 126 0 126 0 C126 0 135 0 135 0 C135 0 265 0 265 0 C265 2 268 12 268 20 C268 20 249 20 249 20 C188 20 162 28 240 127 C240 127 440 368 440 368 C440 368 538 140 538 140 C538 140 538 140 538 140 C586 28 571 20 534 20 C534 20 514 20 514 20 C513 16 511 2 510 0 C510 0 598 0 598 0 C598 0 625 0 625 0 C625 0 672 0 672 0 C673 4 675 18 676 20 C676 20 652 20 652 20 C628 20 613 28 565 140 C565 140 565 140 565 140 C565 140 459 386 459 386 C459 386 658 630 658 630 C736 723 754 730 775 730 C775 730 800 730 800 730 C801 740 803 742 803 750 C803 750 803 750 803 750 L803 750 Z " />
<glyph glyph-name="Y" unicode="Y" horiz-adv-x="736" d="M367 750 C367 750 294 750 294 750 C294 750 267 750 267 750 C267 750 233 750 233 750 C232 740 230 738 230 730 C230 730 256 730 256 730 C267 730 275 725 302 663 C302 663 431 336 431 336 C431 336 431 336 431 336 C431 336 386 80 386 80 C376 24 354 20 312 20 C312 20 302 20 302 20 C301 16 299 2 298 0 C298 0 468 0 468 0 C468 2 471 12 471 20 C471 20 461 20 461 20 C419 20 398 24 408 80 C408 80 453 337 453 337 C453 337 665 628 665 628 C736 723 753 730 775 730 C775 730 799 730 799 730 C800 730 803 750 803 750 C803 750 754 750 754 750 C754 750 743 750 743 750 C743 750 669 750 669 750 C668 740 666 738 666 730 C666 730 686 730 686 730 C715 730 724 722 650 620 C650 620 650 620 650 620 C650 620 453 344 453 344 C453 344 333 649 333 649 C307 724 319 730 344 730 C344 730 364 730 364 730 C365 740 367 742 367 750 C367 750 367 750 367 750 L367 750 Z " />
<glyph glyph-name="Z" unicode="Z" horiz-adv-x="653" d="M646 115 C646 115 627 84 627 84 C598 36 574 11 486 7 C486 7 65 5 65 5 C65 5 752 745 752 745 C752 745 753 750 753 750 C753 750 731 750 731 750 C731 750 383 750 383 750 C383 750 213 750 213 750 C201 708 188 668 174 627 C179 626 197 625 200 625 C200 625 208 646 208 646 C233 707 255 739 357 744 C357 744 726 745 726 745 C726 745 37 5 37 5 C37 5 36 0 36 0 C36 0 60 0 60 0 C60 0 457 0 457 0 C457 0 617 0 617 0 C617 0 641 57 641 57 C649 75 657 94 665 113 C661 114 648 115 646 115 C646 115 646 115 646 115 L646 115 Z " />
<glyph glyph-name="bracketleft" unicode="&#x5b;" horiz-adv-x="277" d="M84 -189 C84 -189 250 750 250 750 C250 750 242 750 242 750 C242 750 76 -195 76 -195 C76 -195 83 -195 83 -195 C83 -195 293 -195 293 -195 C293 -195 294 -189 294 -189 C294 -189 84 -189 84 -189 L84 -189 Z M250 750 C250 750 249 744 249 744 C249 744 459 744 459 744 C459 744 460 750 460 750 C460 750 250 750 250 750 L250 750 Z " />
<glyph glyph-name="backslash" unicode="&#x5c;" horiz-adv-x="327" d="M182 770 C182 770 292 -80 292 -80 C292 -80 304 -80 304 -80 C304 -80 194 770 194 770 C194 770 182 770 182 770 L182 770 Z " />
<glyph glyph-name="bracketright" unicode="&#x5d;" horiz-adv-x="280" d="M294 744 C294 744 129 -195 129 -195 C129 -195 136 -195 136 -195 C136 -195 303 750 303 750 C303 750 295 750 295 750 C295 750 85 750 85 750 C85 750 84 744 84 744 C84 744 294 744 294 744 L294 744 Z M129 -195 C129 -195 130 -189 130 -189 C130 -189 -80 -189 -80 -189 C-80 -189 -81 -195 -81 -195 C-81 -195 129 -195 129 -195 L129 -195 Z " />
<glyph glyph-name="underscore" unicode="&#x5f;" horiz-adv-x="455" d="M-4 -50 C-4 -50 -6 -61 -6 -61 C-6 -61 439 -61 439 -61 C439 -61 441 -50 441 -50 C441 -50 -4 -50 -4 -50 L-4 -50 Z " />
<glyph glyph-name="a" unicode="a" horiz-adv-x="511" d="M532 56 C532 56 525 60 525 60 C513 26 491 9 461 9 C421 9 405 27 411 64 C411 64 464 361 464 361 C484 475 445 510 356 510 C233 510 155 420 144 360 C143 351 145 346 152 346 C169 346 178 351 179 356 C181 369 160 365 162 373 C171 425 240 504 348 504 C428 504 463 472 445 368 C445 368 427 269 427 269 C126 181 91 171 74 74 C64 18 98 -10 175 -10 C261 -10 324 10 396 90 C396 90 391 64 391 64 C383 18 403 -5 450 -5 C490 -5 517 16 532 56 C532 56 532 56 532 56 L532 56 Z M427 265 C427 265 397 95 397 95 C330 21 270 1 188 1 C117 1 86 26 95 76 C111 173 144 182 427 265 C427 265 427 265 427 265 L427 265 Z " />
<glyph glyph-name="b" unicode="b" horiz-adv-x="526" d="M177 708 C177 708 188 711 188 711 C222 721 239 720 225 645 C225 645 225 645 225 645 C187 430 149 215 112 0 C112 0 113 0 113 0 C119 21 125 43 130 65 C163 15 217 -10 292 -10 C416 -10 495 77 525 251 C555 420 499 505 359 505 C313 505 261 473 204 409 C204 409 246 650 246 650 C263 743 264 750 264 750 C264 750 260 750 260 750 C260 750 180 728 180 728 C180 728 177 708 177 708 L177 708 Z M203 403 C258 465 307 497 349 497 C480 497 532 413 503 248 C473 80 403 -5 294 -5 C228 -5 177 20 144 70 C144 70 166 195 166 195 C166 195 203 403 203 403 L203 403 Z " />
<glyph glyph-name="c" unicode="c" horiz-adv-x="448" d="M441 128 C441 128 439 129 439 129 C386 45 319 2 238 2 C133 2 94 86 123 254 C153 421 224 505 335 505 C413 505 458 471 471 405 C472 398 475 395 479 395 C488 395 492 398 491 405 C478 475 427 510 337 510 C212 510 133 420 102 242 C72 75 115 -10 229 -10 C313 -10 384 36 441 128 L441 128 Z " />
<glyph glyph-name="d" unicode="d" horiz-adv-x="574" d="M579 29 C579 29 568 26 568 26 C534 18 518 21 534 114 C534 114 534 114 534 114 C534 114 631 665 631 665 C645 744 646 750 646 750 C646 750 643 750 643 750 C643 750 563 728 563 728 C563 728 559 708 559 708 C559 708 570 711 570 711 C605 721 621 721 610 660 C610 660 610 660 610 660 C610 660 567 414 567 414 C541 473 493 510 429 510 C227 510 138 425 108 256 C78 82 145 -5 309 -5 C393 -5 459 22 507 76 C494 -4 492 -10 492 -10 C492 -10 496 -10 496 -10 C496 -10 575 9 575 9 C576 13 578 27 579 29 L579 29 Z M508 83 C462 30 397 3 319 3 C163 3 99 90 129 261 C158 422 241 504 430 504 C493 504 540 457 562 388 C562 388 513 110 513 110 C511 100 510 91 508 83 C508 83 508 83 508 83 L508 83 Z " />
<glyph glyph-name="e" unicode="e" horiz-adv-x="534" d="M148 340 C148 340 542 340 542 340 C542 340 564 340 564 340 C564 476 507 510 393 510 C230 510 132 419 100 238 C71 73 131 -10 279 -10 C386 -10 465 38 517 134 C517 134 515 135 515 135 C468 47 391 3 286 3 C149 3 94 85 122 246 C128 281 137 312 148 340 L148 340 Z M560 346 C560 346 560 346 560 346 C560 346 560 346 560 346 C560 346 560 346 560 346 L560 346 Z M542 346 C542 346 150 345 150 345 C194 451 275 505 392 505 C490 505 540 473 542 346 C542 346 542 346 542 346 L542 346 Z " />
<glyph glyph-name="f" unicode="f" horiz-adv-x="299" d="M57 0 C57 0 196 0 196 0 C197 4 199 18 200 20 C200 20 189 20 189 20 C157 20 141 21 143 35 C143 35 223 489 223 489 C223 489 376 489 376 489 C376 489 378 500 378 500 C378 500 225 500 225 500 C254 665 303 749 397 749 C489 749 397 635 474 635 C504 635 522 650 527 680 C536 730 495 755 405 755 C292 755 235 669 205 500 C205 500 93 492 93 492 C93 492 93 489 93 489 C93 489 203 489 203 489 C203 489 123 35 123 35 C121 21 104 20 71 20 C71 20 60 20 60 20 C62 20 57 0 57 0 L57 0 Z " />
<glyph glyph-name="g" unicode="g" horiz-adv-x="552" d="M173 350 C191 453 251 505 352 505 C453 505 495 453 477 350 C458 246 398 193 297 193 C196 193 154 246 173 350 L173 350 Z M187 32 C189 32 192 32 194 32 C194 32 306 32 306 32 C440 32 466 -10 452 -93 C436 -181 363 -225 233 -225 C102 -225 44 -178 60 -86 C71 -24 114 15 187 32 C187 32 187 32 187 32 L187 32 Z M181 32 C101 14 54 -27 43 -91 C27 -183 90 -230 231 -230 C373 -230 453 -182 470 -88 C486 5 457 52 311 52 C311 52 198 52 198 52 C123 52 89 73 96 115 C105 164 172 188 296 188 C410 188 478 242 497 350 C499 363 500 374 501 385 C519 453 557 487 613 487 C640 487 651 470 645 438 C644 433 647 431 653 431 C658 431 662 434 663 440 C669 477 656 495 623 495 C560 495 519 460 501 391 C501 470 451 510 353 510 C239 510 171 456 153 350 C137 257 170 204 254 191 C149 185 92 158 83 110 C74 61 107 35 181 32 C181 32 181 32 181 32 L181 32 Z " />
<glyph glyph-name="h" unicode="h" horiz-adv-x="509" d="M178 708 C178 708 189 711 189 711 C223 721 240 720 226 645 C226 645 226 645 226 645 C226 645 119 35 119 35 C117 21 100 20 67 20 C67 20 56 20 56 20 C58 20 53 0 53 0 C53 0 192 0 192 0 C193 4 195 18 196 20 C196 20 185 20 185 20 C153 20 137 21 139 35 C139 35 247 650 247 650 C264 743 265 750 265 750 C265 750 261 750 261 750 C261 750 181 728 181 728 C181 728 178 708 178 708 L178 708 Z M329 0 C329 0 468 0 468 0 C469 4 471 18 472 20 C472 20 461 20 461 20 C429 20 413 21 415 35 C415 35 478 395 478 395 C492 471 469 510 388 510 C332 510 268 463 198 369 C198 369 197 363 197 363 C263 451 323 496 374 496 C449 496 470 462 458 395 C458 395 395 35 395 35 C393 21 376 20 343 20 C343 20 332 20 332 20 C334 20 329 0 329 0 L329 0 Z " />
<glyph glyph-name="i" unicode="i" horiz-adv-x="232" d="M240 615 C254 615 262 622 264 635 C266 648 261 655 247 655 C234 655 226 648 224 635 C222 622 227 615 240 615 L240 615 Z M143 458 C143 458 154 461 154 461 C188 471 205 470 191 395 C191 395 191 395 191 395 C191 395 128 35 128 35 C126 21 111 20 83 20 C83 20 73 20 73 20 C72 16 70 2 69 0 C69 0 194 0 194 0 C195 4 197 18 198 20 C198 20 187 20 187 20 C160 20 146 21 148 35 C148 35 212 400 212 400 C229 493 230 500 230 500 C230 500 226 500 226 500 C226 500 146 478 146 478 C144 466 143 464 143 458 L143 458 Z " />
<glyph glyph-name="j" unicode="j" horiz-adv-x="221" d="M230 615 C244 615 252 622 254 635 C256 648 251 655 237 655 C224 655 216 648 214 635 C212 622 217 615 230 615 L230 615 Z M133 458 C133 458 144 461 144 461 C178 471 195 470 181 395 C181 395 181 395 181 395 C181 395 114 12 114 12 C100 -66 79 -113 50 -127 C9 -127 -20 -100 -61 -100 C-91 -100 -108 -113 -113 -140 C-119 -173 -101 -188 -61 -185 C-53 -184 -15 -166 54 -130 C94 -109 121 -61 134 12 C134 12 202 400 202 400 C219 493 220 500 220 500 C220 500 216 500 216 500 C216 500 136 478 136 478 C134 466 133 464 133 458 L133 458 Z " />
<glyph glyph-name="k" unicode="k" horiz-adv-x="426" d="M487 500 C487 500 462 500 462 500 C462 500 453 500 453 500 C453 500 323 500 323 500 C322 490 320 488 320 480 C320 480 338 480 338 480 C395 480 415 471 279 354 C279 354 191 280 191 280 C191 280 256 650 256 650 C273 743 274 750 274 750 C274 750 270 750 270 750 C270 750 190 728 190 728 C190 728 187 708 187 708 C187 708 198 711 198 711 C232 721 249 720 235 645 C235 645 235 645 235 645 C235 645 128 35 128 35 C126 21 111 20 83 20 C83 20 73 20 73 20 C72 16 70 2 69 0 C69 0 194 0 194 0 C195 4 197 18 198 20 C198 20 187 20 187 20 C160 20 146 21 148 35 C148 35 191 280 191 280 C191 280 334 35 334 35 C334 35 333 35 333 35 C342 21 334 20 316 20 C316 20 298 20 298 20 C297 16 295 2 294 0 C294 0 354 0 354 0 C354 0 380 0 380 0 C380 0 403 0 403 0 C404 4 406 18 407 20 C407 20 379 20 379 20 C373 20 369 21 364 27 C364 27 211 289 211 289 C211 289 428 471 428 471 C439 479 446 480 457 480 C457 480 483 480 483 480 C484 480 487 500 487 500 C487 500 487 500 487 500 L487 500 Z " />
<glyph glyph-name="l" unicode="l" horiz-adv-x="222" d="M177 708 C177 708 188 711 188 711 C222 721 239 720 225 645 C225 645 225 645 225 645 C225 645 118 35 118 35 C116 21 100 20 70 20 C70 20 59 20 59 20 C58 16 56 2 55 0 C55 0 188 0 188 0 C188 2 191 12 191 20 C191 20 181 20 181 20 C151 20 136 21 138 35 C138 35 246 650 246 650 C263 743 264 750 264 750 C264 750 260 750 260 750 C260 750 180 728 180 728 C180 728 177 708 177 708 L177 708 Z " />
<glyph glyph-name="m" unicode="m" horiz-adv-x="794" d="M631 0 C631 0 763 0 763 0 C764 4 766 18 767 20 C767 20 756 20 756 20 C727 20 711 22 712 48 C712 48 773 395 773 395 C787 471 767 510 664 510 C609 510 549 465 481 376 C481 376 484 395 484 395 C498 471 478 510 375 510 C321 510 260 464 192 374 C192 374 191 368 191 368 C254 452 312 495 364 495 C458 495 476 461 464 395 C464 395 405 55 405 55 C405 55 404 55 404 55 C399 22 384 20 356 20 C356 20 346 20 346 20 C345 16 343 2 342 0 C342 0 460 0 460 0 C461 4 463 18 464 20 C464 20 453 20 453 20 C432 20 421 22 423 46 C423 46 480 370 480 370 C543 453 601 495 653 495 C747 495 765 461 753 395 C753 395 693 55 693 55 C693 55 693 55 693 55 C688 22 673 20 645 20 C645 20 635 20 635 20 C634 16 632 2 631 0 C631 0 631 0 631 0 L631 0 Z M126 452 C126 452 137 456 137 456 C171 468 188 469 176 400 C176 400 176 400 176 400 C176 400 116 55 116 55 C116 55 115 55 115 55 C110 22 93 20 60 20 C60 20 49 20 49 20 C51 20 46 0 46 0 C46 0 175 0 175 0 C175 2 178 12 178 20 C178 20 168 20 168 20 C144 20 132 22 134 47 C134 47 196 400 196 400 C213 493 214 500 214 500 C214 500 210 500 210 500 C210 500 129 472 129 472 C127 460 126 458 126 452 L126 452 Z " />
<glyph glyph-name="n" unicode="n" horiz-adv-x="505" d="M126 452 C126 452 137 456 137 456 C171 468 188 469 176 400 C176 400 176 400 176 400 C176 400 112 35 112 35 C110 21 94 20 64 20 C64 20 53 20 53 20 C52 16 50 2 49 0 C49 0 182 0 182 0 C182 2 185 12 185 20 C185 20 175 20 175 20 C145 20 130 21 132 35 C132 35 196 400 196 400 C213 493 214 500 214 500 C214 500 210 500 210 500 C210 500 129 472 129 472 C127 460 126 458 126 452 L126 452 Z M338 0 C338 0 471 0 471 0 C471 2 474 12 474 20 C474 20 464 20 464 20 C434 20 419 21 421 35 C421 35 484 395 484 395 C498 471 470 510 375 510 C323 510 261 463 191 369 C191 369 190 363 190 363 C256 451 313 495 360 495 C449 495 476 461 464 395 C464 395 401 35 401 35 C399 21 383 20 353 20 C353 20 342 20 342 20 C341 16 339 2 338 0 L338 0 Z " />
<glyph glyph-name="o" unicode="o" horiz-adv-x="609" d="M311 -4 C158 -4 95 81 125 250 C155 419 247 504 400 504 C553 504 616 419 586 250 C556 81 464 -4 311 -4 L311 -4 Z M103 250 C72 77 141 -10 309 -10 C477 -10 578 77 608 250 C639 423 569 510 401 510 C233 510 133 423 103 250 L103 250 Z " />
<glyph glyph-name="p" unicode="p" horiz-adv-x="526" d="M127 452 C127 452 138 456 138 456 C172 468 189 469 177 400 C177 400 177 400 177 400 C177 400 80 -150 80 -150 C80 -150 80 -150 80 -150 C72 -197 55 -200 22 -200 C22 -200 12 -200 12 -200 C11 -204 9 -218 8 -220 C8 -220 148 -220 148 -220 C146 -220 151 -200 151 -200 C151 -200 140 -200 140 -200 C110 -200 94 -197 99 -157 C99 -157 144 97 144 97 C168 29 210 -5 268 -5 C409 -5 498 98 526 252 C556 423 500 510 358 510 C297 510 245 482 202 429 C214 495 215 500 215 500 C215 500 211 500 211 500 C211 500 130 472 130 472 C128 460 127 458 127 452 C127 452 127 452 127 452 L127 452 Z M201 421 C242 474 291 502 348 502 C480 502 532 416 502 245 C476 99 394 0 266 0 C210 0 170 38 147 114 C147 114 197 400 197 400 C198 407 200 414 201 421 L201 421 Z " />
<glyph glyph-name="q" unicode="q" horiz-adv-x="607" d="M377 -220 C377 -220 517 -220 517 -220 C517 -220 522 -200 520 -200 C520 -200 510 -200 510 -200 C477 -200 461 -199 463 -185 C500 23 537 231 573 440 C573 440 584 500 584 500 C584 500 583 500 583 500 C583 500 566 440 566 440 C529 487 476 510 407 510 C220 510 136 425 106 256 C75 82 141 -5 302 -5 C379 -5 442 21 488 72 C488 72 443 -185 443 -185 C441 -199 424 -200 392 -200 C392 -200 381 -200 381 -200 C380 -204 378 -218 377 -220 L377 -220 Z M551 428 C551 428 489 78 489 78 C444 29 384 3 312 3 C159 3 98 90 128 261 C156 423 234 505 405 505 C462 505 511 479 551 428 C551 428 551 428 551 428 L551 428 Z " />
<glyph glyph-name="r" unicode="r" horiz-adv-x="324" d="M132 452 C132 452 143 456 143 456 C177 468 194 469 182 400 C182 400 182 400 182 400 C182 400 118 35 118 35 C116 21 101 20 73 20 C73 20 63 20 63 20 C62 16 60 2 59 0 C59 0 191 0 191 0 C192 4 194 18 195 20 C195 20 184 20 184 20 C152 20 136 21 138 35 C138 35 197 371 197 371 C238 457 291 501 356 501 C371 501 377 489 373 466 C372 458 375 454 383 454 C390 454 395 458 396 466 C401 495 391 510 367 510 C295 510 240 467 199 382 C199 382 202 400 202 400 C219 493 220 500 220 500 C220 500 216 500 216 500 C216 500 135 472 135 472 C133 460 132 458 132 452 C132 452 132 452 132 452 L132 452 Z " />
<glyph glyph-name="s" unicode="s" horiz-adv-x="431" d="M366 496 C366 496 364 496 364 496 C343 505 317 510 287 510 C210 510 164 472 151 396 C140 333 175 285 287 242 C370 210 396 168 385 108 C372 33 326 -5 247 -5 C228 -5 210 -3 194 1 C133 20 110 79 119 132 C120 136 121 140 121 144 C121 144 101 144 101 144 C95 108 92 90 91 90 C89 72 85 54 82 36 C82 36 102 36 102 36 C102 36 105 51 105 51 C103 41 126 21 173 2 C173 2 175 2 175 2 C195 -6 220 -10 247 -10 C335 -10 387 31 402 114 C413 178 387 224 298 258 C191 300 157 345 167 403 C179 471 219 505 286 505 C301 505 314 503 326 501 C326 501 286 505 286 505 C305 505 323 503 338 499 C338 499 326 501 326 501 C386 486 409 436 400 387 C399 383 399 379 398 376 C398 376 418 376 418 376 C421 392 424 408 427 424 C427 424 427 424 427 424 C427 424 427 425 427 425 C428 430 428 435 429 440 C430 440 433 462 441 504 C441 504 421 504 421 504 C420 498 418 491 417 484 C416 479 399 481 366 496 C366 496 366 496 366 496 L366 496 Z " />
<glyph glyph-name="t" unicode="t" horiz-adv-x="306" d="M358 500 C358 500 203 500 203 500 C203 500 224 620 224 620 C224 620 223 620 223 620 C223 620 118 500 118 500 C118 500 116 490 116 490 C116 490 181 490 181 490 C181 490 113 103 113 103 C97 13 127 -10 194 -10 C227 -10 264 8 304 45 C304 45 303 46 303 46 C268 15 234 -1 202 -1 C143 -1 117 19 132 98 C155 228 178 359 201 489 C201 489 356 489 356 489 C356 489 358 500 358 500 L358 500 Z " />
<glyph glyph-name="u" unicode="u" horiz-adv-x="492" d="M425 480 C425 480 435 480 435 480 C459 480 471 479 469 465 C469 465 410 130 410 130 C361 46 300 4 229 4 C156 4 128 56 146 160 C146 160 200 465 200 465 C206 498 206 500 206 500 C206 500 139 500 139 500 C139 500 136 480 136 480 C136 480 146 480 146 480 C170 480 182 479 180 465 C180 465 126 160 126 160 C106 47 137 -10 217 -10 C293 -10 357 35 409 125 C409 125 403 90 403 90 C386 -3 385 -10 385 -10 C385 -10 388 -10 388 -10 C388 -10 468 9 468 9 C468 9 471 29 472 29 C472 29 460 26 460 26 C428 18 411 20 422 90 C422 90 423 90 423 90 C423 90 489 465 489 465 C495 498 495 500 495 500 C495 500 428 500 428 500 C428 500 425 480 425 480 L425 480 Z M472 29 C472 29 472 29 472 29 C472 29 472 29 472 29 L472 29 Z " />
<glyph glyph-name="v" unicode="v" horiz-adv-x="480" d="M527 500 C527 500 474 500 474 500 C474 500 465 500 465 500 C465 500 398 500 398 500 C397 490 395 488 395 480 C395 480 416 480 416 480 C440 480 452 478 442 455 C442 455 208 -10 208 -10 C208 -10 214 -10 214 -10 C214 -10 446 445 446 445 C465 478 478 480 499 480 C499 480 524 480 524 480 C524 480 527 500 527 500 L527 500 Z M244 500 C244 500 191 500 191 500 C191 500 169 500 169 500 C169 500 125 500 125 500 C124 490 122 488 122 480 C122 480 147 480 147 480 C161 480 169 478 172 461 C172 461 208 -10 208 -10 C208 -10 221 17 221 17 C221 17 194 453 194 453 C194 453 194 453 194 453 C193 478 201 480 218 480 C218 480 240 480 240 480 C240 480 244 500 244 500 L244 500 Z " />
<glyph glyph-name="w" unicode="w" horiz-adv-x="702" d="M756 500 C756 500 704 500 704 500 C704 500 694 500 694 500 C694 500 627 500 627 500 C627 500 624 480 624 480 C624 480 645 480 645 480 C669 480 681 478 672 458 C672 458 446 17 446 17 C446 17 433 467 433 467 C434 479 440 480 451 480 C451 480 475 480 475 480 C475 480 478 500 478 500 C478 500 432 500 432 500 C432 500 409 500 409 500 C409 500 368 500 368 500 C367 500 364 480 364 480 C364 480 390 480 390 480 C402 480 409 479 410 468 C410 468 416 350 416 350 C416 350 253 18 253 18 C253 18 240 460 240 460 C240 460 241 460 241 460 C240 479 246 480 258 480 C258 480 282 480 282 480 C283 484 285 498 286 500 C286 500 239 500 239 500 C239 500 217 500 217 500 C217 500 175 500 175 500 C174 490 172 488 172 480 C172 480 198 480 198 480 C210 480 216 479 218 465 C218 465 239 -10 239 -10 C239 -10 245 -10 245 -10 C245 -10 416 335 416 335 C416 335 432 -10 432 -10 C432 -10 438 -10 438 -10 C438 -10 678 450 678 450 C695 478 708 480 729 480 C729 480 753 480 753 480 C754 490 756 492 756 500 C756 500 756 500 756 500 L756 500 Z " />
<glyph glyph-name="x" unicode="x" horiz-adv-x="520" d="M59 0 C59 0 99 0 99 0 C99 0 108 0 108 0 C108 0 178 0 178 0 C179 4 181 18 182 20 C182 20 162 20 162 20 C140 20 128 22 151 53 C151 53 300 235 300 235 C300 235 382 55 382 55 C395 23 388 20 373 20 C373 20 354 20 354 20 C353 10 351 8 351 0 C351 0 407 0 407 0 C407 0 431 0 431 0 C431 0 464 0 464 0 C465 4 467 18 468 20 C468 20 442 20 442 20 C429 20 421 23 403 62 C403 62 403 62 403 62 C403 62 316 252 316 252 C316 252 454 436 454 436 C454 436 460 444 460 444 C486 477 497 480 515 480 C515 480 540 480 540 480 C540 480 543 500 543 500 C543 500 502 500 502 500 C502 500 493 500 493 500 C493 500 429 500 429 500 C429 500 426 480 426 480 C426 480 446 480 446 480 C467 480 476 477 447 438 C447 438 447 438 447 438 C447 438 314 256 314 256 C314 256 227 445 227 445 C214 477 221 480 236 480 C236 480 255 480 255 480 C256 490 258 492 258 500 C258 500 202 500 202 500 C202 500 178 500 178 500 C178 500 152 500 152 500 C152 500 148 480 148 480 C148 480 176 480 176 480 C183 480 188 478 203 445 C203 445 203 445 203 445 C203 445 298 239 298 239 C298 239 152 64 152 64 C152 64 152 64 152 64 C118 23 106 20 88 20 C88 20 63 20 63 20 C62 16 60 2 59 0 C59 0 59 0 59 0 L59 0 Z " />
<glyph glyph-name="y" unicode="y" horiz-adv-x="476" d="M539 500 C539 500 486 500 486 500 C486 500 477 500 477 500 C477 500 410 500 410 500 C409 490 407 488 407 480 C407 480 428 480 428 480 C454 480 466 478 451 450 C451 450 451 450 451 450 C451 450 228 17 228 17 C228 17 187 453 187 453 C187 453 188 453 188 453 C185 478 193 480 210 480 C210 480 232 480 232 480 C232 480 236 500 236 500 C236 500 183 500 183 500 C183 500 161 500 161 500 C161 500 118 500 118 500 C118 500 114 480 114 480 C114 480 140 480 140 480 C154 480 162 478 165 461 C165 461 214 -10 214 -10 C214 -10 147 -140 147 -140 C138 -157 127 -165 112 -165 C107 -165 107 -158 102 -158 C94 -158 90 -161 89 -168 C87 -176 90 -180 98 -180 C120 -180 137 -168 149 -145 C149 -145 220 -10 220 -10 C220 -10 452 435 452 435 C452 435 452 434 452 434 C474 477 488 480 511 480 C511 480 535 480 535 480 C535 480 539 500 539 500 L539 500 Z " />
<glyph glyph-name="z" unicode="z" horiz-adv-x="475" d="M144 424 C144 424 156 424 156 424 C156 424 169 434 169 434 C213 471 242 491 306 494 C306 494 498 495 498 495 C498 495 41 5 41 5 C41 5 40 0 40 0 C40 0 61 0 61 0 C61 0 415 0 415 0 C415 0 430 0 430 0 C438 25 446 51 454 76 C454 76 444 76 444 76 C444 76 431 66 431 66 C384 29 354 9 282 6 C282 6 66 5 66 5 C66 5 522 495 522 495 C522 495 523 500 523 500 C523 500 503 500 503 500 C503 500 223 500 223 500 C212 500 201 506 207 519 C207 519 211 528 211 528 C211 528 191 528 191 528 C175 494 160 459 144 424 C144 424 144 424 144 424 L144 424 Z " />
<glyph glyph-name="bar" unicode="&#x7c;" horiz-adv-x="135" d="M201 800 C201 800 16 -250 16 -250 C16 -250 31 -250 31 -250 C31 -250 217 800 217 800 C217 800 201 800 201 800 L201 800 Z " />
<glyph glyph-name="exclamdown" unicode="&#xa1;" horiz-adv-x="164" d="M171 505 C158 505 150 498 148 485 C146 472 151 465 164 465 C178 465 186 472 188 485 C190 498 185 505 171 505 L171 505 Z M37 -255 C49 -255 54 -233 61 -188 C61 -188 135 290 135 290 C135 290 131 290 131 290 C131 290 37 -188 37 -188 C28 -233 25 -255 37 -255 L37 -255 Z " />
<glyph glyph-name="cent" unicode="&#xa2;" horiz-adv-x="448" d="M327 575 C327 575 315 509 315 509 C203 499 131 409 102 242 C72 78 114 -7 224 -10 C224 -10 212 -75 212 -75 C212 -75 226 -75 226 -75 C226 -75 238 -10 238 -10 C318 -7 386 39 441 128 C441 128 439 129 439 129 C386 46 320 3 240 2 C240 2 329 505 329 505 C331 505 333 505 335 505 C413 505 458 471 471 405 C472 398 475 395 479 395 C488 395 492 398 491 405 C478 475 427 510 337 510 C334 510 332 510 329 510 C329 510 341 575 341 575 C341 575 327 575 327 575 L327 575 Z M226 2 C130 9 95 93 123 254 C151 410 215 494 314 504 C314 504 226 2 226 2 L226 2 Z " />
<glyph glyph-name="questiondown" unicode="&#xbf;" horiz-adv-x="309" d="M273 505 C260 505 252 498 250 485 C247 472 253 465 266 465 C279 465 287 472 290 485 C292 498 286 505 273 505 L273 505 Z M253 355 C253 355 209 140 209 140 C123 140 94 107 38 40 C16 14 1 -17 -5 -51 C-29 -190 12 -260 118 -260 C131 -260 138 -255 140 -245 C141 -238 138 -235 131 -235 C125 -235 120 -239 115 -239 C17 -239 -21 -175 1 -49 C6 -22 20 5 41 31 C92 90 118 120 212 120 C212 120 257 355 257 355 C257 355 253 355 253 355 L253 355 Z " />
<glyph glyph-name="Agrave" unicode="&#xc0;" horiz-adv-x="662" d="M469 0 C469 0 563 0 563 0 C563 0 587 0 587 0 C587 0 648 0 648 0 C648 2 651 12 651 20 C651 20 627 20 627 20 C599 20 584 28 571 140 C571 140 571 140 571 140 C571 140 501 743 501 743 C501 743 498 770 498 770 C498 770 496 770 496 770 C480 751 474 742 479 743 C479 743 480 733 480 733 C480 733 480 733 480 733 C480 733 197 170 197 170 C197 170 196 170 196 170 C126 30 96 20 48 20 C48 20 26 20 26 20 C25 16 23 2 22 0 C22 0 111 0 111 0 C111 0 117 0 117 0 C117 0 233 0 233 0 C234 4 236 18 237 20 C237 20 216 20 216 20 C160 20 135 29 193 152 C193 152 265 294 265 294 C265 294 530 294 530 294 C530 294 547 140 547 140 C547 140 547 140 547 140 C561 28 539 20 493 20 C493 20 472 20 472 20 C471 10 469 8 469 0 L469 0 Z M403 949 C365 997 345 1022 341 1022 C335 1022 331 1018 330 1012 C329 1009 350 985 393 940 C393 940 507 814 507 814 C507 814 510 817 510 817 C510 817 403 949 403 949 L403 949 Z M267 299 C267 299 481 725 481 725 C481 725 529 299 529 299 C529 299 267 299 267 299 L267 299 Z " />
<glyph glyph-name="Aacute" unicode="&#xc1;" horiz-adv-x="662" d="M508 814 C508 814 667 940 667 940 C726 987 755 1011 756 1012 C757 1018 753 1022 748 1022 C746 1022 717 997 660 949 C660 949 506 817 506 817 C506 817 508 814 508 814 L508 814 Z M469 0 C469 0 563 0 563 0 C563 0 587 0 587 0 C587 0 648 0 648 0 C648 2 651 12 651 20 C651 20 627 20 627 20 C599 20 584 28 571 140 C571 140 571 140 571 140 C571 140 501 743 501 743 C501 743 498 770 498 770 C498 770 496 770 496 770 C480 751 474 742 479 743 C479 743 480 733 480 733 C480 733 480 733 480 733 C480 733 197 170 197 170 C197 170 196 170 196 170 C126 30 96 20 48 20 C48 20 26 20 26 20 C25 16 23 2 22 0 C22 0 111 0 111 0 C111 0 117 0 117 0 C117 0 233 0 233 0 C234 4 236 18 237 20 C237 20 216 20 216 20 C160 20 135 29 193 152 C193 152 265 294 265 294 C265 294 530 294 530 294 C530 294 547 140 547 140 C547 140 547 140 547 140 C561 28 539 20 493 20 C493 20 472 20 472 20 C471 10 469 8 469 0 L469 0 Z M267 299 C267 299 481 725 481 725 C481 725 529 299 529 299 C529 299 267 299 267 299 L267 299 Z " />
<glyph glyph-name="Acircumflex" unicode="&#xc2;" horiz-adv-x="662" d="M469 0 C469 0 563 0 563 0 C563 0 587 0 587 0 C587 0 648 0 648 0 C648 2 651 12 651 20 C651 20 627 20 627 20 C599 20 584 28 571 140 C571 140 571 140 571 140 C571 140 501 743 501 743 C501 743 498 770 498 770 C498 770 496 770 496 770 C480 751 474 742 479 743 C479 743 480 733 480 733 C480 733 480 733 480 733 C480 733 197 170 197 170 C197 170 196 170 196 170 C126 30 96 20 48 20 C48 20 26 20 26 20 C25 16 23 2 22 0 C22 0 111 0 111 0 C111 0 117 0 117 0 C117 0 233 0 233 0 C234 4 236 18 237 20 C237 20 216 20 216 20 C160 20 135 29 193 152 C193 152 265 294 265 294 C265 294 530 294 530 294 C530 294 547 140 547 140 C547 140 547 140 547 140 C561 28 539 20 493 20 C493 20 472 20 472 20 C471 10 469 8 469 0 L469 0 Z M537 1007 C537 1007 646 809 646 809 C646 809 649 811 649 811 C649 811 547 1024 547 1024 C546 1026 544 1031 541 1031 C538 1031 535 1028 534 1024 C534 1024 533 1024 533 1024 C533 1024 356 811 356 811 C356 811 358 809 358 809 C358 809 537 1007 537 1007 L537 1007 Z M267 299 C267 299 481 725 481 725 C481 725 529 299 529 299 C529 299 267 299 267 299 L267 299 Z " />
<glyph glyph-name="Atilde" unicode="&#xc3;" horiz-adv-x="662" d="M370 870 C378 917 398 941 430 941 C499 941 534 876 603 876 C641 876 665 901 674 951 C674 951 670 951 670 951 C663 911 643 891 610 891 C542 891 506 956 437 956 C400 956 376 927 366 870 C366 870 370 870 370 870 L370 870 Z M469 0 C469 0 563 0 563 0 C563 0 587 0 587 0 C587 0 648 0 648 0 C648 2 651 12 651 20 C651 20 627 20 627 20 C599 20 584 28 571 140 C571 140 571 140 571 140 C571 140 501 743 501 743 C501 743 498 770 498 770 C498 770 496 770 496 770 C480 751 474 742 479 743 C479 743 480 733 480 733 C480 733 480 733 480 733 C480 733 197 170 197 170 C197 170 196 170 196 170 C126 30 96 20 48 20 C48 20 26 20 26 20 C25 16 23 2 22 0 C22 0 111 0 111 0 C111 0 117 0 117 0 C117 0 233 0 233 0 C234 4 236 18 237 20 C237 20 216 20 216 20 C160 20 135 29 193 152 C193 152 265 294 265 294 C265 294 530 294 530 294 C530 294 547 140 547 140 C547 140 547 140 547 140 C561 28 539 20 493 20 C493 20 472 20 472 20 C471 10 469 8 469 0 L469 0 Z M267 299 C267 299 481 725 481 725 C481 725 529 299 529 299 C529 299 267 299 267 299 L267 299 Z " />
<glyph glyph-name="Adieresis" unicode="&#xc4;" horiz-adv-x="662" d="M575 865 C589 865 597 872 599 885 C601 898 596 905 582 905 C569 905 561 898 559 885 C557 872 562 865 575 865 L575 865 Z M448 865 C462 865 470 872 472 885 C474 898 469 905 455 905 C442 905 434 898 432 885 C430 872 435 865 448 865 L448 865 Z M469 0 C469 0 563 0 563 0 C563 0 587 0 587 0 C587 0 648 0 648 0 C648 2 651 12 651 20 C651 20 627 20 627 20 C599 20 584 28 571 140 C571 140 571 140 571 140 C571 140 501 743 501 743 C501 743 498 770 498 770 C498 770 496 770 496 770 C480 751 474 742 479 743 C479 743 480 733 480 733 C480 733 480 733 480 733 C480 733 197 170 197 170 C197 170 196 170 196 170 C126 30 96 20 48 20 C48 20 26 20 26 20 C25 16 23 2 22 0 C22 0 111 0 111 0 C111 0 117 0 117 0 C117 0 233 0 233 0 C234 4 236 18 237 20 C237 20 216 20 216 20 C160 20 135 29 193 152 C193 152 265 294 265 294 C265 294 530 294 530 294 C530 294 547 140 547 140 C547 140 547 140 547 140 C561 28 539 20 493 20 C493 20 472 20 472 20 C471 10 469 8 469 0 L469 0 Z M267 299 C267 299 481 725 481 725 C481 725 529 299 529 299 C529 299 267 299 267 299 L267 299 Z " />
<glyph glyph-name="Aring" unicode="&#xc5;" horiz-adv-x="662" d="M503 815 C450 815 420 851 429 905 C440 965 475 995 535 995 C594 995 619 965 609 905 C599 851 557 815 503 815 L503 815 Z M423 905 C413 848 445 810 502 810 C559 810 605 848 614 905 C626 968 599 1000 536 1000 C472 1000 435 968 423 905 L423 905 Z M469 0 C469 0 563 0 563 0 C563 0 587 0 587 0 C587 0 648 0 648 0 C648 2 651 12 651 20 C651 20 627 20 627 20 C599 20 584 28 571 140 C571 140 571 140 571 140 C571 140 501 743 501 743 C501 743 498 770 498 770 C498 770 496 770 496 770 C480 751 474 742 479 743 C479 743 480 733 480 733 C480 733 480 733 480 733 C480 733 197 170 197 170 C197 170 196 170 196 170 C126 30 96 20 48 20 C48 20 26 20 26 20 C25 16 23 2 22 0 C22 0 111 0 111 0 C111 0 117 0 117 0 C117 0 233 0 233 0 C234 4 236 18 237 20 C237 20 216 20 216 20 C160 20 135 29 193 152 C193 152 265 294 265 294 C265 294 530 294 530 294 C530 294 547 140 547 140 C547 140 547 140 547 140 C561 28 539 20 493 20 C493 20 472 20 472 20 C471 10 469 8 469 0 L469 0 Z M267 299 C267 299 481 725 481 725 C481 725 529 299 529 299 C529 299 267 299 267 299 L267 299 Z " />
<glyph glyph-name="Egrave" unicode="&#xc8;" horiz-adv-x="565" d="M580 657 C580 657 600 657 600 657 C602 689 606 719 610 750 C610 750 490 750 490 750 C490 750 300 750 300 750 C300 750 277 750 277 750 C277 750 204 750 204 750 C203 750 200 730 200 730 C200 730 211 730 211 730 C253 730 273 725 262 665 C262 665 262 665 262 665 C262 665 159 82 159 82 C148 25 126 20 86 20 C86 20 75 20 75 20 C74 16 72 2 71 0 C71 0 145 0 145 0 C145 0 167 0 167 0 C167 0 382 0 382 0 C382 0 502 0 502 0 C512 31 522 61 532 93 C532 93 512 93 512 93 C512 93 508 82 508 82 C492 31 477 5 384 5 C384 5 248 5 248 5 C179 5 172 24 178 61 C178 61 168 5 168 5 C168 5 167 0 167 0 C167 0 235 385 235 385 C235 385 365 385 365 385 C463 385 461 350 448 287 C448 287 468 287 468 287 C474 320 479 352 485 385 C485 385 485 385 485 385 C485 385 486 390 486 390 C486 390 486 390 486 390 C491 423 497 456 504 489 C504 489 484 489 484 489 C484 489 482 478 482 478 C471 420 459 390 366 390 C366 390 236 390 236 390 C236 390 285 665 285 665 C285 665 285 665 285 665 C285 667 286 669 286 671 C286 671 299 745 299 745 C299 745 489 745 489 745 C605 745 586 716 580 657 C580 657 580 657 580 657 L580 657 Z M355 949 C317 997 297 1022 293 1022 C287 1022 283 1018 282 1012 C281 1009 302 985 345 940 C345 940 459 814 459 814 C459 814 462 817 462 817 C462 817 355 949 355 949 L355 949 Z M178 61 C179 67 181 73 182 80 C182 80 178 61 178 61 L178 61 Z " />
<glyph glyph-name="Eacute" unicode="&#xc9;" horiz-adv-x="565" d="M460 814 C460 814 619 940 619 940 C678 987 707 1011 708 1012 C709 1018 705 1022 700 1022 C698 1022 669 997 612 949 C612 949 458 817 458 817 C458 817 460 814 460 814 L460 814 Z M580 657 C580 657 600 657 600 657 C602 689 606 719 610 750 C610 750 490 750 490 750 C490 750 300 750 300 750 C300 750 277 750 277 750 C277 750 204 750 204 750 C203 750 200 730 200 730 C200 730 211 730 211 730 C253 730 273 725 262 665 C262 665 262 665 262 665 C262 665 159 82 159 82 C148 25 126 20 86 20 C86 20 75 20 75 20 C74 16 72 2 71 0 C71 0 145 0 145 0 C145 0 167 0 167 0 C167 0 382 0 382 0 C382 0 502 0 502 0 C512 31 522 61 532 93 C532 93 512 93 512 93 C512 93 508 82 508 82 C492 31 477 5 384 5 C384 5 248 5 248 5 C179 5 172 24 178 61 C178 61 168 5 168 5 C168 5 167 0 167 0 C167 0 235 385 235 385 C235 385 365 385 365 385 C463 385 461 350 448 287 C448 287 468 287 468 287 C474 320 479 352 485 385 C485 385 485 385 485 385 C485 385 486 390 486 390 C486 390 486 390 486 390 C491 423 497 456 504 489 C504 489 484 489 484 489 C484 489 482 478 482 478 C471 420 459 390 366 390 C366 390 236 390 236 390 C236 390 285 665 285 665 C285 665 285 665 285 665 C285 667 286 669 286 671 C286 671 299 745 299 745 C299 745 489 745 489 745 C605 745 586 716 580 657 C580 657 580 657 580 657 L580 657 Z M178 61 C179 67 181 73 182 80 C182 80 178 61 178 61 L178 61 Z " />
<glyph glyph-name="Ecircumflex" unicode="&#xca;" horiz-adv-x="565" d="M580 657 C580 657 600 657 600 657 C602 689 606 719 610 750 C610 750 490 750 490 750 C490 750 300 750 300 750 C300 750 277 750 277 750 C277 750 204 750 204 750 C203 750 200 730 200 730 C200 730 211 730 211 730 C253 730 273 725 262 665 C262 665 262 665 262 665 C262 665 159 82 159 82 C148 25 126 20 86 20 C86 20 75 20 75 20 C74 16 72 2 71 0 C71 0 145 0 145 0 C145 0 167 0 167 0 C167 0 382 0 382 0 C382 0 502 0 502 0 C512 31 522 61 532 93 C532 93 512 93 512 93 C512 93 508 82 508 82 C492 31 477 5 384 5 C384 5 248 5 248 5 C179 5 172 24 178 61 C178 61 168 5 168 5 C168 5 167 0 167 0 C167 0 235 385 235 385 C235 385 365 385 365 385 C463 385 461 350 448 287 C448 287 468 287 468 287 C474 320 479 352 485 385 C485 385 485 385 485 385 C485 385 486 390 486 390 C486 390 486 390 486 390 C491 423 497 456 504 489 C504 489 484 489 484 489 C484 489 482 478 482 478 C471 420 459 390 366 390 C366 390 236 390 236 390 C236 390 285 665 285 665 C285 665 285 665 285 665 C285 667 286 669 286 671 C286 671 299 745 299 745 C299 745 489 745 489 745 C605 745 586 716 580 657 C580 657 580 657 580 657 L580 657 Z M489 1007 C489 1007 598 809 598 809 C598 809 601 811 601 811 C601 811 499 1024 499 1024 C498 1026 496 1031 493 1031 C490 1031 487 1028 486 1024 C486 1024 485 1024 485 1024 C485 1024 308 811 308 811 C308 811 310 809 310 809 C310 809 489 1007 489 1007 L489 1007 Z M178 61 C179 67 181 73 182 80 C182 80 178 61 178 61 L178 61 Z " />
<glyph glyph-name="Edieresis" unicode="&#xcb;" horiz-adv-x="565" d="M527 865 C541 865 549 872 551 885 C553 898 548 905 534 905 C521 905 513 898 511 885 C509 872 514 865 527 865 L527 865 Z M400 865 C414 865 422 872 424 885 C426 898 421 905 407 905 C394 905 386 898 384 885 C382 872 387 865 400 865 L400 865 Z M580 657 C580 657 600 657 600 657 C602 689 606 719 610 750 C610 750 490 750 490 750 C490 750 300 750 300 750 C300 750 277 750 277 750 C277 750 204 750 204 750 C203 750 200 730 200 730 C200 730 211 730 211 730 C253 730 273 725 262 665 C262 665 262 665 262 665 C262 665 159 82 159 82 C148 25 126 20 86 20 C86 20 75 20 75 20 C74 16 72 2 71 0 C71 0 145 0 145 0 C145 0 167 0 167 0 C167 0 382 0 382 0 C382 0 502 0 502 0 C512 31 522 61 532 93 C532 93 512 93 512 93 C512 93 508 82 508 82 C492 31 477 5 384 5 C384 5 248 5 248 5 C179 5 172 24 178 61 C178 61 168 5 168 5 C168 5 167 0 167 0 C167 0 235 385 235 385 C235 385 365 385 365 385 C463 385 461 350 448 287 C448 287 468 287 468 287 C474 320 479 352 485 385 C485 385 485 385 485 385 C485 385 486 390 486 390 C486 390 486 390 486 390 C491 423 497 456 504 489 C504 489 484 489 484 489 C484 489 482 478 482 478 C471 420 459 390 366 390 C366 390 236 390 236 390 C236 390 285 665 285 665 C285 665 285 665 285 665 C285 667 286 669 286 671 C286 671 299 745 299 745 C299 745 489 745 489 745 C605 745 586 716 580 657 C580 657 580 657 580 657 L580 657 Z M178 61 C179 67 181 73 182 80 C182 80 178 61 178 61 L178 61 Z " />
<glyph glyph-name="Igrave" unicode="&#xcc;" horiz-adv-x="307" d="M388 750 C388 750 218 750 218 750 C218 750 215 730 214 730 C214 730 225 730 225 730 C267 730 287 726 278 670 C278 670 174 80 174 80 C163 24 142 20 100 20 C100 20 89 20 89 20 C88 10 86 8 86 0 C86 0 256 0 256 0 C256 0 259 20 259 20 C259 20 248 20 248 20 C207 20 186 24 196 80 C196 80 300 670 300 670 C310 726 332 730 374 730 C374 730 384 730 384 730 C385 730 388 750 388 750 L388 750 Z M215 949 C177 997 156 1022 153 1022 C147 1022 142 1018 141 1012 C141 1009 162 985 204 940 C204 940 319 814 319 814 C319 814 322 817 322 817 C322 817 215 949 215 949 L215 949 Z " />
<glyph glyph-name="Iacute" unicode="&#xcd;" horiz-adv-x="307" d="M320 814 C320 814 479 940 479 940 C538 987 567 1011 567 1012 C568 1018 565 1022 559 1022 C558 1022 528 997 471 949 C471 949 318 817 318 817 C318 817 320 814 320 814 L320 814 Z M388 750 C388 750 218 750 218 750 C218 750 215 730 214 730 C214 730 225 730 225 730 C267 730 287 726 278 670 C278 670 174 80 174 80 C163 24 142 20 100 20 C100 20 89 20 89 20 C88 10 86 8 86 0 C86 0 256 0 256 0 C256 0 259 20 259 20 C259 20 248 20 248 20 C207 20 186 24 196 80 C196 80 300 670 300 670 C310 726 332 730 374 730 C374 730 384 730 384 730 C385 730 388 750 388 750 L388 750 Z " />
<glyph glyph-name="Icircumflex" unicode="&#xce;" horiz-adv-x="307" d="M388 750 C388 750 218 750 218 750 C218 750 215 730 214 730 C214 730 225 730 225 730 C267 730 287 726 278 670 C278 670 174 80 174 80 C163 24 142 20 100 20 C100 20 89 20 89 20 C88 10 86 8 86 0 C86 0 256 0 256 0 C256 0 259 20 259 20 C259 20 248 20 248 20 C207 20 186 24 196 80 C196 80 300 670 300 670 C310 726 332 730 374 730 C374 730 384 730 384 730 C385 730 388 750 388 750 L388 750 Z M348 1007 C348 1007 457 809 457 809 C457 809 460 811 460 811 C460 811 358 1024 358 1024 C357 1026 355 1031 353 1031 C349 1031 346 1028 345 1024 C345 1024 344 1024 344 1024 C344 1024 167 811 167 811 C167 811 169 809 169 809 C169 809 348 1007 348 1007 L348 1007 Z " />
<glyph glyph-name="Idieresis" unicode="&#xcf;" horiz-adv-x="307" d="M387 865 C400 865 408 872 410 885 C412 898 407 905 394 905 C380 905 372 898 370 885 C368 872 373 865 387 865 L387 865 Z M260 865 C273 865 281 872 283 885 C285 898 280 905 267 905 C253 905 245 898 243 885 C241 872 246 865 260 865 L260 865 Z M388 750 C388 750 218 750 218 750 C218 750 215 730 214 730 C214 730 225 730 225 730 C267 730 287 726 278 670 C278 670 174 80 174 80 C163 24 142 20 100 20 C100 20 89 20 89 20 C88 10 86 8 86 0 C86 0 256 0 256 0 C256 0 259 20 259 20 C259 20 248 20 248 20 C207 20 186 24 196 80 C196 80 300 670 300 670 C310 726 332 730 374 730 C374 730 384 730 384 730 C385 730 388 750 388 750 L388 750 Z " />
<glyph glyph-name="Ntilde" unicode="&#xd1;" horiz-adv-x="711" d="M365 870 C374 917 394 941 426 941 C494 941 530 876 599 876 C637 876 661 901 669 951 C669 951 666 951 666 951 C659 911 639 891 606 891 C537 891 502 956 433 956 C395 956 372 927 362 870 C362 870 365 870 365 870 L365 870 Z M203 730 C203 730 229 730 229 730 C238 730 244 729 252 719 C252 719 150 149 150 149 C150 149 150 150 150 150 C129 29 106 20 62 20 C62 20 40 20 40 20 C39 16 37 2 36 0 C36 0 124 0 124 0 C124 0 131 0 131 0 C131 0 219 0 219 0 C219 0 222 20 222 20 C222 20 199 20 199 20 C160 20 139 27 151 112 C151 112 256 713 256 713 C258 710 260 706 262 701 C262 701 565 32 565 32 C565 32 580 0 580 0 C580 0 584 0 584 0 C584 0 697 630 697 630 C697 630 697 630 697 630 C713 723 740 730 791 730 C791 730 802 730 802 730 C802 730 805 750 806 750 C806 750 718 750 718 750 C718 750 711 750 711 750 C711 750 624 750 624 750 C623 750 620 730 620 730 C620 730 631 730 631 730 C682 730 706 723 690 630 C690 630 690 630 690 630 C690 630 580 0 580 0 C580 0 587 42 587 42 C587 42 586 44 586 44 C586 44 267 750 267 750 C267 750 262 750 262 750 C262 750 257 750 257 750 C257 750 240 750 240 750 C240 750 207 750 207 750 C206 750 203 730 203 730 L203 730 Z " />
<glyph glyph-name="Ograve" unicode="&#xd2;" horiz-adv-x="767" d="M377 -4 C190 -4 118 123 162 375 C207 627 326 754 519 754 C719 754 798 627 753 375 C709 123 582 -4 377 -4 L377 -4 Z M137 375 C92 119 172 -10 375 -10 C598 -10 734 119 779 375 C824 631 737 760 521 760 C311 760 182 631 137 375 L137 375 Z M431 949 C393 997 372 1022 369 1022 C363 1022 358 1018 357 1012 C357 1009 378 985 420 940 C420 940 535 814 535 814 C535 814 538 817 538 817 C538 817 431 949 431 949 L431 949 Z " />
<glyph glyph-name="Oacute" unicode="&#xd3;" horiz-adv-x="767" d="M536 814 C536 814 695 940 695 940 C753 987 783 1011 783 1012 C784 1018 781 1022 775 1022 C774 1022 744 997 687 949 C687 949 534 817 534 817 C534 817 536 814 536 814 L536 814 Z M377 -4 C190 -4 118 123 162 375 C207 627 326 754 519 754 C719 754 798 627 753 375 C709 123 582 -4 377 -4 L377 -4 Z M137 375 C92 119 172 -10 375 -10 C598 -10 734 119 779 375 C824 631 737 760 521 760 C311 760 182 631 137 375 L137 375 Z " />
<glyph glyph-name="Ocircumflex" unicode="&#xd4;" horiz-adv-x="767" d="M377 -4 C190 -4 118 123 162 375 C207 627 326 754 519 754 C719 754 798 627 753 375 C709 123 582 -4 377 -4 L377 -4 Z M137 375 C92 119 172 -10 375 -10 C598 -10 734 119 779 375 C824 631 737 760 521 760 C311 760 182 631 137 375 L137 375 Z M564 1007 C564 1007 673 809 673 809 C673 809 676 811 676 811 C676 811 574 1024 574 1024 C573 1026 571 1031 568 1031 C565 1031 562 1028 561 1024 C561 1024 560 1024 560 1024 C560 1024 383 811 383 811 C383 811 385 809 385 809 C385 809 564 1007 564 1007 L564 1007 Z " />
<glyph glyph-name="Otilde" unicode="&#xd5;" horiz-adv-x="767" d="M397 870 C405 917 425 941 457 941 C526 941 561 876 631 876 C668 876 692 901 701 951 C701 951 697 951 697 951 C691 911 670 891 638 891 C569 891 534 956 465 956 C427 956 403 927 393 870 C393 870 397 870 397 870 L397 870 Z M377 -4 C190 -4 118 123 162 375 C207 627 326 754 519 754 C719 754 798 627 753 375 C709 123 582 -4 377 -4 L377 -4 Z M137 375 C92 119 172 -10 375 -10 C598 -10 734 119 779 375 C824 631 737 760 521 760 C311 760 182 631 137 375 L137 375 Z " />
<glyph glyph-name="Odieresis" unicode="&#xd6;" horiz-adv-x="767" d="M603 865 C616 865 624 872 626 885 C628 898 623 905 610 905 C596 905 588 898 586 885 C584 872 589 865 603 865 L603 865 Z M476 865 C489 865 497 872 499 885 C501 898 496 905 483 905 C469 905 461 898 459 885 C457 872 462 865 476 865 L476 865 Z M377 -4 C190 -4 118 123 162 375 C207 627 326 754 519 754 C719 754 798 627 753 375 C709 123 582 -4 377 -4 L377 -4 Z M137 375 C92 119 172 -10 375 -10 C598 -10 734 119 779 375 C824 631 737 760 521 760 C311 760 182 631 137 375 L137 375 Z " />
<glyph glyph-name="Oslash" unicode="&#xd8;" horiz-adv-x="767" d="M72 -13 C72 -13 167 81 167 81 C207 20 277 -10 375 -10 C598 -10 734 119 779 375 C801 500 791 595 751 659 C751 659 850 757 850 757 C850 757 843 763 843 763 C843 763 746 667 746 667 C702 729 627 760 521 760 C311 760 182 631 137 375 C115 248 123 152 162 88 C162 88 66 -7 66 -7 C66 -7 72 -13 72 -13 L72 -13 Z M377 -4 C282 -4 216 29 181 95 C181 95 736 644 736 644 C768 581 774 492 753 375 C709 123 582 -4 377 -4 C377 -4 377 -4 377 -4 L377 -4 Z M177 103 C146 166 141 257 162 375 C207 627 326 754 519 754 C622 754 693 720 732 653 C732 653 177 103 177 103 L177 103 Z " />
<glyph glyph-name="Ugrave" unicode="&#xd9;" horiz-adv-x="604" d="M542 730 C542 730 552 730 552 730 C594 730 615 725 604 665 C604 665 515 163 515 163 C447 58 352 4 231 4 C166 4 146 77 171 220 C171 220 250 665 250 665 C263 744 264 750 265 750 C265 750 169 750 169 750 C168 750 165 730 165 730 C165 730 176 730 176 730 C218 730 238 725 227 665 C227 665 149 220 149 220 C122 67 146 -10 219 -10 C345 -10 443 45 513 152 C513 152 506 110 506 110 C506 110 487 0 487 0 C487 0 490 0 490 0 C490 0 592 55 592 55 C592 55 594 65 594 65 C525 61 520 63 529 110 C529 110 626 665 626 665 C640 744 641 750 641 750 C641 750 545 750 545 750 C545 750 542 730 542 730 L542 730 Z M354 949 C316 997 295 1022 292 1022 C286 1022 281 1018 280 1012 C280 1009 301 985 343 940 C343 940 458 814 458 814 C458 814 461 817 461 817 C461 817 354 949 354 949 L354 949 Z " />
<glyph glyph-name="Uacute" unicode="&#xda;" horiz-adv-x="604" d="M459 814 C459 814 618 940 618 940 C677 987 706 1011 706 1012 C707 1018 704 1022 698 1022 C697 1022 667 997 610 949 C610 949 457 817 457 817 C457 817 459 814 459 814 L459 814 Z M542 730 C542 730 552 730 552 730 C594 730 615 725 604 665 C604 665 515 163 515 163 C447 58 352 4 231 4 C166 4 146 77 171 220 C171 220 250 665 250 665 C263 744 264 750 265 750 C265 750 169 750 169 750 C168 750 165 730 165 730 C165 730 176 730 176 730 C218 730 238 725 227 665 C227 665 149 220 149 220 C122 67 146 -10 219 -10 C345 -10 443 45 513 152 C513 152 506 110 506 110 C506 110 487 0 487 0 C487 0 490 0 490 0 C490 0 592 55 592 55 C592 55 594 65 594 65 C525 61 520 63 529 110 C529 110 626 665 626 665 C640 744 641 750 641 750 C641 750 545 750 545 750 C545 750 542 730 542 730 L542 730 Z " />
<glyph glyph-name="Ucircumflex" unicode="&#xdb;" horiz-adv-x="604" d="M542 730 C542 730 552 730 552 730 C594 730 615 725 604 665 C604 665 515 163 515 163 C447 58 352 4 231 4 C166 4 146 77 171 220 C171 220 250 665 250 665 C263 744 264 750 265 750 C265 750 169 750 169 750 C168 750 165 730 165 730 C165 730 176 730 176 730 C218 730 238 725 227 665 C227 665 149 220 149 220 C122 67 146 -10 219 -10 C345 -10 443 45 513 152 C513 152 506 110 506 110 C506 110 487 0 487 0 C487 0 490 0 490 0 C490 0 592 55 592 55 C592 55 594 65 594 65 C525 61 520 63 529 110 C529 110 626 665 626 665 C640 744 641 750 641 750 C641 750 545 750 545 750 C545 750 542 730 542 730 L542 730 Z M487 1007 C487 1007 596 809 596 809 C596 809 599 811 599 811 C599 811 497 1024 497 1024 C496 1026 494 1031 491 1031 C488 1031 485 1028 484 1024 C484 1024 483 1024 483 1024 C483 1024 306 811 306 811 C306 811 308 809 308 809 C308 809 487 1007 487 1007 L487 1007 Z " />
<glyph glyph-name="Udieresis" unicode="&#xdc;" horiz-adv-x="604" d="M526 865 C539 865 547 872 549 885 C551 898 546 905 533 905 C519 905 511 898 509 885 C507 872 512 865 526 865 L526 865 Z M399 865 C412 865 420 872 422 885 C424 898 419 905 406 905 C392 905 384 898 382 885 C380 872 385 865 399 865 L399 865 Z M542 730 C542 730 552 730 552 730 C594 730 615 725 604 665 C604 665 515 163 515 163 C447 58 352 4 231 4 C166 4 146 77 171 220 C171 220 250 665 250 665 C263 744 264 750 265 750 C265 750 169 750 169 750 C168 750 165 730 165 730 C165 730 176 730 176 730 C218 730 238 725 227 665 C227 665 149 220 149 220 C122 67 146 -10 219 -10 C345 -10 443 45 513 152 C513 152 506 110 506 110 C506 110 487 0 487 0 C487 0 490 0 490 0 C490 0 592 55 592 55 C592 55 594 65 594 65 C525 61 520 63 529 110 C529 110 626 665 626 665 C640 744 641 750 641 750 C641 750 545 750 545 750 C545 750 542 730 542 730 L542 730 Z " />
<glyph glyph-name="Yacute" unicode="&#xdd;" horiz-adv-x="626" d="M466 814 C466 814 625 940 625 940 C684 987 713 1011 713 1012 C714 1018 711 1022 705 1022 C704 1022 675 997 617 949 C617 949 464 817 464 817 C464 817 466 814 466 814 L466 814 Z M301 750 C301 750 228 750 228 750 C228 750 201 750 201 750 C201 750 167 750 167 750 C166 740 164 738 164 730 C164 730 190 730 190 730 C201 730 209 725 236 663 C236 663 365 336 365 336 C365 336 365 336 365 336 C365 336 320 80 320 80 C310 24 288 20 246 20 C246 20 236 20 236 20 C235 16 233 2 232 0 C232 0 402 0 402 0 C402 2 405 12 405 20 C405 20 395 20 395 20 C353 20 332 24 342 80 C342 80 387 337 387 337 C387 337 599 628 599 628 C670 723 687 730 709 730 C709 730 733 730 733 730 C734 730 737 750 737 750 C737 750 688 750 688 750 C688 750 677 750 677 750 C677 750 603 750 603 750 C602 740 600 738 600 730 C600 730 620 730 620 730 C649 730 658 722 584 620 C584 620 584 620 584 620 C584 620 387 344 387 344 C387 344 267 649 267 649 C241 724 253 730 278 730 C278 730 298 730 298 730 C299 740 301 742 301 750 C301 750 301 750 301 750 L301 750 Z " />
<glyph glyph-name="agrave" unicode="&#xe0;" horiz-adv-x="511" d="M532 56 C532 56 525 60 525 60 C513 26 491 9 461 9 C421 9 405 27 411 64 C411 64 464 361 464 361 C484 475 445 510 356 510 C233 510 155 420 144 360 C143 351 145 346 152 346 C169 346 178 351 179 356 C181 369 160 365 162 373 C171 425 240 504 348 504 C428 504 463 472 445 368 C445 368 427 269 427 269 C126 181 91 171 74 74 C64 18 98 -10 175 -10 C261 -10 324 10 396 90 C396 90 391 64 391 64 C383 18 403 -5 450 -5 C490 -5 517 16 532 56 C532 56 532 56 532 56 L532 56 Z M266 699 C228 747 207 772 204 772 C198 772 193 768 192 762 C192 759 213 735 255 690 C255 690 370 564 370 564 C370 564 373 567 373 567 C373 567 266 699 266 699 L266 699 Z M427 265 C427 265 397 95 397 95 C330 21 270 1 188 1 C117 1 86 26 95 76 C111 173 144 182 427 265 C427 265 427 265 427 265 L427 265 Z " />
<glyph glyph-name="aacute" unicode="&#xe1;" horiz-adv-x="511" d="M371 564 C371 564 530 690 530 690 C589 737 618 761 618 762 C619 768 616 772 610 772 C609 772 580 747 522 699 C522 699 369 567 369 567 C369 567 371 564 371 564 L371 564 Z M532 56 C532 56 525 60 525 60 C513 26 491 9 461 9 C421 9 405 27 411 64 C411 64 464 361 464 361 C484 475 445 510 356 510 C233 510 155 420 144 360 C143 351 145 346 152 346 C169 346 178 351 179 356 C181 369 160 365 162 373 C171 425 240 504 348 504 C428 504 463 472 445 368 C445 368 427 269 427 269 C126 181 91 171 74 74 C64 18 98 -10 175 -10 C261 -10 324 10 396 90 C396 90 391 64 391 64 C383 18 403 -5 450 -5 C490 -5 517 16 532 56 C532 56 532 56 532 56 L532 56 Z M427 265 C427 265 397 95 397 95 C330 21 270 1 188 1 C117 1 86 26 95 76 C111 173 144 182 427 265 C427 265 427 265 427 265 L427 265 Z " />
<glyph glyph-name="acircumflex" unicode="&#xe2;" horiz-adv-x="511" d="M532 56 C532 56 525 60 525 60 C513 26 491 9 461 9 C421 9 405 27 411 64 C411 64 464 361 464 361 C484 475 445 510 356 510 C233 510 155 420 144 360 C143 351 145 346 152 346 C169 346 178 351 179 356 C181 369 160 365 162 373 C171 425 240 504 348 504 C428 504 463 472 445 368 C445 368 427 269 427 269 C126 181 91 171 74 74 C64 18 98 -10 175 -10 C261 -10 324 10 396 90 C396 90 391 64 391 64 C383 18 403 -5 450 -5 C490 -5 517 16 532 56 C532 56 532 56 532 56 L532 56 Z M399 757 C399 757 508 559 508 559 C508 559 512 561 512 561 C512 561 410 774 410 774 C408 776 406 781 404 781 C402 781 398 776 395 774 C395 774 218 561 218 561 C218 561 221 559 221 559 C221 559 399 757 399 757 L399 757 Z M427 265 C427 265 397 95 397 95 C330 21 270 1 188 1 C117 1 86 26 95 76 C111 173 144 182 427 265 C427 265 427 265 427 265 L427 265 Z " />
<glyph glyph-name="atilde" unicode="&#xe3;" horiz-adv-x="511" d="M232 620 C241 667 261 691 293 691 C362 691 397 626 466 626 C504 626 528 651 536 701 C536 701 533 701 533 701 C526 661 506 641 473 641 C404 641 369 706 300 706 C262 706 239 677 229 620 C229 620 232 620 232 620 L232 620 Z M532 56 C532 56 525 60 525 60 C513 26 491 9 461 9 C421 9 405 27 411 64 C411 64 464 361 464 361 C484 475 445 510 356 510 C233 510 155 420 144 360 C143 351 145 346 152 346 C169 346 178 351 179 356 C181 369 160 365 162 373 C171 425 240 504 348 504 C428 504 463 472 445 368 C445 368 427 269 427 269 C126 181 91 171 74 74 C64 18 98 -10 175 -10 C261 -10 324 10 396 90 C396 90 391 64 391 64 C383 18 403 -5 450 -5 C490 -5 517 16 532 56 C532 56 532 56 532 56 L532 56 Z M427 265 C427 265 397 95 397 95 C330 21 270 1 188 1 C117 1 86 26 95 76 C111 173 144 182 427 265 C427 265 427 265 427 265 L427 265 Z " />
<glyph glyph-name="adieresis" unicode="&#xe4;" horiz-adv-x="511" d="M438 615 C452 615 459 622 461 635 C464 648 459 655 445 655 C432 655 424 648 421 635 C419 622 425 615 438 615 L438 615 Z M311 615 C324 615 332 622 334 635 C336 648 331 655 318 655 C304 655 296 648 294 635 C292 622 297 615 311 615 L311 615 Z M532 56 C532 56 525 60 525 60 C513 26 491 9 461 9 C421 9 405 27 411 64 C411 64 464 361 464 361 C484 475 445 510 356 510 C233 510 155 420 144 360 C143 351 145 346 152 346 C169 346 178 351 179 356 C181 369 160 365 162 373 C171 425 240 504 348 504 C428 504 463 472 445 368 C445 368 427 269 427 269 C126 181 91 171 74 74 C64 18 98 -10 175 -10 C261 -10 324 10 396 90 C396 90 391 64 391 64 C383 18 403 -5 450 -5 C490 -5 517 16 532 56 C532 56 532 56 532 56 L532 56 Z M427 265 C427 265 397 95 397 95 C330 21 270 1 188 1 C117 1 86 26 95 76 C111 173 144 182 427 265 C427 265 427 265 427 265 L427 265 Z " />
<glyph glyph-name="aring" unicode="&#xe5;" horiz-adv-x="511" d="M366 565 C312 565 282 601 292 655 C302 715 338 745 397 745 C457 745 482 715 471 655 C462 601 419 565 366 565 L366 565 Z M286 655 C276 598 307 560 365 560 C422 560 467 598 477 655 C488 718 462 750 398 750 C334 750 297 718 286 655 L286 655 Z M532 56 C532 56 525 60 525 60 C513 26 491 9 461 9 C421 9 405 27 411 64 C411 64 464 361 464 361 C484 475 445 510 356 510 C233 510 155 420 144 360 C143 351 145 346 152 346 C169 346 178 351 179 356 C181 369 160 365 162 373 C171 425 240 504 348 504 C428 504 463 472 445 368 C445 368 427 269 427 269 C126 181 91 171 74 74 C64 18 98 -10 175 -10 C261 -10 324 10 396 90 C396 90 391 64 391 64 C383 18 403 -5 450 -5 C490 -5 517 16 532 56 C532 56 532 56 532 56 L532 56 Z M427 265 C427 265 397 95 397 95 C330 21 270 1 188 1 C117 1 86 26 95 76 C111 173 144 182 427 265 C427 265 427 265 427 265 L427 265 Z " />
<glyph glyph-name="egrave" unicode="&#xe8;" horiz-adv-x="534" d="M304 699 C265 747 245 772 242 772 C236 772 231 768 230 762 C230 759 251 735 293 690 C293 690 407 564 407 564 C407 564 410 567 410 567 C410 567 304 699 304 699 L304 699 Z M148 340 C148 340 542 340 542 340 C542 340 564 340 564 340 C564 476 507 510 393 510 C230 510 132 419 100 238 C71 73 131 -10 279 -10 C386 -10 465 38 517 134 C517 134 515 135 515 135 C468 47 391 3 286 3 C149 3 94 85 122 246 C128 281 137 312 148 340 L148 340 Z M560 346 C560 346 560 346 560 346 C560 346 560 346 560 346 C560 346 560 346 560 346 L560 346 Z M542 346 C542 346 150 345 150 345 C194 451 275 505 392 505 C490 505 540 473 542 346 C542 346 542 346 542 346 L542 346 Z " />
<glyph glyph-name="eacute" unicode="&#xe9;" horiz-adv-x="534" d="M409 564 C409 564 567 690 567 690 C626 737 656 761 656 762 C657 768 654 772 648 772 C646 772 617 747 560 699 C560 699 407 567 407 567 C407 567 409 564 409 564 L409 564 Z M148 340 C148 340 542 340 542 340 C542 340 564 340 564 340 C564 476 507 510 393 510 C230 510 132 419 100 238 C71 73 131 -10 279 -10 C386 -10 465 38 517 134 C517 134 515 135 515 135 C468 47 391 3 286 3 C149 3 94 85 122 246 C128 281 137 312 148 340 L148 340 Z M560 346 C560 346 560 346 560 346 C560 346 560 346 560 346 C560 346 560 346 560 346 L560 346 Z M542 346 C542 346 150 345 150 345 C194 451 275 505 392 505 C490 505 540 473 542 346 C542 346 542 346 542 346 L542 346 Z " />
<glyph glyph-name="ecircumflex" unicode="&#xea;" horiz-adv-x="534" d="M437 757 C437 757 546 559 546 559 C546 559 549 561 549 561 C549 561 447 774 447 774 C446 776 444 781 441 781 C438 781 435 778 434 774 C434 774 433 774 433 774 C433 774 256 561 256 561 C256 561 258 559 258 559 C258 559 437 757 437 757 L437 757 Z M148 340 C148 340 542 340 542 340 C542 340 564 340 564 340 C564 476 507 510 393 510 C230 510 132 419 100 238 C71 73 131 -10 279 -10 C386 -10 465 38 517 134 C517 134 515 135 515 135 C468 47 391 3 286 3 C149 3 94 85 122 246 C128 281 137 312 148 340 L148 340 Z M560 346 C560 346 560 346 560 346 C560 346 560 346 560 346 C560 346 560 346 560 346 L560 346 Z M542 346 C542 346 150 345 150 345 C194 451 275 505 392 505 C490 505 540 473 542 346 C542 346 542 346 542 346 L542 346 Z " />
<glyph glyph-name="edieresis" unicode="&#xeb;" horiz-adv-x="534" d="M476 615 C489 615 497 622 499 635 C501 648 496 655 483 655 C469 655 461 648 459 635 C457 622 462 615 476 615 L476 615 Z M348 615 C362 615 370 622 372 635 C374 648 369 655 356 655 C342 655 334 648 332 635 C330 622 335 615 348 615 L348 615 Z M148 340 C148 340 542 340 542 340 C542 340 564 340 564 340 C564 476 507 510 393 510 C230 510 132 419 100 238 C71 73 131 -10 279 -10 C386 -10 465 38 517 134 C517 134 515 135 515 135 C468 47 391 3 286 3 C149 3 94 85 122 246 C128 281 137 312 148 340 L148 340 Z M560 346 C560 346 560 346 560 346 C560 346 560 346 560 346 C560 346 560 346 560 346 L560 346 Z M542 346 C542 346 150 345 150 345 C194 451 275 505 392 505 C490 505 540 473 542 346 C542 346 542 346 542 346 L542 346 Z " />
<glyph glyph-name="igrave" unicode="&#xec;" horiz-adv-x="241" d="M75 0 C75 0 209 0 209 0 C210 4 212 18 213 20 C213 20 202 20 202 20 C171 20 155 21 157 35 C157 35 220 390 220 390 C220 390 239 500 239 500 C239 500 236 500 236 500 C236 500 152 445 152 445 C152 445 151 435 151 435 C204 438 208 436 200 390 C200 390 137 35 137 35 C135 21 119 20 89 20 C89 20 78 20 78 20 C78 18 78 8 75 0 L75 0 Z M141 699 C103 747 82 772 79 772 C73 772 68 768 67 762 C67 759 88 735 130 690 C130 690 245 564 245 564 C245 564 248 567 248 567 C248 567 141 699 141 699 L141 699 Z " />
<glyph glyph-name="iacute" unicode="&#xed;" horiz-adv-x="241" d="M75 0 C75 0 209 0 209 0 C210 4 212 18 213 20 C213 20 202 20 202 20 C171 20 155 21 157 35 C157 35 220 390 220 390 C220 390 239 500 239 500 C239 500 236 500 236 500 C236 500 152 445 152 445 C152 445 151 435 151 435 C204 438 208 436 200 390 C200 390 137 35 137 35 C135 21 119 20 89 20 C89 20 78 20 78 20 C78 18 78 8 75 0 L75 0 Z M141 699 C103 747 82 772 79 772 C73 772 68 768 67 762 C67 759 88 735 130 690 C130 690 245 564 245 564 C245 564 248 567 248 567 C248 567 141 699 141 699 L141 699 Z " />
<glyph glyph-name="icircumflex" unicode="&#xee;" horiz-adv-x="241" d="M75 0 C75 0 209 0 209 0 C210 4 212 18 213 20 C213 20 202 20 202 20 C171 20 155 21 157 35 C157 35 220 390 220 390 C220 390 239 500 239 500 C239 500 236 500 236 500 C236 500 152 445 152 445 C152 445 151 435 151 435 C204 438 208 436 200 390 C200 390 137 35 137 35 C135 21 119 20 89 20 C89 20 78 20 78 20 C78 18 78 8 75 0 L75 0 Z M274 757 C274 757 384 559 384 559 C384 559 387 561 387 561 C387 561 285 774 285 774 C283 776 281 781 279 781 C277 781 273 776 270 774 C270 774 93 561 93 561 C93 561 96 559 96 559 C96 559 274 757 274 757 L274 757 Z " />
<glyph glyph-name="idieresis" unicode="&#xef;" horiz-adv-x="241" d="M313 615 C327 615 334 622 336 635 C339 648 334 655 320 655 C307 655 299 648 296 635 C294 622 300 615 313 615 L313 615 Z M186 615 C199 615 207 622 209 635 C211 648 206 655 193 655 C179 655 171 648 169 635 C167 622 172 615 186 615 L186 615 Z M75 0 C75 0 209 0 209 0 C210 4 212 18 213 20 C213 20 202 20 202 20 C171 20 155 21 157 35 C157 35 220 390 220 390 C220 390 239 500 239 500 C239 500 236 500 236 500 C236 500 152 445 152 445 C152 445 151 435 151 435 C204 438 208 436 200 390 C200 390 137 35 137 35 C135 21 119 20 89 20 C89 20 78 20 78 20 C78 18 78 8 75 0 L75 0 Z " />
<glyph glyph-name="ntilde" unicode="&#xf1;" horiz-adv-x="505" d="M226 620 C235 667 255 691 287 691 C356 691 391 626 460 626 C498 626 522 651 530 701 C530 701 527 701 527 701 C520 661 500 641 467 641 C398 641 363 706 294 706 C257 706 233 677 223 620 C223 620 226 620 226 620 L226 620 Z M126 452 C126 452 137 456 137 456 C171 468 188 469 176 400 C176 400 176 400 176 400 C176 400 112 35 112 35 C110 21 94 20 64 20 C64 20 53 20 53 20 C52 16 50 2 49 0 C49 0 182 0 182 0 C182 2 185 12 185 20 C185 20 175 20 175 20 C145 20 130 21 132 35 C132 35 196 400 196 400 C213 493 214 500 214 500 C214 500 210 500 210 500 C210 500 129 472 129 472 C127 460 126 458 126 452 L126 452 Z M338 0 C338 0 471 0 471 0 C471 2 474 12 474 20 C474 20 464 20 464 20 C434 20 419 21 421 35 C421 35 484 395 484 395 C498 471 470 510 375 510 C323 510 261 463 191 369 C191 369 190 363 190 363 C256 451 313 495 360 495 C449 495 476 461 464 395 C464 395 401 35 401 35 C399 21 383 20 353 20 C353 20 342 20 342 20 C341 16 339 2 338 0 L338 0 Z " />
<glyph glyph-name="ograve" unicode="&#xf2;" horiz-adv-x="609" d="M311 -4 C158 -4 95 81 125 250 C155 419 247 504 400 504 C553 504 616 419 586 250 C556 81 464 -4 311 -4 L311 -4 Z M103 250 C72 77 141 -10 309 -10 C477 -10 578 77 608 250 C639 423 569 510 401 510 C233 510 133 423 103 250 L103 250 Z M311 699 C273 747 252 772 249 772 C243 772 238 768 238 762 C237 759 258 735 301 690 C301 690 415 564 415 564 C415 564 418 567 418 567 C418 567 311 699 311 699 L311 699 Z " />
<glyph glyph-name="oacute" unicode="&#xf3;" horiz-adv-x="609" d="M416 564 C416 564 575 690 575 690 C634 737 663 761 664 762 C665 768 661 772 655 772 C654 772 625 747 568 699 C568 699 414 567 414 567 C414 567 416 564 416 564 L416 564 Z M311 -4 C158 -4 95 81 125 250 C155 419 247 504 400 504 C553 504 616 419 586 250 C556 81 464 -4 311 -4 L311 -4 Z M103 250 C72 77 141 -10 309 -10 C477 -10 578 77 608 250 C639 423 569 510 401 510 C233 510 133 423 103 250 L103 250 Z " />
<glyph glyph-name="ocircumflex" unicode="&#xf4;" horiz-adv-x="609" d="M311 -4 C158 -4 95 81 125 250 C155 419 247 504 400 504 C553 504 616 419 586 250 C556 81 464 -4 311 -4 L311 -4 Z M103 250 C72 77 141 -10 309 -10 C477 -10 578 77 608 250 C639 423 569 510 401 510 C233 510 133 423 103 250 L103 250 Z M445 757 C445 757 554 559 554 559 C554 559 557 561 557 561 C557 561 455 774 455 774 C454 776 452 781 449 781 C446 781 443 778 442 774 C442 774 441 774 441 774 C441 774 264 561 264 561 C264 561 266 559 266 559 C266 559 445 757 445 757 L445 757 Z " />
<glyph glyph-name="otilde" unicode="&#xf5;" horiz-adv-x="609" d="M277 620 C286 667 306 691 338 691 C407 691 442 626 511 626 C549 626 573 651 581 701 C581 701 578 701 578 701 C571 661 551 641 518 641 C450 641 414 706 345 706 C308 706 284 677 274 620 C274 620 277 620 277 620 L277 620 Z M311 -4 C158 -4 95 81 125 250 C155 419 247 504 400 504 C553 504 616 419 586 250 C556 81 464 -4 311 -4 L311 -4 Z M103 250 C72 77 141 -10 309 -10 C477 -10 578 77 608 250 C639 423 569 510 401 510 C233 510 133 423 103 250 L103 250 Z " />
<glyph glyph-name="odieresis" unicode="&#xf6;" horiz-adv-x="609" d="M483 615 C497 615 505 622 507 635 C509 648 504 655 490 655 C477 655 469 648 467 635 C465 622 470 615 483 615 L483 615 Z M356 615 C370 615 378 622 380 635 C382 648 377 655 363 655 C350 655 342 648 340 635 C338 622 343 615 356 615 L356 615 Z M311 -4 C158 -4 95 81 125 250 C155 419 247 504 400 504 C553 504 616 419 586 250 C556 81 464 -4 311 -4 L311 -4 Z M103 250 C72 77 141 -10 309 -10 C477 -10 578 77 608 250 C639 423 569 510 401 510 C233 510 133 423 103 250 L103 250 Z " />
<glyph glyph-name="oslash" unicode="&#xf8;" horiz-adv-x="609" d="M59 -12 C59 -12 133 53 133 53 C168 11 227 -10 309 -10 C477 -10 578 77 608 250 C623 335 614 399 581 443 C581 443 656 508 656 508 C656 508 652 512 652 512 C652 512 577 447 577 447 C543 489 484 510 401 510 C233 510 133 423 103 250 C88 165 97 101 130 57 C130 57 55 -8 55 -8 C55 -8 59 -12 59 -12 L59 -12 Z M311 -4 C232 -4 177 19 146 64 C146 64 568 431 568 431 C594 389 600 329 586 250 C556 81 464 -4 311 -4 C311 -4 311 -4 311 -4 L311 -4 Z M143 69 C117 111 111 171 125 250 C155 419 247 504 400 504 C479 504 534 481 565 436 C565 436 143 69 143 69 L143 69 Z " />
<glyph glyph-name="ugrave" unicode="&#xf9;" horiz-adv-x="484" d="M417 480 C417 480 427 480 427 480 C451 480 463 479 461 465 C461 465 402 130 402 130 C353 46 292 4 221 4 C148 4 120 56 138 160 C138 160 192 465 192 465 C198 498 198 500 198 500 C198 500 131 500 131 500 C131 500 128 480 128 480 C128 480 138 480 138 480 C162 480 174 479 172 465 C172 465 118 160 118 160 C98 47 129 -10 209 -10 C285 -10 349 35 401 125 C401 125 395 90 395 90 C378 -3 377 -10 377 -10 C377 -10 380 -10 380 -10 C380 -10 460 9 460 9 C460 9 463 29 464 29 C464 29 452 26 452 26 C420 18 403 20 414 90 C414 90 415 90 415 90 C415 90 481 465 481 465 C487 498 487 500 487 500 C487 500 420 500 420 500 C420 500 417 480 417 480 L417 480 Z M244 699 C206 747 185 772 182 772 C176 772 171 768 170 762 C170 759 191 735 233 690 C233 690 348 564 348 564 C348 564 351 567 351 567 C351 567 244 699 244 699 L244 699 Z M464 29 C464 29 464 29 464 29 C464 29 464 29 464 29 L464 29 Z " />
<glyph glyph-name="uacute" unicode="&#xfa;" horiz-adv-x="484" d="M349 564 C349 564 508 690 508 690 C567 737 596 761 597 762 C598 768 594 772 588 772 C587 772 558 747 501 699 C501 699 347 567 347 567 C347 567 349 564 349 564 L349 564 Z M417 480 C417 480 427 480 427 480 C451 480 463 479 461 465 C461 465 402 130 402 130 C353 46 292 4 221 4 C148 4 120 56 138 160 C138 160 192 465 192 465 C198 498 198 500 198 500 C198 500 131 500 131 500 C131 500 128 480 128 480 C128 480 138 480 138 480 C162 480 174 479 172 465 C172 465 118 160 118 160 C98 47 129 -10 209 -10 C285 -10 349 35 401 125 C401 125 395 90 395 90 C378 -3 377 -10 377 -10 C377 -10 380 -10 380 -10 C380 -10 460 9 460 9 C460 9 463 29 464 29 C464 29 452 26 452 26 C420 18 403 20 414 90 C414 90 415 90 415 90 C415 90 481 465 481 465 C487 498 487 500 487 500 C487 500 420 500 420 500 C420 500 417 480 417 480 L417 480 Z M464 29 C464 29 464 29 464 29 C464 29 464 29 464 29 L464 29 Z " />
<glyph glyph-name="ucircumflex" unicode="&#xfb;" horiz-adv-x="484" d="M417 480 C417 480 427 480 427 480 C451 480 463 479 461 465 C461 465 402 130 402 130 C353 46 292 4 221 4 C148 4 120 56 138 160 C138 160 192 465 192 465 C198 498 198 500 198 500 C198 500 131 500 131 500 C131 500 128 480 128 480 C128 480 138 480 138 480 C162 480 174 479 172 465 C172 465 118 160 118 160 C98 47 129 -10 209 -10 C285 -10 349 35 401 125 C401 125 395 90 395 90 C378 -3 377 -10 377 -10 C377 -10 380 -10 380 -10 C380 -10 460 9 460 9 C460 9 463 29 464 29 C464 29 452 26 452 26 C420 18 403 20 414 90 C414 90 415 90 415 90 C415 90 481 465 481 465 C487 498 487 500 487 500 C487 500 420 500 420 500 C420 500 417 480 417 480 L417 480 Z M377 757 C377 757 487 559 487 559 C487 559 490 561 490 561 C490 561 388 774 388 774 C387 776 385 781 382 781 C379 781 376 778 375 774 C375 774 374 774 374 774 C374 774 197 561 197 561 C197 561 199 559 199 559 C199 559 377 757 377 757 L377 757 Z M464 29 C464 29 464 29 464 29 C464 29 464 29 464 29 L464 29 Z " />
<glyph glyph-name="udieresis" unicode="&#xfc;" horiz-adv-x="484" d="M416 615 C430 615 438 622 440 635 C442 648 437 655 423 655 C410 655 402 648 400 635 C398 622 403 615 416 615 L416 615 Z M289 615 C303 615 311 622 313 635 C315 648 310 655 296 655 C283 655 275 648 273 635 C271 622 276 615 289 615 L289 615 Z M417 480 C417 480 427 480 427 480 C451 480 463 479 461 465 C461 465 402 130 402 130 C353 46 292 4 221 4 C148 4 120 56 138 160 C138 160 192 465 192 465 C198 498 198 500 198 500 C198 500 131 500 131 500 C131 500 128 480 128 480 C128 480 138 480 138 480 C162 480 174 479 172 465 C172 465 118 160 118 160 C98 47 129 -10 209 -10 C285 -10 349 35 401 125 C401 125 395 90 395 90 C378 -3 377 -10 377 -10 C377 -10 380 -10 380 -10 C380 -10 460 9 460 9 C460 9 463 29 464 29 C464 29 452 26 452 26 C420 18 403 20 414 90 C414 90 415 90 415 90 C415 90 481 465 481 465 C487 498 487 500 487 500 C487 500 420 500 420 500 C420 500 417 480 417 480 L417 480 Z M464 29 C464 29 464 29 464 29 C464 29 464 29 464 29 L464 29 Z " />
<glyph glyph-name="ydieresis" unicode="&#xff;" horiz-adv-x="460" d="M406 615 C419 615 427 622 429 635 C431 648 426 655 413 655 C399 655 391 648 389 635 C387 622 392 615 406 615 L406 615 Z M279 615 C292 615 300 622 302 635 C304 648 299 655 286 655 C272 655 264 648 262 635 C260 622 265 615 279 615 L279 615 Z M531 500 C531 500 478 500 478 500 C478 500 469 500 469 500 C469 500 402 500 402 500 C401 490 399 488 399 480 C399 480 420 480 420 480 C446 480 458 478 443 450 C443 450 443 450 443 450 C443 450 220 17 220 17 C220 17 179 453 179 453 C179 453 180 453 180 453 C177 478 185 480 202 480 C202 480 224 480 224 480 C224 480 228 500 228 500 C228 500 175 500 175 500 C175 500 153 500 153 500 C153 500 110 500 110 500 C110 500 106 480 106 480 C106 480 132 480 132 480 C146 480 154 478 157 461 C157 461 206 -10 206 -10 C206 -10 139 -140 139 -140 C130 -157 119 -165 104 -165 C99 -165 99 -158 94 -158 C86 -158 82 -161 81 -168 C79 -176 82 -180 90 -180 C112 -180 129 -168 141 -145 C141 -145 212 -10 212 -10 C212 -10 444 435 444 435 C444 435 444 434 444 434 C466 477 480 480 503 480 C503 480 527 480 527 480 C527 480 531 500 531 500 L531 500 Z " />
<glyph glyph-name="Amacron" unicode="&#x100;" horiz-adv-x="662" d="M369 907 C369 907 669 907 669 907 C669 907 672 920 672 920 C672 920 372 920 372 920 C372 920 369 907 369 907 L369 907 Z M469 0 C469 0 563 0 563 0 C563 0 587 0 587 0 C587 0 648 0 648 0 C648 2 651 12 651 20 C651 20 627 20 627 20 C599 20 584 28 571 140 C571 140 571 140 571 140 C571 140 501 743 501 743 C501 743 498 770 498 770 C498 770 496 770 496 770 C480 751 474 742 479 743 C479 743 480 733 480 733 C480 733 480 733 480 733 C480 733 197 170 197 170 C197 170 196 170 196 170 C126 30 96 20 48 20 C48 20 26 20 26 20 C25 16 23 2 22 0 C22 0 111 0 111 0 C111 0 117 0 117 0 C117 0 233 0 233 0 C234 4 236 18 237 20 C237 20 216 20 216 20 C160 20 135 29 193 152 C193 152 265 294 265 294 C265 294 530 294 530 294 C530 294 547 140 547 140 C547 140 547 140 547 140 C561 28 539 20 493 20 C493 20 472 20 472 20 C471 10 469 8 469 0 L469 0 Z M267 299 C267 299 481 725 481 725 C481 725 529 299 529 299 C529 299 267 299 267 299 L267 299 Z " />
<glyph glyph-name="amacron" unicode="&#x101;" horiz-adv-x="511" d="M232 657 C232 657 532 657 532 657 C532 657 534 670 534 670 C534 670 234 670 234 670 C234 670 232 657 232 657 L232 657 Z M532 56 C532 56 525 60 525 60 C513 26 491 9 461 9 C421 9 405 27 411 64 C411 64 464 361 464 361 C484 475 445 510 356 510 C233 510 155 420 144 360 C143 351 145 346 152 346 C169 346 178 351 179 356 C181 369 160 365 162 373 C171 425 240 504 348 504 C428 504 463 472 445 368 C445 368 427 269 427 269 C126 181 91 171 74 74 C64 18 98 -10 175 -10 C261 -10 324 10 396 90 C396 90 391 64 391 64 C383 18 403 -5 450 -5 C490 -5 517 16 532 56 C532 56 532 56 532 56 L532 56 Z M427 265 C427 265 397 95 397 95 C330 21 270 1 188 1 C117 1 86 26 95 76 C111 173 144 182 427 265 C427 265 427 265 427 265 L427 265 Z " />
<glyph glyph-name="Abreve" unicode="&#x102;" horiz-adv-x="662" d="M419 995 C409 934 443 904 519 904 C594 904 638 934 650 994 C650 994 646 995 646 995 C636 945 594 919 521 919 C448 919 415 945 423 995 C423 995 419 995 419 995 L419 995 Z M469 0 C469 0 563 0 563 0 C563 0 587 0 587 0 C587 0 648 0 648 0 C648 2 651 12 651 20 C651 20 627 20 627 20 C599 20 584 28 571 140 C571 140 571 140 571 140 C571 140 501 743 501 743 C501 743 498 770 498 770 C498 770 496 770 496 770 C480 751 474 742 479 743 C479 743 480 733 480 733 C480 733 480 733 480 733 C480 733 197 170 197 170 C197 170 196 170 196 170 C126 30 96 20 48 20 C48 20 26 20 26 20 C25 16 23 2 22 0 C22 0 111 0 111 0 C111 0 117 0 117 0 C117 0 233 0 233 0 C234 4 236 18 237 20 C237 20 216 20 216 20 C160 20 135 29 193 152 C193 152 265 294 265 294 C265 294 530 294 530 294 C530 294 547 140 547 140 C547 140 547 140 547 140 C561 28 539 20 493 20 C493 20 472 20 472 20 C471 10 469 8 469 0 L469 0 Z M267 299 C267 299 481 725 481 725 C481 725 529 299 529 299 C529 299 267 299 267 299 L267 299 Z " />
<glyph glyph-name="abreve" unicode="&#x103;" horiz-adv-x="511" d="M282 745 C272 684 306 654 381 654 C457 654 501 684 513 744 C513 744 509 745 509 745 C499 695 457 669 384 669 C311 669 278 695 286 745 C286 745 282 745 282 745 L282 745 Z M532 56 C532 56 525 60 525 60 C513 26 491 9 461 9 C421 9 405 27 411 64 C411 64 464 361 464 361 C484 475 445 510 356 510 C233 510 155 420 144 360 C143 351 145 346 152 346 C169 346 178 351 179 356 C181 369 160 365 162 373 C171 425 240 504 348 504 C428 504 463 472 445 368 C445 368 427 269 427 269 C126 181 91 171 74 74 C64 18 98 -10 175 -10 C261 -10 324 10 396 90 C396 90 391 64 391 64 C383 18 403 -5 450 -5 C490 -5 517 16 532 56 C532 56 532 56 532 56 L532 56 Z M427 265 C427 265 397 95 397 95 C330 21 270 1 188 1 C117 1 86 26 95 76 C111 173 144 182 427 265 C427 265 427 265 427 265 L427 265 Z " />
<glyph glyph-name="Cacute" unicode="&#x106;" horiz-adv-x="675" d="M507 814 C507 814 666 940 666 940 C725 987 754 1011 754 1012 C755 1018 752 1022 746 1022 C745 1022 715 997 658 949 C658 949 505 817 505 817 C505 817 507 814 507 814 L507 814 Z M726 561 C730 583 734 604 738 626 C738 626 738 626 738 626 C738 626 738 626 738 626 C738 629 739 631 739 634 C739 634 743 659 752 707 C752 707 737 707 737 707 C737 707 734 700 728 687 C726 682 700 692 654 724 C654 724 652 724 652 724 C617 748 570 760 492 760 C301 760 182 631 137 375 C92 119 162 -10 346 -10 C422 -10 478 3 526 28 C526 28 527 28 527 28 C527 28 572 44 618 61 C623 63 625 56 622 40 C622 40 634 40 634 40 C638 64 643 89 647 114 C647 114 648 117 649 124 C649 124 649 124 649 124 C649 124 649 124 649 124 C651 136 655 157 660 189 C660 189 645 189 645 189 C645 189 643 184 638 174 C608 116 552 46 501 23 C501 23 502 23 502 23 C460 4 412 -5 349 -5 C180 -5 117 123 162 375 C206 627 317 754 493 754 C544 754 582 748 611 737 C611 737 607 738 607 738 C666 717 701 634 711 561 C711 561 726 561 726 561 L726 561 Z " />
<glyph glyph-name="Ccircumflex" unicode="&#x108;" horiz-adv-x="675" d="M726 561 C730 583 734 604 738 626 C738 626 738 626 738 626 C738 626 738 626 738 626 C738 629 739 631 739 634 C739 634 743 659 752 707 C752 707 737 707 737 707 C737 707 734 700 728 687 C726 682 700 692 654 724 C654 724 652 724 652 724 C617 748 570 760 492 760 C301 760 182 631 137 375 C92 119 162 -10 346 -10 C422 -10 478 3 526 28 C526 28 527 28 527 28 C527 28 572 44 618 61 C623 63 625 56 622 40 C622 40 634 40 634 40 C638 64 643 89 647 114 C647 114 648 117 649 124 C649 124 649 124 649 124 C649 124 649 124 649 124 C651 136 655 157 660 189 C660 189 645 189 645 189 C645 189 643 184 638 174 C608 116 552 46 501 23 C501 23 502 23 502 23 C460 4 412 -5 349 -5 C180 -5 117 123 162 375 C206 627 317 754 493 754 C544 754 582 748 611 737 C611 737 607 738 607 738 C666 717 701 634 711 561 C711 561 726 561 726 561 L726 561 Z M535 1007 C535 1007 644 809 644 809 C644 809 648 811 648 811 C648 811 546 1024 546 1024 C544 1026 542 1031 540 1031 C536 1031 533 1028 532 1024 C532 1024 531 1024 531 1024 C531 1024 354 811 354 811 C354 811 357 809 357 809 C357 809 535 1007 535 1007 L535 1007 Z " />
<glyph glyph-name="Cdotaccent" unicode="&#x10a;" horiz-adv-x="675" d="M510 865 C524 865 532 872 534 885 C536 898 531 905 517 905 C504 905 496 898 494 885 C492 872 497 865 510 865 L510 865 Z M726 561 C730 583 734 604 738 626 C738 626 738 626 738 626 C738 626 738 626 738 626 C738 629 739 631 739 634 C739 634 743 659 752 707 C752 707 737 707 737 707 C737 707 734 700 728 687 C726 682 700 692 654 724 C654 724 652 724 652 724 C617 748 570 760 492 760 C301 760 182 631 137 375 C92 119 162 -10 346 -10 C422 -10 478 3 526 28 C526 28 527 28 527 28 C527 28 572 44 618 61 C623 63 625 56 622 40 C622 40 634 40 634 40 C638 64 643 89 647 114 C647 114 648 117 649 124 C649 124 649 124 649 124 C649 124 649 124 649 124 C651 136 655 157 660 189 C660 189 645 189 645 189 C645 189 643 184 638 174 C608 116 552 46 501 23 C501 23 502 23 502 23 C460 4 412 -5 349 -5 C180 -5 117 123 162 375 C206 627 317 754 493 754 C544 754 582 748 611 737 C611 737 607 738 607 738 C666 717 701 634 711 561 C711 561 726 561 726 561 L726 561 Z " />
<glyph glyph-name="cdotaccent" unicode="&#x10b;" horiz-adv-x="448" d="M356 615 C369 615 377 622 379 635 C381 648 376 655 363 655 C349 655 341 648 339 635 C337 622 342 615 356 615 L356 615 Z M441 128 C441 128 439 129 439 129 C386 45 319 2 238 2 C133 2 94 86 123 254 C153 421 224 505 335 505 C413 505 458 471 471 405 C472 398 475 395 479 395 C488 395 492 398 491 405 C478 475 427 510 337 510 C212 510 133 420 102 242 C72 75 115 -10 229 -10 C313 -10 384 36 441 128 L441 128 Z " />
<glyph glyph-name="Ccaron" unicode="&#x10c;" horiz-adv-x="675" d="M726 561 C730 583 734 604 738 626 C738 626 738 626 738 626 C738 626 738 626 738 626 C738 629 739 631 739 634 C739 634 743 659 752 707 C752 707 737 707 737 707 C737 707 734 700 728 687 C726 682 700 692 654 724 C654 724 652 724 652 724 C617 748 570 760 492 760 C301 760 182 631 137 375 C92 119 162 -10 346 -10 C422 -10 478 3 526 28 C526 28 527 28 527 28 C527 28 572 44 618 61 C623 63 625 56 622 40 C622 40 634 40 634 40 C638 64 643 89 647 114 C647 114 648 117 649 124 C649 124 649 124 649 124 C649 124 649 124 649 124 C651 136 655 157 660 189 C660 189 645 189 645 189 C645 189 643 184 638 174 C608 116 552 46 501 23 C501 23 502 23 502 23 C460 4 412 -5 349 -5 C180 -5 117 123 162 375 C206 627 317 754 493 754 C544 754 582 748 611 737 C611 737 607 738 607 738 C666 717 701 634 711 561 C711 561 726 561 726 561 L726 561 Z M507 843 C507 843 685 1041 685 1041 C685 1041 688 1039 688 1039 C688 1039 511 826 511 826 C509 824 504 819 502 819 C499 819 497 824 496 826 C496 826 394 1039 394 1039 C394 1039 397 1041 397 1041 C397 1041 507 843 507 843 L507 843 Z " />
<glyph glyph-name="ccaron" unicode="&#x10d;" horiz-adv-x="448" d="M441 128 C441 128 439 129 439 129 C386 45 319 2 238 2 C133 2 94 86 123 254 C153 421 224 505 335 505 C413 505 458 471 471 405 C472 398 475 395 479 395 C488 395 492 398 491 405 C478 475 427 510 337 510 C212 510 133 420 102 242 C72 75 115 -10 229 -10 C313 -10 384 36 441 128 L441 128 Z M352 593 C352 593 531 791 531 791 C531 791 533 789 533 789 C533 789 356 576 356 576 C354 574 350 569 347 569 C345 569 343 574 342 576 C342 576 240 789 240 789 C240 789 243 791 243 791 C243 791 352 593 352 593 L352 593 Z " />
<glyph glyph-name="Dcaron" unicode="&#x10e;" horiz-adv-x="753" d="M71 0 C71 0 145 0 145 0 C145 0 167 0 167 0 C167 0 285 665 285 665 C285 665 285 665 285 665 C285 667 286 669 286 671 C286 671 299 746 299 746 C299 746 401 746 401 746 C697 746 784 621 740 375 C692 104 529 4 242 4 C178 4 172 24 178 61 C178 61 167 0 167 0 C167 0 247 0 247 0 C547 0 717 101 765 375 C809 624 720 750 420 750 C420 750 300 750 300 750 C300 750 277 750 277 750 C277 750 204 750 204 750 C203 750 200 730 200 730 C200 730 211 730 211 730 C253 730 273 725 262 665 C262 665 262 665 262 665 C262 665 159 82 159 82 C148 25 126 20 86 20 C86 20 75 20 75 20 C74 16 72 2 71 0 C71 0 71 0 71 0 L71 0 Z M558 843 C558 843 737 1041 737 1041 C737 1041 739 1039 739 1039 C739 1039 562 826 562 826 C560 824 556 819 554 819 C551 819 549 824 548 826 C548 826 446 1039 446 1039 C446 1039 449 1041 449 1041 C449 1041 558 843 558 843 L558 843 Z M178 61 C179 67 181 73 182 80 C182 80 178 61 178 61 L178 61 Z " />
<glyph glyph-name="dcaron" unicode="&#x10f;" horiz-adv-x="574" d="M579 29 C579 29 568 26 568 26 C534 18 518 21 534 114 C534 114 534 114 534 114 C534 114 631 665 631 665 C645 744 646 750 646 750 C646 750 643 750 643 750 C643 750 563 728 563 728 C563 728 559 708 559 708 C559 708 570 711 570 711 C605 721 621 721 610 660 C610 660 610 660 610 660 C610 660 567 414 567 414 C541 473 493 510 429 510 C227 510 138 425 108 256 C78 82 145 -5 309 -5 C393 -5 459 22 507 76 C494 -4 492 -10 492 -10 C492 -10 496 -10 496 -10 C496 -10 575 9 575 9 C576 13 578 27 579 29 L579 29 Z M704 652 C726 708 738 743 740 757 C741 759 738 759 732 759 C727 759 709 703 694 654 C694 654 659 543 659 543 C659 543 662 543 662 543 C662 543 704 652 704 652 L704 652 Z M508 83 C462 30 397 3 319 3 C163 3 99 90 129 261 C158 422 241 504 430 504 C493 504 540 457 562 388 C562 388 513 110 513 110 C511 100 510 91 508 83 C508 83 508 83 508 83 L508 83 Z " />
<glyph glyph-name="Emacron" unicode="&#x112;" horiz-adv-x="565" d="M321 907 C321 907 621 907 621 907 C621 907 624 920 624 920 C624 920 324 920 324 920 C324 920 321 907 321 907 L321 907 Z M580 657 C580 657 600 657 600 657 C602 689 606 719 610 750 C610 750 490 750 490 750 C490 750 300 750 300 750 C300 750 277 750 277 750 C277 750 204 750 204 750 C203 750 200 730 200 730 C200 730 211 730 211 730 C253 730 273 725 262 665 C262 665 262 665 262 665 C262 665 159 82 159 82 C148 25 126 20 86 20 C86 20 75 20 75 20 C74 16 72 2 71 0 C71 0 145 0 145 0 C145 0 167 0 167 0 C167 0 382 0 382 0 C382 0 502 0 502 0 C512 31 522 61 532 93 C532 93 512 93 512 93 C512 93 508 82 508 82 C492 31 477 5 384 5 C384 5 248 5 248 5 C179 5 172 24 178 61 C178 61 168 5 168 5 C168 5 167 0 167 0 C167 0 235 385 235 385 C235 385 365 385 365 385 C463 385 461 350 448 287 C448 287 468 287 468 287 C474 320 479 352 485 385 C485 385 485 385 485 385 C485 385 486 390 486 390 C486 390 486 390 486 390 C491 423 497 456 504 489 C504 489 484 489 484 489 C484 489 482 478 482 478 C471 420 459 390 366 390 C366 390 236 390 236 390 C236 390 285 665 285 665 C285 665 285 665 285 665 C285 667 286 669 286 671 C286 671 299 745 299 745 C299 745 489 745 489 745 C605 745 586 716 580 657 C580 657 580 657 580 657 L580 657 Z M178 61 C179 67 181 73 182 80 C182 80 178 61 178 61 L178 61 Z " />
<glyph glyph-name="emacron" unicode="&#x113;" horiz-adv-x="534" d="M269 657 C269 657 569 657 569 657 C569 657 572 670 572 670 C572 670 272 670 272 670 C272 670 269 657 269 657 L269 657 Z M148 340 C148 340 542 340 542 340 C542 340 564 340 564 340 C564 476 507 510 393 510 C230 510 132 419 100 238 C71 73 131 -10 279 -10 C386 -10 465 38 517 134 C517 134 515 135 515 135 C468 47 391 3 286 3 C149 3 94 85 122 246 C128 281 137 312 148 340 L148 340 Z M560 346 C560 346 560 346 560 346 C560 346 560 346 560 346 C560 346 560 346 560 346 L560 346 Z M542 346 C542 346 150 345 150 345 C194 451 275 505 392 505 C490 505 540 473 542 346 C542 346 542 346 542 346 L542 346 Z " />
<glyph glyph-name="Ebreve" unicode="&#x114;" horiz-adv-x="565" d="M371 995 C361 934 395 904 471 904 C546 904 590 934 602 994 C602 994 598 995 598 995 C588 945 546 919 473 919 C400 919 367 945 375 995 C375 995 371 995 371 995 L371 995 Z M580 657 C580 657 600 657 600 657 C602 689 606 719 610 750 C610 750 490 750 490 750 C490 750 300 750 300 750 C300 750 277 750 277 750 C277 750 204 750 204 750 C203 750 200 730 200 730 C200 730 211 730 211 730 C253 730 273 725 262 665 C262 665 262 665 262 665 C262 665 159 82 159 82 C148 25 126 20 86 20 C86 20 75 20 75 20 C74 16 72 2 71 0 C71 0 145 0 145 0 C145 0 167 0 167 0 C167 0 382 0 382 0 C382 0 502 0 502 0 C512 31 522 61 532 93 C532 93 512 93 512 93 C512 93 508 82 508 82 C492 31 477 5 384 5 C384 5 248 5 248 5 C179 5 172 24 178 61 C178 61 168 5 168 5 C168 5 167 0 167 0 C167 0 235 385 235 385 C235 385 365 385 365 385 C463 385 461 350 448 287 C448 287 468 287 468 287 C474 320 479 352 485 385 C485 385 485 385 485 385 C485 385 486 390 486 390 C486 390 486 390 486 390 C491 423 497 456 504 489 C504 489 484 489 484 489 C484 489 482 478 482 478 C471 420 459 390 366 390 C366 390 236 390 236 390 C236 390 285 665 285 665 C285 665 285 665 285 665 C285 667 286 669 286 671 C286 671 299 745 299 745 C299 745 489 745 489 745 C605 745 586 716 580 657 C580 657 580 657 580 657 L580 657 Z M178 61 C179 67 181 73 182 80 C182 80 178 61 178 61 L178 61 Z " />
<glyph glyph-name="ebreve" unicode="&#x115;" horiz-adv-x="534" d="M319 745 C310 684 343 654 419 654 C494 654 538 684 551 744 C551 744 546 745 546 745 C537 695 495 669 421 669 C349 669 316 695 323 745 C323 745 319 745 319 745 L319 745 Z M148 340 C148 340 542 340 542 340 C542 340 564 340 564 340 C564 476 507 510 393 510 C230 510 132 419 100 238 C71 73 131 -10 279 -10 C386 -10 465 38 517 134 C517 134 515 135 515 135 C468 47 391 3 286 3 C149 3 94 85 122 246 C128 281 137 312 148 340 L148 340 Z M560 346 C560 346 560 346 560 346 C560 346 560 346 560 346 C560 346 560 346 560 346 L560 346 Z M542 346 C542 346 150 345 150 345 C194 451 275 505 392 505 C490 505 540 473 542 346 C542 346 542 346 542 346 L542 346 Z " />
<glyph glyph-name="Edotaccent" unicode="&#x116;" horiz-adv-x="565" d="M464 865 C477 865 485 872 487 885 C489 898 484 905 471 905 C457 905 449 898 447 885 C445 872 450 865 464 865 L464 865 Z M580 657 C580 657 600 657 600 657 C602 689 606 719 610 750 C610 750 490 750 490 750 C490 750 300 750 300 750 C300 750 277 750 277 750 C277 750 204 750 204 750 C203 750 200 730 200 730 C200 730 211 730 211 730 C253 730 273 725 262 665 C262 665 262 665 262 665 C262 665 159 82 159 82 C148 25 126 20 86 20 C86 20 75 20 75 20 C74 16 72 2 71 0 C71 0 145 0 145 0 C145 0 167 0 167 0 C167 0 382 0 382 0 C382 0 502 0 502 0 C512 31 522 61 532 93 C532 93 512 93 512 93 C512 93 508 82 508 82 C492 31 477 5 384 5 C384 5 248 5 248 5 C179 5 172 24 178 61 C178 61 168 5 168 5 C168 5 167 0 167 0 C167 0 235 385 235 385 C235 385 365 385 365 385 C463 385 461 350 448 287 C448 287 468 287 468 287 C474 320 479 352 485 385 C485 385 485 385 485 385 C485 385 486 390 486 390 C486 390 486 390 486 390 C491 423 497 456 504 489 C504 489 484 489 484 489 C484 489 482 478 482 478 C471 420 459 390 366 390 C366 390 236 390 236 390 C236 390 285 665 285 665 C285 665 285 665 285 665 C285 667 286 669 286 671 C286 671 299 745 299 745 C299 745 489 745 489 745 C605 745 586 716 580 657 C580 657 580 657 580 657 L580 657 Z M178 61 C179 67 181 73 182 80 C182 80 178 61 178 61 L178 61 Z " />
<glyph glyph-name="edotaccent" unicode="&#x117;" horiz-adv-x="534" d="M412 615 C426 615 433 622 436 635 C438 648 433 655 419 655 C406 655 398 648 396 635 C393 622 399 615 412 615 L412 615 Z M148 340 C148 340 542 340 542 340 C542 340 564 340 564 340 C564 476 507 510 393 510 C230 510 132 419 100 238 C71 73 131 -10 279 -10 C386 -10 465 38 517 134 C517 134 515 135 515 135 C468 47 391 3 286 3 C149 3 94 85 122 246 C128 281 137 312 148 340 L148 340 Z M560 346 C560 346 560 346 560 346 C560 346 560 346 560 346 C560 346 560 346 560 346 L560 346 Z M542 346 C542 346 150 345 150 345 C194 451 275 505 392 505 C490 505 540 473 542 346 C542 346 542 346 542 346 L542 346 Z " />
<glyph glyph-name="Ecaron" unicode="&#x11a;" horiz-adv-x="565" d="M580 657 C580 657 600 657 600 657 C602 689 606 719 610 750 C610 750 490 750 490 750 C490 750 300 750 300 750 C300 750 277 750 277 750 C277 750 204 750 204 750 C203 750 200 730 200 730 C200 730 211 730 211 730 C253 730 273 725 262 665 C262 665 262 665 262 665 C262 665 159 82 159 82 C148 25 126 20 86 20 C86 20 75 20 75 20 C74 16 72 2 71 0 C71 0 145 0 145 0 C145 0 167 0 167 0 C167 0 382 0 382 0 C382 0 502 0 502 0 C512 31 522 61 532 93 C532 93 512 93 512 93 C512 93 508 82 508 82 C492 31 477 5 384 5 C384 5 248 5 248 5 C179 5 172 24 178 61 C178 61 168 5 168 5 C168 5 167 0 167 0 C167 0 235 385 235 385 C235 385 365 385 365 385 C463 385 461 350 448 287 C448 287 468 287 468 287 C474 320 479 352 485 385 C485 385 485 385 485 385 C485 385 486 390 486 390 C486 390 486 390 486 390 C491 423 497 456 504 489 C504 489 484 489 484 489 C484 489 482 478 482 478 C471 420 459 390 366 390 C366 390 236 390 236 390 C236 390 285 665 285 665 C285 665 285 665 285 665 C285 667 286 669 286 671 C286 671 299 745 299 745 C299 745 489 745 489 745 C605 745 586 716 580 657 C580 657 580 657 580 657 L580 657 Z M460 843 C460 843 639 1041 639 1041 C639 1041 641 1039 641 1039 C641 1039 464 826 464 826 C462 824 458 819 456 819 C453 819 451 824 450 826 C450 826 348 1039 348 1039 C348 1039 351 1041 351 1041 C351 1041 460 843 460 843 L460 843 Z M178 61 C179 67 181 73 182 80 C182 80 178 61 178 61 L178 61 Z " />
<glyph glyph-name="ecaron" unicode="&#x11b;" horiz-adv-x="534" d="M408 593 C408 593 587 791 587 791 C587 791 589 789 589 789 C589 789 412 576 412 576 C410 574 406 569 404 569 C401 569 399 574 398 576 C398 576 296 789 296 789 C296 789 299 791 299 791 C299 791 408 593 408 593 L408 593 Z M148 340 C148 340 542 340 542 340 C542 340 564 340 564 340 C564 476 507 510 393 510 C230 510 132 419 100 238 C71 73 131 -10 279 -10 C386 -10 465 38 517 134 C517 134 515 135 515 135 C468 47 391 3 286 3 C149 3 94 85 122 246 C128 281 137 312 148 340 L148 340 Z M560 346 C560 346 560 346 560 346 C560 346 560 346 560 346 C560 346 560 346 560 346 L560 346 Z M542 346 C542 346 150 345 150 345 C194 451 275 505 392 505 C490 505 540 473 542 346 C542 346 542 346 542 346 L542 346 Z " />
<glyph glyph-name="Gcircumflex" unicode="&#x11c;" horiz-adv-x="729" d="M726 561 C730 583 734 604 738 626 C738 626 738 626 738 626 C738 626 738 626 738 626 C738 629 739 631 739 634 C739 634 743 659 752 707 C752 707 737 707 737 707 C737 707 734 700 728 687 C726 682 700 692 654 724 C654 724 652 724 652 724 C617 748 570 760 492 760 C301 760 182 631 137 375 C92 119 162 -10 347 -10 C447 -10 517 0 583 19 C583 19 588 20 588 20 C588 20 588 21 588 21 C588 21 588 21 588 21 C588 21 588 20 588 20 C588 20 611 25 611 25 C611 25 612 29 612 29 C639 38 667 49 697 62 C697 62 696 65 696 65 C667 53 640 42 612 33 C612 33 650 245 650 245 C660 301 677 305 709 305 C709 305 720 305 720 305 C720 305 723 325 724 325 C724 325 571 325 571 325 C570 315 568 313 568 305 C568 305 578 305 578 305 C618 305 637 301 627 245 C627 245 589 25 589 25 C589 25 589 25 589 25 C589 25 592 45 592 45 C590 34 580 25 562 18 C561 17 561 17 560 17 C560 17 561 17 561 17 C524 2 453 -5 350 -5 C350 -5 560 17 560 17 C502 2 438 -5 350 -5 C180 -5 117 123 162 375 C206 627 317 754 493 754 C544 754 582 748 611 737 C611 737 607 738 607 738 C666 717 701 634 711 561 C711 561 726 561 726 561 L726 561 Z M535 1007 C535 1007 644 809 644 809 C644 809 648 811 648 811 C648 811 546 1024 546 1024 C544 1026 542 1031 540 1031 C536 1031 533 1028 532 1024 C532 1024 531 1024 531 1024 C531 1024 354 811 354 811 C354 811 357 809 357 809 C357 809 535 1007 535 1007 L535 1007 Z M592 45 C592 45 592 45 592 45 C592 45 592 45 592 45 L592 45 Z " />
<glyph glyph-name="Gbreve" unicode="&#x11e;" horiz-adv-x="729" d="M418 995 C408 934 442 904 517 904 C593 904 637 934 649 994 C649 994 645 995 645 995 C635 945 593 919 520 919 C447 919 414 945 422 995 C422 995 418 995 418 995 L418 995 Z M726 561 C730 583 734 604 738 626 C738 626 738 626 738 626 C738 626 738 626 738 626 C738 629 739 631 739 634 C739 634 743 659 752 707 C752 707 737 707 737 707 C737 707 734 700 728 687 C726 682 700 692 654 724 C654 724 652 724 652 724 C617 748 570 760 492 760 C301 760 182 631 137 375 C92 119 162 -10 347 -10 C447 -10 517 0 583 19 C583 19 588 20 588 20 C588 20 588 21 588 21 C588 21 588 21 588 21 C588 21 588 20 588 20 C588 20 611 25 611 25 C611 25 612 29 612 29 C639 38 667 49 697 62 C697 62 696 65 696 65 C667 53 640 42 612 33 C612 33 650 245 650 245 C660 301 677 305 709 305 C709 305 720 305 720 305 C720 305 723 325 724 325 C724 325 571 325 571 325 C570 315 568 313 568 305 C568 305 578 305 578 305 C618 305 637 301 627 245 C627 245 589 25 589 25 C589 25 589 25 589 25 C589 25 592 45 592 45 C590 34 580 25 562 18 C561 17 561 17 560 17 C560 17 561 17 561 17 C524 2 453 -5 350 -5 C350 -5 560 17 560 17 C502 2 438 -5 350 -5 C180 -5 117 123 162 375 C206 627 317 754 493 754 C544 754 582 748 611 737 C611 737 607 738 607 738 C666 717 701 634 711 561 C711 561 726 561 726 561 L726 561 Z M592 45 C592 45 592 45 592 45 C592 45 592 45 592 45 L592 45 Z " />
<glyph glyph-name="gbreve" unicode="&#x11f;" horiz-adv-x="520" d="M279 745 C269 684 303 654 378 654 C454 654 498 684 510 744 C510 744 506 745 506 745 C496 695 454 669 381 669 C308 669 275 695 283 745 C283 745 279 745 279 745 L279 745 Z M173 350 C191 453 251 505 352 505 C453 505 495 453 477 350 C458 246 398 193 297 193 C196 193 154 246 173 350 L173 350 Z M187 32 C189 32 192 32 194 32 C194 32 306 32 306 32 C440 32 466 -10 452 -93 C436 -181 363 -225 233 -225 C102 -225 44 -178 60 -86 C71 -24 114 15 187 32 C187 32 187 32 187 32 L187 32 Z M181 32 C101 14 54 -27 43 -91 C27 -183 90 -230 231 -230 C373 -230 453 -182 470 -88 C486 5 457 52 311 52 C311 52 198 52 198 52 C123 52 89 73 96 115 C105 164 172 188 296 188 C410 188 478 242 497 350 C499 363 500 374 501 385 C519 453 557 487 613 487 C640 487 651 470 645 438 C644 433 647 431 653 431 C658 431 662 434 663 440 C669 477 656 495 623 495 C560 495 519 460 501 391 C501 470 451 510 353 510 C239 510 171 456 153 350 C137 257 170 204 254 191 C149 185 92 158 83 110 C74 61 107 35 181 32 C181 32 181 32 181 32 L181 32 Z " />
<glyph glyph-name="Gdotaccent" unicode="&#x120;" horiz-adv-x="729" d="M510 865 C524 865 532 872 534 885 C536 898 531 905 517 905 C504 905 496 898 494 885 C492 872 497 865 510 865 L510 865 Z M726 561 C730 583 734 604 738 626 C738 626 738 626 738 626 C738 626 738 626 738 626 C738 629 739 631 739 634 C739 634 743 659 752 707 C752 707 737 707 737 707 C737 707 734 700 728 687 C726 682 700 692 654 724 C654 724 652 724 652 724 C617 748 570 760 492 760 C301 760 182 631 137 375 C92 119 162 -10 347 -10 C447 -10 517 0 583 19 C583 19 588 20 588 20 C588 20 588 21 588 21 C588 21 588 21 588 21 C588 21 588 20 588 20 C588 20 611 25 611 25 C611 25 612 29 612 29 C639 38 667 49 697 62 C697 62 696 65 696 65 C667 53 640 42 612 33 C612 33 650 245 650 245 C660 301 677 305 709 305 C709 305 720 305 720 305 C720 305 723 325 724 325 C724 325 571 325 571 325 C570 315 568 313 568 305 C568 305 578 305 578 305 C618 305 637 301 627 245 C627 245 589 25 589 25 C589 25 589 25 589 25 C589 25 592 45 592 45 C590 34 580 25 562 18 C561 17 561 17 560 17 C560 17 561 17 561 17 C524 2 453 -5 350 -5 C350 -5 560 17 560 17 C502 2 438 -5 350 -5 C180 -5 117 123 162 375 C206 627 317 754 493 754 C544 754 582 748 611 737 C611 737 607 738 607 738 C666 717 701 634 711 561 C711 561 726 561 726 561 L726 561 Z M592 45 C592 45 592 45 592 45 C592 45 592 45 592 45 L592 45 Z " />
<glyph glyph-name="gdotaccent" unicode="&#x121;" horiz-adv-x="520" d="M371 615 C385 615 393 622 395 635 C397 648 392 655 378 655 C365 655 357 648 355 635 C353 622 358 615 371 615 L371 615 Z M173 350 C191 453 251 505 352 505 C453 505 495 453 477 350 C458 246 398 193 297 193 C196 193 154 246 173 350 L173 350 Z M187 32 C189 32 192 32 194 32 C194 32 306 32 306 32 C440 32 466 -10 452 -93 C436 -181 363 -225 233 -225 C102 -225 44 -178 60 -86 C71 -24 114 15 187 32 C187 32 187 32 187 32 L187 32 Z M181 32 C101 14 54 -27 43 -91 C27 -183 90 -230 231 -230 C373 -230 453 -182 470 -88 C486 5 457 52 311 52 C311 52 198 52 198 52 C123 52 89 73 96 115 C105 164 172 188 296 188 C410 188 478 242 497 350 C499 363 500 374 501 385 C519 453 557 487 613 487 C640 487 651 470 645 438 C644 433 647 431 653 431 C658 431 662 434 663 440 C669 477 656 495 623 495 C560 495 519 460 501 391 C501 470 451 510 353 510 C239 510 171 456 153 350 C137 257 170 204 254 191 C149 185 92 158 83 110 C74 61 107 35 181 32 C181 32 181 32 181 32 L181 32 Z " />
<glyph glyph-name="Hcircumflex" unicode="&#x124;" horiz-adv-x="744" d="M825 750 C825 750 655 750 655 750 C654 740 652 738 652 730 C652 730 662 730 662 730 C704 730 725 726 715 670 C715 670 665 386 665 386 C665 386 272 386 272 386 C272 386 322 670 322 670 C331 726 353 730 395 730 C395 730 406 730 406 730 C407 740 409 742 409 750 C409 750 240 750 240 750 C239 750 236 730 236 730 C236 730 247 730 247 730 C289 730 309 726 299 670 C299 670 195 80 195 80 C185 24 163 20 122 20 C122 20 111 20 111 20 C110 16 108 2 107 0 C107 0 277 0 277 0 C278 4 280 18 281 20 C281 20 270 20 270 20 C228 20 207 24 218 80 C218 80 271 380 271 380 C271 380 664 380 664 380 C664 380 611 80 611 80 C601 24 579 20 537 20 C537 20 526 20 526 20 C526 18 526 8 523 0 C523 0 693 0 693 0 C693 2 696 12 696 20 C696 20 686 20 686 20 C644 20 623 24 633 80 C633 80 737 670 737 670 C747 726 769 730 811 730 C811 730 822 730 822 730 C822 730 825 750 825 750 L825 750 Z M577 1007 C577 1007 687 809 687 809 C687 809 690 811 690 811 C690 811 588 1024 588 1024 C586 1026 584 1031 582 1031 C579 1031 576 1028 575 1024 C575 1024 574 1024 574 1024 C574 1024 396 811 396 811 C396 811 399 809 399 809 C399 809 577 1007 577 1007 L577 1007 Z " />
<glyph glyph-name="Itilde" unicode="&#x128;" horiz-adv-x="307" d="M181 870 C190 917 210 941 242 941 C310 941 345 876 415 876 C452 876 476 901 485 951 C485 951 481 951 481 951 C475 911 455 891 422 891 C353 891 318 956 249 956 C211 956 187 927 177 870 C177 870 181 870 181 870 L181 870 Z M388 750 C388 750 218 750 218 750 C218 750 215 730 214 730 C214 730 225 730 225 730 C267 730 287 726 278 670 C278 670 174 80 174 80 C163 24 142 20 100 20 C100 20 89 20 89 20 C88 10 86 8 86 0 C86 0 256 0 256 0 C256 0 259 20 259 20 C259 20 248 20 248 20 C207 20 186 24 196 80 C196 80 300 670 300 670 C310 726 332 730 374 730 C374 730 384 730 384 730 C385 730 388 750 388 750 L388 750 Z " />
<glyph glyph-name="itilde" unicode="&#x129;" horiz-adv-x="241" d="M107 620 C116 667 136 691 168 691 C237 691 272 626 341 626 C379 626 403 651 411 701 C411 701 408 701 408 701 C401 661 381 641 348 641 C279 641 244 706 175 706 C137 706 114 677 104 620 C104 620 107 620 107 620 L107 620 Z M75 0 C75 0 209 0 209 0 C210 4 212 18 213 20 C213 20 202 20 202 20 C171 20 155 21 157 35 C157 35 220 390 220 390 C220 390 239 500 239 500 C239 500 236 500 236 500 C236 500 152 445 152 445 C152 445 151 435 151 435 C204 438 208 436 200 390 C200 390 137 35 137 35 C135 21 119 20 89 20 C89 20 78 20 78 20 C78 18 78 8 75 0 L75 0 Z " />
<glyph glyph-name="Imacron" unicode="&#x12a;" horiz-adv-x="307" d="M181 907 C181 907 481 907 481 907 C481 907 483 920 483 920 C483 920 183 920 183 920 C183 920 181 907 181 907 L181 907 Z M388 750 C388 750 218 750 218 750 C218 750 215 730 214 730 C214 730 225 730 225 730 C267 730 287 726 278 670 C278 670 174 80 174 80 C163 24 142 20 100 20 C100 20 89 20 89 20 C88 10 86 8 86 0 C86 0 256 0 256 0 C256 0 259 20 259 20 C259 20 248 20 248 20 C207 20 186 24 196 80 C196 80 300 670 300 670 C310 726 332 730 374 730 C374 730 384 730 384 730 C385 730 388 750 388 750 L388 750 Z " />
<glyph glyph-name="imacron" unicode="&#x12b;" horiz-adv-x="241" d="M107 657 C107 657 407 657 407 657 C407 657 409 670 409 670 C409 670 109 670 109 670 C109 670 107 657 107 657 L107 657 Z M75 0 C75 0 209 0 209 0 C210 4 212 18 213 20 C213 20 202 20 202 20 C171 20 155 21 157 35 C157 35 220 390 220 390 C220 390 239 500 239 500 C239 500 236 500 236 500 C236 500 152 445 152 445 C152 445 151 435 151 435 C204 438 208 436 200 390 C200 390 137 35 137 35 C135 21 119 20 89 20 C89 20 78 20 78 20 C78 18 78 8 75 0 L75 0 Z " />
<glyph glyph-name="Ibreve" unicode="&#x12c;" horiz-adv-x="307" d="M230 995 C221 934 255 904 330 904 C406 904 450 934 462 994 C462 994 458 995 458 995 C448 945 406 919 333 919 C260 919 227 945 235 995 C235 995 230 995 230 995 L230 995 Z M388 750 C388 750 218 750 218 750 C218 750 215 730 214 730 C214 730 225 730 225 730 C267 730 287 726 278 670 C278 670 174 80 174 80 C163 24 142 20 100 20 C100 20 89 20 89 20 C88 10 86 8 86 0 C86 0 256 0 256 0 C256 0 259 20 259 20 C259 20 248 20 248 20 C207 20 186 24 196 80 C196 80 300 670 300 670 C310 726 332 730 374 730 C374 730 384 730 384 730 C385 730 388 750 388 750 L388 750 Z " />
<glyph glyph-name="ibreve" unicode="&#x12d;" horiz-adv-x="241" d="M157 745 C147 684 181 654 256 654 C332 654 376 684 388 744 C388 744 384 745 384 745 C374 695 332 669 259 669 C186 669 153 695 161 745 C161 745 157 745 157 745 L157 745 Z M75 0 C75 0 209 0 209 0 C210 4 212 18 213 20 C213 20 202 20 202 20 C171 20 155 21 157 35 C157 35 220 390 220 390 C220 390 239 500 239 500 C239 500 236 500 236 500 C236 500 152 445 152 445 C152 445 151 435 151 435 C204 438 208 436 200 390 C200 390 137 35 137 35 C135 21 119 20 89 20 C89 20 78 20 78 20 C78 18 78 8 75 0 L75 0 Z " />
<glyph glyph-name="Idotaccent" unicode="&#x130;" horiz-adv-x="307" d="M323 865 C337 865 345 872 347 885 C349 898 344 905 330 905 C317 905 309 898 307 885 C305 872 310 865 323 865 L323 865 Z M388 750 C388 750 218 750 218 750 C218 750 215 730 214 730 C214 730 225 730 225 730 C267 730 287 726 278 670 C278 670 174 80 174 80 C163 24 142 20 100 20 C100 20 89 20 89 20 C88 10 86 8 86 0 C86 0 256 0 256 0 C256 0 259 20 259 20 C259 20 248 20 248 20 C207 20 186 24 196 80 C196 80 300 670 300 670 C310 726 332 730 374 730 C374 730 384 730 384 730 C385 730 388 750 388 750 L388 750 Z " />
<glyph glyph-name="dotlessi" unicode="&#x131;" horiz-adv-x="241" d="M75 0 C75 0 209 0 209 0 C210 4 212 18 213 20 C213 20 202 20 202 20 C171 20 155 21 157 35 C157 35 220 390 220 390 C220 390 239 500 239 500 C239 500 236 500 236 500 C236 500 152 445 152 445 C152 445 151 435 151 435 C204 438 208 436 200 390 C200 390 137 35 137 35 C135 21 119 20 89 20 C89 20 78 20 78 20 C78 18 78 8 75 0 L75 0 Z " />
<glyph glyph-name="Jcircumflex" unicode="&#x134;" horiz-adv-x="307" d="M388 750 C388 750 218 750 218 750 C218 750 215 730 214 730 C214 730 225 730 225 730 C267 730 287 726 278 670 C278 670 160 1 160 1 C124 -197 58 -212 3 -212 C-10 -212 1 -193 -12 -193 C-19 -193 -23 -197 -24 -204 C-26 -215 -19 -220 -4 -220 C64 -220 146 -202 190 43 C190 43 300 670 300 670 C310 726 332 730 374 730 C374 730 384 730 384 730 C385 730 388 750 388 750 L388 750 Z M348 1007 C348 1007 457 809 457 809 C457 809 460 811 460 811 C460 811 358 1024 358 1024 C357 1026 355 1031 353 1031 C349 1031 346 1028 345 1024 C345 1024 344 1024 344 1024 C344 1024 167 811 167 811 C167 811 169 809 169 809 C169 809 348 1007 348 1007 L348 1007 Z " />
<glyph glyph-name="Lacute" unicode="&#x139;" horiz-adv-x="572" d="M320 814 C320 814 479 940 479 940 C538 987 567 1011 567 1012 C568 1018 565 1022 559 1022 C558 1022 528 997 471 949 C471 949 318 817 318 817 C318 817 320 814 320 814 L320 814 Z M86 0 C86 0 159 0 159 0 C159 0 182 0 182 0 C182 0 190 47 190 47 C191 51 192 56 193 61 C193 61 183 4 183 4 C183 4 182 0 182 0 C182 0 331 0 331 0 C331 0 516 0 516 0 C516 0 517 0 517 0 C517 0 518 4 518 4 C518 4 518 4 518 4 C533 41 551 80 568 117 C566 117 557 120 549 120 C549 120 544 109 544 109 C513 39 486 4 333 4 C333 4 263 4 263 4 C193 4 187 24 193 63 C194 70 196 77 197 85 C197 85 197 85 197 85 C197 85 300 668 300 668 C311 725 333 730 374 730 C374 730 384 730 384 730 C385 730 388 750 388 750 C388 750 314 750 314 750 C314 750 292 750 292 750 C292 750 218 750 218 750 C218 750 215 730 214 730 C214 730 225 730 225 730 C266 730 286 725 278 669 C278 669 174 85 174 85 C174 85 174 85 174 85 C163 25 142 20 100 20 C100 20 89 20 89 20 C88 10 86 8 86 0 C86 0 86 0 86 0 L86 0 Z M193 64 C193 64 193 64 193 64 C193 64 193 64 193 64 C193 64 193 64 193 64 C193 64 193 64 193 64 L193 64 Z " />
<glyph glyph-name="Lcaron" unicode="&#x13d;" horiz-adv-x="572" d="M86 0 C86 0 159 0 159 0 C159 0 182 0 182 0 C182 0 190 47 190 47 C191 51 192 56 193 61 C193 61 183 4 183 4 C183 4 182 0 182 0 C182 0 331 0 331 0 C331 0 516 0 516 0 C516 0 517 0 517 0 C517 0 518 4 518 4 C518 4 518 4 518 4 C533 41 551 80 568 117 C566 117 557 120 549 120 C549 120 544 109 544 109 C513 39 486 4 333 4 C333 4 263 4 263 4 C193 4 187 24 193 63 C194 70 196 77 197 85 C197 85 197 85 197 85 C197 85 300 668 300 668 C311 725 333 730 374 730 C374 730 384 730 384 730 C385 730 388 750 388 750 C388 750 314 750 314 750 C314 750 292 750 292 750 C292 750 218 750 218 750 C218 750 215 730 214 730 C214 730 225 730 225 730 C266 730 286 725 278 669 C278 669 174 85 174 85 C174 85 174 85 174 85 C163 25 142 20 100 20 C100 20 89 20 89 20 C88 10 86 8 86 0 C86 0 86 0 86 0 L86 0 Z M461 702 C483 758 496 793 498 807 C499 809 496 809 489 809 C484 809 466 753 451 704 C451 704 416 593 416 593 C416 593 420 593 420 593 C420 593 461 702 461 702 L461 702 Z M193 64 C193 64 193 64 193 64 C193 64 193 64 193 64 C193 64 193 64 193 64 C193 64 193 64 193 64 L193 64 Z " />
<glyph glyph-name="lcaron" unicode="&#x13e;" horiz-adv-x="222" d="M177 708 C177 708 188 711 188 711 C222 721 239 720 225 645 C225 645 225 645 225 645 C225 645 118 35 118 35 C116 21 100 20 70 20 C70 20 59 20 59 20 C58 16 56 2 55 0 C55 0 188 0 188 0 C188 2 191 12 191 20 C191 20 181 20 181 20 C151 20 136 21 138 35 C138 35 246 650 246 650 C263 743 264 750 264 750 C264 750 260 750 260 750 C260 750 180 728 180 728 C180 728 177 708 177 708 L177 708 Z M321 652 C344 708 356 743 358 757 C359 759 356 759 350 759 C345 759 326 703 311 654 C311 654 277 543 277 543 C277 543 280 543 280 543 C280 543 321 652 321 652 L321 652 Z " />
<glyph glyph-name="Nacute" unicode="&#x143;" horiz-adv-x="711" d="M404 814 C404 814 563 940 563 940 C622 987 651 1011 651 1012 C652 1018 649 1022 643 1022 C642 1022 612 997 555 949 C555 949 402 817 402 817 C402 817 404 814 404 814 L404 814 Z M203 730 C203 730 229 730 229 730 C238 730 244 729 252 719 C252 719 150 149 150 149 C150 149 150 150 150 150 C129 29 106 20 62 20 C62 20 40 20 40 20 C39 16 37 2 36 0 C36 0 124 0 124 0 C124 0 131 0 131 0 C131 0 219 0 219 0 C219 0 222 20 222 20 C222 20 199 20 199 20 C160 20 139 27 151 112 C151 112 256 713 256 713 C258 710 260 706 262 701 C262 701 565 32 565 32 C565 32 580 0 580 0 C580 0 584 0 584 0 C584 0 697 630 697 630 C697 630 697 630 697 630 C713 723 740 730 791 730 C791 730 802 730 802 730 C802 730 805 750 806 750 C806 750 718 750 718 750 C718 750 711 750 711 750 C711 750 624 750 624 750 C623 750 620 730 620 730 C620 730 631 730 631 730 C682 730 706 723 690 630 C690 630 690 630 690 630 C690 630 580 0 580 0 C580 0 587 42 587 42 C587 42 586 44 586 44 C586 44 267 750 267 750 C267 750 262 750 262 750 C262 750 257 750 257 750 C257 750 240 750 240 750 C240 750 207 750 207 750 C206 750 203 730 203 730 L203 730 Z " />
<glyph glyph-name="Ncaron" unicode="&#x147;" horiz-adv-x="711" d="M203 730 C203 730 229 730 229 730 C238 730 244 729 252 719 C252 719 150 149 150 149 C150 149 150 150 150 150 C129 29 106 20 62 20 C62 20 40 20 40 20 C39 16 37 2 36 0 C36 0 124 0 124 0 C124 0 131 0 131 0 C131 0 219 0 219 0 C219 0 222 20 222 20 C222 20 199 20 199 20 C160 20 139 27 151 112 C151 112 256 713 256 713 C258 710 260 706 262 701 C262 701 565 32 565 32 C565 32 580 0 580 0 C580 0 584 0 584 0 C584 0 697 630 697 630 C697 630 697 630 697 630 C713 723 740 730 791 730 C791 730 802 730 802 730 C802 730 805 750 806 750 C806 750 718 750 718 750 C718 750 711 750 711 750 C711 750 624 750 624 750 C623 750 620 730 620 730 C620 730 631 730 631 730 C682 730 706 723 690 630 C690 630 690 630 690 630 C690 630 580 0 580 0 C580 0 587 42 587 42 C587 42 586 44 586 44 C586 44 267 750 267 750 C267 750 262 750 262 750 C262 750 257 750 257 750 C257 750 240 750 240 750 C240 750 207 750 207 750 C206 750 203 730 203 730 L203 730 Z M504 843 C504 843 682 1041 682 1041 C682 1041 685 1039 685 1039 C685 1039 508 826 508 826 C506 824 501 819 499 819 C496 819 494 824 493 826 C493 826 391 1039 391 1039 C391 1039 394 1041 394 1041 C394 1041 504 843 504 843 L504 843 Z " />
<glyph glyph-name="ncaron" unicode="&#x148;" horiz-adv-x="505" d="M126 452 C126 452 137 456 137 456 C171 468 188 469 176 400 C176 400 176 400 176 400 C176 400 112 35 112 35 C110 21 94 20 64 20 C64 20 53 20 53 20 C52 16 50 2 49 0 C49 0 182 0 182 0 C182 2 185 12 185 20 C185 20 175 20 175 20 C145 20 130 21 132 35 C132 35 196 400 196 400 C213 493 214 500 214 500 C214 500 210 500 210 500 C210 500 129 472 129 472 C127 460 126 458 126 452 L126 452 Z M338 0 C338 0 471 0 471 0 C471 2 474 12 474 20 C474 20 464 20 464 20 C434 20 419 21 421 35 C421 35 484 395 484 395 C498 471 470 510 375 510 C323 510 261 463 191 369 C191 369 190 363 190 363 C256 451 313 495 360 495 C449 495 476 461 464 395 C464 395 401 35 401 35 C399 21 383 20 353 20 C353 20 342 20 342 20 C341 16 339 2 338 0 L338 0 Z M365 593 C365 593 544 791 544 791 C544 791 546 789 546 789 C546 789 369 576 369 576 C367 574 363 569 360 569 C358 569 356 574 355 576 C355 576 253 789 253 789 C253 789 256 791 256 791 C256 791 365 593 365 593 L365 593 Z " />
<glyph glyph-name="Omacron" unicode="&#x14c;" horiz-adv-x="767" d="M396 907 C396 907 696 907 696 907 C696 907 699 920 699 920 C699 920 399 920 399 920 C399 920 396 907 396 907 L396 907 Z M377 -4 C190 -4 118 123 162 375 C207 627 326 754 519 754 C719 754 798 627 753 375 C709 123 582 -4 377 -4 L377 -4 Z M137 375 C92 119 172 -10 375 -10 C598 -10 734 119 779 375 C824 631 737 760 521 760 C311 760 182 631 137 375 L137 375 Z " />
<glyph glyph-name="omacron" unicode="&#x14d;" horiz-adv-x="609" d="M277 657 C277 657 577 657 577 657 C577 657 579 670 579 670 C579 670 279 670 279 670 C279 670 277 657 277 657 L277 657 Z M311 -4 C158 -4 95 81 125 250 C155 419 247 504 400 504 C553 504 616 419 586 250 C556 81 464 -4 311 -4 L311 -4 Z M103 250 C72 77 141 -10 309 -10 C477 -10 578 77 608 250 C639 423 569 510 401 510 C233 510 133 423 103 250 L103 250 Z " />
<glyph glyph-name="Obreve" unicode="&#x14e;" horiz-adv-x="767" d="M446 995 C437 934 471 904 546 904 C621 904 666 934 678 994 C678 994 674 995 674 995 C664 945 622 919 549 919 C476 919 443 945 451 995 C451 995 446 995 446 995 L446 995 Z M377 -4 C190 -4 118 123 162 375 C207 627 326 754 519 754 C719 754 798 627 753 375 C709 123 582 -4 377 -4 L377 -4 Z M137 375 C92 119 172 -10 375 -10 C598 -10 734 119 779 375 C824 631 737 760 521 760 C311 760 182 631 137 375 L137 375 Z " />
<glyph glyph-name="obreve" unicode="&#x14f;" horiz-adv-x="609" d="M327 745 C317 684 351 654 427 654 C502 654 546 684 558 744 C558 744 554 745 554 745 C544 695 502 669 429 669 C356 669 323 695 331 745 C331 745 327 745 327 745 L327 745 Z M311 -4 C158 -4 95 81 125 250 C155 419 247 504 400 504 C553 504 616 419 586 250 C556 81 464 -4 311 -4 L311 -4 Z M103 250 C72 77 141 -10 309 -10 C477 -10 578 77 608 250 C639 423 569 510 401 510 C233 510 133 423 103 250 L103 250 Z " />
<glyph glyph-name="Racute" unicode="&#x154;" horiz-adv-x="612" d="M465 814 C465 814 624 940 624 940 C683 987 712 1011 713 1012 C714 1018 710 1022 704 1022 C703 1022 674 997 616 949 C616 949 463 817 463 817 C463 817 465 814 465 814 L465 814 Z M200 730 C200 730 211 730 211 730 C253 730 273 725 262 665 C262 665 160 85 160 85 C149 25 127 20 86 20 C86 20 75 20 75 20 C74 16 72 2 71 0 C71 0 241 0 241 0 C242 4 244 18 245 20 C245 20 234 20 234 20 C192 20 171 25 182 85 C182 85 233 374 233 374 C233 374 401 374 401 374 C404 354 429 256 476 80 C498 -5 490 0 602 0 C602 0 603 4 603 4 C517 4 523 -1 502 80 C457 251 430 349 424 374 C527 379 586 422 607 542 C632 680 585 750 469 750 C469 750 300 750 300 750 C300 750 299 746 299 746 C299 746 462 746 462 746 C566 746 607 679 583 546 C562 427 511 385 423 381 C423 381 423 381 423 381 C423 381 419 380 419 380 C414 380 409 380 404 380 C404 380 234 380 234 380 C234 380 285 665 285 665 C298 744 299 750 300 750 C300 750 204 750 204 750 C203 750 200 730 200 730 C200 730 200 730 200 730 L200 730 Z " />
<glyph glyph-name="Rcaron" unicode="&#x158;" horiz-adv-x="612" d="M200 730 C200 730 211 730 211 730 C253 730 273 725 262 665 C262 665 160 85 160 85 C149 25 127 20 86 20 C86 20 75 20 75 20 C74 16 72 2 71 0 C71 0 241 0 241 0 C242 4 244 18 245 20 C245 20 234 20 234 20 C192 20 171 25 182 85 C182 85 233 374 233 374 C233 374 401 374 401 374 C404 354 429 256 476 80 C498 -5 490 0 602 0 C602 0 603 4 603 4 C517 4 523 -1 502 80 C457 251 430 349 424 374 C527 379 586 422 607 542 C632 680 585 750 469 750 C469 750 300 750 300 750 C300 750 299 746 299 746 C299 746 462 746 462 746 C566 746 607 679 583 546 C562 427 511 385 423 381 C423 381 423 381 423 381 C423 381 419 380 419 380 C414 380 409 380 404 380 C404 380 234 380 234 380 C234 380 285 665 285 665 C298 744 299 750 300 750 C300 750 204 750 204 750 C203 750 200 730 200 730 C200 730 200 730 200 730 L200 730 Z M465 843 C465 843 643 1041 643 1041 C643 1041 646 1039 646 1039 C646 1039 469 826 469 826 C467 824 462 819 460 819 C458 819 456 824 455 826 C455 826 353 1039 353 1039 C353 1039 356 1041 356 1041 C356 1041 465 843 465 843 L465 843 Z " />
<glyph glyph-name="rcaron" unicode="&#x159;" horiz-adv-x="324" d="M132 452 C132 452 143 456 143 456 C177 468 194 469 182 400 C182 400 182 400 182 400 C182 400 118 35 118 35 C116 21 101 20 73 20 C73 20 63 20 63 20 C62 16 60 2 59 0 C59 0 191 0 191 0 C192 4 194 18 195 20 C195 20 184 20 184 20 C152 20 136 21 138 35 C138 35 197 371 197 371 C238 457 291 501 356 501 C371 501 377 489 373 466 C372 458 375 454 383 454 C390 454 395 458 396 466 C401 495 391 510 367 510 C295 510 240 467 199 382 C199 382 202 400 202 400 C219 493 220 500 220 500 C220 500 216 500 216 500 C216 500 135 472 135 472 C133 460 132 458 132 452 C132 452 132 452 132 452 L132 452 Z M316 593 C316 593 495 791 495 791 C495 791 497 789 497 789 C497 789 320 576 320 576 C318 574 314 569 312 569 C309 569 307 574 306 576 C306 576 204 789 204 789 C204 789 207 791 207 791 C207 791 316 593 316 593 L316 593 Z " />
<glyph glyph-name="Sacute" unicode="&#x15a;" horiz-adv-x="540" d="M423 814 C423 814 582 940 582 940 C641 987 670 1011 671 1012 C672 1018 668 1022 662 1022 C661 1022 632 997 575 949 C575 949 421 817 421 817 C421 817 423 814 423 814 L423 814 Z M557 578 C561 602 566 626 570 650 C570 650 574 674 583 722 C583 722 568 722 568 722 C567 722 565 715 559 701 C557 696 545 700 523 715 C488 745 438 760 372 760 C267 760 204 702 183 588 C170 508 218 440 367 363 C488 302 526 241 512 164 C492 53 424 -3 310 -3 C258 -3 214 7 178 28 C178 28 179 28 179 28 C145 48 118 138 108 212 C108 212 93 212 93 212 C83 158 78 130 78 130 C73 103 68 75 64 47 C64 47 79 47 79 47 C78 47 82 56 88 73 C91 79 111 70 148 41 C187 7 241 -10 308 -10 C435 -10 510 51 531 171 C546 257 509 324 385 387 C238 461 190 525 202 597 C221 701 277 754 371 754 C393 754 413 752 432 749 C432 749 431 749 431 749 C433 749 434 748 436 748 C456 744 474 737 489 729 C489 729 454 741 454 741 C503 716 533 645 542 578 C542 578 557 578 557 578 L557 578 Z M454 741 C454 741 432 749 432 749 C433 748 434 748 436 748 C442 746 448 744 454 741 C454 741 454 741 454 741 L454 741 Z " />
<glyph glyph-name="Scircumflex" unicode="&#x15c;" horiz-adv-x="540" d="M557 578 C561 602 566 626 570 650 C570 650 574 674 583 722 C583 722 568 722 568 722 C567 722 565 715 559 701 C557 696 545 700 523 715 C488 745 438 760 372 760 C267 760 204 702 183 588 C170 508 218 440 367 363 C488 302 526 241 512 164 C492 53 424 -3 310 -3 C258 -3 214 7 178 28 C178 28 179 28 179 28 C145 48 118 138 108 212 C108 212 93 212 93 212 C83 158 78 130 78 130 C73 103 68 75 64 47 C64 47 79 47 79 47 C78 47 82 56 88 73 C91 79 111 70 148 41 C187 7 241 -10 308 -10 C435 -10 510 51 531 171 C546 257 509 324 385 387 C238 461 190 525 202 597 C221 701 277 754 371 754 C393 754 413 752 432 749 C432 749 431 749 431 749 C433 749 434 748 436 748 C456 744 474 737 489 729 C489 729 454 741 454 741 C503 716 533 645 542 578 C542 578 557 578 557 578 L557 578 Z M451 1007 C451 1007 561 809 561 809 C561 809 564 811 564 811 C564 811 462 1024 462 1024 C460 1026 458 1031 456 1031 C453 1031 450 1028 449 1024 C449 1024 448 1024 448 1024 C448 1024 271 811 271 811 C271 811 273 809 273 809 C273 809 451 1007 451 1007 L451 1007 Z M454 741 C454 741 432 749 432 749 C433 748 434 748 436 748 C442 746 448 744 454 741 C454 741 454 741 454 741 L454 741 Z " />
<glyph glyph-name="Scaron" unicode="&#x160;" horiz-adv-x="540" d="M557 578 C561 602 566 626 570 650 C570 650 574 674 583 722 C583 722 568 722 568 722 C567 722 565 715 559 701 C557 696 545 700 523 715 C488 745 438 760 372 760 C267 760 204 702 183 588 C170 508 218 440 367 363 C488 302 526 241 512 164 C492 53 424 -3 310 -3 C258 -3 214 7 178 28 C178 28 179 28 179 28 C145 48 118 138 108 212 C108 212 93 212 93 212 C83 158 78 130 78 130 C73 103 68 75 64 47 C64 47 79 47 79 47 C78 47 82 56 88 73 C91 79 111 70 148 41 C187 7 241 -10 308 -10 C435 -10 510 51 531 171 C546 257 509 324 385 387 C238 461 190 525 202 597 C221 701 277 754 371 754 C393 754 413 752 432 749 C432 749 431 749 431 749 C433 749 434 748 436 748 C456 744 474 737 489 729 C489 729 454 741 454 741 C503 716 533 645 542 578 C542 578 557 578 557 578 L557 578 Z M423 843 C423 843 602 1041 602 1041 C602 1041 604 1039 604 1039 C604 1039 427 826 427 826 C425 824 420 819 418 819 C416 819 414 824 413 826 C413 826 311 1039 311 1039 C311 1039 314 1041 314 1041 C314 1041 423 843 423 843 L423 843 Z M454 741 C454 741 432 749 432 749 C433 748 434 748 436 748 C442 746 448 744 454 741 C454 741 454 741 454 741 L454 741 Z " />
<glyph glyph-name="scaron" unicode="&#x161;" horiz-adv-x="431" d="M366 496 C366 496 364 496 364 496 C343 505 317 510 287 510 C210 510 164 472 151 396 C140 333 175 285 287 242 C370 210 396 168 385 108 C372 33 326 -5 247 -5 C228 -5 210 -3 194 1 C133 20 110 79 119 132 C120 136 121 140 121 144 C121 144 101 144 101 144 C95 108 92 90 91 90 C89 72 85 54 82 36 C82 36 102 36 102 36 C102 36 105 51 105 51 C103 41 126 21 173 2 C173 2 175 2 175 2 C195 -6 220 -10 247 -10 C335 -10 387 31 402 114 C413 178 387 224 298 258 C191 300 157 345 167 403 C179 471 219 505 286 505 C301 505 314 503 326 501 C326 501 286 505 286 505 C305 505 323 503 338 499 C338 499 326 501 326 501 C386 486 409 436 400 387 C399 383 399 379 398 376 C398 376 418 376 418 376 C421 392 424 408 427 424 C427 424 427 424 427 424 C427 424 427 425 427 425 C428 430 428 435 429 440 C430 440 433 462 441 504 C441 504 421 504 421 504 C420 498 418 491 417 484 C416 479 399 481 366 496 C366 496 366 496 366 496 L366 496 Z M353 593 C353 593 532 791 532 791 C532 791 534 789 534 789 C534 789 357 576 357 576 C355 574 351 569 349 569 C346 569 344 574 343 576 C343 576 241 789 241 789 C241 789 244 791 244 791 C244 791 353 593 353 593 L353 593 Z " />
<glyph glyph-name="Tcaron" unicode="&#x164;" horiz-adv-x="775" d="M303 0 C303 0 472 0 472 0 C473 4 475 18 476 20 C476 20 465 20 465 20 C424 20 403 24 413 80 C413 80 530 744 530 744 C530 744 731 744 731 744 C831 744 835 721 845 671 C845 671 855 671 855 671 C862 672 865 672 865 672 C860 695 855 720 851 744 C851 744 851 744 851 744 C851 744 852 750 852 750 C852 750 850 750 850 750 C847 763 845 776 843 789 C843 789 839 789 833 790 C833 790 823 790 823 790 C827 758 831 750 730 750 C730 750 531 750 531 750 C531 750 509 750 509 750 C509 750 309 750 309 750 C216 750 215 760 226 781 C226 781 231 790 231 790 C231 790 221 790 221 790 C214 789 210 789 210 789 C203 776 196 763 190 750 C190 750 187 750 187 750 C187 750 186 744 186 744 C186 744 186 744 186 744 C174 720 160 695 147 672 C147 672 150 672 157 671 C157 671 166 671 166 671 C166 671 172 681 172 681 C195 723 213 744 306 744 C306 744 508 744 508 744 C508 744 390 80 390 80 C380 24 358 20 317 20 C317 20 306 20 306 20 C305 10 303 8 303 0 C303 0 303 0 303 0 L303 0 Z M536 843 C536 843 715 1041 715 1041 C715 1041 717 1039 717 1039 C717 1039 540 826 540 826 C538 824 534 819 532 819 C529 819 527 824 526 826 C526 826 424 1039 424 1039 C424 1039 427 1041 427 1041 C427 1041 536 843 536 843 L536 843 Z " />
<glyph glyph-name="tcaron" unicode="&#x165;" horiz-adv-x="306" d="M358 500 C358 500 203 500 203 500 C203 500 224 620 224 620 C224 620 223 620 223 620 C223 620 118 500 118 500 C118 500 116 490 116 490 C116 490 181 490 181 490 C181 490 113 103 113 103 C97 13 127 -10 194 -10 C227 -10 264 8 304 45 C304 45 303 46 303 46 C268 15 234 -1 202 -1 C143 -1 117 19 132 98 C155 228 178 359 201 489 C201 489 356 489 356 489 C356 489 358 500 358 500 L358 500 Z M456 652 C478 708 490 743 493 757 C493 759 490 759 484 759 C479 759 461 703 446 654 C446 654 411 543 411 543 C411 543 415 543 415 543 C415 543 456 652 456 652 L456 652 Z " />
<glyph glyph-name="Utilde" unicode="&#x168;" horiz-adv-x="604" d="M320 870 C329 917 349 941 381 941 C449 941 484 876 554 876 C591 876 615 901 624 951 C624 951 620 951 620 951 C614 911 594 891 561 891 C492 891 457 956 388 956 C350 956 326 927 316 870 C316 870 320 870 320 870 L320 870 Z M542 730 C542 730 552 730 552 730 C594 730 615 725 604 665 C604 665 515 163 515 163 C447 58 352 4 231 4 C166 4 146 77 171 220 C171 220 250 665 250 665 C263 744 264 750 265 750 C265 750 169 750 169 750 C168 750 165 730 165 730 C165 730 176 730 176 730 C218 730 238 725 227 665 C227 665 149 220 149 220 C122 67 146 -10 219 -10 C345 -10 443 45 513 152 C513 152 506 110 506 110 C506 110 487 0 487 0 C487 0 490 0 490 0 C490 0 592 55 592 55 C592 55 594 65 594 65 C525 61 520 63 529 110 C529 110 626 665 626 665 C640 744 641 750 641 750 C641 750 545 750 545 750 C545 750 542 730 542 730 L542 730 Z " />
<glyph glyph-name="utilde" unicode="&#x169;" horiz-adv-x="484" d="M210 620 C219 667 239 691 271 691 C340 691 375 626 444 626 C482 626 506 651 514 701 C514 701 511 701 511 701 C504 661 484 641 451 641 C382 641 347 706 278 706 C241 706 217 677 207 620 C207 620 210 620 210 620 L210 620 Z M417 480 C417 480 427 480 427 480 C451 480 463 479 461 465 C461 465 402 130 402 130 C353 46 292 4 221 4 C148 4 120 56 138 160 C138 160 192 465 192 465 C198 498 198 500 198 500 C198 500 131 500 131 500 C131 500 128 480 128 480 C128 480 138 480 138 480 C162 480 174 479 172 465 C172 465 118 160 118 160 C98 47 129 -10 209 -10 C285 -10 349 35 401 125 C401 125 395 90 395 90 C378 -3 377 -10 377 -10 C377 -10 380 -10 380 -10 C380 -10 460 9 460 9 C460 9 463 29 464 29 C464 29 452 26 452 26 C420 18 403 20 414 90 C414 90 415 90 415 90 C415 90 481 465 481 465 C487 498 487 500 487 500 C487 500 420 500 420 500 C420 500 417 480 417 480 L417 480 Z M464 29 C464 29 464 29 464 29 C464 29 464 29 464 29 L464 29 Z " />
<glyph glyph-name="Umacron" unicode="&#x16a;" horiz-adv-x="604" d="M319 907 C319 907 619 907 619 907 C619 907 622 920 622 920 C622 920 322 920 322 920 C322 920 319 907 319 907 L319 907 Z M542 730 C542 730 552 730 552 730 C594 730 615 725 604 665 C604 665 515 163 515 163 C447 58 352 4 231 4 C166 4 146 77 171 220 C171 220 250 665 250 665 C263 744 264 750 265 750 C265 750 169 750 169 750 C168 750 165 730 165 730 C165 730 176 730 176 730 C218 730 238 725 227 665 C227 665 149 220 149 220 C122 67 146 -10 219 -10 C345 -10 443 45 513 152 C513 152 506 110 506 110 C506 110 487 0 487 0 C487 0 490 0 490 0 C490 0 592 55 592 55 C592 55 594 65 594 65 C525 61 520 63 529 110 C529 110 626 665 626 665 C640 744 641 750 641 750 C641 750 545 750 545 750 C545 750 542 730 542 730 L542 730 Z " />
<glyph glyph-name="umacron" unicode="&#x16b;" horiz-adv-x="484" d="M210 657 C210 657 510 657 510 657 C510 657 512 670 512 670 C512 670 212 670 212 670 C212 670 210 657 210 657 L210 657 Z M417 480 C417 480 427 480 427 480 C451 480 463 479 461 465 C461 465 402 130 402 130 C353 46 292 4 221 4 C148 4 120 56 138 160 C138 160 192 465 192 465 C198 498 198 500 198 500 C198 500 131 500 131 500 C131 500 128 480 128 480 C128 480 138 480 138 480 C162 480 174 479 172 465 C172 465 118 160 118 160 C98 47 129 -10 209 -10 C285 -10 349 35 401 125 C401 125 395 90 395 90 C378 -3 377 -10 377 -10 C377 -10 380 -10 380 -10 C380 -10 460 9 460 9 C460 9 463 29 464 29 C464 29 452 26 452 26 C420 18 403 20 414 90 C414 90 415 90 415 90 C415 90 481 465 481 465 C487 498 487 500 487 500 C487 500 420 500 420 500 C420 500 417 480 417 480 L417 480 Z M464 29 C464 29 464 29 464 29 C464 29 464 29 464 29 L464 29 Z " />
<glyph glyph-name="Ubreve" unicode="&#x16c;" horiz-adv-x="604" d="M369 995 C360 934 394 904 469 904 C545 904 589 934 601 994 C601 994 597 995 597 995 C587 945 545 919 472 919 C399 919 366 945 374 995 C374 995 369 995 369 995 L369 995 Z M542 730 C542 730 552 730 552 730 C594 730 615 725 604 665 C604 665 515 163 515 163 C447 58 352 4 231 4 C166 4 146 77 171 220 C171 220 250 665 250 665 C263 744 264 750 265 750 C265 750 169 750 169 750 C168 750 165 730 165 730 C165 730 176 730 176 730 C218 730 238 725 227 665 C227 665 149 220 149 220 C122 67 146 -10 219 -10 C345 -10 443 45 513 152 C513 152 506 110 506 110 C506 110 487 0 487 0 C487 0 490 0 490 0 C490 0 592 55 592 55 C592 55 594 65 594 65 C525 61 520 63 529 110 C529 110 626 665 626 665 C640 744 641 750 641 750 C641 750 545 750 545 750 C545 750 542 730 542 730 L542 730 Z " />
<glyph glyph-name="ubreve" unicode="&#x16d;" horiz-adv-x="484" d="M260 745 C250 684 284 654 360 654 C435 654 479 684 491 744 C491 744 487 745 487 745 C477 695 435 669 362 669 C289 669 256 695 264 745 C264 745 260 745 260 745 L260 745 Z M417 480 C417 480 427 480 427 480 C451 480 463 479 461 465 C461 465 402 130 402 130 C353 46 292 4 221 4 C148 4 120 56 138 160 C138 160 192 465 192 465 C198 498 198 500 198 500 C198 500 131 500 131 500 C131 500 128 480 128 480 C128 480 138 480 138 480 C162 480 174 479 172 465 C172 465 118 160 118 160 C98 47 129 -10 209 -10 C285 -10 349 35 401 125 C401 125 395 90 395 90 C378 -3 377 -10 377 -10 C377 -10 380 -10 380 -10 C380 -10 460 9 460 9 C460 9 463 29 464 29 C464 29 452 26 452 26 C420 18 403 20 414 90 C414 90 415 90 415 90 C415 90 481 465 481 465 C487 498 487 500 487 500 C487 500 420 500 420 500 C420 500 417 480 417 480 L417 480 Z M464 29 C464 29 464 29 464 29 C464 29 464 29 464 29 L464 29 Z " />
<glyph glyph-name="Uring" unicode="&#x16e;" horiz-adv-x="604" d="M453 815 C400 815 370 851 380 905 C390 965 426 995 485 995 C544 995 569 965 559 905 C549 851 507 815 453 815 L453 815 Z M374 905 C364 848 395 810 452 810 C509 810 555 848 565 905 C576 968 549 1000 486 1000 C422 1000 385 968 374 905 L374 905 Z M542 730 C542 730 552 730 552 730 C594 730 615 725 604 665 C604 665 515 163 515 163 C447 58 352 4 231 4 C166 4 146 77 171 220 C171 220 250 665 250 665 C263 744 264 750 265 750 C265 750 169 750 169 750 C168 750 165 730 165 730 C165 730 176 730 176 730 C218 730 238 725 227 665 C227 665 149 220 149 220 C122 67 146 -10 219 -10 C345 -10 443 45 513 152 C513 152 506 110 506 110 C506 110 487 0 487 0 C487 0 490 0 490 0 C490 0 592 55 592 55 C592 55 594 65 594 65 C525 61 520 63 529 110 C529 110 626 665 626 665 C640 744 641 750 641 750 C641 750 545 750 545 750 C545 750 542 730 542 730 L542 730 Z " />
<glyph glyph-name="uring" unicode="&#x16f;" horiz-adv-x="484" d="M344 565 C290 565 260 601 270 655 C280 715 316 745 376 745 C435 745 460 715 449 655 C440 601 397 565 344 565 L344 565 Z M264 655 C254 598 286 560 343 560 C400 560 445 598 455 655 C467 718 440 750 376 750 C313 750 275 718 264 655 L264 655 Z M417 480 C417 480 427 480 427 480 C451 480 463 479 461 465 C461 465 402 130 402 130 C353 46 292 4 221 4 C148 4 120 56 138 160 C138 160 192 465 192 465 C198 498 198 500 198 500 C198 500 131 500 131 500 C131 500 128 480 128 480 C128 480 138 480 138 480 C162 480 174 479 172 465 C172 465 118 160 118 160 C98 47 129 -10 209 -10 C285 -10 349 35 401 125 C401 125 395 90 395 90 C378 -3 377 -10 377 -10 C377 -10 380 -10 380 -10 C380 -10 460 9 460 9 C460 9 463 29 464 29 C464 29 452 26 452 26 C420 18 403 20 414 90 C414 90 415 90 415 90 C415 90 481 465 481 465 C487 498 487 500 487 500 C487 500 420 500 420 500 C420 500 417 480 417 480 L417 480 Z M464 29 C464 29 464 29 464 29 C464 29 464 29 464 29 L464 29 Z " />
<glyph glyph-name="Wcircumflex" unicode="&#x174;" horiz-adv-x="983" d="M1091 750 C1091 750 1030 750 1030 750 C1030 750 1021 750 1021 750 C1021 750 905 750 905 750 C904 740 902 738 902 730 C902 730 922 730 922 730 C982 730 1008 722 954 610 C954 610 954 610 954 610 C954 610 679 34 679 34 C679 34 630 640 630 640 C630 640 630 640 630 640 C623 724 648 730 698 730 C698 730 720 730 720 730 C720 730 723 750 723 750 C723 750 621 750 621 750 C621 750 595 750 595 750 C595 750 534 750 534 750 C534 750 531 730 530 730 C530 730 554 730 554 730 C581 730 596 727 600 694 C605 629 610 564 616 500 C616 500 309 28 309 28 C309 28 245 618 245 618 C236 722 260 730 309 730 C309 730 330 730 330 730 C330 730 333 750 333 750 C333 750 231 750 231 750 C231 750 207 750 207 750 C207 750 167 750 167 750 C166 750 163 730 163 730 C163 730 189 730 189 730 C202 730 210 722 221 610 C221 610 221 610 221 610 C242 403 263 196 284 -10 C284 -10 290 -10 290 -10 C290 -10 617 489 617 489 C631 323 645 157 658 -10 C658 -10 664 -10 664 -10 C664 -10 963 610 963 610 C963 610 963 610 963 610 C1016 722 1034 730 1064 730 C1064 730 1087 730 1087 730 C1088 730 1091 750 1091 750 C1091 750 1091 750 1091 750 L1091 750 Z M664 1007 C664 1007 773 809 773 809 C773 809 776 811 776 811 C776 811 674 1024 674 1024 C673 1026 671 1031 668 1031 C665 1031 662 1028 661 1024 C661 1024 660 1024 660 1024 C660 1024 483 811 483 811 C483 811 485 809 485 809 C485 809 664 1007 664 1007 L664 1007 Z " />
<glyph glyph-name="Ycircumflex" unicode="&#x176;" horiz-adv-x="626" d="M301 750 C301 750 228 750 228 750 C228 750 201 750 201 750 C201 750 167 750 167 750 C166 740 164 738 164 730 C164 730 190 730 190 730 C201 730 209 725 236 663 C236 663 365 336 365 336 C365 336 365 336 365 336 C365 336 320 80 320 80 C310 24 288 20 246 20 C246 20 236 20 236 20 C235 16 233 2 232 0 C232 0 402 0 402 0 C402 2 405 12 405 20 C405 20 395 20 395 20 C353 20 332 24 342 80 C342 80 387 337 387 337 C387 337 599 628 599 628 C670 723 687 730 709 730 C709 730 733 730 733 730 C734 730 737 750 737 750 C737 750 688 750 688 750 C688 750 677 750 677 750 C677 750 603 750 603 750 C602 740 600 738 600 730 C600 730 620 730 620 730 C649 730 658 722 584 620 C584 620 584 620 584 620 C584 620 387 344 387 344 C387 344 267 649 267 649 C241 724 253 730 278 730 C278 730 298 730 298 730 C299 740 301 742 301 750 C301 750 301 750 301 750 L301 750 Z M494 1007 C494 1007 604 809 604 809 C604 809 607 811 607 811 C607 811 505 1024 505 1024 C503 1026 501 1031 499 1031 C497 1031 493 1026 490 1024 C490 1024 313 811 313 811 C313 811 316 809 316 809 C316 809 494 1007 494 1007 L494 1007 Z " />
<glyph glyph-name="Ydieresis" unicode="&#x178;" horiz-adv-x="626" d="M533 865 C546 865 554 872 557 885 C559 898 553 905 540 905 C526 905 519 898 517 885 C514 872 519 865 533 865 L533 865 Z M406 865 C419 865 427 872 429 885 C432 898 426 905 413 905 C399 905 392 898 389 885 C387 872 392 865 406 865 L406 865 Z M301 750 C301 750 228 750 228 750 C228 750 201 750 201 750 C201 750 167 750 167 750 C166 740 164 738 164 730 C164 730 190 730 190 730 C201 730 209 725 236 663 C236 663 365 336 365 336 C365 336 365 336 365 336 C365 336 320 80 320 80 C310 24 288 20 246 20 C246 20 236 20 236 20 C235 16 233 2 232 0 C232 0 402 0 402 0 C402 2 405 12 405 20 C405 20 395 20 395 20 C353 20 332 24 342 80 C342 80 387 337 387 337 C387 337 599 628 599 628 C670 723 687 730 709 730 C709 730 733 730 733 730 C734 730 737 750 737 750 C737 750 688 750 688 750 C688 750 677 750 677 750 C677 750 603 750 603 750 C602 740 600 738 600 730 C600 730 620 730 620 730 C649 730 658 722 584 620 C584 620 584 620 584 620 C584 620 387 344 387 344 C387 344 267 649 267 649 C241 724 253 730 278 730 C278 730 298 730 298 730 C299 740 301 742 301 750 C301 750 301 750 301 750 L301 750 Z " />
<glyph glyph-name="Zacute" unicode="&#x179;" horiz-adv-x="642" d="M489 814 C489 814 648 940 648 940 C707 987 736 1011 737 1012 C738 1018 734 1022 728 1022 C727 1022 698 997 640 949 C640 949 487 817 487 817 C487 817 489 814 489 814 L489 814 Z M635 115 C635 115 616 84 616 84 C587 36 563 11 475 7 C475 7 54 5 54 5 C54 5 741 745 741 745 C741 745 742 750 742 750 C742 750 720 750 720 750 C720 750 372 750 372 750 C372 750 202 750 202 750 C190 708 177 668 163 627 C168 626 186 625 189 625 C189 625 197 646 197 646 C222 707 244 739 346 744 C346 744 715 745 715 745 C715 745 26 5 26 5 C26 5 25 0 25 0 C25 0 49 0 49 0 C49 0 446 0 446 0 C446 0 606 0 606 0 C606 0 630 57 630 57 C638 75 646 94 654 113 C650 114 637 115 635 115 C635 115 635 115 635 115 L635 115 Z " />
<glyph glyph-name="Zdotaccent" unicode="&#x17b;" horiz-adv-x="642" d="M493 865 C506 865 514 872 516 885 C518 898 513 905 500 905 C486 905 478 898 476 885 C474 872 479 865 493 865 L493 865 Z M635 115 C635 115 616 84 616 84 C587 36 563 11 475 7 C475 7 54 5 54 5 C54 5 741 745 741 745 C741 745 742 750 742 750 C742 750 720 750 720 750 C720 750 372 750 372 750 C372 750 202 750 202 750 C190 708 177 668 163 627 C168 626 186 625 189 625 C189 625 197 646 197 646 C222 707 244 739 346 744 C346 744 715 745 715 745 C715 745 26 5 26 5 C26 5 25 0 25 0 C25 0 49 0 49 0 C49 0 446 0 446 0 C446 0 606 0 606 0 C606 0 630 57 630 57 C638 75 646 94 654 113 C650 114 637 115 635 115 C635 115 635 115 635 115 L635 115 Z " />
<glyph glyph-name="zdotaccent" unicode="&#x17c;" horiz-adv-x="475" d="M373 615 C387 615 395 622 397 635 C399 648 394 655 380 655 C367 655 359 648 357 635 C355 622 360 615 373 615 L373 615 Z M144 424 C144 424 156 424 156 424 C156 424 169 434 169 434 C213 471 242 491 306 494 C306 494 498 495 498 495 C498 495 41 5 41 5 C41 5 40 0 40 0 C40 0 61 0 61 0 C61 0 415 0 415 0 C415 0 430 0 430 0 C438 25 446 51 454 76 C454 76 444 76 444 76 C444 76 431 66 431 66 C384 29 354 9 282 6 C282 6 66 5 66 5 C66 5 522 495 522 495 C522 495 523 500 523 500 C523 500 503 500 503 500 C503 500 223 500 223 500 C212 500 201 506 207 519 C207 519 211 528 211 528 C211 528 191 528 191 528 C175 494 160 459 144 424 C144 424 144 424 144 424 L144 424 Z " />
<glyph glyph-name="Zcaron" unicode="&#x17d;" horiz-adv-x="642" d="M635 115 C635 115 616 84 616 84 C587 36 563 11 475 7 C475 7 54 5 54 5 C54 5 741 745 741 745 C741 745 742 750 742 750 C742 750 720 750 720 750 C720 750 372 750 372 750 C372 750 202 750 202 750 C190 708 177 668 163 627 C168 626 186 625 189 625 C189 625 197 646 197 646 C222 707 244 739 346 744 C346 744 715 745 715 745 C715 745 26 5 26 5 C26 5 25 0 25 0 C25 0 49 0 49 0 C49 0 446 0 446 0 C446 0 606 0 606 0 C606 0 630 57 630 57 C638 75 646 94 654 113 C650 114 637 115 635 115 C635 115 635 115 635 115 L635 115 Z M489 843 C489 843 667 1041 667 1041 C667 1041 670 1039 670 1039 C670 1039 493 826 493 826 C491 824 486 819 484 819 C482 819 480 824 479 826 C479 826 377 1039 377 1039 C377 1039 380 1041 380 1041 C380 1041 489 843 489 843 L489 843 Z " />
<glyph glyph-name="zcaron" unicode="&#x17e;" horiz-adv-x="475" d="M144 424 C144 424 156 424 156 424 C156 424 169 434 169 434 C213 471 242 491 306 494 C306 494 498 495 498 495 C498 495 41 5 41 5 C41 5 40 0 40 0 C40 0 61 0 61 0 C61 0 415 0 415 0 C415 0 430 0 430 0 C438 25 446 51 454 76 C454 76 444 76 444 76 C444 76 431 66 431 66 C384 29 354 9 282 6 C282 6 66 5 66 5 C66 5 522 495 522 495 C522 495 523 500 523 500 C523 500 503 500 503 500 C503 500 223 500 223 500 C212 500 201 506 207 519 C207 519 211 528 211 528 C211 528 191 528 191 528 C175 494 160 459 144 424 C144 424 144 424 144 424 L144 424 Z M370 593 C370 593 548 791 548 791 C548 791 551 789 551 789 C551 789 374 576 374 576 C372 574 367 569 365 569 C363 569 361 574 360 576 C360 576 257 789 257 789 C257 789 261 791 261 791 C261 791 370 593 370 593 L370 593 Z " />
<glyph glyph-name="SmallLetterOwithogon" unicode="&#x1eb;" horiz-adv-x="685" d="M901 -53 C901 -53 900 -51 900 -51 C862 -79 782 -93 662 -93 C527 -93 418 -65 337 -10 C534 -10 651 91 686 292 C722 492 643 593 453 593 C269 593 158 492 123 292 C90 107 223 7 313 -8 C313 -8 313 -8 313 -8 C408 -75 523 -109 656 -109 C767 -109 849 -90 901 -53 L901 -53 Z M338 -5 C335 -5 332 -5 329 -5 C329 -4 328 -4 328 -4 C328 -4 327 -4 327 -4 C244 4 113 104 146 292 C180 489 283 588 451 588 C627 588 698 489 663 292 C629 95 520 -5 338 -5 L338 -5 Z " />
<glyph glyph-name="CapitalLetterAwithdo" unicode="&#x226;" horiz-adv-x="662" d="M512 865 C525 865 533 872 535 885 C537 898 532 905 519 905 C505 905 497 898 495 885 C493 872 498 865 512 865 L512 865 Z M469 0 C469 0 563 0 563 0 C563 0 587 0 587 0 C587 0 648 0 648 0 C648 2 651 12 651 20 C651 20 627 20 627 20 C599 20 584 28 571 140 C571 140 571 140 571 140 C571 140 501 743 501 743 C501 743 498 770 498 770 C498 770 496 770 496 770 C480 751 474 742 479 743 C479 743 480 733 480 733 C480 733 480 733 480 733 C480 733 197 170 197 170 C197 170 196 170 196 170 C126 30 96 20 48 20 C48 20 26 20 26 20 C25 16 23 2 22 0 C22 0 111 0 111 0 C111 0 117 0 117 0 C117 0 233 0 233 0 C234 4 236 18 237 20 C237 20 216 20 216 20 C160 20 135 29 193 152 C193 152 265 294 265 294 C265 294 530 294 530 294 C530 294 547 140 547 140 C547 140 547 140 547 140 C561 28 539 20 493 20 C493 20 472 20 472 20 C471 10 469 8 469 0 L469 0 Z M267 299 C267 299 481 725 481 725 C481 725 529 299 529 299 C529 299 267 299 267 299 L267 299 Z " />
<glyph glyph-name="LETTERSMALLCAPITALG" unicode="&#x262;" horiz-adv-x="652" d="M625 423 C625 423 636 487 636 487 C636 487 636 487 636 487 C636 487 636 487 636 487 C636 487 637 495 637 495 C637 495 642 520 650 568 C650 568 635 568 635 568 C635 568 632 561 627 548 C625 544 599 551 551 573 C551 573 551 573 551 573 C522 586 483 593 423 593 C259 593 158 492 123 292 C87 91 151 -10 313 -10 C368 -10 414 -5 458 5 C425 -2 377 -5 316 -5 C316 -5 470 12 470 12 C424 1 376 -5 316 -5 C168 -5 111 95 145 292 C180 489 274 588 425 588 C457 588 483 586 504 581 C560 566 597 499 607 437 C609 428 610 423 610 423 C610 423 625 423 625 423 L625 423 Z M634 253 C634 253 484 253 484 253 C483 249 481 235 480 233 C480 233 491 233 491 233 C530 233 549 229 540 173 C540 173 516 36 516 36 C515 31 511 26 504 22 C493 18 482 15 470 12 C470 12 491 15 491 15 C487 13 483 12 479 10 C484 12 490 13 496 15 C496 15 513 17 513 17 C513 17 533 21 533 21 C533 21 534 28 534 28 C561 37 589 49 620 62 C620 62 619 65 619 65 C589 52 561 41 535 32 C535 32 560 173 560 173 C570 229 587 233 620 233 C620 233 630 233 630 233 C631 237 633 251 634 253 C634 253 634 253 634 253 L634 253 Z M517 39 C517 39 517 39 517 39 C517 39 517 39 517 39 L517 39 Z M458 5 C465 7 472 8 479 10 C473 8 466 7 458 5 C458 5 458 5 458 5 L458 5 Z " />
<glyph glyph-name="LETTERSMALLCAPITALI" unicode="&#x26a;" horiz-adv-x="306" d="M186 563 C186 563 197 563 197 563 C239 563 260 559 249 503 C249 503 175 80 175 80 C165 24 143 20 101 20 C101 20 90 20 90 20 C90 18 90 8 87 0 C87 0 255 0 255 0 C255 0 258 20 258 20 C258 20 247 20 247 20 C206 20 185 24 195 80 C195 80 269 503 269 503 C280 559 301 563 343 563 C343 563 354 563 354 563 C354 563 359 583 357 583 C357 583 190 583 190 583 C189 579 187 565 186 563 L186 563 Z " />
<glyph glyph-name="LETTERSMALLCAPITALN" unicode="&#x274;" horiz-adv-x="635" d="M176 563 C176 563 202 563 202 563 C210 563 216 562 222 556 C222 556 146 124 146 124 C125 28 103 20 63 20 C63 20 40 20 40 20 C39 16 37 2 36 0 C36 0 124 0 124 0 C124 0 130 0 130 0 C130 0 218 0 218 0 C219 4 221 18 222 20 C222 20 199 20 199 20 C155 20 135 28 155 140 C155 140 155 141 155 141 C155 141 226 551 226 551 C229 548 231 544 234 539 C234 539 493 22 493 22 C493 22 504 0 504 0 C504 0 508 0 508 0 C508 0 595 485 595 485 C612 557 638 563 686 563 C686 563 697 563 697 563 C695 563 700 583 700 583 C700 583 613 583 613 583 C613 583 607 583 607 583 C607 583 519 583 519 583 C518 579 516 565 515 563 C515 563 526 563 526 563 C577 563 602 556 585 463 C585 463 586 463 586 463 C586 463 509 28 509 28 C509 28 508 31 508 31 C508 31 237 583 237 583 C237 583 232 583 232 583 C232 583 227 583 227 583 C227 583 212 583 212 583 C212 583 180 583 180 583 C179 579 177 565 176 563 C176 563 176 563 176 563 L176 563 Z " />
<glyph glyph-name="LETTERSMALLCAPITALR" unicode="&#x280;" horiz-adv-x="534" d="M171 563 C171 563 182 563 182 563 C224 563 244 558 234 498 C234 498 161 85 161 85 C150 25 128 20 86 20 C86 20 75 20 75 20 C75 18 75 8 72 0 C72 0 240 0 240 0 C240 0 243 20 243 20 C243 20 232 20 232 20 C191 20 170 25 181 85 C181 85 217 291 217 291 C217 291 328 291 328 291 C331 277 357 201 406 62 C428 -4 421 0 524 0 C524 0 525 4 525 4 C445 4 451 0 429 62 C383 194 356 271 350 291 C441 295 494 328 510 421 C529 529 486 583 381 583 C381 583 269 583 269 583 C269 583 175 583 175 583 C174 579 172 565 171 563 C171 563 171 563 171 563 L171 563 Z M268 579 C268 579 375 579 375 579 C469 579 507 527 489 425 C472 333 427 300 348 296 C348 297 348 297 348 297 C348 297 344 296 344 296 C340 296 335 296 331 296 C331 296 218 296 218 296 C218 296 254 498 254 498 C264 552 267 572 268 579 L268 579 Z " />
<glyph glyph-name="LETTERSMALLCAPITALY" unicode="&#x28f;" horiz-adv-x="548" d="M270 583 C270 583 196 583 196 583 C196 583 173 583 173 583 C173 583 139 583 139 583 C139 583 134 563 136 563 C136 563 162 563 162 563 C175 563 185 555 234 443 C234 443 234 443 234 443 C234 443 314 262 314 262 C314 262 282 80 282 80 C272 24 250 20 208 20 C208 20 198 20 198 20 C197 16 195 2 194 0 C194 0 362 0 362 0 C362 0 363 3 363 10 C365 17 365 20 365 20 C365 20 355 20 355 20 C313 20 292 24 302 80 C302 80 335 262 335 262 C335 262 474 443 474 443 C474 443 474 443 474 443 C559 555 577 563 601 563 C601 563 625 563 625 563 C626 567 628 581 629 583 C629 583 581 583 581 583 C581 583 571 583 571 583 C571 583 497 583 497 583 C497 583 492 563 494 563 C494 563 513 563 513 563 C542 563 551 555 473 453 C473 453 473 453 473 453 C473 453 334 267 334 267 C334 267 254 449 254 449 C208 555 219 563 247 563 C247 563 267 563 267 563 C265 563 270 583 270 583 C270 583 270 583 270 583 L270 583 Z " />
<glyph glyph-name="LETTERSMALLCAPITALB" unicode="&#x299;" horiz-adv-x="477" d="M72 0 C72 0 166 0 166 0 C166 0 166 2 169 16 C169 16 166 0 166 0 C166 0 286 0 286 0 C387 0 441 16 464 151 C482 251 448 301 364 301 C364 301 364 301 364 301 C446 313 495 360 510 442 C527 536 513 583 328 583 C328 583 269 583 269 583 C269 583 175 583 175 583 C174 579 172 565 171 563 C171 563 182 563 182 563 C224 563 244 558 234 498 C234 498 161 85 161 85 C150 25 128 20 86 20 C86 20 75 20 75 20 C75 18 75 8 72 0 L72 0 Z M268 579 C268 579 319 579 319 579 C494 579 506 532 490 440 C473 348 416 301 318 301 C318 301 219 301 219 301 C219 301 254 498 254 498 C264 552 267 572 268 579 L268 579 Z M319 298 C319 298 350 298 350 298 C429 298 460 249 442 151 C419 19 371 4 281 4 C281 4 231 4 231 4 C190 4 173 28 179 73 C180 77 180 81 181 85 C181 85 219 298 219 298 C219 298 319 298 319 298 L319 298 Z M180 78 C180 79 180 79 180 80 C180 80 180 78 180 78 L180 78 Z " />
<glyph glyph-name="LETTERSMALLCAPITALH" unicode="&#x29c;" horiz-adv-x="671" d="M723 583 C723 583 555 583 555 583 C555 583 550 563 552 563 C552 563 562 563 562 563 C604 563 625 559 615 503 C615 503 579 301 579 301 C579 301 255 301 255 301 C255 301 291 503 291 503 C301 559 322 563 364 563 C364 563 375 563 375 563 C375 563 380 583 378 583 C378 583 211 583 211 583 C210 579 208 565 207 563 C207 563 218 563 218 563 C260 563 281 559 270 503 C270 503 196 80 196 80 C186 24 164 20 122 20 C122 20 111 20 111 20 C111 18 111 8 108 0 C108 0 276 0 276 0 C276 0 279 20 279 20 C279 20 268 20 268 20 C227 20 206 24 216 80 C216 80 254 295 254 295 C254 295 578 295 578 295 C578 295 540 80 540 80 C530 24 508 20 467 20 C467 20 456 20 456 20 C455 16 453 2 452 0 C452 0 620 0 620 0 C621 4 623 18 624 20 C624 20 613 20 613 20 C571 20 550 24 560 80 C560 80 635 503 635 503 C645 559 667 563 709 563 C709 563 719 563 719 563 C720 567 722 581 723 583 L723 583 Z " />
<glyph glyph-name="LETTERSMALLCAPITALL" unicode="&#x29f;" horiz-adv-x="496" d="M87 0 C87 0 161 0 161 0 C161 0 181 0 181 0 C181 0 255 0 255 0 C255 0 440 0 440 0 C440 0 441 0 441 0 C441 0 441 2 441 2 C459 39 474 80 492 117 C488 118 475 119 473 119 C473 119 468 109 468 109 C437 38 410 3 259 3 C191 3 186 24 192 64 C192 64 269 498 269 498 C269 498 269 498 269 498 C279 558 301 563 343 563 C343 563 354 563 354 563 C354 563 359 583 357 583 C357 583 284 583 284 583 C284 583 263 583 263 583 C263 583 190 583 190 583 C189 579 187 565 186 563 C186 563 197 563 197 563 C239 563 259 558 248 498 C248 498 248 498 248 498 C248 498 175 79 175 79 C163 25 142 20 101 20 C101 20 90 20 90 20 C90 18 90 8 87 0 C87 0 87 0 87 0 L87 0 Z " />
<glyph glyph-name="LETTERSMALLCAPITALA" unicode="&#x1d00;" horiz-adv-x="590" d="M399 0 C399 0 494 0 494 0 C494 0 515 0 515 0 C515 0 575 0 575 0 C576 4 578 18 579 20 C579 20 555 20 555 20 C529 20 514 26 500 105 C500 105 434 578 434 578 C434 578 430 603 430 603 C430 603 428 603 428 603 C413 586 408 577 414 578 C414 578 415 568 415 568 C415 568 415 568 415 568 C415 568 199 165 199 165 C126 30 96 20 49 20 C49 20 27 20 27 20 C26 16 24 2 23 0 C23 0 111 0 111 0 C111 0 117 0 117 0 C117 0 233 0 233 0 C233 0 236 20 236 20 C236 20 216 20 216 20 C161 20 136 29 195 146 C195 146 238 228 238 228 C238 228 462 228 462 228 C462 228 475 140 475 140 C475 140 474 140 474 140 C490 28 469 20 424 20 C424 20 403 20 403 20 C402 16 400 2 399 0 C399 0 399 0 399 0 L399 0 Z M241 233 C241 233 416 563 416 563 C416 563 462 233 462 233 C462 233 241 233 241 233 L241 233 Z " />
<glyph glyph-name="LETTERSMALLCAPITALC" unicode="&#x1d04;" horiz-adv-x="598" d="M625 423 C625 423 636 487 636 487 C636 487 636 487 636 487 C636 487 636 487 636 487 C636 487 637 495 637 495 C637 495 642 520 650 568 C650 568 635 568 635 568 C635 568 632 561 627 548 C625 544 599 551 551 573 C551 573 551 573 551 573 C522 586 483 593 423 593 C259 593 158 492 123 292 C87 91 149 -10 308 -10 C366 -10 409 -3 445 11 C445 11 447 11 447 11 C447 11 492 22 536 33 C541 34 543 27 540 12 C540 12 552 12 552 12 C556 37 561 62 565 86 C565 86 566 89 567 96 C567 96 567 96 567 96 C567 96 567 96 567 96 C569 108 573 129 578 161 C578 161 563 161 563 161 C563 161 561 156 556 146 C529 94 481 33 433 13 C400 1 361 -5 311 -5 C166 -5 111 95 145 292 C180 489 274 588 425 588 C457 588 483 586 504 581 C560 566 597 499 607 437 C609 428 610 423 610 423 C610 423 625 423 625 423 L625 423 Z " />
<glyph glyph-name="LETTERSMALLCAPITALD" unicode="&#x1d05;" horiz-adv-x="676" d="M72 0 C72 0 146 0 146 0 C146 0 166 0 166 0 C166 0 222 0 222 0 C487 0 635 79 673 292 C707 485 624 583 353 583 C353 583 269 583 269 583 C269 583 248 583 248 583 C248 583 175 583 175 583 C174 579 172 565 171 563 C171 563 182 563 182 563 C219 563 239 559 236 516 C236 516 160 79 160 79 C148 25 127 20 86 20 C86 20 75 20 75 20 C75 18 75 8 72 0 C72 0 72 0 72 0 L72 0 Z M268 579 C268 579 336 579 336 579 C603 579 684 483 651 292 C613 81 471 4 216 4 C174 4 171 23 176 59 C176 59 254 498 254 498 C254 498 254 498 254 498 C264 552 267 572 268 579 L268 579 Z " />
<glyph glyph-name="LETTERSMALLCAPITALE" unicode="&#x1d07;" horiz-adv-x="503" d="M489 491 C489 491 509 491 509 491 C513 522 515 552 519 583 C519 583 399 583 399 583 C399 583 269 583 269 583 C269 583 248 583 248 583 C248 583 175 583 175 583 C174 579 172 565 171 563 C171 563 182 563 182 563 C219 563 239 559 236 516 C236 516 160 79 160 79 C148 25 127 20 86 20 C86 20 75 20 75 20 C75 18 75 8 72 0 C72 0 146 0 146 0 C146 0 166 0 166 0 C166 0 176 56 176 56 C176 56 167 4 167 4 C167 4 166 0 166 0 C166 0 321 0 321 0 C321 0 441 0 441 0 C451 31 460 62 470 92 C470 92 450 92 450 92 C450 92 447 81 447 81 C430 30 415 4 322 4 C322 4 247 4 247 4 C177 4 171 24 177 62 C177 62 219 300 219 300 C219 300 219 299 219 299 C219 299 289 299 289 299 C382 299 383 270 373 212 C373 212 371 201 371 201 C371 201 391 201 391 201 C397 234 403 266 409 299 C409 299 409 299 409 299 C409 299 409 301 409 301 C415 335 421 369 427 403 C427 403 407 403 407 403 C407 403 405 392 405 392 C395 334 383 304 289 304 C289 304 220 304 220 304 C220 304 254 498 254 498 C254 498 254 498 254 498 C264 552 267 572 268 579 C268 579 398 579 398 579 C515 579 496 551 489 491 C489 491 489 491 489 491 L489 491 Z " />
<glyph glyph-name="LETTERSMALLCAPITALJ" unicode="&#x1d0a;" horiz-adv-x="306" d="M186 563 C186 563 197 563 197 563 C239 563 260 559 249 503 C249 503 161 3 161 3 C126 -198 66 -213 17 -213 C5 -213 15 -196 4 -196 C-2 -196 -6 -199 -8 -206 C-9 -215 -3 -220 10 -220 C72 -220 145 -202 188 41 C188 41 269 503 269 503 C280 559 301 563 343 563 C343 563 354 563 354 563 C354 563 359 583 357 583 C357 583 190 583 190 583 C189 579 187 565 186 563 L186 563 Z " />
<glyph glyph-name="LETTERSMALLCAPITALK" unicode="&#x1d0b;" horiz-adv-x="548" d="M526 20 C526 20 499 20 499 20 C478 20 444 49 414 85 C414 85 414 85 414 85 C414 85 235 305 235 305 C235 305 405 469 405 469 C405 469 410 473 410 473 C495 557 516 563 546 563 C546 563 569 563 569 563 C570 567 572 581 573 583 C573 583 523 583 523 583 C523 583 516 583 516 583 C516 583 418 583 418 583 C417 579 415 565 414 563 C414 563 433 563 433 563 C470 563 484 556 402 472 C402 472 218 293 218 293 C218 293 260 530 260 530 C268 560 289 563 328 563 C328 563 339 563 339 563 C339 563 344 583 342 583 C342 583 269 583 269 583 C269 583 248 583 248 583 C248 583 175 583 175 583 C174 579 172 565 171 563 C171 563 182 563 182 563 C220 563 241 561 239 533 C239 533 156 60 156 60 C156 60 156 60 156 60 C150 23 128 20 86 20 C86 20 75 20 75 20 C75 18 75 8 72 0 C72 0 146 0 146 0 C146 0 166 0 166 0 C166 0 240 0 240 0 C240 0 243 20 243 20 C243 20 232 20 232 20 C195 20 174 23 175 51 C175 51 217 291 217 291 C217 291 389 85 389 85 C389 85 388 85 388 85 C414 54 430 35 440 22 C440 22 459 0 459 0 C459 0 459 0 459 0 C459 0 459 0 459 0 C459 0 459 0 459 0 C459 0 483 0 483 0 C483 0 523 0 523 0 C523 2 526 12 526 20 C526 20 526 20 526 20 L526 20 Z " />
<glyph glyph-name="LETTERSMALLCAPITALM" unicode="&#x1d0d;" horiz-adv-x="714" d="M153 563 C153 563 176 563 176 563 C202 563 218 560 231 533 C231 533 146 128 146 128 C122 28 99 20 58 20 C58 20 35 20 35 20 C35 18 35 8 32 0 C32 0 119 0 119 0 C119 0 126 0 126 0 C126 0 214 0 214 0 C214 2 217 12 217 20 C217 20 195 20 195 20 C153 20 133 27 152 124 C152 124 235 525 235 525 C238 517 240 508 243 498 C243 498 243 500 243 500 C285 333 327 166 370 0 C370 0 375 0 375 0 C375 0 696 566 696 566 C696 566 624 68 624 68 C613 24 592 20 552 20 C552 20 541 20 541 20 C541 18 541 8 538 0 C538 0 614 0 614 0 C614 0 635 0 635 0 C635 0 705 0 705 0 C706 4 708 18 709 20 C709 20 698 20 698 20 C663 20 643 24 644 66 C644 66 695 427 695 427 C714 554 732 563 764 563 C764 563 787 563 787 563 C787 563 792 583 790 583 C790 583 717 583 717 583 C717 583 705 583 705 583 C705 583 698 583 698 583 C698 583 386 28 386 28 C386 28 247 581 247 581 C247 581 247 583 247 583 C247 583 246 583 246 583 C246 583 242 583 242 583 C242 583 222 583 222 583 C222 583 157 583 157 583 C156 579 154 565 153 563 C153 563 153 563 153 563 L153 563 Z " />
<glyph glyph-name="LETTERSMALLCAPITALO" unicode="&#x1d0f;" horiz-adv-x="690" d="M338 -5 C175 -5 111 95 146 292 C180 489 283 588 451 588 C627 588 698 489 663 292 C629 95 520 -5 338 -5 L338 -5 Z M123 292 C87 91 159 -10 336 -10 C534 -10 651 91 686 292 C722 492 643 593 453 593 C269 593 158 492 123 292 L123 292 Z " />
<glyph glyph-name="LETTERSMALLCAPITALP" unicode="&#x1d18;" horiz-adv-x="416" d="M176 563 C176 563 187 563 187 563 C229 563 249 558 239 499 C239 499 166 85 166 85 C166 85 166 85 166 85 C155 25 133 20 91 20 C91 20 80 20 80 20 C80 18 80 8 77 0 C77 0 151 0 151 0 C151 0 171 0 171 0 C171 0 245 0 245 0 C245 0 248 20 248 20 C248 20 237 20 237 20 C197 20 176 25 185 80 C185 80 220 280 220 280 C220 280 255 280 255 280 C382 280 451 313 470 422 C489 529 447 583 344 583 C344 583 274 583 274 583 C274 583 254 583 254 583 C254 583 180 583 180 583 C179 579 177 565 176 563 L176 563 Z M273 580 C273 580 338 580 338 580 C432 580 470 528 452 425 C433 317 370 284 256 284 C256 284 221 284 221 284 C221 284 259 498 259 498 C259 498 259 498 259 498 C269 555 272 574 273 580 L273 580 Z " />
<glyph glyph-name="LETTERSMALLCAPITALT" unicode="&#x1d1b;" horiz-adv-x="715" d="M274 0 C274 0 441 0 441 0 C442 4 444 18 445 20 C445 20 434 20 434 20 C393 20 372 24 382 80 C382 80 469 578 469 578 C469 578 642 578 642 578 C742 578 746 555 756 505 C756 505 766 505 766 505 C772 506 776 506 776 506 C771 530 766 554 762 578 C762 578 762 578 762 578 C762 578 763 583 763 583 C763 583 761 583 761 583 C758 596 756 609 754 623 C754 623 734 623 734 623 C738 591 742 583 641 583 C641 583 470 583 470 583 C470 583 450 583 450 583 C450 583 280 583 280 583 C187 583 185 593 196 614 C196 614 201 623 201 623 C201 623 181 623 181 623 C174 610 166 596 159 583 C159 583 158 583 158 583 C158 583 157 580 157 580 C144 555 131 531 118 506 C118 506 121 506 128 505 C128 505 137 505 137 505 C137 505 143 515 143 515 C165 557 184 578 277 578 C277 578 449 578 449 578 C449 578 362 80 362 80 C351 24 329 20 288 20 C288 20 277 20 277 20 C276 10 274 8 274 0 C274 0 274 0 274 0 L274 0 Z " />
<glyph glyph-name="LETTERSMALLCAPITALU" unicode="&#x1d1c;" horiz-adv-x="526" d="M436 563 C436 563 447 563 447 563 C489 563 509 558 499 498 C499 498 436 142 436 142 C436 142 436 145 436 145 C376 51 293 3 188 3 C151 3 143 70 166 202 C166 202 219 498 219 498 C233 577 234 583 234 583 C234 583 140 583 140 583 C139 579 137 565 136 563 C136 563 147 563 147 563 C189 563 209 558 199 498 C199 498 146 202 146 202 C122 61 132 -10 178 -10 C286 -10 373 39 434 135 C434 135 430 110 430 110 C430 110 411 0 411 0 C411 0 414 0 414 0 C414 0 514 55 514 55 C514 55 515 65 515 65 C447 61 442 63 450 110 C450 110 519 498 519 498 C533 577 534 583 534 583 C534 583 440 583 440 583 C439 579 437 565 436 563 L436 563 Z " />
<glyph glyph-name="LETTERSMALLCAPITALV" unicode="&#x1d20;" horiz-adv-x="599" d="M317 583 C317 583 201 583 201 583 C201 583 178 583 178 583 C178 583 139 583 139 583 C138 579 136 565 135 563 C135 563 161 563 161 563 C174 563 181 560 186 532 C186 532 269 30 269 30 C269 30 276 -10 276 -10 C276 -10 280 -10 280 -10 C280 -10 558 480 558 480 C605 557 623 563 648 563 C648 563 672 563 672 563 C673 567 675 581 676 583 C676 583 617 583 617 583 C617 583 609 583 609 583 C609 583 493 583 493 583 C492 579 490 565 489 563 C489 563 510 563 510 563 C568 563 593 555 530 443 C530 443 530 443 530 443 C530 443 299 31 299 31 C299 31 226 444 226 444 C226 444 226 443 226 443 C207 555 235 563 293 563 C293 563 313 563 313 563 C314 567 316 581 317 583 C317 583 317 583 317 583 L317 583 Z " />
<glyph glyph-name="LETTERSMALLCAPITALW" unicode="&#x1d21;" horiz-adv-x="861" d="M938 583 C938 583 878 583 878 583 C878 583 870 583 870 583 C870 583 754 583 754 583 C754 583 749 563 751 563 C751 563 771 563 771 563 C830 563 855 555 798 443 C798 443 798 443 798 443 C798 443 586 29 586 29 C586 29 540 481 540 481 C535 557 559 563 607 563 C607 563 628 563 628 563 C629 567 631 581 632 583 C632 583 530 583 530 583 C530 583 507 583 507 583 C507 583 446 583 446 583 C445 579 443 565 442 563 C442 563 466 563 466 563 C494 563 509 560 513 525 C517 480 522 434 526 389 C526 389 526 389 526 389 C526 389 277 26 277 26 C277 26 217 457 217 457 C207 556 231 563 278 563 C278 563 298 563 298 563 C299 567 301 581 302 583 C302 583 200 583 200 583 C200 583 178 583 178 583 C178 583 138 583 138 583 C138 583 137 580 137 573 C135 566 134 563 135 563 C135 563 161 563 161 563 C174 563 181 555 195 443 C195 443 196 443 196 443 C214 292 234 142 252 -10 C252 -10 257 -10 257 -10 C257 -10 527 380 527 380 C540 250 553 120 566 -10 C566 -10 571 -10 571 -10 C571 -10 806 443 806 443 C806 443 806 443 806 443 C863 555 882 563 911 563 C911 563 935 563 935 563 C933 563 938 583 938 583 L938 583 Z " />
<glyph glyph-name="LETTERSMALLCAPITALZ" unicode="&#x1d22;" horiz-adv-x="582" d="M47 0 C47 0 386 0 386 0 C386 0 546 0 546 0 C562 37 578 76 594 112 C592 112 583 115 575 115 C575 115 556 84 556 84 C524 32 499 6 388 6 C388 6 388 5 388 5 C388 5 51 4 51 4 C51 4 652 579 652 579 C652 579 653 583 653 583 C653 583 633 583 633 583 C633 583 343 583 343 583 C343 583 173 583 173 583 C159 543 148 502 134 461 C139 460 157 459 159 459 C159 459 168 480 168 480 C193 541 214 574 319 578 C319 578 629 579 629 579 C629 579 26 4 26 4 C26 4 25 0 25 0 C25 0 47 0 47 0 L47 0 Z " />
<glyph glyph-name="Wgrave" unicode="&#x1e80;" horiz-adv-x="983" d="M1091 750 C1091 750 1030 750 1030 750 C1030 750 1021 750 1021 750 C1021 750 905 750 905 750 C904 740 902 738 902 730 C902 730 922 730 922 730 C982 730 1008 722 954 610 C954 610 954 610 954 610 C954 610 679 34 679 34 C679 34 630 640 630 640 C630 640 630 640 630 640 C623 724 648 730 698 730 C698 730 720 730 720 730 C720 730 723 750 723 750 C723 750 621 750 621 750 C621 750 595 750 595 750 C595 750 534 750 534 750 C534 750 531 730 530 730 C530 730 554 730 554 730 C581 730 596 727 600 694 C605 629 610 564 616 500 C616 500 309 28 309 28 C309 28 245 618 245 618 C236 722 260 730 309 730 C309 730 330 730 330 730 C330 730 333 750 333 750 C333 750 231 750 231 750 C231 750 207 750 207 750 C207 750 167 750 167 750 C166 750 163 730 163 730 C163 730 189 730 189 730 C202 730 210 722 221 610 C221 610 221 610 221 610 C242 403 263 196 284 -10 C284 -10 290 -10 290 -10 C290 -10 617 489 617 489 C631 323 645 157 658 -10 C658 -10 664 -10 664 -10 C664 -10 963 610 963 610 C963 610 963 610 963 610 C1016 722 1034 730 1064 730 C1064 730 1087 730 1087 730 C1088 730 1091 750 1091 750 C1091 750 1091 750 1091 750 L1091 750 Z M530 949 C492 997 472 1022 468 1022 C462 1022 458 1018 457 1012 C456 1009 477 985 520 940 C520 940 634 814 634 814 C634 814 637 817 637 817 C637 817 530 949 530 949 L530 949 Z " />
<glyph glyph-name="Wacute" unicode="&#x1e82;" horiz-adv-x="983" d="M635 814 C635 814 794 940 794 940 C853 987 882 1011 883 1012 C884 1018 880 1022 875 1022 C873 1022 844 997 787 949 C787 949 633 817 633 817 C633 817 635 814 635 814 L635 814 Z M1091 750 C1091 750 1030 750 1030 750 C1030 750 1021 750 1021 750 C1021 750 905 750 905 750 C904 740 902 738 902 730 C902 730 922 730 922 730 C982 730 1008 722 954 610 C954 610 954 610 954 610 C954 610 679 34 679 34 C679 34 630 640 630 640 C630 640 630 640 630 640 C623 724 648 730 698 730 C698 730 720 730 720 730 C720 730 723 750 723 750 C723 750 621 750 621 750 C621 750 595 750 595 750 C595 750 534 750 534 750 C534 750 531 730 530 730 C530 730 554 730 554 730 C581 730 596 727 600 694 C605 629 610 564 616 500 C616 500 309 28 309 28 C309 28 245 618 245 618 C236 722 260 730 309 730 C309 730 330 730 330 730 C330 730 333 750 333 750 C333 750 231 750 231 750 C231 750 207 750 207 750 C207 750 167 750 167 750 C166 750 163 730 163 730 C163 730 189 730 189 730 C202 730 210 722 221 610 C221 610 221 610 221 610 C242 403 263 196 284 -10 C284 -10 290 -10 290 -10 C290 -10 617 489 617 489 C631 323 645 157 658 -10 C658 -10 664 -10 664 -10 C664 -10 963 610 963 610 C963 610 963 610 963 610 C1016 722 1034 730 1064 730 C1064 730 1087 730 1087 730 C1088 730 1091 750 1091 750 C1091 750 1091 750 1091 750 L1091 750 Z " />
<glyph glyph-name="Wdieresis" unicode="&#x1e84;" horiz-adv-x="983" d="M702 865 C716 865 724 872 726 885 C728 898 723 905 709 905 C696 905 688 898 686 885 C684 872 689 865 702 865 L702 865 Z M575 865 C589 865 597 872 599 885 C601 898 596 905 582 905 C569 905 561 898 559 885 C557 872 562 865 575 865 L575 865 Z M1091 750 C1091 750 1030 750 1030 750 C1030 750 1021 750 1021 750 C1021 750 905 750 905 750 C904 740 902 738 902 730 C902 730 922 730 922 730 C982 730 1008 722 954 610 C954 610 954 610 954 610 C954 610 679 34 679 34 C679 34 630 640 630 640 C630 640 630 640 630 640 C623 724 648 730 698 730 C698 730 720 730 720 730 C720 730 723 750 723 750 C723 750 621 750 621 750 C621 750 595 750 595 750 C595 750 534 750 534 750 C534 750 531 730 530 730 C530 730 554 730 554 730 C581 730 596 727 600 694 C605 629 610 564 616 500 C616 500 309 28 309 28 C309 28 245 618 245 618 C236 722 260 730 309 730 C309 730 330 730 330 730 C330 730 333 750 333 750 C333 750 231 750 231 750 C231 750 207 750 207 750 C207 750 167 750 167 750 C166 750 163 730 163 730 C163 730 189 730 189 730 C202 730 210 722 221 610 C221 610 221 610 221 610 C242 403 263 196 284 -10 C284 -10 290 -10 290 -10 C290 -10 617 489 617 489 C631 323 645 157 658 -10 C658 -10 664 -10 664 -10 C664 -10 963 610 963 610 C963 610 963 610 963 610 C1016 722 1034 730 1064 730 C1064 730 1087 730 1087 730 C1088 730 1091 750 1091 750 C1091 750 1091 750 1091 750 L1091 750 Z " />
<glyph glyph-name="CapitalLetterEWITHTI" unicode="&#x1ebc;" horiz-adv-x="565" d="M322 870 C330 917 350 941 382 941 C451 941 486 876 555 876 C593 876 617 901 626 951 C626 951 622 951 622 951 C615 911 595 891 562 891 C494 891 458 956 389 956 C352 956 328 927 318 870 C318 870 322 870 322 870 L322 870 Z M580 657 C580 657 600 657 600 657 C602 689 606 719 610 750 C610 750 490 750 490 750 C490 750 300 750 300 750 C300 750 277 750 277 750 C277 750 204 750 204 750 C203 750 200 730 200 730 C200 730 211 730 211 730 C253 730 273 725 262 665 C262 665 262 665 262 665 C262 665 159 82 159 82 C148 25 126 20 86 20 C86 20 75 20 75 20 C74 16 72 2 71 0 C71 0 145 0 145 0 C145 0 167 0 167 0 C167 0 382 0 382 0 C382 0 502 0 502 0 C512 31 522 61 532 93 C532 93 512 93 512 93 C512 93 508 82 508 82 C492 31 477 5 384 5 C384 5 248 5 248 5 C179 5 172 24 178 61 C178 61 168 5 168 5 C168 5 167 0 167 0 C167 0 235 385 235 385 C235 385 365 385 365 385 C463 385 461 350 448 287 C448 287 468 287 468 287 C474 320 479 352 485 385 C485 385 485 385 485 385 C485 385 486 390 486 390 C486 390 486 390 486 390 C491 423 497 456 504 489 C504 489 484 489 484 489 C484 489 482 478 482 478 C471 420 459 390 366 390 C366 390 236 390 236 390 C236 390 285 665 285 665 C285 665 285 665 285 665 C285 667 286 669 286 671 C286 671 299 745 299 745 C299 745 489 745 489 745 C605 745 586 716 580 657 C580 657 580 657 580 657 L580 657 Z M178 61 C179 67 181 73 182 80 C182 80 178 61 178 61 L178 61 Z " />
<glyph glyph-name="Ygrave" unicode="&#x1ef2;" horiz-adv-x="626" d="M301 750 C301 750 228 750 228 750 C228 750 201 750 201 750 C201 750 167 750 167 750 C166 740 164 738 164 730 C164 730 190 730 190 730 C201 730 209 725 236 663 C236 663 365 336 365 336 C365 336 365 336 365 336 C365 336 320 80 320 80 C310 24 288 20 246 20 C246 20 236 20 236 20 C235 16 233 2 232 0 C232 0 402 0 402 0 C402 2 405 12 405 20 C405 20 395 20 395 20 C353 20 332 24 342 80 C342 80 387 337 387 337 C387 337 599 628 599 628 C670 723 687 730 709 730 C709 730 733 730 733 730 C734 730 737 750 737 750 C737 750 688 750 688 750 C688 750 677 750 677 750 C677 750 603 750 603 750 C602 740 600 738 600 730 C600 730 620 730 620 730 C649 730 658 722 584 620 C584 620 584 620 584 620 C584 620 387 344 387 344 C387 344 267 649 267 649 C241 724 253 730 278 730 C278 730 298 730 298 730 C299 740 301 742 301 750 C301 750 301 750 301 750 L301 750 Z M361 949 C323 997 302 1022 299 1022 C293 1022 288 1018 287 1012 C287 1009 308 985 350 940 C350 940 465 814 465 814 C465 814 468 817 468 817 C468 817 361 949 361 949 L361 949 Z " />
<glyph glyph-name="quoteleft" unicode="&#x2018;" horiz-adv-x="448" d="" />
<glyph glyph-name="quoteright" unicode="&#x2019;" horiz-adv-x="40" d="" />
<glyph glyph-name="quotedblleft" unicode="&#x201c;" horiz-adv-x="448" d="M250 640 C250 640 250 640 250 640 C250 640 252 653 252 653 C248 653 246 649 244 641 C252 687 274 723 309 749 C309 749 301 760 301 760 C269 737 248 696 238 638 C236 628 238 623 244 621 C245 621 246 621 247 621 C252 621 256 624 258 631 C258 637 256 640 250 640 L250 640 Z " />
<glyph glyph-name="quotedblright" unicode="&#x201d;" horiz-adv-x="448" d="M267 741 C267 741 265 728 265 728 C269 728 272 734 274 744 C274 744 274 744 274 744 C262 676 252 638 243 632 C243 632 252 621 252 621 C257 624 267 667 281 748 C282 756 279 760 271 760 C259 760 255 742 267 741 L267 741 Z " />
<glyph glyph-name="Euro" unicode="&#x20ac;" horiz-adv-x="725" d="M776 561 C780 583 784 604 788 626 C788 626 788 626 788 626 C788 626 788 626 788 626 C788 629 789 631 789 634 C789 634 793 659 802 707 C802 707 787 707 787 707 C787 707 784 700 778 687 C776 682 750 692 704 724 C704 724 702 724 702 724 C667 748 620 760 542 760 C361 760 245 644 195 414 C195 414 130 414 130 414 C130 414 126 400 126 400 C126 400 192 400 192 400 C190 392 188 383 187 375 C186 367 184 358 183 350 C183 350 117 350 117 350 C117 350 112 336 112 336 C112 336 181 336 181 336 C150 106 222 -10 396 -10 C472 -10 528 3 576 28 C576 28 577 28 577 28 C577 28 622 44 668 61 C673 63 675 56 672 40 C672 40 684 40 684 40 C688 64 693 89 697 114 C697 114 698 117 699 124 C699 124 699 124 699 124 C699 124 699 124 699 124 C701 136 705 157 710 189 C710 189 695 189 695 189 C695 189 693 184 688 174 C658 116 602 46 551 23 C551 23 552 23 552 23 C510 4 462 -5 399 -5 C239 -5 174 110 206 336 C206 336 519 336 519 336 C519 336 523 350 523 350 C523 350 208 350 208 350 C209 358 210 367 212 375 C213 383 215 392 217 400 C217 400 532 400 532 400 C532 400 537 414 537 414 C537 414 220 414 220 414 C268 640 376 754 543 754 C594 754 632 748 661 737 C661 737 657 738 657 738 C716 717 751 634 761 561 C761 561 776 561 776 561 L776 561 Z " />
<glyph glyph-name="LETTERSMALLCAPITALF" unicode="&#xa730;" horiz-adv-x="478" d="M511 494 C513 524 515 553 519 583 C519 583 399 583 399 583 C399 583 269 583 269 583 C269 583 248 583 248 583 C248 583 175 583 175 583 C174 579 172 565 171 563 C171 563 182 563 182 563 C219 563 239 559 236 516 C236 516 160 79 160 79 C148 25 127 20 86 20 C86 20 75 20 75 20 C75 18 75 8 72 0 C72 0 146 0 146 0 C146 0 166 0 166 0 C166 0 240 0 240 0 C240 0 243 20 243 20 C243 20 232 20 232 20 C192 20 171 25 180 80 C180 80 218 295 218 295 C218 295 329 295 329 295 C369 287 372 265 370 230 C370 230 369 198 369 198 C369 198 381 198 381 198 C387 231 393 264 399 298 C399 298 399 299 399 299 C399 299 399 299 399 299 C405 332 410 365 416 397 C416 397 404 397 404 397 C404 397 394 365 394 365 C381 321 368 299 279 299 C279 299 219 299 219 299 C219 299 218 297 218 297 C218 297 254 498 254 498 C254 498 254 498 254 498 C264 555 267 574 268 580 C268 580 318 580 318 580 C486 580 496 554 491 503 C491 503 491 492 491 492 C495 493 509 494 511 494 C511 494 511 494 511 494 L511 494 Z " />
<glyph glyph-name="LETTERSMALLCAPITALS" unicode="&#xa731;" horiz-adv-x="480" d="M472 436 C475 457 479 477 483 498 C483 498 483 498 483 498 C483 498 483 498 483 498 C484 501 484 505 485 508 C485 508 489 532 497 579 C497 579 482 579 482 579 C482 579 479 572 474 559 C471 553 454 555 426 571 C426 571 424 571 424 571 C397 586 361 593 318 593 C229 593 177 548 161 459 C151 400 192 346 319 281 C423 228 456 180 446 124 C431 39 373 -4 275 -4 C238 -4 206 1 179 12 C179 12 181 11 181 11 C141 25 111 108 102 178 C102 178 87 178 87 178 C82 151 79 130 77 116 C77 116 76 116 76 116 C76 116 76 115 76 115 C74 102 73 96 73 96 C68 69 63 41 58 14 C58 14 73 14 73 14 C73 14 77 23 83 40 C85 47 108 42 149 18 C149 18 149 18 149 18 C182 -1 223 -10 274 -10 C384 -10 447 37 463 130 C475 195 442 248 335 302 C210 366 169 415 178 467 C192 547 239 588 317 588 C321 588 324 588 328 588 C328 588 327 588 327 588 C329 588 332 588 334 588 C359 586 381 582 400 575 C400 575 359 583 359 583 C416 564 449 500 457 436 C457 436 472 436 472 436 L472 436 Z M359 583 C359 583 328 588 328 588 C330 588 332 588 334 588 C343 587 351 585 359 583 C359 583 359 583 359 583 L359 583 Z " />
<glyph glyph-name="[namenotfound]" unicode="&#xf078;" horiz-adv-x="596" d="M674 583 C674 583 628 583 628 583 C628 583 619 583 619 583 C619 583 524 583 524 583 C523 579 521 565 520 563 C520 563 540 563 540 563 C580 563 593 554 498 441 C498 441 382 305 382 305 C382 305 306 465 306 465 C265 556 281 563 315 563 C315 563 335 563 335 563 C333 563 338 583 338 583 C338 583 250 583 250 583 C250 583 227 583 227 583 C227 583 187 583 187 583 C186 579 184 565 183 563 C183 563 208 563 208 563 C227 563 240 555 293 443 C293 443 293 443 293 443 C293 443 365 290 365 290 C365 290 192 97 192 97 C125 26 103 20 72 20 C72 20 49 20 49 20 C48 16 46 2 45 0 C45 0 105 0 105 0 C105 0 113 0 113 0 C113 0 243 0 243 0 C243 0 246 20 246 20 C246 20 227 20 227 20 C162 20 138 29 246 150 C246 150 245 149 245 149 C245 149 367 287 367 287 C367 287 441 130 441 130 C488 28 473 20 437 20 C437 20 417 20 417 20 C417 18 417 8 414 0 C414 0 502 0 502 0 C502 0 526 0 526 0 C526 0 572 0 572 0 C573 4 575 18 576 20 C576 20 552 20 552 20 C528 20 513 28 460 140 C460 140 460 140 460 140 C460 140 383 301 383 301 C383 301 482 414 482 414 C482 414 481 413 481 413 C490 423 498 433 505 442 C505 442 524 464 524 464 C605 556 624 563 646 563 C646 563 670 563 670 563 C671 567 673 581 674 583 C674 583 674 583 674 583 L674 583 Z " />
</font>
</svg>
