<?xml version="1.0" encoding="UTF-8"?>
<svg xmlns="http://www.w3.org/2000/svg" xmlns:xlink="http://www.w3.org/1999/xlink" version="1.2" >
<font id="Cammron Bold">
<font-face  font-family="Cammron" units-per-em="1024" ascent="936" descent="-280" font-style="normal" font-weight="700" font-stretch="normal" cap-height="929" x-height="468" underline-position="-125" underline-thickness="50" />
<missing-glyph  horiz-adv-x="100" d="" />
<glyph glyph-name="NULL" d="" />
<glyph glyph-name="CR" unicode="&#xd;" horiz-adv-x="256" d="" />
<glyph glyph-name="space" unicode="&#x20;" horiz-adv-x="253" d="" />
<glyph glyph-name="exclam" unicode="&#x21;" horiz-adv-x="265" d="M143 -5 C189 -5 223 29 223 75 C223 121 189 155 143 155 C97 155 63 121 63 75 C63 29 97 -5 143 -5 L143 -5 Z M205 583 C212 631 183 665 135 665 C85 665 56 631 65 583 C65 481 135 230 135 230 L151 230 C151 230 205 481 205 583 L205 583 Z " />
<glyph glyph-name="quotedbl" unicode="&#x22;" horiz-adv-x="403" d="M216 660 L280 400 L299 400 L363 660 L216 660 Z M39 660 L103 400 L122 400 L186 660 L39 660 Z " />
<glyph glyph-name="numbersign" unicode="&#x23;" horiz-adv-x="574" d="M403 656 L379.829 504 L240.829 504 L264 656 L219 656 L195.829 504 L71 504 L59 416 L182.415 416 L156.195 244 L28 244 L16 156 L142.78 156 L119 0 L164 0 L187.78 156 L326.78 156 L303 0 L348 0 L371.78 156 L493 156 L506 244 L385.195 244 L411.415 416 L541 416 L554 504 L424.829 504 L448 656 L403 656 Z M227.415 416 L366.415 416 L340.195 244 L201.195 244 L227.415 416 Z " />
<glyph glyph-name="dollar" unicode="&#x24;" horiz-adv-x="529" d="M39 165 L39 40 C74.517 19.4791 138.689 3.31877 203 -2.58099 L203 -75 L241 -75 L241 -4.83299 C255.45 -5.1996 269.429 -4.93396 283 -3.68086 L283 -75 L321 -75 L321 2.36392 C418.344 24.7248 484 96.0325 484 189 C484 266.787 416.677 343.651 321 376.197 L321 623.277 C355.234 612.991 387.266 586.592 403 554 C411 537 423 512 431 495 L440 495 L440 620 C408.714 638.076 363.895 652.769 321 660.045 L321 735 L283 735 L283 664.503 C268.742 665.358 254.724 665.079 241 663.86 L241 735 L203 735 L203 657.782 C105.091 634.757 39 558.738 39 460 C39 386.779 107.624 313.559 203 282.211 L203 31.4397 C201.704 31.6472 189.898 33.4141 190 34 C139 44 85 88 60 139 C56 146 52 158 48 165 L39 165 Z M241 404.866 L241 632.701 C255.566 634.537 268.128 634.485 283 632.184 L283 388.283 C268.221 393.39 254.173 398.954 241 404.866 L241 404.866 Z M203 424.266 C155.935 451.66 127 483.233 127 511 C127 562.414 156.89 603.865 203 622.822 L203 424.266 Z M241 269.654 C255.801 264.178 269.851 258.175 283 251.764 L283 29.0617 C269.7 27.1177 255.641 26.6049 241 27.3336 L241 269.654 Z M321 230.523 C366.283 201.436 394 167.598 394 137 C394 92.5448 365.533 56.7743 321 39.0726 L321 230.523 Z " />
<glyph glyph-name="percent" unicode="&#x25;" horiz-adv-x="822" d="M143 552 C143 633 156 691 175 691 C213 691 241 613 241 506 C241 435 224 383 201 383 C167 383 143 454 143 552 L143 552 Z M31 530 C31 423 98 345 191 345 C283 345 349 429 349 545 C349 649 283 725 191 725 C98 725 31 643 31 530 L31 530 Z M582 200 C582 282 599 341 622 341 C668 341 702 262 702 154 C702 83 679 32 648 32 C610 32 582 103 582 200 L582 200 Z M469 178 C469 72 540 -5 638 -5 C738 -5 810 79 810 194 C810 299 738 375 638 375 C540 375 469 292 469 178 L469 178 Z M216 -17 L689 703 L638 737 L165 17 L216 -17 Z " />
<glyph glyph-name="ampersand" unicode="&#x26;" horiz-adv-x="738" d="M616 300 L487 300 L487 290 L495 289 C521 287 539 265 539 236 L539 206 C539 181.946 532.846 159.632 521.54 139.766 C463.22 199.551 374.613 304.792 324.106 376.4 C412.083 404.659 473 472.36 473 547 C473 615 406 665 314 665 C222 665 155 594 155 497 C155 458.609 176.892 407.707 213.4 349.45 C115.587 301.779 50 225.361 50 153 C50 61 137 -5 258 -5 C344.926 -5 420.275 16.4657 474.453 52.764 C569.909 -13.6809 651.309 -15.2576 738 0 L738 19 C692.4 10.777 640.652 22.6717 540.565 120.688 C555.752 146.412 564 175.151 564 206 L564 236 C564 265 582 287 608 289 L616 290 L616 300 Z M243 548 C243 601 269 640 306 640 C351 640 384 598 384 541 C384 477.025 354.583 421.363 310.579 396.006 C268.662 458.215 243 511.148 243 548 L243 548 Z M447.363 73.0867 C412.372 55.7925 369.17 46 321 46 C227 46 159 109 159 197 C159 245.967 185.914 293.956 228.445 326.246 C281.05 247.619 374.999 131.246 447.363 73.0867 L447.363 73.0867 Z " />
<glyph glyph-name="quotesingle" unicode="&#x27;" horiz-adv-x="226" d="M39 660 L103 400 L122 400 L186 660 L39 660 Z " />
<glyph glyph-name="parenleft" unicode="&#x28;" horiz-adv-x="284" d="M263 690 C145 604 59 474 59 270 C59 66 145 -64 263 -150 L274 -135 C202 -82 149 33 149 270 C149 507 202 622 274 675 L263 690 Z " />
<glyph glyph-name="parenright" unicode="&#x29;" horiz-adv-x="284" d="M10 -150 C128 -64 214 66 214 270 C214 474 128 604 10 690 L-1 675 C71 622 124 507 124 270 C124 33 71 -82 -1 -135 L10 -150 Z " />
<glyph glyph-name="asterisk" unicode="&#x2a;" horiz-adv-x="300" d="M270.635 568.636 L271 568 C291 573 297 593 284 616 C270.756 638.413 251.043 642.503 236 629 L155.182 548.182 L185 660 C190 680 176 695 150 695 C124 695 110 680 115 660 L144.091 550.909 L64 631 C49 646 29 641 16 618 C3 595 9 575 29 569 L29 570 L141.5 540 L29 510 C9 505 3 485 16 462 C29 439 49 434 64 448 L64 449 L144.091 529.091 L115 420 C110 400 124 385 150 385 C176 385 190 400 185 420 L155.182 531.818 L236.729 450.271 L236 449 C251 434 271 439 284 462 C296.921 483.866 291.072 503.757 271.363 509.889 L272 511 L163.25 540 L270.635 568.636 Z " />
<glyph glyph-name="plus" unicode="&#x2b;" horiz-adv-x="555" d="M247 450 L247 276 L75 276 L75 224 L247 224 L247 50 L303 50 L303 224 L475 224 L475 276 L303 276 L303 450 L247 450 Z " />
<glyph glyph-name="comma" unicode="&#x2c;" horiz-adv-x="283" d="M198 130 L197.722 129.736 C183.394 144.896 162.803 154 139 154 C93 154 60 120 60 74 C60 28 93 -4.99998 139 -4.99998 C146.387 -4.99998 154.908 3.14832 163.835 14.2111 C180.516 -60.4941 137.243 -137.801 88 -156 L88 -174 C172 -142 233 -52 233 42 C233 72 218 109 198 130 L198 130 Z " />
<glyph glyph-name="hyphen" unicode="&#x2d;" horiz-adv-x="300" d="M20 190 L280 190 L280 280 L20 280 L20 190 Z " />
<glyph glyph-name="period" unicode="&#x2e;" horiz-adv-x="265" d="M125 -5 C171 -5 205 29 205 75 C205 121 171 155 125 155 C79 155 45 121 45 75 C45 29 79 -5 125 -5 L125 -5 Z " />
<glyph glyph-name="slash" unicode="&#x2f;" horiz-adv-x="361" d="M0 -145 L51 -145 L361 710 L310 710 L0 -145 Z " />
<glyph glyph-name="zero" unicode="0" horiz-adv-x="633" d="M178 250 C178 383 236 479 317 479 C397 479 455 383 455 250 C455 117 397 21 317 21 C236 21 178 117 178 250 L178 250 Z M50 250 C50 102 162 -5 317 -5 C471 -5 583 102 583 250 C583 398 471 505 317 505 C162 505 50 398 50 250 L50 250 Z " />
<glyph glyph-name="one" unicode="1" horiz-adv-x="328" d="M274 10 L266 11 C240 13 222 35 222 64 L222 436 C222 465 240 487 266 489 L274 490 L274 500 L55 500 L55 490 L63 489 C89 487 107 465 107 436 L107 64 C107 35 89 13 63 11 L55 10 L55 0 L274 0 L274 10 Z " />
<glyph glyph-name="two" unicode="2" horiz-adv-x="503" d="M466 167 L464 159 C460 133 436 115 407 115 L210.834 115 C360.943 208.578 458 278.322 458 355 C458 442 385 505 283 505 C193 505 103 444 69 359 L84 350 C100 391 160 420 226 420 C286 420 329 376 329 316 C329 190 201 137 25 26 L25 0 L461 0 L466 57 C469 89 473 135 476 167 L466 167 Z " />
<glyph glyph-name="three" unicode="3" horiz-adv-x="487" d="M165 164 C253 164 316 110 316 35 C316 -90 193 -187 23 -195 L24 -215 C264 -203 437 -96 437 41 C437 127.368 362.437 192.765 254.381 207.073 C348.23 256.861 408 318.882 408 373 C408 450 341 505 248 505 C167 505 66 448 9 369 L22 359 C49 396 119 422 189 422 C249 422 292 386 292 336 C292 280.638 239.043 222.374 161.552 187.159 C149.216 182.334 134.897 176.897 119 171 L119 152 C131.436 155.775 151.487 164 165 164 L165 164 Z " />
<glyph glyph-name="four" unicode="4" horiz-adv-x="514" d="M3 21 L3 0 L270 0 L270 -150 L385 -150 L385 0 L504 0 L504 51 L385 51 L385 505 L366 505 C343 492 3 21 3 21 L3 21 Z M68.9488 51 C116.352 116.295 200.797 232.154 270.66 325.559 C270.227 322.538 270 319.676 270 317 L270 51 L68.9488 51 Z " />
<glyph glyph-name="five" unicode="5" horiz-adv-x="473" d="M371 379 L409.963 500 C415.97 518.481 421.913 536.738 427 552 L417 552 L413 544 C403 518 375 500 346 500 L86 500 C86 405 64 173 64 173 L93 173 C93 173 94.2068 183.369 96.1101 200.622 C95.0365 184.725 93.9664 173 93 173 L114 173 C226 173 307 120 307 47 C307 -68 191 -154 30 -159 L31 -182 C258 -175 423 -63 423 85 C423 202 318 286 172 286 L105.046 286 C107.953 315.401 110.95 347.647 113.491 379 L371 379 Z " />
<glyph glyph-name="six" unicode="6" horiz-adv-x="585" d="M505 715 C243 706 53 529 53 293 C53 120 150 -5 284 -5 C436 -5 542 88 535 217 C535 342 447 432 326 432 C255.397 432 211.153 397.404 186.081 340.695 C189.813 541.312 322.625 690.085 505 696 L505 715 Z M307 400 C369 400 414 320 414 210 C420 104 370 27 297 27 C232 27 185 93 185 183 C186 309 218 400 307 400 L307 400 Z " />
<glyph glyph-name="seven" unicode="7" horiz-adv-x="459" d="M25 330 L27 338 C31 364 55 382 84 382 L396 382 L120 -140 L248 -140 C315.074 69.6579 382.284 279.039 449 489 L441 500 L30 500 L25 441 C22 409 18 362 15 330 L25 330 Z " />
<glyph glyph-name="eight" unicode="8" horiz-adv-x="556" d="M359.39 358.387 C427.8 390.948 473 452.461 473 520 L378 501 C378 445.994 362.251 398.188 337.091 369.957 C322.058 377.274 306.319 383.995 290 390 C222 415 173 475 173 534 C173 595 213 640 269 640 C332 640 377 582 377 501 L473 520 C473 604 390 665 275 665 C160 665 77 591 77 489 C77 427.017 115.817 363.439 175.616 319.205 C99.0856 294.277 49 235.017 49 160 C49 64 145 -5 278 -5 C410 -5 506 73 506 180 C506 241.049 447.282 309.841 359.39 358.387 L359.39 358.387 Z M157 179 C157 232.074 174.139 276.007 201.835 301.868 C216.971 292.963 233.1 285.253 250 279 C336 248 398 190 398 141 C398 71 350 20 284 20 C210 20 157 87 157 179 L157 179 Z " />
<glyph glyph-name="nine" unicode="9" horiz-adv-x="585" d="M80 -215 C342 -206 532 -29 532 207 C532 380 435 505 301 505 C149 505 43 412 50 283 C50 158 138 68 259 68 C329.603 68 373.847 102.596 398.919 159.305 C395.187 -41.3123 262.375 -190.085 80 -196 L80 -215 Z M278 100 C216 100 171 180 171 290 C165 396 215 473 288 473 C353 473 400 407 400 317 C399 191 367 100 278 100 L278 100 Z " />
<glyph glyph-name="colon" unicode="&#x3a;" horiz-adv-x="265" d="M125 408 C171 408 205 442 205 488 C205 534 171 568 125 568 C79 568 45 534 45 488 C45 442 79 408 125 408 L125 408 Z M125 -5 C171 -5 205 29 205 75 C205 121 171 155 125 155 C79 155 45 121 45 75 C45 29 79 -5 125 -5 L125 -5 Z " />
<glyph glyph-name="semicolon" unicode="&#x3b;" horiz-adv-x="283" d="M139 411 C185 411 218 444 218 490 C218 536 185 570 139 570 C93 570 60 536 60 490 C60 444 93 411 139 411 L139 411 Z M198 130 L197.722 129.736 C183.394 144.896 162.803 154 139 154 C93 154 60 120 60 74 C60 28 93 -4.99998 139 -4.99998 C146.387 -4.99998 154.908 3.14832 163.835 14.2111 C180.516 -60.4941 137.243 -137.801 88 -156 L88 -174 C172 -142 233 -52 233 42 C233 72 218 109 198 130 L198 130 Z " />
<glyph glyph-name="less" unicode="&#x3c;" horiz-adv-x="556" d="M481 500 L50 309 C47 309 43 305 40 305 L40 246 L50 242 L481 50 L481 108 L90.7703 275.5 L481 443 L481 500 Z " />
<glyph glyph-name="equal" unicode="&#x3d;" horiz-adv-x="554" d="M88 226 L88 174 L484 174 L484 226 L88 226 Z M88 326 L88 274 L484 274 L484 326 L88 326 Z " />
<glyph glyph-name="greater" unicode="&#x3e;" horiz-adv-x="546" d="M506 248 L506 303 C502 303 497 309 493 309 L75 500 L75 443 L453.459 275.5 L75 108 L75 50 C218.666 115.99 362.469 181.755 506 248 L506 248 Z " />
<glyph glyph-name="question" unicode="&#x3f;" horiz-adv-x="389" d="M144 -5 C190 -5 224 29 224 75 C224 121 190 155 144 155 C98 155 64 121 64 75 C64 29 98 -5 144 -5 L144 -5 Z M163 290 L198 290 C325 290 354 372 354 416 C354 560 257 665 123 665 C73 665 36 634 36 592 C36 563 57 542 85 542 C107 542 138 575 160 575 C257 575 327 514 327 429 C327 411 295 377 159 377 L124 377 C114 377 109 370 111 360 L136 235 L152 235 L163 290 Z " />
<glyph glyph-name="arobase" unicode="&#x40;" horiz-adv-x="1202" d="M1063 0 C1000 -136 815 -234 623 -234 C346 -234 145 -27 145 259 C145 545 337 752 601 752 C865 752 1057 580 1057 343 C1057 150 983 10 880 10 C807 10 773 90 801 200 L871 480 L762 480 L744.829 411.315 C723.886 458.793 672.378 490 607 490 C422 490 288 363 288 188 C288 81 367 4 475 4 C562.606 4 642.227 43.9252 686.294 105.254 C699.135 23.3869 762.556 -30 859 -30 C1026 -30 1147 127 1147 343 C1147 599 918 784 601 784 C285 784 56 564 56 259 C56 -45 294 -266 623 -266 C828 -266 1029 -154 1101 0 L1063 0 Z M730.995 355.981 L692 200 C673 123 607 68 534 68 C464 68 414 128 414 210 C414 354 494 458 604 458 C677.596 458 730.421 415.468 730.995 355.981 L730.995 355.981 Z " />
<glyph glyph-name="A_cap" unicode="A" horiz-adv-x="688" d="M429 0 L680 0 L680 10 L673 10 C652.266 8.11511 627.98 28.4352 612.696 58.4042 L335 675 L303 675 L66.8711 54.8172 C51.6793 25.7583 28.1706 13.7713 -2 10 L-2 0 L165 0 L165 10 L154 11 C118.635 12.8136 104.463 40.5214 116.698 76 L173.551 232 L398.337 232 L473.232 61.0866 C484.169 33.537 471.987 12.9325 443 11 L429 10 L429 0 Z M384.315 264 L185.213 264 L275.616 512.056 L384.315 264 Z " />
<glyph glyph-name="B_cap" unicode="B" horiz-adv-x="664" d="M33 650 L41 649 C67 647 85 625 85 596 L85 64 C85 35 67 13 41 11 L33 10 L33 0 L367 0 C528 0 644 77 644 184 C644 270.992 554.121 337.298 420.753 355.807 C522.514 378.069 589 432.808 589 502 C589 594 485 660 341 660 L33 660 L33 650 Z M212 364 L212 628 L341 628 C411 628 461 575 461 502 C461 422 400 364 315 364 L212 364 Z M212 336 L305 336 C424 336 510 272 510 184 C510 96 444 32 354 32 L212 32 L212 336 Z " />
<glyph glyph-name="C_cap" unicode="C" horiz-adv-x="747" d="M687 53 L678.408 67.6566 C678.607 67.7711 678.804 67.8855 679 68 L687 53 Z M678 168 C674 160 670 150 666 142 C642.553 91.3549 583.043 47.7466 521.291 35.0989 C489.327 29.9096 456.588 27 426 27 C284 27 182 154 182 330 C182 506 284 633 426 633 C433.983 633 541.897 626.082 541 621 C590 612 642 568 666 518 C670 510 674 500 678 492 L687 492 L687 607 L679 593 C678.948 593.029 678.896 593.057 678.844 593.086 L687 607 C629 641 519 665 426 665 C203 665 42 524 42 330 C42 136 203 -4.99998 426 -4.99998 C519 -4.99998 629 19 687 53 L687 168 L678 168 Z " />
<glyph glyph-name="D_cap" unicode="D" horiz-adv-x="759" d="M33 650 L41 649 C67 647 85 625 85 596 L85 64 C85 35 67 13 41 11 L33 10 L33 0 L365 0 C565 0 709 139 709 330 C709 521 549 660 327 660 L33 660 L33 650 Z M212 32 L212 628 L327 628 C474 628 581 503 581 330 C581 157 490 32 365 32 L212 32 Z " />
<glyph glyph-name="E_cap" unicode="E" horiz-adv-x="617" d="M461 278 L461 420 L453 420 L449 412 C438 386 401 368 363 368 L219 368 L219 628 L403 628 C449 628 497 595 517 550 L524 535 L531 535 L531 660 L40 660 L40 650 L48 649 C74 647 92 625 92 596 L92 64 C92 35 74 13 48 11 L40 10 L40 0 L530 0 L533 16 C539 48 547 93 553 125 L546 125 L536 110 C508 65 454 32 408 32 L219 32 L219 336 L363 336 C401 336 437 315 449 286 L453 278 L461 278 Z " />
<glyph glyph-name="F_cap" unicode="F" horiz-adv-x="556" d="M40 650 L48 649 C74 647 92 625 92 596 L92 64 C92 35 74 13 48 11 L40 10 L40 0 L281 0 L281 10 L270 11 C240 13 219 35 219 64 L219 331 L353 331 C391 331 427 310 439 281 L443 273 L451 273 L451 415 L443 415 L439 407 C428 381 391 363 353 363 L219 363 L219 628 L433 628 C479 628 527 595 547 550 L554 535 L561 535 L561 660 L40 660 L40 650 Z " />
<glyph glyph-name="G_cap" unicode="G" horiz-adv-x="816" d="M667 492 L667 607 L659 593 C658.948 593.029 658.897 593.059 658.845 593.088 L667 607 C609 641 503 665 416 665 C199 665 42 524 42 330 C42 136 199 -5 416 -5 C506 -5 614 19 672 53 L672 246 C672 275 690 297 716 299 L724 300 L724 310 L505 310 L505 300 L513 299 C539 297 557 275 557 246 L557 44.4024 C512.015 33.4961 461.645 27 416 27 C280 27 182 154 182 330 C182 506 280 633 416 633 C448.634 633 484.429 629.173 519.11 622.469 L519 622 C569 612 622 569 646 518 C650 510 654 500 658 492 L667 492 Z " />
<glyph glyph-name="H_cap" unicode="H" horiz-adv-x="756" d="M717 10 L709 11 C683 13 665 35 665 64 L665 596 C665 625 683 647 709 649 L717 650 L717 660 L485 660 L485 650 L493 649 C519 647 537 625 537 596 L537 363 L219 363 L219 596 C219 625 237 647 263 649 L271 650 L271 660 L40 660 L40 650 L48 649 C74 647 92 625 92 596 L92 64 C92 35 74 13 48 11 L40 10 L40 0 L271 0 L271 10 L263 11 C237 13 219 35 219 64 L219 331 L537 331 L537 64 C537 35 519 13 493 11 L485 10 L485 0 L717 0 L717 10 Z " />
<glyph glyph-name="I_cap" unicode="I" horiz-adv-x="310" d="M271 10 L263 11 C237 13 219 35 219 64 L219 596 C219 625 237 647 263 649 L271 650 L271 660 L40 660 L40 650 L48 649 C74 647 92 625 92 596 L92 64 C92 35 74 13 48 11 L40 10 L40 0 L271 0 L271 10 Z " />
<glyph glyph-name="J_cap" unicode="J" horiz-adv-x="428" d="M389 660 L157 660 L157 650 L165 649 C191 647 209 625 209 596 L209 200 C209 72 195 16 163 16 C138 16 115 36 108 64 C101 94 77 115 51 115 C14 115 -7 94 0 64 C11 21 66 -10 131 -10 C274 -10 337 87 337 308 L337 596 C337 625 355 647 381 649 L389 650 L389 660 Z " />
<glyph glyph-name="K_cap" unicode="K" horiz-adv-x="680" d="M588 660 L446 660 L446 650 L452 649 C470.773 647.024 465.14 625.523 438.959 597.037 L212 355 L212 596 C212 625 230 647 256 649 L264 650 L264 660 L33 660 L33 650 L41 649 C67 647 85 625 85 596 L85 64 C85 35 67 13 41 11 L33 10 L33 0 L264 0 L264 10 L256 11 C230 13 212 35 212 64 L212 355 C212 355 281 255 377 117 C436 32 512 -5 626 -5 L670 -5 L670 20 C615.144 20 559.181 74.8712 465 210 C398.985 304.896 345.738 381.823 318.915 420.621 L490.272 601.255 C521.947 631.658 554.372 645.796 588 650 L588 660 Z " />
<glyph glyph-name="L_cap" unicode="L" horiz-adv-x="617" d="M271 660 L40 660 L40 650 L48 649 C74 647 92 625 92 596 L92 64 C92 35 74 13 48 11 L40 10 L40 0 L528 0 L531 16 L533 16 C539 49 547 97 553 130 C548.19 132.405 540 135 540 135 L523 103 C500 62 455 32 414 32 L219 32 L219 596 C219 625 237 647 263 649 L271 650 L271 660 Z " />
<glyph glyph-name="M_cap" unicode="M" horiz-adv-x="861" d="M623 0 L854 0 L854 10 L846 11 C822.226 12.9019 802.973 32.891 800.282 59.7869 L775.909 596 C775 625 792 647 817 649 L824 650 L824 660 L658 660 L446.67 143.33 L446 144 L206 660 L55 660 L55 650 L63 649 C85.8731 647.17 102.887 628.599 104.85 603.242 L84.4242 64 C82.6178 35.6907 64.3808 12.7594 39 11 L31 10 L31 0 L197 0 L197 10 L184 11 C147.882 12.9322 123.117 40.1902 123.879 76 L140.066 503.343 C222.027 333.878 304.153 164.579 386 -5 L418 -5 L660.551 560.953 L673.351 64 C673.651 35.5837 656.331 12.7968 631 11 L623 10 L623 0 Z " />
<glyph glyph-name="N_cap" unicode="N" horiz-adv-x="688" d="M37 650 L45 649 C71 647 89 625 89 596 L89 64 C89 35 71 13 45 11 L37 10 L37 0 L179 0 L179 10 L171 11 C145 13 127 35 127 64 L127 549.943 C270.586 359.913 413.853 169.526 558 -20 L600 -20 L600 596 C600 625 618 647 644 649 L652 650 L652 660 L510 660 L510 650 L518 649 C544 647 562 625 562 596 L562 182.667 L204 660 L37 660 L37 650 Z " />
<glyph glyph-name="O_cap" unicode="O" horiz-adv-x="775" d="M182 330 C182 488 255 633 384 633 C512 633 584 488 584 330 C584 172 512 27 384 27 C255 27 182 172 182 330 L182 330 Z M42 330 C42 155 166 -5 384 -5 C602 -5 725 155 725 330 C725 505 602 665 384 665 C166 665 42 505 42 330 L42 330 Z " />
<glyph glyph-name="P_cap" unicode="P" horiz-adv-x="601" d="M264 10 L256 11 C230 13 212 35 212 64 L212 293 L310 293 C467 293 581 371 581 478 C581 584 477 660 334 660 L33 660 L33 650 L41 649 C67 647 85 625 85 596 L85 64 C85 35 67 13 41 11 L33 10 L33 0 L264 0 L264 10 Z M212 325 L212 628 L334 628 C400 628 447 565 447 478 C447 389 389 325 310 325 L212 325 Z " />
<glyph glyph-name="Q_cap" unicode="Q" horiz-adv-x="775" d="M826 -28 L813 -20 C800 -41 731 -57 650 -57 C528.729 -57 445.184 -35.5477 399.366 -4.73137 C607.771 2.60587 725 159.155 725 330 C725 505 602 665 384 665 C166 665 42 505 42 330 C42 163.975 153.607 11.4508 351.205 -3.75706 C436.375 -83.9586 538.912 -140 637 -140 C707 -140 786 -93 826 -28 L826 -28 Z M182 330 C182 488 255 633 384 633 C512 633 584 488 584 330 C584 172 512 27 384 27 C255 27 182 172 182 330 L182 330 Z " />
<glyph glyph-name="R_cap" unicode="R" horiz-adv-x="706" d="M33 650 L41 649 C67 647 85 625 85 596 L85 64 C85 35 67 13 41 11 L33 10 L33 0 L264 0 L264 10 L256 11 C230 13 212 35 212 64 L212 312 L290.37 312 C319.657 271.909 374.205 197.264 441 106 C513 8 529 0 662 0 L706 0 L706 25 C658.914 25 654.488 26.9634 615 81 C528.545 199.588 460.237 290.665 432.914 326.911 C530.77 353.693 594 414.281 594 490 C594 589 488 660 341 660 L33 660 L33 650 Z M315 344 L212 344 L212 628 L341 628 C410 628 460 570 460 490 C460 405 399 344 315 344 L315 344 Z " />
<glyph glyph-name="S_cap" unicode="S" horiz-adv-x="529" d="M440 495 L440 620 C395 646 322 665 267 665 C135 665 39 579 39 460 C39 385 111 310 210 280 C317 248 394 188 394 137 C394 73 335 27 254 27 C251.536 27 189.469 30.9473 190 34 C139 44 85 88 60 139 C56 146 52 158 48 165 L39 165 L39 40 C84 14 175 -5 254 -5 C387 -5 484 76 484 189 C484 270 411 350 309 380 C203 411 127 466 127 511 C127 582 184 634 262 634 C279.166 634 302.574 629.265 328 621 C358 612 389 583 403 554 C411 537 423 512 431 495 L440 495 Z " />
<glyph glyph-name="T_cap" unicode="T" horiz-adv-x="636" d="M5 525 L26 565 C45 602 85 628 122 628 L254 628 L254 64 C254 35 236 13 210 11 L202 10 L202 0 L434 0 L434 10 L426 11 C400 13 382 35 382 64 L382 628 L511 628 C548.898 628.323 588.68 602.235 608 565 L629 525 L637 525 C634 560 630 609 627 644 L626 644 L625 660 L8 660 L7 644 C4 609 0 560 -3 525 L5 525 Z " />
<glyph glyph-name="U_cap" unicode="U" horiz-adv-x="667" d="M647 660 L489 660 L489 650 L498 649 C527.53 647.095 548.893 624.32 550.853 592.776 L550 203 C550 108 491 40 356 40 C250 40 203 106 203 196 L202.129 600.217 C203.786 627.111 221.276 647.098 246 649 L254 650 L254 660 L23 660 L23 650 L31 649 C57 647 75 625 75 596 L75 221 C75 90 155 -5 337 -5 C512 -5 589 77 589 191 L589 588 C589 622 610 647 639 649 L647 650 L647 660 Z " />
<glyph glyph-name="V_cap" unicode="V" horiz-adv-x="708" d="M241 660 L-6 660 L-6 650 C18.7573 646.463 39.5189 634.162 55.9688 605.807 L342 -15 L374 -15 L603.375 599.399 C617.292 631.73 642.872 646.109 674 650 L674 660 L506 660 L506 650 L517 649 C553.671 647.07 570.785 617.202 557.559 576.472 L402.117 149.956 L200.875 596 C188.202 624.789 199.845 647.073 229 649 L241 650 L241 660 Z " />
<glyph glyph-name="W_cap" unicode="W" horiz-adv-x="1018" d="M1002 660 L844 660 L844 650 L861 649 C890.213 648.109 904.743 624.693 896.184 596 L707 -15 L739 -15 L936.604 605.384 C949.978 634.425 972.865 646.358 1002 650 L1002 660 Z M241 660 L2 660 L2 650 C28.0645 645.656 51.2353 629.652 64 596 L64.1259 596 L304 -15 L336 -15 L561 670 L529 670 L362 163 L202.565 596 C192.671 624.254 203.479 647.26 232 649 L241 650 L241 660 Z M707 -15 L766 176 L561 670 L495 468 L707 -15 Z " />
<glyph glyph-name="X_cap" unicode="X" horiz-adv-x="705" d="M269 660 L23 660 L23 650 C47.3395 645.943 70.9362 632.043 92.6764 602.248 L287.859 310.799 L111.303 58.923 C87.4055 27.7846 58.1127 13.6792 25 10 L25 0 L195 0 L195 10 L185 11 C152.936 12.9433 146.362 38.488 168.029 72.9578 L307.827 280.982 L453.139 64 C471.72 35.2489 465.196 12.9136 436 11 L427 10 L427 0 L673 0 L673 10 C648.661 14.0566 625.064 27.9566 603.324 57.7521 C532.613 163.474 461.393 269.414 391 375 L549.965 596 C574.372 629.649 606.054 645.757 640 650 L640 660 L468 660 L468 650 L484 649 C513 647 520 625 500 596 L500.66 596 L371.043 404.597 L242.861 596 C224.28 624.751 230.804 647.086 260 649 L269 650 L269 660 Z " />
<glyph glyph-name="Y_cap" unicode="Y" horiz-adv-x="668" d="M259 660 L12 660 L12 650 C35.2908 646.118 56.4092 633.913 76.9615 606.327 L272.118 288.544 L272.82 59.0166 C270.88 32.5101 253.489 12.8837 229 11 L221 10 L221 0 L452 0 L452 10 L444 11 C418 13 400 35 400 64 L400 326.695 L586.347 597.919 C609.509 630.36 637.104 645.729 667 650 L667 660 L515 660 L515 650 L525 649 C558.242 647.115 562.636 617.677 537.165 580 L384.398 352.986 L233.934 599.492 C218.599 626.751 226.054 647.081 251 649 L259 650 L259 660 Z " />
<glyph glyph-name="Z_cap" unicode="Z" horiz-adv-x="600" d="M513.824 16 L515 16 C521 49 530 98 536 131 C531.19 133.405 523 136 523 136 L506 104 C483 63 438 33 397 33 L193.5 33 L545 660 L80 660 L76 644 L77 644 C69 616 58 574 50 546 L58 546 L74 565 C104 602 152 628 189 628 L381.206 628 L32 0 L511 0 L513.824 16 Z " />
<glyph glyph-name="bracketleft" unicode="&#x5b;" horiz-adv-x="269" d="M154 634 L259 634 L259 660 L65 660 L65 -120 L259 -120 L259 -94 L154 -94 L154 634 Z " />
<glyph glyph-name="backslash" unicode="&#x5c;" horiz-adv-x="270" d="M230 -145 L270 -145 L-20 710 L-60 710 L230 -145 Z " />
<glyph glyph-name="bracketright" unicode="&#x5d;" horiz-adv-x="269" d="M109 634 L109 -94 L4 -94 L4 -120 L199 -120 L199 660 L4 660 L4 634 L109 634 Z " />
<glyph glyph-name="asciicircum" unicode="&#x5e;" horiz-adv-x="359" d="M217 712 C212 721 198 744 180 744 C162 744 148 721 143 712 C143 712 56 543 55 541 L66 531 C119.98 595.49 156.618 631.227 180.163 650.964 C225.231 606.211 293 531 293 531 L305 541 C305 541 262 620 217 712 L217 712 Z M143 676 C140.066 681.995 140.321 684.102 143 683.214 L143 676 Z " />
<glyph glyph-name="underscore" unicode="&#x5f;" horiz-adv-x="490" d="M5 -50 L5 -114 L485 -114 L485 -50 L5 -50 Z " />
<glyph glyph-name="grave_glyph" unicode="&#x60;" horiz-adv-x="359" d="M96 701 C96 694 111 675 132 654 C163 615 252 530 252 530 L264 539 C264 539 222 660 191 699 C178 728 166 749 161 749 C142 749 96 715 96 701 L96 701 Z " />
<glyph glyph-name="a" unicode="a" horiz-adv-x="527" d="M505 64 C498 53 484 45 460 45 C430 45 420 73 420 112 L420 352 C420 441 358 505 272 505 C156 505 62 456 49 388 L164 388 C174 437 208 473 246 473 C277 473 299 433 299 378 L299 265.005 C273.836 261.635 245.768 257.192 225 252 C115 225 36 163 36 105 C36 41 89 -4.99998 162 -4.99998 C216.085 -4.99998 268.984 11.6117 308.011 38.6166 C319.125 8.60657 341.568 -9.99998 381 -9.99998 C455 -9.99998 495 14 518 48 L505 64 Z M299 233.664 L299 100 C299 93.1366 299.23 86.4801 299.717 80.0652 C276.914 74.2812 249.46 71 220 71 C179 71 150 99 150 138 C150 173 181 205 224 216 C250.735 222.875 276.886 228.874 299 233.664 L299 233.664 Z " />
<glyph glyph-name="b" unicode="b" horiz-adv-x="594" d="M65 598 L65 0 L78 0 C89 19 115 32 140 32 C182 32 228 -5 285 -5 C432 -5 539 102 539 249 C539 397 456 505 342 505 C272 505 204 485 180 458 L180 720 L157 720 L13 675 L13 669 C52.4169 654.219 65 643.467 65 598 L65 598 Z M285 27 C224 27 180 90 180 177 L180 439 C188 448 218 454 253 454 C346 454 414 350 414 207 C414 103 360 27 285 27 L285 27 Z " />
<glyph glyph-name="c" unicode="c" horiz-adv-x="537" d="M487 79 L476 91 C458 76 411 65 365 65 C253 65 172 152 172 273 C172 389 227 473 304 473 C344 473 375 444 379 404 C382 372 406 348 436 348 C466 348 487 369 487 399 C482 460 410 505 317 505 C162 505 50 389 50 229 C50 93 142 -5 269 -5 C337 -5 429 30 487 79 L487 79 Z " />
<glyph glyph-name="d" unicode="d" horiz-adv-x="626" d="M401 598 L401 464.34 C372.009 488.609 334.172 505 296 505 C156 505 54 385 54 219 C54 89 137 -5.00002 251 -5.00002 C295.01 -5.00002 355.153 22.4273 401 62.0668 L401 -1.52588e-005 L424 -1.52588e-005 L568 45 L568 51 C528.583 65.7813 516 76.5334 516 122 L516 720 L493 720 L349 675 L349 669 C388.417 654.219 401 643.467 401 598 L401 598 Z M401 80.5293 C384.804 71.0542 350.537 65 314 65 C233 65 174 148 174 263 C174 385 223 474 290 474 C333.572 474 376.538 449.784 401 418.781 L401 80.5293 Z " />
<glyph glyph-name="e" unicode="e" horiz-adv-x="543" d="M493 79 L482 91 C464 76 416 65 368 65 C244.171 65 163.526 163.177 172.911 300 L493 300 C493 419 409 505 294 505 C152 505 50 389 50 229 C50 93 143 -5 272 -5 C342 -5 435 30 493 79 L493 79 Z M385.957 393.69 L386 396 C386 395.226 385.986 394.456 385.957 393.69 L385.957 393.69 Z M331 337 L175.127 322.294 C186.918 412.052 230.929 473 288 473 C345 473 386 441 386 396 C385.341 364.35 363.176 340.017 331 337 L331 337 Z " />
<glyph glyph-name="f" unicode="f" horiz-adv-x="461" d="M263 10 L255 11 C229 13 211 35 211 64 L211 455 L357 455 L357 500 L211 500 L211 533 C211 626 286 694 316 694 C346 694 370 673 372 645 C375 615 399 594 429 594 C459 594 480 615 480 645 C476 688 421 720 348 720 C206 720 102 652 102 558 C99 558 96 500 96 500 L22 500 L22 455 L96 455 L96 64 C96 35 78 13 52 11 L44 10 L44 0 L263 0 L263 10 Z " />
<glyph glyph-name="g" unicode="g" horiz-adv-x="494" d="M494 500 L354.396 470.085 C323.15 492.191 282.347 505 236 505 C130 505 54 438 54 346 C54 281.623 91.2129 229.488 149.878 203.984 C85.281 194.124 41 149.054 41 90 C41 44.1951 76.4175 7.90533 131.495 -8.49214 C62.8071 -25.6295 16 -74.7851 16 -133 L93 -120 L16 -134 C16 -197 84 -243 178 -243 C350 -243 474 -153 474 -28 C474 43 396 94 289 94 C268 94 195 91 195 91 C150 91 118 109 118 134 C118 165 143 187 177 187 L236 187 C342 187 419 254 419 346 C419 377.01 410.252 405.179 394.594 428.9 L494 436 L494 500 Z M236 213 C193 213 162 269 162 346 C162 423 193 479 236 479 C279 479 310 423 310 346 C310 269 279 213 236 213 L236 213 Z M166.175 -15.7826 C177.285 -17.2412 188.923 -18 201 -18 L258 -15 C336 -15 392 -45 392 -86 C392 -158 308 -211 191 -211 C134 -211 93 -173 93 -120 C93 -67.2935 122.926 -25.7023 166.175 -15.7826 L166.175 -15.7826 Z " />
<glyph glyph-name="h" unicode="h" horiz-adv-x="604" d="M346 0 L565 0 L565 10 L557 11 C531 13 513 35 513 64 L513 338 C513 435 477 505 396 505 C333.086 505 258.532 475.07 211 431.888 L211 720 L188 720 L44 675 L44 669 C83.4169 654.219 96 643.467 96 598 L96 64 C96 35 78 13 52 11 L44 10 L44 0 L263 0 L263 10 L255 11 C229 13 211 35 211 64 L211 414.809 C230.773 422.699 267.325 428 308 428 C371 428 398 385 398 326 L398 64 C398 35 380 13 354 11 L346 10 L346 0 Z " />
<glyph glyph-name="i" unicode="i" horiz-adv-x="308" d="M148 570 C193 570 225 602 225 647 C225 691 193 723 148 723 C103 723 71 691 71 647 C71 602 103 570 148 570 L148 570 Z M264 10 L256 11 C230 13 212 35 212 64 L212 500 L189 500 L45 455 L45 449 C84.4169 434.219 97 423.467 97 378 L97 64 C97 35 79 13 53 11 L45 10 L45 0 L264 0 L264 10 Z " />
<glyph glyph-name="j" unicode="j" horiz-adv-x="311" d="M151 570 C196 570 228 602 228 647 C228 691 196 723 151 723 C106 723 74 691 74 647 C74 602 106 570 151 570 L151 570 Z M99.9789 381.536 C99.9235 244.724 99.7235 -2.44693 99 -1 C99 -126 67 -174 -19 -223 L-8 -239 C154 -146 215 -84 215 31 L215 500 L192 500 L48 455 L48 449 C86.1836 434.681 99.4538 424.046 99.9789 381.536 L99.9789 381.536 Z " />
<glyph glyph-name="k" unicode="k" horiz-adv-x="569" d="M89 598 L89 64 C89 35 71 13 45 11 L37 10 L37 0 L256 0 L256 10 L248 11 C222 13 204 35 204 64 L204 275 L368.624 60.4422 C388.128 33.2162 389.174 12.9174 370 11 L363 9.99998 L363 -1.52588e-005 L602 -1.52588e-005 L602 9.99998 C569.686 14.0393 538.779 28.2196 513.031 58.948 L302.366 335.101 L427.373 443.803 C463.769 472.542 499.026 485.878 532 490 L532 500 L389 500 L389 490 L395 489 C413 487 404 465 373 436 L373.587 436 L204 275 L204 720 L181 720 L37 675 L37 669 C76.4169 654.219 89 643.467 89 598 L89 598 Z " />
<glyph glyph-name="l" unicode="l" horiz-adv-x="308" d="M264 10 L256 11 C230 13 212 35 212 64 L212 720 L189 720 L45 675 L45 669 C84.4169 654.219 97 643.467 97 598 L97 64 C97 35 79 13 53 11 L45 10 L45 0 L264 0 L264 10 Z " />
<glyph glyph-name="m" unicode="m" horiz-adv-x="926" d="M668 0 L887 0 L887 10 L879 11 C853 13 835 35 835 64 L835 338 C835 435 779 505 711 505 C628.113 505 549.872 473.417 504.923 428.157 C483.691 475.456 445.878 505 403 505 C330.097 505 258.025 475.104 211 431.962 L211 500 L188 500 L44 455 L44 449 C83.4169 434.219 96 423.467 96 378 L96 64 C96 35 78 13 52 11 L44 10 L44 0 L263 0 L263 10 L255 11 C229 13 211 35 211 64 L211 416.463 C231.648 427.505 267.952 435 313 435 C365 435 408 389 408 326 L408 64 C408 35 390 13 364 11 L356 10 L356 1.52588e-005 L575 1.52588e-005 L575 10 L567 11 C541 13 523 35 523 64 L523 338 C523 364.5 518.97 388.985 511.765 410.578 C528.78 421.065 568.455 428 622 428 C676 428 720 385 720 326 L720 64 C720 35 702 13 676 11 L668 10 L668 0 Z " />
<glyph glyph-name="n" unicode="n" horiz-adv-x="604" d="M346 0 L565 0 L565 10 L557 11 C531 13 513 35 513 64 L513 338 C513 435 477 505 396 505 C333.086 505 258.532 475.07 211 431.888 L211 500 L188 500 L44 455 L44 449 C83.4169 434.219 96 423.467 96 378 L96 64 C96 35 78 13 52 11 L44 10 L44 0 L263 0 L263 10 L255 11 C229 13 211 35 211 64 L211 414.809 C230.773 422.699 267.325 428 308 428 C371 428 398 385 398 326 L398 64 C398 35 380 13 354 11 L346 10 L346 0 Z " />
<glyph glyph-name="o" unicode="o" horiz-adv-x="623" d="M178 250 C178 383 234 479 312 479 C389 479 445 383 445 250 C445 117 389 21 312 21 C234 21 178 117 178 250 L178 250 Z M50 250 C50 102 160 -5 312 -5 C463 -5 573 102 573 250 C573 398 463 505 312 505 C160 505 50 398 50 250 L50 250 Z " />
<glyph glyph-name="p" unicode="p" horiz-adv-x="643" d="M263 -220 L255 -219 C229 -217 211 -195 211 -166 L211 16.793 C241.925 2.85841 279.177 -5 320 -5 C475 -5 588 110 588 268 C588 405 506 505 393 505 C313.939 505 242.828 478.26 211 438.297 L211 500 L188 500 L44 455 L44 449 C83.4169 434.219 96 423.467 96 378 L96 -166 C96 -195 78 -217 52 -219 L44 -220 L44 -230 L263 -230 L263 -220 Z M211 135 L211 410.181 C229.249 421.009 263.666 428 304 428 C399 428 468 327 468 187 C468 94 406 27 320 27 C262 27 216 72 211 135 L211 135 Z " />
<glyph glyph-name="q" unicode="q" horiz-adv-x="605" d="M561 -220 L553 -219 C527 -217 509 -195 509 -166 L509 500 L496 500 C485 481 455 468 425 468 C385 468 342 505 288 505 C149 505 48 385 48 219 C48 89 125 -5 231 -5 C278.928 -5 344.847 25.2574 394 68.0238 L394 -166 C394 -195 376 -217 350 -219 L342 -220 L342 -230 L561 -230 L561 -220 Z M394 88.769 C375.045 74.9305 334.936 65 294 65 C221 65 168 148 168 263 C168 385 218 473 288 473 C349 473 394 410 394 323 L394 88.769 Z " />
<glyph glyph-name="r" unicode="r" horiz-adv-x="430" d="M96 378 L96 64 C96 35 78 13 52 11 L44 10 L44 0 L263 0 L263 10 L255 11 C229 13 211 35 211 64 L211 412.177 C221.098 416.913 235.47 420 251 420 C284 420 332 376 365 376 C397 376 420 399 420 431 C420 474 397 505 343 505 C294.534 505 242.322 477.286 211 436.767 L211 500 L188 500 L44 455 L44 449 C83.4169 434.219 96 423.467 96 378 L96 378 Z " />
<glyph glyph-name="s" unicode="s" horiz-adv-x="437" d="M365 378 L365 466 L355 448 C354.875 448.071 354.75 448.142 354.624 448.212 L365 466 C326 489 272 505 238 505 C129 505 50 445 50 362 C50 310 111 246 195 209 C251 185 291 143 291 111 C291 59 253 21 201 21 C188.556 21 173.33 23.2755 156.897 27.377 C121.326 38.4065 83.2589 70.0073 63 105 C60 110 55 118 52 123 L45 123 L45 29 C79 9 142 -5 195 -5 C306 -5 387 62 387 154 C387 205 340 263 276 291 C197 326 139 372 139 401 C139 446 181 479 238 479 C244.225 479 259.329 473.349 279.265 464.002 C308.535 448.519 337.204 419.506 350 393 C352 389 355 382 357 378 L365 378 Z " />
<glyph glyph-name="t" unicode="t" horiz-adv-x="374" d="M25 468 L25 455 L92 455 L92 125 C92 27 119 -5 200 -5 C262 -5 313 20 354 55 L346 65 C333 54 307 46 257 46 C219 46 207 61 207 105 L207 455 L342 455 L342 500 L207 500 L207 640 L188 640 C141.357 549.69 72.0363 476.006 25 468 L25 468 Z " />
<glyph glyph-name="u" unicode="u" horiz-adv-x="569" d="M14 490 L22 489 C48 487 66 465 66 436 L66 154 C66 62 116 -5 205 -5 C258.632 -5 317.222 27.226 368 73.651 L368 0 L391 0 L535 45 L535 51 C495.583 65.7813 483 76.5334 483 122 L483 500 L316 500 L316 490 L324 489 C350 487 368 465 368 436 L368 91.7186 C352.286 79.4877 327.501 71 295 71 C222 71 180 111 180 166 L181 500 L14 500 L14 490 Z " />
<glyph glyph-name="v" unicode="v" horiz-adv-x="576" d="M213 500 L-17 500 L-17 490 C14.407 486.074 41.2245 471.468 58.3264 439.301 L268 -10 L287 -10 L489.515 442.994 C506.366 473.178 531.749 486.219 562 490 L562 500 L425 500 L425 490 L432 489 C453.378 487.141 461.797 468.003 453.242 442.026 L326.457 132.646 L189.826 436 C177.311 464.662 183.784 487.117 206 489 L213 490 L213 500 Z " />
<glyph glyph-name="w" unicode="w" horiz-adv-x="937" d="M603 500 L372 500 L372 490 C393.199 485.76 410.924 471.108 426.981 440.041 L456.716 376.322 L353.845 130.573 L216.731 436 C204.451 464.524 213.665 487.165 241 489 L250 490 L250 500 L20 500 L20 490 C46.4546 486.221 68.4958 471.411 85.1817 439.611 L295 -10 L314 -10 L469.663 348.58 L637 -10 L656 -10 L858.902 441.878 C875.542 472.685 901.424 486.178 932 490 L932 500 L775 500 L775 490 L790 489 C819 487 832 465 820 436 L820.647 436 L696.081 133.482 L559.826 436 C547.282 464.705 558.784 487.102 588 489 L603 490 L603 500 Z " />
<glyph glyph-name="x" unicode="x" horiz-adv-x="583" d="M255 500 L17 500 L17 490 C43.0025 486.285 65.2748 473.856 87.0672 445.716 L225.477 231.459 L98.3557 56.8158 C72.8302 26.7468 41.6278 13.5628 5.99998 9.99998 L5.99998 -1.52588e-005 L179 -1.52588e-005 L179 9.99998 L157 11 C127.769 11.8988 121.332 35.2848 141.844 64 L241.644 206.434 L333.656 64 L333 64 C352 35 351 13 330 11 L323 9.99998 L323 -1.52588e-005 L544 -1.52588e-005 L544 9.99998 C522.153 13.6412 502.434 26.08 481.378 53.5945 L316.913 308.185 L429.653 442.43 C457.52 472.341 488.916 485.989 521 490 L521 500 L369 500 L369 490 L378 489 C406.451 487.193 410.33 464.456 388.291 436 L304.246 327.792 L234.344 436 L235 436 C216 465 221 487 247 489 L255 490 L255 500 Z " />
<glyph glyph-name="y" unicode="y" horiz-adv-x="576" d="M562 500 L425 500 L425 490 L432 489 C453.378 487.141 461.797 468.003 453.242 442.026 L326.457 132.646 L189.826 436 C177.31 464.662 183.784 487.117 206 489 L213 490 L213 500 L-17 500 L-17 490 C14.407 486.074 41.2245 471.468 58.3264 439.301 L259.851 7.46262 C251.51 -8.07231 238.464 -34.2401 229 -62 C200 -126 172 -154 136 -154 C136 -154 72 -129 46 -129 C12 -129 -12 -150 -12 -178 C-12 -208 20 -230 65 -230 C151 -230 210 -182 259 -72 C270 -39 287 -10 287 -10 L489.515 442.994 C506.366 473.178 531.749 486.219 562 490 L562 500 Z " />
<glyph glyph-name="z" unicode="z" horiz-adv-x="499" d="M63 420 C94.392 451.449 143.517 472.965 180.082 473.289 L301.342 473.731 L37 0 L419 0 L421 13 L423 13 C428 45 436 92 442 124 C437.19 126.405 429 129 429 129 L412 97 C389 56 344 26 303 26 L187.352 26 L449 500 L69 500 L65 486 L66.7271 486 C60.7298 464.039 51.9097 432.669 46 411 L54 411 L63 420 Z " />
<glyph glyph-name="braceleft" unicode="&#x7b;" horiz-adv-x="265" d="M250 -120 L250 -101 L236 -101 C188 -101 154 -49 154 22 L153 139 C153 206.475 115.583 257.487 61.4642 270.025 C115.583 282.764 153 334.525 153 402 L153 518 C153 589 188 641 236 641 L250 641 L250 660 L210 660 C125 660 64 600 64 518 L64 338 C64 300.922 39.5777 280 5 280 L5 260 C39.5157 260 64 239.045 64 203 L64 22 C64 -60 125 -120 210 -120 L250 -120 Z " />
<glyph glyph-name="bar" unicode="&#x7c;" horiz-adv-x="209" d="M60 770 L60 -234 L149 -234 L149 770 L60 770 Z " />
<glyph glyph-name="braceright" unicode="&#x7d;" horiz-adv-x="265" d="M5 660 L5 641 L19 641 C67 641 101 589 101 518 L102 401 C102 333.525 139.417 282.513 193.536 269.975 C139.417 257.236 102 205.475 102 138 L102 22 C102 -49 67 -101 19 -101 L5 -101 L5 -120 L45 -120 C130 -120 191 -60 191 22 L191 202 C191 239.078 215.422 260 250 260 L250 280 C215.484 280 191 300.955 191 337 L191 518 C191 600 130 660 45 660 L5 660 Z " />
<glyph glyph-name="asciitilde" unicode="&#x7e;" horiz-adv-x="359" d="M30 310 C30 342 48 366 73 366 C126 366 203 303 256 303 C310 303 349 361 349 440 L330 440 C330 405 309 380 281 380 C228 380 150 442 97 442 C47 442 10 387 10 310 L30 310 Z " />
<glyph glyph-name="nobreakspace" unicode="&#xa0;" horiz-adv-x="237" d="" />
<glyph glyph-name="exclamdown" unicode="&#xa1;" horiz-adv-x="265" d="M122 505 C76 505 42 471 42 425 C42 379 76 345 122 345 C168 345 202 379 202 425 C202 471 168 505 122 505 L122 505 Z M60 -83 C53 -131 82 -165 130 -165 C180 -165 209 -131 200 -83 C200 122 130 270 130 270 L114 270 C114 270 60 122 60 -83 L60 -83 Z " />
<glyph glyph-name="cent" unicode="&#xa2;" horiz-adv-x="537" d="M283 575 L283 503.087 C145.886 487.417 50 377.043 50 229 C50 90.2423 146.559 -13.3857 283 -4.53326 L283 -75 L321 -75 L321 0.695343 C378.977 12.5039 442.842 41.6945 487 79 L476 91 C451.395 70.4961 372.467 58.3103 321 69.7273 L321 471.177 C352.531 464.236 375.588 438.12 379 404 C382 372 406 348 436 348 C466 348 487 369 487 399 C482.072 459.123 412.057 503.702 321 504.972 L321 575 L283 575 Z M283 82.5371 C215.577 113.791 172 184.25 172 273 C172 378.151 217.193 457.008 283 470.838 L283 82.5371 Z " />
<glyph glyph-name="guillemotleft" unicode="&#xab;" horiz-adv-x="488" d="M306.932 248.455 C336.463 302.201 400.297 414.297 440 454 L428 466 C284 322 196 257 196 257 L196 244 C195.597 244.967 195.608 245.515 196 245.676 L196 244 C196 244 197.792 243.823 200.884 243.48 C235.428 220.791 431 34 431 34 L443 46 C443 46 351.791 164.035 306.932 248.455 L306.932 248.455 Z M130.932 248.455 C160.463 302.201 224.297 414.297 264 454 L252 466 C108 322 20 257 20 257 L20 244 C19.5972 244.967 19.6081 245.515 20 245.676 L20 244 C20 244 21.7917 243.823 24.8836 243.48 C59.4278 220.791 255 34 255 34 L267 46 C267 46 175.791 164.035 130.932 248.455 L130.932 248.455 Z " />
<glyph glyph-name="acute_glyph" unicode="&#xb4;" horiz-adv-x="359" d="M104 530 C104 530 190 615 220 654 C241 677 256 696 256 701 C256 715 209 749 190 749 C186 749 175 728 162 699 C132 660 91 539 91 539 L104 530 Z " />
<glyph glyph-name="guillemotright" unicode="&#xbb;" horiz-adv-x="488" d="M57 34 C57 34 252.572 220.791 287.116 243.48 C290.208 243.823 292 244 292 244 L292 245.676 C292.392 245.515 292.403 244.967 292 244 L292 257 C292 257 204 322 60 466 L48 454 C87.7033 414.297 151.537 302.201 181.068 248.455 C136.209 164.035 45 46 45 46 L57 34 Z M233 34 C233 34 428.572 220.791 463.116 243.48 C466.208 243.823 468 244 468 244 L468 245.676 C468.392 245.515 468.403 244.967 468 244 L468 257 C468 257 380 322 236 466 L224 454 C263.703 414.297 327.537 302.201 357.068 248.455 C312.209 164.035 221 46 221 46 L233 34 Z " />
<glyph glyph-name="onequarter" unicode="&#xbc;" horiz-adv-x="764" d="M442 80 L443 79.32 L443 63 L465 63 L465 60 L541 60 L541 8 L639 8 L639 60 L700 60 L700 103 L639 103 L639 281.771 C640.202 282.813 641.208 283.565 642 284 L639 289.625 L639 312 L627.067 312 L626 314 C625.289 313.626 624.373 312.951 623.268 312 L622 312 C622.774 311.242 594.368 286.85 442 80 L442 80 Z M273 641 C273 641.675 273.018 642.342 273.054 643 L274 643 L273 641 Z M299 669 L299 675 L225 675 L225 666 L224 666 L224 671 L149 671 L149 667 C162.457 667 170.902 660.493 174 648.835 L174 449 C174 433.205 163.984 423 148 423 L148 419 L174 419 L174 415 L272 415 L272 419 L299 419 L299 425 C284.785 428.554 273.978 433.121 273 451 L272 451 L272 643 L273.054 643 C274.033 660.908 284.778 665.444 299 669 L299 669 Z M121 -26 L693 644 L643 686 L72 16 L121 -26 Z M496.978 103 C509.691 119.99 525.091 140.454 541.077 161.425 C541.026 160.597 541 159.788 541 159 L541 103 L496.978 103 Z " />
<glyph glyph-name="onehalf" unicode="&#xbd;" horiz-adv-x="764" d="M273 641 C273 641.675 273.018 642.342 273.054 643 L274 643 L273 641 Z M299 669 L299 675 L225 675 L225 666 L224 666 L224 671 L149 671 L149 667 C162.457 667 170.902 660.493 174 648.835 L174 449 C174 433.205 163.984 423 148 423 L148 419 L174 419 L174 415 L272 415 L272 419 L299 419 L299 425 C284.785 428.554 273.978 433.121 273 451 L272 451 L272 643 L273.054 643 C274.033 660.908 284.778 665.444 299 669 L299 669 Z M121 -26 L693 644 L643 686 L72 16 L121 -26 Z M690 127 C686.286 112.143 678.485 101 661 101 L661 100 L608 100 C607.554 100 607.107 99.9896 606.657 99.9691 C659.045 134.947 691 163.307 691 191 C691 233 652 263 598 263 C555 263 508 223 486 168 L498 161 C505 179 528 192 552 192 C571 192 585 178 585 159 C585 93 535 76 467 33 L467 12.512 C492.331 28.4008 516.299 43.0723 538.472 56.7494 C513.313 34.5025 488.227 12 468 12 L685 12 L693 100 L692.407 100 C693.305 109.579 694.227 118.887 695 127 L690 127 Z M467 12.5121 L467 12 L463 10 C464.337 10.8407 465.67 11.6781 467 12.5121 L467 12.5121 Z " />
<glyph glyph-name="threequarters" unicode="&#xbe;" horiz-adv-x="764" d="M445 74 L446 73.32 L446 57 L468 57 L468 54 L544 54 L544 2 L642 2 L642 54 L703 54 L703 97 L642 97 L642 275.771 C643.202 276.813 644.208 277.565 645 278 L642 283.625 L642 306 L630.067 306 L629 308 C628.289 307.626 627.373 306.951 626.268 306 L625 306 C625.774 305.242 597.368 280.85 445 74 L445 74 Z M113 340 C239 346 330 396 330 458 C330 488.114 305.642 512.607 267.185 525.068 C304.959 549.515 328 576.903 328 601 C328 641 291 670 240 670 C201 670 146 633 109 582 L121 574 C132 588 162 599 192 599 C236.909 599 239.461 561.81 219.37 533.624 C214.998 533.873 210.539 534 206 534 C211.393 534 215.714 533.691 218.992 533.097 C207.127 516.728 187.972 503.068 165 496 L165 494.467 C163.686 493.981 162.353 493.492 161 493 L161 477 C171 480 181 483 185 483 C210 483 229 471 229 454 C229 402 181 362 114 359 L115 342 L113 340 Z M121 -26 L693 644 L643 686 L72 16 L121 -26 Z M499.978 97 C512.691 113.99 528.091 134.454 544.077 155.425 C544.026 154.597 544 153.788 544 153 L544 97 L499.978 97 Z " />
<glyph glyph-name="questiondown" unicode="&#xbf;" horiz-adv-x="389" d="M245 505 C199 505 165 471 165 425 C165 379 199 345 245 345 C291 345 325 379 325 425 C325 471 291 505 245 505 L245 505 Z M226 210 L191 210 C64 210 35 128 35 84 C35 -60 132 -165 266 -165 C316 -165 353 -134 353 -92 C353 -63 332 -42 304 -42 C282 -42 251 -75 229 -75 C132 -75 62 -14 62 71 C62 89 94 123 230 123 L265 123 C275 123 280 130 278 140 L253 265 L237 265 L226 210 Z " />
<glyph glyph-name="A_cap_grave" unicode="&#xc0;" horiz-adv-x="688" d="M429 0 L680 0 L680 10 L673 10 C652.266 8.11511 627.98 28.4352 612.696 58.4042 L335 675 L303 675 L66.8711 54.8172 C51.6793 25.7583 28.1706 13.7713 -2 10 L-2 0 L165 0 L165 10 L154 11 C118.635 12.8136 104.463 40.5214 116.698 76 L173.551 232 L398.337 232 L473.232 61.0866 C484.169 33.537 471.987 12.9325 443 11 L429 10 L429 0 Z M235 861 C235 854 250 835 271 814 C302 775 391 690 391 690 L404 699 C404 699 361 820 330 859 C317 888 305 909 300 909 C281 909 235 875 235 861 L235 861 Z M384.315 264 L185.213 264 L275.616 512.056 L384.315 264 Z " />
<glyph glyph-name="A_cap_acute" unicode="&#xc1;" horiz-adv-x="688" d="M258 690 C258 690 345 775 375 814 C395 836 410 855 410 861 C410 875 364 909 345 909 C341 909 329 888 316 859 C286 820 245 699 245 699 L258 690 Z M429 0 L680 0 L680 10 L673 10 C652.266 8.11511 627.98 28.4352 612.696 58.4042 L335 675 L303 675 L66.8711 54.8172 C51.6793 25.7583 28.1706 13.7713 -2 10 L-2 0 L165 0 L165 10 L154 11 C118.635 12.8136 104.463 40.5214 116.698 76 L173.551 232 L398.337 232 L473.232 61.0866 C484.169 33.537 471.987 12.9325 443 11 L429 10 L429 0 Z M384.315 264 L185.213 264 L275.616 512.056 L384.315 264 Z " />
<glyph glyph-name="A_cap_circumflex" unicode="&#xc2;" horiz-adv-x="688" d="M429 0 L680 0 L680 10 L673 10 C652.266 8.11511 627.98 28.4352 612.696 58.4042 L335 675 L303 675 L66.8711 54.8172 C51.6793 25.7583 28.1706 13.7713 -2 10 L-2 0 L165 0 L165 10 L154 11 C118.635 12.8136 104.463 40.5214 116.698 76 L173.551 232 L398.337 232 L473.232 61.0866 C484.169 33.537 471.987 12.9325 443 11 L429 10 L429 0 Z M356 872 C351 881 337 904 319 904 C302 904 288 881 283 872 C283 872 197 704 194 701 L206 691 C259.768 754.849 296.251 790.582 319.653 810.478 C364.72 765.669 432 691 432 691 L444 701 C444 701 401 780 356 872 L356 872 Z M282 836 C278.995 842.14 279.336 844.201 282.198 843.144 L282 836 Z M384.315 264 L185.213 264 L275.616 512.056 L384.315 264 Z " />
<glyph glyph-name="A_cap_tilde" unicode="&#xc3;" horiz-adv-x="688" d="M169 755 C169 787 187 811 212 811 C265 811 342 748 395 748 C449 748 488 806 488 885 L469 885 C469 850 448 825 420 825 C367 825 290 887 237 887 C187 887 150 832 150 755 L169 755 Z M429 0 L680 0 L680 10 L673 10 C652.266 8.11511 627.98 28.4352 612.696 58.4042 L335 675 L303 675 L66.8711 54.8172 C51.6793 25.7583 28.1706 13.7713 -2 10 L-2 0 L165 0 L165 10 L154 11 C118.635 12.8136 104.463 40.5214 116.698 76 L173.551 232 L398.337 232 L473.232 61.0866 C484.169 33.537 471.987 12.9325 443 11 L429 10 L429 0 Z M384.315 264 L185.213 264 L275.616 512.056 L384.315 264 Z " />
<glyph glyph-name="A_cap_dieresis" unicode="&#xc4;" horiz-adv-x="688" d="M421 730 C462 730 491 759 491 800 C491 841 462 871 421 871 C380 871 351 841 351 800 C351 759 380 730 421 730 L421 730 Z M217 730 C258 730 287 759 287 800 C287 841 258 871 217 871 C176 871 147 841 147 800 C147 759 176 730 217 730 L217 730 Z M429 0 L680 0 L680 10 L673 10 C652.266 8.11511 627.98 28.4352 612.696 58.4042 L335 675 L303 675 L66.8711 54.8172 C51.6793 25.7583 28.1706 13.7713 -2 10 L-2 0 L165 0 L165 10 L154 11 C118.635 12.8136 104.463 40.5214 116.698 76 L173.551 232 L398.337 232 L473.232 61.0866 C484.169 33.537 471.987 12.9325 443 11 L429 10 L429 0 Z M384.315 264 L185.213 264 L275.616 512.056 L384.315 264 Z " />
<glyph glyph-name="A_cap_ring" unicode="&#xc5;" horiz-adv-x="688" d="M255 788 C255 826 282 854 319 854 C356 854 383 826 383 788 C383 753 352 721 319 721 C286 721 255 753 255 788 L255 788 Z M223 788 C223 739 269 695 319 695 C369 695 415 739 415 788 C415 841 375 880 319 880 C263 880 223 841 223 788 L223 788 Z M429 0 L680 0 L680 10 L673 10 C652.266 8.11511 627.98 28.4352 612.696 58.4042 L335 675 L303 675 L66.8711 54.8172 C51.6793 25.7583 28.1706 13.7713 -2 10 L-2 0 L165 0 L165 10 L154 11 C118.635 12.8136 104.463 40.5214 116.698 76 L173.551 232 L398.337 232 L473.232 61.0866 C484.169 33.537 471.987 12.9325 443 11 L429 10 L429 0 Z M384.315 264 L185.213 264 L275.616 512.056 L384.315 264 Z " />
<glyph glyph-name="C_cap_cedilla" unicode="&#xc7;" horiz-adv-x="747" d="M678 168 C674 160 670 150 666 142 C642.553 91.3549 583.043 47.7466 521.291 35.0989 C489.327 29.9096 456.588 27 426 27 C284 27 182 154 182 330 C182 506 284 633 426 633 C433.983 633 541.897 626.082 541 621 C590 612 642 568 666 518 C670 510 674 500 678 492 L687 492 L687 607 L679 593 C678.948 593.029 678.896 593.057 678.844 593.086 L687 607 C629 641 519 665 426 665 C203 665 42 524 42 330 C42 139.772 196.801 0.502335 413.065 -4.84077 C405.903 -16.6426 386.255 -48.9614 361 -90 L369 -95 C386 -86 409 -80 424 -80 C455 -80 478 -103 478 -135 C478 -165 446 -187 401 -187 C372 -187 345 -181 336 -173 L329 -185 C351 -205 391 -220 424 -220 C496 -220 548 -184 548 -135 C548 -90 507 -57 451 -57 C429.793 -57 402.08 -63.5047 383.987 -72.0353 C412.705 -30.532 435.318 -12.1196 446.771 -4.616 C534.901 -1.41512 633.266 21.501 687 53 L678.408 67.6566 C678.607 67.7711 678.804 67.8855 679 68 L687 53 L687 168 L678 168 Z " />
<glyph glyph-name="E_cap_grave" unicode="&#xc8;" horiz-adv-x="617" d="M204 861 C204 854 219 835 240 814 C271 775 360 690 360 690 L373 699 C373 699 330 820 299 859 C286 888 274 909 269 909 C250 909 204 875 204 861 L204 861 Z M461 278 L461 420 L453 420 L449 412 C438 386 401 368 363 368 L219 368 L219 628 L403 628 C449 628 497 595 517 550 L524 535 L531 535 L531 660 L40 660 L40 650 L48 649 C74 647 92 625 92 596 L92 64 C92 35 74 13 48 11 L40 10 L40 0 L530 0 L533 16 C539 48 547 93 553 125 L546 125 L536 110 C508 65 454 32 408 32 L219 32 L219 336 L363 336 C401 336 437 315 449 286 L453 278 L461 278 Z " />
<glyph glyph-name="E_cap_acute" unicode="&#xc9;" horiz-adv-x="617" d="M274 690 C274 690 361 775 391 814 C411 836 426 855 426 861 C426 875 380 909 361 909 C357 909 345 888 332 859 C302 820 261 699 261 699 L274 690 Z M461 278 L461 420 L453 420 L449 412 C438 386 401 368 363 368 L219 368 L219 628 L403 628 C449 628 497 595 517 550 L524 535 L531 535 L531 660 L40 660 L40 650 L48 649 C74 647 92 625 92 596 L92 64 C92 35 74 13 48 11 L40 10 L40 0 L530 0 L533 16 C539 48 547 93 553 125 L546 125 L536 110 C508 65 454 32 408 32 L219 32 L219 336 L363 336 C401 336 437 315 449 286 L453 278 L461 278 Z " />
<glyph glyph-name="E_cap_circumflex" unicode="&#xca;" horiz-adv-x="617" d="M341 872 C336 881 322 904 304 904 C287 904 273 881 268 872 C268 872 182 704 179 701 L191 691 C244.768 754.849 281.251 790.582 304.653 810.478 C349.72 765.669 417 691 417 691 L429 701 C429 701 386 780 341 872 L341 872 Z M267 836 C263.995 842.14 264.336 844.201 267.198 843.144 L267 836 Z M461 278 L461 420 L453 420 L449 412 C438 386 401 368 363 368 L219 368 L219 628 L403 628 C449 628 497 595 517 550 L524 535 L531 535 L531 660 L40 660 L40 650 L48 649 C74 647 92 625 92 596 L92 64 C92 35 74 13 48 11 L40 10 L40 0 L530 0 L533 16 C539 48 547 93 553 125 L546 125 L536 110 C508 65 454 32 408 32 L219 32 L219 336 L363 336 C401 336 437 315 449 286 L453 278 L461 278 Z " />
<glyph glyph-name="E_cap_dieresis" unicode="&#xcb;" horiz-adv-x="617" d="M406 730 C447 730 476 759 476 800 C476 841 447 871 406 871 C365 871 336 841 336 800 C336 759 365 730 406 730 L406 730 Z M202 730 C243 730 272 759 272 800 C272 841 243 871 202 871 C161 871 132 841 132 800 C132 759 161 730 202 730 L202 730 Z M461 278 L461 420 L453 420 L449 412 C438 386 401 368 363 368 L219 368 L219 628 L403 628 C449 628 497 595 517 550 L524 535 L531 535 L531 660 L40 660 L40 650 L48 649 C74 647 92 625 92 596 L92 64 C92 35 74 13 48 11 L40 10 L40 0 L530 0 L533 16 C539 48 547 93 553 125 L546 125 L536 110 C508 65 454 32 408 32 L219 32 L219 336 L363 336 C401 336 437 315 449 286 L453 278 L461 278 Z " />
<glyph glyph-name="I_cap_grave" unicode="&#xcc;" horiz-adv-x="310" d="M71 861 C71 854 86 835 107 814 C138 775 227 690 227 690 L240 699 C240 699 197 820 166 859 C153 888 141 909 136 909 C117 909 71 875 71 861 L71 861 Z M271 10 L263 11 C237 13 219 35 219 64 L219 596 C219 625 237 647 263 649 L271 650 L271 660 L40 660 L40 650 L48 649 C74 647 92 625 92 596 L92 64 C92 35 74 13 48 11 L40 10 L40 0 L271 0 L271 10 Z " />
<glyph glyph-name="I_cap_acute" unicode="&#xcd;" horiz-adv-x="310" d="M94 690 C94 690 181 775 211 814 C231 836 246 855 246 861 C246 875 200 909 181 909 C177 909 165 888 152 859 C122 820 81 699 81 699 L94 690 Z M271 10 L263 11 C237 13 219 35 219 64 L219 596 C219 625 237 647 263 649 L271 650 L271 660 L40 660 L40 650 L48 649 C74 647 92 625 92 596 L92 64 C92 35 74 13 48 11 L40 10 L40 0 L271 0 L271 10 Z " />
<glyph glyph-name="I_cap_circumflex" unicode="&#xce;" horiz-adv-x="310" d="M192 872 C187 881 173 904 155 904 C138 904 124 881 119 872 C119 872 33 704 30 701 L42 691 C95.7678 754.849 132.251 790.582 155.653 810.478 C200.72 765.669 268 691 268 691 L280 701 C280 701 237 780 192 872 L192 872 Z M118 836 C114.995 842.14 115.336 844.201 118.198 843.144 L118 836 Z M271 10 L263 11 C237 13 219 35 219 64 L219 596 C219 625 237 647 263 649 L271 650 L271 660 L40 660 L40 650 L48 649 C74 647 92 625 92 596 L92 64 C92 35 74 13 48 11 L40 10 L40 0 L271 0 L271 10 Z " />
<glyph glyph-name="I_cap_dieresis" unicode="&#xcf;" horiz-adv-x="310" d="M257 730 C298 730 327 759 327 800 C327 841 298 871 257 871 C216 871 187 841 187 800 C187 759 216 730 257 730 L257 730 Z M53 730 C94 730 123 759 123 800 C123 841 94 871 53 871 C12 871 -17 841 -17 800 C-17 759 12 730 53 730 L53 730 Z M271 10 L263 11 C237 13 219 35 219 64 L219 596 C219 625 237 647 263 649 L271 650 L271 660 L40 660 L40 650 L48 649 C74 647 92 625 92 596 L92 64 C92 35 74 13 48 11 L40 10 L40 0 L271 0 L271 10 Z " />
<glyph glyph-name="N_cap_tilde" unicode="&#xd1;" horiz-adv-x="688" d="M194 755 C194 787 212 811 237 811 C290 811 368 748 421 748 C475 748 514 806 514 885 L495 885 C495 850 474 825 446 825 C393 825 315 887 262 887 C212 887 175 832 175 755 L194 755 Z M37 650 L45 649 C71 647 89 625 89 596 L89 64 C89 35 71 13 45 11 L37 10 L37 0 L179 0 L179 10 L171 11 C145 13 127 35 127 64 L127 549.943 C270.586 359.913 413.853 169.526 558 -20 L600 -20 L600 596 C600 625 618 647 644 649 L652 650 L652 660 L510 660 L510 650 L518 649 C544 647 562 625 562 596 L562 182.667 L204 660 L37 660 L37 650 Z " />
<glyph glyph-name="O_cap_grave" unicode="&#xd2;" horiz-adv-x="775" d="M182 330 C182 488 255 633 384 633 C512 633 584 488 584 330 C584 172 512 27 384 27 C255 27 182 172 182 330 L182 330 Z M42 330 C42 155 166 -5 384 -5 C602 -5 725 155 725 330 C725 505 602 665 384 665 C166 665 42 505 42 330 L42 330 Z M299 861 C299 855 315 836 336 814 C367 775 455 690 455 690 L468 699 C468 699 425 820 394 859 C381 888 370 909 365 909 C346 909 299 875 299 861 L299 861 Z " />
<glyph glyph-name="O_cap_acute" unicode="&#xd3;" horiz-adv-x="775" d="M361 690 C361 690 447 775 477 814 C498 837 513 856 513 861 C513 875 466 909 447 909 C443 909 432 888 419 859 C389 820 348 699 348 699 L361 690 Z M182 330 C182 488 255 633 384 633 C512 633 584 488 584 330 C584 172 512 27 384 27 C255 27 182 172 182 330 L182 330 Z M42 330 C42 155 166 -5 384 -5 C602 -5 725 155 725 330 C725 505 602 665 384 665 C166 665 42 505 42 330 L42 330 Z " />
<glyph glyph-name="O_cap_circumflex" unicode="&#xd4;" horiz-adv-x="775" d="M182 330 C182 488 255 633 384 633 C512 633 584 488 584 330 C584 172 512 27 384 27 C255 27 182 172 182 330 L182 330 Z M42 330 C42 155 166 -5 384 -5 C602 -5 725 155 725 330 C725 505 602 665 384 665 C166 665 42 505 42 330 L42 330 Z M420 872 C415 881 401 904 384 904 C366 904 352 881 347 872 C347 872 261 704 258 701 L270 691 C323.98 755.49 360.618 791.227 384.163 810.964 C429.231 766.211 497 691 497 691 L509 701 C509 701 464 782 420 872 L420 872 Z M347 836 C344.066 841.995 344.321 844.102 347 843.214 L347 836 Z " />
<glyph glyph-name="O_cap_tilde" unicode="&#xd5;" horiz-adv-x="775" d="M233 755 C233 787 251 811 276 811 C329 811 407 748 460 748 C514 748 553 806 553 885 L534 885 C534 850 513 825 485 825 C432 825 354 887 301 887 C251 887 214 832 214 755 L233 755 Z M182 330 C182 488 255 633 384 633 C512 633 584 488 584 330 C584 172 512 27 384 27 C255 27 182 172 182 330 L182 330 Z M42 330 C42 155 166 -5 384 -5 C602 -5 725 155 725 330 C725 505 602 665 384 665 C166 665 42 505 42 330 L42 330 Z " />
<glyph glyph-name="O_cap_dieresis" unicode="&#xd6;" horiz-adv-x="775" d="M485 730 C526 730 556 759 556 800 C556 841 526 871 485 871 C444 871 415 841 415 800 C415 759 444 730 485 730 L485 730 Z M282 730 C323 730 352 759 352 800 C352 841 323 871 282 871 C241 871 211 841 211 800 C211 759 241 730 282 730 L282 730 Z M182 330 C182 488 255 633 384 633 C512 633 584 488 584 330 C584 172 512 27 384 27 C255 27 182 172 182 330 L182 330 Z M42 330 C42 155 166 -5 384 -5 C602 -5 725 155 725 330 C725 505 602 665 384 665 C166 665 42 505 42 330 L42 330 Z " />
<glyph glyph-name="O_cap_slash" unicode="&#xd8;" horiz-adv-x="775" d="M62 -26 L159.916 70.0519 C216.239 23.6866 291.693 -5 384 -5 C602 -5 725 155 725 330 C725 411.142 698.556 489.059 648.46 549.298 L745 644 L705 686 L607.365 590.223 C551.284 636.427 476.125 665 384 665 C166 665 42 505 42 330 C42 248.966 68.5878 171.148 118.785 110.943 L22 16 L62 -26 Z M540.875 524.999 L201.971 192.545 C144.381 376.855 213.538 633 384 633 C453.819 633 506.976 589.859 540.875 524.999 L540.875 524.999 Z M564.455 466.891 C620.917 283.004 553.057 27 384 27 C313.747 27 260.102 70.0052 225.813 134.695 L564.455 466.891 Z " />
<glyph glyph-name="U_cap_grave" unicode="&#xd9;" horiz-adv-x="667" d="M248 861 C248 854 263 835 284 814 C315 775 404 690 404 690 L417 699 C417 699 374 820 343 859 C330 888 318 909 313 909 C294 909 248 875 248 861 L248 861 Z M647 660 L489 660 L489 650 L498 649 C527.53 647.095 548.893 624.32 550.853 592.776 L550 203 C550 108 491 40 356 40 C250 40 203 106 203 196 L202.129 600.217 C203.786 627.111 221.276 647.098 246 649 L254 650 L254 660 L23 660 L23 650 L31 649 C57 647 75 625 75 596 L75 221 C75 90 155 -5 337 -5 C512 -5 589 77 589 191 L589 588 C589 622 610 647 639 649 L647 650 L647 660 Z " />
<glyph glyph-name="U_cap_acute" unicode="&#xda;" horiz-adv-x="667" d="M332 690 C332 690 419 775 449 814 C469 836 484 855 484 861 C484 875 438 909 419 909 C415 909 403 888 390 859 C360 820 319 699 319 699 L332 690 Z M647 660 L489 660 L489 650 L498 649 C527.53 647.095 548.893 624.32 550.853 592.776 L550 203 C550 108 491 40 356 40 C250 40 203 106 203 196 L202.129 600.217 C203.786 627.111 221.276 647.098 246 649 L254 650 L254 660 L23 660 L23 650 L31 649 C57 647 75 625 75 596 L75 221 C75 90 155 -5 337 -5 C512 -5 589 77 589 191 L589 588 C589 622 610 647 639 649 L647 650 L647 660 Z " />
<glyph glyph-name="U_cap_circumflex" unicode="&#xdb;" horiz-adv-x="667" d="M369 872 C364 881 350 904 332 904 C315 904 301 881 296 872 C296 872 210 704 207 701 L219 691 C272.768 754.849 309.251 790.582 332.653 810.478 C377.72 765.669 445 691 445 691 L457 701 C457 701 414 780 369 872 L369 872 Z M295 836 C291.995 842.14 292.336 844.201 295.198 843.144 L295 836 Z M647 660 L489 660 L489 650 L498 649 C527.53 647.095 548.893 624.32 550.853 592.776 L550 203 C550 108 491 40 356 40 C250 40 203 106 203 196 L202.129 600.217 C203.786 627.111 221.276 647.098 246 649 L254 650 L254 660 L23 660 L23 650 L31 649 C57 647 75 625 75 596 L75 221 C75 90 155 -5 337 -5 C512 -5 589 77 589 191 L589 588 C589 622 610 647 639 649 L647 650 L647 660 Z " />
<glyph glyph-name="U_cap_dieresis" unicode="&#xdc;" horiz-adv-x="667" d="M434 730 C475 730 504 759 504 800 C504 841 475 871 434 871 C393 871 364 841 364 800 C364 759 393 730 434 730 L434 730 Z M230 730 C271 730 300 759 300 800 C300 841 271 871 230 871 C189 871 160 841 160 800 C160 759 189 730 230 730 L230 730 Z M647 660 L489 660 L489 650 L498 649 C527.53 647.095 548.893 624.32 550.853 592.776 L550 203 C550 108 491 40 356 40 C250 40 203 106 203 196 L202.129 600.217 C203.786 627.111 221.276 647.098 246 649 L254 650 L254 660 L23 660 L23 650 L31 649 C57 647 75 625 75 596 L75 221 C75 90 155 -5 337 -5 C512 -5 589 77 589 191 L589 588 C589 622 610 647 639 649 L647 650 L647 660 Z " />
<glyph glyph-name="Y_cap_acute" unicode="&#xdd;" horiz-adv-x="657" d="M326 690 C326 690 413 775 443 814 C463 836 478 855 478 861 C478 875 432 909 413 909 C409 909 397 888 384 859 C354 820 313 699 313 699 L326 690 Z M248 660 L1 660 L1 650 C24.2908 646.118 45.4092 633.913 65.9615 606.327 L261.118 288.544 L261.82 59.0166 C259.88 32.5101 242.489 12.8837 218 11 L210 10 L210 0 L441 0 L441 10 L433 11 C407 13 389 35 389 64 L389 326.695 L575.347 597.919 C598.509 630.36 626.104 645.729 656 650 L656 660 L504 660 L504 650 L514 649 C547.242 647.115 551.636 617.677 526.165 580 L373.398 352.986 L222.934 599.492 C207.599 626.751 215.054 647.081 240 649 L248 650 L248 660 Z " />
<glyph glyph-name="a_grave" unicode="&#xe0;" horiz-adv-x="527" d="M505 64 C498 53 484 45 460 45 C430 45 420 73 420 112 L420 352 C420 441 358 505 272 505 C156 505 62 456 49 388 L164 388 C174 437 208 473 246 473 C277 473 299 433 299 378 L299 265.005 C273.836 261.635 245.768 257.192 225 252 C115 225 36 163 36 105 C36 41 89 -4.99998 162 -4.99998 C216.085 -4.99998 268.984 11.6117 308.011 38.6166 C319.125 8.60657 341.568 -9.99998 381 -9.99998 C455 -9.99998 495 14 518 48 L505 64 Z M150 701 C150 695 166 676 187 654 C218 615 306 530 306 530 L319 539 C319 539 276 660 245 699 C232 728 221 749 216 749 C197 749 150 715 150 701 L150 701 Z M299 233.664 L299 100 C299 93.1366 299.23 86.4801 299.717 80.0652 C276.914 74.2812 249.46 71 220 71 C179 71 150 99 150 138 C150 173 181 205 224 216 C250.735 222.875 276.886 228.874 299 233.664 L299 233.664 Z " />
<glyph glyph-name="a_acute" unicode="&#xe1;" horiz-adv-x="527" d="M205 530 C205 530 291 615 321 654 C342 677 357 696 357 701 C357 715 310 749 291 749 C287 749 276 728 263 699 C233 660 192 539 192 539 L205 530 Z M505 64 C498 53 484 45 460 45 C430 45 420 73 420 112 L420 352 C420 441 358 505 272 505 C156 505 62 456 49 388 L164 388 C174 437 208 473 246 473 C277 473 299 433 299 378 L299 265.005 C273.836 261.635 245.768 257.192 225 252 C115 225 36 163 36 105 C36 41 89 -4.99998 162 -4.99998 C216.085 -4.99998 268.984 11.6117 308.011 38.6166 C319.125 8.60657 341.568 -9.99998 381 -9.99998 C455 -9.99998 495 14 518 48 L505 64 Z M299 233.664 L299 100 C299 93.1366 299.23 86.4801 299.717 80.0652 C276.914 74.2812 249.46 71 220 71 C179 71 150 99 150 138 C150 173 181 205 224 216 C250.735 222.875 276.886 228.874 299 233.664 L299 233.664 Z " />
<glyph glyph-name="a_circumflex" unicode="&#xe2;" horiz-adv-x="527" d="M505 64 C498 53 484 45 460 45 C430 45 420 73 420 112 L420 352 C420 441 358 505 272 505 C156 505 62 456 49 388 L164 388 C174 437 208 473 246 473 C277 473 299 433 299 378 L299 265.005 C273.836 261.635 245.768 257.192 225 252 C115 225 36 163 36 105 C36 41 89 -4.99998 162 -4.99998 C216.085 -4.99998 268.984 11.6117 308.011 38.6166 C319.125 8.60657 341.568 -9.99998 381 -9.99998 C455 -9.99998 495 14 518 48 L505 64 Z M271 712 C266 721 252 744 235 744 C217 744 203 721 198 712 C198 712 112 544 109 541 L121 531 C174.98 595.49 211.618 631.227 235.163 650.964 C280.231 606.212 348 531 348 531 L360 541 C360 541 315 622 271 712 L271 712 Z M198 676 C195.066 681.995 195.321 684.102 198 683.214 L198 676 Z M299 233.664 L299 100 C299 93.1366 299.23 86.4801 299.717 80.0652 C276.914 74.2812 249.46 71 220 71 C179 71 150 99 150 138 C150 173 181 205 224 216 C250.735 222.875 276.886 228.874 299 233.664 L299 233.664 Z " />
<glyph glyph-name="a_tilde" unicode="&#xe3;" horiz-adv-x="527" d="M84 595 C84 627 102 651 127 651 C180 651 258 588 311 588 C365 588 404 646 404 725 L385 725 C385 690 364 665 336 665 C283 665 205 727 152 727 C102 727 65 672 65 595 L84 595 Z M505 64 C498 53 484 45 460 45 C430 45 420 73 420 112 L420 352 C420 441 358 505 272 505 C156 505 62 456 49 388 L164 388 C174 437 208 473 246 473 C277 473 299 433 299 378 L299 265.005 C273.836 261.635 245.768 257.192 225 252 C115 225 36 163 36 105 C36 41 89 -4.99998 162 -4.99998 C216.085 -4.99998 268.984 11.6117 308.011 38.6166 C319.125 8.60657 341.568 -9.99998 381 -9.99998 C455 -9.99998 495 14 518 48 L505 64 Z M299 233.664 L299 100 C299 93.1366 299.23 86.4801 299.717 80.0652 C276.914 74.2812 249.46 71 220 71 C179 71 150 99 150 138 C150 173 181 205 224 216 C250.735 222.875 276.886 228.874 299 233.664 L299 233.664 Z " />
<glyph glyph-name="a_dieresis" unicode="&#xe4;" horiz-adv-x="527" d="M336 570 C377 570 407 599 407 640 C407 681 377 711 336 711 C295 711 266 681 266 640 C266 599 295 570 336 570 L336 570 Z M133 570 C174 570 203 599 203 640 C203 681 174 711 133 711 C92 711 62 681 62 640 C62 599 92 570 133 570 L133 570 Z M505 64 C498 53 484 45 460 45 C430 45 420 73 420 112 L420 352 C420 441 358 505 272 505 C156 505 62 456 49 388 L164 388 C174 437 208 473 246 473 C277 473 299 433 299 378 L299 265.005 C273.836 261.635 245.768 257.192 225 252 C115 225 36 163 36 105 C36 41 89 -4.99998 162 -4.99998 C216.085 -4.99998 268.984 11.6117 308.011 38.6166 C319.125 8.60657 341.568 -9.99998 381 -9.99998 C455 -9.99998 495 14 518 48 L505 64 Z M299 233.664 L299 100 C299 93.1366 299.23 86.4801 299.717 80.0652 C276.914 74.2812 249.46 71 220 71 C179 71 150 99 150 138 C150 173 181 205 224 216 C250.735 222.875 276.886 228.874 299 233.664 L299 233.664 Z " />
<glyph glyph-name="a_ring" unicode="&#xe5;" horiz-adv-x="527" d="M171 628 C171 666 198 694 235 694 C272 694 298 666 298 628 C298 593 268 561 235 561 C202 561 171 593 171 628 L171 628 Z M139 628 C139 579 185 535 235 535 C285 535 330 579 330 628 C330 681 290 720 235 720 C179 720 139 681 139 628 L139 628 Z M505 64 C498 53 484 45 460 45 C430 45 420 73 420 112 L420 352 C420 441 358 505 272 505 C156 505 62 456 49 388 L164 388 C174 437 208 473 246 473 C277 473 299 433 299 378 L299 265.005 C273.836 261.635 245.768 257.192 225 252 C115 225 36 163 36 105 C36 41 89 -4.99998 162 -4.99998 C216.085 -4.99998 268.984 11.6117 308.011 38.6166 C319.125 8.60657 341.568 -9.99998 381 -9.99998 C455 -9.99998 495 14 518 48 L505 64 Z M299 233.664 L299 100 C299 93.1366 299.23 86.4801 299.717 80.0652 C276.914 74.2812 249.46 71 220 71 C179 71 150 99 150 138 C150 173 181 205 224 216 C250.735 222.875 276.886 228.874 299 233.664 L299 233.664 Z " />
<glyph glyph-name="c_cedilla" unicode="&#xe7;" horiz-adv-x="537" d="M226.987 -72.0353 C256.676 -29.1276 279.842 -10.8999 290.895 -3.89127 C355.74 2.41991 435.023 35.0883 487 79 L476 91 C458 76 411 65 365 65 C253 65 172 152 172 273 C172 389 227 473 304 473 C344 473 375 444 379 404 C382 372 406 348 436 348 C466 348 487 369 487 399 C482 460 410 505 317 505 C162 505 50 389 50 229 C50 97.6227 135.852 1.70604 256.173 -4.66267 C249.103 -16.3147 229.383 -48.7531 204 -90 L212 -95 C229 -86 252 -80 267 -80 C298 -80 321 -103 321 -135 C321 -165 289 -187 244 -187 C215 -187 188 -181 179 -173 L172 -185 C194 -205 234 -220 267 -220 C339 -220 391 -184 391 -135 C391 -90 350 -57 294 -57 C272.793 -57 245.08 -63.5047 226.987 -72.0353 L226.987 -72.0353 Z " />
<glyph glyph-name="e_grave" unicode="&#xe8;" horiz-adv-x="543" d="M493 79 L482 91 C464 76 416 65 368 65 C244.171 65 163.526 163.177 172.911 300 L493 300 C493 419 409 505 294 505 C152 505 50 389 50 229 C50 93 143 -5 272 -5 C342 -5 435 30 493 79 L493 79 Z M210 701 C210 694 225 675 246 654 C277 615 366 530 366 530 L379 539 C379 539 336 660 305 699 C292 728 280 749 275 749 C256 749 210 715 210 701 L210 701 Z M385.957 393.69 L386 396 C386 395.226 385.986 394.456 385.957 393.69 L385.957 393.69 Z M331 337 L175.127 322.294 C186.918 412.052 230.929 473 288 473 C345 473 386 441 386 396 C385.341 364.35 363.176 340.017 331 337 L331 337 Z " />
<glyph glyph-name="e_acute" unicode="&#xe9;" horiz-adv-x="543" d="M264 530 C264 530 351 615 381 654 C401 676 416 695 416 701 C416 715 370 749 351 749 C347 749 335 728 322 699 C292 660 251 539 251 539 L264 530 Z M493 79 L482 91 C464 76 416 65 368 65 C244.171 65 163.526 163.177 172.911 300 L493 300 C493 419 409 505 294 505 C152 505 50 389 50 229 C50 93 143 -5 272 -5 C342 -5 435 30 493 79 L493 79 Z M385.957 393.69 L386 396 C386 395.226 385.986 394.456 385.957 393.69 L385.957 393.69 Z M331 337 L175.127 322.294 C186.918 412.052 230.929 473 288 473 C345 473 386 441 386 396 C385.341 364.35 363.176 340.017 331 337 L331 337 Z " />
<glyph glyph-name="e_circumflex" unicode="&#xea;" horiz-adv-x="543" d="M493 79 L482 91 C464 76 416 65 368 65 C244.171 65 163.526 163.177 172.911 300 L493 300 C493 419 409 505 294 505 C152 505 50 389 50 229 C50 93 143 -5 272 -5 C342 -5 435 30 493 79 L493 79 Z M331 712 C326 721 312 744 294 744 C277 744 263 721 258 712 C258 712 172 544 169 541 L181 531 C234.768 594.849 271.251 630.582 294.653 650.478 C339.72 605.669 407 531 407 531 L419 541 C419 541 376 620 331 712 L331 712 Z M257 676 C253.995 682.14 254.336 684.201 257.198 683.144 L257 676 Z M385.957 393.69 L386 396 C386 395.226 385.986 394.456 385.957 393.69 L385.957 393.69 Z M331 337 L175.127 322.294 C186.918 412.052 230.929 473 288 473 C345 473 386 441 386 396 C385.341 364.35 363.176 340.017 331 337 L331 337 Z " />
<glyph glyph-name="e_dieresis" unicode="&#xeb;" horiz-adv-x="543" d="M396 570 C437 570 466 599 466 640 C466 681 437 711 396 711 C355 711 326 681 326 640 C326 599 355 570 396 570 L396 570 Z M192 570 C233 570 262 599 262 640 C262 681 233 711 192 711 C151 711 122 681 122 640 C122 599 151 570 192 570 L192 570 Z M493 79 L482 91 C464 76 416 65 368 65 C244.171 65 163.526 163.177 172.911 300 L493 300 C493 419 409 505 294 505 C152 505 50 389 50 229 C50 93 143 -5 272 -5 C342 -5 435 30 493 79 L493 79 Z M385.957 393.69 L386 396 C386 395.226 385.986 394.456 385.957 393.69 L385.957 393.69 Z M331 337 L175.127 322.294 C186.918 412.052 230.929 473 288 473 C345 473 386 441 386 396 C385.341 364.35 363.176 340.017 331 337 L331 337 Z " />
<glyph glyph-name="i_grave" unicode="&#xec;" horiz-adv-x="308" d="M70 701 C70 694 85 675 106 654 C137 615 226 530 226 530 L239 539 C239 539 196 660 165 699 C152 728 140 749 135 749 C116 749 70 715 70 701 L70 701 Z M264 10 L256 11 C230 13 212 35 212 64 L212 500 L189 500 L45 455 L45 449 C84.4169 434.219 97 423.467 97 378 L97 64 C97 35 79 13 53 11 L45 10 L45 0 L264 0 L264 10 Z " />
<glyph glyph-name="i_acute" unicode="&#xed;" horiz-adv-x="308" d="M78 530 C78 530 165 615 195 654 C215 676 230 695 230 701 C230 715 184 749 165 749 C161 749 149 728 136 699 C106 660 65 539 65 539 L78 530 Z M264 10 L256 11 C230 13 212 35 212 64 L212 500 L189 500 L45 455 L45 449 C84.4169 434.219 97 423.467 97 378 L97 64 C97 35 79 13 53 11 L45 10 L45 0 L264 0 L264 10 Z " />
<glyph glyph-name="i_circumflex" unicode="&#xee;" horiz-adv-x="308" d="M191 712 C186 721 172 744 154 744 C137 744 123 721 118 712 C118 712 32 544 29 541 L41 531 C94.7678 594.849 131.251 630.582 154.653 650.478 C199.72 605.669 267 531 267 531 L279 541 C279 541 236 620 191 712 L191 712 Z M117 676 C113.995 682.14 114.336 684.201 117.198 683.144 L117 676 Z M264 10 L256 11 C230 13 212 35 212 64 L212 500 L189 500 L45 455 L45 449 C84.4169 434.219 97 423.467 97 378 L97 64 C97 35 79 13 53 11 L45 10 L45 0 L264 0 L264 10 Z " />
<glyph glyph-name="i_dieresis" unicode="&#xef;" horiz-adv-x="308" d="M256 570 C297 570 326 599 326 640 C326 681 297 711 256 711 C215 711 186 681 186 640 C186 599 215 570 256 570 L256 570 Z M52 570 C93 570 122 599 122 640 C122 681 93 711 52 711 C11 711 -18 681 -18 640 C-18 599 11 570 52 570 L52 570 Z M264 10 L256 11 C230 13 212 35 212 64 L212 500 L189 500 L45 455 L45 449 C84.4169 434.219 97 423.467 97 378 L97 64 C97 35 79 13 53 11 L45 10 L45 0 L264 0 L264 10 Z " />
<glyph glyph-name="n_tilde" unicode="&#xf1;" horiz-adv-x="604" d="M154 595 C154 627 172 651 197 651 C250 651 328 588 381 588 C435 588 474 646 474 725 L455 725 C455 690 434 665 406 665 C353 665 275 727 222 727 C172 727 135 672 135 595 L154 595 Z M346 0 L565 0 L565 10 L557 11 C531 13 513 35 513 64 L513 338 C513 435 477 505 396 505 C333.086 505 258.532 475.07 211 431.888 L211 500 L188 500 L44 455 L44 449 C83.4169 434.219 96 423.467 96 378 L96 64 C96 35 78 13 52 11 L44 10 L44 0 L263 0 L263 10 L255 11 C229 13 211 35 211 64 L211 414.809 C230.773 422.699 267.325 428 308 428 C371 428 398 385 398 326 L398 64 C398 35 380 13 354 11 L346 10 L346 0 Z " />
<glyph glyph-name="o_grave" unicode="&#xf2;" horiz-adv-x="623" d="M178 250 C178 383 234 479 312 479 C389 479 445 383 445 250 C445 117 389 21 312 21 C234 21 178 117 178 250 L178 250 Z M50 250 C50 102 160 -5 312 -5 C463 -5 573 102 573 250 C573 398 463 505 312 505 C160 505 50 398 50 250 L50 250 Z M227 701 C227 695 243 676 264 654 C295 615 383 530 383 530 L396 539 C396 539 353 660 322 699 C309 728 298 749 293 749 C274 749 227 715 227 701 L227 701 Z " />
<glyph glyph-name="o_acute" unicode="&#xf3;" horiz-adv-x="623" d="M282 530 C282 530 368 615 398 654 C419 677 434 696 434 701 C434 715 387 749 368 749 C364 749 353 728 340 699 C310 660 269 539 269 539 L282 530 Z M178 250 C178 383 234 479 312 479 C389 479 445 383 445 250 C445 117 389 21 312 21 C234 21 178 117 178 250 L178 250 Z M50 250 C50 102 160 -5 312 -5 C463 -5 573 102 573 250 C573 398 463 505 312 505 C160 505 50 398 50 250 L50 250 Z " />
<glyph glyph-name="o_circumflex" unicode="&#xf4;" horiz-adv-x="623" d="M178 250 C178 383 234 479 312 479 C389 479 445 383 445 250 C445 117 389 21 312 21 C234 21 178 117 178 250 L178 250 Z M50 250 C50 102 160 -5 312 -5 C463 -5 573 102 573 250 C573 398 463 505 312 505 C160 505 50 398 50 250 L50 250 Z M348 712 C343 721 329 744 312 744 C294 744 280 721 275 712 C275 712 189 544 186 541 L198 531 C251.98 595.49 288.618 631.227 312.163 650.964 C357.231 606.211 425 531 425 531 L437 541 C437 541 392 622 348 712 L348 712 Z M275 676 C272.066 681.995 272.321 684.102 275 683.214 L275 676 Z " />
<glyph glyph-name="o_tilde" unicode="&#xf5;" horiz-adv-x="623" d="M161 595 C161 627 179 651 204 651 C257 651 335 588 388 588 C442 588 481 646 481 725 L462 725 C462 690 441 665 413 665 C360 665 282 727 229 727 C179 727 142 672 142 595 L161 595 Z M178 250 C178 383 234 479 312 479 C389 479 445 383 445 250 C445 117 389 21 312 21 C234 21 178 117 178 250 L178 250 Z M50 250 C50 102 160 -5 312 -5 C463 -5 573 102 573 250 C573 398 463 505 312 505 C160 505 50 398 50 250 L50 250 Z " />
<glyph glyph-name="o_dieresis" unicode="&#xf6;" horiz-adv-x="623" d="M413 570 C454 570 484 599 484 640 C484 681 454 711 413 711 C372 711 343 681 343 640 C343 599 372 570 413 570 L413 570 Z M210 570 C251 570 280 599 280 640 C280 681 251 711 210 711 C169 711 139 681 139 640 C139 599 169 570 210 570 L210 570 Z M178 250 C178 383 234 479 312 479 C389 479 445 383 445 250 C445 117 389 21 312 21 C234 21 178 117 178 250 L178 250 Z M50 250 C50 102 160 -5 312 -5 C463 -5 573 102 573 250 C573 398 463 505 312 505 C160 505 50 398 50 250 L50 250 Z " />
<glyph glyph-name="o_slash" unicode="&#xf8;" horiz-adv-x="623" d="M63 -19 L138.153 54.2849 C183.388 16.7823 243.419 -5 312 -5 C463 -5 573 102 573 250 C573 316.713 550.65 375.095 512.268 419.101 L586 491 L560 519 L484.923 445.789 C439.834 483.246 380.085 505 312 505 C160 505 50 398 50 250 C50 183.312 72.334 124.948 110.781 80.9471 L37 9.00002 L63 -19 Z M421.887 384.32 L188.332 156.57 C181.631 184.665 178 216.133 178 250 C178 383 234 479 312 479 C359.214 479 398.533 442.906 421.887 384.32 L421.887 384.32 Z M434.681 343.443 C441.368 315.345 445 283.872 445 250 C445 117 389 21 312 21 C264.162 21 224.599 57.1106 201.155 115.721 L434.681 343.443 Z " />
<glyph glyph-name="u_grave" unicode="&#xf9;" horiz-adv-x="569" d="M190 701 C190 695 206 676 227 654 C258 615 346 530 346 530 L359 539 C359 539 316 660 285 699 C272 728 261 749 256 749 C237 749 190 715 190 701 L190 701 Z M14 490 L22 489 C48 487 66 465 66 436 L66 154 C66 62 116 -5 205 -5 C258.632 -5 317.222 27.226 368 73.651 L368 0 L391 0 L535 45 L535 51 C495.583 65.7813 483 76.5334 483 122 L483 500 L316 500 L316 490 L324 489 C350 487 368 465 368 436 L368 91.7186 C352.286 79.4877 327.501 71 295 71 C222 71 180 111 180 166 L181 500 L14 500 L14 490 Z " />
<glyph glyph-name="u_acute" unicode="&#xfa;" horiz-adv-x="569" d="M245 530 C245 530 331 615 361 654 C382 677 397 696 397 701 C397 715 350 749 331 749 C327 749 316 728 303 699 C273 660 232 539 232 539 L245 530 Z M14 490 L22 489 C48 487 66 465 66 436 L66 154 C66 62 116 -5 205 -5 C258.632 -5 317.222 27.226 368 73.651 L368 0 L391 0 L535 45 L535 51 C495.583 65.7813 483 76.5334 483 122 L483 500 L316 500 L316 490 L324 489 C350 487 368 465 368 436 L368 91.7186 C352.286 79.4877 327.501 71 295 71 C222 71 180 111 180 166 L181 500 L14 500 L14 490 Z " />
<glyph glyph-name="u_circumflex" unicode="&#xfb;" horiz-adv-x="569" d="M311 712 C306 721 292 744 275 744 C257 744 243 721 238 712 C238 712 152 544 149 541 L161 531 C214.98 595.49 251.618 631.227 275.163 650.964 C320.231 606.211 388 531 388 531 L400 541 C400 541 355 622 311 712 L311 712 Z M238 676 C235.066 681.995 235.321 684.102 238 683.214 L238 676 Z M14 490 L22 489 C48 487 66 465 66 436 L66 154 C66 62 116 -5 205 -5 C258.632 -5 317.222 27.226 368 73.651 L368 0 L391 0 L535 45 L535 51 C495.583 65.7813 483 76.5334 483 122 L483 500 L316 500 L316 490 L324 489 C350 487 368 465 368 436 L368 91.7186 C352.286 79.4877 327.501 71 295 71 C222 71 180 111 180 166 L181 500 L14 500 L14 490 Z " />
<glyph glyph-name="u_dieresis" unicode="&#xfc;" horiz-adv-x="569" d="M376 570 C417 570 447 599 447 640 C447 681 417 711 376 711 C335 711 306 681 306 640 C306 599 335 570 376 570 L376 570 Z M173 570 C214 570 243 599 243 640 C243 681 214 711 173 711 C132 711 102 681 102 640 C102 599 132 570 173 570 L173 570 Z M14 490 L22 489 C48 487 66 465 66 436 L66 154 C66 62 116 -5 205 -5 C258.632 -5 317.222 27.226 368 73.651 L368 0 L391 0 L535 45 L535 51 C495.583 65.7813 483 76.5334 483 122 L483 500 L316 500 L316 490 L324 489 C350 487 368 465 368 436 L368 91.7186 C352.286 79.4877 327.501 71 295 71 C222 71 180 111 180 166 L181 500 L14 500 L14 490 Z " />
<glyph glyph-name="y_dieresis" unicode="&#xff;" horiz-adv-x="504" d="M374 570 C415 570 445 599 445 640 C445 681 415 711 374 711 C333 711 304 681 304 640 C304 599 333 570 374 570 L374 570 Z M171 570 C212 570 241 599 241 640 C241 681 212 711 171 711 C130 711 100 681 100 640 C100 599 130 570 171 570 L171 570 Z M562 500 L425 500 L425 490 L432 489 C453.378 487.141 461.797 468.003 453.242 442.026 L326.457 132.646 L189.826 436 C177.31 464.662 183.784 487.117 206 489 L213 490 L213 500 L-17 500 L-17 490 C14.407 486.074 41.2245 471.468 58.3264 439.301 L259.851 7.46262 C251.51 -8.07231 238.464 -34.2401 229 -62 C200 -126 172 -154 136 -154 C136 -154 72 -129 46 -129 C12 -129 -12 -150 -12 -178 C-12 -208 20 -230 65 -230 C151 -230 210 -182 259 -72 C270 -39 287 -10 287 -10 L489.515 442.994 C506.366 473.178 531.749 486.219 562 490 L562 500 Z " />
<glyph glyph-name="A_cap_macron" unicode="&#x100;" horiz-adv-x="688" d="M161 761 L477 761 L477 825 L161 825 L161 761 Z M429 0 L680 0 L680 10 L673 10 C652.266 8.11511 627.98 28.4352 612.696 58.4042 L335 675 L303 675 L66.8711 54.8172 C51.6793 25.7583 28.1706 13.7713 -2 10 L-2 0 L165 0 L165 10 L154 11 C118.635 12.8136 104.463 40.5214 116.698 76 L173.551 232 L398.337 232 L473.232 61.0866 C484.169 33.537 471.987 12.9325 443 11 L429 10 L429 0 Z M384.315 264 L185.213 264 L275.616 512.056 L384.315 264 Z " />
<glyph glyph-name="a_macron" unicode="&#x101;" horiz-adv-x="527" d="M77 601 L392 601 L392 665 L77 665 L77 601 Z M505 64 C498 53 484 45 460 45 C430 45 420 73 420 112 L420 352 C420 441 358 505 272 505 C156 505 62 456 49 388 L164 388 C174 437 208 473 246 473 C277 473 299 433 299 378 L299 265.005 C273.836 261.635 245.768 257.192 225 252 C115 225 36 163 36 105 C36 41 89 -4.99998 162 -4.99998 C216.085 -4.99998 268.984 11.6117 308.011 38.6166 C319.125 8.60657 341.568 -9.99998 381 -9.99998 C455 -9.99998 495 14 518 48 L505 64 Z M299 233.664 L299 100 C299 93.1366 299.23 86.4801 299.717 80.0652 C276.914 74.2812 249.46 71 220 71 C179 71 150 99 150 138 C150 173 181 205 224 216 C250.735 222.875 276.886 228.874 299 233.664 L299 233.664 Z " />
<glyph glyph-name="A_cap_breve" unicode="&#x102;" horiz-adv-x="688" d="M179 870 C212 792 271 736 319 736 C367 736 426 792 459 870 L440 878 C424 840 373 812 319 812 C265 812 214 840 198 878 L179 870 Z M429 0 L680 0 L680 10 L673 10 C652.266 8.11511 627.98 28.4352 612.696 58.4042 L335 675 L303 675 L66.8711 54.8172 C51.6793 25.7583 28.1706 13.7713 -2 10 L-2 0 L165 0 L165 10 L154 11 C118.635 12.8136 104.463 40.5214 116.698 76 L173.551 232 L398.337 232 L473.232 61.0866 C484.169 33.537 471.987 12.9325 443 11 L429 10 L429 0 Z M384.315 264 L185.213 264 L275.616 512.056 L384.315 264 Z " />
<glyph glyph-name="a_breve" unicode="&#x103;" horiz-adv-x="527" d="M94 680 C127 602 186 546 235 546 C283 546 342 602 375 680 L356 688 C340 650 289 622 235 622 C180 622 129 650 113 688 L94 680 Z M505 64 C498 53 484 45 460 45 C430 45 420 73 420 112 L420 352 C420 441 358 505 272 505 C156 505 62 456 49 388 L164 388 C174 437 208 473 246 473 C277 473 299 433 299 378 L299 265.005 C273.836 261.635 245.768 257.192 225 252 C115 225 36 163 36 105 C36 41 89 -4.99998 162 -4.99998 C216.085 -4.99998 268.984 11.6117 308.011 38.6166 C319.125 8.60657 341.568 -9.99998 381 -9.99998 C455 -9.99998 495 14 518 48 L505 64 Z M299 233.664 L299 100 C299 93.1366 299.23 86.4801 299.717 80.0652 C276.914 74.2812 249.46 71 220 71 C179 71 150 99 150 138 C150 173 181 205 224 216 C250.735 222.875 276.886 228.874 299 233.664 L299 233.664 Z " />
<glyph glyph-name="A_cap_ogonek" unicode="&#x104;" horiz-adv-x="688" d="M429 0 L452.109 0 C396.381 -37.1911 327 -102.929 327 -154 C327 -202 385 -236 466 -236 C501 -236 537 -223 552 -206 L544 -196 C540 -201 518 -204 491 -204 C437 -204 398 -178 398 -142 C398 -81 470 -11 500 0 L680 0 L680 10 L673 10 C652.266 8.11511 627.98 28.4352 612.696 58.4042 L335 675 L303 675 L66.8711 54.8172 C51.6793 25.7583 28.1706 13.7713 -2 10 L-2 0 L165 0 L165 10 L154 11 C118.635 12.8136 104.463 40.5214 116.698 76 L173.551 232 L398.337 232 L473.232 61.0866 C484.169 33.537 471.987 12.9325 443 11 L429 10 L429 0 Z M384.315 264 L185.213 264 L275.616 512.056 L384.315 264 Z " />
<glyph glyph-name="a_ogonek" unicode="&#x105;" horiz-adv-x="527" d="M505 64 C498 53 484 45 460 45 C430 45 420 73 420 112 L420 352 C420 441 358 505 272 505 C156 505 62 456 49 388 L164 388 C174 437 208 473 246 473 C277 473 299 433 299 378 L299 265.005 C273.836 261.635 245.768 257.192 225 252 C115 225 36 163 36 105 C36 41 89 -4.99998 162 -4.99998 C216.085 -4.99998 268.984 11.6117 308.011 38.6166 C322.415 -0.277267 353.819 -13.5707 407.076 -8.91223 C361.742 -47.4263 319 -98.5569 319 -141 C319 -196 377 -236 458 -236 C493 -236 529 -223 544 -206 L536 -196 C532 -201 510 -204 483 -204 C429 -204 390 -172 390 -128 C390 -76.2678 437.043 -18.6552 470.922 7.34032 C478.422 10.9881 485.169 15.1373 491.249 19.7152 C491.565 19.8391 492 19.8332 492 20.2853 C502.535 28.3509 511.045 37.7182 518 48 L505 64 Z M299 233.664 L299 100 C299 93.1366 299.23 86.4801 299.717 80.0652 C276.914 74.2812 249.46 71 220 71 C179 71 150 99 150 138 C150 173 181 205 224 216 C250.735 222.875 276.886 228.874 299 233.664 L299 233.664 Z " />
<glyph glyph-name="C_cap_acute" unicode="&#x106;" horiz-adv-x="747" d="M380 690 C380 690 467 775 497 814 C517 836 532 855 532 861 C532 875 486 909 467 909 C463 909 451 888 438 859 C408 820 367 699 367 699 L380 690 Z M687 53 L678.408 67.6566 C678.607 67.7711 678.804 67.8855 679 68 L687 53 Z M678 168 C674 160 670 150 666 142 C642.553 91.3549 583.043 47.7466 521.291 35.0989 C489.327 29.9096 456.588 27 426 27 C284 27 182 154 182 330 C182 506 284 633 426 633 C433.983 633 541.897 626.082 541 621 C590 612 642 568 666 518 C670 510 674 500 678 492 L687 492 L687 607 L679 593 C678.948 593.029 678.896 593.057 678.844 593.086 L687 607 C629 641 519 665 426 665 C203 665 42 524 42 330 C42 136 203 -4.99998 426 -4.99998 C519 -4.99998 629 19 687 53 L687 168 L678 168 Z " />
<glyph glyph-name="c_acute" unicode="&#x107;" horiz-adv-x="537" d="M241 530 C241 530 328 615 358 654 C378 676 393 695 393 701 C393 715 347 749 328 749 C324 749 312 728 299 699 C269 660 228 539 228 539 L241 530 Z M487 79 L476 91 C458 76 411 65 365 65 C253 65 172 152 172 273 C172 389 227 473 304 473 C344 473 375 444 379 404 C382 372 406 348 436 348 C466 348 487 369 487 399 C482 460 410 505 317 505 C162 505 50 389 50 229 C50 93 142 -5 269 -5 C337 -5 429 30 487 79 L487 79 Z " />
<glyph glyph-name="C_cap_circumflex" unicode="&#x108;" horiz-adv-x="747" d="M463 872 C458 881 444 904 426 904 C409 904 395 881 390 872 C390 872 304 704 301 701 L313 691 C366.768 754.849 403.251 790.582 426.653 810.478 C471.72 765.669 539 691 539 691 L551 701 C551 701 508 780 463 872 L463 872 Z M389 836 C385.995 842.14 386.336 844.201 389.198 843.144 L389 836 Z M687 53 L678.408 67.6566 C678.607 67.7711 678.804 67.8855 679 68 L687 53 Z M678 168 C674 160 670 150 666 142 C642.553 91.3549 583.043 47.7466 521.291 35.0989 C489.327 29.9096 456.588 27 426 27 C284 27 182 154 182 330 C182 506 284 633 426 633 C433.983 633 541.897 626.082 541 621 C590 612 642 568 666 518 C670 510 674 500 678 492 L687 492 L687 607 L679 593 C678.948 593.029 678.896 593.057 678.844 593.086 L687 607 C629 641 519 665 426 665 C203 665 42 524 42 330 C42 136 203 -4.99998 426 -4.99998 C519 -4.99998 629 19 687 53 L687 168 L678 168 Z " />
<glyph glyph-name="C_cap_dot_accent" unicode="&#x10a;" horiz-adv-x="747" d="M426 730 C467 730 496 759 496 800 C496 841 467 871 426 871 C385 871 356 841 356 800 C356 759 385 730 426 730 L426 730 Z M687 53 L678.408 67.6566 C678.607 67.7711 678.804 67.8855 679 68 L687 53 Z M678 168 C674 160 670 150 666 142 C642.553 91.3549 583.043 47.7466 521.291 35.0989 C489.327 29.9096 456.588 27 426 27 C284 27 182 154 182 330 C182 506 284 633 426 633 C433.983 633 541.897 626.082 541 621 C590 612 642 568 666 518 C670 510 674 500 678 492 L687 492 L687 607 L679 593 C678.948 593.029 678.896 593.057 678.844 593.086 L687 607 C629 641 519 665 426 665 C203 665 42 524 42 330 C42 136 203 -4.99998 426 -4.99998 C519 -4.99998 629 19 687 53 L687 168 L678 168 Z " />
<glyph glyph-name="c_dot_accent" unicode="&#x10b;" horiz-adv-x="537" d="M317 570 C358 570 387 599 387 640 C387 681 358 711 317 711 C276 711 247 681 247 640 C247 599 276 570 317 570 L317 570 Z M487 79 L476 91 C458 76 411 65 365 65 C253 65 172 152 172 273 C172 389 227 473 304 473 C344 473 375 444 379 404 C382 372 406 348 436 348 C466 348 487 369 487 399 C482 460 410 505 317 505 C162 505 50 389 50 229 C50 93 142 -5 269 -5 C337 -5 429 30 487 79 L487 79 Z " />
<glyph glyph-name="C_cap_caron" unicode="&#x10c;" horiz-adv-x="747" d="M539 929 C539 929 471.72 854.331 426.653 809.522 C403.251 829.418 366.768 865.151 313 929 L301 919 C304 916 390 748 390 748 C395 739 409 716 426 716 C444 716 458 739 463 748 C508 840 551 919 551 919 L539 929 Z M389.198 776.856 C386.336 775.799 385.995 777.86 389 784 L389.198 776.856 Z M687 53 L678.408 67.6566 C678.607 67.7711 678.804 67.8856 679 68 L687 53 Z M678 168 C674 160 670 150 666 142 C642.553 91.3549 583.043 47.7466 521.291 35.099 C489.327 29.9097 456.588 27 426 27 C284 27 182 154 182 330 C182 506 284 633 426 633 C433.983 633 541.897 626.082 541 621 C590 612 642 568 666 518 C670 510 674 500 678 492 L687 492 L687 607 L679 593 C678.948 593.029 678.896 593.057 678.844 593.086 L687 607 C629 641 519 665 426 665 C203 665 42 524 42 330 C42 136 203 -4.99997 426 -4.99997 C519 -4.99997 629 19 687 53 L687 168 L678 168 Z " />
<glyph glyph-name="c_caron" unicode="&#x10d;" horiz-adv-x="537" d="M430 769 C430 769 362.72 694.331 317.653 649.522 C294.251 669.418 257.768 705.151 204 769 L192 759 C195 756 281 588 281 588 C286 579 300 556 317 556 C335 556 349 579 354 588 C399 680 442 759 442 759 L430 769 Z M487 79 L476 91 C458 76 411 65 365 65 C253 65 172 152 172 273 C172 389 227 473 304 473 C344 473 375 444 379 404 C382 372 406 348 436 348 C466 348 487 369 487 399 C482 460 410 505 317 505 C162 505 50 389 50 229 C50 93 142 -5 269 -5 C337 -5 429 30 487 79 L487 79 Z M280.198 616.856 C277.336 615.799 276.995 617.86 280 624 L280.198 616.856 Z " />
<glyph glyph-name="D_cap_caron" unicode="&#x10e;" horiz-adv-x="759" d="M446 929 C446 929 378.72 854.331 333.653 809.522 C310.251 829.418 273.768 865.151 220 929 L208 919 C211 916 297 748 297 748 C302 739 316 716 333 716 C351 716 365 739 370 748 C415 840 458 919 458 919 L446 929 Z M296.198 776.856 C293.336 775.799 292.995 777.86 296 784 L296.198 776.856 Z M33 650 L41 649 C67 647 85 625 85 596 L85 64 C85 35 67 13 41 11 L33 10 L33 1.52588e-005 L365 1.52588e-005 C565 1.52588e-005 709 139 709 330 C709 521 549 660 327 660 L33 660 L33 650 Z M212 32 L212 628 L327 628 C474 628 581 503 581 330 C581 157 490 32 365 32 L212 32 Z " />
<glyph glyph-name="d_caron" unicode="&#x10f;" horiz-adv-x="626" d="M640 751 C616 751 598 687 591 643 L562 477 L577 472 L663 616 C691 663 712 717 712 725 C712 743 661 751 640 751 L640 751 Z M401 598 L401 464.34 C372.009 488.609 334.172 505 296 505 C156 505 54 385 54 219 C54 89 137 -5.00002 251 -5.00002 C295.01 -5.00002 355.153 22.4273 401 62.0668 L401 -1.52588e-005 L424 -1.52588e-005 L568 45 L568 51 C528.583 65.7813 516 76.5334 516 122 L516 720 L493 720 L349 675 L349 669 C388.417 654.219 401 643.467 401 598 L401 598 Z M401 80.5293 C384.804 71.0542 350.537 65 314 65 C233 65 174 148 174 263 C174 385 223 474 290 474 C333.572 474 376.538 449.784 401 418.781 L401 80.5293 Z " />
<glyph glyph-name="E_cap_macron" unicode="&#x112;" horiz-adv-x="617" d="M146 761 L462 761 L462 825 L146 825 L146 761 Z M461 278 L461 420 L453 420 L449 412 C438 386 401 368 363 368 L219 368 L219 628 L403 628 C449 628 497 595 517 550 L524 535 L531 535 L531 660 L40 660 L40 650 L48 649 C74 647 92 625 92 596 L92 64 C92 35 74 13 48 11 L40 10 L40 0 L530 0 L533 16 C539 48 547 93 553 125 L546 125 L536 110 C508 65 454 32 408 32 L219 32 L219 336 L363 336 C401 336 437 315 449 286 L453 278 L461 278 Z " />
<glyph glyph-name="e_macron" unicode="&#x113;" horiz-adv-x="543" d="M136 601 L452 601 L452 665 L136 665 L136 601 Z M493 79 L482 91 C464 76 416 65 368 65 C244.171 65 163.526 163.177 172.911 300 L493 300 C493 419 409 505 294 505 C152 505 50 389 50 229 C50 93 143 -5 272 -5 C342 -5 435 30 493 79 L493 79 Z M385.957 393.69 L386 396 C386 395.226 385.986 394.456 385.957 393.69 L385.957 393.69 Z M331 337 L175.127 322.294 C186.918 412.052 230.929 473 288 473 C345 473 386 441 386 396 C385.341 364.35 363.176 340.017 331 337 L331 337 Z " />
<glyph glyph-name="E_cap_breve" unicode="&#x114;" horiz-adv-x="617" d="M164 870 C197 792 256 736 304 736 C352 736 411 792 444 870 L425 878 C409 840 358 812 304 812 C250 812 199 840 183 878 L164 870 Z M461 278 L461 420 L453 420 L449 412 C438 386 401 368 363 368 L219 368 L219 628 L403 628 C449 628 497 595 517 550 L524 535 L531 535 L531 660 L40 660 L40 650 L48 649 C74 647 92 625 92 596 L92 64 C92 35 74 13 48 11 L40 10 L40 0 L530 0 L533 16 C539 48 547 93 553 125 L546 125 L536 110 C508 65 454 32 408 32 L219 32 L219 336 L363 336 C401 336 437 315 449 286 L453 278 L461 278 Z " />
<glyph glyph-name="e_breve" unicode="&#x115;" horiz-adv-x="543" d="M154 710 C187 632 246 576 294 576 C342 576 401 632 434 710 L415 718 C399 680 348 652 294 652 C240 652 189 680 173 718 L154 710 Z M493 79 L482 91 C464 76 416 65 368 65 C244.171 65 163.526 163.177 172.911 300 L493 300 C493 419 409 505 294 505 C152 505 50 389 50 229 C50 93 143 -5 272 -5 C342 -5 435 30 493 79 L493 79 Z M385.957 393.69 L386 396 C386 395.226 385.986 394.456 385.957 393.69 L385.957 393.69 Z M331 337 L175.127 322.294 C186.918 412.052 230.929 473 288 473 C345 473 386 441 386 396 C385.341 364.35 363.176 340.017 331 337 L331 337 Z " />
<glyph glyph-name="E_cap_dot_accent" unicode="&#x116;" horiz-adv-x="617" d="M304 730 C345 730 374 759 374 800 C374 841 345 871 304 871 C263 871 234 841 234 800 C234 759 263 730 304 730 L304 730 Z M461 278 L461 420 L453 420 L449 412 C438 386 401 368 363 368 L219 368 L219 628 L403 628 C449 628 497 595 517 550 L524 535 L531 535 L531 660 L40 660 L40 650 L48 649 C74 647 92 625 92 596 L92 64 C92 35 74 13 48 11 L40 10 L40 0 L530 0 L533 16 C539 48 547 93 553 125 L546 125 L536 110 C508 65 454 32 408 32 L219 32 L219 336 L363 336 C401 336 437 315 449 286 L453 278 L461 278 Z " />
<glyph glyph-name="e_dot_accent" unicode="&#x117;" horiz-adv-x="543" d="M294 570 C335 570 364 599 364 640 C364 681 335 711 294 711 C253 711 224 681 224 640 C224 599 253 570 294 570 L294 570 Z M493 79 L482 91 C464 76 416 65 368 65 C244.171 65 163.526 163.177 172.911 300 L493 300 C493 419 409 505 294 505 C152 505 50 389 50 229 C50 93 143 -5 272 -5 C342 -5 435 30 493 79 L493 79 Z M385.957 393.69 L386 396 C386 395.226 385.986 394.456 385.957 393.69 L385.957 393.69 Z M331 337 L175.127 322.294 C186.918 412.052 230.929 473 288 473 C345 473 386 441 386 396 C385.341 364.35 363.176 340.017 331 337 L331 337 Z " />
<glyph glyph-name="E_cap_ogonek" unicode="&#x118;" horiz-adv-x="617" d="M461 278 L461 420 L453 420 L449 412 C438 386 401 368 363 368 L219 368 L219 628 L403 628 C449 628 497 595 517 550 L524 535 L531 535 L531 660 L40 660 L40 650 L48 649 C74 647 92 625 92 596 L92 64 C92 35 74 13 48 11 L40 10 L40 0 L478.109 0 C422.381 -37.1911 353 -102.929 353 -154 C353 -202 411 -236 492 -236 C527 -236 563 -223 578 -206 L570 -196 C566 -201 544 -204 517 -204 C463 -204 424 -178 424 -142 C424 -81 496 -11 526 0 L530 0 L533 16 C539 48 547 93 553 125 L546 125 L536 110 C508 65 454 32 408 32 L219 32 L219 336 L363 336 C401 336 437 315 449 286 L453 278 L461 278 Z " />
<glyph glyph-name="e_ogonek" unicode="&#x119;" horiz-adv-x="543" d="M399 23 L399 23.3834 C433.888 37.8365 466.969 57.0083 493 79 L482 91 C464 76 416 65 368 65 C244.171 65 163.526 163.177 172.911 300 L493 300 C493 419 409 505 294 505 C152 505 50 389 50 229 C50 77.8631 164.927 -29.2582 321.113 -0.106033 C273.269 -39.2684 226 -93.7458 226 -139 C226 -195 284 -236 365 -236 C400 -236 436 -223 451 -206 L443 -196 C439 -201 417 -204 390 -204 C336 -204 297 -171 297 -126 C297 -61 369 12 399 23 L399 23 Z M385.957 393.69 L386 396 C386 395.226 385.986 394.456 385.957 393.69 L385.957 393.69 Z M331 337 L175.127 322.294 C186.918 412.052 230.929 473 288 473 C345 473 386 441 386 396 C385.341 364.35 363.176 340.017 331 337 L331 337 Z " />
<glyph glyph-name="E_cap_caron" unicode="&#x11a;" horiz-adv-x="617" d="M417 929 C417 929 349.72 854.331 304.653 809.522 C281.251 829.418 244.768 865.151 191 929 L179 919 C182 916 268 748 268 748 C273 739 287 716 304 716 C322 716 336 739 341 748 C386 840 429 919 429 919 L417 929 Z M267.198 776.856 C264.336 775.799 263.995 777.86 267 784 L267.198 776.856 Z M461 278 L461 420 L453 420 L449 412 C438 386 401 368 363 368 L219 368 L219 628 L403 628 C449 628 497 595 517 550 L524 535 L531 535 L531 660 L40 660 L40 650 L48 649 C74 647 92 625 92 596 L92 64 C92 35 74 13 48 11 L40 10 L40 1.52588e-005 L530 1.52588e-005 L533 16 C539 48 547 93 553 125 L546 125 L536 110 C508 65 454 32 408 32 L219 32 L219 336 L363 336 C401 336 437 315 449 286 L453 278 L461 278 Z " />
<glyph glyph-name="e_caron" unicode="&#x11b;" horiz-adv-x="543" d="M407 769 C407 769 339.72 694.331 294.653 649.522 C271.251 669.418 234.768 705.151 181 769 L169 759 C172 756 258 588 258 588 C263 579 277 556 294 556 C312 556 326 579 331 588 C376 680 419 759 419 759 L407 769 Z M493 79 L482 91 C464 76 416 65 368 65 C244.171 65 163.526 163.177 172.911 300 L493 300 C493 419 409 505 294 505 C152 505 50 389 50 229 C50 93 143 -5 272 -5 C342 -5 435 30 493 79 L493 79 Z M257.198 616.856 C254.336 615.799 253.995 617.86 257 624 L257.198 616.856 Z M385.957 393.69 L386 396 C386 395.226 385.986 394.456 385.957 393.69 L385.957 393.69 Z M331 337 L175.127 322.294 C186.918 412.052 230.929 473 288 473 C345 473 386 441 386 396 C385.341 364.35 363.176 340.017 331 337 L331 337 Z " />
<glyph glyph-name="G_cap_circumflex" unicode="&#x11c;" horiz-adv-x="816" d="M453 872 C448 881 434 904 416 904 C399 904 385 881 380 872 C380 872 294 704 291 701 L303 691 C356.768 754.849 393.251 790.582 416.653 810.478 C461.72 765.669 529 691 529 691 L541 701 C541 701 498 780 453 872 L453 872 Z M379 836 C375.995 842.14 376.336 844.201 379.198 843.144 L379 836 Z M667 492 L667 607 L659 593 C658.948 593.029 658.897 593.059 658.845 593.088 L667 607 C609 641 503 665 416 665 C199 665 42 524 42 330 C42 136 199 -5 416 -5 C506 -5 614 19 672 53 L672 246 C672 275 690 297 716 299 L724 300 L724 310 L505 310 L505 300 L513 299 C539 297 557 275 557 246 L557 44.4024 C512.015 33.4961 461.645 27 416 27 C280 27 182 154 182 330 C182 506 280 633 416 633 C448.634 633 484.429 629.173 519.11 622.469 L519 622 C569 612 622 569 646 518 C650 510 654 500 658 492 L667 492 Z " />
<glyph glyph-name="G_cap_breve" unicode="&#x11e;" horiz-adv-x="816" d="M276 870 C309 792 368 736 416 736 C464 736 523 792 556 870 L537 878 C521 840 470 812 416 812 C362 812 311 840 295 878 L276 870 Z M667 492 L667 607 L659 593 C658.948 593.029 658.897 593.059 658.845 593.088 L667 607 C609 641 503 665 416 665 C199 665 42 524 42 330 C42 136 199 -5 416 -5 C506 -5 614 19 672 53 L672 246 C672 275 690 297 716 299 L724 300 L724 310 L505 310 L505 300 L513 299 C539 297 557 275 557 246 L557 44.4024 C512.015 33.4961 461.645 27 416 27 C280 27 182 154 182 330 C182 506 280 633 416 633 C448.634 633 484.429 629.173 519.11 622.469 L519 622 C569 612 622 569 646 518 C650 510 654 500 658 492 L667 492 Z " />
<glyph glyph-name="g_breve" unicode="&#x11f;" horiz-adv-x="494" d="M96 710 C129 632 188 576 236 576 C284 576 343 632 376 710 L357 718 C341 680 290 652 236 652 C182 652 131 680 115 718 L96 710 Z M494 500 L354.396 470.085 C323.15 492.191 282.347 505 236 505 C130 505 54 438 54 346 C54 281.623 91.2129 229.488 149.878 203.984 C85.281 194.124 41 149.054 41 90 C41 44.1951 76.4175 7.90533 131.495 -8.49214 C62.8071 -25.6295 16 -74.7851 16 -133 L93 -120 L16 -134 C16 -197 84 -243 178 -243 C350 -243 474 -153 474 -28 C474 43 396 94 289 94 C268 94 195 91 195 91 C150 91 118 109 118 134 C118 165 143 187 177 187 L236 187 C342 187 419 254 419 346 C419 377.01 410.252 405.179 394.594 428.9 L494 436 L494 500 Z M236 213 C193 213 162 269 162 346 C162 423 193 479 236 479 C279 479 310 423 310 346 C310 269 279 213 236 213 L236 213 Z M166.175 -15.7826 C177.285 -17.2412 188.923 -18 201 -18 L258 -15 C336 -15 392 -45 392 -86 C392 -158 308 -211 191 -211 C134 -211 93 -173 93 -120 C93 -67.2935 122.926 -25.7023 166.175 -15.7826 L166.175 -15.7826 Z " />
<glyph glyph-name="G_cap_dot_accent" unicode="&#x120;" horiz-adv-x="816" d="M416 730 C457 730 486 759 486 800 C486 841 457 871 416 871 C375 871 346 841 346 800 C346 759 375 730 416 730 L416 730 Z M667 492 L667 607 L659 593 C658.948 593.029 658.897 593.059 658.845 593.088 L667 607 C609 641 503 665 416 665 C199 665 42 524 42 330 C42 136 199 -5 416 -5 C506 -5 614 19 672 53 L672 246 C672 275 690 297 716 299 L724 300 L724 310 L505 310 L505 300 L513 299 C539 297 557 275 557 246 L557 44.4024 C512.015 33.4961 461.645 27 416 27 C280 27 182 154 182 330 C182 506 280 633 416 633 C448.634 633 484.429 629.173 519.11 622.469 L519 622 C569 612 622 569 646 518 C650 510 654 500 658 492 L667 492 Z " />
<glyph glyph-name="g_dot_accent" unicode="&#x121;" horiz-adv-x="494" d="M236 570 C277 570 306 599 306 640 C306 681 277 711 236 711 C195 711 166 681 166 640 C166 599 195 570 236 570 L236 570 Z M494 500 L354.396 470.085 C323.15 492.191 282.347 505 236 505 C130 505 54 438 54 346 C54 281.623 91.2129 229.488 149.878 203.984 C85.281 194.124 41 149.054 41 90 C41 44.1951 76.4175 7.90533 131.495 -8.49214 C62.8071 -25.6295 16 -74.7851 16 -133 L93 -120 L16 -134 C16 -197 84 -243 178 -243 C350 -243 474 -153 474 -28 C474 43 396 94 289 94 C268 94 195 91 195 91 C150 91 118 109 118 134 C118 165 143 187 177 187 L236 187 C342 187 419 254 419 346 C419 377.01 410.252 405.179 394.594 428.9 L494 436 L494 500 Z M236 213 C193 213 162 269 162 346 C162 423 193 479 236 479 C279 479 310 423 310 346 C310 269 279 213 236 213 L236 213 Z M166.175 -15.7826 C177.285 -17.2412 188.923 -18 201 -18 L258 -15 C336 -15 392 -45 392 -86 C392 -158 308 -211 191 -211 C134 -211 93 -173 93 -120 C93 -67.2935 122.926 -25.7023 166.175 -15.7826 L166.175 -15.7826 Z " />
<glyph glyph-name="H_cap_circumflex" unicode="&#x124;" horiz-adv-x="756" d="M415 872 C410 881 396 904 379 904 C361 904 347 881 342 872 C342 872 256 704 253 701 L265 691 C318.98 755.49 355.618 791.227 379.163 810.964 C424.231 766.211 492 691 492 691 L504 701 C504 701 459 782 415 872 L415 872 Z M342 836 C339.066 841.995 339.321 844.102 342 843.214 L342 836 Z M717 10 L709 11 C683 13 665 35 665 64 L665 596 C665 625 683 647 709 649 L717 650 L717 660 L485 660 L485 650 L493 649 C519 647 537 625 537 596 L537 363 L219 363 L219 596 C219 625 237 647 263 649 L271 650 L271 660 L40 660 L40 650 L48 649 C74 647 92 625 92 596 L92 64 C92 35 74 13 48 11 L40 10 L40 0 L271 0 L271 10 L263 11 C237 13 219 35 219 64 L219 331 L537 331 L537 64 C537 35 519 13 493 11 L485 10 L485 0 L717 0 L717 10 Z " />
<glyph glyph-name="I_cap_tilde" unicode="&#x128;" horiz-adv-x="310" d="M5 755 C5 787 23 811 48 811 C101 811 178 748 231 748 C285 748 324 806 324 885 L305 885 C305 850 284 825 256 825 C203 825 126 887 73 887 C23 887 -14 832 -14 755 L5 755 Z M271 10 L263 11 C237 13 219 35 219 64 L219 596 C219 625 237 647 263 649 L271 650 L271 660 L40 660 L40 650 L48 649 C74 647 92 625 92 596 L92 64 C92 35 74 13 48 11 L40 10 L40 0 L271 0 L271 10 Z " />
<glyph glyph-name="i_tilde" unicode="&#x129;" horiz-adv-x="308" d="M4 595 C4 627 22 651 47 651 C100 651 177 588 230 588 C284 588 323 646 323 725 L304 725 C304 690 283 665 255 665 C202 665 125 727 72 727 C22 727 -15 672 -15 595 L4 595 Z M264 10 L256 11 C230 13 212 35 212 64 L212 500 L189 500 L45 455 L45 449 C84.4169 434.219 97 423.467 97 378 L97 64 C97 35 79 13 53 11 L45 10 L45 0 L264 0 L264 10 Z " />
<glyph glyph-name="I_cap_macron" unicode="&#x12a;" horiz-adv-x="310" d="M-3 761 L313 761 L313 825 L-3 825 L-3 761 Z M271 10 L263 11 C237 13 219 35 219 64 L219 596 C219 625 237 647 263 649 L271 650 L271 660 L40 660 L40 650 L48 649 C74 647 92 625 92 596 L92 64 C92 35 74 13 48 11 L40 10 L40 0 L271 0 L271 10 Z " />
<glyph glyph-name="i_macron" unicode="&#x12b;" horiz-adv-x="308" d="M-4 601 L312 601 L312 665 L-4 665 L-4 601 Z M264 10 L256 11 C230 13 212 35 212 64 L212 500 L189 500 L45 455 L45 449 C84.4169 434.219 97 423.467 97 378 L97 64 C97 35 79 13 53 11 L45 10 L45 0 L264 0 L264 10 Z " />
<glyph glyph-name="I_cap_breve" unicode="&#x12c;" horiz-adv-x="310" d="M15 870 C48 792 107 736 155 736 C203 736 262 792 295 870 L276 878 C260 840 209 812 155 812 C101 812 50 840 34 878 L15 870 Z M271 10 L263 11 C237 13 219 35 219 64 L219 596 C219 625 237 647 263 649 L271 650 L271 660 L40 660 L40 650 L48 649 C74 647 92 625 92 596 L92 64 C92 35 74 13 48 11 L40 10 L40 0 L271 0 L271 10 Z " />
<glyph glyph-name="i_breve" unicode="&#x12d;" horiz-adv-x="308" d="M14 710 C47 632 106 576 154 576 C202 576 261 632 294 710 L275 718 C259 680 208 652 154 652 C100 652 49 680 33 718 L14 710 Z M264 10 L256 11 C230 13 212 35 212 64 L212 500 L189 500 L45 455 L45 449 C84.4169 434.219 97 423.467 97 378 L97 64 C97 35 79 13 53 11 L45 10 L45 0 L264 0 L264 10 Z " />
<glyph glyph-name="I_cap_dot_accent" unicode="&#x130;" horiz-adv-x="310" d="M155 730 C196 730 225 759 225 800 C225 841 196 871 155 871 C114 871 85 841 85 800 C85 759 114 730 155 730 L155 730 Z M271 10 L263 11 C237 13 219 35 219 64 L219 596 C219 625 237 647 263 649 L271 650 L271 660 L40 660 L40 650 L48 649 C74 647 92 625 92 596 L92 64 C92 35 74 13 48 11 L40 10 L40 0 L271 0 L271 10 Z " />
<glyph glyph-name="dotlessi" unicode="&#x131;" horiz-adv-x="308" d="M264 10 L256 11 C230 13 212 35 212 64 L212 500 L189 500 L45 455 L45 449 C84.4169 434.219 97 423.467 97 378 L97 64 C97 35 79 13 53 11 L45 10 L45 0 L264 0 L264 10 Z " />
<glyph glyph-name="J_cap_circumflex" unicode="&#x134;" horiz-adv-x="428" d="M310 872 C305 881 291 904 273 904 C256 904 242 881 237 872 C237 872 151 704 148 701 L160 691 C213.768 754.849 250.251 790.582 273.653 810.478 C318.72 765.669 386 691 386 691 L398 701 C398 701 355 780 310 872 L310 872 Z M236 836 C232.995 842.14 233.336 844.201 236.198 843.144 L236 836 Z M389 660 L157 660 L157 650 L165 649 C191 647 209 625 209 596 L209 200 C209 72 195 16 163 16 C138 16 115 36 108 64 C101 94 77 115 51 115 C14 115 -7 94 0 64 C11 21 66 -10 131 -10 C274 -10 337 87 337 308 L337 596 C337 625 355 647 381 649 L389 650 L389 660 Z " />
<glyph glyph-name="L_cap_acute" unicode="&#x139;" horiz-adv-x="617" d="M131 690 C131 690 217 775 247 814 C268 837 283 856 283 861 C283 875 236 909 217 909 C213 909 202 888 189 859 C159 820 118 699 118 699 L131 690 Z M271 660 L40 660 L40 650 L48 649 C74 647 92 625 92 596 L92 64 C92 35 74 13 48 11 L40 10 L40 0 L528 0 L531 16 L533 16 C539 49 547 97 553 130 C548.19 132.405 540 135 540 135 L523 103 C500 62 455 32 414 32 L219 32 L219 596 C219 625 237 647 263 649 L271 650 L271 660 Z " />
<glyph glyph-name="L_cap_caron" unicode="&#x13d;" horiz-adv-x="617" d="M391 691 C368 691 350 627 343 583 L315 417 L329 412 L415 556 C443 602 463 656 463 665 C463 683 412 691 391 691 L391 691 Z M271 660 L40 660 L40 650 L48 649 C74 647 92 625 92 596 L92 64 C92 35 74 13 48 11 L40 10 L40 0 L528 0 L531 16 L533 16 C539 49 547 97 553 130 C548.19 132.405 540 135 540 135 L523 103 C500 62 455 32 414 32 L219 32 L219 596 C219 625 237 647 263 649 L271 650 L271 660 Z " />
<glyph glyph-name="l_caron" unicode="&#x13e;" horiz-adv-x="308" d="M336 721 C312 721 294 657 287 613 L258 447 L273 442 L359 586 C387 633 408 687 408 695 C408 713 357 721 336 721 L336 721 Z M264 10 L256 11 C230 13 212 35 212 64 L212 720 L189 720 L45 675 L45 669 C84.4169 654.219 97 643.467 97 598 L97 64 C97 35 79 13 53 11 L45 10 L45 0 L264 0 L264 10 Z " />
<glyph glyph-name="L_cap_slash" unicode="&#x141;" horiz-adv-x="617" d="M40 0 L528 0 L531 16 L533 16 C539 49 547 97 553 130 C548.19 132.405 540 135 540 135 L523 103 C500 62 455 32 414 32 L219 32 L219 315.079 L371 361 L371 399 L219 353.079 L219 596 C219 625 237 647 263 649 L271 650 L271 660 L40 660 L40 650 L48 649 C74 647 92 625 92 596 L92 314.71 L40 299 L40 261 L92 276.71 L92 64 C92 35 74 13 48 11 L40 10 L40 0 Z " />
<glyph glyph-name="l_slash" unicode="&#x142;" horiz-adv-x="308" d="M45 0 L264 0 L264 10 L256 11 C230 13 212 35 212 64 L212 359.254 L312 391 L312 429 L212 397.254 L212 720 L189 720 L45 675 L45 669 C84.4169 654.219 97 643.467 97 598 L97 360.746 L-3 329 L-3 291 L97 322.746 L97 64 C97 35 79 13 53 11 L45 10 L45 0 Z " />
<glyph glyph-name="N_cap_acute" unicode="&#x143;" horiz-adv-x="688" d="M315 690 C315 690 401 775 431 814 C452 837 467 856 467 861 C467 875 420 909 401 909 C397 909 386 888 373 859 C343 820 302 699 302 699 L315 690 Z M37 650 L45 649 C71 647 89 625 89 596 L89 64 C89 35 71 13 45 11 L37 10 L37 0 L179 0 L179 10 L171 11 C145 13 127 35 127 64 L127 549.943 C270.586 359.913 413.853 169.526 558 -20 L600 -20 L600 596 C600 625 618 647 644 649 L652 650 L652 660 L510 660 L510 650 L518 649 C544 647 562 625 562 596 L562 182.667 L204 660 L37 660 L37 650 Z " />
<glyph glyph-name="n_acute" unicode="&#x144;" horiz-adv-x="604" d="M229 530 C229 530 315 615 345 654 C366 677 381 696 381 701 C381 715 334 749 315 749 C311 749 300 728 287 699 C257 660 216 539 216 539 L229 530 Z M346 0 L565 0 L565 10 L557 11 C531 13 513 35 513 64 L513 338 C513 435 477 505 396 505 C333.086 505 258.532 475.07 211 431.888 L211 500 L188 500 L44 455 L44 449 C83.4169 434.219 96 423.467 96 378 L96 64 C96 35 78 13 52 11 L44 10 L44 0 L263 0 L263 10 L255 11 C229 13 211 35 211 64 L211 414.809 C230.773 422.699 267.325 428 308 428 C371 428 398 385 398 326 L398 64 C398 35 380 13 354 11 L346 10 L346 0 Z " />
<glyph glyph-name="N_cap_caron" unicode="&#x147;" horiz-adv-x="688" d="M458 929 C458 929 390.231 853.789 345.163 809.036 C321.618 828.773 284.98 864.51 231 929 L219 919 C222 916 308 748 308 748 C313 739 327 716 345 716 C362 716 376 739 381 748 C425 838 470 919 470 919 L458 929 Z M308 776.786 C305.321 775.898 305.066 778.005 308 784 L308 776.786 Z M37 650 L45 649 C71 647 89 625 89 596 L89 64 C89 35 71 13 45 11 L37 10 L37 1.52588e-005 L179 1.52588e-005 L179 10 L171 11 C145 13 127 35 127 64 L127 549.943 C270.586 359.913 413.853 169.526 558 -20 L600 -20 L600 596 C600 625 618 647 644 649 L652 650 L652 660 L510 660 L510 650 L518 649 C544 647 562 625 562 596 L562 182.667 L204 660 L37 660 L37 650 Z " />
<glyph glyph-name="n_caron" unicode="&#x148;" horiz-adv-x="604" d="M418 769 C418 769 350.231 693.789 305.163 649.036 C281.618 668.773 244.98 704.51 191 769 L179 759 C182 756 268 588 268 588 C273 579 287 556 305 556 C322 556 336 579 341 588 C385 678 430 759 430 759 L418 769 Z M268 616.786 C265.321 615.898 265.066 618.005 268 624 L268 616.786 Z M346 1.52588e-005 L565 1.52588e-005 L565 10 L557 11 C531 13 513 35 513 64 L513 338 C513 435 477 505 396 505 C333.086 505 258.532 475.07 211 431.888 L211 500 L188 500 L44 455 L44 449 C83.4169 434.219 96 423.467 96 378 L96 64 C96 35 78 13 52 11 L44 10 L44 1.52588e-005 L263 1.52588e-005 L263 10 L255 11 C229 13 211 35 211 64 L211 414.809 C230.773 422.699 267.325 428 308 428 C371 428 398 385 398 326 L398 64 C398 35 380 13 354 11 L346 10 L346 1.52588e-005 Z " />
<glyph glyph-name="O_cap_macron" unicode="&#x14c;" horiz-adv-x="775" d="M226 761 L541 761 L541 825 L226 825 L226 761 Z M182 330 C182 488 255 633 384 633 C512 633 584 488 584 330 C584 172 512 27 384 27 C255 27 182 172 182 330 L182 330 Z M42 330 C42 155 166 -5 384 -5 C602 -5 725 155 725 330 C725 505 602 665 384 665 C166 665 42 505 42 330 L42 330 Z " />
<glyph glyph-name="o_macron" unicode="&#x14d;" horiz-adv-x="623" d="M154 601 L469 601 L469 665 L154 665 L154 601 Z M178 250 C178 383 234 479 312 479 C389 479 445 383 445 250 C445 117 389 21 312 21 C234 21 178 117 178 250 L178 250 Z M50 250 C50 102 160 -5 312 -5 C463 -5 573 102 573 250 C573 398 463 505 312 505 C160 505 50 398 50 250 L50 250 Z " />
<glyph glyph-name="O_cap_breve" unicode="&#x14e;" horiz-adv-x="775" d="M243 870 C276 792 335 736 384 736 C432 736 491 792 524 870 L505 878 C489 840 438 812 384 812 C329 812 278 840 262 878 L243 870 Z M182 330 C182 488 255 633 384 633 C512 633 584 488 584 330 C584 172 512 27 384 27 C255 27 182 172 182 330 L182 330 Z M42 330 C42 155 166 -5 384 -5 C602 -5 725 155 725 330 C725 505 602 665 384 665 C166 665 42 505 42 330 L42 330 Z " />
<glyph glyph-name="o_breve" unicode="&#x14f;" horiz-adv-x="623" d="M171 710 C204 632 263 576 312 576 C360 576 419 632 452 710 L433 718 C417 680 366 652 312 652 C257 652 206 680 190 718 L171 710 Z M178 250 C178 383 234 479 312 479 C389 479 445 383 445 250 C445 117 389 21 312 21 C234 21 178 117 178 250 L178 250 Z M50 250 C50 102 160 -5 312 -5 C463 -5 573 102 573 250 C573 398 463 505 312 505 C160 505 50 398 50 250 L50 250 Z " />
<glyph glyph-name="R_cap_acute" unicode="&#x154;" horiz-adv-x="706" d="M264 690 C264 690 350 775 380 814 C401 837 416 856 416 861 C416 875 369 909 350 909 C346 909 335 888 322 859 C292 820 251 699 251 699 L264 690 Z M33 650 L41 649 C67 647 85 625 85 596 L85 64 C85 35 67 13 41 11 L33 10 L33 0 L264 0 L264 10 L256 11 C230 13 212 35 212 64 L212 312 L290.37 312 C319.657 271.909 374.205 197.264 441 106 C513 8 529 0 662 0 L706 0 L706 25 C658.914 25 654.488 26.9634 615 81 C528.545 199.588 460.237 290.665 432.914 326.911 C530.77 353.693 594 414.281 594 490 C594 589 488 660 341 660 L33 660 L33 650 Z M315 344 L212 344 L212 628 L341 628 C410 628 460 570 460 490 C460 405 399 344 315 344 L315 344 Z " />
<glyph glyph-name="R_cap_caron" unicode="&#x158;" horiz-adv-x="706" d="M453 929 C453 929 385.231 853.789 340.163 809.036 C316.618 828.773 279.98 864.51 226 929 L214 919 C217 916 303 748 303 748 C308 739 322 716 340 716 C357 716 371 739 376 748 C420 838 465 919 465 919 L453 929 Z M33 650 L41 649 C67 647 85 625 85 596 L85 64 C85 35 67 13 41 11 L33 10 L33 0 L264 0 L264 10 L256 11 C230 13 212 35 212 64 L212 312 L290.37 312 C319.657 271.909 374.205 197.264 441 106 C513 8 529 0 662 0 L706 0 L706 25 C658.914 25 654.488 26.9634 615 81 C528.545 199.588 460.237 290.665 432.914 326.911 C530.77 353.693 594 414.281 594 490 C594 589 488 660 341 660 L33 660 L33 650 Z M303 776.786 C300.321 775.898 300.066 778.005 303 784 L303 776.786 Z M315 344 L212 344 L212 628 L341 628 C410 628 460 570 460 490 C460 405 399 344 315 344 L315 344 Z " />
<glyph glyph-name="r_caron" unicode="&#x159;" horiz-adv-x="430" d="M333 769 C333 769 265.231 693.789 220.163 649.036 C196.618 668.773 159.98 704.51 106 769 L94 759 C97 756 183 588 183 588 C188 579 202 556 220 556 C237 556 251 579 256 588 C300 678 345 759 345 759 L333 769 Z M183 616.786 C180.321 615.898 180.066 618.005 183 624 L183 616.786 Z M96 378 L96 64 C96 35 78 13 52 11 L44 10 L44 1.52588e-005 L263 1.52588e-005 L263 10 L255 11 C229 13 211 35 211 64 L211 412.177 C221.098 416.913 235.47 420 251 420 C284 420 332 376 365 376 C397 376 420 399 420 431 C420 474 397 505 343 505 C294.534 505 242.322 477.286 211 436.767 L211 500 L188 500 L44 455 L44 449 C83.4169 434.219 96 423.467 96 378 L96 378 Z " />
<glyph glyph-name="S_cap_acute" unicode="&#x15a;" horiz-adv-x="529" d="M216 690 C216 690 303 775 333 814 C353 836 368 855 368 861 C368 875 322 909 303 909 C299 909 287 888 274 859 C244 820 203 699 203 699 L216 690 Z M440 495 L440 620 C395 646 322 665 267 665 C135 665 39 579 39 460 C39 385 111 310 210 280 C317 248 394 188 394 137 C394 73 335 27 254 27 C251.536 27 189.469 30.9473 190 34 C139 44 85 88 60 139 C56 146 52 158 48 165 L39 165 L39 40 C84 14 175 -5 254 -5 C387 -5 484 76 484 189 C484 270 411 350 309 380 C203 411 127 466 127 511 C127 582 184 634 262 634 C279.166 634 302.574 629.265 328 621 C358 612 389 583 403 554 C411 537 423 512 431 495 L440 495 Z " />
<glyph glyph-name="s_acute" unicode="&#x15b;" horiz-adv-x="437" d="M162 530 C162 530 249 615 279 654 C299 676 314 695 314 701 C314 715 268 749 249 749 C245 749 233 728 220 699 C190 660 149 539 149 539 L162 530 Z M365 378 L365 466 L355 448 C354.875 448.071 354.75 448.142 354.624 448.212 L365 466 C326 489 272 505 238 505 C129 505 50 445 50 362 C50 310 111 246 195 209 C251 185 291 143 291 111 C291 59 253 21 201 21 C188.556 21 173.33 23.2755 156.897 27.377 C121.326 38.4065 83.2589 70.0073 63 105 C60 110 55 118 52 123 L45 123 L45 29 C79 9 142 -5 195 -5 C306 -5 387 62 387 154 C387 205 340 263 276 291 C197 326 139 372 139 401 C139 446 181 479 238 479 C244.225 479 259.329 473.349 279.265 464.002 C308.535 448.519 337.204 419.506 350 393 C352 389 355 382 357 378 L365 378 Z " />
<glyph glyph-name="S_cap_circumflex" unicode="&#x15c;" horiz-adv-x="529" d="M299 872 C294 881 280 904 262 904 C245 904 231 881 226 872 C226 872 140 704 137 701 L149 691 C202.768 754.849 239.251 790.582 262.653 810.478 C307.72 765.669 375 691 375 691 L387 701 C387 701 344 780 299 872 L299 872 Z M225 836 C221.995 842.14 222.336 844.201 225.198 843.144 L225 836 Z M440 495 L440 620 C395 646 322 665 267 665 C135 665 39 579 39 460 C39 385 111 310 210 280 C317 248 394 188 394 137 C394 73 335 27 254 27 C251.536 27 189.469 30.9473 190 34 C139 44 85 88 60 139 C56 146 52 158 48 165 L39 165 L39 40 C84 14 175 -5 254 -5 C387 -5 484 76 484 189 C484 270 411 350 309 380 C203 411 127 466 127 511 C127 582 184 634 262 634 C279.166 634 302.574 629.265 328 621 C358 612 389 583 403 554 C411 537 423 512 431 495 L440 495 Z " />
<glyph glyph-name="S_cap_cedilla" unicode="&#x15e;" horiz-adv-x="529" d="M440 495 L440 620 C395 646 322 665 267 665 C135 665 39 579 39 460 C39 385 111 310 210 280 C317 248 394 188 394 137 C394 73 335 27 254 27 C251.536 27 189.469 30.9473 190 34 C139 44 85 88 60 139 C56 146 52 158 48 165 L39 165 L39 40 C81.563 15.408 165.279 -2.92157 241.069 -4.83473 C233.91 -16.6315 214.259 -48.9544 189 -90 L197 -95 C214 -86 237 -80 252 -80 C283 -80 306 -103 306 -135 C306 -165 274 -187 229 -187 C200 -187 173 -181 164 -173 L157 -185 C179 -205 219 -220 252 -220 C324 -220 376 -184 376 -135 C376 -90 335 -57 279 -57 C257.793 -57 230.08 -63.5047 211.987 -72.0353 C241.121 -29.9302 263.973 -11.5904 275.262 -4.2964 C397.213 3.85878 484 82.1139 484 189 C484 270 411 350 309 380 C203 411 127 466 127 511 C127 582 184 634 262 634 C279.166 634 302.574 629.265 328.031 621.092 C358 612 389 583 403 554 C411 537 423 512 431 495 L440 495 Z " />
<glyph glyph-name="s_cedilla" unicode="&#x15f;" horiz-adv-x="437" d="M365 378 L365 466 L355 448 C354.875 448.071 354.75 448.142 354.624 448.212 L365 466 C326 489 272 505 238 505 C129 505 50 445 50 362 C50 310 111 246 195 209 C251 185 291 143 291 111 C291 59 253 21 201 21 C188.556 21 173.33 23.2755 156.897 27.377 C121.326 38.4065 83.2589 70.0073 63 105 C60 110 55 118 52 123 L45 123 L45 29 C76.2843 10.5975 132.121 -2.72527 182.129 -4.73613 C175.02 -16.4506 155.33 -48.8394 130 -90 L138 -95 C155 -86 178 -80 193 -80 C224 -80 247 -103 247 -135 C247 -165 215 -187 170 -187 C141 -187 114 -181 105 -173 L98 -185 C120 -205 160 -220 193 -220 C265 -220 317 -184 317 -135 C317 -90 276 -57 220 -57 C198.793 -57 171.08 -63.5047 152.987 -72.0353 C182.329 -29.6301 205.298 -11.3302 216.502 -4.14214 C316.306 3.92317 387 68.0521 387 154 C387 205 340 263 276 291 C197 326 139 372 139 401 C139 446 181 479 238 479 C244.225 479 259.329 473.349 279.265 464.002 C308.535 448.519 337.204 419.506 350 393 C352 389 355 382 357 378 L365 378 Z " />
<glyph glyph-name="S_cap_caron" unicode="&#x160;" horiz-adv-x="529" d="M375 929 C375 929 307.72 854.331 262.653 809.522 C239.251 829.418 202.768 865.151 149 929 L137 919 C140 916 226 748 226 748 C231 739 245 716 262 716 C280 716 294 739 299 748 C344 840 387 919 387 919 L375 929 Z M225.198 776.856 C222.336 775.799 221.995 777.86 225 784 L225.198 776.856 Z M440 495 L440 620 C395 646 322 665 267 665 C135 665 39 579 39 460 C39 385 111 310 210 280 C317 248 394 188 394 137 C394 73 335 27 254 27 C251.536 27 189.469 30.9473 190 34 C139 44 85 88 60 139 C56 146 52 158 48 165 L39 165 L39 40 C84 14 175 -4.99998 254 -4.99998 C387 -4.99998 484 76 484 189 C484 270 411 350 309 380 C203 411 127 466 127 511 C127 582 184 634 262 634 C279.166 634 302.574 629.265 328 621 C358 612 389 583 403 554 C411 537 423 512 431 495 L440 495 Z " />
<glyph glyph-name="s_caron" unicode="&#x161;" horiz-adv-x="437" d="M351 769 C351 769 283.72 694.331 238.653 649.522 C215.251 669.418 178.768 705.151 125 769 L113 759 C116 756 202 588 202 588 C207 579 221 556 238 556 C256 556 270 579 275 588 C320 680 363 759 363 759 L351 769 Z M201.198 616.856 C198.336 615.799 197.995 617.86 201 624 L201.198 616.856 Z M365 378 L365 466 L355 448 C354.875 448.071 354.75 448.142 354.624 448.212 L365 466 C326 489 272 505 238 505 C129 505 50 445 50 362 C50 310 111 246 195 209 C251 185 291 143 291 111 C291 59 253 21 201 21 C188.556 21 173.33 23.2755 156.897 27.377 C121.326 38.4065 83.2589 70.0073 63 105 C60 110 55 118 52 123 L45 123 L45 29 C79 9.00002 142 -4.99998 195 -4.99998 C306 -4.99998 387 62 387 154 C387 205 340 263 276 291 C197 326 139 372 139 401 C139 446 181 479 238 479 C244.225 479 259.329 473.349 279.265 464.002 C308.535 448.519 337.204 419.506 350 393 C352 389 355 382 357 378 L365 378 Z " />
<glyph glyph-name="T_cap_caron" unicode="&#x164;" horiz-adv-x="636" d="M429 929 C429 929 361.72 854.331 316.653 809.522 C293.251 829.418 256.768 865.151 203 929 L191 919 C194 916 280 748 280 748 C285 739 299 716 316 716 C334 716 348 739 353 748 C398 840 441 919 441 919 L429 929 Z M279.198 776.856 C276.336 775.799 275.995 777.86 279 784 L279.198 776.856 Z M5 525 L26 565 C45 602 85 628 122 628 L254 628 L254 64 C254 35 236 13 210 11 L202 10 L202 1.52588e-005 L434 1.52588e-005 L434 10 L426 11 C400 13 382 35 382 64 L382 628 L511 628 C548.898 628.323 588.68 602.235 608 565 L629 525 L637 525 C634 560 630 609 627 644 L626 644 L625 660 L8 660 L7 644 C4 609 0 560 -3 525 L5 525 Z " />
<glyph glyph-name="t_caron" unicode="&#x165;" horiz-adv-x="374" d="M25 468 L25 455 L92 455 L92 125 C92 27 119 -5 200 -5 C262 -5 313 20 354 55 L346 65 C333 54 307 46 257 46 C219 46 207 61 207 105 L207 455 L342 455 L342 500 L207 500 L207 640 L188 640 C141.357 549.69 72.0363 476.006 25 468 L25 468 Z M466 721 C442 721 424 657 417 613 L388 447 L403 442 L489 586 C517 633 538 687 538 695 C538 713 487 721 466 721 L466 721 Z " />
<glyph glyph-name="U_cap_tilde" unicode="&#x168;" horiz-adv-x="667" d="M182 755 C182 787 200 811 225 811 C278 811 355 748 408 748 C462 748 501 806 501 885 L482 885 C482 850 461 825 433 825 C380 825 303 887 250 887 C200 887 163 832 163 755 L182 755 Z M647 660 L489 660 L489 650 L498 649 C527.53 647.095 548.893 624.32 550.853 592.776 L550 203 C550 108 491 40 356 40 C250 40 203 106 203 196 L202.129 600.217 C203.786 627.111 221.276 647.098 246 649 L254 650 L254 660 L23 660 L23 650 L31 649 C57 647 75 625 75 596 L75 221 C75 90 155 -5 337 -5 C512 -5 589 77 589 191 L589 588 C589 622 610 647 639 649 L647 650 L647 660 Z " />
<glyph glyph-name="u_tilde" unicode="&#x169;" horiz-adv-x="569" d="M124 595 C124 627 142 651 167 651 C220 651 298 588 351 588 C405 588 444 646 444 725 L425 725 C425 690 404 665 376 665 C323 665 245 727 192 727 C142 727 105 672 105 595 L124 595 Z M14 490 L22 489 C48 487 66 465 66 436 L66 154 C66 62 116 -5 205 -5 C258.632 -5 317.222 27.226 368 73.651 L368 0 L391 0 L535 45 L535 51 C495.583 65.7813 483 76.5334 483 122 L483 500 L316 500 L316 490 L324 489 C350 487 368 465 368 436 L368 91.7186 C352.286 79.4877 327.501 71 295 71 C222 71 180 111 180 166 L181 500 L14 500 L14 490 Z " />
<glyph glyph-name="U_cap_macron" unicode="&#x16a;" horiz-adv-x="667" d="M174 761 L490 761 L490 825 L174 825 L174 761 Z M647 660 L489 660 L489 650 L498 649 C527.53 647.095 548.893 624.32 550.853 592.776 L550 203 C550 108 491 40 356 40 C250 40 203 106 203 196 L202.129 600.217 C203.786 627.111 221.276 647.098 246 649 L254 650 L254 660 L23 660 L23 650 L31 649 C57 647 75 625 75 596 L75 221 C75 90 155 -5 337 -5 C512 -5 589 77 589 191 L589 588 C589 622 610 647 639 649 L647 650 L647 660 Z " />
<glyph glyph-name="u_macron" unicode="&#x16b;" horiz-adv-x="569" d="M117 601 L432 601 L432 665 L117 665 L117 601 Z M14 490 L22 489 C48 487 66 465 66 436 L66 154 C66 62 116 -5 205 -5 C258.632 -5 317.222 27.226 368 73.651 L368 0 L391 0 L535 45 L535 51 C495.583 65.7813 483 76.5334 483 122 L483 500 L316 500 L316 490 L324 489 C350 487 368 465 368 436 L368 91.7186 C352.286 79.4877 327.501 71 295 71 C222 71 180 111 180 166 L181 500 L14 500 L14 490 Z " />
<glyph glyph-name="U_cap_breve" unicode="&#x16c;" horiz-adv-x="667" d="M192 870 C225 792 284 736 332 736 C380 736 439 792 472 870 L453 878 C437 840 386 812 332 812 C278 812 227 840 211 878 L192 870 Z M647 660 L489 660 L489 650 L498 649 C527.53 647.095 548.893 624.32 550.853 592.776 L550 203 C550 108 491 40 356 40 C250 40 203 106 203 196 L202.129 600.217 C203.786 627.111 221.276 647.098 246 649 L254 650 L254 660 L23 660 L23 650 L31 649 C57 647 75 625 75 596 L75 221 C75 90 155 -5 337 -5 C512 -5 589 77 589 191 L589 588 C589 622 610 647 639 649 L647 650 L647 660 Z " />
<glyph glyph-name="u_breve" unicode="&#x16d;" horiz-adv-x="569" d="M134 710 C167 632 226 576 275 576 C323 576 382 632 415 710 L396 718 C380 680 329 652 275 652 C220 652 169 680 153 718 L134 710 Z M14 490 L22 489 C48 487 66 465 66 436 L66 154 C66 62 116 -5 205 -5 C258.632 -5 317.222 27.226 368 73.651 L368 0 L391 0 L535 45 L535 51 C495.583 65.7813 483 76.5334 483 122 L483 500 L316 500 L316 490 L324 489 C350 487 368 465 368 436 L368 91.7186 C352.286 79.4877 327.501 71 295 71 C222 71 180 111 180 166 L181 500 L14 500 L14 490 Z " />
<glyph glyph-name="U_cap_ring" unicode="&#x16e;" horiz-adv-x="667" d="M268 788 C268 826 295 854 332 854 C369 854 396 826 396 788 C396 753 365 721 332 721 C299 721 268 753 268 788 L268 788 Z M236 788 C236 739 282 695 332 695 C382 695 428 739 428 788 C428 841 388 880 332 880 C276 880 236 841 236 788 L236 788 Z M647 660 L489 660 L489 650 L498 649 C527.53 647.095 548.893 624.32 550.853 592.776 L550 203 C550 108 491 40 356 40 C250 40 203 106 203 196 L202.129 600.217 C203.786 627.111 221.276 647.098 246 649 L254 650 L254 660 L23 660 L23 650 L31 649 C57 647 75 625 75 596 L75 221 C75 90 155 -5 337 -5 C512 -5 589 77 589 191 L589 588 C589 622 610 647 639 649 L647 650 L647 660 Z " />
<glyph glyph-name="u_ring" unicode="&#x16f;" horiz-adv-x="569" d="M211 628 C211 666 238 694 275 694 C312 694 338 666 338 628 C338 593 308 561 275 561 C242 561 211 593 211 628 L211 628 Z M179 628 C179 579 225 535 275 535 C325 535 370 579 370 628 C370 681 330 720 275 720 C219 720 179 681 179 628 L179 628 Z M14 490 L22 489 C48 487 66 465 66 436 L66 154 C66 62 116 -5 205 -5 C258.632 -5 317.222 27.226 368 73.651 L368 0 L391 0 L535 45 L535 51 C495.583 65.7813 483 76.5334 483 122 L483 500 L316 500 L316 490 L324 489 C350 487 368 465 368 436 L368 91.7186 C352.286 79.4877 327.501 71 295 71 C222 71 180 111 180 166 L181 500 L14 500 L14 490 Z " />
<glyph glyph-name="W_cap_circumflex" unicode="&#x174;" horiz-adv-x="1007" d="M1002 660 L844 660 L844 650 L861 649 C890.213 648.109 904.743 624.693 896.184 596 L707 -15 L739 -15 L936.604 605.384 C949.978 634.425 972.865 646.358 1002 650 L1002 660 Z M241 660 L2 660 L2 650 C28.0645 645.656 51.2353 629.652 64 596 L64.1259 596 L304 -15 L336 -15 L561 670 L529 670 L362 163 L202.565 596 C192.671 624.254 203.479 647.26 232 649 L241 650 L241 660 Z M582 872 C577 881 563 904 545 904 C528 904 514 881 509 872 C509 872 423 704 420 701 L432 691 C485.768 754.849 522.251 790.582 545.653 810.478 C590.72 765.669 658 691 658 691 L670 701 C670 701 627 780 582 872 L582 872 Z M508 836 C504.995 842.14 505.336 844.201 508.198 843.144 L508 836 Z M707 -15 L766 176 L561 670 L495 468 L707 -15 Z " />
<glyph glyph-name="Y_cap_circumflex" unicode="&#x176;" horiz-adv-x="657" d="M248 660 L1 660 L1 650 C24.2908 646.118 45.4092 633.913 65.9615 606.327 L261.118 288.544 L261.82 59.0166 C259.88 32.5101 242.489 12.8837 218 11 L210 10 L210 0 L441 0 L441 10 L433 11 C407 13 389 35 389 64 L389 326.695 L575.347 597.919 C598.509 630.36 626.104 645.729 656 650 L656 660 L504 660 L504 650 L514 649 C547.242 647.115 551.636 617.677 526.165 580 L373.398 352.986 L222.934 599.492 C207.599 626.751 215.054 647.081 240 649 L248 650 L248 660 Z M363 872 C358 881 344 904 326 904 C309 904 295 881 290 872 C290 872 204 704 201 701 L213 691 C266.768 754.849 303.251 790.582 326.653 810.478 C371.72 765.669 439 691 439 691 L451 701 C451 701 408 780 363 872 L363 872 Z M289 836 C285.995 842.14 286.336 844.201 289.198 843.144 L289 836 Z " />
<glyph glyph-name="Y_cap_dieresis" unicode="&#x178;" horiz-adv-x="657" d="M428 730 C469 730 498 759 498 800 C498 841 469 871 428 871 C387 871 358 841 358 800 C358 759 387 730 428 730 L428 730 Z M224 730 C265 730 294 759 294 800 C294 841 265 871 224 871 C183 871 154 841 154 800 C154 759 183 730 224 730 L224 730 Z M248 660 L1 660 L1 650 C24.2908 646.118 45.4092 633.913 65.9615 606.327 L261.118 288.544 L261.82 59.0166 C259.88 32.5101 242.489 12.8837 218 11 L210 10 L210 0 L441 0 L441 10 L433 11 C407 13 389 35 389 64 L389 326.695 L575.347 597.919 C598.509 630.36 626.104 645.729 656 650 L656 660 L504 660 L504 650 L514 649 C547.242 647.115 551.636 617.677 526.165 580 L373.398 352.986 L222.934 599.492 C207.599 626.751 215.054 647.081 240 649 L248 650 L248 660 Z " />
<glyph glyph-name="Z_cap_acute" unicode="&#x179;" horiz-adv-x="600" d="M327 690 C327 690 413 775 443 814 C464 837 479 856 479 861 C479 875 432 909 413 909 C409 909 398 888 385 859 C355 820 314 699 314 699 L327 690 Z M513.824 16 L515 16 C521 49 530 98 536 131 C531.19 133.405 523 136 523 136 L506 104 C483 63 438 33 397 33 L193.5 33 L545 660 L80 660 L76 644 L77 644 C69 616 58 574 50 546 L58 546 L74 565 C104 602 152 628 189 628 L381.206 628 L32 0 L511 0 L513.824 16 Z " />
<glyph glyph-name="z_acute" unicode="&#x17a;" horiz-adv-x="499" d="M196 530 C196 530 283 615 313 654 C333 676 348 695 348 701 C348 715 302 749 283 749 C279 749 267 728 254 699 C224 660 183 539 183 539 L196 530 Z M63 420 C94.392 451.449 143.517 472.965 180.082 473.289 L301.342 473.731 L37 0 L419 0 L421 13 L423 13 C428 45 436 92 442 124 C437.19 126.405 429 129 429 129 L412 97 C389 56 344 26 303 26 L187.352 26 L449 500 L69 500 L65 486 L66.7271 486 C60.7298 464.039 51.9097 432.669 46 411 L54 411 L63 420 Z " />
<glyph glyph-name="Z_cap_dot_accent" unicode="&#x17b;" horiz-adv-x="600" d="M327 730 C368 730 397 759 397 800 C397 841 368 871 327 871 C286 871 256 841 256 800 C256 759 286 730 327 730 L327 730 Z M513.824 16 L515 16 C521 49 530 98 536 131 C531.19 133.405 523 136 523 136 L506 104 C483 63 438 33 397 33 L193.5 33 L545 660 L80 660 L76 644 L77 644 C69 616 58 574 50 546 L58 546 L74 565 C104 602 152 628 189 628 L381.206 628 L32 0 L511 0 L513.824 16 Z " />
<glyph glyph-name="z_dot_accent" unicode="&#x17c;" horiz-adv-x="499" d="M272 570 C313 570 342 599 342 640 C342 681 313 711 272 711 C231 711 202 681 202 640 C202 599 231 570 272 570 L272 570 Z M63 420 C94.392 451.449 143.517 472.965 180.082 473.289 L301.342 473.731 L37 0 L419 0 L421 13 L423 13 C428 45 436 92 442 124 C437.19 126.405 429 129 429 129 L412 97 C389 56 344 26 303 26 L187.352 26 L449 500 L69 500 L65 486 L66.7271 486 C60.7298 464.039 51.9097 432.669 46 411 L54 411 L63 420 Z " />
<glyph glyph-name="Z_cap_caron" unicode="&#x17d;" horiz-adv-x="600" d="M440 929 C440 929 372.231 853.789 327.163 809.036 C303.618 828.773 266.98 864.51 213 929 L201 919 C204 916 290 748 290 748 C295 739 309 716 327 716 C344 716 358 739 363 748 C407 838 452 919 452 919 L440 929 Z M290 776.786 C287.321 775.898 287.066 778.005 290 784 L290 776.786 Z M513.824 16 L515 16 C521 49 530 98 536 131 C531.19 133.405 523 136 523 136 L506 104 C483 63 438 33 397 33 L193.5 33 L545 660 L80 660 L76 644 L77 644 C69 616 58 574 50 546 L58 546 L74 565 C104 602 152 628 189 628 L381.206 628 L32 1.52588e-005 L511 1.52588e-005 L513.824 16 Z " />
<glyph glyph-name="z_caron" unicode="&#x17e;" horiz-adv-x="499" d="M385 769 C385 769 317.72 694.331 272.653 649.522 C249.251 669.418 212.768 705.151 159 769 L147 759 C150 756 236 588 236 588 C241 579 255 556 272 556 C290 556 304 579 309 588 C354 680 397 759 397 759 L385 769 Z M63 420 C94.392 451.449 143.517 472.965 180.082 473.289 L301.342 473.731 L37 0 L419 0 L421 13 L423 13 C428 45 436 92 442 124 C437.19 126.405 429 129 429 129 L412 97 C389 56 344 26 303 26 L187.352 26 L449 500 L69 500 L65 486 L66.7271 486 C60.7298 464.039 51.9097 432.669 46 411 L54 411 L63 420 Z M235.198 616.856 C232.336 615.799 231.995 617.86 235 624 L235.198 616.856 Z " />
<glyph glyph-name="Q_sc" unicode="&#x1eb;" horiz-adv-x="710" d="M731 -39 L720 -31 C707 -50 648 -63 580 -63 C484.229 -63 411.617 -39.068 366.914 -4.7701 C554.245 1.46323 660 133.515 660 277 C660 424 549 558 353 558 C156 558 45 424 45 277 C45 137.292 145.261 8.4225 324.322 -4.01851 C406.435 -82.6571 495.251 -138 568 -138 C622 -138 690 -96 731 -39 L731 -39 Z M172 277 C172 409 238 530 353 530 C468 530 533 409 533 277 C533 145 468 24 353 24 C238 24 172 145 172 277 L172 277 Z " />
<glyph glyph-name="A_cap_dotaccent" unicode="&#x226;" horiz-adv-x="688" d="M319 730 C360 730 389 759 389 800 C389 841 360 871 319 871 C278 871 249 841 249 800 C249 759 278 730 319 730 L319 730 Z M429 0 L680 0 L680 10 L673 10 C652.266 8.11511 627.98 28.4352 612.696 58.4042 L335 675 L303 675 L66.8711 54.8172 C51.6793 25.7583 28.1706 13.7713 -2 10 L-2 0 L165 0 L165 10 L154 11 C118.635 12.8136 104.463 40.5214 116.698 76 L173.551 232 L398.337 232 L473.232 61.0866 C484.169 33.537 471.987 12.9325 443 11 L429 10 L429 0 Z M384.315 264 L185.213 264 L275.616 512.056 L384.315 264 Z " />
<glyph glyph-name="G_sc" unicode="&#x262;" horiz-adv-x="741" d="M592 388 L592 500 L585 487 C584.875 487.071 584.749 487.143 584.624 487.215 L592 500 C534 534 443 558 375 558 C184 558 45 440 45 277 C45 113 184 -5 375 -5 C444 -5 538 20 597 54 L597 196 C597 225 615 247 641 249 L649 250 L649 260 L442 260 L442 250 L450 249 C476 247 494 225 494 196 L494 42.8145 C453.924 31.1355 411.204 24 375 24 C257 24 172 130 172 277 C172 424 257 530 375 530 C395.273 530 418.197 527.349 441.826 522.635 C493.282 511.946 547.281 467.38 571 415 C575 407 579 396 583 388 L592 388 Z " />
<glyph glyph-name="I_sc" unicode="&#x26a;" horiz-adv-x="304" d="M265 10 L257 11 C231 13 213 35 213 64 L213 489 C213 518 231 540 257 542 L265 543 L265 553 L46 553 L46 543 L54 542 C80 540 98 518 98 489 L98 64 C98 35 80 13 54 11 L46 10 L46 0 L265 0 L265 10 Z " />
<glyph glyph-name="N_sc" unicode="&#x274;" horiz-adv-x="620" d="M38 543 L46 542 C72 540 90 518 90 489 L90 64 C90 35 72 13 46 11 L38 10 L38 0 L176 0 L176 10 L168 11 C142 13 124 35 124 64 L124 455.136 C248.286 296.726 372.412 138.131 497 -20 L532 -20 L532 489 C532 518 550 540 576 542 L584 543 L584 553 L445 553 L445 543 L453 542 C479 540 497 518 497 489 L497 163.327 L193 553 L38 553 L38 543 Z M124 504.553 L124 505 L124 504.553 Z " />
<glyph glyph-name="R_sc" unicode="&#x280;" horiz-adv-x="627" d="M36 543 L44 542 C70 540 88 518 88 489 L88 64 C88 35 70 13 44 11 L36 10 L36 0 L255 0 L255 10 L247 11 C221 13 203 35 203 64 L203 261 L247.65 261 C273.539 229.196 318.682 173.582 373 106 C453 8 468 0 587 0 L627 0 L627 23 C581.362 23 577.741 24.8422 530 84 C457.291 173.949 399.19 244.795 374.651 274.637 C457.594 297.737 511 348.324 511 412 C511 494 416 553 284 553 L36 553 L36 543 Z M268 290 L203 290 L203 524 L284 525 C345 525 390 478 390 412 C390 341 339 290 268 290 L268 290 Z " />
<glyph glyph-name="Y_sc" unicode="&#x28f;" horiz-adv-x="580" d="M236 553 L5 553 L5 543 C27.9069 539.182 48.3767 527.571 68.8214 500.837 L231 243.089 L231 64 C231 35 213 13 187 11 L179 10 L179 1.52588e-005 L398 1.52588e-005 L398 10 L390 11 C364 13 346 35 346 64 L346 277.524 L502.151 498.119 C526.197 526.515 551.12 539.017 579 543 L579 553 L430 553 L430 543 L440 542 C471.091 540.116 476.44 514.264 455.21 479.5 L326.695 293.518 L211.662 489 C195.661 517.372 201.541 540.219 228 542 L236 543 L236 553 Z " />
<glyph glyph-name="B_sc" unicode="&#x299;" horiz-adv-x="581" d="M36 543 L44 542 C70 540 88 518 88 489 L88 64 C88 35 70 13 44 11 L36 10 L36 0 L306 0 C454 0 561 65 561 155 C561 227.66 482.478 283.903 366.446 299.602 C450.325 319.089 505 363.804 505 420 C505 497 412 553 284 553 L36 553 L36 543 Z M203 306 L203 524 C203 524 261 525 284 525 C345 525 390 481 390 420 C390 354 339 306 268 306 L203 306 Z M203 281 L265 281 C367 281 440 228 440 155 C440 82 379 29 294 29 L203 29 L203 281 Z " />
<glyph glyph-name="H_sc" unicode="&#x29c;" horiz-adv-x="691" d="M652 10 L644 11 C618 13 600 35 600 64 L600 489 C600 518 618 540 644 542 L652 543 L652 553 L433 553 L433 543 L441 542 C467 540 485 518 485 489 L485 307 L210 307 L210 489 C210 518 228 540 254 542 L262 543 L262 553 L43 553 L43 543 L51 542 C77 540 95 518 95 489 L95 64 C95 35 77 13 51 11 L43 10 L43 0 L262 0 L262 10 L254 11 C228 13 210 35 210 64 L210 278 L485 278 L485 64 C485 35 467 13 441 11 L433 10 L433 0 L652 0 L652 10 Z " />
<glyph glyph-name="L_sc" unicode="&#x29f;" horiz-adv-x="559" d="M262 553 L43 553 L43 543 L51 542 C77 540 95 518 95 489 L95 64 C95 35 77 13 51 11 L43 10 L43 0 L470 0 L472.8 14 L474 14 C480 47 488 94 494 127 C489.19 129.405 481 132 481 132 L464 100 C441 59 396 29 355 29 L210 29 L210 489 C210 518 228 540 254 542 L262 543 L262 553 Z " />
<glyph glyph-name="circumflex_glyph" unicode="&#x2c6;" horiz-adv-x="359" d="M217 712 C212 721 198 744 180 744 C162 744 148 721 143 712 C143 712 56 543 55 541 L66 531 C119.98 595.49 156.618 631.227 180.163 650.964 C225.231 606.211 293 531 293 531 L305 541 C305 541 262 620 217 712 L217 712 Z M143 676 C140.066 681.995 140.321 684.102 143 683.214 L143 676 Z " />
<glyph glyph-name="caron_glyph" unicode="&#x2c7;" horiz-adv-x="359" d="M293 769 C293 769 225.231 693.789 180.163 649.036 C156.618 668.773 119.98 704.51 66 769 L55 759 C56 757 143 588 143 588 C148 579 162 556 180 556 C198 556 212 579 217 588 C262 680 305 759 305 759 L293 769 Z M143 616.786 C140.321 615.898 140.066 618.005 143 624 L143 616.786 Z " />
<glyph glyph-name="macron_glyph" unicode="&#x2c9;" horiz-adv-x="359" d="M22 601 L338 601 L338 665 L22 665 L22 601 Z " />
<glyph glyph-name="breve_glyph" unicode="&#x2d8;" horiz-adv-x="359" d="M40 710 C73 632 132 576 180 576 C228 576 287 632 320 710 L302 718 C286 680 235 652 180 652 C125 652 74 680 58 718 L40 710 Z " />
<glyph glyph-name="dotaccent_glyph" unicode="&#x2d9;" horiz-adv-x="359" d="M180 570 C221 570 250 599 250 640 C250 681 221 711 180 711 C139 711 110 681 110 640 C110 599 139 570 180 570 L180 570 Z " />
<glyph glyph-name="ring_glyph" unicode="&#x2da;" horiz-adv-x="359" d="M116 628 C116 666 143 694 180 694 C217 694 243 666 243 628 C243 593 213 561 180 561 C147 561 116 593 116 628 L116 628 Z M84 628 C84 579 130 535 180 535 C230 535 275 579 275 628 C275 681 235 720 180 720 C124 720 84 681 84 628 L84 628 Z " />
<glyph glyph-name="A_sc" unicode="&#x1d00;" horiz-adv-x="609" d="M364 0 L601 0 L601 10 C574.558 6.22264 550.85 23.6879 532.554 58.8428 L296 566 L268 566 L71.1794 61.9255 C57.5723 28.8932 30.4501 13.9313 -1.00002 10 L-1.00002 1.52588e-005 L161 1.52588e-005 L161 10 L150 11 C117.076 12.8814 101.85 36.8843 110.98 69.691 L157.322 194 L346.175 194 L408.192 58.5511 C417.523 32.2805 406.091 12.8727 378 11 L364 10 L364 0 Z M333.239 222.253 L168.102 222.919 L242.078 421.357 L333.239 222.253 Z " />
<glyph glyph-name="C_sc" unicode="&#x1d04;" horiz-adv-x="672" d="M612 388 L612 500 L605 487 C604.876 487.073 604.751 487.146 604.626 487.219 L612 500 C554 534 458 558 385 558 C188 558 45 440 45 277 C45 113 188 -5 385 -5 C457 -5 553 20 612 54 L604.406 66.6561 C604.605 66.7707 604.803 66.8853 605 67 L612 54 L612 165 L603 165 C599 157 595 146 591 138 C565 82 497 35 430.013 26.9016 C414.424 25.0102 399.251 24 385 24 C261 24 172 130 172 277 C172 424 261 530 385 530 C410.196 530 438.503 526.606 466.996 520.669 C516.252 508.472 567.938 464.968 591 415 C595 407 599 396 603 388 L612 388 Z " />
<glyph glyph-name="D_sc" unicode="&#x1d05;" horiz-adv-x="675" d="M36 543 L44 542 C70 540 88 518 88 489 L88 64 C88 35 70 13 44 11 L36 10 L36 0 L310 0 C493 0 625 116 625 277 C625 437 481 553 283 553 L36 553 L36 543 Z M203 29 L203 524 C226 524 260 525 283 525 C415 525 510 421 510 277 C510 133 426 29 310 29 L203 29 Z " />
<glyph glyph-name="E_sc" unicode="&#x1d07;" horiz-adv-x="559" d="M403 223 L403 361 L395 361 L391 353 C380 327 343 309 305 309 L210 309 L210 524 C251.128 524 302.698 524.326 352.78 524.606 C395.984 520.76 439.27 489.142 458 447 L465 432 L472 432 L472 553 L43 553 L43 543 L51 542 C77 540 95 518 95 489 L95 64 C95 35 77 13 51 11 L43 10 L43 0 L471 0 L473.8 14 L474 14 C480 45 488 91 493 122 L486 122 L476 107 C448 62 394 29 348 29 L210 29 L210 281 L305 281 C343 281 379 260 391 231 L395 223 L403 223 Z " />
<glyph glyph-name="J_sc" unicode="&#x1d0a;" horiz-adv-x="375" d="M336 553 L117 553 L117 543 L125 542 C151 540 169 518 169 489 L169 168 C169 60 160 13 138 13 C119 13 102 31 97 57 C92 84 70 104 46 104 C14 104 -5 85 0 58 C28 58 97 57 97 57 L0 58 C8 19 54 -10 110 -10 C231 -10 284 74 284 265 L284 489 C284 518 302 540 328 542 L336 543 L336 553 Z " />
<glyph glyph-name="K_sc" unicode="&#x1d0b;" horiz-adv-x="603" d="M255 553 L36 553 L36 543 L44 542 C70 540 88 518 88 489 L88 64 C88 35 70 13 44 11 L36 10 L36 0 L255 0 L255 10 L247 11 C221 13 203 35 203 64 L203 298 C203 298 252 225 319 125 C380 35 451 -5 553 -5 L593 -5 L593 18 C542.019 18 488.159 72.785 396 210 C352.551 274.85 316.671 328.345 296.816 357.939 L420.105 494.437 C449.933 524.815 482.443 538.93 515 543 L515 553 L385 553 L385 543 L391 542 C410.418 540.181 404.26 517.489 378.271 489 L280.422 382.371 C280.142 382.788 280 383 280 383 L203 298 L203 489 C203 518 221 540 247 542 L255 543 L255 553 Z " />
<glyph glyph-name="M_sc" unicode="&#x1d0d;" horiz-adv-x="783" d="M746 554 L644 554 L644.046 553 L592 553 L409.887 124.227 C338.531 266.939 267.955 410.077 197 553 L56 553 L56 543 L64 542 C89.102 540.063 105.892 517.82 105.107 489 L85.6911 59.5278 C82.9032 32.7627 63.698 12.8959 40 11 L32 10 L32 1.52588e-005 L194 1.52588e-005 L194 10 L181 11 C147.895 12.8392 123.247 35.8188 121.051 67.4972 L136.877 417.559 C209.53 276.651 282.742 136.303 355 -4.99998 L384 -4.99998 L594.73 469.142 L608.029 60.5426 C607.544 33.2661 589.996 12.9197 566 11 L558 10 L558 1.52588e-005 L776 1.52588e-005 L776 10 L768 11 C742.579 12.7275 724.415 35.7673 721.528 64 L698.472 489 L699 489 C697 519 714 541 738 543 L746 544 L746 554 Z " />
<glyph glyph-name="O_sc" unicode="&#x1d0f;" horiz-adv-x="710" d="M172 277 C172 409 238 530 353 530 C468 530 533 409 533 277 C533 145 468 24 353 24 C238 24 172 145 172 277 L172 277 Z M45 277 C45 130 156 -5 353 -5 C549 -5 660 130 660 277 C660 424 549 558 353 558 C156 558 45 424 45 277 L45 277 Z " />
<glyph glyph-name="P_sc" unicode="&#x1d18;" horiz-adv-x="530" d="M255 10 L247 11 C221 13 203 35 203 64 L203 246 L268 246 C408 246 510 311 510 400 C510 489 415 553 284 553 L36 553 L36 543 L44 542 C70 540 88 518 88 489 L88 64 C88 35 70 13 44 11 L36 10 L36 0 L255 0 L255 10 Z M203 275 L203 524 C226 524 261 525 284 525 C345 525 389 473 389 400 C389 328 338 275 268 275 L203 275 Z " />
<glyph glyph-name="T_sc" unicode="&#x1d1b;" horiz-adv-x="571" d="M9 422 L30 462 C50 499 90 525 127 525 L228 525 L228 64 C228 35 210 13 184 11 L176 10 L176 0 L395 0 L395 10 L387 11 C361 13 343 35 343 64 L343 525 L443 525 C480.898 525.323 520.68 499.235 540 462 L561 422 L569 422 C566 456 562 505 559 539 L558 553 L12 553 L11 539 C8 505 4 456 1 422 L9 422 Z " />
<glyph glyph-name="U_sc" unicode="&#x1d1c;" horiz-adv-x="593" d="M573 553 L418 553 L418 543 L427 542 C458 540 480 515 480 481 L480 165 C480 90 431 35 318 35 C231 35 193 86 193 156 L193 489 C193 518 211 540 237 542 L245 543 L245 553 L26 553 L26 543 L34 542 C60 540 78 518 78 489 L78 179 C78 72 146 -5 301 -5 C450 -5 515 61 515 153 L515 481 C515 515 536 540 565 542 L573 543 L573 553 Z " />
<glyph glyph-name="V_sc" unicode="&#x1d20;" horiz-adv-x="599" d="M230 553 L-1 553 L-1 543 C23.5862 538.902 45.2458 525.742 62.197 496.206 L307 -15 L336 -15 L525.887 489 C537.055 517.847 563.922 540.053 590 542 L598 543 L598 553 L433 553 L433 543 L444 542 C479.878 540.112 497.035 511.481 485.374 472.099 L357.336 122.456 L188.244 493.256 C178.136 520.13 189.486 540.099 218 542 L230 543 L230 553 Z " />
<glyph glyph-name="W_sc" unicode="&#x1d21;" horiz-adv-x="862" d="M857 553 L702 553 L702 543 L719 542 C748.328 541.168 762.605 517.528 754.282 489 L599 -15 L628 -15 L791.578 498.329 C804.94 527.402 827.848 539.356 857 543 L857 553 Z M227 553 L1.99998 553 L1.99998 543 C26.0612 538.99 45.3313 527.735 59.8424 500.384 L264 -15 L293 -15 L426 393 L599 -15 L648 145 L481 563 L452 563 L312.89 135.311 L187.66 489 C178.509 517.418 189.6 540.203 218 542 L227 543 L227 553 Z " />
<glyph glyph-name="Z_sc" unicode="&#x1d22;" horiz-adv-x="536" d="M452 15 L453 15 C459 48 467 95 473 128 C468.19 130.405 460 133 460 133 L443 101 C420 60 375 30 334 30 L182.143 30 L481 553 L87 553 L83 539 L85 539 C77 511 66 471 58 443 L66 443 L82 462 C112 499 160 525 197 525 L334.101 525 L36 0 L449 0 L452 15 Z " />
<glyph glyph-name="W_cap_grave" unicode="&#x1e80;" horiz-adv-x="1007" d="M1002 660 L844 660 L844 650 L861 649 C890.213 648.109 904.743 624.693 896.184 596 L707 -15 L739 -15 L936.604 605.384 C949.978 634.425 972.865 646.358 1002 650 L1002 660 Z M241 660 L2 660 L2 650 C28.0645 645.656 51.2353 629.652 64 596 L64.1259 596 L304 -15 L336 -15 L561 670 L529 670 L362 163 L202.565 596 C192.671 624.254 203.479 647.26 232 649 L241 650 L241 660 Z M461 861 C461 854 476 835 497 814 C528 775 617 690 617 690 L630 699 C630 699 587 820 556 859 C543 888 531 909 526 909 C507 909 461 875 461 861 L461 861 Z M707 -15 L766 176 L561 670 L495 468 L707 -15 Z " />
<glyph glyph-name="W_cap_acute" unicode="&#x1e82;" horiz-adv-x="1007" d="M484 690 C484 690 571 775 601 814 C621 836 636 855 636 861 C636 875 590 909 571 909 C567 909 555 888 542 859 C512 820 471 699 471 699 L484 690 Z M1002 660 L844 660 L844 650 L861 649 C890.213 648.109 904.743 624.693 896.184 596 L707 -15 L739 -15 L936.604 605.384 C949.978 634.425 972.865 646.358 1002 650 L1002 660 Z M241 660 L2 660 L2 650 C28.0645 645.656 51.2353 629.652 64 596 L64.1259 596 L304 -15 L336 -15 L561 670 L529 670 L362 163 L202.565 596 C192.671 624.254 203.479 647.26 232 649 L241 650 L241 660 Z M707 -15 L766 176 L561 670 L495 468 L707 -15 Z " />
<glyph glyph-name="W_cap_dieresis" unicode="&#x1e84;" horiz-adv-x="1007" d="M647 730 C688 730 717 759 717 800 C717 841 688 871 647 871 C606 871 577 841 577 800 C577 759 606 730 647 730 L647 730 Z M443 730 C484 730 513 759 513 800 C513 841 484 871 443 871 C402 871 373 841 373 800 C373 759 402 730 443 730 L443 730 Z M1002 660 L844 660 L844 650 L861 649 C890.213 648.109 904.743 624.693 896.184 596 L707 -15 L739 -15 L936.604 605.384 C949.978 634.425 972.865 646.358 1002 650 L1002 660 Z M241 660 L2 660 L2 650 C28.0645 645.656 51.2353 629.652 64 596 L64.1259 596 L304 -15 L336 -15 L561 670 L529 670 L362 163 L202.565 596 C192.671 624.254 203.479 647.26 232 649 L241 650 L241 660 Z M707 -15 L766 176 L561 670 L495 468 L707 -15 Z " />
<glyph glyph-name="E_cap_tilde" unicode="&#x1ebc;" horiz-adv-x="617" d="M154 755 C154 787 172 811 197 811 C250 811 327 748 380 748 C434 748 473 806 473 885 L454 885 C454 850 433 825 405 825 C352 825 275 887 222 887 C172 887 135 832 135 755 L154 755 Z M461 278 L461 420 L453 420 L449 412 C438 386 401 368 363 368 L219 368 L219 628 L403 628 C449 628 497 595 517 550 L524 535 L531 535 L531 660 L40 660 L40 650 L48 649 C74 647 92 625 92 596 L92 64 C92 35 74 13 48 11 L40 10 L40 0 L530 0 L533 16 C539 48 547 93 553 125 L546 125 L536 110 C508 65 454 32 408 32 L219 32 L219 336 L363 336 C401 336 437 315 449 286 L453 278 L461 278 Z " />
<glyph glyph-name="Y_cap_grave" unicode="&#x1ef2;" horiz-adv-x="657" d="M248 660 L1 660 L1 650 C24.2908 646.118 45.4092 633.913 65.9615 606.327 L261.118 288.544 L261.82 59.0166 C259.88 32.5101 242.489 12.8837 218 11 L210 10 L210 0 L441 0 L441 10 L433 11 C407 13 389 35 389 64 L389 326.695 L575.347 597.919 C598.509 630.36 626.104 645.729 656 650 L656 660 L504 660 L504 650 L514 649 C547.242 647.115 551.636 617.677 526.165 580 L373.398 352.986 L222.934 599.492 C207.599 626.751 215.054 647.081 240 649 L248 650 L248 660 Z M242 861 C242 854 257 835 278 814 C309 775 398 690 398 690 L411 699 C411 699 368 820 337 859 C324 888 312 909 307 909 C288 909 242 875 242 861 L242 861 Z " />
<glyph glyph-name="quoteleft" unicode="&#x2018;" horiz-adv-x="283" d="M139 342 C185 342 218 375 218 421 C218 474.831 169.067 515.87 111.682 496.662 C104.118 567.203 145.091 634.666 195 653 L189 670 C105 638 45 548 45 454 C45 400.849 80.177 342 139 342 L139 342 Z " />
<glyph glyph-name="quoteright" unicode="&#x2019;" horiz-adv-x="283" d="M139 665 C93 665 60 632 60 586 C60 532.169 108.933 491.13 166.318 510.338 C173.882 439.797 132.909 372.334 83 354 L89 337 C173 369 233 459 233 553 C233 606.151 197.823 665 139 665 L139 665 Z " />
<glyph glyph-name="quotedblleft" unicode="&#x201c;" horiz-adv-x="506" d="M362 342 C408 342 441 375 441 421 C441 474.831 392.067 515.87 334.682 496.662 C327.118 567.203 368.091 634.666 418 653 L412 670 C328 638 268 548 268 454 C268 400.849 303.177 342 362 342 L362 342 Z M139 342 C185 342 218 375 218 421 C218 474.831 169.067 515.87 111.682 496.662 C104.118 567.203 145.091 634.666 195 653 L189 670 C105 638 45 548 45 454 C45 400.849 80.177 342 139 342 L139 342 Z " />
<glyph glyph-name="quotedblright" unicode="&#x201d;" horiz-adv-x="506" d="M362 665 C316 665 283 632 283 586 C283 532.169 331.933 491.13 389.318 510.338 C396.882 439.797 355.909 372.334 306 354 L312 337 C396 369 456 459 456 553 C456 606.151 420.823 665 362 665 L362 665 Z M139 665 C93 665 60 632 60 586 C60 532.169 108.933 491.13 166.318 510.338 C173.882 439.797 132.909 372.334 83 354 L89 337 C173 369 233 459 233 553 C233 606.151 197.823 665 139 665 L139 665 Z " />
<glyph glyph-name="ellipsis" unicode="&#x2026;" horiz-adv-x="645" d="M538 0 C584 0 618 34 618 80 C618 126 584 160 538 160 C492 160 458 126 458 80 C458 34 492 0 538 0 L538 0 Z M323 0 C369 0 403 34 403 80 C403 126 369 160 323 160 C277 160 243 126 243 80 C243 34 277 0 323 0 L323 0 Z M108 0 C154 0 188 34 188 80 C188 126 154 160 108 160 C62 160 28 126 28 80 C28 34 62 0 108 0 L108 0 Z " />
<glyph glyph-name="perthousand" unicode="&#x2030;" horiz-adv-x="1178" d="M961 200 C961 282 974 341 992 341 C1030 341 1058 263 1058 155 C1058 84 1041 32 1018 32 C985 32 961 103 961 200 L961 200 Z M848 179 C848 72 915 -5 1008 -5 C1100 -5 1166 79 1166 194 C1166 299 1100 375 1008 375 C915 375 848 293 848 179 L848 179 Z M143 552 C143 633 156 691 175 691 C213 691 241 613 241 506 C241 435 224 383 201 383 C167 383 143 454 143 552 L143 552 Z M31 530 C31 423 98 345 191 345 C283 345 349 429 349 545 C349 649 283 725 191 725 C98 725 31 643 31 530 L31 530 Z M582 200 C582 282 599 341 622 341 C668 341 702 262 702 154 C702 83 679 32 648 32 C610 32 582 103 582 200 L582 200 Z M469 178 C469 72 540 -5 638 -5 C738 -5 810 79 810 194 C810 299 738 375 638 375 C540 375 469 292 469 178 L469 178 Z M216 -17 L689 703 L638 737 L165 17 L216 -17 Z " />
<glyph glyph-name="guilsinglleft" unicode="&#x2039;" horiz-adv-x="315" d="M135.705 251.875 L267 454 L255 466 L20 258 L20 245 L258 37 L270 50 L135.705 251.875 Z " />
<glyph glyph-name="guilsinglright" unicode="&#x203a;" horiz-adv-x="315" d="M57 37 L295 245 L295 258 L60 466 L48 454 L179.295 251.875 L45 50 L57 37 Z " />
<glyph glyph-name="fraction" unicode="&#x2044;" horiz-adv-x="490" d="M55 -17 L528 703 L478 737 L5 17 L55 -17 Z " />
<glyph glyph-name="euro" unicode="&#x20ac;" horiz-adv-x="805" d="M736 168 C732 160 728 150 724 142 C700.553 91.3549 641.043 47.7466 579.291 35.0989 C547.327 29.9096 514.588 27 484 27 C372.859 27 286.221 104.799 253.815 223 L525 223 L536 305 L240.698 305 C239.776 321.36 239.776 338.639 240.698 355 L536 355 L548 437 L253.815 437 C286.221 555.201 372.859 633 484 633 C491.983 633 599.897 626.082 599 621 C648 612 700 568 724 518 C728 510 732 500 736 492 L745 492 L745 607 L737 593 C736.948 593.029 736.896 593.057 736.844 593.086 L745 607 C687 641 577 665 484 665 C304.576 665 164.642 573.721 116.804 437 L62 437 L50 355 L99.9106 355 C98.7063 338.603 98.7063 321.398 99.9106 305 L50 305 L38 223 L116.804 223 C164.642 86.2787 304.576 -5 484 -5 C577 -5 687 19 745 53 L736.408 67.6566 C736.606 67.7711 736.804 67.8855 737 68 L745 53 L745 168 L736 168 Z " />
<glyph glyph-name="F_sc" unicode="&#xa730;" horiz-adv-x="498" d="M43 543 L51 542 C77 540 95 518 95 489 L95 64 C95 35 77 13 51 11 L43 10 L43 0 L272 0 L272 10 L261 11 C231 13 210 35 210 64 L210 277 L295 277 C333 277 369 256 381 227 L385 219 L393 219 L393 357 L385 357 L381 349 C370 323 333 305 295 305 L210 305 L210 524 C259.596 524 322.314 524.375 382.085 524.666 C425.518 521.099 469.17 489.368 488 447 L495 432 L502 432 L502 553 L43 553 L43 543 Z " />
<glyph glyph-name="S_sc" unicode="&#xa731;" horiz-adv-x="463" d="M376 391 L376 512 C330 539 271 558 235 558 C122 558 41 485 41 385 C41 322 100 259 182 234 C272 207 337 155 337 112 C337 47.1204 258.988 11.6794 179.202 29.1144 C133.038 42.4707 84.6296 85.1055 61 136 C57 144 53 154 49 162 L40 162 L40 41 L50 59 C50.0713 58.9583 50.1427 58.9165 50.2142 58.8748 L40 41 C86 14 162 -5 220 -5 C335 -5 418 64 418 159 C418 225 355 292 267 319 C182 345 121 392 121 431 C121 488 167 530 230 530 C238.151 530 251.783 526.346 268.663 519.917 C297.29 507.075 326.149 479.537 339 452 C347 434 359 409 367 391 L376 391 Z " />
<glyph glyph-name="X_sc" unicode="&#xf078;" horiz-adv-x="611" d="M258 553 L27 553 L27 543 C50.8812 539.02 73.6173 525.89 95.2744 497.139 C148.1 417.795 201.587 338.168 254 259 L116.993 58.5207 C93.267 27.8601 64.1289 14.0161 32 9.99998 L32 -1.52588e-005 L190 -1.52588e-005 L190 9.99998 L180 11 C146.832 12.9222 140.245 40.2182 163.884 76 L269.211 236.469 L384.295 64 C402.405 35.5277 396.416 12.8164 367 11 L358 9.99998 L358 -1.52588e-005 L590 -1.52588e-005 L590 9.99998 C565.795 14.0342 542.453 27.7055 520.733 57.1935 C462.032 145.373 401.672 234.261 344 322 L458.948 489 C482.245 522.693 514.181 538.773 548 543 L548 553 L388 553 L388 543 L404 542 C433.634 540.281 440.108 517.21 422.442 489 L328.557 344.418 L231.821 489 C213.36 517.68 219.748 540.111 249 542 L258 543 L258 553 Z " />
</font>
</svg>
