<?xml version="1.0" encoding="UTF-8"?>
<svg xmlns="http://www.w3.org/2000/svg" xmlns:xlink="http://www.w3.org/1999/xlink" version="1.2" >
<font id="Cammron Light">
<font-face  font-family="Cammron" units-per-em="1024" ascent="936" descent="-280" font-style="normal" font-weight="300" font-stretch="normal" cap-height="927" x-height="468" underline-position="-125" underline-thickness="50" />
<missing-glyph  horiz-adv-x="100" d="" />
<glyph glyph-name="NULL" d="" />
<glyph glyph-name="CR" unicode="&#xd;" horiz-adv-x="256" d="" />
<glyph glyph-name="space" unicode="&#x20;" horiz-adv-x="253" d="" />
<glyph glyph-name="exclam" unicode="&#x21;" horiz-adv-x="178" d="M126 28 C126 70.976 60 70.8018 60 28 C60 -14.976 126 -14.8018 126 28 L126 28 Z M118 620 C119 646 107 665 90 665 C72 665 60 646 62 620 C62 480 90 136 90 136 L96 136 C96 136 118 480 118 620 L118 620 Z " />
<glyph glyph-name="quotedbl" unicode="&#x22;" horiz-adv-x="227" d="M128 660 L154 478 L161 478 L187 660 L128 660 Z M40 660 L65 478 L73 478 L98 660 L40 660 Z " />
<glyph glyph-name="numbersign" unicode="&#x23;" horiz-adv-x="554" d="M405 682 L375.985 478 L218.985 478 L248 682 L230 682 L200.985 478 L64 478 L59 442 L195.865 442 L164.006 218 L24 218 L20 182 L158.886 182 L133 0 L151 0 L176.886 182 L333.886 182 L308 0 L326 0 L351.886 182 L484 182 L489 218 L357.006 218 L388.865 442 L529 442 L534 478 L393.985 478 L423 682 L405 682 Z M213.865 442 L370.865 442 L339.006 218 L182.006 218 L213.865 442 Z " />
<glyph glyph-name="dollar" unicode="&#x24;" horiz-adv-x="520" d="M43 148 L43 46 C77.7721 25.5458 135.322 9.27539 196 0.992004 L196 -75 L212 -75 L212 -0.997879 C233.443 -3.40477 255.06 -4.78604 276 -4.97708 L276 -75 L292 -75 L292 -4.76976 C399.22 -0.252884 475 70.2757 475 167 C475 239.543 399.22 313.958 292 346.807 L292 647.411 C307.822 644.664 324.31 640.765 340.732 635.939 C366.2 625.412 392.34 601.01 404 575 L432 512 L441 512 L441 614 L437 606 C437.152 608.334 439.86 611.388 441 614 C401.895 637.003 344.565 654.714 292 661.725 L292 735 L276 735 L276 663.539 C253.934 665.584 232.71 665.597 212 662.579 L212 735 L196 735 L196 659.641 C109.861 640.463 52 571.589 52 482 C52 422.195 110.393 360.931 196 325.645 L196 15.5275 C140.454 24.8336 88.5107 67.8935 64 121 C60 129 56 140 52 148 L43 148 Z M212 374.65 L212 649.28 C232.95 652.938 253.616 652.65 276 649.82 L276 351.399 C253.17 357.913 231.698 365.774 212 374.65 L212 374.65 Z M196 382.278 C129.553 415.771 87 460.961 87 503 C87 572.975 130.695 627.723 196 645.697 L196 382.278 Z M212 319.471 C232.61 312.044 255.425 306.688 276 299.324 L276 8.03029 C255.381 8.27858 233.707 10.0456 212 13.0715 L212 319.471 Z M292 293.241 C379.472 257.987 439 200.2 439 146 C439 69.2259 378.215 12.7133 292 8.28055 L292 293.241 Z " />
<glyph glyph-name="percent" unicode="&#x25;" horiz-adv-x="812" d="M75 542 C75 640 117 711 175 711 C241 711 289 632 289 523 C289 428 246 360 186 360 C122 360 75 436 75 542 L75 542 Z M30 533 C30 424 94 345 182 345 C269 345 332 426 332 539 C332 647 269 725 182 725 C94 725 30 644 30 533 L30 533 Z M537 190 C537 289 579 361 638 361 C707 361 757 282 757 172 C757 78 711 10 648 10 C584 10 537 86 537 190 L537 190 Z M492 182 C492 74 556 -5 644 -5 C734 -5 800 76 800 188 C800 296 734 375 644 375 C556 375 492 294 492 182 L492 182 Z M192 -7 L664 713 L644 727 L171 7 L192 -7 Z " />
<glyph glyph-name="ampersand" unicode="&#x26;" horiz-adv-x="710" d="M612 300 L498 300 L498 290 L506 289 C532 287 550 265 550 236 L550 206 C550 162.69 532.947 124.03 502.993 93.0728 C436.09 153.891 329.569 281.021 274.968 361.901 C382.4 382.33 460 458.315 460 544 C460 614 399 665 314 665 C229 665 168 598 168 505 C168 465.117 191.319 412.041 229.97 351.379 C123.912 308.003 50 230.395 50 156 C50 63 139 -5 263 -5 C352.697 -5 429.613 19.2044 482.684 59.6708 C572.035 -8.62518 640.058 -12.4649 710 0 L710 8 C656.71 -1.23694 600.896 6.69128 511.349 85.5924 C542.41 119.114 560 160.235 560 206 L560 236 C560 265 578 287 604 289 L612 290 L612 300 Z M203 525 C203 600 248 655 311 655 C377 655 424 608 424 542 C424 458.62 359.53 386.787 270.234 368.977 C228.526 431.893 203 486.171 203 525 L203 525 Z M472.767 67.4468 C426.486 35.092 362.255 16 288 16 C175 16 93 82 93 174 C93 239.683 150.523 306.899 234.67 344.08 C289.531 259.772 398.478 127.148 472.767 67.4468 L472.767 67.4468 Z " />
<glyph glyph-name="quotesingle" unicode="&#x27;" horiz-adv-x="138" d="M40 660 L65 478 L73 478 L98 660 L40 660 Z " />
<glyph glyph-name="parenleft" unicode="&#x28;" horiz-adv-x="202" d="M186 690 C113 603 60 473 60 270 C60 67 113 -63 186 -150 L192 -145 C136 -78 95 44 95 270 C95 496 136 618 192 685 L186 690 Z " />
<glyph glyph-name="parenright" unicode="&#x29;" horiz-adv-x="202" d="M10 -150 C83 -63 136 67 136 270 C136 473 83 603 10 690 L4 685 C60 618 101 496 101 270 C101 44 60 -78 4 -145 L10 -150 Z " />
<glyph glyph-name="asterisk" unicode="&#x2a;" horiz-adv-x="266" d="M263 588 C284.073 597.366 268.239 626.429 249 612 L263 588 Z M248 468 C267.334 453.5 282.957 482.686 262 492 L248 468 Z M54 468 L148.71 537.324 L136 420 C133.666 396.664 166.323 396.773 164 420 L151.29 537.324 L246 468 L260 492 L152.745 539.777 L261 588 L247 612 L151.204 541.881 L164 660 C166.334 683.336 133.677 683.227 136 660 L148.796 541.881 L53 612 C33.3744 626.719 19.9857 596.895 40 588 L147.255 539.777 L40 492 C18.9874 482.661 36.0793 453.809 55 468 L54 468 Z " />
<glyph glyph-name="plus" unicode="&#x2b;" horiz-adv-x="555" d="M264 450 L264 260 L75 260 L75 240 L264 240 L264 50 L286 50 L286 240 L475 240 L475 260 L286 260 L286 450 L264 450 Z " />
<glyph glyph-name="comma" unicode="&#x2c;" horiz-adv-x="182" d="M93 61 C74 61 60 47 60 28 C60 7.36592 86.4229 -17.8377 102.642 2.12076 C111.398 -33.6058 94.6816 -74.2561 72 -85 L72 -93 C107 -76 132 -34 132 6 C132 32.9633 120.209 61 93 61 L93 61 Z " />
<glyph glyph-name="hyphen" unicode="&#x2d;" horiz-adv-x="300" d="M20 217 L280 217 L280 253 L20 253 L20 217 Z " />
<glyph glyph-name="period" unicode="&#x2e;" horiz-adv-x="218" d="M158 28 C158 70.976 92 70.8018 92 28 C92 -14.976 158 -14.8018 158 28 L158 28 Z " />
<glyph glyph-name="slash" unicode="&#x2f;" horiz-adv-x="330" d="M0 -145 L20 -145 L330 710 L310 710 L0 -145 Z " />
<glyph glyph-name="zero" unicode="0" horiz-adv-x="613" d="M101 250 C101 392 188 495 307 495 C426 495 512 392 512 250 C512 108 426 5 307 5 C188 5 101 108 101 250 L101 250 Z M50 250 C50 102 158 -5 307 -5 C455 -5 563 102 563 250 C563 398 455 505 307 505 C158 505 50 398 50 250 L50 250 Z " />
<glyph glyph-name="one" unicode="1" horiz-adv-x="258" d="M204 10 L196 11 C170 13 152 35 152 64 L152 436 C152 465 170 487 196 489 L204 490 L204 500 L55 500 L55 490 L63 489 C89 487 107 465 107 436 L107 64 C107 35 89 13 63 11 L55 10 L55 0 L204 0 L204 10 Z " />
<glyph glyph-name="two" unicode="2" horiz-adv-x="497" d="M460 98 L458 90 C454 64 430 46 401 46 L99.0895 46 C299.803 169.375 438 248.004 438 349 C438 439 369 505 273 505 C191 505 106 443 72 358 L77 354 C104 422 177 471 250 471 C329 471 387 413 387 333 C387 212 235 142 25 10 L25 0 L461 0 L463 23 C465 45 468 76 470 98 L460 98 Z " />
<glyph glyph-name="three" unicode="3" horiz-adv-x="472" d="M195 193 C298 193 373 128 373 38 C373 -94 227 -197 26 -207 L26 -215 C256 -204 422 -96 422 41 C422 139 334 210 212 210 C207.921 210 202.966 209.585 197.372 208.815 C304.175 255.571 376 321.649 376 379 C376 452 314 505 229 505 C157 505 65 451 11 376 L16 372 C58 430 138 472 206 472 C277 472 329 427 329 364 C329 303.155 252.766 235.299 144.591 196.524 C136.99 194.21 129.37 191.68 122 189 L122 181 C142.465 187.265 171.435 193 195 193 L195 193 Z " />
<glyph glyph-name="four" unicode="4" horiz-adv-x="514" d="M339 0 L339 -150 L385 -150 L385 0 L504 0 L504 20 L385 20 L385 505 L377 505 C368 500 20 8 20 8 L20 0 L339 0 Z M46.1663 20 C95.1111 89.0725 258.496 319.412 339.229 430.328 C339.079 429.158 339 428.046 339 427 L339 20 L46.1663 20 Z " />
<glyph glyph-name="five" unicode="5" horiz-adv-x="455" d="M68 224 L80 224 C80 224 80.4065 227.464 81.1115 233.659 C80.6872 228.021 80.2989 224 80 224 L140 224 C267 224 359 153 359 55 C359 -71 221 -167 31 -173 L31 -182 C248 -175 405 -69 405 70 C405 185 303 269 163 269 L85.0224 269 C90.181 316.84 97.9204 393.511 101.309 452 L384 452 L400 500 C400 500 415.365 550.006 416 552 L406 552 L402 544 C392 518 364 500 335 500 L90 500 C90 420 68 224 68 224 L68 224 Z " />
<glyph glyph-name="six" unicode="6" horiz-adv-x="587" d="M525 715 C263 706 73 531 73 299 C73 123 169 -5 302 -5 C445 -5 544 88 537 216 C537 338 450 427 330 427 C187 427 106 350 136 243 L146 243 C118 342 192 414 322 414 C418 414 488 330 488 213 C494 94 419 8 308 8 C201 8 124 112 124 256 C124 273 126 297 126 314 C126 534 294 699 525 707 L525 715 Z " />
<glyph glyph-name="seven" unicode="7" horiz-adv-x="454" d="M31 401 L33 409 C37 435 61 453 90 453 L419 453 L139 -140 L190 -140 C274.728 71.9983 360.017 283.573 444 496 L441 500 L30 500 L28 477 C26 455 23 423 21 401 L31 401 Z " />
<glyph glyph-name="eight" unicode="8" horiz-adv-x="555" d="M322.643 348.444 C412.599 365.893 475 433.436 475 517 L474 517 C474 603 394 665 283 665 C172 665 91 594 91 496 C91 414.348 156.431 342.166 250.546 317 C140.867 305.339 65 243.855 65 163 C65 66 157 -5 285 -5 C413 -5 505 70 505 174 C505 247.841 430.601 317.725 322.643 348.444 L322.643 348.444 Z M315.167 350.494 C304.098 353.417 292.694 355.931 281 358 C193 374 130 439 130 513 C130 595 193 655 281 655 C371 655 436 594 436 509 C436 429.283 386.165 365.032 315.167 350.494 L315.167 350.494 Z M108 171 C108 247.033 169.611 303.862 258.477 315.007 C263.251 313.883 268.093 312.88 273 312 C383 292 462 228 462 158 C462 69 389 5 287 5 C183 5 108 75 108 171 L108 171 Z " />
<glyph glyph-name="nine" unicode="9" horiz-adv-x="587" d="M62 -215 C324 -206 514 -31 514 201 C514 377 418 505 285 505 C142 505 43 412 50 284 C50 162 137 73 257 73 C400 73 481 150 451 257 L441 257 C469 158 395 86 265 86 C169 86 99 170 99 287 C93 406 168 492 279 492 C386 492 463 388 463 244 C463 227 461 203 461 186 C461 -34 293 -199 62 -207 L62 -215 Z " />
<glyph glyph-name="colon" unicode="&#x3a;" horiz-adv-x="218" d="M158 394 C158 436.976 92 436.802 92 394 C92 351.024 158 351.198 158 394 L158 394 Z M158 28 C158 70.976 92 70.8018 92 28 C92 -14.976 158 -14.8018 158 28 L158 28 Z " />
<glyph glyph-name="semicolon" unicode="&#x3b;" horiz-adv-x="182" d="M126 394 C126 436.976 60 436.802 60 394 C60 349.577 126 349.732 126 394 L126 394 Z M93 61 C74 61 60 47 60 28 C60 7.36592 86.4229 -17.8377 102.642 2.12076 C111.398 -33.6058 94.6816 -74.2561 72 -85 L72 -93 C107 -76 132 -34 132 6 C132 32.9633 120.209 61 93 61 L93 61 Z " />
<glyph glyph-name="less" unicode="&#x3c;" horiz-adv-x="551" d="M476 500 L45 288 C44 288 41 286 40 286 L40 264 L45 262 L476 50 L476 73 L59.4354 275 L476 477 L476 500 Z " />
<glyph glyph-name="equal" unicode="&#x3d;" horiz-adv-x="543" d="M77 210 L77 190 L473 190 L473 210 L77 210 Z M77 310 L77 290 L473 290 L473 310 L77 310 Z " />
<glyph glyph-name="greater" unicode="&#x3e;" horiz-adv-x="546" d="M506 267 L506 283 C503 283 499 288 496 288 L75 500 L75 477 L481.9 275 L75 73 L75 50 C218.664 122.344 362.115 195.058 506 267 L506 267 Z " />
<glyph glyph-name="question" unicode="&#x3f;" horiz-adv-x="383" d="M178 28 C178 70.976 112 70.8018 112 28 C112 -14.976 178 -14.8018 178 28 L178 28 Z M131 665 C79 665 42 637 42 598 C42 592 53 587 67 587 C90 587 122 629 145 629 C256 629 337 555 337 452 C337 422 307 367 177 367 L142 367 C136 367 132 364 132 360 L142 141 L148 141 L158 332 L193 332 C319 332 348 406 348 446 C348 573 257 665 131 665 L131 665 Z " />
<glyph glyph-name="arobase" unicode="&#x40;" horiz-adv-x="1160" d="M1068 0 C1003 -139 801 -239 587 -239 C299 -239 91 -30 91 259 C91 548 296 757 580 757 C864 757 1070 583 1070 343 C1070 146 987 4 873 4 C753 4 687 86 715 200 L785 480 L742 480 L718.419 385.674 C706.481 447.843 654.288 490 586 490 C422 490 304 367 304 198 C304 91 379 14 482 14 C557.758 14 629.358 65.2869 665.642 140.742 C670.191 49.4262 746.2 -12 865 -12 C1004 -12 1105 137 1105 343 C1105 591 885 770 580 770 C276 770 55 555 55 259 C55 -37 278 -252 587 -252 C807 -252 1015 -146 1083 1.52588e-005 L1068 0 Z M710.997 355.986 L672 200 C649 107 579 39 506 39 C418 39 355 109 355 206 C355 363 452 477 585 477 C657.662 477 710.508 426.472 710.997 355.986 L710.997 355.986 Z " />
<glyph glyph-name="A_cap" unicode="A" horiz-adv-x="606" d="M5 0 L146 0 L146 10 L135 11 C101.176 12.9328 85.0969 38.2135 94.8847 72.4015 L151.458 237 L415.087 237 L478.53 64 L478 64 C489 35 475 13 446 11 L430 10 L430 0 L598 0 L598 10 L591 10 C569.885 8.89685 545.083 32.2737 532.822 64 L302 675 L289 675 L72.1697 54.8285 C57.8219 25.7308 34.293 13.6616 4.99998 9.99998 L5 0 Z M410.32 250 L155.926 250 L279.002 608.087 L410.32 250 Z " />
<glyph glyph-name="B_cap" unicode="B" horiz-adv-x="583" d="M281 357 L218 356 L155 356 L155 647 L313 647 C398 647 459 590 459 511 C459 420.759 385.843 357 281 357 L281 357 Z M52 650 L60 649 C86 647 104 625 104 596 L104 64 C104 35 86 13 60 11 L52 10 L52 0 L339 0 C469 0 563 76 563 180 C563 269.482 473.941 337.076 343.032 353.278 C442.835 370.966 510 431.538 510 511 C510 597 427 660 313 660 L52 660 L52 650 Z M155 347 L266 347 C408 347 510 277 510 180 C510 83 436 13 334 13 L155 13 L155 347 Z " />
<glyph glyph-name="C_cap" unicode="C" horiz-adv-x="735" d="M666 155 C662 147 658 135 654 127 C629.881 73.9385 567.601 28.323 503.079 16.194 C470.874 10.9476 438.303 8 408 8 C240 8 119 143 119 330 C119 517 240 652 408 652 C445.881 652 487.306 647.394 527.128 639.449 L527 639 C577 629 631 584 654 533 C658 525 662 513 666 505 L675 505 L675 603 C613 639 501 665 408 665 C208 665 63 524 63 330 C63 136 208 -5 408 -5 C501 -5 613 21 675 57 L675 155 L666 155 Z " />
<glyph glyph-name="D_cap" unicode="D" horiz-adv-x="680" d="M52 650 L60 649 C86 647 104 625 104 596 L104 64 C104 35 86 13 60 11 L52 10 L52 0 L331 0 C504 0 630 139 630 330 C630 521 486 660 287 660 L52 660 L52 650 Z M155 13 L155 647 L287 647 C456 647 579 514 579 330 C579 146 475 13 331 13 L155 13 Z " />
<glyph glyph-name="E_cap" unicode="E" horiz-adv-x="541" d="M385 288 L385 410 L377 410 L373 402 C362 376 325 358 287 358 L143 358 L143 647 L318 647 C364 647 412 614 432 569 L439 554 L446 554 L446 660 L40 660 L40 650 L48 649 C74 647 92 625 92 596 L92 64 C92 35 74 13 48 11 L40 10 L40 0 L451 0 L451.857 6 L453 6 C458 35 465 77 470 106 L463 106 L453 91 C425 46 371 13 325 13 L143 13 L143 346 L287 346 C325 346 361 325 373 296 L377 288 L385 288 Z " />
<glyph glyph-name="F_cap" unicode="F" horiz-adv-x="480" d="M40 650 L48 649 C74 647 92 625 92 596 L92 64 C92 35 74 13 48 11 L40 10 L40 0 L205 0 L205 10 L194 11 C164 13 143 35 143 64 L143 341 L277 341 C315 341 351 320 363 291 L367 283 L375 283 L375 405 L367 405 L363 397 C352 371 315 353 277 353 L143 353 L143 647 L348 647 C394 647 442 614 462 569 L469 554 L476 554 L476 660 L40 660 L40 650 Z " />
<glyph glyph-name="G_cap" unicode="G" horiz-adv-x="805" d="M655 505 L655 603 C593 639 484 665 397 665 C203 665 63 524 63 330 C63 136 203 -5 397 -5 C488 -5 599 21 661 57 L661 246 C661 275 679 297 705 299 L713 300 L713 310 L563 310 L563 300 L571 299 C597 297 615 275 615 246 L615 49.6143 C553.538 24.5693 468.641 8 397 8 C236 8 119 143 119 330 C119 517 236 652 397 652 C431.674 652 469.842 647.673 507.025 640.174 L507 640 C557 630 611 585 634 533 C638 525 642 513 646 505 L655 505 Z " />
<glyph glyph-name="H_cap" unicode="H" horiz-adv-x="736" d="M697 10 L689 11 C663 13 645 35 645 64 L645 596 C645 625 663 647 689 649 L697 650 L697 660 L542 660 L542 650 L550 649 C576 647 594 625 594 596 L594 353 L143 353 L143 596 C143 625 161 647 187 649 L195 650 L195 660 L40 660 L40 650 L48 649 C74 647 92 625 92 596 L92 64 C92 35 74 13 48 11 L40 10 L40 0 L195 0 L195 10 L187 11 C161 13 143 35 143 64 L143 341 L594 341 L594 64 C594 35 576 13 550 11 L542 10 L542 0 L697 0 L697 10 Z " />
<glyph glyph-name="I_cap" unicode="I" horiz-adv-x="234" d="M195 10 L187 11 C161 13 143 35 143 64 L143 596 C143 625 161 647 187 649 L195 650 L195 660 L40 660 L40 650 L48 649 C74 647 92 625 92 596 L92 64 C92 35 74 13 48 11 L40 10 L40 0 L195 0 L195 10 Z " />
<glyph glyph-name="J_cap" unicode="J" horiz-adv-x="354" d="M315 660 L160 660 L160 650 L168 649 C194 647 212 625 212 596 L212 200 C212 61 182 0 114 0 C80 0 50 21 43 50 C40 62 30 70 20 70 C6 70 -3 62 0 50 C9 15 51 -10 101 -10 C214 -10 263 67 263 243 L263 596 C263 625 281 647 307 649 L315 650 L315 660 Z " />
<glyph glyph-name="K_cap" unicode="K" horiz-adv-x="635" d="M207 660 L52 660 L52 650 L60 649 C86 647 104 625 104 596 L104 64 C104 35 86 13 60 11 L52 10 L52 0 L207 0 L207 10 L199 11 C173 13 155 35 155 64 L155 355 L163 345 L164.132 345.985 C187.269 323.14 252.277 258.928 335 177 C463 50 545 -5 605 -5 L625 -5 L625 5 C590.052 5 521.151 63.8707 374 210 C287.766 294.652 224.691 356.771 202.104 379.027 L460.843 604.173 C497.161 632.706 532.154 645.894 565 650 L565 660 L453 660 L453 650 L459 649 C476 647 464 625 431 596 L155 355 L155 596 C155 625 173 647 199 649 L207 650 L207 660 Z " />
<glyph glyph-name="L_cap" unicode="L" horiz-adv-x="541" d="M195 660 L40 660 L40 650 L48 649 C74 647 92 625 92 596 L92 64 C92 35 74 13 48 11 L40 10 L40 0 L450 0 L450.857 6 L453 6 C458 36 466 81 471 111 C466.19 113.405 458 116 458 116 L441 84 C418 43 373 13 332 13 L143 13 L143 596 C143 625 161 647 187 649 L195 650 L195 660 Z " />
<glyph glyph-name="M_cap" unicode="M" horiz-adv-x="785" d="M624 0 L778 0 L778 10 L770 11 C746.226 12.9019 726.973 32.891 724.282 59.7869 L699.909 596 C699 625 716 647 741 649 L748 650 L748 660 L651 660 L409.857 57.1429 L409 58 L153 660 L61 660 L61 650 L69 649 C91.8731 647.17 108.887 628.599 110.85 603.242 L90.4242 64 C88.6178 35.6907 70.3808 12.7594 45 11 L37 10 L37 0 L179 0 L179 10 L166 11 C129.882 12.9322 105.117 40.1902 105.879 76 L125.613 596.992 C212.136 396.389 298.199 195.325 385 -5.00002 L398 -5.00002 L652.531 619.587 L673.85 56.7584 C671.887 31.4014 654.873 12.8298 632 11 L624 10 L624 0 Z " />
<glyph glyph-name="N_cap" unicode="N" horiz-adv-x="666" d="M43 650 L51 649 C77 647 95 625 95 596 L95 64 C95 35 77 13 51 11 L43 10 L43 0 L162 0 L162 10 L154 11 C128 13 110 35 110 64 L110 615.725 C260.221 407.123 409.033 197.228 561 -10 L578 -10 L578 596 C578 625 596 647 622 649 L630 650 L630 660 L510 660 L510 650 L518 649 C544 647 562 625 562 596 L562 74.6836 L141 660 L43 660 L43 650 Z M110 638.595 L110 639 L110 638.595 Z " />
<glyph glyph-name="O_cap" unicode="O" horiz-adv-x="775" d="M119 330 C119 498 219 652 394 652 C569 652 669 498 669 330 C669 162 569 8 394 8 C219 8 119 162 119 330 L119 330 Z M63 330 C63 155 183 -5 394 -5 C605 -5 725 155 725 330 C725 505 605 665 394 665 C183 665 63 505 63 330 L63 330 Z " />
<glyph glyph-name="P_cap" unicode="P" horiz-adv-x="560" d="M207 10 L199 11 C173 13 155 35 155 64 L155 298 L292 298 C436 298 540 374 540 478 C540 584 451 660 327 660 L52 660 L52 650 L60 649 C86 647 104 625 104 596 L104 64 C104 35 86 13 60 11 L52 10 L52 0 L207 0 L207 10 Z M155 311 L155 647 L327 647 C419 647 486 576 486 478 C486 381 405 311 292 311 L155 311 Z " />
<glyph glyph-name="Q_cap" unicode="Q" horiz-adv-x="775" d="M824 -51 L820 -47 C797 -74 729 -94 657 -94 C544.902 -94 456.672 -57.2819 400.223 -4.95335 C607.358 -1.83913 725 156.728 725 330 C725 505 605 665 394 665 C183 665 63 505 63 330 C63 158.359 178.438 1.14763 381.951 -4.82419 C456.062 -76.2538 552.151 -127 652 -127 C715 -127 787 -95 824 -51 L824 -51 Z M119 330 C119 498 219 652 394 652 C569 652 669 498 669 330 C669 162 569 8 394 8 C219 8 119 162 119 330 L119 330 Z " />
<glyph glyph-name="R_cap" unicode="R" horiz-adv-x="621" d="M52 650 L60 649 C86 647 104 625 104 596 L104 64 C104 35 86 13 60 11 L52 10 L52 0 L207 0 L207 10 L199 11 C173 13 155 35 155 64 L155 317 L268.336 317 C294.532 286.953 363.829 207.435 452 106 C538 8 548 0 601 0 L621 0 L621 10 C594.905 10 593.623 12.9593 522 96 C426.356 206.234 351.735 291.503 326.893 319.855 C437.129 334.238 513 401.56 513 490 C513 589 429 660 313 660 L52 660 L52 650 Z M282 330 L155 330 L155 647 L313 647 C398 647 460 581 460 490 C460 397 385 330 282 330 L282 330 Z " />
<glyph glyph-name="S_cap" unicode="S" horiz-adv-x="520" d="M441 512 L441 614 L437 606 C437.152 608.334 439.86 611.388 441 614 C390 644 308 665 246 665 C133 665 52 588 52 482 C52 412 132 340 242 310 C356 279 439 210 439 146 C439 66 373 8 281 8 C250.431 8 217.316 11.4439 185.074 17.4625 C137.093 29.0672 86.8954 71.3933 64 121 C60 129 56 140 52 148 L43 148 L43 46 C94 16 194 -5 281 -5 C394 -5 475 67 475 167 C475 242 394 319 281 350 C168 381 87 445 87 503 C87 589 153 652 244 652 C272.147 652 306.581 645.976 340.732 635.939 C366.2 625.412 392.34 601.01 404 575 L432 512 L441 512 Z " />
<glyph glyph-name="T_cap" unicode="T" horiz-adv-x="636" d="M26 544 L47 584 C66 621 106 647 143 647 L293 647 L293 64 C293 35 275 13 249 11 L241 10 L241 0 L395 0 L395 10 L387 11 C361 13 343 35 343 64 L343 647 L491 647 C528 647 568 621 587 584 L608 544 L616 544 C614.021 575.668 610.083 621.047 607.094 653 L608 653 L607 660 L27 660 L26 653 L27.9064 653 C24.9172 621.047 20.9689 575.668 18 544 L26 544 Z " />
<glyph glyph-name="U_cap" unicode="U" horiz-adv-x="654" d="M634 660 L498 660 L498 650 L507 649 C538 647 560 622 560 588 L560 183 C560 84 495 13 347 13 C206 13 145 91 145 198 L145 596 C145 625 163 647 189 649 L197 650 L197 660 L42 660 L42 650 L50 649 C76 647 94 625 94 596 L94 208 C94 84 169 -5 340 -5 C504 -5 576 72 576 178 L576 588 C576 622 597 647 626 649 L634 650 L634 660 Z " />
<glyph glyph-name="V_cap" unicode="V" horiz-adv-x="639" d="M177 660 L15 660 L15 650 C39.4993 645.917 59.8859 632.81 74.7719 603.07 L322 -15 L335 -15 L535.951 596 C546 625 571 647 597 649 L605 650 L605 660 L459 660 L459 650 L470 649 C508.528 647.288 525.33 614.201 512.449 572 L344.842 55.4034 L132.19 598.249 C122.687 626.131 135.755 647.052 164 649 L177 650 L177 660 Z " />
<glyph glyph-name="W_cap" unicode="W" horiz-adv-x="924" d="M157 660 L1 660 L1 650 C27.0628 645.656 48.3583 629.761 60 596 L60.2385 596 L263 -15 L276 -15 L472 670 L448 584 L645 -15 L658 -15 L840.847 596 C850.086 624.785 874.889 647.074 901 649 L909 650 L909 660 L772 660 L772 650 L789 649 C819.153 648.077 833.816 624.782 825.132 596 L668.782 65.6686 L472 670 L459 670 L284.866 61.421 L113.53 601.582 C107.886 627.785 121.826 647.13 148 649 L157 650 L157 660 Z " />
<glyph glyph-name="X_cap" unicode="X" horiz-adv-x="648" d="M54 0 L195 0 L195 10 L185 11 C153.602 12.9029 144.836 37.4367 163.868 70.821 L315.286 309.825 L483.267 64 C502.45 35.4772 496.382 12.834 467 11 L458 10 L458 1.52588e-005 L616 1.52588e-005 L616 10 C591.601 14.0666 568.237 27.9387 545.612 57.641 L345.075 351.11 L515.312 599.238 C538.883 631.144 569.168 645.896 602 650 L602 660 L461 660 L461 650 L477 649 C505.577 647.095 513.284 627.042 496.664 600.078 L337.014 362.906 L177.733 596 C158.55 624.523 164.618 647.166 194 649 L203 650 L203 660 L45 660 L45 650 C69.3994 645.933 92.7627 632.061 115.388 602.359 L306.984 321.975 L134.711 55.2826 C111.88 26.3923 85.0106 13.8763 54 10 L54 0 Z " />
<glyph glyph-name="Y_cap" unicode="Y" horiz-adv-x="594" d="M190 660 L35 660 L35 650 C60.0172 645.83 81.7809 630.778 100.305 598.99 L285.066 260.525 L285.79 58.627 C283.71 32.3179 266.369 12.8745 242 11 L234 10 L234 0 L388 0 L388 10 L380 11 C354 13 336 35 336 64 L336 278.545 L521.368 601.42 C541.525 632.082 566.143 646.02 594 650 L594 660 L463 660 L463 650 L474 649 C505.03 647.119 514.84 621.366 497.61 586.705 L328.965 288.064 L162.581 596 C147.786 624.239 154.441 647.265 182 649 L190 650 L190 660 Z " />
<glyph glyph-name="Z_cap" unicode="Z" horiz-adv-x="600" d="M531.857 6 L534 6 C539 36 547 81 552 111 C547.19 113.405 539 116 539 116 L522 84 C499 43 454 13 413 13 L119.548 13 L545 660 L122 660 L120.286 654 L120 654 C113 628 103 591 96 565 L104 565 L120 584 C150 621 198 647 235 647 L478.471 647 L54 0 L531 0 L531.857 6 Z " />
<glyph glyph-name="bracketleft" unicode="&#x5b;" horiz-adv-x="229" d="M114 650 L219 650 L219 660 L78 660 L78 -120 L219 -120 L219 -110 L114 -110 L114 650 Z " />
<glyph glyph-name="backslash" unicode="&#x5c;" horiz-adv-x="222" d="M206 -145 L222 -145 L-44 710 L-60 710 L206 -145 Z " />
<glyph glyph-name="bracketright" unicode="&#x5d;" horiz-adv-x="215" d="M110 650 L110 -110 L5 -110 L5 -120 L145 -120 L145 660 L5 660 L5 650 L110 650 Z " />
<glyph glyph-name="asciicircum" unicode="&#x5e;" horiz-adv-x="359" d="M194 732 C192 736 186 745 180 745 C173 745 167 736 165 732 C165 732 69 549 59 537 L64 533 C103.381 579.673 154.462 656.13 179.234 694.107 C215.467 638.201 296 533 296 533 L301 537 C301 537 240 639 194 732 L194 732 Z " />
<glyph glyph-name="underscore" unicode="&#x5f;" horiz-adv-x="490" d="M5 -50 L5 -75 L485 -75 L485 -50 L5 -50 Z " />
<glyph glyph-name="grave_glyph" unicode="&#x60;" horiz-adv-x="359" d="M98 715 C98 711 116 689 142 660 C173 621 255 531 255 531 L260 535 C260 535 196 640 165 679 C144 711 127 735 124 735 C116 735 98 721 98 715 L98 715 Z " />
<glyph glyph-name="a" unicode="a" horiz-adv-x="496" d="M474 37 C459 23 442 12 421 12 C392 12 383 36 383 70 L383 360 C383 444 330 505 256 505 C157 505 77 464 66 407 L111 407 C121 456 177 492 246 492 C298 492 335 441 335 370 C335 370 334.65 324.215 334.365 250.827 C301.035 247.675 241.862 241.293 208 233 C108 208 35 153 35 101 C35 40 85 -5 155 -5 C216.118 -5 286.348 24.44 334 68.0618 C333.999 23.4892 346.548 -10 390 -10 C427 -10 456 7 479 30 L474 37 Z M334.324 239.999 C334.156 194.098 334.018 138.451 334.002 77.0635 C294.644 45.6337 235.21 25 179 25 C122 25 81 63 81 115 C81 156 134 200 208 218 C248.488 228.122 303.091 235.967 334.324 239.999 L334.324 239.999 Z " />
<glyph glyph-name="b" unicode="b" horiz-adv-x="592" d="M118 24 C167.694 24 225.43 -5 290 -5 C433 -5 537 101 537 248 C537 397 443 505 312 505 C258 505 180 485 128 457 L128 720 L119 720 L30 694 L30 688 C69.5188 673.18 82 662.524 82 616 L82 0 L87 0 C91.0054 14.0188 104.008 24 118 24 L118 24 Z M290 8 C196 8 128 60 128 131 L128 449 C167 470 230 485 277 485 C399 485 488 377 488 227 C488 100 405 8 290 8 L290 8 Z " />
<glyph glyph-name="c" unicode="c" horiz-adv-x="488" d="M436 39 L432 44 C417 32 354 23 281 23 C175 23 99 120 99 253 C99 392 184 492 301 492 C351 492 391 455 395 404 C397.021 377.728 438 371.618 438 401 C433 461 377 505 306 505 C158 505 50 392 50 236 C50 96 131 -5 243 -5 C325 -5 406 13 436 39 L436 39 Z " />
<glyph glyph-name="d" unicode="d" horiz-adv-x="610" d="M402 688 C441.519 673.18 454 662.524 454 616 L454 430.833 C420.265 472.369 353.09 505 282 505 C150 505 55 388 55 226 C55 92 143 -4.99998 264 -4.99998 C335.346 -4.99998 413.027 20.3384 454 56.3806 L454 1.52588e-005 L463 1.52588e-005 L552 26 L552 32 C512.481 46.8196 500 57.4756 500 104 L500 720 L491 720 L402 694 L402 688 Z M454 63.2212 C426.681 39.677 358.304 23 289 23 C181 23 103 115 103 243 C103 387 177 492 279 492 C356.631 492 428.423 453.63 454 408.887 L454 63.2212 Z " />
<glyph glyph-name="e" unicode="e" horiz-adv-x="495" d="M443 39 L439 44 C424 32 360 23 285 23 C154.514 23 73.9814 165.59 105.866 325 L445 325 C445 429 372 505 272 505 C143 505 50 392 50 236 C50 96 133 -5 247 -5 C330 -5 413 13 443 39 L443 39 Z M402 363 C402 352.693 395.36 343.861 385.882 341.574 L107.853 334.234 C129.794 429.321 190.622 492 269 492 C346 492 402 438 402 363 L402 363 Z " />
<glyph glyph-name="f" unicode="f" horiz-adv-x="360" d="M211 10 L203 11 C177 13 159 35 159 64 L159 482 L305 482 L305 500 L159 500 L159 533 C159 636 241 710 274 710 C307 710 333 689 336 660 C338.06 635.284 379 632.43 379 660 C376 695 337 720 287 720 C188 720 116 646 116 543 C114 543 113 500 113 500 L22 500 L22 482 L113 482 L113 64 C113 35 95 13 69 11 L61 10 L61 0 L211 0 L211 10 Z " />
<glyph glyph-name="g" unicode="g" horiz-adv-x="482" d="M482 500 L341.005 489 C315.713 499.323 286.623 505 255 505 C148 505 70 440 70 350 C70 278.607 119.082 222.945 192.787 202.981 C110.474 202.025 52 164.335 52 113 C52 67.8018 97.0902 33.5126 163.082 24.3969 C83.0592 -0.104477 27 -53.7029 27 -109 C27 -184 91 -238 180 -238 C344 -238 462 -159 462 -50 C462 18 386 68 280 68 C265 68 197 65 197 65 C131 65 83 93 83 131 C83 168 130 195 196 195 L255 195 C362 195 440 260 440 350 C440 401.172 414.784 444.262 373.358 471.918 L482 475 L482 500 Z M255 205 C173 205 113 266 113 350 C113 434 173 495 255 495 C337 495 396 434 396 350 C396 266 337 205 255 205 L255 205 Z M179.934 22.6555 C195.014 21.6026 244.534 25 267 25 C361 25 429 -17 429 -74 C429 -162 327 -225 185 -225 C111 -225 58 -174 58 -104 C58 -49.2926 108.665 2.65126 179.934 22.6555 L179.934 22.6555 Z " />
<glyph glyph-name="h" unicode="h" horiz-adv-x="587" d="M398 0 L548 0 L548 10 L540 11 C514 13 496 35 496 64 L496 336 C496 434 456 505 363 505 C313.058 505 220.924 475.273 142 434.601 L142 720 L133 720 L44 694 L44 688 C83.5188 673.18 96 662.524 96 616 L96 64 C96 35 78 13 52 11 L44 10 L44 0 L194 0 L194 10 L186 11 C160 13 142 35 142 64 L142 429.578 C193.116 455.264 269.926 474 328 474 C413 474 450 414 450 331 L450 64 C450 35 432 13 406 11 L398 10 L398 0 Z " />
<glyph glyph-name="i" unicode="i" horiz-adv-x="238" d="M148 601 C148 639.976 86 639.802 86 601 C86 560.577 148 560.732 148 601 L148 601 Z M194 10 L186 11 C160 13 142 35 142 64 L142 500 L133 500 L45 474 L45 468 C84.4169 453.219 97 442.467 97 397 L97 64 C97 35 79 13 53 11 L45 10 L45 0 L194 0 L194 10 Z " />
<glyph glyph-name="j" unicode="j" horiz-adv-x="242" d="M151 601 C151 639.526 90 640.251 90 601 C90 560.122 151 561.187 151 601 L151 601 Z M48 468 C86.2987 453.638 99.4625 443.094 99.9795 399.571 C99.925 260.765 99.7261 7.54774 99 9 C99 -122 67 -172 -18 -225 L-13 -232 C102 -160 146 -104 146 21 L146 500 L137 500 L48 474 L48 468 Z " />
<glyph glyph-name="k" unicode="k" horiz-adv-x="509" d="M54 688 C93.5188 673.18 106 662.524 106 616 L106 64 C106 35 88 13 62 11 L54 10 L54 0 L204 0 L204 10 L196 11 C170 13 152 35 152 64 L152 275 L157 269 L157.716 269.561 L373.742 64 L373 64 C404 35 413 13 395 11 L389 10 L389 0 L539 0 L539 10 C506.192 14.1009 473.595 27.4425 440.339 56.3589 L193.524 297.6 L377.93 441.999 C418.773 471.839 456.2 486.133 491 490 L491 500 L379 500 L379 490 L385 489 C401 487 387 465 351 436 L351.64 436 L152 275 L152 720 L143 720 L54 694 L54 688 Z " />
<glyph glyph-name="l" unicode="l" horiz-adv-x="238" d="M194 10 L186 11 C160 13 142 35 142 64 L142 720 L133 720 L45 694 L45 688 C84.4169 673.219 97 662.467 97 617 L97 64 C97 35 79 13 53 11 L45 10 L45 0 L194 0 L194 10 Z " />
<glyph glyph-name="m" unicode="m" horiz-adv-x="961" d="M772 0 L922 0 L922 10 L914 11 C888 13 870 35 870 64 L870 336 C870 434 807 505 729 505 C683.369 505 587.554 467.608 490.36 416.25 C467.332 470.434 421.33 505 369 505 C310.246 505 220.808 475.274 142 434.603 L142 500 L133 500 L44 474 L44 468 C83.5188 453.18 96 442.524 96 396 L96 64 C96 35 78 13 52 11 L44 10 L44 0 L194 0 L194 10 L186 11 C160 13 142 35 142 64 L142 429.585 C196.546 457.24 269.978 477 334 477 C403 477 460 416 460 331 L460 64 C460 35 442 13 416 11 L408 10 L408 0 L558 0 L558 10 L550 11 C524 13 506 35 506 64 L506 336 C506 362.862 501.342 387.695 493.035 409.593 C564.266 446.78 643.701 474 693 474 C765 474 824 414 824 331 L824 64 C824 35 806 13 780 11 L772 10 L772 0 Z " />
<glyph glyph-name="n" unicode="n" horiz-adv-x="587" d="M398 0 L548 0 L548 10 L540 11 C514 13 496 35 496 64 L496 336 C496 434 456 505 363 505 C313.058 505 220.924 475.273 142 434.601 L142 500 L133 500 L44 474 L44 468 C83.5188 453.18 96 442.524 96 396 L96 64 C96 35 78 13 52 11 L44 10 L44 0 L194 0 L194 10 L186 11 C160 13 142 35 142 64 L142 429.578 C193.116 455.264 269.926 474 328 474 C413 474 450 414 450 331 L450 64 C450 35 432 13 406 11 L398 10 L398 0 Z " />
<glyph glyph-name="o" unicode="o" horiz-adv-x="603" d="M101 250 C101 392 185 495 302 495 C418 495 502 392 502 250 C502 108 418 5 302 5 C185 5 101 108 101 250 L101 250 Z M50 250 C50 102 156 -5 302 -5 C448 -5 553 102 553 250 C553 398 448 505 302 505 C156 505 50 398 50 250 L50 250 Z " />
<glyph glyph-name="p" unicode="p" horiz-adv-x="624" d="M194 -220 L186 -219 C160 -217 142 -195 142 -166 L142 56.3667 C178.51 18.6712 239.449 -5 311 -5 C461 -5 569 105 569 257 C569 401 478 505 353 505 C274.898 505 188.428 468.741 142 418.633 L142 500 L133 500 L44 474 L44 468 C83.5188 453.18 96 442.524 96 396 L96 -166 C96 -195 78 -217 52 -219 L44 -220 L44 -230 L194 -230 L194 -220 Z M142 135 L142 410.496 C178.043 447.629 250.295 474 318 474 C437 474 524 368 524 221 C524 97 435 8 311 8 C219 8 148 61 142 135 L142 135 Z " />
<glyph glyph-name="q" unicode="q" horiz-adv-x="606" d="M562 -220 L554 -219 C528 -217 510 -195 510 -166 L510 500 L505 500 C500.607 485.963 487.235 476 472 476 C422.261 476 364.079 505 300 505 C164 505 66 388 66 226 C66 92 151 -5 269 -5 C341.462 -5 421.197 21.363 464 59.3541 L464 -166 C464 -195 446 -217 420 -219 L412 -220 L412 -230 L562 -230 L562 -220 Z M464 67.0893 C435.578 41.1079 365.266 23 294 23 C190 23 114 115 114 243 C114 387 192 492 300 492 C395 492 464 440 464 369 L464 67.0893 Z " />
<glyph glyph-name="r" unicode="r" horiz-adv-x="405" d="M44 468 C83.5188 453.18 96 442.524 96 396 L96 64 C96 35 78 13 52 11 L44 10 L44 0 L194 0 L194 10 L186 11 C160 13 142 35 142 64 L142 415.016 C171.089 447.861 221.605 471 265 471 C296 471 342 448 373 448 C386 448 395 457 395 470 C395 490 366 505 301 505 C249.138 505 183.441 469.95 142 421.11 L142 500 L133 500 L44 474 L44 468 Z " />
<glyph glyph-name="s" unicode="s" horiz-adv-x="438" d="M357 394 L365 394 L365 461 C321 487 259 505 219 505 C130 505 66 452 66 379 C66 328 131 267 221 234 C296 207 350 158 350 118 C350 52 301 5 233 5 C209.058 5 182.218 8.06729 155.858 13.4984 C113.073 26.4008 75.9929 65.0143 55 107 L48 107 L48 34 L52 42 C51.2993 39.5151 49.2263 36.6359 48 34 C87 11 164 -5 230 -5 C322 -5 388 54 388 135 C388 183 332 238 254 266 C166 298 102 352 102 395 C102 453 151 495 219 495 C233.183 495 253.018 490.604 275.057 483.153 L275 483 C313.433 470.189 343.656 434.031 357 394 L357 394 Z " />
<glyph glyph-name="t" unicode="t" horiz-adv-x="367" d="M336 500 L155 500 L155 640 L147 640 L128.547 563.275 C117.759 524.055 75.2649 491.928 25 487 L25 482 L109 482 C109 482 110 219 110 111 C110 24 134 -5 206 -5 C268 -5 313 16 347 44 L343 48 C320 29 285 15 228 15 C173 15 155 37 155 103 L155 482 L336 482 L336 500 Z " />
<glyph glyph-name="u" unicode="u" horiz-adv-x="552" d="M14 490 L22 489 C48 487 66 465 66 436 L66 156 C66 63 124 -5 226 -5 C311.747 -5 378.431 21.3236 420 59.2691 L420 0 L429 0 L518 26 L518 32 C478.481 46.8196 466 57.4756 466 104 L466 500 L368 500 L368 490 L376 489 C402 487 420 465 420 436 L420 66.0725 C394.186 42.08 340.903 25 262 25 C166 25 112 82 112 161 L112 500 L14 500 L14 490 Z " />
<glyph glyph-name="v" unicode="v" horiz-adv-x="512" d="M154 500 L1 500 L1 490 C31.6193 486.173 55.7968 473.534 70.6663 443.623 L245 -10 L253 -10 L428.093 440.997 C442.511 472.406 468.374 486.172 499 490 L499 500 L383 500 L383 490 L390 489 C413.189 487.104 421.743 464.705 411.157 436 L266.438 47.5452 L122.689 443.073 C115.751 468.516 125.91 487.166 147 489 L154 490 L154 500 Z " />
<glyph glyph-name="w" unicode="w" horiz-adv-x="794" d="M465 500 L312 500 L312 490 C331.794 486.041 347.545 473.785 360.862 445.717 L404.974 330.934 L293.924 46.2102 L149.906 442.476 C143.06 468.224 156.125 487.152 182 489 L191 490 L191 500 L39 500 L39 490 C63.0761 485.987 83.2187 473.406 97.3835 444.359 L272 -10 L280 -10 L410.372 316.889 L536 -10 L544 -10 L719.093 440.997 C733.511 472.406 759.374 486.172 790 490 L790 500 L654 500 L654 490 L670 489 C699.189 487.092 712.765 464.739 702.157 436 L557.438 47.5452 L413.968 442.305 C407.155 468.14 421.216 487.148 449 489 L465 490 L465 500 Z " />
<glyph glyph-name="x" unicode="x" horiz-adv-x="582" d="M192 500 L40 500 L40 490 C65.7022 486.328 89.8919 474.332 114.625 447.24 L262.899 254.677 L125.308 57.7045 C100.964 27.3545 69.0081 13.8898 34 10 L34 0 L183 0 L183 10 L161 11 C132 12 125 35 145 64 L269.868 245.626 L409.72 64 L409 64 C431 35 434 13 414 11 L407 10 L407 0 L542 0 L542 10 C519.776 13.704 498.928 25.3122 475.342 51.5045 L297.147 282.926 L415.265 441.344 C440.959 471.988 470.655 485.957 503 490 L503 500 L374 500 L374 490 L383 489 C412 487 417 465 396 436 L396.684 436 L291.353 290.451 L179.28 436 L180 436 C158 465 159 487 184 489 L192 490 L192 500 Z " />
<glyph glyph-name="y" unicode="y" horiz-adv-x="512" d="M154 500 L1 500 L1 490 C31.6193 486.173 55.7968 473.534 70.6663 443.623 L242.335 -3.0659 C237.615 -13.9787 227.307 -38.5501 217 -68 C181 -160 150 -200 114 -200 C114 -200 67 -176 48 -176 C34 -176 24 -184 24 -195 C24 -215 50 -230 86 -230 C143 -230 186 -182 229 -72 C241 -37 253 -9.99998 253 -9.99998 L428.093 440.997 C442.511 472.406 468.374 486.172 499 490 L499 500 L383 500 L383 490 L390 489 C413.189 487.104 421.743 464.705 411.157 436 L266.438 47.5452 L122.689 443.073 C115.751 468.516 125.91 487.166 147 489 L154 490 L154 500 Z " />
<glyph glyph-name="z" unicode="z" horiz-adv-x="499" d="M184.101 489.302 L389.158 489.909 L57 0 L436 0 L437 5 L439 5 C444 35 452 78 457 108 C452.19 110.405 444 113 444 113 L427 81 C404 40 359 10 318 10 L118.74 10 L449 500 L70 500 L68 494 L68.7492 494 C63.7359 474.075 55.9172 446.669 51 427 L59 427 L68 436 C98.9684 467.278 148.443 488.701 184.101 489.302 L184.101 489.302 Z " />
<glyph glyph-name="braceleft" unicode="&#x7b;" horiz-adv-x="251" d="M236 -120 L236 -112 L206 -112 C144 -112 99 -60 99 11 L100 178 C100 226.96 72.0502 263.59 32.5479 270 C72.0502 276.419 100 313.133 100 363 L100 529 C100 600 145 652 206 652 L236 652 L236 660 L196 660 C119 660 64 605 64 529 L64 338 C64 297.761 39.8698 274 5 274 L5 266 C39.8102 266 64 243.185 64 203 L64 11 C64 -65 119 -120 196 -120 L236 -120 Z " />
<glyph glyph-name="bar" unicode="&#x7c;" horiz-adv-x="156" d="M60 770 L60 -234 L96 -234 L96 770 L60 770 Z " />
<glyph glyph-name="braceright" unicode="&#x7d;" horiz-adv-x="251" d="M5 660 L5 652 L35 652 C97 652 142 600 142 529 L141 362 C141 313.04 168.95 276.41 208.452 270 C168.95 263.581 141 226.867 141 177 L141 11 C141 -60 96 -112 35 -112 L5 -112 L5 -120 L45 -120 C122 -120 177 -65 177 11 L177 202 C177 242.239 201.13 266 236 266 L236 274 C201.19 274 177 296.815 177 337 L177 529 C177 605 122 660 45 660 L5 660 Z " />
<glyph glyph-name="asciitilde" unicode="&#x7e;" horiz-adv-x="359" d="M27 310 C27 349 48 377 76 377 C133 377 215 315 272 315 C312 315 341 353 341 406 L333 406 C333 371 311 345 281 345 C224 345 143 408 86 408 C47 408 19 367 19 310 L27 310 Z " />
<glyph glyph-name="nobreakspace" unicode="&#xa0;" horiz-adv-x="237" d="" />
<glyph glyph-name="exclamdown" unicode="&#xa1;" horiz-adv-x="178" d="M52 472 C52 429.024 118 429.198 118 472 C118 514.976 52 514.802 52 472 L52 472 Z M60 -120 C59 -146 71 -165 88 -165 C106 -165 118 -146 116 -120 C116 161 88 364 88 364 L82 364 C82 364 60 161 60 -120 L60 -120 Z " />
<glyph glyph-name="cent" unicode="&#xa2;" horiz-adv-x="488" d="M283 575 L283 504.073 C146.943 493 50 383.799 50 236 C50 96 131 -5 243 -5 C256.433 -5 269.84 -4.51692 283 -3.59473 L283 -75 L299 -75 L299 -2.24666 C359.672 3.73459 412.924 19.0006 436 39 L432 44 C418.249 32.9989 364.156 24.5191 299 23.1836 L299 491.99 C350.432 491.99 390.907 456.187 395 404 C397.021 377.728 438 371.618 438 401 C432.794 463.476 374.122 506.739 299 504.915 L299 575 L283 575 Z M283 23.0023 C175.365 23.0023 99 118.647 99 253 C99 384.766 175.383 481.486 283 491.196 L283 23.0023 Z " />
<glyph glyph-name="guillemotleft" unicode="&#xab;" horiz-adv-x="484" d="M197 247 C196.6 247.999 196.611 248.581 197 248.778 L197 247 C197 247 199.16 246.784 202.45 246.377 C238.682 222.62 434 36 434 36 L439 41 C439 41 286.66 198.753 245.148 249.052 C272.113 280.831 349.562 370.562 438 459 L433 464 C287 318 197 252 197 252 L197 247 Z M68.0851 249.079 C94.9688 281.023 172.306 371.306 260 459 L255 464 C110 319 20 252 20 252 L20 248.67 L20 247 C19.5989 247.963 19.6097 248.509 20 248.67 L20 247 C20 247 21.9317 246.807 24.9248 246.442 C59.6655 223.555 256 36 256 36 L261 41 C261 41 109.378 198.81 68.0851 249.079 L68.0851 249.079 Z " />
<glyph glyph-name="acute_glyph" unicode="&#xb4;" horiz-adv-x="359" d="M102 531 C102 531 182 621 212 660 C236 689 254 712 254 715 C254 721 236 735 228 735 C225 735 209 711 188 679 C158 640 97 535 97 535 L102 531 Z " />
<glyph glyph-name="guillemotright" unicode="&#xbb;" horiz-adv-x="484" d="M50 36 C50 36 245.318 222.62 281.55 246.377 C284.84 246.784 287 247 287 247 L287 248.778 C287.389 248.581 287.4 247.999 287 247 L287 252 C287 252 197 318 51 464 L46 459 C134.438 370.562 211.887 280.831 238.852 249.052 C197.34 198.753 45 41 45 41 L50 36 Z M228 36 C228 36 424.335 223.555 459.075 246.442 C462.068 246.807 464 247 464 247 L464 248.67 C464.39 248.509 464.401 247.963 464 247 L464 252 C464 252 374 319 229 464 L224 459 C311.694 371.306 389.031 281.023 415.915 249.079 C374.622 198.81 223 41 223 41 L228 36 Z " />
<glyph glyph-name="onequarter" unicode="&#xbc;" horiz-adv-x="764" d="M441 70 L442 69.3 L442 63 L448 63 L448 61 L449 61 C449 61 449.493 61.6913 450.427 63 L451 63 L449 61 L585 61 L585 9 L624 9 L624 61 L685 61 L685 78 L624 78 L624 300.99 C624.967 302.093 625.643 302.777 626 303 L624 307 L624 313 L621 313 L620 315 C619.69 314.823 617.774 312.753 617 312 C617.188 311.847 582.589 268.39 441 70 L441 70 Z M198 641 C198 641.675 198.018 642.342 198.054 643 L199 643 L198 641 Z M224 669 L224 675 L179 675 L179 666 L178 666 L178 671 L133 671 L133 667 C144.477 667 151.631 662.764 156 654.115 L156 449 C156 433.205 145.984 423 130 423 L130 419 L156 419 L156 415 L195 415 L195 419 L223 419 L223 425 C208.295 428.676 197 433.896 197 453 L196 451 L195 451 L195 643 L198.054 643 C199.033 660.908 209.778 665.445 224 669 L224 669 Z M106 -13 L678 657 L658 673 L87 3.00002 L106 -13 Z M461.142 78 C486.25 113.12 544.888 194.966 585.082 249.67 C585.028 249.09 585 248.533 585 248 L585 78 L461.142 78 Z " />
<glyph glyph-name="onehalf" unicode="&#xbd;" horiz-adv-x="764" d="M198 641 C198 641.675 198.018 642.342 198.054 643 L199 643 L198 641 Z M224 669 L224 675 L179 675 L179 666 L178 666 L178 671 L133 671 L133 667 C144.477 667 151.631 662.764 156 654.115 L156 449 C156 433.205 145.984 423 130 423 L130 419 L156 419 L156 415 L195 415 L195 419 L223 419 L223 425 C208.295 428.676 197 433.896 197 453 L196 451 L195 451 L195 643 L198.054 643 C199.033 660.908 209.778 665.444 224 669 L224 669 Z M106 -13 L678 657 L658 673 L87 3 L106 -13 Z M675 79 C671.286 64.1435 663.485 53 646 53 L644 52 L514.531 52 C601.265 105.539 659 142.702 659 187 C659 232 624 264 575 264 C532 264 489 233 472 191 L477 189 C488 216 522 236 557 236 C592 236 618 210 618 175 C618 113 548 82 451 21 L451 13 C460.254 18.8484 470.106 24.5341 479.129 30.1336 C470.18 21.233 461.351 13 454 13 L670 13 L672.051 33 L675 33 C676 46 678 66 679 79 L675 79 Z " />
<glyph glyph-name="threequarters" unicode="&#xbe;" horiz-adv-x="764" d="M444 66 L445 65.3 L445 59 L451 59 L451 57 L452 57 C452 57 452.493 57.6913 453.427 59 L454 59 L452 57 L588 57 L588 5 L627 5 L627 57 L688 57 L688 74 L627 74 L627 296.99 C627.967 298.093 628.643 298.777 629 299 L627 303 L627 309 L624 309 L623 311 C622.69 310.823 620.774 308.753 620 308 C620.188 307.847 585.589 264.39 444 66 L444 66 Z M91 340 C208 346 292 395 292 457 C292 496.745 254.466 527.515 200.772 533.094 C247.354 556.288 277 585.262 277 610 C277 645 245 671 201 671 C162 671 115 644 88 607 L93 604 C109 627 147 644 183 644 C216 644 240 625 240 599 C240 569 200 536 145 519 L145 516.261 C143.056 515.525 141.055 514.771 139 514 L139 508 C191.229 523.669 254 503.45 254 457 C254 399 187 354 94 350 L95 343 L91 340 Z M106 -13 L678 657 L658 673 L87 3.00002 L106 -13 Z M464.142 74 C489.25 109.12 547.888 190.966 588.082 245.67 C588.028 245.09 588 244.533 588 244 L588 74 L464.142 74 Z " />
<glyph glyph-name="questiondown" unicode="&#xbf;" horiz-adv-x="383" d="M205 472 C205 429.024 271 429.198 271 472 C271 514.976 205 514.802 205 472 L205 472 Z M252 -165 C304 -165 341 -137 341 -98 C341 -92 330 -87 316 -87 C293 -87 261 -129 238 -129 C127 -129 46 -55 46 48 C46 78 76 133 206 133 L241 133 C247 133 251 136 251 140 L241 359 L235 359 L225 168 L190 168 C64 168 35 94 35 54 C35 -73 126 -165 252 -165 L252 -165 Z " />
<glyph glyph-name="A_cap_grave" unicode="&#xc0;" horiz-adv-x="606" d="M5 0 L146 0 L146 10 L135 11 C101.176 12.9328 85.0969 38.2135 94.8847 72.4015 L151.458 237 L415.087 237 L478.53 64 L478 64 C489 35 475 13 446 11 L430 10 L430 0 L598 0 L598 10 L591 10 C569.885 8.89685 545.083 32.2737 532.822 64 L302 675 L289 675 L72.1697 54.8285 C57.8219 25.7308 34.293 13.6616 4.99998 9.99998 L5 0 Z M214 875 C214 871 232 848 257 820 C287 781 369 691 369 691 L374 695 C374 695 311 800 280 839 C259 871 243 895 240 895 C232 895 214 881 214 875 L214 875 Z M410.32 250 L155.926 250 L279.002 608.087 L410.32 250 Z " />
<glyph glyph-name="A_cap_acute" unicode="&#xc1;" horiz-adv-x="606" d="M234 691 C234 691 313 781 343 820 C367 849 385 872 385 875 C385 881 367 895 359 895 C357 895 341 871 320 839 C290 800 229 695 229 695 L234 691 Z M5 0 L146 0 L146 10 L135 11 C101.176 12.9328 85.0969 38.2135 94.8847 72.4015 L151.458 237 L415.087 237 L478.53 64 L478 64 C489 35 475 13 446 11 L430 10 L430 0 L598 0 L598 10 L591 10 C569.885 8.89685 545.083 32.2737 532.822 64 L302 675 L289 675 L72.1697 54.8285 C57.8219 25.7308 34.293 13.6616 4.99998 9.99998 L5 0 Z M410.32 250 L155.926 250 L279.002 608.087 L410.32 250 Z " />
<glyph glyph-name="A_cap_circumflex" unicode="&#xc2;" horiz-adv-x="606" d="M5 0 L146 0 L146 10 L135 11 C101.176 12.9328 85.0969 38.2135 94.8847 72.4015 L151.458 237 L415.087 237 L478.53 64 L478 64 C489 35 475 13 446 11 L430 10 L430 0 L598 0 L598 10 L591 10 C569.885 8.89685 545.083 32.2737 532.822 64 L302 675 L289 675 L72.1697 54.8285 C57.8219 25.7308 34.293 13.6616 4.99998 9.99998 L5 0 Z M310 892 C308 896 302 905 296 905 C289 905 283 896 281 892 C281 892 185 709 175 697 L179 693 C219.059 741.071 270.258 816.726 295.119 854.284 C331.297 798.423 412 693 412 693 L416 697 C416 697 356 797 310 892 L310 892 Z M410.32 250 L155.926 250 L279.002 608.087 L410.32 250 Z " />
<glyph glyph-name="A_cap_tilde" unicode="&#xc3;" horiz-adv-x="606" d="M142 755 C142 794 163 822 192 822 C249 822 330 760 387 760 C427 760 456 798 456 851 L449 851 C449 816 427 790 396 790 C340 790 258 853 202 853 C163 853 135 812 135 755 L142 755 Z M5 0 L146 0 L146 10 L135 11 C101.176 12.9328 85.0969 38.2135 94.8847 72.4015 L151.458 237 L415.087 237 L478.53 64 L478 64 C489 35 475 13 446 11 L430 10 L430 0 L598 0 L598 10 L591 10 C569.885 8.89685 545.083 32.2737 532.822 64 L302 675 L289 675 L72.1697 54.8285 C57.8219 25.7308 34.293 13.6616 4.99998 9.99998 L5 0 Z M410.32 250 L155.926 250 L279.002 608.087 L410.32 250 Z " />
<glyph glyph-name="A_cap_dieresis" unicode="&#xc4;" horiz-adv-x="606" d="M412 758 C412 794.423 356 794.268 356 758 C356 721.577 412 721.732 412 758 L412 758 Z M235 758 C235 794.423 179 794.268 179 758 C179 721.577 235 721.732 235 758 L235 758 Z M5 0 L146 0 L146 10 L135 11 C101.176 12.9328 85.0969 38.2135 94.8847 72.4015 L151.458 237 L415.087 237 L478.53 64 L478 64 C489 35 475 13 446 11 L430 10 L430 0 L598 0 L598 10 L591 10 C569.885 8.89685 545.083 32.2737 532.822 64 L302 675 L289 675 L72.1697 54.8285 C57.8219 25.7308 34.293 13.6616 4.99998 9.99998 L5 0 Z M410.32 250 L155.926 250 L279.002 608.087 L410.32 250 Z " />
<glyph glyph-name="A_cap_ring" unicode="&#xc5;" horiz-adv-x="606" d="M214 788 C214 836 248 870 296 870 C343 870 377 836 377 788 C377 745 338 705 296 705 C253 705 214 745 214 788 L214 788 Z M201 788 C201 739 246 695 296 695 C345 695 390 739 390 788 C390 841 351 880 296 880 C241 880 201 841 201 788 L201 788 Z M5 0 L146 0 L146 10 L135 11 C101.176 12.9328 85.0969 38.2135 94.8847 72.4015 L151.458 237 L415.087 237 L478.53 64 L478 64 C489 35 475 13 446 11 L430 10 L430 0 L598 0 L598 10 L591 10 C569.885 8.89685 545.083 32.2737 532.822 64 L302 675 L289 675 L72.1697 54.8285 C57.8219 25.7308 34.293 13.6616 4.99998 9.99998 L5 0 Z M410.32 250 L155.926 250 L279.002 608.087 L410.32 250 Z " />
<glyph glyph-name="C_cap_cedilla" unicode="&#xc7;" horiz-adv-x="735" d="M666 155 C662 147 658 135 654 127 C629.881 73.9385 567.601 28.323 503.079 16.194 C470.874 10.9476 438.303 8 408 8 C240 8 119 143 119 330 C119 517 240 652 408 652 C445.881 652 487.306 647.394 527.128 639.449 L527 639 C577 629 631 584 654 533 C658 525 662 513 666 505 L675 505 L675 603 C613 639 501 665 408 665 C208 665 63 524 63 330 C63 137.599 205.619 -2.67181 403.065 -4.97131 C399.074 -13.3864 382.665 -47.9361 361 -93 L364 -95 C384 -86 413 -80 435 -80 C476 -80 505 -103 505 -135 C505 -177 472 -207 426 -207 C386 -207 347 -200 333 -191 L330 -196 C351 -210 395 -220 435 -220 C492 -220 533 -184 533 -135 C533 -98 496 -71 445 -71 C420.195 -71 388.499 -76.9067 368.471 -85.7898 C393.235 -35.5965 411.882 -11.4939 417.354 -4.91405 C508.406 -3.25687 615.065 22.1991 675 57 L675 155 L666 155 Z " />
<glyph glyph-name="E_cap_grave" unicode="&#xc8;" horiz-adv-x="541" d="M167 875 C167 870 185 848 210 820 C241 781 323 691 323 691 L328 695 C328 695 265 800 234 839 C213 871 197 895 193 895 C185 895 167 881 167 875 L167 875 Z M385 288 L385 410 L377 410 L373 402 C362 376 325 358 287 358 L143 358 L143 647 L318 647 C364 647 412 614 432 569 L439 554 L446 554 L446 660 L40 660 L40 650 L48 649 C74 647 92 625 92 596 L92 64 C92 35 74 13 48 11 L40 10 L40 0 L451 0 L451.857 6 L453 6 C458 35 465 77 470 106 L463 106 L453 91 C425 46 371 13 325 13 L143 13 L143 346 L287 346 C325 346 361 325 373 296 L377 288 L385 288 Z " />
<glyph glyph-name="E_cap_acute" unicode="&#xc9;" horiz-adv-x="541" d="M233 691 C233 691 313 781 343 820 C367 849 385 872 385 875 C385 881 367 895 359 895 C356 895 340 871 319 839 C289 800 228 695 228 695 L233 691 Z M385 288 L385 410 L377 410 L373 402 C362 376 325 358 287 358 L143 358 L143 647 L318 647 C364 647 412 614 432 569 L439 554 L446 554 L446 660 L40 660 L40 650 L48 649 C74 647 92 625 92 596 L92 64 C92 35 74 13 48 11 L40 10 L40 0 L451 0 L451.857 6 L453 6 C458 35 465 77 470 106 L463 106 L453 91 C425 46 371 13 325 13 L143 13 L143 346 L287 346 C325 346 361 325 373 296 L377 288 L385 288 Z " />
<glyph glyph-name="E_cap_circumflex" unicode="&#xca;" horiz-adv-x="541" d="M280 892 C278 896 272 905 265 905 C258 905 252 896 250 892 C250 892 154 709 144 697 L149 693 C188.789 740.747 239.57 815.71 264.614 853.521 C301.027 797.469 381 693 381 693 L386 697 C386 697 326 797 280 892 L280 892 Z M385 288 L385 410 L377 410 L373 402 C362 376 325 358 287 358 L143 358 L143 647 L318 647 C364 647 412 614 432 569 L439 554 L446 554 L446 660 L40 660 L40 650 L48 649 C74 647 92 625 92 596 L92 64 C92 35 74 13 48 11 L40 10 L40 0 L451 0 L451.857 6 L453 6 C458 35 465 77 470 106 L463 106 L453 91 C425 46 371 13 325 13 L143 13 L143 346 L287 346 C325 346 361 325 373 296 L377 288 L385 288 Z " />
<glyph glyph-name="E_cap_dieresis" unicode="&#xcb;" horiz-adv-x="541" d="M382 758 C382 794.423 326 794.268 326 758 C326 721.577 382 721.732 382 758 L382 758 Z M204 758 C204 794.423 148 794.268 148 758 C148 721.577 204 721.732 204 758 L204 758 Z M385 288 L385 410 L377 410 L373 402 C362 376 325 358 287 358 L143 358 L143 647 L318 647 C364 647 412 614 432 569 L439 554 L446 554 L446 660 L40 660 L40 650 L48 649 C74 647 92 625 92 596 L92 64 C92 35 74 13 48 11 L40 10 L40 0 L451 0 L451.857 6 L453 6 C458 35 465 77 470 106 L463 106 L453 91 C425 46 371 13 325 13 L143 13 L143 346 L287 346 C325 346 361 325 373 296 L377 288 L385 288 Z " />
<glyph glyph-name="I_cap_grave" unicode="&#xcc;" horiz-adv-x="234" d="M35 875 C35 870 53 848 78 820 C109 781 191 691 191 691 L196 695 C196 695 133 800 102 839 C81 871 65 895 61 895 C53 895 35 881 35 875 L35 875 Z M195 10 L187 11 C161 13 143 35 143 64 L143 596 C143 625 161 647 187 649 L195 650 L195 660 L40 660 L40 650 L48 649 C74 647 92 625 92 596 L92 64 C92 35 74 13 48 11 L40 10 L40 0 L195 0 L195 10 Z " />
<glyph glyph-name="I_cap_acute" unicode="&#xcd;" horiz-adv-x="234" d="M54 691 C54 691 134 781 164 820 C188 849 206 872 206 875 C206 881 188 895 180 895 C177 895 161 871 140 839 C110 800 49 695 49 695 L54 691 Z M195 10 L187 11 C161 13 143 35 143 64 L143 596 C143 625 161 647 187 649 L195 650 L195 660 L40 660 L40 650 L48 649 C74 647 92 625 92 596 L92 64 C92 35 74 13 48 11 L40 10 L40 0 L195 0 L195 10 Z " />
<glyph glyph-name="I_cap_circumflex" unicode="&#xce;" horiz-adv-x="234" d="M132 892 C130 896 124 905 117 905 C110 905 104 896 102 892 C102 892 6 709 -4 697 L1 693 C40.7894 740.747 91.5697 815.71 116.614 853.521 C153.027 797.469 233 693 233 693 L238 697 C238 697 178 797 132 892 L132 892 Z M195 10 L187 11 C161 13 143 35 143 64 L143 596 C143 625 161 647 187 649 L195 650 L195 660 L40 660 L40 650 L48 649 C74 647 92 625 92 596 L92 64 C92 35 74 13 48 11 L40 10 L40 0 L195 0 L195 10 Z " />
<glyph glyph-name="I_cap_dieresis" unicode="&#xcf;" horiz-adv-x="234" d="M234 758 C234 794.423 178 794.268 178 758 C178 721.577 234 721.732 234 758 L234 758 Z M56 758 C56 794.423 0 794.268 0 758 C0 721.577 56 721.732 56 758 L56 758 Z M195 10 L187 11 C161 13 143 35 143 64 L143 596 C143 625 161 647 187 649 L195 650 L195 660 L40 660 L40 650 L48 649 C74 647 92 625 92 596 L92 64 C92 35 74 13 48 11 L40 10 L40 0 L195 0 L195 10 Z " />
<glyph glyph-name="N_cap_tilde" unicode="&#xd1;" horiz-adv-x="666" d="M183 755 C183 794 204 822 233 822 C290 822 371 760 428 760 C468 760 497 798 497 851 L490 851 C490 816 468 790 437 790 C381 790 299 853 243 853 C204 853 176 812 176 755 L183 755 Z M43 650 L51 649 C77 647 95 625 95 596 L95 64 C95 35 77 13 51 11 L43 10 L43 0 L162 0 L162 10 L154 11 C128 13 110 35 110 64 L110 615.725 C260.221 407.123 409.033 197.228 561 -10 L578 -10 L578 596 C578 625 596 647 622 649 L630 650 L630 660 L510 660 L510 650 L518 649 C544 647 562 625 562 596 L562 74.6836 L141 660 L43 660 L43 650 Z M110 638.595 L110 639 L110 638.595 Z " />
<glyph glyph-name="O_cap_grave" unicode="&#xd2;" horiz-adv-x="775" d="M119 330 C119 498 219 652 394 652 C569 652 669 498 669 330 C669 162 569 8 394 8 C219 8 119 162 119 330 L119 330 Z M63 330 C63 155 183 -5 394 -5 C605 -5 725 155 725 330 C725 505 605 665 394 665 C183 665 63 505 63 330 L63 330 Z M312 875 C312 870 330 848 355 820 C386 781 468 691 468 691 L473 695 C473 695 410 800 379 839 C358 871 342 895 338 895 C330 895 312 881 312 875 L312 875 Z " />
<glyph glyph-name="O_cap_acute" unicode="&#xd3;" horiz-adv-x="775" d="M369 691 C369 691 449 781 479 820 C503 849 521 872 521 875 C521 881 503 895 495 895 C492 895 476 871 455 839 C425 800 364 695 364 695 L369 691 Z M119 330 C119 498 219 652 394 652 C569 652 669 498 669 330 C669 162 569 8 394 8 C219 8 119 162 119 330 L119 330 Z M63 330 C63 155 183 -5 394 -5 C605 -5 725 155 725 330 C725 505 605 665 394 665 C183 665 63 505 63 330 L63 330 Z " />
<glyph glyph-name="O_cap_circumflex" unicode="&#xd4;" horiz-adv-x="775" d="M119 330 C119 498 219 652 394 652 C569 652 669 498 669 330 C669 162 569 8 394 8 C219 8 119 162 119 330 L119 330 Z M63 330 C63 155 183 -5 394 -5 C605 -5 725 155 725 330 C725 505 605 665 394 665 C183 665 63 505 63 330 L63 330 Z M409 892 C407 896 401 905 394 905 C387 905 381 896 379 892 C379 892 283 709 273 697 L278 693 C317.789 740.747 368.57 815.71 393.614 853.521 C430.027 797.469 510 693 510 693 L515 697 C515 697 455 797 409 892 L409 892 Z " />
<glyph glyph-name="O_cap_tilde" unicode="&#xd5;" horiz-adv-x="775" d="M241 755 C241 794 262 822 290 822 C347 822 429 760 486 760 C526 760 555 798 555 851 L547 851 C547 816 525 790 495 790 C438 790 357 853 300 853 C261 853 233 812 233 755 L241 755 Z M119 330 C119 498 219 652 394 652 C569 652 669 498 669 330 C669 162 569 8 394 8 C219 8 119 162 119 330 L119 330 Z M63 330 C63 155 183 -5 394 -5 C605 -5 725 155 725 330 C725 505 605 665 394 665 C183 665 63 505 63 330 L63 330 Z " />
<glyph glyph-name="O_cap_dieresis" unicode="&#xd6;" horiz-adv-x="775" d="M511 758 C511 794.423 455 794.268 455 758 C455 721.577 511 721.732 511 758 L511 758 Z M333 758 C333 794.423 277 794.268 277 758 C277 721.577 333 721.732 333 758 L333 758 Z M119 330 C119 498 219 652 394 652 C569 652 669 498 669 330 C669 162 569 8 394 8 C219 8 119 162 119 330 L119 330 Z M63 330 C63 155 183 -5 394 -5 C605 -5 725 155 725 330 C725 505 605 665 394 665 C183 665 63 505 63 330 L63 330 Z " />
<glyph glyph-name="O_cap_slash" unicode="&#xd8;" horiz-adv-x="775" d="M71 -13 L164.388 81.517 C220.045 28.4616 297.507 -4.99998 394 -4.99998 C605 -4.99998 725 155 725 330 C725 417.098 695.275 500.48 639.401 562.27 L733 657 L717 673 L623.612 578.483 C567.955 631.538 490.493 665 394 665 C183 665 63 505 63 330 C63 242.902 92.7247 159.52 148.599 97.73 L55 3 L71 -13 Z M598.14 552.704 L176.483 125.951 C138.901 182.895 119 255.055 119 330 C119 498 219 652 394 652 C482.134 652 551.245 612.94 598.14 552.704 L598.14 552.704 Z M611.517 534.049 C649.099 477.105 669 404.945 669 330 C669 162 569 8 394 8 C305.866 8 236.755 47.0598 189.86 107.296 L611.517 534.049 Z " />
<glyph glyph-name="U_cap_grave" unicode="&#xd9;" horiz-adv-x="654" d="M253 875 C253 870 271 848 296 820 C327 781 409 691 409 691 L414 695 C414 695 351 800 320 839 C299 871 283 895 279 895 C271 895 253 881 253 875 L253 875 Z M634 660 L498 660 L498 650 L507 649 C538 647 560 622 560 588 L560 183 C560 84 495 13 347 13 C206 13 145 91 145 198 L145 596 C145 625 163 647 189 649 L197 650 L197 660 L42 660 L42 650 L50 649 C76 647 94 625 94 596 L94 208 C94 84 169 -5 340 -5 C504 -5 576 72 576 178 L576 588 C576 622 597 647 626 649 L634 650 L634 660 Z " />
<glyph glyph-name="U_cap_acute" unicode="&#xda;" horiz-adv-x="654" d="M333 691 C333 691 413 781 443 820 C467 849 485 872 485 875 C485 881 467 895 459 895 C456 895 440 871 419 839 C389 800 328 695 328 695 L333 691 Z M634 660 L498 660 L498 650 L507 649 C538 647 560 622 560 588 L560 183 C560 84 495 13 347 13 C206 13 145 91 145 198 L145 596 C145 625 163 647 189 649 L197 650 L197 660 L42 660 L42 650 L50 649 C76 647 94 625 94 596 L94 208 C94 84 169 -5 340 -5 C504 -5 576 72 576 178 L576 588 C576 622 597 647 626 649 L634 650 L634 660 Z " />
<glyph glyph-name="U_cap_circumflex" unicode="&#xdb;" horiz-adv-x="654" d="M350 892 C348 896 342 905 335 905 C328 905 322 896 320 892 C320 892 224 709 214 697 L219 693 C258.789 740.747 309.57 815.71 334.614 853.521 C371.027 797.469 451 693 451 693 L456 697 C456 697 396 797 350 892 L350 892 Z M634 660 L498 660 L498 650 L507 649 C538 647 560 622 560 588 L560 183 C560 84 495 13 347 13 C206 13 145 91 145 198 L145 596 C145 625 163 647 189 649 L197 650 L197 660 L42 660 L42 650 L50 649 C76 647 94 625 94 596 L94 208 C94 84 169 -5 340 -5 C504 -5 576 72 576 178 L576 588 C576 622 597 647 626 649 L634 650 L634 660 Z " />
<glyph glyph-name="U_cap_dieresis" unicode="&#xdc;" horiz-adv-x="654" d="M452 758 C452 794.423 396 794.268 396 758 C396 721.577 452 721.732 452 758 L452 758 Z M274 758 C274 794.423 218 794.268 218 758 C218 721.577 274 721.732 274 758 L274 758 Z M634 660 L498 660 L498 650 L507 649 C538 647 560 622 560 588 L560 183 C560 84 495 13 347 13 C206 13 145 91 145 198 L145 596 C145 625 163 647 189 649 L197 650 L197 660 L42 660 L42 650 L50 649 C76 647 94 625 94 596 L94 208 C94 84 169 -5 340 -5 C504 -5 576 72 576 178 L576 588 C576 622 597 647 626 649 L634 650 L634 660 Z " />
<glyph glyph-name="Y_cap_acute" unicode="&#xdd;" horiz-adv-x="583" d="M298 691 C298 691 378 781 408 820 C432 849 450 872 450 875 C450 881 432 895 424 895 C421 895 405 871 384 839 C354 800 293 695 293 695 L298 691 Z M179 660 L24 660 L24 650 C49.0172 645.83 70.7809 630.778 89.3046 598.99 L274.066 260.525 L274.79 58.627 C272.71 32.3179 255.369 12.8745 231 11 L223 10 L223 0 L377 0 L377 10 L369 11 C343 13 325 35 325 64 L325 278.545 L510.368 601.42 C530.525 632.082 555.143 646.02 583 650 L583 660 L452 660 L452 650 L463 649 C494.03 647.119 503.84 621.366 486.61 586.705 L317.965 288.064 L151.581 596 C136.786 624.239 143.441 647.265 171 649 L179 650 L179 660 Z " />
<glyph glyph-name="a_grave" unicode="&#xe0;" horiz-adv-x="496" d="M474 37 C459 23 442 12 421 12 C392 12 383 36 383 70 L383 360 C383 444 330 505 256 505 C157 505 77 464 66 407 L111 407 C121 456 177 492 246 492 C298 492 335 441 335 370 C335 370 334.65 324.215 334.365 250.827 C301.035 247.675 241.862 241.293 208 233 C108 208 35 153 35 101 C35 40 85 -5 155 -5 C216.118 -5 286.348 24.44 334 68.0618 C333.999 23.4892 346.548 -10 390 -10 C427 -10 456 7 479 30 L474 37 Z M143 715 C143 711 161 688 186 660 C216 621 298 531 298 531 L303 535 C303 535 240 640 209 679 C188 711 172 735 169 735 C161 735 143 721 143 715 L143 715 Z M334.324 239.999 C334.156 194.098 334.018 138.451 334.002 77.0635 C294.644 45.6337 235.21 25 179 25 C122 25 81 63 81 115 C81 156 134 200 208 218 C248.488 228.122 303.091 235.967 334.324 239.999 L334.324 239.999 Z " />
<glyph glyph-name="a_acute" unicode="&#xe1;" horiz-adv-x="496" d="M193 531 C193 531 272 621 302 660 C326 689 344 712 344 715 C344 721 326 735 318 735 C316 735 300 711 279 679 C249 640 188 535 188 535 L193 531 Z M474 37 C459 23 442 12 421 12 C392 12 383 36 383 70 L383 360 C383 444 330 505 256 505 C157 505 77 464 66 407 L111 407 C121 456 177 492 246 492 C298 492 335 441 335 370 C335 370 334.65 324.215 334.365 250.827 C301.035 247.675 241.862 241.293 208 233 C108 208 35 153 35 101 C35 40 85 -5 155 -5 C216.118 -5 286.348 24.44 334 68.0618 C333.999 23.4892 346.548 -10 390 -10 C427 -10 456 7 479 30 L474 37 Z M334.324 239.999 C334.156 194.098 334.018 138.451 334.002 77.0635 C294.644 45.6337 235.21 25 179 25 C122 25 81 63 81 115 C81 156 134 200 208 218 C248.488 228.122 303.091 235.967 334.324 239.999 L334.324 239.999 Z " />
<glyph glyph-name="a_circumflex" unicode="&#xe2;" horiz-adv-x="496" d="M474 37 C459 23 442 12 421 12 C392 12 383 36 383 70 L383 360 C383 444 330 505 256 505 C157 505 77 464 66 407 L111 407 C121 456 177 492 246 492 C298 492 335 441 335 370 C335 370 334.65 324.215 334.365 250.827 C301.035 247.675 241.862 241.293 208 233 C108 208 35 153 35 101 C35 40 85 -5 155 -5 C216.118 -5 286.348 24.44 334 68.0618 C333.999 23.4892 346.548 -10 390 -10 C427 -10 456 7 479 30 L474 37 Z M239 732 C237 736 231 745 225 745 C218 745 212 736 210 732 C210 732 114 549 104 537 L108 533 C148.059 581.071 199.258 656.726 224.119 694.284 C260.297 638.423 341 533 341 533 L345 537 C345 537 285 637 239 732 L239 732 Z M334.324 239.999 C334.156 194.098 334.018 138.451 334.002 77.0635 C294.644 45.6337 235.21 25 179 25 C122 25 81 63 81 115 C81 156 134 200 208 218 C248.488 228.122 303.091 235.967 334.324 239.999 L334.324 239.999 Z " />
<glyph glyph-name="a_tilde" unicode="&#xe3;" horiz-adv-x="496" d="M71 595 C71 634 92 662 121 662 C178 662 259 600 316 600 C356 600 385 638 385 691 L378 691 C378 656 356 630 325 630 C269 630 187 693 131 693 C92 693 64 652 64 595 L71 595 Z M474 37 C459 23 442 12 421 12 C392 12 383 36 383 70 L383 360 C383 444 330 505 256 505 C157 505 77 464 66 407 L111 407 C121 456 177 492 246 492 C298 492 335 441 335 370 C335 370 334.65 324.215 334.365 250.827 C301.035 247.675 241.862 241.293 208 233 C108 208 35 153 35 101 C35 40 85 -5 155 -5 C216.118 -5 286.348 24.44 334 68.0618 C333.999 23.4892 346.548 -10 390 -10 C427 -10 456 7 479 30 L474 37 Z M334.324 239.999 C334.156 194.098 334.018 138.451 334.002 77.0635 C294.644 45.6337 235.21 25 179 25 C122 25 81 63 81 115 C81 156 134 200 208 218 C248.488 228.122 303.091 235.967 334.324 239.999 L334.324 239.999 Z " />
<glyph glyph-name="a_dieresis" unicode="&#xe4;" horiz-adv-x="496" d="M341 598 C341 634.423 285 634.268 285 598 C285 561.577 341 561.732 341 598 L341 598 Z M164 598 C164 634.423 108 634.268 108 598 C108 561.577 164 561.732 164 598 L164 598 Z M474 37 C459 23 442 12 421 12 C392 12 383 36 383 70 L383 360 C383 444 330 505 256 505 C157 505 77 464 66 407 L111 407 C121 456 177 492 246 492 C298 492 335 441 335 370 C335 370 334.65 324.215 334.365 250.827 C301.035 247.675 241.862 241.293 208 233 C108 208 35 153 35 101 C35 40 85 -5 155 -5 C216.118 -5 286.348 24.44 334 68.0618 C333.999 23.4892 346.548 -10 390 -10 C427 -10 456 7 479 30 L474 37 Z M334.324 239.999 C334.156 194.098 334.018 138.451 334.002 77.0635 C294.644 45.6337 235.21 25 179 25 C122 25 81 63 81 115 C81 156 134 200 208 218 C248.488 228.122 303.091 235.967 334.324 239.999 L334.324 239.999 Z " />
<glyph glyph-name="a_ring" unicode="&#xe5;" horiz-adv-x="496" d="M143 628 C143 676 177 710 225 710 C272 710 306 676 306 628 C306 585 267 545 225 545 C182 545 143 585 143 628 L143 628 Z M130 628 C130 579 175 535 225 535 C274 535 319 579 319 628 C319 681 280 720 225 720 C170 720 130 681 130 628 L130 628 Z M474 37 C459 23 442 12 421 12 C392 12 383 36 383 70 L383 360 C383 444 330 505 256 505 C157 505 77 464 66 407 L111 407 C121 456 177 492 246 492 C298 492 335 441 335 370 C335 370 334.65 324.215 334.365 250.827 C301.035 247.675 241.862 241.293 208 233 C108 208 35 153 35 101 C35 40 85 -5 155 -5 C216.118 -5 286.348 24.44 334 68.0618 C333.999 23.4892 346.548 -10 390 -10 C427 -10 456 7 479 30 L474 37 Z M334.324 239.999 C334.156 194.098 334.018 138.451 334.002 77.0635 C294.644 45.6337 235.21 25 179 25 C122 25 81 63 81 115 C81 156 134 200 208 218 C248.488 228.122 303.091 235.967 334.324 239.999 L334.324 239.999 Z " />
<glyph glyph-name="c_cedilla" unicode="&#xe7;" horiz-adv-x="488" d="M203.471 -85.7898 C228.225 -35.6179 246.866 -11.5144 252.347 -4.92247 C331.086 -3.61958 407.141 13.9886 436 39 L432 44 C417 32 354 23 281 23 C175 23 99 120 99 253 C99 392 184 492 301 492 C351 492 391 455 395 404 C397.021 377.728 438 371.618 438 401 C433 461 377 505 306 505 C158 505 50 392 50 236 C50 98.0573 128.637 -2.02316 238.083 -4.93477 C234.121 -13.2859 217.697 -47.8705 196 -93 L199 -95 C219 -86 248 -80 270 -80 C311 -80 340 -103 340 -135 C340 -177 307 -207 261 -207 C221 -207 182 -200 168 -191 L165 -196 C186 -210 230 -220 270 -220 C327 -220 368 -184 368 -135 C368 -98 331 -71 280 -71 C255.195 -71 223.499 -76.9067 203.471 -85.7898 L203.471 -85.7898 Z " />
<glyph glyph-name="e_grave" unicode="&#xe8;" horiz-adv-x="495" d="M443 39 L439 44 C424 32 360 23 285 23 C154.514 23 73.9814 165.59 105.866 325 L445 325 C445 429 372 505 272 505 C143 505 50 392 50 236 C50 96 133 -5 247 -5 C330 -5 413 13 443 39 L443 39 Z M190 715 C190 710 208 688 233 660 C264 621 346 531 346 531 L351 535 C351 535 288 640 257 679 C236 711 220 735 216 735 C208 735 190 721 190 715 L190 715 Z M402 363 C402 352.693 395.36 343.861 385.882 341.574 L107.853 334.234 C129.794 429.321 190.622 492 269 492 C346 492 402 438 402 363 L402 363 Z " />
<glyph glyph-name="e_acute" unicode="&#xe9;" horiz-adv-x="495" d="M240 531 C240 531 320 621 350 660 C374 689 392 712 392 715 C392 721 374 735 366 735 C363 735 347 711 326 679 C296 640 235 535 235 535 L240 531 Z M443 39 L439 44 C424 32 360 23 285 23 C154.514 23 73.9814 165.59 105.866 325 L445 325 C445 429 372 505 272 505 C143 505 50 392 50 236 C50 96 133 -5 247 -5 C330 -5 413 13 443 39 L443 39 Z M402 363 C402 352.693 395.36 343.861 385.882 341.574 L107.853 334.234 C129.794 429.321 190.622 492 269 492 C346 492 402 438 402 363 L402 363 Z " />
<glyph glyph-name="e_circumflex" unicode="&#xea;" horiz-adv-x="495" d="M443 39 L439 44 C424 32 360 23 285 23 C154.514 23 73.9814 165.59 105.866 325 L445 325 C445 429 372 505 272 505 C143 505 50 392 50 236 C50 96 133 -5 247 -5 C330 -5 413 13 443 39 L443 39 Z M287 732 C285 736 279 745 272 745 C265 745 259 736 257 732 C257 732 161 549 151 537 L156 533 C195.789 580.747 246.57 655.71 271.614 693.521 C308.027 637.469 388 533 388 533 L393 537 C393 537 333 637 287 732 L287 732 Z M402 363 C402 352.693 395.36 343.861 385.882 341.574 L107.853 334.234 C129.794 429.321 190.622 492 269 492 C346 492 402 438 402 363 L402 363 Z " />
<glyph glyph-name="e_dieresis" unicode="&#xeb;" horiz-adv-x="495" d="M389 598 C389 634.423 333 634.268 333 598 C333 561.577 389 561.732 389 598 L389 598 Z M211 598 C211 634.423 155 634.268 155 598 C155 561.577 211 561.732 211 598 L211 598 Z M443 39 L439 44 C424 32 360 23 285 23 C154.514 23 73.9814 165.59 105.866 325 L445 325 C445 429 372 505 272 505 C143 505 50 392 50 236 C50 96 133 -5 247 -5 C330 -5 413 13 443 39 L443 39 Z M402 363 C402 352.693 395.36 343.861 385.882 341.574 L107.853 334.234 C129.794 429.321 190.622 492 269 492 C346 492 402 438 402 363 L402 363 Z " />
<glyph glyph-name="i_grave" unicode="&#xec;" horiz-adv-x="238" d="M37 715 C37 710 55 688 80 660 C111 621 193 531 193 531 L198 535 C198 535 135 640 104 679 C83 711 67 735 63 735 C55 735 37 721 37 715 L37 715 Z M194 10 L186 11 C160 13 142 35 142 64 L142 500 L133 500 L45 474 L45 468 C84.4169 453.219 97 442.467 97 397 L97 64 C97 35 79 13 53 11 L45 10 L45 0 L194 0 L194 10 Z " />
<glyph glyph-name="i_acute" unicode="&#xed;" horiz-adv-x="238" d="M41 531 C41 531 121 621 151 660 C175 689 193 712 193 715 C193 721 175 735 167 735 C164 735 148 711 127 679 C97 640 36 535 36 535 L41 531 Z M194 10 L186 11 C160 13 142 35 142 64 L142 500 L133 500 L45 474 L45 468 C84.4169 453.219 97 442.467 97 397 L97 64 C97 35 79 13 53 11 L45 10 L45 0 L194 0 L194 10 Z " />
<glyph glyph-name="i_circumflex" unicode="&#xee;" horiz-adv-x="238" d="M134 732 C132 736 126 745 119 745 C112 745 106 736 104 732 C104 732 8 549 -2 537 L3 533 C42.7894 580.747 93.5697 655.71 118.614 693.521 C155.027 637.469 235 533 235 533 L240 537 C240 537 180 637 134 732 L134 732 Z M194 10 L186 11 C160 13 142 35 142 64 L142 500 L133 500 L45 474 L45 468 C84.4169 453.219 97 442.467 97 397 L97 64 C97 35 79 13 53 11 L45 10 L45 0 L194 0 L194 10 Z " />
<glyph glyph-name="i_dieresis" unicode="&#xef;" horiz-adv-x="238" d="M236 598 C236 634.423 180 634.268 180 598 C180 561.577 236 561.732 236 598 L236 598 Z M58 598 C58 634.423 2 634.268 2 598 C2 561.577 58 561.732 58 598 L58 598 Z M194 10 L186 11 C160 13 142 35 142 64 L142 500 L133 500 L45 474 L45 468 C84.4169 453.219 97 442.467 97 397 L97 64 C97 35 79 13 53 11 L45 10 L45 0 L194 0 L194 10 Z " />
<glyph glyph-name="n_tilde" unicode="&#xf1;" horiz-adv-x="587" d="M143 595 C143 634 164 662 192 662 C249 662 331 600 388 600 C428 600 457 638 457 691 L449 691 C449 656 427 630 397 630 C340 630 259 693 202 693 C163 693 135 652 135 595 L143 595 Z M398 0 L548 0 L548 10 L540 11 C514 13 496 35 496 64 L496 336 C496 434 456 505 363 505 C313.058 505 220.924 475.273 142 434.601 L142 500 L133 500 L44 474 L44 468 C83.5188 453.18 96 442.524 96 396 L96 64 C96 35 78 13 52 11 L44 10 L44 0 L194 0 L194 10 L186 11 C160 13 142 35 142 64 L142 429.578 C193.116 455.264 269.926 474 328 474 C413 474 450 414 450 331 L450 64 C450 35 432 13 406 11 L398 10 L398 0 Z " />
<glyph glyph-name="o_grave" unicode="&#xf2;" horiz-adv-x="603" d="M101 250 C101 392 185 495 302 495 C418 495 502 392 502 250 C502 108 418 5 302 5 C185 5 101 108 101 250 L101 250 Z M50 250 C50 102 156 -5 302 -5 C448 -5 553 102 553 250 C553 398 448 505 302 505 C156 505 50 398 50 250 L50 250 Z M220 715 C220 711 238 688 263 660 C293 621 375 531 375 531 L380 535 C380 535 317 640 286 679 C265 711 249 735 246 735 C238 735 220 721 220 715 L220 715 Z " />
<glyph glyph-name="o_acute" unicode="&#xf3;" horiz-adv-x="603" d="M270 531 C270 531 349 621 379 660 C403 689 421 712 421 715 C421 721 403 735 395 735 C393 735 377 711 356 679 C326 640 265 535 265 535 L270 531 Z M101 250 C101 392 185 495 302 495 C418 495 502 392 502 250 C502 108 418 5 302 5 C185 5 101 108 101 250 L101 250 Z M50 250 C50 102 156 -5 302 -5 C448 -5 553 102 553 250 C553 398 448 505 302 505 C156 505 50 398 50 250 L50 250 Z " />
<glyph glyph-name="o_circumflex" unicode="&#xf4;" horiz-adv-x="603" d="M101 250 C101 392 185 495 302 495 C418 495 502 392 502 250 C502 108 418 5 302 5 C185 5 101 108 101 250 L101 250 Z M50 250 C50 102 156 -5 302 -5 C448 -5 553 102 553 250 C553 398 448 505 302 505 C156 505 50 398 50 250 L50 250 Z M316 732 C314 736 308 745 302 745 C295 745 289 736 287 732 C287 732 191 549 181 537 L185 533 C225.059 581.071 276.258 656.726 301.119 694.284 C337.297 638.423 418 533 418 533 L422 537 C422 537 362 637 316 732 L316 732 Z " />
<glyph glyph-name="o_tilde" unicode="&#xf5;" horiz-adv-x="603" d="M148 595 C148 634 169 662 198 662 C255 662 336 600 393 600 C433 600 462 638 462 691 L455 691 C455 656 433 630 402 630 C346 630 264 693 208 693 C169 693 141 652 141 595 L148 595 Z M101 250 C101 392 185 495 302 495 C418 495 502 392 502 250 C502 108 418 5 302 5 C185 5 101 108 101 250 L101 250 Z M50 250 C50 102 156 -5 302 -5 C448 -5 553 102 553 250 C553 398 448 505 302 505 C156 505 50 398 50 250 L50 250 Z " />
<glyph glyph-name="o_dieresis" unicode="&#xf6;" horiz-adv-x="603" d="M418 598 C418 634.423 362 634.268 362 598 C362 561.577 418 561.732 418 598 L418 598 Z M241 598 C241 634.423 185 634.268 185 598 C185 561.577 241 561.732 241 598 L241 598 Z M101 250 C101 392 185 495 302 495 C418 495 502 392 502 250 C502 108 418 5 302 5 C185 5 101 108 101 250 L101 250 Z M50 250 C50 102 156 -5 302 -5 C448 -5 553 102 553 250 C553 398 448 505 302 505 C156 505 50 398 50 250 L50 250 Z " />
<glyph glyph-name="o_slash" unicode="&#xf8;" horiz-adv-x="603" d="M55 -10 L126.175 62.1652 C170.568 19.8508 231.639 -5 302 -5 C448 -5 553 102 553 250 C553 321.324 528.614 383.125 487.006 428.018 L558 500 L548 510 L477.081 438.094 C432.95 480.251 372.217 505 302 505 C156 505 50 398 50 250 C50 178.807 74.5278 117.101 116.237 72.2284 L45 -1.52588e-005 L55 -10 Z M453.965 414.656 L141.078 97.4148 C115.59 138.414 101 190.82 101 250 C101 392 185 495 302 495 C364.772 495 418.174 464.838 453.965 414.656 L453.965 414.656 Z M461.967 402.63 C487.399 361.624 502 309.201 502 250 C502 108 418 4.99997 302 4.99997 C238.663 4.99997 184.996 35.1846 149.091 85.4005 L461.967 402.63 Z " />
<glyph glyph-name="u_grave" unicode="&#xf9;" horiz-adv-x="552" d="M184 715 C184 710 202 688 227 660 C258 621 340 531 340 531 L345 535 C345 535 282 640 251 679 C230 711 214 735 210 735 C202 735 184 721 184 715 L184 715 Z M14 490 L22 489 C48 487 66 465 66 436 L66 156 C66 63 124 -5 226 -5 C311.747 -5 378.431 21.3236 420 59.2691 L420 0 L429 0 L518 26 L518 32 C478.481 46.8196 466 57.4756 466 104 L466 500 L368 500 L368 490 L376 489 C402 487 420 465 420 436 L420 66.0725 C394.186 42.08 340.903 25 262 25 C166 25 112 82 112 161 L112 500 L14 500 L14 490 Z " />
<glyph glyph-name="u_acute" unicode="&#xfa;" horiz-adv-x="552" d="M234 531 C234 531 314 621 344 660 C368 689 386 712 386 715 C386 721 368 735 360 735 C357 735 341 711 320 679 C290 640 229 535 229 535 L234 531 Z M14 490 L22 489 C48 487 66 465 66 436 L66 156 C66 63 124 -5 226 -5 C311.747 -5 378.431 21.3236 420 59.2691 L420 0 L429 0 L518 26 L518 32 C478.481 46.8196 466 57.4756 466 104 L466 500 L368 500 L368 490 L376 489 C402 487 420 465 420 436 L420 66.0725 C394.186 42.08 340.903 25 262 25 C166 25 112 82 112 161 L112 500 L14 500 L14 490 Z " />
<glyph glyph-name="u_circumflex" unicode="&#xfb;" horiz-adv-x="552" d="M281 732 C279 736 273 745 266 745 C259 745 253 736 251 732 C251 732 155 549 145 537 L150 533 C189.789 580.747 240.57 655.71 265.614 693.521 C302.027 637.469 382 533 382 533 L387 537 C387 537 327 637 281 732 L281 732 Z M14 490 L22 489 C48 487 66 465 66 436 L66 156 C66 63 124 -5 226 -5 C311.747 -5 378.431 21.3236 420 59.2691 L420 0 L429 0 L518 26 L518 32 C478.481 46.8196 466 57.4756 466 104 L466 500 L368 500 L368 490 L376 489 C402 487 420 465 420 436 L420 66.0725 C394.186 42.08 340.903 25 262 25 C166 25 112 82 112 161 L112 500 L14 500 L14 490 Z " />
<glyph glyph-name="u_dieresis" unicode="&#xfc;" horiz-adv-x="552" d="M383 598 C383 634.423 327 634.268 327 598 C327 561.577 383 561.732 383 598 L383 598 Z M205 598 C205 634.423 149 634.268 149 598 C149 561.577 205 561.732 205 598 L205 598 Z M14 490 L22 489 C48 487 66 465 66 436 L66 156 C66 63 124 -5 226 -5 C311.747 -5 378.431 21.3236 420 59.2691 L420 0 L429 0 L518 26 L518 32 C478.481 46.8196 466 57.4756 466 104 L466 500 L368 500 L368 490 L376 489 C402 487 420 465 420 436 L420 66.0725 C394.186 42.08 340.903 25 262 25 C166 25 112 82 112 161 L112 500 L14 500 L14 490 Z " />
<glyph glyph-name="y_dieresis" unicode="&#xff;" horiz-adv-x="440" d="M367 598 C367 634.423 311 634.268 311 598 C311 561.577 367 561.732 367 598 L367 598 Z M189 598 C189 634.423 133 634.268 133 598 C133 561.577 189 561.732 189 598 L189 598 Z M154 500 L1 500 L1 490 C31.6193 486.173 55.7968 473.534 70.6663 443.623 L242.335 -3.0659 C237.615 -13.9787 227.307 -38.5501 217 -68 C181 -160 150 -200 114 -200 C114 -200 67 -176 48 -176 C34 -176 24 -184 24 -195 C24 -215 50 -230 86 -230 C143 -230 186 -182 229 -72 C241 -37 253 -9.99998 253 -9.99998 L428.093 440.997 C442.511 472.406 468.374 486.172 499 490 L499 500 L383 500 L383 490 L390 489 C413.189 487.104 421.743 464.705 411.157 436 L266.438 47.5452 L122.689 443.073 C115.751 468.516 125.91 487.166 147 489 L154 490 L154 500 Z " />
<glyph glyph-name="A_cap_macron" unicode="&#x100;" horiz-adv-x="606" d="M138 771 L453 771 L453 796 L138 796 L138 771 Z M5 0 L146 0 L146 10 L135 11 C101.176 12.9328 85.0969 38.2135 94.8847 72.4015 L151.458 237 L415.087 237 L478.53 64 L478 64 C489 35 475 13 446 11 L430 10 L430 0 L598 0 L598 10 L591 10 C569.885 8.89685 545.083 32.2737 532.822 64 L302 675 L289 675 L72.1697 54.8285 C57.8219 25.7308 34.293 13.6616 4.99998 9.99998 L5 0 Z M410.32 250 L155.926 250 L279.002 608.087 L410.32 250 Z " />
<glyph glyph-name="a_macron" unicode="&#x101;" horiz-adv-x="496" d="M67 611 L382 611 L382 636 L67 636 L67 611 Z M474 37 C459 23 442 12 421 12 C392 12 383 36 383 70 L383 360 C383 444 330 505 256 505 C157 505 77 464 66 407 L111 407 C121 456 177 492 246 492 C298 492 335 441 335 370 C335 370 334.65 324.215 334.365 250.827 C301.035 247.675 241.862 241.293 208 233 C108 208 35 153 35 101 C35 40 85 -5 155 -5 C216.118 -5 286.348 24.44 334 68.0618 C333.999 23.4892 346.548 -10 390 -10 C427 -10 456 7 479 30 L474 37 Z M334.324 239.999 C334.156 194.098 334.018 138.451 334.002 77.0635 C294.644 45.6337 235.21 25 179 25 C122 25 81 63 81 115 C81 156 134 200 208 218 C248.488 228.122 303.091 235.967 334.324 239.999 L334.324 239.999 Z " />
<glyph glyph-name="A_cap_breve" unicode="&#x102;" horiz-adv-x="606" d="M173 872 C183 813 234 770 296 770 C357 770 408 813 418 872 L410 873 C403 831 355 801 296 801 C236 801 188 831 181 873 L173 872 Z M5 0 L146 0 L146 10 L135 11 C101.176 12.9328 85.0969 38.2135 94.8847 72.4015 L151.458 237 L415.087 237 L478.53 64 L478 64 C489 35 475 13 446 11 L430 10 L430 0 L598 0 L598 10 L591 10 C569.885 8.89685 545.083 32.2737 532.822 64 L302 675 L289 675 L72.1697 54.8285 C57.8219 25.7308 34.293 13.6616 4.99998 9.99998 L5 0 Z M410.32 250 L155.926 250 L279.002 608.087 L410.32 250 Z " />
<glyph glyph-name="a_breve" unicode="&#x103;" horiz-adv-x="496" d="M102 682 C112 623 163 580 225 580 C286 580 337 623 347 682 L339 683 C332 641 284 611 225 611 C165 611 117 641 110 683 L102 682 Z M474 37 C459 23 442 12 421 12 C392 12 383 36 383 70 L383 360 C383 444 330 505 256 505 C157 505 77 464 66 407 L111 407 C121 456 177 492 246 492 C298 492 335 441 335 370 C335 370 334.65 324.215 334.365 250.827 C301.035 247.675 241.862 241.293 208 233 C108 208 35 153 35 101 C35 40 85 -5 155 -5 C216.118 -5 286.348 24.44 334 68.0618 C333.999 23.4892 346.548 -10 390 -10 C427 -10 456 7 479 30 L474 37 Z M334.324 239.999 C334.156 194.098 334.018 138.451 334.002 77.0635 C294.644 45.6337 235.21 25 179 25 C122 25 81 63 81 115 C81 156 134 200 208 218 C248.488 228.122 303.091 235.967 334.324 239.999 L334.324 239.999 Z " />
<glyph glyph-name="A_cap_ogonek" unicode="&#x104;" horiz-adv-x="606" d="M5 0 L146 0 L146 10 L135 11 C101.176 12.9328 85.0969 38.2135 94.8847 72.4015 L151.458 237 L415.087 237 L478.53 64 L478 64 C489 35 475 13 446 11 L430 10 L430 0 L481.949 0 C435.174 -27.9842 361 -98.2969 361 -156 C361 -201 403 -233 462 -233 C492 -233 525 -219 542 -199 L539 -195 C527 -209 499 -220 472 -220 C424 -220 389 -191 389 -151 C389 -87 469 -12 502 0 L598 0 L598 10 L591 10 C569.885 8.89685 545.083 32.2737 532.822 64 L302 675 L289 675 L72.1697 54.8285 C57.8219 25.7308 34.293 13.6616 4.99998 9.99998 L5 0 Z M410.32 250 L155.926 250 L279.002 608.087 L410.32 250 Z " />
<glyph glyph-name="a_ogonek" unicode="&#x105;" horiz-adv-x="496" d="M436.939 14.1822 C397.777 3.30025 383 29.7346 383 70 L383 360 C383 444 330 505 256 505 C157 505 77 464 66 407 L111 407 C121 456 177 492 246 492 C298 492 335 441 335 370 C335 370 334.65 324.215 334.365 250.827 C301.035 247.675 241.862 241.293 208 233 C108 208 35 153 35 101 C35 40 85 -4.99998 155 -4.99998 C216.118 -4.99998 286.348 24.4401 334 68.0618 C333.998 14.0207 354.595 -18.7045 411.293 -8.04094 C373.769 -43.7965 338 -92.9386 338 -136 C338 -192 380 -233 439 -233 C469 -233 502 -219 519 -199 L516 -195 C504 -209 476 -220 449 -220 C401 -220 366 -183 366 -131 C366 -83.6631 402.584 -32.2104 436.478 -0.144836 C452.586 7.04213 466.657 17.6571 479 30 L479 40 C468.136 36.0254 453.13 26.8551 436.939 14.1823 L436.939 14.1822 Z M334.324 239.999 C334.156 194.098 334.018 138.451 334.002 77.0635 C294.644 45.6338 235.21 25 179 25 C122 25 81 63 81 115 C81 156 134 200 208 218 C248.488 228.122 303.091 235.967 334.324 239.999 L334.324 239.999 Z " />
<glyph glyph-name="C_cap_acute" unicode="&#x106;" horiz-adv-x="735" d="M360 691 C360 691 440 781 470 820 C494 849 512 872 512 875 C512 881 494 895 486 895 C483 895 467 871 446 839 C416 800 355 695 355 695 L360 691 Z M666 155 C662 147 658 135 654 127 C629.881 73.9385 567.601 28.323 503.079 16.194 C470.874 10.9476 438.303 8 408 8 C240 8 119 143 119 330 C119 517 240 652 408 652 C445.881 652 487.306 647.394 527.128 639.449 L527 639 C577 629 631 584 654 533 C658 525 662 513 666 505 L675 505 L675 603 C613 639 501 665 408 665 C208 665 63 524 63 330 C63 136 208 -5 408 -5 C501 -5 613 21 675 57 L675 155 L666 155 Z " />
<glyph glyph-name="c_acute" unicode="&#x107;" horiz-adv-x="488" d="M228 531 C228 531 308 621 338 660 C362 689 380 712 380 715 C380 721 362 735 354 735 C351 735 335 711 314 679 C284 640 223 535 223 535 L228 531 Z M436 39 L432 44 C417 32 354 23 281 23 C175 23 99 120 99 253 C99 392 184 492 301 492 C351 492 391 455 395 404 C397.021 377.728 438 371.618 438 401 C433 461 377 505 306 505 C158 505 50 392 50 236 C50 96 131 -5 243 -5 C325 -5 406 13 436 39 L436 39 Z " />
<glyph glyph-name="C_cap_circumflex" unicode="&#x108;" horiz-adv-x="735" d="M423 892 C421 896 415 905 408 905 C401 905 395 896 393 892 C393 892 297 709 287 697 L292 693 C331.789 740.747 382.57 815.71 407.614 853.521 C444.027 797.469 524 693 524 693 L529 697 C529 697 469 797 423 892 L423 892 Z M666 155 C662 147 658 135 654 127 C629.881 73.9385 567.601 28.323 503.079 16.194 C470.874 10.9476 438.303 8 408 8 C240 8 119 143 119 330 C119 517 240 652 408 652 C445.881 652 487.306 647.394 527.128 639.449 L527 639 C577 629 631 584 654 533 C658 525 662 513 666 505 L675 505 L675 603 C613 639 501 665 408 665 C208 665 63 524 63 330 C63 136 208 -5 408 -5 C501 -5 613 21 675 57 L675 155 L666 155 Z " />
<glyph glyph-name="C_cap_dot_accent" unicode="&#x10a;" horiz-adv-x="735" d="M436 758 C436 794.423 380 794.268 380 758 C380 721.577 436 721.732 436 758 L436 758 Z M666 155 C662 147 658 135 654 127 C629.881 73.9385 567.601 28.323 503.079 16.194 C470.874 10.9476 438.303 8 408 8 C240 8 119 143 119 330 C119 517 240 652 408 652 C445.881 652 487.306 647.394 527.128 639.449 L527 639 C577 629 631 584 654 533 C658 525 662 513 666 505 L675 505 L675 603 C613 639 501 665 408 665 C208 665 63 524 63 330 C63 136 208 -5 408 -5 C501 -5 613 21 675 57 L675 155 L666 155 Z " />
<glyph glyph-name="c_dot_accent" unicode="&#x10b;" horiz-adv-x="488" d="M334 598 C334 634.423 278 634.268 278 598 C278 561.577 334 561.732 334 598 L334 598 Z M436 39 L432 44 C417 32 354 23 281 23 C175 23 99 120 99 253 C99 392 184 492 301 492 C351 492 391 455 395 404 C397.021 377.728 438 371.618 438 401 C433 461 377 505 306 505 C158 505 50 392 50 236 C50 96 131 -5 243 -5 C325 -5 406 13 436 39 L436 39 Z " />
<glyph glyph-name="C_cap_caron" unicode="&#x10c;" horiz-adv-x="735" d="M524 927 C524 927 444.027 822.531 407.614 766.479 C382.57 804.29 331.789 879.253 292 927 L287 923 C297 911 393 728 393 728 C395 724 401 715 408 715 C415 715 421 724 423 728 C469 823 529 923 529 923 L524 927 Z M666 155 C662 147 658 135 654 127 C629.881 73.9385 567.601 28.323 503.079 16.194 C470.874 10.9476 438.303 8 408 8 C240 8 119 143 119 330 C119 517 240 652 408 652 C445.881 652 487.306 647.394 527.128 639.449 L527 639 C577 629 631 584 654 533 C658 525 662 513 666 505 L675 505 L675 603 C613 639 501 665 408 665 C208 665 63 524 63 330 C63 136 208 -5 408 -5 C501 -5 613 21 675 57 L675 155 L666 155 Z " />
<glyph glyph-name="c_caron" unicode="&#x10d;" horiz-adv-x="488" d="M422 767 C422 767 342.027 662.531 305.614 606.479 C280.57 644.29 229.789 719.253 190 767 L185 763 C195 751 291 568 291 568 C293 564 299 555 306 555 C313 555 319 564 321 568 C367 663 427 763 427 763 L422 767 Z M436 39 L432 44 C417 32 354 23 281 23 C175 23 99 120 99 253 C99 392 184 492 301 492 C351 492 391 455 395 404 C397.021 377.728 438 371.618 438 401 C433 461 377 505 306 505 C158 505 50 392 50 236 C50 96 131 -5 243 -5 C325 -5 406 13 436 39 L436 39 Z " />
<glyph glyph-name="D_cap_caron" unicode="&#x10e;" horiz-adv-x="680" d="M458 927 C458 927 377.297 821.577 341.119 765.716 C316.258 803.274 265.059 878.929 225 927 L221 923 C231 911 327 728 327 728 C329 724 335 715 342 715 C348 715 354 724 356 728 C402 823 462 923 462 923 L458 927 Z M52 650 L60 649 C86 647 104 625 104 596 L104 64 C104 35 86 13 60 11 L52 10 L52 0 L331 0 C504 0 630 139 630 330 C630 521 486 660 287 660 L52 660 L52 650 Z M155 13 L155 647 L287 647 C456 647 579 514 579 330 C579 146 475 13 331 13 L155 13 Z " />
<glyph glyph-name="d_caron" unicode="&#x10f;" horiz-adv-x="610" d="M621 754 C611 754 594 691 585 648 L549 485 L554 484 L614 637 C634 687 649 738 649 744 C649 751 629 754 621 754 L621 754 Z M402 688 C441.519 673.18 454 662.524 454 616 L454 430.833 C420.265 472.369 353.09 505 282 505 C150 505 55 388 55 226 C55 92 143 -4.99998 264 -4.99998 C335.346 -4.99998 413.027 20.3384 454 56.3806 L454 1.52588e-005 L463 1.52588e-005 L552 26 L552 32 C512.481 46.8196 500 57.4756 500 104 L500 720 L491 720 L402 694 L402 688 Z M454 63.2212 C426.681 39.677 358.304 23 289 23 C181 23 103 115 103 243 C103 387 177 492 279 492 C356.631 492 428.423 453.63 454 408.887 L454 63.2212 Z " />
<glyph glyph-name="E_cap_macron" unicode="&#x112;" horiz-adv-x="541" d="M107 771 L423 771 L423 796 L107 796 L107 771 Z M385 288 L385 410 L377 410 L373 402 C362 376 325 358 287 358 L143 358 L143 647 L318 647 C364 647 412 614 432 569 L439 554 L446 554 L446 660 L40 660 L40 650 L48 649 C74 647 92 625 92 596 L92 64 C92 35 74 13 48 11 L40 10 L40 0 L451 0 L451.857 6 L453 6 C458 35 465 77 470 106 L463 106 L453 91 C425 46 371 13 325 13 L143 13 L143 346 L287 346 C325 346 361 325 373 296 L377 288 L385 288 Z " />
<glyph glyph-name="e_macron" unicode="&#x113;" horiz-adv-x="495" d="M114 611 L430 611 L430 636 L114 636 L114 611 Z M443 39 L439 44 C424 32 360 23 285 23 C154.514 23 73.9814 165.59 105.866 325 L445 325 C445 429 372 505 272 505 C143 505 50 392 50 236 C50 96 133 -5 247 -5 C330 -5 413 13 443 39 L443 39 Z M402 363 C402 352.693 395.36 343.861 385.882 341.574 L107.853 334.234 C129.794 429.321 190.622 492 269 492 C346 492 402 438 402 363 L402 363 Z " />
<glyph glyph-name="E_cap_breve" unicode="&#x114;" horiz-adv-x="541" d="M143 872 C153 813 204 770 265 770 C326 770 377 813 387 872 L379 873 C372 831 324 801 265 801 C206 801 158 831 151 873 L143 872 Z M385 288 L385 410 L377 410 L373 402 C362 376 325 358 287 358 L143 358 L143 647 L318 647 C364 647 412 614 432 569 L439 554 L446 554 L446 660 L40 660 L40 650 L48 649 C74 647 92 625 92 596 L92 64 C92 35 74 13 48 11 L40 10 L40 0 L451 0 L451.857 6 L453 6 C458 35 465 77 470 106 L463 106 L453 91 C425 46 371 13 325 13 L143 13 L143 346 L287 346 C325 346 361 325 373 296 L377 288 L385 288 Z " />
<glyph glyph-name="e_breve" unicode="&#x115;" horiz-adv-x="495" d="M150 712 C160 653 211 610 272 610 C333 610 384 653 394 712 L386 713 C379 671 331 641 272 641 C213 641 165 671 158 713 L150 712 Z M443 39 L439 44 C424 32 360 23 285 23 C154.514 23 73.9814 165.59 105.866 325 L445 325 C445 429 372 505 272 505 C143 505 50 392 50 236 C50 96 133 -5 247 -5 C330 -5 413 13 443 39 L443 39 Z M402 363 C402 352.693 395.36 343.861 385.882 341.574 L107.853 334.234 C129.794 429.321 190.622 492 269 492 C346 492 402 438 402 363 L402 363 Z " />
<glyph glyph-name="E_cap_dot_accent" unicode="&#x116;" horiz-adv-x="541" d="M293 758 C293 794.423 237 794.268 237 758 C237 721.577 293 721.732 293 758 L293 758 Z M385 288 L385 410 L377 410 L373 402 C362 376 325 358 287 358 L143 358 L143 647 L318 647 C364 647 412 614 432 569 L439 554 L446 554 L446 660 L40 660 L40 650 L48 649 C74 647 92 625 92 596 L92 64 C92 35 74 13 48 11 L40 10 L40 0 L451 0 L451.857 6 L453 6 C458 35 465 77 470 106 L463 106 L453 91 C425 46 371 13 325 13 L143 13 L143 346 L287 346 C325 346 361 325 373 296 L377 288 L385 288 Z " />
<glyph glyph-name="e_dot_accent" unicode="&#x117;" horiz-adv-x="495" d="M300 598 C300 634.423 244 634.268 244 598 C244 561.577 300 561.732 300 598 L300 598 Z M443 39 L439 44 C424 32 360 23 285 23 C154.514 23 73.9814 165.59 105.866 325 L445 325 C445 429 372 505 272 505 C143 505 50 392 50 236 C50 96 133 -5 247 -5 C330 -5 413 13 443 39 L443 39 Z M402 363 C402 352.693 395.36 343.861 385.882 341.574 L107.853 334.234 C129.794 429.321 190.622 492 269 492 C346 492 402 438 402 363 L402 363 Z " />
<glyph glyph-name="E_cap_ogonek" unicode="&#x118;" horiz-adv-x="541" d="M385 288 L385 410 L377 410 L373 402 C362 376 325 358 287 358 L143 358 L143 647 L318 647 C364 647 412 614 432 569 L439 554 L446 554 L446 660 L40 660 L40 650 L48 649 C74 647 92 625 92 596 L92 64 C92 35 74 13 48 11 L40 10 L40 0 L428.949 0 C382.174 -27.9842 308 -98.2969 308 -156 C308 -201 350 -233 409 -233 C439 -233 472 -219 489 -199 L486 -195 C474 -209 446 -220 419 -220 C371 -220 336 -191 336 -151 C336 -87 416 -12 449 0 L451 0 L451.857 6 L453 6 C458 35 465 77 470 106 L463 106 L453 91 C425 46 371 13 325 13 L143 13 L143 346 L287 346 C325 346 361 325 373 296 L377 288 L385 288 Z " />
<glyph glyph-name="e_ogonek" unicode="&#x119;" horiz-adv-x="495" d="M308 -2 C308 -1.04895 404.239 5.40742 443 39 L439 44 C424 32 360 23 285 23 C154.514 23 73.9814 165.59 105.866 325 L445 325 C445 429 372 505 272 505 C143 505 50 392 50 236 C50 96 133 -5 247 -5 C259.75 -5 272.5 -4.57524 285.058 -3.76196 C238.183 -32.8429 167 -101.472 167 -158 C167 -201 209 -233 268 -233 C298 -233 331 -219 348 -199 L345 -195 C333 -209 305 -220 278 -220 C230 -220 195 -192 195 -153 C195 -89 275 -14 308 -2 L308 -2 Z M402 363 C402 352.693 395.36 343.861 385.882 341.574 L107.853 334.234 C129.794 429.321 190.622 492 269 492 C346 492 402 438 402 363 L402 363 Z " />
<glyph glyph-name="E_cap_caron" unicode="&#x11a;" horiz-adv-x="541" d="M381 927 C381 927 301.027 822.531 264.614 766.479 C239.57 804.29 188.789 879.253 149 927 L144 923 C154 911 250 728 250 728 C252 724 258 715 265 715 C272 715 278 724 280 728 C326 823 386 923 386 923 L381 927 Z M385 288 L385 410 L377 410 L373 402 C362 376 325 358 287 358 L143 358 L143 647 L318 647 C364 647 412 614 432 569 L439 554 L446 554 L446 660 L40 660 L40 650 L48 649 C74 647 92 625 92 596 L92 64 C92 35 74 13 48 11 L40 10 L40 0 L451 0 L451.857 6 L453 6 C458 35 465 77 470 106 L463 106 L453 91 C425 46 371 13 325 13 L143 13 L143 346 L287 346 C325 346 361 325 373 296 L377 288 L385 288 Z " />
<glyph glyph-name="e_caron" unicode="&#x11b;" horiz-adv-x="495" d="M388 767 C388 767 308.027 662.531 271.614 606.479 C246.57 644.29 195.789 719.253 156 767 L151 763 C161 751 257 568 257 568 C259 564 265 555 272 555 C279 555 285 564 287 568 C333 663 393 763 393 763 L388 767 Z M443 39 L439 44 C424 32 360 23 285 23 C154.514 23 73.9814 165.59 105.866 325 L445 325 C445 429 372 505 272 505 C143 505 50 392 50 236 C50 96 133 -5 247 -5 C330 -5 413 13 443 39 L443 39 Z M402 363 C402 352.693 395.36 343.861 385.882 341.574 L107.853 334.234 C129.794 429.321 190.622 492 269 492 C346 492 402 438 402 363 L402 363 Z " />
<glyph glyph-name="G_cap_circumflex" unicode="&#x11c;" horiz-adv-x="805" d="M412 892 C410 896 404 905 397 905 C390 905 384 896 382 892 C382 892 286 709 276 697 L281 693 C320.789 740.747 371.57 815.71 396.614 853.521 C433.027 797.469 513 693 513 693 L518 697 C518 697 458 797 412 892 L412 892 Z M655 505 L655 603 C593 639 484 665 397 665 C203 665 63 524 63 330 C63 136 203 -5 397 -5 C488 -5 599 21 661 57 L661 246 C661 275 679 297 705 299 L713 300 L713 310 L563 310 L563 300 L571 299 C597 297 615 275 615 246 L615 49.6143 C553.538 24.5693 468.641 8 397 8 C236 8 119 143 119 330 C119 517 236 652 397 652 C431.674 652 469.842 647.673 507.025 640.174 L507 640 C557 630 611 585 634 533 C638 525 642 513 646 505 L655 505 Z " />
<glyph glyph-name="G_cap_breve" unicode="&#x11e;" horiz-adv-x="805" d="M275 872 C285 813 336 770 397 770 C458 770 509 813 519 872 L511 873 C504 831 456 801 397 801 C338 801 290 831 283 873 L275 872 Z M655 505 L655 603 C593 639 484 665 397 665 C203 665 63 524 63 330 C63 136 203 -5 397 -5 C488 -5 599 21 661 57 L661 246 C661 275 679 297 705 299 L713 300 L713 310 L563 310 L563 300 L571 299 C597 297 615 275 615 246 L615 49.6143 C553.538 24.5693 468.641 8 397 8 C236 8 119 143 119 330 C119 517 236 652 397 652 C431.674 652 469.842 647.673 507.025 640.174 L507 640 C557 630 611 585 634 533 C638 525 642 513 646 505 L655 505 Z " />
<glyph glyph-name="g_breve" unicode="&#x11f;" horiz-adv-x="482" d="M133 712 C143 653 194 610 255 610 C316 610 367 653 377 712 L369 713 C362 671 314 641 255 641 C196 641 148 671 141 713 L133 712 Z M482 500 L341.005 489 C315.713 499.323 286.623 505 255 505 C148 505 70 440 70 350 C70 278.607 119.082 222.945 192.787 202.981 C110.474 202.025 52 164.335 52 113 C52 67.8018 97.0902 33.5126 163.082 24.3969 C83.0592 -0.104477 27 -53.7029 27 -109 C27 -184 91 -238 180 -238 C344 -238 462 -159 462 -50 C462 18 386 68 280 68 C265 68 197 65 197 65 C131 65 83 93 83 131 C83 168 130 195 196 195 L255 195 C362 195 440 260 440 350 C440 401.172 414.784 444.262 373.358 471.918 L482 475 L482 500 Z M255 205 C173 205 113 266 113 350 C113 434 173 495 255 495 C337 495 396 434 396 350 C396 266 337 205 255 205 L255 205 Z M179.934 22.6555 C195.014 21.6026 244.534 25 267 25 C361 25 429 -17 429 -74 C429 -162 327 -225 185 -225 C111 -225 58 -174 58 -104 C58 -49.2926 108.665 2.65126 179.934 22.6555 L179.934 22.6555 Z " />
<glyph glyph-name="G_cap_dot_accent" unicode="&#x120;" horiz-adv-x="805" d="M425 758 C425 794.423 369 794.268 369 758 C369 721.577 425 721.732 425 758 L425 758 Z M655 505 L655 603 C593 639 484 665 397 665 C203 665 63 524 63 330 C63 136 203 -5 397 -5 C488 -5 599 21 661 57 L661 246 C661 275 679 297 705 299 L713 300 L713 310 L563 310 L563 300 L571 299 C597 297 615 275 615 246 L615 49.6143 C553.538 24.5693 468.641 8 397 8 C236 8 119 143 119 330 C119 517 236 652 397 652 C431.674 652 469.842 647.673 507.025 640.174 L507 640 C557 630 611 585 634 533 C638 525 642 513 646 505 L655 505 Z " />
<glyph glyph-name="g_dot_accent" unicode="&#x121;" horiz-adv-x="482" d="M283 598 C283 634.423 227 634.268 227 598 C227 561.577 283 561.732 283 598 L283 598 Z M482 500 L341.005 489 C315.713 499.323 286.623 505 255 505 C148 505 70 440 70 350 C70 278.607 119.082 222.945 192.787 202.981 C110.474 202.025 52 164.335 52 113 C52 67.8018 97.0902 33.5126 163.082 24.3969 C83.0592 -0.104477 27 -53.7029 27 -109 C27 -184 91 -238 180 -238 C344 -238 462 -159 462 -50 C462 18 386 68 280 68 C265 68 197 65 197 65 C131 65 83 93 83 131 C83 168 130 195 196 195 L255 195 C362 195 440 260 440 350 C440 401.172 414.784 444.262 373.358 471.918 L482 475 L482 500 Z M255 205 C173 205 113 266 113 350 C113 434 173 495 255 495 C337 495 396 434 396 350 C396 266 337 205 255 205 L255 205 Z M179.934 22.6555 C195.014 21.6026 244.534 25 267 25 C361 25 429 -17 429 -74 C429 -162 327 -225 185 -225 C111 -225 58 -174 58 -104 C58 -49.2926 108.665 2.65126 179.934 22.6555 L179.934 22.6555 Z " />
<glyph glyph-name="H_cap_circumflex" unicode="&#x124;" horiz-adv-x="736" d="M383 892 C381 896 375 905 369 905 C362 905 356 896 354 892 C354 892 258 709 248 697 L252 693 C292.059 741.071 343.258 816.726 368.119 854.284 C404.297 798.423 485 693 485 693 L489 697 C489 697 429 797 383 892 L383 892 Z M697 10 L689 11 C663 13 645 35 645 64 L645 596 C645 625 663 647 689 649 L697 650 L697 660 L542 660 L542 650 L550 649 C576 647 594 625 594 596 L594 353 L143 353 L143 596 C143 625 161 647 187 649 L195 650 L195 660 L40 660 L40 650 L48 649 C74 647 92 625 92 596 L92 64 C92 35 74 13 48 11 L40 10 L40 0 L195 0 L195 10 L187 11 C161 13 143 35 143 64 L143 341 L594 341 L594 64 C594 35 576 13 550 11 L542 10 L542 0 L697 0 L697 10 Z " />
<glyph glyph-name="I_cap_tilde" unicode="&#x128;" horiz-adv-x="234" d="M-36 755 C-36 794 -15 822 13 822 C70 822 152 760 209 760 C249 760 278 798 278 851 L270 851 C270 816 248 790 218 790 C161 790 80 853 23 853 C-16 853 -44 812 -44 755 L-36 755 Z M195 10 L187 11 C161 13 143 35 143 64 L143 596 C143 625 161 647 187 649 L195 650 L195 660 L40 660 L40 650 L48 649 C74 647 92 625 92 596 L92 64 C92 35 74 13 48 11 L40 10 L40 0 L195 0 L195 10 Z " />
<glyph glyph-name="i_tilde" unicode="&#x129;" horiz-adv-x="238" d="M-34 595 C-34 634 -13 662 15 662 C72 662 154 600 211 600 C251 600 280 638 280 691 L272 691 C272 656 250 630 220 630 C163 630 82 693 25 693 C-14 693 -42 652 -42 595 L-34 595 Z M194 10 L186 11 C160 13 142 35 142 64 L142 500 L133 500 L45 474 L45 468 C84.4169 453.219 97 442.467 97 397 L97 64 C97 35 79 13 53 11 L45 10 L45 0 L194 0 L194 10 Z " />
<glyph glyph-name="I_cap_macron" unicode="&#x12a;" horiz-adv-x="234" d="M-41 771 L275 771 L275 796 L-41 796 L-41 771 Z M195 10 L187 11 C161 13 143 35 143 64 L143 596 C143 625 161 647 187 649 L195 650 L195 660 L40 660 L40 650 L48 649 C74 647 92 625 92 596 L92 64 C92 35 74 13 48 11 L40 10 L40 0 L195 0 L195 10 Z " />
<glyph glyph-name="i_macron" unicode="&#x12b;" horiz-adv-x="238" d="M-39 611 L277 611 L277 636 L-39 636 L-39 611 Z M194 10 L186 11 C160 13 142 35 142 64 L142 500 L133 500 L45 474 L45 468 C84.4169 453.219 97 442.467 97 397 L97 64 C97 35 79 13 53 11 L45 10 L45 0 L194 0 L194 10 Z " />
<glyph glyph-name="I_cap_breve" unicode="&#x12c;" horiz-adv-x="234" d="M-5 872 C5 813 56 770 117 770 C178 770 229 813 239 872 L231 873 C224 831 176 801 117 801 C58 801 10 831 3 873 L-5 872 Z M195 10 L187 11 C161 13 143 35 143 64 L143 596 C143 625 161 647 187 649 L195 650 L195 660 L40 660 L40 650 L48 649 C74 647 92 625 92 596 L92 64 C92 35 74 13 48 11 L40 10 L40 0 L195 0 L195 10 Z " />
<glyph glyph-name="i_breve" unicode="&#x12d;" horiz-adv-x="238" d="M-3 712 C7 653 58 610 119 610 C180 610 231 653 241 712 L233 713 C226 671 178 641 119 641 C60 641 12 671 5 713 L-3 712 Z M194 10 L186 11 C160 13 142 35 142 64 L142 500 L133 500 L45 474 L45 468 C84.4169 453.219 97 442.467 97 397 L97 64 C97 35 79 13 53 11 L45 10 L45 0 L194 0 L194 10 Z " />
<glyph glyph-name="I_cap_dot_accent" unicode="&#x130;" horiz-adv-x="234" d="M145 758 C145 794.423 89 794.268 89 758 C89 721.577 145 721.732 145 758 L145 758 Z M195 10 L187 11 C161 13 143 35 143 64 L143 596 C143 625 161 647 187 649 L195 650 L195 660 L40 660 L40 650 L48 649 C74 647 92 625 92 596 L92 64 C92 35 74 13 48 11 L40 10 L40 0 L195 0 L195 10 Z " />
<glyph glyph-name="dotlessi" unicode="&#x131;" horiz-adv-x="238" d="M194 10 L186 11 C160 13 142 35 142 64 L142 500 L133 500 L45 474 L45 468 C84.4169 453.219 97 442.467 97 397 L97 64 C97 35 79 13 53 11 L45 10 L45 0 L194 0 L194 10 Z " />
<glyph glyph-name="J_cap_circumflex" unicode="&#x134;" horiz-adv-x="354" d="M252 892 C250 896 244 905 238 905 C231 905 225 896 223 892 C223 892 127 709 117 697 L121 693 C161.059 741.071 212.258 816.726 237.119 854.284 C273.297 798.423 354 693 354 693 L358 697 C358 697 298 797 252 892 L252 892 Z M315 660 L160 660 L160 650 L168 649 C194 647 212 625 212 596 L212 200 C212 61 182 0 114 0 C80 0 50 21 43 50 C40 62 30 70 20 70 C6 70 -3 62 0 50 C9 15 51 -10 101 -10 C214 -10 263 67 263 243 L263 596 C263 625 281 647 307 649 L315 650 L315 660 Z " />
<glyph glyph-name="L_cap_acute" unicode="&#x139;" horiz-adv-x="541" d="M91 691 C91 691 170 781 200 820 C224 849 242 872 242 875 C242 881 224 895 216 895 C214 895 198 871 177 839 C147 800 86 695 86 695 L91 691 Z M195 660 L40 660 L40 650 L48 649 C74 647 92 625 92 596 L92 64 C92 35 74 13 48 11 L40 10 L40 0 L450 0 L450.857 6 L453 6 C458 36 466 81 471 111 C466.19 113.405 458 116 458 116 L441 84 C418 43 373 13 332 13 L143 13 L143 596 C143 625 161 647 187 649 L195 650 L195 660 Z " />
<glyph glyph-name="L_cap_caron" unicode="&#x13d;" horiz-adv-x="541" d="M314 694 C304 694 287 631 278 588 L241 425 L247 424 L307 577 C328 629 343 679 343 684 C343 691 322 694 314 694 L314 694 Z M195 660 L40 660 L40 650 L48 649 C74 647 92 625 92 596 L92 64 C92 35 74 13 48 11 L40 10 L40 0 L450 0 L450.857 6 L453 6 C458 36 466 81 471 111 C466.19 113.405 458 116 458 116 L441 84 C418 43 373 13 332 13 L143 13 L143 596 C143 625 161 647 187 649 L195 650 L195 660 Z " />
<glyph glyph-name="l_caron" unicode="&#x13e;" horiz-adv-x="238" d="M263 724 C253 724 236 661 227 618 L191 455 L196 454 L256 607 C276 657 291 708 291 714 C291 721 271 724 263 724 L263 724 Z M194 10 L186 11 C160 13 142 35 142 64 L142 720 L133 720 L45 694 L45 688 C84.4169 673.219 97 662.467 97 617 L97 64 C97 35 79 13 53 11 L45 10 L45 0 L194 0 L194 10 Z " />
<glyph glyph-name="L_cap_slash" unicode="&#x141;" horiz-adv-x="541" d="M40 0 L450 0 L450.857 6 L453 6 C458 36 466 81 471 111 C466.19 113.405 458 116 458 116 L441 84 C418 43 373 13 332 13 L143 13 L143 312.392 L295 372 L295 388 L143 328.392 L143 596 C143 625 161 647 187 649 L195 650 L195 660 L40 660 L40 650 L48 649 C74 647 92 625 92 596 L92 308.392 L40 288 L40 272 L92 292.392 L92 64 C92 35 74 13 48 11 L40 10 L40 0 Z " />
<glyph glyph-name="l_slash" unicode="&#x142;" horiz-adv-x="238" d="M45 0 L194 0 L194 10 L186 11 C160 13 142 35 142 64 L142 361.184 L242 402 L242 418 L142 377.184 L142 720 L133 720 L45 694 L45 688 C84.4169 673.219 97 662.467 97 617 L97 358.816 L-3 318 L-3 302 L97 342.816 L97 64 C97 35 79 13 53 11 L45 10 L45 0 Z " />
<glyph glyph-name="N_cap_acute" unicode="&#x143;" horiz-adv-x="666" d="M305 691 C305 691 384 781 414 820 C438 849 456 872 456 875 C456 881 438 895 430 895 C428 895 412 871 391 839 C361 800 300 695 300 695 L305 691 Z M43 650 L51 649 C77 647 95 625 95 596 L95 64 C95 35 77 13 51 11 L43 10 L43 0 L162 0 L162 10 L154 11 C128 13 110 35 110 64 L110 615.725 C260.221 407.123 409.033 197.228 561 -10 L578 -10 L578 596 C578 625 596 647 622 649 L630 650 L630 660 L510 660 L510 650 L518 649 C544 647 562 625 562 596 L562 74.6836 L141 660 L43 660 L43 650 Z M110 638.595 L110 639 L110 638.595 Z " />
<glyph glyph-name="n_acute" unicode="&#x144;" horiz-adv-x="587" d="M218 531 C218 531 298 621 328 660 C352 689 370 712 370 715 C370 721 352 735 344 735 C341 735 325 711 304 679 C274 640 213 535 213 535 L218 531 Z M398 0 L548 0 L548 10 L540 11 C514 13 496 35 496 64 L496 336 C496 434 456 505 363 505 C313.058 505 220.924 475.273 142 434.601 L142 500 L133 500 L44 474 L44 468 C83.5188 453.18 96 442.524 96 396 L96 64 C96 35 78 13 52 11 L44 10 L44 0 L194 0 L194 10 L186 11 C160 13 142 35 142 64 L142 429.578 C193.116 455.264 269.926 474 328 474 C413 474 450 414 450 331 L450 64 C450 35 432 13 406 11 L398 10 L398 0 Z " />
<glyph glyph-name="N_cap_caron" unicode="&#x147;" horiz-adv-x="666" d="M453 927 C453 927 372.297 821.577 336.119 765.716 C311.258 803.274 260.059 878.929 220 927 L216 923 C226 911 322 728 322 728 C324 724 330 715 337 715 C343 715 349 724 351 728 C397 823 457 923 457 923 L453 927 Z M43 650 L51 649 C77 647 95 625 95 596 L95 64 C95 35 77 13 51 11 L43 10 L43 0 L162 0 L162 10 L154 11 C128 13 110 35 110 64 L110 615.725 C260.221 407.123 409.033 197.228 561 -10 L578 -10 L578 596 C578 625 596 647 622 649 L630 650 L630 660 L510 660 L510 650 L518 649 C544 647 562 625 562 596 L562 74.6836 L141 660 L43 660 L43 650 Z M110 638.595 L110 639 L110 638.595 Z " />
<glyph glyph-name="n_caron" unicode="&#x148;" horiz-adv-x="587" d="M412 767 C412 767 332.027 662.531 295.614 606.479 C270.57 644.29 219.789 719.253 180 767 L175 763 C185 751 281 568 281 568 C283 564 289 555 296 555 C303 555 309 564 311 568 C357 663 417 763 417 763 L412 767 Z M398 0 L548 0 L548 10 L540 11 C514 13 496 35 496 64 L496 336 C496 434 456 505 363 505 C313.058 505 220.924 475.273 142 434.601 L142 500 L133 500 L44 474 L44 468 C83.5188 453.18 96 442.524 96 396 L96 64 C96 35 78 13 52 11 L44 10 L44 0 L194 0 L194 10 L186 11 C160 13 142 35 142 64 L142 429.578 C193.116 455.264 269.926 474 328 474 C413 474 450 414 450 331 L450 64 C450 35 432 13 406 11 L398 10 L398 0 Z " />
<glyph glyph-name="O_cap_macron" unicode="&#x14c;" horiz-adv-x="775" d="M236 771 L552 771 L552 796 L236 796 L236 771 Z M119 330 C119 498 219 652 394 652 C569 652 669 498 669 330 C669 162 569 8 394 8 C219 8 119 162 119 330 L119 330 Z M63 330 C63 155 183 -5 394 -5 C605 -5 725 155 725 330 C725 505 605 665 394 665 C183 665 63 505 63 330 L63 330 Z " />
<glyph glyph-name="o_macron" unicode="&#x14d;" horiz-adv-x="603" d="M144 611 L459 611 L459 636 L144 636 L144 611 Z M101 250 C101 392 185 495 302 495 C418 495 502 392 502 250 C502 108 418 5 302 5 C185 5 101 108 101 250 L101 250 Z M50 250 C50 102 156 -5 302 -5 C448 -5 553 102 553 250 C553 398 448 505 302 505 C156 505 50 398 50 250 L50 250 Z " />
<glyph glyph-name="O_cap_breve" unicode="&#x14e;" horiz-adv-x="775" d="M272 872 C282 813 333 770 394 770 C455 770 506 813 516 872 L508 873 C501 831 453 801 394 801 C335 801 287 831 280 873 L272 872 Z M119 330 C119 498 219 652 394 652 C569 652 669 498 669 330 C669 162 569 8 394 8 C219 8 119 162 119 330 L119 330 Z M63 330 C63 155 183 -5 394 -5 C605 -5 725 155 725 330 C725 505 605 665 394 665 C183 665 63 505 63 330 L63 330 Z " />
<glyph glyph-name="o_breve" unicode="&#x14f;" horiz-adv-x="603" d="M179 712 C189 653 240 610 302 610 C363 610 414 653 424 712 L416 713 C409 671 361 641 302 641 C242 641 194 671 187 713 L179 712 Z M101 250 C101 392 185 495 302 495 C418 495 502 392 502 250 C502 108 418 5 302 5 C185 5 101 108 101 250 L101 250 Z M50 250 C50 102 156 -5 302 -5 C448 -5 553 102 553 250 C553 398 448 505 302 505 C156 505 50 398 50 250 L50 250 Z " />
<glyph glyph-name="R_cap_acute" unicode="&#x154;" horiz-adv-x="621" d="M232 691 C232 691 311 781 341 820 C365 849 383 872 383 875 C383 881 365 895 357 895 C355 895 339 871 318 839 C288 800 227 695 227 695 L232 691 Z M52 650 L60 649 C86 647 104 625 104 596 L104 64 C104 35 86 13 60 11 L52 10 L52 0 L207 0 L207 10 L199 11 C173 13 155 35 155 64 L155 317 L268.336 317 C294.532 286.953 363.829 207.435 452 106 C538 8 548 0 601 0 L621 0 L621 10 C594.905 10 593.623 12.9593 522 96 C426.356 206.234 351.735 291.503 326.893 319.855 C437.129 334.238 513 401.56 513 490 C513 589 429 660 313 660 L52 660 L52 650 Z M282 330 L155 330 L155 647 L313 647 C398 647 460 581 460 490 C460 397 385 330 282 330 L282 330 Z " />
<glyph glyph-name="R_cap_caron" unicode="&#x158;" horiz-adv-x="621" d="M425 927 C425 927 344.297 821.577 308.119 765.716 C283.258 803.274 232.059 878.929 192 927 L188 923 C198 911 294 728 294 728 C296 724 302 715 309 715 C315 715 321 724 323 728 C369 823 429 923 429 923 L425 927 Z M52 650 L60 649 C86 647 104 625 104 596 L104 64 C104 35 86 13 60 11 L52 10 L52 0 L207 0 L207 10 L199 11 C173 13 155 35 155 64 L155 317 L268.336 317 C294.532 286.953 363.829 207.435 452 106 C538 8 548 0 601 0 L621 0 L621 10 C594.905 10 593.623 12.9593 522 96 C426.356 206.234 351.735 291.503 326.893 319.855 C437.129 334.238 513 401.56 513 490 C513 589 429 660 313 660 L52 660 L52 650 Z M282 330 L155 330 L155 647 L313 647 C398 647 460 581 460 490 C460 397 385 330 282 330 L282 330 Z " />
<glyph glyph-name="r_caron" unicode="&#x159;" horiz-adv-x="405" d="M315 767 C315 767 234.297 661.577 198.119 605.716 C173.258 643.274 122.059 718.929 82 767 L78 763 C88 751 184 568 184 568 C186 564 192 555 199 555 C205 555 211 564 213 568 C259 663 319 763 319 763 L315 767 Z M44 468 C83.5188 453.18 96 442.524 96 396 L96 64 C96 35 78 13 52 11 L44 10 L44 0 L194 0 L194 10 L186 11 C160 13 142 35 142 64 L142 415.016 C171.089 447.861 221.605 471 265 471 C296 471 342 448 373 448 C386 448 395 457 395 470 C395 490 366 505 301 505 C249.138 505 183.441 469.95 142 421.11 L142 500 L133 500 L44 474 L44 468 Z " />
<glyph glyph-name="S_cap_acute" unicode="&#x15a;" horiz-adv-x="520" d="M196 691 C196 691 276 781 306 820 C330 849 348 872 348 875 C348 881 330 895 322 895 C319 895 303 871 282 839 C252 800 191 695 191 695 L196 691 Z M441 512 L441 614 L437 606 C437.152 608.334 439.86 611.388 441 614 C390 644 308 665 246 665 C133 665 52 588 52 482 C52 412 132 340 242 310 C356 279 439 210 439 146 C439 66 373 8 281 8 C250.431 8 217.316 11.4439 185.074 17.4625 C137.093 29.0672 86.8954 71.3933 64 121 C60 129 56 140 52 148 L43 148 L43 46 C94 16 194 -5 281 -5 C394 -5 475 67 475 167 C475 242 394 319 281 350 C168 381 87 445 87 503 C87 589 153 652 244 652 C272.147 652 306.581 645.976 340.732 635.939 C366.2 625.412 392.34 601.01 404 575 L432 512 L441 512 Z " />
<glyph glyph-name="s_acute" unicode="&#x15b;" horiz-adv-x="438" d="M141 531 C141 531 221 621 251 660 C275 689 293 712 293 715 C293 721 275 735 267 735 C264 735 248 711 227 679 C197 640 136 535 136 535 L141 531 Z M357 394 L365 394 L365 461 C321 487 259 505 219 505 C130 505 66 452 66 379 C66 328 131 267 221 234 C296 207 350 158 350 118 C350 52 301 5 233 5 C209.058 5 182.218 8.06729 155.858 13.4984 C113.073 26.4008 75.9929 65.0143 55 107 L48 107 L48 34 L52 42 C51.2993 39.5151 49.2263 36.6359 48 34 C87 11 164 -5 230 -5 C322 -5 388 54 388 135 C388 183 332 238 254 266 C166 298 102 352 102 395 C102 453 151 495 219 495 C233.183 495 253.018 490.604 275.057 483.153 L275 483 C313.433 470.189 343.656 434.031 357 394 L357 394 Z " />
<glyph glyph-name="S_cap_circumflex" unicode="&#x15c;" horiz-adv-x="520" d="M259 892 C257 896 251 905 244 905 C237 905 231 896 229 892 C229 892 133 709 123 697 L128 693 C167.789 740.747 218.57 815.71 243.614 853.521 C280.027 797.469 360 693 360 693 L365 697 C365 697 305 797 259 892 L259 892 Z M441 512 L441 614 L437 606 C437.152 608.334 439.86 611.388 441 614 C390 644 308 665 246 665 C133 665 52 588 52 482 C52 412 132 340 242 310 C356 279 439 210 439 146 C439 66 373 8 281 8 C250.431 8 217.316 11.4439 185.074 17.4625 C137.093 29.0672 86.8954 71.3933 64 121 C60 129 56 140 52 148 L43 148 L43 46 C94 16 194 -5 281 -5 C394 -5 475 67 475 167 C475 242 394 319 281 350 C168 381 87 445 87 503 C87 589 153 652 244 652 C272.147 652 306.581 645.976 340.732 635.939 C366.2 625.412 392.34 601.01 404 575 L432 512 L441 512 Z " />
<glyph glyph-name="S_cap_cedilla" unicode="&#x15e;" horiz-adv-x="520" d="M441 512 L441 614 L437 606 C437.152 608.334 439.86 611.388 441 614 C390 644 308 665 246 665 C133 665 52 588 52 482 C52 412 132 340 242 310 C356 279 439 210 439 146 C439 66 373 8 281 8 C250.431 8 217.316 11.4439 185.074 17.4625 C137.093 29.0672 86.8954 71.3933 64 121 C60 129 56 140 52 148 L43 148 L43 46 C93.0378 16.566 190.244 -4.20439 276.062 -4.97766 C272.065 -13.4038 255.66 -47.9474 234 -93 L237 -95 C257 -86 286 -80 308 -80 C349 -80 378 -103 378 -135 C378 -177 345 -207 299 -207 C259 -207 220 -200 206 -191 L203 -196 C224 -210 268 -220 308 -220 C365 -220 406 -184 406 -135 C406 -98 369 -71 318 -71 C293.195 -71 261.499 -76.9067 241.471 -85.7898 C266.34 -35.3839 285.039 -11.2901 290.423 -4.83138 C398.476 -0.943024 475 69.8021 475 167 C475 242 394 319 281 350 C168 381 87 445 87 503 C87 589 153 652 244 652 C272.147 652 306.581 645.976 340.732 635.939 C366.2 625.412 392.34 601.01 404 575 L432 512 L441 512 Z " />
<glyph glyph-name="s_cedilla" unicode="&#x15f;" horiz-adv-x="438" d="M357 394 L365 394 L365 461 C321 487 259 505 219 505 C130 505 66 452 66 379 C66 328 131 267 221 234 C296 207 350 158 350 118 C350 52 301 5 233 5 C209.058 5 182.218 8.06729 155.858 13.4984 C113.073 26.4008 75.9929 65.0143 55 107 L48 107 L48 34 L52 42 C51.2993 39.5151 49.2263 36.6359 48 34 C86.032 11.5709 160.201 -4.20139 225.066 -4.97057 C221.075 -13.3844 204.666 -47.9347 183 -93 L186 -95 C206 -86 235 -80 257 -80 C298 -80 327 -103 327 -135 C327 -177 294 -207 248 -207 C208 -207 169 -200 155 -191 L152 -196 C173 -210 217 -220 257 -220 C314 -220 355 -184 355 -135 C355 -98 318 -71 267 -71 C242.195 -71 210.499 -76.9067 190.471 -85.7898 C215.394 -35.2743 234.121 -11.1855 239.457 -4.78951 C326.49 -0.889572 388 56.8035 388 135 C388 183 332 238 254 266 C166 298 102 352 102 395 C102 453 151 495 219 495 C233.183 495 253.018 490.604 275.057 483.153 L275 483 C313.433 470.189 343.656 434.031 357 394 L357 394 Z " />
<glyph glyph-name="S_cap_caron" unicode="&#x160;" horiz-adv-x="520" d="M360 927 C360 927 280.027 822.531 243.614 766.479 C218.57 804.29 167.789 879.253 128 927 L123 923 C133 911 229 728 229 728 C231 724 237 715 244 715 C251 715 257 724 259 728 C305 823 365 923 365 923 L360 927 Z M441 512 L441 614 L437 606 C437.152 608.334 439.86 611.388 441 614 C390 644 308 665 246 665 C133 665 52 588 52 482 C52 412 132 340 242 310 C356 279 439 210 439 146 C439 66 373 8 281 8 C250.431 8 217.316 11.4439 185.074 17.4625 C137.093 29.0672 86.8954 71.3933 64 121 C60 129 56 140 52 148 L43 148 L43 46 C94 16 194 -5 281 -5 C394 -5 475 67 475 167 C475 242 394 319 281 350 C168 381 87 445 87 503 C87 589 153 652 244 652 C272.147 652 306.581 645.976 340.732 635.939 C366.2 625.412 392.34 601.01 404 575 L432 512 L441 512 Z " />
<glyph glyph-name="s_caron" unicode="&#x161;" horiz-adv-x="438" d="M335 767 C335 767 255.027 662.531 218.614 606.479 C193.57 644.29 142.789 719.253 103 767 L98 763 C108 751 204 568 204 568 C206 564 212 555 219 555 C226 555 232 564 234 568 C280 663 340 763 340 763 L335 767 Z M357 394 L365 394 L365 461 C321 487 259 505 219 505 C130 505 66 452 66 379 C66 328 131 267 221 234 C296 207 350 158 350 118 C350 52 301 5 233 5 C209.058 5 182.218 8.06729 155.858 13.4984 C113.073 26.4008 75.9929 65.0143 55 107 L48 107 L48 34 L52 42 C51.2993 39.5151 49.2263 36.6359 48 34 C87 11 164 -5 230 -5 C322 -5 388 54 388 135 C388 183 332 238 254 266 C166 298 102 352 102 395 C102 453 151 495 219 495 C233.183 495 253.018 490.604 275.057 483.153 L275 483 C313.433 470.189 343.656 434.031 357 394 L357 394 Z " />
<glyph glyph-name="T_cap_caron" unicode="&#x164;" horiz-adv-x="636" d="M433 927 C433 927 353.027 822.531 316.614 766.479 C291.57 804.29 240.789 879.253 201 927 L196 923 C206 911 302 728 302 728 C304 724 310 715 317 715 C324 715 330 724 332 728 C378 823 438 923 438 923 L433 927 Z M26 544 L47 584 C66 621 106 647 143 647 L293 647 L293 64 C293 35 275 13 249 11 L241 10 L241 0 L395 0 L395 10 L387 11 C361 13 343 35 343 64 L343 647 L491 647 C528 647 568 621 587 584 L608 544 L616 544 C614.021 575.668 610.083 621.047 607.094 653 L608 653 L607 660 L27 660 L26 653 L27.9064 653 C24.9172 621.047 20.9689 575.668 18 544 L26 544 Z " />
<glyph glyph-name="t_caron" unicode="&#x165;" horiz-adv-x="367" d="M336 500 L155 500 L155 640 L147 640 L128.547 563.275 C117.759 524.055 75.2649 491.928 25 487 L25 482 L109 482 C109 482 110 219 110 111 C110 24 134 -5 206 -5 C268 -5 313 16 347 44 L343 48 C320 29 285 15 228 15 C173 15 155 37 155 103 L155 482 L336 482 L336 500 Z M457 724 C447 724 430 661 421 618 L385 455 L390 454 L450 607 C470 657 485 708 485 714 C485 721 465 724 457 724 L457 724 Z " />
<glyph glyph-name="U_cap_tilde" unicode="&#x168;" horiz-adv-x="654" d="M182 755 C182 794 203 822 231 822 C288 822 370 760 427 760 C467 760 496 798 496 851 L488 851 C488 816 466 790 436 790 C379 790 298 853 241 853 C202 853 174 812 174 755 L182 755 Z M634 660 L498 660 L498 650 L507 649 C538 647 560 622 560 588 L560 183 C560 84 495 13 347 13 C206 13 145 91 145 198 L145 596 C145 625 163 647 189 649 L197 650 L197 660 L42 660 L42 650 L50 649 C76 647 94 625 94 596 L94 208 C94 84 169 -5 340 -5 C504 -5 576 72 576 178 L576 588 C576 622 597 647 626 649 L634 650 L634 660 Z " />
<glyph glyph-name="u_tilde" unicode="&#x169;" horiz-adv-x="552" d="M113 595 C113 634 134 662 162 662 C219 662 301 600 358 600 C398 600 427 638 427 691 L419 691 C419 656 397 630 367 630 C310 630 229 693 172 693 C133 693 105 652 105 595 L113 595 Z M14 490 L22 489 C48 487 66 465 66 436 L66 156 C66 63 124 -5 226 -5 C311.747 -5 378.431 21.3236 420 59.2691 L420 0 L429 0 L518 26 L518 32 C478.481 46.8196 466 57.4756 466 104 L466 500 L368 500 L368 490 L376 489 C402 487 420 465 420 436 L420 66.0725 C394.186 42.08 340.903 25 262 25 C166 25 112 82 112 161 L112 500 L14 500 L14 490 Z " />
<glyph glyph-name="U_cap_macron" unicode="&#x16a;" horiz-adv-x="654" d="M177 771 L493 771 L493 796 L177 796 L177 771 Z M634 660 L498 660 L498 650 L507 649 C538 647 560 622 560 588 L560 183 C560 84 495 13 347 13 C206 13 145 91 145 198 L145 596 C145 625 163 647 189 649 L197 650 L197 660 L42 660 L42 650 L50 649 C76 647 94 625 94 596 L94 208 C94 84 169 -5 340 -5 C504 -5 576 72 576 178 L576 588 C576 622 597 647 626 649 L634 650 L634 660 Z " />
<glyph glyph-name="u_macron" unicode="&#x16b;" horiz-adv-x="552" d="M108 611 L424 611 L424 636 L108 636 L108 611 Z M14 490 L22 489 C48 487 66 465 66 436 L66 156 C66 63 124 -5 226 -5 C311.747 -5 378.431 21.3236 420 59.2691 L420 0 L429 0 L518 26 L518 32 C478.481 46.8196 466 57.4756 466 104 L466 500 L368 500 L368 490 L376 489 C402 487 420 465 420 436 L420 66.0725 C394.186 42.08 340.903 25 262 25 C166 25 112 82 112 161 L112 500 L14 500 L14 490 Z " />
<glyph glyph-name="U_cap_breve" unicode="&#x16c;" horiz-adv-x="654" d="M213 872 C223 813 274 770 335 770 C396 770 447 813 457 872 L449 873 C442 831 394 801 335 801 C276 801 228 831 221 873 L213 872 Z M634 660 L498 660 L498 650 L507 649 C538 647 560 622 560 588 L560 183 C560 84 495 13 347 13 C206 13 145 91 145 198 L145 596 C145 625 163 647 189 649 L197 650 L197 660 L42 660 L42 650 L50 649 C76 647 94 625 94 596 L94 208 C94 84 169 -5 340 -5 C504 -5 576 72 576 178 L576 588 C576 622 597 647 626 649 L634 650 L634 660 Z " />
<glyph glyph-name="u_breve" unicode="&#x16d;" horiz-adv-x="552" d="M144 712 C154 653 205 610 266 610 C327 610 378 653 388 712 L380 713 C373 671 325 641 266 641 C207 641 159 671 152 713 L144 712 Z M14 490 L22 489 C48 487 66 465 66 436 L66 156 C66 63 124 -5 226 -5 C311.747 -5 378.431 21.3236 420 59.2691 L420 0 L429 0 L518 26 L518 32 C478.481 46.8196 466 57.4756 466 104 L466 500 L368 500 L368 490 L376 489 C402 487 420 465 420 436 L420 66.0725 C394.186 42.08 340.903 25 262 25 C166 25 112 82 112 161 L112 500 L14 500 L14 490 Z " />
<glyph glyph-name="U_cap_ring" unicode="&#x16e;" horiz-adv-x="654" d="M254 788 C254 836 288 870 335 870 C382 870 416 836 416 788 C416 745 377 705 335 705 C293 705 254 745 254 788 L254 788 Z M241 788 C241 739 286 695 335 695 C384 695 429 739 429 788 C429 841 390 880 335 880 C280 880 241 841 241 788 L241 788 Z M634 660 L498 660 L498 650 L507 649 C538 647 560 622 560 588 L560 183 C560 84 495 13 347 13 C206 13 145 91 145 198 L145 596 C145 625 163 647 189 649 L197 650 L197 660 L42 660 L42 650 L50 649 C76 647 94 625 94 596 L94 208 C94 84 169 -5 340 -5 C504 -5 576 72 576 178 L576 588 C576 622 597 647 626 649 L634 650 L634 660 Z " />
<glyph glyph-name="u_ring" unicode="&#x16f;" horiz-adv-x="552" d="M185 628 C185 676 219 710 266 710 C313 710 347 676 347 628 C347 585 308 545 266 545 C224 545 185 585 185 628 L185 628 Z M172 628 C172 579 217 535 266 535 C315 535 360 579 360 628 C360 681 321 720 266 720 C211 720 172 681 172 628 L172 628 Z M14 490 L22 489 C48 487 66 465 66 436 L66 156 C66 63 124 -5 226 -5 C311.747 -5 378.431 21.3236 420 59.2691 L420 0 L429 0 L518 26 L518 32 C478.481 46.8196 466 57.4756 466 104 L466 500 L368 500 L368 490 L376 489 C402 487 420 465 420 436 L420 66.0725 C394.186 42.08 340.903 25 262 25 C166 25 112 82 112 161 L112 500 L14 500 L14 490 Z " />
<glyph glyph-name="W_cap_circumflex" unicode="&#x174;" horiz-adv-x="913" d="M157 660 L1 660 L1 650 C27.0628 645.656 48.3583 629.761 60 596 L60.2385 596 L263 -15 L276 -15 L472 670 L448 584 L645 -15 L658 -15 L840.847 596 C850.086 624.785 874.889 647.074 901 649 L909 650 L909 660 L772 660 L772 650 L789 649 C819.153 648.077 833.816 624.782 825.132 596 L668.782 65.6686 L472 670 L459 670 L284.866 61.421 L113.53 601.582 C107.886 627.785 121.826 647.13 148 649 L157 650 L157 660 Z M480 892 C478 896 472 905 466 905 C459 905 453 896 451 892 C451 892 355 709 345 697 L349 693 C389.059 741.071 440.258 816.726 465.119 854.284 C501.297 798.423 582 693 582 693 L586 697 C586 697 526 797 480 892 L480 892 Z " />
<glyph glyph-name="Y_cap_circumflex" unicode="&#x176;" horiz-adv-x="583" d="M315 892 C313 896 307 905 300 905 C293 905 287 896 285 892 C285 892 189 709 179 697 L184 693 C223.789 740.747 274.57 815.71 299.614 853.521 C336.027 797.469 416 693 416 693 L421 697 C421 697 361 797 315 892 L315 892 Z M179 660 L24 660 L24 650 C49.0172 645.83 70.7809 630.778 89.3046 598.99 L274.066 260.525 L274.79 58.627 C272.71 32.3179 255.369 12.8745 231 11 L223 10 L223 0 L377 0 L377 10 L369 11 C343 13 325 35 325 64 L325 278.545 L510.368 601.42 C530.525 632.082 555.143 646.02 583 650 L583 660 L452 660 L452 650 L463 649 C494.03 647.119 503.84 621.366 486.61 586.705 L317.965 288.064 L151.581 596 C136.786 624.239 143.441 647.265 171 649 L179 650 L179 660 Z " />
<glyph glyph-name="Y_cap_dieresis" unicode="&#x178;" horiz-adv-x="583" d="M417 758 C417 794.423 361 794.268 361 758 C361 721.577 417 721.732 417 758 L417 758 Z M239 758 C239 794.423 183 794.268 183 758 C183 721.577 239 721.732 239 758 L239 758 Z M179 660 L24 660 L24 650 C49.0172 645.83 70.7809 630.778 89.3046 598.99 L274.066 260.525 L274.79 58.627 C272.71 32.3179 255.369 12.8745 231 11 L223 10 L223 0 L377 0 L377 10 L369 11 C343 13 325 35 325 64 L325 278.545 L510.368 601.42 C530.525 632.082 555.143 646.02 583 650 L583 660 L452 660 L452 650 L463 649 C494.03 647.119 503.84 621.366 486.61 586.705 L317.965 288.064 L151.581 596 C136.786 624.239 143.441 647.265 171 649 L179 650 L179 660 Z " />
<glyph glyph-name="Z_cap_acute" unicode="&#x179;" horiz-adv-x="600" d="M336 691 C336 691 415 781 445 820 C469 849 487 872 487 875 C487 881 469 895 461 895 C459 895 443 871 422 839 C392 800 331 695 331 695 L336 691 Z M531.857 6 L534 6 C539 36 547 81 552 111 C547.19 113.405 539 116 539 116 L522 84 C499 43 454 13 413 13 L119.548 13 L545 660 L122 660 L120.286 654 L120 654 C113 628 103 591 96 565 L104 565 L120 584 C150 621 198 647 235 647 L478.471 647 L54 0 L531 0 L531.857 6 Z " />
<glyph glyph-name="z_acute" unicode="&#x17a;" horiz-adv-x="499" d="M187 531 C187 531 266 621 296 660 C320 689 338 712 338 715 C338 721 320 735 312 735 C310 735 294 711 273 679 C243 640 182 535 182 535 L187 531 Z M184.101 489.302 L389.158 489.909 L57 0 L436 0 L437 5 L439 5 C444 35 452 78 457 108 C452.19 110.405 444 113 444 113 L427 81 C404 40 359 10 318 10 L118.74 10 L449 500 L70 500 L68 494 L68.7492 494 C63.7359 474.075 55.9172 446.669 51 427 L59 427 L68 436 C98.9684 467.278 148.443 488.701 184.101 489.302 L184.101 489.302 Z " />
<glyph glyph-name="Z_cap_dot_accent" unicode="&#x17b;" horiz-adv-x="600" d="M366 758 C366 794.871 309 793.82 309 758 C309 722.026 366 721.283 366 758 L366 758 Z M531.857 6 L534 6 C539 36 547 81 552 111 C547.19 113.405 539 116 539 116 L522 84 C499 43 454 13 413 13 L119.548 13 L545 660 L122 660 L120.286 654 L120 654 C113 628 103 591 96 565 L104 565 L120 584 C150 621 198 647 235 647 L478.471 647 L54 0 L531 0 L531.857 6 Z " />
<glyph glyph-name="z_dot_accent" unicode="&#x17c;" horiz-adv-x="499" d="M292 598 C292 634.871 235 633.82 235 598 C235 562.026 292 561.283 292 598 L292 598 Z M184.101 489.302 L389.158 489.909 L57 0 L436 0 L437 5 L439 5 C444 35 452 78 457 108 C452.19 110.405 444 113 444 113 L427 81 C404 40 359 10 318 10 L118.74 10 L449 500 L70 500 L68 494 L68.7492 494 C63.7359 474.075 55.9172 446.669 51 427 L59 427 L68 436 C98.9684 467.278 148.443 488.701 184.101 489.302 L184.101 489.302 Z " />
<glyph glyph-name="Z_cap_caron" unicode="&#x17d;" horiz-adv-x="600" d="M454 927 C454 927 373.297 821.577 337.119 765.716 C312.258 803.274 261.059 878.929 221 927 L217 923 C227 911 323 728 323 728 C325 724 331 715 338 715 C344 715 350 724 352 728 C398 823 458 923 458 923 L454 927 Z M531.857 6 L534 6 C539 36 547 81 552 111 C547.19 113.405 539 116 539 116 L522 84 C499 43 454 13 413 13 L119.548 13 L545 660 L122 660 L120.286 654 L120 654 C113 628 103 591 96 565 L104 565 L120 584 C150 621 198 647 235 647 L478.471 647 L54 0 L531 0 L531.857 6 Z " />
<glyph glyph-name="z_caron" unicode="&#x17e;" horiz-adv-x="499" d="M380 767 C380 767 299.297 661.577 263.119 605.716 C238.258 643.274 187.059 718.929 147 767 L143 763 C153 751 249 568 249 568 C251 564 257 555 264 555 C270 555 276 564 278 568 C324 663 384 763 384 763 L380 767 Z M184.101 489.302 L389.158 489.909 L57 0 L436 0 L437 5 L439 5 C444 35 452 78 457 108 C452.19 110.405 444 113 444 113 L427 81 C404 40 359 10 318 10 L118.74 10 L449 500 L70 500 L68 494 L68.7492 494 C63.7359 474.075 55.9172 446.669 51 427 L59 427 L68 436 C98.9684 467.278 148.443 488.701 184.101 489.302 L184.101 489.302 Z " />
<glyph glyph-name="Q_sc" unicode="&#x1eb;" horiz-adv-x="710" d="M730 -51 L725 -47 C701 -76 643 -97 587 -97 C501.137 -97 423.651 -58.8397 367.113 -4.96724 C553.936 -2.56757 660 131.324 660 277 C660 424 552 558 362 558 C172 558 64 424 64 277 C64 132.883 167.806 0.299286 350.917 -4.84518 C423.61 -75.7751 508.043 -126 583 -126 C632 -126 693 -94 730 -51 L730 -51 Z M115 277 C115 418 204 547 362 547 C520 547 609 418 609 277 C609 136 520 6 362 6 C204 6 115 136 115 277 L115 277 Z " />
<glyph glyph-name="A_cap_dotaccent" unicode="&#x226;" horiz-adv-x="606" d="M324 758 C324 794.871 267 793.82 267 758 C267 722.026 324 721.283 324 758 L324 758 Z M5 0 L146 0 L146 10 L135 11 C101.176 12.9328 85.0969 38.2135 94.8847 72.4015 L151.458 237 L415.087 237 L478.53 64 L478 64 C489 35 475 13 446 11 L430 10 L430 0 L598 0 L598 10 L591 10 C569.885 8.89685 545.083 32.2737 532.822 64 L302 675 L289 675 L72.1697 54.8285 C57.8219 25.7308 34.293 13.6616 4.99998 9.99998 L5 0 Z M410.32 250 L155.926 250 L279.002 608.087 L410.32 250 Z " />
<glyph glyph-name="G_sc" unicode="&#x262;" horiz-adv-x="741" d="M592 399 L592 496 L589 491 C589.568 492.562 591.073 494.351 592 496 C530 532 433 558 362 558 C189 558 64 440 64 277 C64 113 189 -5 362 -5 C435 -5 534 21 597 58 L597 196 C597 225 615 247 641 249 L649 250 L649 260 L504 260 L504 250 L512 249 C538 247 556 225 556 196 L556 49.9474 C496.953 23.881 420.88 6 362 6 C219 6 115 120 115 277 C115 434 219 547 362 547 C385.527 547 412.382 543.794 440.013 538.075 C492 527 547 481 571 427 C575 419 579 407 583 399 L592 399 Z " />
<glyph glyph-name="I_sc" unicode="&#x26a;" horiz-adv-x="231" d="M192 10 L184 11 C158 13 140 35 140 64 L140 489 C140 518 158 540 184 542 L192 543 L192 553 L42 553 L42 543 L50 542 C76 540 94 518 94 489 L94 64 C94 35 76 13 50 11 L42 10 L42 0 L192 0 L192 10 Z " />
<glyph glyph-name="N_sc" unicode="&#x274;" horiz-adv-x="599" d="M43 543 L51 542 C77 540 95 518 95 489 L95 64 C95 35 77 13 51 11 L43 10 L43 0 L161 0 L161 10 L153 11 C127 13 109 35 109 64 L109 513.534 C238.345 339.363 367.861 165.337 497 -9 L511 -9 L511 489 C511 518 529 540 555 542 L563 543 L563 553 L446 553 L446 543 L454 542 C480 540 498 518 498 489 L498 65.504 L137 553 L43 553 L43 543 Z M109 533.842 L109 534 L109 533.842 Z " />
<glyph glyph-name="R_sc" unicode="&#x280;" horiz-adv-x="566" d="M53 543 L61 542 C87 540 105 518 105 489 L105 64 C105 35 87 13 61 11 L53 10 L53 0 L203 0 L203 10 L195 11 C169 13 151 35 151 64 L151 265 L224.351 265 C249.494 240.59 310.913 181.054 389 106 C491 8 502 0 547 0 L566 0 L566 9 C540.528 9 540.083 12.0263 452 97 C367.391 179.236 300.915 243.965 276.798 267.455 C376.282 279.735 445 336.887 445 412 C445 494 366 553 257 553 L53 553 L53 543 Z M151 276 L151 542 L257 542 C338 542 396 487 396 412 C396 334 329 277 236 277 C207.152 277.182 179.288 276.379 151 276 L151 276 Z " />
<glyph glyph-name="Y_sc" unicode="&#x28f;" horiz-adv-x="512" d="M174 553 L25 553 L25 543 C48.2076 539.132 68.1104 527.001 86.7365 499.263 L242 218.685 L242 64 C242 35 224 13 198 11 L190 10 L190 0 L340 0 L340 10 L332 11 C306 13 288 35 288 64 L288 236 L287.787 236 L441.115 498.428 C461.399 526.85 484.484 539.069 512 543 L512 553 L384 553 L384 543 L395 542 C425.911 540.127 434.887 514.564 417.819 480.105 C370.581 398.797 323.82 317.012 276.286 236 L278 239 L145.834 489 C131.301 517.701 138.784 540.104 166 542 L174 543 L174 553 Z " />
<glyph glyph-name="B_sc" unicode="&#x299;" horiz-adv-x="515" d="M242 300 L196.5 299 L151 299 L151 542 L257 542 C338 542 396 494 396 428 C396 355.726 332.763 300 242 300 L242 300 Z M53 543 L61 542 C87 540 105 518 105 489 L105 64 C105 35 87 13 61 11 L53 10 L53 0 L279 0 C404 0 495 63 495 151 C495 226.174 414.009 283.774 295.438 297.085 C382.875 312.699 442 362.874 442 428 C442 501 364 553 257 553 L53 553 L53 543 Z M151 291 L228 291 C354 291 446 232 446 151 C446 70 374 11 275 11 L151 11 L151 291 Z " />
<glyph glyph-name="H_sc" unicode="&#x29c;" horiz-adv-x="671" d="M632 10 L624 11 C598 13 580 35 580 64 L580 489 C580 518 598 540 624 542 L632 543 L632 553 L483 553 L483 543 L491 542 C517 540 535 518 535 489 L535 299 L139 299 L139 489 C139 518 157 540 183 542 L191 543 L191 553 L41 553 L41 543 L49 542 C75 540 93 518 93 489 L93 64 C93 35 75 13 49 11 L41 10 L41 0 L191 0 L191 10 L183 11 C157 13 139 35 139 64 L139 287 L535 287 L535 64 C535 35 517 13 491 11 L483 10 L483 0 L632 0 L632 10 Z " />
<glyph glyph-name="L_sc" unicode="&#x29f;" horiz-adv-x="488" d="M191 553 L41 553 L41 543 L49 542 C75 540 93 518 93 489 L93 64 C93 35 75 13 49 11 L41 10 L41 0 L399 0 L399.833 5 L400 5 C405 35 413 79 418 109 C414.075 111.355 406 114 406 114 L389 82 C367 41 322 11 281 11 L139 11 L139 489 C139 518 157 540 183 542 L191 543 L191 553 Z " />
<glyph glyph-name="circumflex_glyph" unicode="&#x2c6;" horiz-adv-x="359" d="M194 732 C192 736 186 745 180 745 C173 745 167 736 165 732 C165 732 69 549 59 537 L64 533 C103.381 579.673 154.462 656.13 179.234 694.107 C215.467 638.201 296 533 296 533 L301 537 C301 537 240 639 194 732 L194 732 Z " />
<glyph glyph-name="caron_glyph" unicode="&#x2c7;" horiz-adv-x="359" d="M296 767 C296 767 215.467 661.799 179.234 605.893 C154.462 643.87 103.381 720.327 64 767 L59 763 C69 751 165 568 165 568 C167 564 173 555 180 555 C186 555 192 564 194 568 C240 661 301 763 301 763 L296 767 Z " />
<glyph glyph-name="macron_glyph" unicode="&#x2c9;" horiz-adv-x="359" d="M22 611 L338 611 L338 636 L22 636 L22 611 Z " />
<glyph glyph-name="breve_glyph" unicode="&#x2d8;" horiz-adv-x="359" d="M58 712 C68 653 119 610 180 610 C241 610 292 653 302 712 L294 713 C287 671 239 641 180 641 C121 641 73 671 66 713 L58 712 Z " />
<glyph glyph-name="dotaccent_glyph" unicode="&#x2d9;" horiz-adv-x="359" d="M208 598 C208 634.423 152 634.268 152 598 C152 561.577 208 561.732 208 598 L208 598 Z " />
<glyph glyph-name="ring_glyph" unicode="&#x2da;" horiz-adv-x="359" d="M98 628 C98 676 132 710 180 710 C227 710 261 676 261 628 C261 585 222 545 180 545 C137 545 98 585 98 628 L98 628 Z M86 628 C86 579 131 535 180 535 C229 535 274 579 274 628 C274 681 235 720 180 720 C125 720 86 681 86 628 L86 628 Z " />
<glyph glyph-name="A_sc" unicode="&#x1d00;" horiz-adv-x="535" d="M364 0 L527 0 L527 10 C498.928 10 478.772 24.9196 463.272 58.741 L267 566 L255 566 L73.9339 58.6564 C60.5067 27.3753 35.434 13.8043 5.00002 10 L5.00002 1.52588e-005 L144 1.52588e-005 L144 10 L133 11 C97.664 12.8295 82.4217 40.4772 94.7209 76 L137.615 198 L361.414 198 L413.291 60.2834 C421.846 33.1373 408.705 12.9136 380 11 L364 10 L364 0 Z M356.893 210 L141.834 210 L245.656 505.294 L356.893 210 Z " />
<glyph glyph-name="C_sc" unicode="&#x1d04;" horiz-adv-x="672" d="M612 57 L608.405 62.6496 C608.604 62.7663 608.802 62.8831 609 63 L612 57 Z M603 154 C599 146 595 134 591 126 C566.685 72.6938 505.637 26.3844 442.209 12.427 C417.932 8.28093 394.326 6 373 6 C223 6 115 120 115 277 C115 434 223 547 373 547 C399.798 547 430.198 543.398 461.003 537.02 C512 526 567 480 591 427 C595 419 599 407 603 399 L612 399 L612 496 L609 491 C609.57 492.565 611.073 494.351 612 496 C550 532 449 558 373 558 C194 558 64 440 64 277 C64 113 194 -5 373 -5 C449 -5 550 21 612 57 L612 154 L603 154 Z " />
<glyph glyph-name="D_sc" unicode="&#x1d05;" horiz-adv-x="612" d="M53 543 L61 542 C87 540 105 518 105 489 L105 64 C105 35 87 13 61 11 L53 10 L53 0 L278 0 C443 0 562 116 562 277 C562 437 429 553 246 553 L53 553 L53 543 Z M151 11 L151 542 L246 542 C403 542 516 431 516 277 C516 123 416 11 278 11 L151 11 Z " />
<glyph glyph-name="E_sc" unicode="&#x1d07;" horiz-adv-x="488" d="M332 231 L332 353 L324 353 L320 345 C309 319 272 301 234 301 L139 301 L139 542 L265 542 C311 542 359 509 379 464 L386 449 L393 449 L393 553 L41 553 L41 543 L49 542 C75 540 93 518 93 489 L93 64 C93 35 75 13 49 11 L41 10 L41 0 L398 0 L398.833 5 L400 5 C405 34 412 75 417 104 L410 104 L400 89 C372 44 318 11 272 11 L139 11 L139 289 L234 289 C272 289 308 268 320 239 L324 231 L332 231 Z " />
<glyph glyph-name="J_sc" unicode="&#x1d0a;" horiz-adv-x="290" d="M251 553 L101 553 L101 543 L109 542 C135 540 153 518 153 489 L153 168 C153 50 133 -1 87 -1 C67 -1 46 20 39 50 C36 60 28 68 18 68 C5 68 -3 60 0 50 C9 15 41 -10 76 -10 C162 -10 199 56 199 206 L199 489 C199 518 217 540 243 542 L251 543 L251 553 Z " />
<glyph glyph-name="K_sc" unicode="&#x1d0b;" horiz-adv-x="565" d="M203 553 L53 553 L53 543 L61 542 C87 540 105 518 105 489 L105 64 C105 35 87 13 61 11 L53 10 L53 0 L203 0 L203 10 L195 11 C169 13 151 35 151 64 L151 298 L158 288 L159.588 289.412 L269 180 C398 51 479 -5 536 -5 L555 -5 L555 4 C518.109 4 449.119 63.8814 303 210 L193.464 319.536 L385.516 490.321 C422.896 522.632 460.774 538.597 496 543 L496 553 L390 553 L390 543 L396 542 C413 540 401 518 368 489 L368.965 489 C307.646 435.405 246.307 381.242 185 328 L151 298 L151 489 C151 518 169 540 195 542 L203 543 L203 553 Z " />
<glyph glyph-name="M_sc" unicode="&#x1d0d;" horiz-adv-x="715" d="M678 554 L607 554 L607.046 553 L586 553 L353 -5 L365 -5 L587.595 519.084 L609.017 63.4492 C609.784 34.7218 592.841 12.9873 568 11 L560 10 L560 0 L708 0 L708 10 L700 11 C674.579 12.7275 656.415 35.7672 653.528 64 L630.472 489 L631 489 C629 519 646 541 670 543 L678 544 L678 554 Z M38 0 L178 0 L178 10 L165 11 C131.895 12.8392 107.247 35.8188 105.051 67.4971 L124.493 497.554 C200.542 329.916 277.501 163.188 353 -5 L375 49 L374 52 L149 553 L62 553 L62 543 L70 542 C95.102 540.063 111.892 517.82 111.107 489 L91.6911 59.5278 C88.9032 32.7627 69.698 12.8959 46 11 L38 10 L38 0 Z " />
<glyph glyph-name="O_sc" unicode="&#x1d0f;" horiz-adv-x="710" d="M115 277 C115 418 204 547 362 547 C520 547 609 418 609 277 C609 136 520 6 362 6 C204 6 115 136 115 277 L115 277 Z M64 277 C64 130 172 -5 362 -5 C552 -5 660 130 660 277 C660 424 552 558 362 558 C172 558 64 424 64 277 L64 277 Z " />
<glyph glyph-name="P_sc" unicode="&#x1d18;" horiz-adv-x="492" d="M203 10 L195 11 C169 13 151 35 151 64 L151 250 L246 250 C377 250 472 313 472 400 C472 489 387 553 270 553 L53 553 L53 543 L61 542 C87 540 105 518 105 489 L105 64 C105 35 87 13 61 11 L53 10 L53 0 L203 0 L203 10 Z M151 261 L151 542 L270 542 C359 542 424 482 424 400 C424 320 349 262 246 262 C246 262 179 261 151 261 L151 261 Z " />
<glyph glyph-name="T_sc" unicode="&#x1d1b;" horiz-adv-x="571" d="M28 439 L49 479 C69 516 109 542 146 542 L263 542 L263 64 C263 35 245 13 219 11 L211 10 L211 0 L360 0 L360 10 L352 11 C326 13 308 35 308 64 L308 542 L426 542 C463.898 542.323 503.68 516.235 523 479 L544 439 L552 439 C549.031 470.668 545.083 515.068 542.094 547 L543 547 L542 553 L30 553 L29.1667 548 C28.5515 548 20.7763 447.281 20 439 L28 439 Z " />
<glyph glyph-name="U_sc" unicode="&#x1d1c;" horiz-adv-x="589" d="M569 553 L436 553 L436 543 L445 542 C474.435 540.101 495.756 517.465 497.834 486.078 L497 151 C497 70 441 11 314 11 C194 11 141 75 141 163 L141 489 C141 518 159 540 185 542 L193 543 L193 553 L43 553 L43 543 L51 542 C77 540 95 518 95 489 L95 172 C95 69 159 -5 307 -5 C449 -5 511 59 511 147 L511 481 C511 515 532 540 561 542 L569 543 L569 553 Z " />
<glyph glyph-name="V_sc" unicode="&#x1d20;" horiz-adv-x="536" d="M173 553 L17 553 L17 543 C41.5272 538.912 61.0751 527.119 76.2416 499.012 L288 -15 L300 -15 L465.93 489 C476 518 501 540 527 542 L535 543 L535 553 L392 553 L392 543 L403 542 C441.214 540.117 458.729 507.675 445.183 465 L306.996 43.0097 L129.475 489 L130 489 C118 518 131 540 160 542 L173 543 L173 553 Z " />
<glyph glyph-name="W_sc" unicode="&#x1d21;" horiz-adv-x="777" d="M773 553 L639 553 L639 543 L656 542 C685.343 541.174 700.591 517.51 692.296 489 L545 -15 L557 -15 L706.363 493.012 C718.234 525.151 742.228 539.154 773 543 L773 553 Z M152 553 L1.00002 553 L1.00002 543 C27.0628 538.656 48.3583 522.761 60 489 L60.2958 489 L228 -15 L240 -15 L382.054 491.833 L545 -15 L564 51 L402 563 L390 563 L245.82 48.5814 L109.77 489 C101.323 517.615 114.738 540.134 143 542 L152 543 L152 553 Z " />
<glyph glyph-name="Z_sc" unicode="&#x1d22;" horiz-adv-x="535" d="M488 110 C484.075 112.355 476 115 476 115 L459 83 C437 42 392 12 351 12 L115.094 12 L480 553 L124 553 L122 547 L122.731 547 C115.745 521.083 105.911 485.668 99 460 L107 460 L123 479 C153 516 201 542 238 542 L420.58 542 L55 0 L469 0 C474.363 32.1758 482.607 77.6426 488 110 L488 110 Z " />
<glyph glyph-name="W_cap_grave" unicode="&#x1e80;" horiz-adv-x="913" d="M157 660 L1 660 L1 650 C27.0628 645.656 48.3583 629.761 60 596 L60.2385 596 L263 -15 L276 -15 L472 670 L448 584 L645 -15 L658 -15 L840.847 596 C850.086 624.785 874.889 647.074 901 649 L909 650 L909 660 L772 660 L772 650 L789 649 C819.153 648.077 833.816 624.782 825.132 596 L668.782 65.6686 L472 670 L459 670 L284.866 61.421 L113.53 601.582 C107.886 627.785 121.826 647.13 148 649 L157 650 L157 660 Z M384 875 C384 871 402 848 427 820 C457 781 539 691 539 691 L544 695 C544 695 481 800 450 839 C429 871 413 895 410 895 C402 895 384 881 384 875 L384 875 Z " />
<glyph glyph-name="W_cap_acute" unicode="&#x1e82;" horiz-adv-x="913" d="M404 691 C404 691 483 781 513 820 C537 849 555 872 555 875 C555 881 537 895 529 895 C527 895 511 871 490 839 C460 800 399 695 399 695 L404 691 Z M157 660 L1 660 L1 650 C27.0628 645.656 48.3583 629.761 60 596 L60.2385 596 L263 -15 L276 -15 L472 670 L448 584 L645 -15 L658 -15 L840.847 596 C850.086 624.785 874.889 647.074 901 649 L909 650 L909 660 L772 660 L772 650 L789 649 C819.153 648.077 833.816 624.782 825.132 596 L668.782 65.6686 L472 670 L459 670 L284.866 61.421 L113.53 601.582 C107.886 627.785 121.826 647.13 148 649 L157 650 L157 660 Z " />
<glyph glyph-name="W_cap_dieresis" unicode="&#x1e84;" horiz-adv-x="913" d="M582 758 C582 794.423 526 794.268 526 758 C526 721.577 582 721.732 582 758 L582 758 Z M405 758 C405 794.423 349 794.268 349 758 C349 721.577 405 721.732 405 758 L405 758 Z M157 660 L1 660 L1 650 C27.0628 645.656 48.3583 629.761 60 596 L60.2385 596 L263 -15 L276 -15 L472 670 L448 584 L645 -15 L658 -15 L840.847 596 C850.086 624.785 874.889 647.074 901 649 L909 650 L909 660 L772 660 L772 650 L789 649 C819.153 648.077 833.816 624.782 825.132 596 L668.782 65.6686 L472 670 L459 670 L284.866 61.421 L113.53 601.582 C107.886 627.785 121.826 647.13 148 649 L157 650 L157 660 Z " />
<glyph glyph-name="E_cap_tilde" unicode="&#x1ebc;" horiz-adv-x="541" d="M112 755 C112 794 133 822 161 822 C218 822 300 760 357 760 C397 760 426 798 426 851 L418 851 C418 816 396 790 366 790 C309 790 228 853 171 853 C132 853 104 812 104 755 L112 755 Z M385 288 L385 410 L377 410 L373 402 C362 376 325 358 287 358 L143 358 L143 647 L318 647 C364 647 412 614 432 569 L439 554 L446 554 L446 660 L40 660 L40 650 L48 649 C74 647 92 625 92 596 L92 64 C92 35 74 13 48 11 L40 10 L40 0 L451 0 L451.857 6 L453 6 C458 35 465 77 470 106 L463 106 L453 91 C425 46 371 13 325 13 L143 13 L143 346 L287 346 C325 346 361 325 373 296 L377 288 L385 288 Z " />
<glyph glyph-name="Y_cap_grave" unicode="&#x1ef2;" horiz-adv-x="583" d="M218 875 C218 870 236 848 261 820 C292 781 374 691 374 691 L379 695 C379 695 316 800 285 839 C264 871 248 895 244 895 C236 895 218 881 218 875 L218 875 Z M179 660 L24 660 L24 650 C49.0172 645.83 70.7809 630.778 89.3046 598.99 L274.066 260.525 L274.79 58.627 C272.71 32.3179 255.369 12.8745 231 11 L223 10 L223 0 L377 0 L377 10 L369 11 C343 13 325 35 325 64 L325 278.545 L510.368 601.42 C530.525 632.082 555.143 646.02 583 650 L583 660 L452 660 L452 650 L463 649 C494.03 647.119 503.84 621.366 486.61 586.705 L317.965 288.064 L151.581 596 C136.786 624.239 143.441 647.265 171 649 L179 650 L179 660 Z " />
<glyph glyph-name="quoteleft" unicode="&#x2018;" horiz-adv-x="182" d="M93 513 C112 513 126 527 126 546 C126 568.027 105.797 584.852 82.2082 577.372 C76.0197 612.868 93.468 648.794 117 660 L114 667 C79 650 54 609 54 569 C54 541.223 65.3959 513 93 513 L93 513 Z " />
<glyph glyph-name="quoteright" unicode="&#x2019;" horiz-adv-x="182" d="M93 665 C74 665 60 651 60 632 C60 609.973 80.2035 593.148 103.792 600.628 C109.98 565.132 92.532 529.206 69 518 L72 511 C107 528 132 569 132 609 C132 636.777 120.604 665 93 665 L93 665 Z " />
<glyph glyph-name="quotedblleft" unicode="&#x201c;" horiz-adv-x="280" d="M191 513 C211 513 225 527 225 546 C225 567.765 204.499 585.075 180.208 577.372 C173.978 613.109 192.344 648.735 216 660 L212 667 C177 650 152 609 152 569 C152 541.223 163.396 513 191 513 L191 513 Z M93 513 C112 513 126 527 126 546 C126 568.027 105.797 584.852 82.2082 577.372 C76.0197 612.868 93.468 648.794 117 660 L114 667 C79 650 54 609 54 569 C54 541.223 65.3959 513 93 513 L93 513 Z " />
<glyph glyph-name="quotedblright" unicode="&#x201d;" horiz-adv-x="280" d="M191 665 C171 665 157 651 157 632 C157 610.235 177.501 592.925 201.792 600.628 C208.022 564.891 189.656 529.265 166 518 L170 511 C205 528 230 569 230 609 C230 636.777 218.604 665 191 665 L191 665 Z M93 665 C74 665 60 651 60 632 C60 609.973 80.2035 593.148 103.792 600.628 C109.98 565.132 92.532 529.206 69 518 L72 511 C107 528 132 569 132 609 C132 636.777 120.604 665 93 665 L93 665 Z " />
<glyph glyph-name="ellipsis" unicode="&#x2026;" horiz-adv-x="437" d="M398 33 C398 75.976 332 75.8018 332 33 C332 -9.976 398 -9.80185 398 33 L398 33 Z M252 33 C252 75.976 186 75.8018 186 33 C186 -9.976 252 -9.80185 252 33 L252 33 Z M106 33 C106 75.976 40 75.8018 40 33 C40 -9.976 106 -9.80185 106 33 L106 33 Z " />
<glyph glyph-name="perthousand" unicode="&#x2030;" horiz-adv-x="1152" d="M883 191 C883 290 925 361 983 361 C1049 361 1097 282 1097 172 C1097 78 1054 10 994 10 C930 10 883 86 883 191 L883 191 Z M838 182 C838 74 902 -5 990 -5 C1077 -5 1140 76 1140 188 C1140 296 1077 375 990 375 C902 375 838 294 838 182 L838 182 Z M75 542 C75 640 117 711 175 711 C241 711 289 632 289 523 C289 428 246 360 186 360 C122 360 75 436 75 542 L75 542 Z M30 533 C30 424 94 345 182 345 C269 345 332 426 332 539 C332 647 269 725 182 725 C94 725 30 644 30 533 L30 533 Z M537 190 C537 289 579 361 638 361 C707 361 757 282 757 172 C757 78 711 10 648 10 C584 10 537 86 537 190 L537 190 Z M492 182 C492 74 556 -5 644 -5 C734 -5 800 76 800 188 C800 296 734 375 644 375 C556 375 492 294 492 182 L492 182 Z M192 -7 L664 713 L644 727 L171 7 L192 -7 Z " />
<glyph glyph-name="guilsinglleft" unicode="&#x2039;" horiz-adv-x="308" d="M69.5667 250.531 L262 459 L257 464 L20 253 L20 248 L258 37 L263 42 L69.5667 250.531 Z " />
<glyph glyph-name="guilsinglright" unicode="&#x203a;" horiz-adv-x="308" d="M50 37 L288 248 L288 253 L51 464 L46 459 L238.433 250.531 L45 42 L50 37 Z " />
<glyph glyph-name="fraction" unicode="&#x2044;" horiz-adv-x="505" d="M40 -7 L513 713 L493 727 L20 7 L40 -7 Z " />
<glyph glyph-name="euro" unicode="&#x20ac;" horiz-adv-x="772" d="M703 155 C699 147 695 135 691 127 C666.881 73.9385 604.601 28.323 540.079 16.194 C507.874 10.9476 475.303 8 445 8 C294.931 8 182.365 115.72 160.045 272 L494 272 L498 305 L156.733 305 C155.764 321.38 155.764 338.619 156.733 355 L498 355 L503 388 L160.045 388 C182.365 544.28 294.931 652 445 652 C482.881 652 524.306 647.394 564.128 639.449 L564 639 C614 629 668 584 691 533 C695 525 699 513 703 505 L712 505 L712 603 C650 639 538 665 445 665 C265.54 665 130.364 551.475 104.491 388 L55 388 L50 355 L100.815 355 C99.7372 338.604 99.7372 321.397 100.815 305 L50 305 L45 272 L104.491 272 C130.364 108.525 265.54 -5 445 -5 C538 -5 650 21 712 57 L712 155 L703 155 Z " />
<glyph glyph-name="F_sc" unicode="&#xa730;" horiz-adv-x="427" d="M41 543 L49 542 C75 540 93 518 93 489 L93 64 C93 35 75 13 49 11 L41 10 L41 0 L201 0 L201 10 L190 11 C160 13 139 35 139 64 L139 285 L224 285 C262 285 298 264 310 235 L314 227 L322 227 L322 349 L314 349 L310 341 C299 315 262 297 224 297 L139 297 L139 542 L295 542 C341 542 389 509 409 464 L416 449 L423 449 L423 553 L41 553 L41 543 Z " />
<glyph glyph-name="S_sc" unicode="&#xa731;" horiz-adv-x="454" d="M376 407 L376 507 C325 537 257 558 215 558 C121 558 53 493 53 404 C53 345 119 285 209 260 C306 233 377 175 377 121 C377 54 321 6 244 6 C225.473 6 204.599 8.34683 183.008 12.5516 C135.602 25.2253 87.0498 68.2123 64 118 C60 126 56 138 52 146 L43 146 L43 47 L47 54 C46.3958 51.8483 44.2105 49.3027 43 47 C95 17 180 -5 244 -5 C340 -5 409 56 409 140 C409 203 339 267 243 294 C151 319 85 373 85 423 C85 495 139 547 213 547 C213 547 263.882 540.351 263 538 C293 529 325 501 338 472 C346 453 359 426 367 407 L376 407 Z " />
<glyph glyph-name="X_sc" unicode="&#xf078;" horiz-adv-x="569" d="M396 0 L548 0 L548 10 C523.759 14.0401 499.729 27.7459 477.001 57.1558 L305.336 302.456 C351.257 364.604 396.915 427.015 443 489 C467.345 522.62 500.114 538.764 534 543 L534 553 L398 553 L398 543 L413 542 C441.493 540.1 448.337 520.16 430.961 493.316 L299.422 310.906 L174.788 489 C155.442 517.617 160.696 540.133 190 542 L199 543 L199 553 L46 553 L46 543 C70.6493 538.892 95.4974 524.482 118.302 494.134 L275.789 269.674 L137.412 56.179 C114.609 26.7795 87.3049 13.9131 56 10 L56 0 L192 0 L192 10 L182 11 C149 13 142 40 165 76 L164.415 76 L282.08 260.708 L420.096 64 C440 35 434 13 405 11 L396 10 L396 0 Z " />
</font>
</svg>
