<?xml version="1.0" encoding="UTF-8"?>
<svg xmlns="http://www.w3.org/2000/svg" xmlns:xlink="http://www.w3.org/1999/xlink" version="1.2" >
<font id="Cammron  Regular">
<font-face  font-family="Cammron" units-per-em="1024" ascent="936" descent="-280" font-style="normal" font-weight="400" font-stretch="normal" cap-height="927" x-height="468" underline-position="-125" underline-thickness="50" />
<missing-glyph  horiz-adv-x="100" d="" />
<glyph glyph-name="NULL" d="" />
<glyph glyph-name="CR" unicode="&#xd;" horiz-adv-x="256" d="" />
<glyph glyph-name="space" unicode="&#x20;" horiz-adv-x="253" d="" />
<glyph glyph-name="exclam" unicode="&#x21;" horiz-adv-x="188" d="M138 34 C138 85 60 85 60 34 C60 -17 138 -17 138 34 L138 34 Z M128 620 C129 646 116 665 95 665 C74 665 60 646 62 620 C62 483 95 148 95 148 L103 148 C103 148 128 483 128 620 L128 620 Z " />
<glyph glyph-name="quotedbl" unicode="&#x22;" horiz-adv-x="248" d="M139 660 L169 464 L178 464 L208 660 L139 660 L139 660 Z M40 660 L70 464 L79 464 L109 660 L40 660 L40 660 Z " />
<glyph glyph-name="numbersign" unicode="&#x23;" horiz-adv-x="556" d="M404 679 L376 481 L221 481 L249 679 L228 679 L200 481 L64 481 L59 439 L194 439 L163 221 L25 221 L19 179 L157 179 L131 0 L152 0 L178 179 L333 179 L307 0 L328 0 L354 179 L485 179 L491 221 L360 221 L391 439 L530 439 L536 481 L397 481 L425 679 L404 679 L404 679 Z M215 439 L370 439 L339 221 L184 221 L215 439 L215 439 Z " />
<glyph glyph-name="dollar" unicode="&#x24;" horiz-adv-x="520" d="M42 150 L42 45 C77 25 136 9 198 1 L198 -74 L216 -74 L216 -1 C237 -3 258 -4 278 -4 L278 -74 L296 -74 L296 -3 C401 4 476 75 476 171 C476 244 401 318 296 351 L296 646 C310 643 324 640 338 636 C365 626 392 601 404 574 L432 511 L441 511 L441 616 C403 638 347 655 296 662 L296 735 L278 735 L278 664 C257 666 236 666 216 663 L216 735 L198 735 L198 659 C111 639 52 569 52 479 C52 418 112 355 198 320 L198 16 C140 26 89 68 64 122 C60 130 56 141 52 149 L42 150 L42 150 Z M216 377 L216 646 C236 650 256 650 278 647 L278 354 C256 361 235 369 216 378 L216 377 L216 377 Z M198 387 C134 420 93 464 93 505 C93 573 135 626 198 644 L198 387 Z M216 315 C236 308 258 303 278 296 L278 12 C258 12 237 14 216 17 L216 315 L216 315 Z M296 290 C379 255 434 200 434 148 C434 75 377 20 296 13 L296 290 Z " />
<glyph glyph-name="ampersand" unicode="&#x26;" horiz-adv-x="714" d="M613 300 L497 300 L497 290 L505 289 C531 287 549 265 549 236 L549 206 C549 165 533 128 506 98 C440 159 335 284 281 364 C386 385 461 460 461 544 C461 614 399 664 314 664 C229 664 167 596 167 503 C167 464 190 411 229 350 C123 306 50 228 50 154 C50 61 139 -7 262 -7 C352 -7 429 17 482 57 C572 -11 641 -15 712 -3 L712 6 C660 -3 605 6 514 87 C543 120 559 160 559 204 L559 234 C559 263 577 285 603 287 L611 288 L613 300 L613 300 Z M206 526 C206 599 249 651 308 651 C371 651 417 604 417 540 C417 459 357 389 274 370 C232 433 206 487 206 525 L206 526 Z M469 65 C424 34 362 16 290 16 C179 16 99 82 99 174 C99 238 153 303 232 340 C287 256 395 125 469 65 L469 65 Z " />
<glyph glyph-name="quotesingle" unicode="&#x27;" horiz-adv-x="149" d="M40 660 L70 464 L79 464 L109 660 L40 660 L40 660 Z " />
<glyph glyph-name="parenleft" unicode="&#x28;" horiz-adv-x="212" d="M196 690 C117 596 60 464 60 270 C60 76 117 -56 196 -150 L202 -144 C144 -75 102 48 102 270 C102 492 144 615 202 684 L196 690 L196 690 Z " />
<glyph glyph-name="parenright" unicode="&#x29;" horiz-adv-x="212" d="M10 -150 C89 -56 146 76 146 270 C146 464 89 596 10 690 L4 684 C62 615 104 492 104 270 C104 48 62 -75 4 -144 L10 -150 L10 -150 Z " />
<glyph glyph-name="asterisk" unicode="&#x2a;" horiz-adv-x="272" d="M262 584 C263 585 263 585 264 584 L262 584 Z M272 471 C278 480 274 491 263 495 C263 495 251 474 246 465 C256 460 267 462 273 471 L272 471 Z M264 586 C289 598 269 633 248 615 L247 616 C220 600 164 554 153 545 C154 581 168 662 168 662 C173 689 130 689 135 662 C135 662 149 583 150 546 C119 565 57 616 57 616 L40 587 C40 587 117 558 149 541 C122 526 43 494 42 496 C15 485 37 448 57 466 C59 466 117 515 150 536 C147 516 136 452 136 423 C131 396 174 396 169 423 C169 453 158 519 155 538 C170 526 222 484 248 469 L265 498 C240 512 181 535 161 543 C180 550 240 573 265 588 L265 588 L264 586 L264 586 Z M40 588 C45 597 57 618 57 618 C34 634 15 597 39 588 L40 588 Z " />
<glyph glyph-name="plus" unicode="&#x2b;" horiz-adv-x="555" d="M262 450 L262 262 L75 262 L75 238 L262 238 L262 50 L288 50 L288 238 L475 238 L475 262 L288 262 L288 450 L262 450 L262 450 Z " />
<glyph glyph-name="comma" unicode="&#x2c;" horiz-adv-x="195" d="M128 62 C121 69 111 73 99 73 C48 73 48 -5 99 -5 C102 -5 106 -1 110 4 C120 -36 100 -81 73 -94 L73 -103 C114 -83 144 -35 144 11 C144 30 137 52 127 62 L128 62 L128 62 Z " />
<glyph glyph-name="hyphen" unicode="&#x2d;" horiz-adv-x="300" d="M20 214 L280 214 L280 256 L20 256 L20 214 L20 214 Z " />
<glyph glyph-name="period" unicode="&#x2e;" horiz-adv-x="224" d="M164 34 C164 85 86 85 86 34 C86 -17 164 -17 164 34 L164 34 Z " />
<glyph glyph-name="slash" unicode="&#x2f;" horiz-adv-x="334" d="M0 -145 L24 -145 L334 710 L310 710 L0 -145 L0 -145 Z " />
<glyph glyph-name="zero" unicode="0" horiz-adv-x="616" d="M110 250 C110 391 193 493 308 493 C423 493 506 391 506 250 C506 109 423 7 308 7 C193 7 110 109 110 250 L110 250 Z M50 250 C50 102 158 -5 308 -5 C458 -5 566 102 566 250 C566 398 458 505 308 505 C158 505 50 398 50 250 L50 250 Z " />
<glyph glyph-name="one" unicode="1" horiz-adv-x="267" d="M213 10 L205 11 C179 13 161 35 161 64 L161 436 C161 465 179 487 205 489 L213 490 L213 500 L55 500 L55 490 L63 489 C89 487 107 465 107 436 L107 64 C107 35 89 13 63 11 L55 10 L55 0 L213 0 L213 10 L213 10 Z " />
<glyph glyph-name="two" unicode="2" horiz-adv-x="497" d="M460 106 L458 98 C454 72 430 54 401 54 L112 54 C307 174 441 252 441 350 C441 440 371 505 275 505 C191 505 105 443 71 358 L78 354 C104 418 175 465 248 465 C325 465 380 409 380 331 C380 209 231 142 25 12 L25 0 L461 0 L463 27 C465 50 468 83 470 106 L460 106 L460 106 Z " />
<glyph glyph-name="three" unicode="3" horiz-adv-x="473" d="M191 189 C293 189 366 126 366 38 C366 -94 223 -196 25 -206 L25 -215 C256 -204 423 -96 423 41 C423 139 334 210 211 210 C210 210 209 210 208 210 C311 257 379 322 379 378 C379 452 317 505 231 505 C157 505 64 451 10 376 L17 372 C57 427 135 466 203 466 C273 466 324 422 324 361 C324 301 253 235 151 197 C141 194 131 190 121 186 L121 177 C141 183 170 189 192 189 L191 189 L191 189 Z " />
<glyph glyph-name="four" unicode="4" horiz-adv-x="514" d="M18 10 L18 0 L331 0 L331 -150 L385 -150 L385 0 L504 0 L504 24 L385 24 L385 505 L376 505 C365 499 18 10 18 10 L18 10 Z M49 24 C99 95 249 306 330 418 C330 417 330 416 330 415 L330 25 L49 24 L49 24 Z " />
<glyph glyph-name="five" unicode="5" horiz-adv-x="457" d="M417 552 L407 552 L403 544 C393 518 365 500 336 500 L90 500 C90 418 68 218 68 218 L81 218 C81 218 81 220 81 224 C81 220 81 218 81 218 L137 218 C262 218 353 149 353 54 C353 -71 218 -165 31 -171 L31 -182 C249 -175 407 -69 407 72 C407 187 305 271 164 271 L87 271 C92 318 99 387 103 443 L381 443 L390 471 L391 471 C398 496 409 530 416 553 L417 552 L417 552 Z " />
<glyph glyph-name="six" unicode="6" horiz-adv-x="586" d="M522 715 C260 706 70 531 70 298 C70 122 167 -5 301 -5 C444 -5 543 88 536 216 C536 339 449 428 329 428 C217 428 141 370 132 285 C133 296 134 307 134 316 C134 534 297 697 523 705 L522 715 Z M321 412 C413 412 480 328 480 212 C486 94 414 9 308 9 C198 9 123 121 131 268 C131 258 132 248 134 238 L146 238 C130 338 204 411 321 411 L321 412 L321 412 Z " />
<glyph glyph-name="seven" unicode="7" horiz-adv-x="455" d="M30 393 L32 401 C36 427 60 445 89 445 L416 445 L137 -140 L197 -140 C279 72 360 285 444 496 L440 501 L29 501 L27 474 L26 474 C24 451 21 417 19 394 L30 393 L30 393 Z " />
<glyph glyph-name="eight" unicode="8" horiz-adv-x="555" d="M329 350 C414 370 474 437 474 518 C474 604 393 666 282 666 C171 666 90 595 90 496 C90 418 153 346 243 317 C136 304 63 244 63 165 C63 68 156 -3 284 -3 C412 -3 505 73 505 177 C505 248 433 318 328 352 L329 350 Z M321 354 C308 358 295 361 282 364 C196 382 134 447 134 518 C134 597 194 655 278 655 C365 655 428 594 428 510 C428 433 384 371 321 354 L321 354 Z M113 174 C113 247 169 302 250 315 C257 313 264 311 271 310 C378 287 455 223 455 158 C455 72 384 9 287 9 C187 9 114 78 114 174 L113 174 Z " />
<glyph glyph-name="nine" unicode="9" horiz-adv-x="586" d="M64 -215 C326 -206 516 -31 516 202 C516 378 419 505 285 505 C142 505 43 412 50 284 C50 161 137 72 257 72 C369 72 445 130 454 215 C453 204 452 193 452 184 C452 -34 289 -197 63 -205 L64 -215 Z M265 88 C173 88 106 172 106 288 C100 406 172 491 278 491 C388 491 463 379 455 232 C455 242 454 252 452 262 L440 262 C456 162 382 89 265 89 L265 88 L265 88 Z " />
<glyph glyph-name="colon" unicode="&#x3a;" horiz-adv-x="224" d="M164 406 C164 457 86 457 86 406 C86 355 164 355 164 406 L164 406 Z M164 34 C164 85 86 85 86 34 C86 -17 164 -17 164 34 L164 34 Z " />
<glyph glyph-name="semicolon" unicode="&#x3b;" horiz-adv-x="195" d="M138 406 C138 457 60 457 60 406 C60 355 138 355 138 406 L138 406 Z M128 62 C121 69 111 73 99 73 C48 73 48 -5 99 -5 C102 -5 106 -1 110 4 C120 -36 100 -81 73 -94 L73 -103 C114 -83 144 -35 144 11 C144 30 137 52 127 62 L128 62 L128 62 Z " />
<glyph glyph-name="less" unicode="&#x3c;" horiz-adv-x="552" d="M477 500 L46 291 C44 291 42 288 40 288 L40 262 C185 190 332 121 478 50 L478 77 L64 275 L478 473 L477 500 L477 500 Z " />
<glyph glyph-name="equal" unicode="&#x3d;" horiz-adv-x="544" d="M78 212 L78 188 L474 188 L474 212 L78 212 L78 212 Z M78 312 L78 288 L474 288 L474 312 L78 312 L78 312 Z " />
<glyph glyph-name="greater" unicode="&#x3e;" horiz-adv-x="546" d="M506 264 L506 286 C503 286 499 291 496 291 L75 500 L75 473 L480 275 L75 77 L75 50 C219 121 363 192 506 264 L506 264 Z " />
<glyph glyph-name="question" unicode="&#x3f;" horiz-adv-x="383" d="M184 34 C184 85 106 85 106 34 C106 -17 184 -17 184 34 L184 34 Z M159 327 L194 327 C319 327 348 403 348 443 C348 572 256 665 130 665 C78 665 41 637 41 599 C41 590 53 584 70 584 C92 584 125 623 147 623 C257 623 336 550 336 449 C336 421 306 368 176 368 L141 368 C134 368 129 365 129 360 L141 153 L149 153 L159 327 L159 327 Z " />
<glyph glyph-name="at" unicode="&#x40;" horiz-adv-x="1165" d="M1067 0 C1003 -138 803 -238 591 -238 C304 -238 97 -29 97 259 C97 547 301 756 583 756 C864 756 1068 583 1068 343 C1068 147 986 5 873 5 C759 5 697 87 725 200 L795 480 L744 480 L721 388 C708 449 656 490 588 490 C422 490 302 367 302 196 C302 90 377 13 481 13 C559 13 631 63 668 137 C674 47 749 -14 865 -14 C1008 -14 1111 136 1111 343 C1111 591 890 771 584 771 C278 771 56 556 56 259 C56 -38 281 -253 592 -253 C810 -253 1018 -147 1086 0 L1067 0 L1067 0 Z M714 356 L675 200 C652 108 583 42 510 42 C425 42 363 111 363 207 C363 362 458 475 588 475 C661 475 714 425 714 356 L714 356 Z " />
<glyph glyph-name="A" unicode="A" horiz-adv-x="616" d="M429 0 L608 0 L608 10 C580 10 560 25 544 59 L306 675 L291 675 L72 57 C58 27 34 14 4 10 L4 0 L148 0 L148 10 L137 11 C104 13 88 37 96 70 L154 236 L413 236 L477 64 C488 35 474 13 445 11 L429 10 L429 0 L429 0 Z M407 251 L159 251 L279 596 L407 251 L407 251 Z " />
<glyph glyph-name="B" unicode="B" horiz-adv-x="591" d="M288 358 L246 357 L162 357 L162 645 L315 645 C397 645 457 588 457 510 C457 423 388 358 288 358 L288 358 Z M50 650 L58 649 C84 647 102 625 102 596 L102 64 C102 35 84 13 58 11 L50 10 L50 0 L341 0 C474 0 571 76 571 181 C571 270 482 337 352 354 C451 373 517 433 517 511 C517 598 432 661 315 661 L50 661 L50 650 L50 650 Z M162 347 L269 347 C407 347 507 278 507 182 C507 86 435 16 335 16 L162 16 L162 347 L162 347 Z " />
<glyph glyph-name="C" unicode="C" horiz-adv-x="733" d="M673 504 L673 603 C611 639 498 665 405 665 C205 665 60 524 60 330 C60 136 205 -5 405 -5 C498 -5 611 21 673 57 L669 64 C669 64 672 58 672 57 L672 156 L663 156 C659 148 655 137 651 129 C626 74 560 27 493 17 C463 13 433 11 404 11 C243 11 126 145 126 331 C126 517 243 651 404 651 C446 651 492 646 535 637 C581 623 628 581 650 533 C654 525 658 514 662 506 L673 504 L673 504 Z " />
<glyph glyph-name="D" unicode="D" horiz-adv-x="687" d="M50 650 L58 649 C84 647 102 625 102 596 L102 64 C102 35 84 13 58 11 L50 10 L50 0 L334 0 C510 0 637 139 637 330 C637 521 492 660 291 660 L50 660 L50 650 L50 650 Z M162 15 L162 645 L291 645 C457 645 577 513 577 330 C577 147 475 15 334 15 L162 15 L162 15 Z " />
<glyph glyph-name="E" unicode="E" horiz-adv-x="550" d="M394 286 L394 412 L386 412 L382 404 C371 378 334 360 296 360 L152 360 L152 645 L328 645 C374 645 422 612 442 567 L449 552 L456 552 L456 660 L40 660 L40 650 L48 649 C74 647 92 625 92 596 L92 64 C92 35 74 13 48 11 L40 10 L40 0 L461 0 L462 7 L463 7 C468 36 476 79 481 108 L474 108 L464 93 C436 48 382 15 336 15 L152 15 L152 344 L296 344 C334 344 370 323 382 294 L386 286 L394 286 L394 286 Z " />
<glyph glyph-name="F" unicode="F" horiz-adv-x="489" d="M40 650 L48 649 C74 647 92 625 92 596 L92 64 C92 35 74 13 48 11 L40 10 L40 0 L214 0 L214 10 L203 11 C173 13 152 35 152 64 L152 339 L286 339 C324 339 360 318 372 289 L376 281 L384 281 L384 407 L376 407 L372 399 C361 373 324 355 286 355 L152 355 L152 645 L358 645 C404 645 452 612 472 567 L479 552 L486 552 L486 660 L40 660 L40 650 L40 650 Z " />
<glyph glyph-name="G" unicode="G" horiz-adv-x="802" d="M653 504 L653 603 C591 639 482 665 394 665 C200 665 60 524 60 330 C60 136 200 -5 394 -5 C485 -5 596 21 658 57 L658 246 C658 275 676 297 702 299 L710 300 L710 310 L552 310 L552 300 L560 299 C586 297 604 275 604 246 L604 49 C543 26 462 11 393 11 C238 11 126 145 126 331 C126 517 238 651 393 651 C428 651 467 647 504 640 L504 640 C554 630 607 585 631 533 C635 525 639 514 643 506 L653 504 L653 504 Z " />
<glyph glyph-name="H" unicode="H" horiz-adv-x="739" d="M700 10 L692 11 C666 13 648 35 648 64 L648 596 C648 625 666 647 692 649 L700 650 L700 660 L536 660 L536 650 L544 649 C570 647 588 625 588 596 L588 355 L152 355 L152 596 C152 625 170 647 196 649 L204 650 L204 660 L40 660 L40 650 L48 649 C74 647 92 625 92 596 L92 64 C92 35 74 13 48 11 L40 10 L40 0 L204 0 L204 10 L196 11 C170 13 152 35 152 64 L152 339 L588 339 L588 64 C588 35 570 13 544 11 L536 10 L536 0 L700 0 L700 10 L700 10 Z " />
<glyph glyph-name="I" unicode="I" horiz-adv-x="243" d="M204 10 L196 11 C170 13 152 35 152 64 L152 596 C152 625 170 647 196 649 L204 650 L204 660 L40 660 L40 650 L48 649 C74 647 92 625 92 596 L92 64 C92 35 74 13 48 11 L40 10 L40 0 L204 0 L204 10 L204 10 Z " />
<glyph glyph-name="J" unicode="J" horiz-adv-x="361" d="M322 660 L157 660 L157 650 L165 649 C191 647 209 625 209 596 L209 200 C209 62 182 2 119 2 C87 2 58 22 51 50 C48 64 36 74 24 74 C7 74 -3 64 0 50 C9 15 52 -10 104 -10 C219 -10 269 69 269 251 C270 250 270 481 270 596 C270 625 288 647 314 649 L322 650 L322 660 L322 660 Z " />
<glyph glyph-name="K" unicode="K" horiz-adv-x="640" d="M214 660 L50 660 L50 650 L58 649 C84 647 102 625 102 596 L102 64 C102 35 84 13 58 11 L50 10 L50 0 L214 0 L214 10 L206 11 C180 13 162 35 162 64 L162 355 L172 343 L173 344 C197 319 260 253 341 170 C459 48 540 -5 607 -5 L630 -5 L630 7 C592 7 526 66 386 210 C305 293 242 359 218 384 L464 604 C499 633 534 646 567 650 L567 660 L453 660 L453 650 L459 649 C477 647 466 625 433 596 L162 355 L162 596 C162 625 180 647 206 649 L214 650 L214 660 L214 660 Z " />
<glyph glyph-name="L" unicode="L" horiz-adv-x="550" d="M204 660 L40 660 L40 650 L48 649 C74 647 92 625 92 596 L92 64 C92 35 74 13 48 11 L40 10 L40 0 L462 0 L463 7 C469 38 477 82 482 113 C478 115 470 118 470 118 L453 86 C431 45 386 15 345 15 L152 15 L152 596 C152 625 170 647 196 649 L204 650 L204 660 L204 660 Z " />
<glyph glyph-name="M" unicode="M" horiz-adv-x="794" d="M624 0 L787 0 L787 10 L779 11 C755 13 736 33 733 60 L709 596 C708 625 725 647 750 649 L757 650 L757 660 L652 660 L414 67 L413 68 L159 660 L60 660 L60 650 L68 649 C91 647 108 628 110 603 L90 64 C88 36 70 13 45 11 L37 10 L37 0 L182 0 L182 10 L169 11 C133 13 108 40 109 76 L128 586 C214 389 299 192 385 -4 L400 -4 L654 614 L674 59 C672 33 655 14 632 12 L624 11 L624 0 L624 0 Z " />
<glyph glyph-name="N" unicode="N" horiz-adv-x="668" d="M42 650 L50 649 C76 647 94 625 94 596 L94 64 C94 35 76 13 50 11 L42 10 L42 0 L164 0 L164 10 L156 11 C130 13 112 35 112 64 L112 608 C262 401 412 195 561 -12 L580 -12 L580 596 C580 625 598 647 624 649 L632 650 L632 660 L510 660 L510 650 L518 649 C544 647 562 625 562 596 L562 87 L148 660 L42 660 L42 650 L42 650 Z " />
<glyph glyph-name="O" unicode="O" horiz-adv-x="774" d="M127 330 C127 497 223 650 392 650 C562 650 658 497 658 330 C658 163 562 10 392 10 C223 10 127 163 127 330 L127 330 Z M60 330 C60 155 180 -5 392 -5 C604 -5 724 155 724 330 C724 505 604 665 392 665 C180 665 60 505 60 330 L60 330 Z " />
<glyph glyph-name="P" unicode="P" horiz-adv-x="565" d="M214 10 L206 11 C180 13 162 35 162 64 L162 297 L295 297 C440 297 545 373 545 478 C545 584 454 660 328 660 L50 660 L50 650 L58 649 C84 647 102 625 102 596 L102 64 C102 35 84 13 58 11 L50 10 L50 0 L214 0 L214 10 L214 10 Z M162 312 L162 645 L328 645 C417 645 482 575 482 478 C482 382 403 312 295 312 L162 312 L162 312 Z " />
<glyph glyph-name="Q" unicode="Q" horiz-adv-x="774" d="M824 -51 L818 -47 C797 -72 729 -90 656 -90 C542 -90 453 -55 398 -5 C606 -2 724 157 724 330 C724 505 604 665 392 665 C180 665 60 505 60 330 C60 159 174 2 377 -5 C453 -78 550 -129 650 -129 C713 -129 786 -96 824 -51 L824 -51 Z M127 330 C127 497 223 650 392 650 C562 650 658 497 658 330 C658 163 562 10 392 10 C223 10 127 163 127 330 L127 330 Z " />
<glyph glyph-name="R" unicode="R" horiz-adv-x="627" d="M50 650 L58 649 C84 647 102 625 102 596 L102 64 C102 35 84 13 58 11 L50 10 L50 0 L214 0 L214 10 L206 11 C180 13 162 35 162 64 L162 316 L270 316 C297 284 364 206 449 106 C533 8 544 0 605 0 L628 0 L628 12 C599 12 598 15 530 94 C436 204 363 290 338 320 C447 336 521 402 521 489 C521 588 434 659 315 659 L50 659 L50 650 L50 650 Z M285 330 L162 330 L162 644 L315 644 C397 644 457 579 457 489 C457 397 385 330 285 330 L285 330 Z " />
<glyph glyph-name="S" unicode="S" horiz-adv-x="520" d="M440 510 L440 615 C390 644 309 665 248 665 C134 665 51 587 51 480 C51 410 130 337 238 307 C351 276 433 208 433 145 C433 67 368 10 278 10 C248 10 215 14 182 20 C135 32 86 74 63 123 C59 131 55 142 51 150 L42 150 L42 45 C92 16 191 -5 278 -5 C392 -5 475 68 475 169 C475 245 395 322 284 353 C173 384 92 447 92 504 C92 589 157 650 246 650 C272 650 305 644 338 634 C365 624 392 599 404 572 L432 509 L440 510 L440 510 Z " />
<glyph glyph-name="T" unicode="T" horiz-adv-x="636" d="M23 542 L44 582 C63 619 103 645 140 645 L288 645 L288 64 C288 35 270 13 244 11 L236 10 L236 0 L400 0 L400 10 L392 11 C366 13 348 35 348 64 L348 645 L493 645 C531 645 571 619 590 582 L611 542 L619 542 C618 550 610 653 608 653 L607 660 L24 660 L23 652 L24 652 C21 620 17 574 14 542 L23 542 L23 542 Z " />
<glyph glyph-name="U" unicode="U" horiz-adv-x="652" d="M632 660 L494 660 L494 650 L503 649 C534 647 556 622 556 588 L556 186 C556 87 492 16 347 16 C211 16 152 92 152 198 L152 596 C152 625 170 647 196 649 L204 650 L204 660 L40 660 L40 650 L48 649 C74 647 92 625 92 596 L92 210 C92 85 167 -5 338 -5 C502 -5 574 73 574 180 L574 588 C574 622 595 647 624 649 L632 650 L632 660 L632 660 Z " />
<glyph glyph-name="V" unicode="V" horiz-adv-x="647" d="M185 660 L13 660 L13 650 C39 646 61 631 75 598 L324 -14 L340 -14 L544 597 C555 626 580 649 606 651 L614 652 L614 662 L466 662 L466 652 L477 651 C515 649 532 619 520 578 L352 71 L142 599 L143 599 C131 628 144 650 173 652 L186 653 L185 660 L185 660 Z " />
<glyph glyph-name="W" unicode="W" horiz-adv-x="934" d="M167 660 L1 660 L1 650 C26 646 45 633 58 603 L267 -15 L283 -15 L453 570 L652 -15 L667 -15 L851 596 C860 625 885 647 911 649 L919 650 L919 660 L780 660 L780 650 L797 649 C827 648 842 625 833 596 L680 79 L482 670 L467 670 L293 74 L126 596 C118 624 130 647 159 649 L168 650 L167 660 L167 660 Z " />
<glyph glyph-name="X" unicode="X" horiz-adv-x="653" d="M211 660 L42 660 L42 650 C66 646 88 633 110 605 C174 510 239 415 303 320 L131 55 C108 26 81 13 50 9 L50 -1 L194 -1 L194 9 L184 10 C153 12 144 36 162 68 L313 306 L478 63 L477 63 C497 34 490 12 461 10 L452 9 L452 -1 L621 -1 L621 9 C597 13 575 26 553 54 L349 354 L518 601 C542 631 571 645 603 649 L603 659 L458 659 L458 649 L474 648 C504 646 510 623 492 595 L341 368 L187 595 L188 595 C168 624 175 646 204 648 L213 649 L211 660 L211 660 Z " />
<glyph glyph-name="Y" unicode="Y" horiz-adv-x="602" d="M198 660 L32 660 L32 650 C57 646 81 629 99 596 L99 596 L284 261 L283 64 C283 35 265 13 239 11 L231 10 L231 0 L396 0 L396 10 L388 11 C362 13 344 35 344 64 L344 288 L530 604 C550 634 574 647 602 651 L602 661 L469 661 L469 651 L480 650 C513 648 520 619 498 581 L499 581 L334 297 L171 597 C156 626 163 648 190 650 L198 651 L198 660 L198 660 Z " />
<glyph glyph-name="Z" unicode="Z" horiz-adv-x="600" d="M551 114 C547 116 539 119 539 119 L522 87 C500 46 455 16 414 16 L128 16 L545 660 L117 660 L115 653 L114 653 C107 627 97 589 90 563 L98 563 L114 582 C144 619 192 645 229 645 L466 645 L51 0 L531 0 C535 35 545 80 550 114 L551 114 L551 114 Z " />
<glyph glyph-name="bracketleft" unicode="&#x5b;" horiz-adv-x="234" d="M119 648 L224 648 L224 660 L76 660 L76 -120 L224 -120 L224 -108 L119 -108 L119 648 L119 648 Z " />
<glyph glyph-name="backslash" unicode="&#x5c;" horiz-adv-x="228" d="M209 -145 L228 -145 L-41 710 L-60 710 L209 -145 L209 -145 Z " />
<glyph glyph-name="bracketright" unicode="&#x5d;" horiz-adv-x="222" d="M110 648 L110 -108 L5 -108 L5 -120 L152 -120 L152 660 L5 660 L5 648 L110 648 L110 648 Z " />
<glyph glyph-name="asciicircum" unicode="&#x5e;" horiz-adv-x="359" d="M197 729 C194 734 187 745 180 745 C172 745 165 734 163 730 C163 730 69 551 58 538 L64 533 C107 585 155 652 180 688 C217 635 297 534 297 534 L302 539 C302 539 243 637 198 730 L197 729 L197 729 Z " />
<glyph glyph-name="underscore" unicode="&#x5f;" horiz-adv-x="490" d="M5 -50 L5 -80 L485 -80 L485 -50 L5 -50 L5 -50 Z " />
<glyph glyph-name="grave" unicode="&#x60;" horiz-adv-x="359" d="M97 714 C97 710 115 688 140 660 C171 621 253 531 253 531 L259 536 C259 536 198 642 167 681 C147 713 131 736 128 736 C119 736 97 720 97 714 L97 714 Z " />
<glyph glyph-name="a" unicode="a" horiz-adv-x="500" d="M478 38 C465 25 449 16 427 16 C398 16 388 41 388 75 L388 359 C388 444 333 505 258 505 C157 505 75 463 64 405 L119 405 C129 454 182 490 246 490 C295 490 331 440 331 371 L331 252 C297 249 242 243 210 235 C109 210 36 154 36 102 C36 40 87 -5 157 -5 C216 -5 284 23 331 65 C332 21 347 -10 390 -10 C431 -10 462 7 485 30 L478 38 L478 38 Z M331 239 L331 76 C293 48 237 30 184 30 C129 30 89 66 89 116 C89 157 140 200 210 217 C249 227 300 235 331 239 L331 239 Z " />
<glyph glyph-name="b" unicode="b" horiz-adv-x="592" d="M290 -5 C433 -5 537 101 537 248 C537 397 444 505 315 505 C261 505 185 485 134 458 L134 720 L123 720 L28 692 L28 686 C68 671 80 660 80 613 L80 -1 L86 -1 C91 13 106 23 123 23 C171 23 226 -6 290 -6 L290 -5 L290 -5 Z M290 9 C200 9 134 62 134 135 L134 448 C169 467 228 480 274 480 C393 480 480 372 480 223 C480 99 400 9 290 9 L290 9 Z " />
<glyph glyph-name="c" unicode="c" horiz-adv-x="494" d="M442 43 L437 49 C422 37 361 28 291 28 C184 28 107 124 107 256 C107 392 188 490 301 490 C350 490 389 454 393 404 C395 372 444 367 444 401 C439 461 381 505 307 505 C158 505 50 392 50 235 C50 96 132 -5 246 -5 C327 -5 409 15 442 43 L442 43 Z " />
<glyph glyph-name="d" unicode="d" horiz-adv-x="612" d="M396 686 C436 671 448 660 448 613 L448 435 C414 474 351 504 284 504 C152 504 56 386 56 224 C56 91 143 -6 264 -6 C332 -6 408 19 449 55 L449 -1 L460 -1 L555 27 L555 33 C515 48 503 59 503 106 L503 720 L492 720 L397 692 L396 686 L396 686 Z M449 63 C424 42 360 27 293 27 C188 27 112 118 112 244 C112 386 183 489 281 489 C354 489 423 452 449 408 L449 63 Z " />
<glyph glyph-name="e" unicode="e" horiz-adv-x="501" d="M449 43 L444 49 C429 37 367 28 295 28 C165 28 83 165 113 323 L451 323 C451 429 377 505 274 505 C144 505 50 392 50 235 C50 96 134 -5 250 -5 C332 -5 416 15 449 43 L449 43 Z M400 369 C400 355 390 344 376 342 L115 333 C136 427 195 489 271 489 C346 489 400 438 400 368 L400 369 L400 369 Z " />
<glyph glyph-name="f" unicode="f" horiz-adv-x="372" d="M217 10 L209 11 C183 13 165 35 165 64 L165 479 L311 479 L311 500 L165 500 L165 533 C165 634 246 708 279 708 C312 708 338 688 340 660 C342 630 391 627 391 660 C388 695 347 720 294 720 C190 720 114 646 114 545 C112 545 111 500 111 500 L22 500 L22 479 L111 479 L111 64 C111 35 93 13 67 11 L59 10 L59 0 L217 0 L217 10 L217 10 Z " />
<glyph glyph-name="g" unicode="g" horiz-adv-x="483" d="M483 500 L343 487 C317 499 286 505 252 505 C145 505 67 440 67 350 C67 280 115 224 187 203 C108 201 51 163 51 110 C51 64 95 29 161 19 C81 -5 25 -59 25 -114 C25 -187 90 -240 179 -240 C343 -240 462 -160 462 -49 C462 20 386 70 280 70 C264 70 195 67 195 67 C132 67 86 93 86 130 C86 167 131 193 192 193 L252 193 C359 193 436 259 436 349 C436 397 414 438 377 466 L482 469 L483 500 L483 500 Z M252 205 C174 205 118 265 118 349 C118 432 174 492 252 492 C329 492 385 432 385 349 C385 265 329 205 252 205 L252 205 Z M177 17 C194 16 240 20 264 20 C356 20 423 -20 423 -75 C423 -161 323 -224 184 -224 C112 -224 60 -174 60 -106 C60 -52 109 -1 177 18 L177 17 Z " />
<glyph glyph-name="h" unicode="h" horiz-adv-x="589" d="M392 0 L550 0 L550 10 L542 11 C516 13 498 35 498 64 L498 336 C498 434 458 505 367 505 C317 505 227 476 149 436 L149 720 L138 720 L43 692 L43 686 C83 671 95 660 95 613 L95 63 C95 34 77 12 51 10 L43 9 L43 -1 L201 -1 L201 9 L193 10 C167 12 149 34 149 63 L149 429 C195 451 267 468 324 468 C407 468 443 410 443 330 L443 63 C443 34 425 12 399 10 L391 9 L392 0 L392 0 Z " />
<glyph glyph-name="i" unicode="i" horiz-adv-x="247" d="M157 606 C157 653 85 653 85 606 C85 559 157 559 157 606 L157 606 Z M203 10 L195 11 C169 13 151 35 151 64 L151 500 L140 500 L45 472 L45 466 C85 451 97 440 97 393 L97 63 C97 34 79 12 53 10 L45 9 L45 -1 L203 -1 L203 10 L203 10 Z " />
<glyph glyph-name="j" unicode="j" horiz-adv-x="250" d="M160 606 C160 653 88 653 88 606 C88 559 160 559 160 606 L160 606 Z M48 466 C86 452 99 441 100 397 C100 258 100 6 99 7 C99 -123 67 -173 -18 -226 L-13 -234 C108 -158 154 -101 154 21 L154 499 L143 499 L48 471 L48 466 L48 466 Z " />
<glyph glyph-name="k" unicode="k" horiz-adv-x="514" d="M52 686 C92 671 104 660 104 613 L104 63 C104 34 86 12 60 10 L52 9 L52 -1 L210 -1 L210 9 L202 10 C176 12 158 34 158 63 L158 274 L164 267 L165 267 L371 63 C400 34 408 12 390 10 L384 9 L384 -1 L545 -1 L545 9 C512 13 479 27 447 57 L207 302 L389 447 C427 473 461 485 494 489 L494 499 L379 499 L379 489 L385 488 C402 486 388 464 353 435 L354 435 L159 274 L159 719 L148 719 L53 691 L52 686 L52 686 Z " />
<glyph glyph-name="l" unicode="l" horiz-adv-x="247" d="M203 10 L195 11 C169 13 151 35 151 64 L151 720 L140 720 L45 692 L45 686 C85 671 97 660 97 613 L97 63 C97 34 79 12 53 10 L45 9 L45 -1 L203 -1 L203 10 L203 10 Z " />
<glyph glyph-name="m" unicode="m" horiz-adv-x="957" d="M760 0 L918 0 L918 10 L910 11 C884 13 866 35 866 64 L866 336 C866 434 804 505 727 505 C682 505 588 469 492 418 C469 471 424 505 373 505 C315 505 228 476 150 436 L150 500 L139 500 L44 472 L44 466 C84 451 96 440 96 393 L96 63 C96 34 78 12 52 10 L44 9 L44 -1 L202 -1 L202 9 L194 10 C168 12 150 34 150 63 L150 429 C199 453 269 471 331 471 C399 471 454 412 454 330 L454 63 C454 34 436 12 410 10 L402 9 L402 -1 L560 -1 L560 9 L552 10 C526 12 508 34 508 63 L508 335 C508 362 503 387 495 409 C561 443 635 468 684 468 C754 468 811 410 811 330 L811 63 C811 34 793 12 767 10 L759 9 L760 0 L760 0 Z " />
<glyph glyph-name="n" unicode="n" horiz-adv-x="589" d="M392 0 L550 0 L550 10 L542 11 C516 13 498 35 498 64 L498 336 C498 434 458 505 367 505 C317 505 227 476 149 436 L149 500 L138 500 L43 472 L43 466 C83 451 95 440 95 393 L95 63 C95 34 77 12 51 10 L43 9 L43 -1 L201 -1 L201 9 L193 10 C167 12 149 34 149 63 L149 429 C195 451 267 468 324 468 C407 468 443 410 443 330 L443 63 C443 34 425 12 399 10 L391 9 L392 0 L392 0 Z " />
<glyph glyph-name="o" unicode="o" horiz-adv-x="606" d="M110 250 C110 391 191 493 303 493 C415 493 496 391 496 250 C496 109 415 7 303 7 C191 7 110 109 110 250 L110 250 Z M50 250 C50 102 156 -5 303 -5 C450 -5 556 102 556 250 C556 398 450 505 303 505 C156 505 50 398 50 250 L50 250 Z " />
<glyph glyph-name="p" unicode="p" horiz-adv-x="626" d="M202 -220 L194 -219 C168 -217 150 -195 150 -166 L150 50 C187 16 245 -5 312 -5 C462 -5 571 105 571 258 C571 401 482 505 358 505 C282 505 196 469 149 419 L149 499 L138 499 L43 471 L43 465 C83 450 95 439 95 392 L95 -168 C95 -197 77 -219 51 -221 L43 -222 L43 -232 L201 -232 L202 -220 L202 -220 Z M149 133 L149 409 C183 444 251 468 315 468 C432 468 517 362 517 216 C517 96 430 9 311 9 C223 9 155 62 149 134 L149 133 L149 133 Z " />
<glyph glyph-name="q" unicode="q" horiz-adv-x="606" d="M562 -220 L554 -219 C528 -217 510 -195 510 -166 L510 500 L504 500 C499 486 483 476 465 476 C417 476 361 505 298 505 C162 505 64 387 64 225 C64 92 148 -5 265 -5 C335 -5 413 21 456 59 L456 -165 C456 -194 438 -216 412 -218 L404 -219 L404 -229 L562 -229 L562 -220 L562 -220 Z M456 69 C430 46 363 29 294 29 C193 29 120 120 120 246 C120 388 195 491 298 491 C390 491 456 438 456 365 L456 69 Z " />
<glyph glyph-name="r" unicode="r" horiz-adv-x="408" d="M44 466 C84 451 96 440 96 393 L96 63 C96 34 78 12 52 10 L44 9 L44 -1 L202 -1 L202 9 L194 10 C168 12 150 34 150 63 L150 414 C177 443 223 464 263 464 C295 464 340 441 372 441 C387 441 398 452 398 467 C398 488 370 504 306 504 C256 504 192 470 151 422 L151 500 L140 500 L45 472 L44 466 L44 466 Z " />
<glyph glyph-name="s" unicode="s" horiz-adv-x="439" d="M365 393 L365 461 C321 487 261 505 222 505 C131 505 65 451 65 377 C65 325 129 264 218 231 C291 204 344 156 344 117 C344 53 296 7 229 7 C208 7 185 9 162 13 C115 23 75 64 53 107 L46 107 L46 33 C85 10 160 -6 224 -6 C319 -6 387 54 387 136 C387 184 332 239 255 268 C167 301 104 354 104 395 C104 451 153 492 220 492 C235 492 257 487 281 478 C316 463 343 429 355 392 L365 393 L365 393 Z " />
<glyph glyph-name="t" unicode="t" horiz-adv-x="367" d="M336 500 L161 500 L161 640 L152 640 L133 571 C117 526 73 490 25 484 L25 478 L107 478 L107 110 C107 23 131 -6 204 -6 C268 -6 313 15 347 43 L343 47 C323 30 289 18 231 18 C178 18 161 38 161 101 L161 478 L336 478 L336 500 L336 500 Z " />
<glyph glyph-name="u" unicode="u" horiz-adv-x="554" d="M14 490 L22 489 C48 487 66 465 66 436 L66 156 C66 63 123 -5 224 -5 C307 -5 372 21 414 58 L414 0 L425 0 L520 28 L520 34 C480 49 468 60 468 107 L468 501 L362 501 L362 491 L370 490 C396 488 414 466 414 437 L414 67 C391 46 342 31 266 31 C173 31 120 86 120 161 L120 500 L14 500 L14 490 L14 490 Z " />
<glyph glyph-name="v" unicode="v" horiz-adv-x="519" d="M506 490 L506 500 L388 500 L388 490 L395 489 C417 487 426 467 417 440 L273 56 L133 436 C123 464 131 487 154 489 L161 490 L161 500 L-1 500 L-1 490 L7 489 C33 487 61 465 72 436 L248 -10 L257 -10 C316 139 374 288 433 436 C446 470 474 486 506 490 L506 490 Z " />
<glyph glyph-name="w" unicode="w" horiz-adv-x="810" d="M198 500 L37 500 L37 490 C63 486 86 470 99 436 L99 436 L275 -10 L284 -10 L418 321 L548 -10 L557 -10 C616 139 674 288 733 436 C746 470 774 486 806 490 L806 500 L668 500 L668 490 L684 489 C713 487 726 467 717 440 L573 57 L433 437 C423 465 436 488 465 490 L481 491 L481 501 L319 501 L319 491 C340 487 360 470 373 437 L373 437 L413 337 L303 59 L161 438 C150 467 162 489 190 491 L199 492 L198 500 L198 500 Z " />
<glyph glyph-name="x" unicode="x" horiz-adv-x="582" d="M199 500 L37 500 L37 490 C63 486 87 473 112 445 L258 252 L124 61 C100 28 66 13 30 9 L30 -1 L182 -1 L182 9 L160 10 C132 11 125 33 143 61 L267 241 L401 63 L400 63 C422 34 424 12 404 10 L397 9 L397 -1 L542 -1 L542 9 C519 13 498 25 474 52 L298 285 L417 442 C443 471 472 484 504 488 L504 498 L372 498 L372 488 L381 487 C411 485 414 462 394 434 L291 292 L184 434 L185 434 C163 463 165 485 190 487 L198 488 L199 500 L199 500 Z " />
<glyph glyph-name="y" unicode="y" horiz-adv-x="519" d="M506 490 L506 500 L388 500 L388 490 L395 489 C417 487 426 467 417 440 L273 56 L133 436 C123 464 131 487 154 489 L161 490 L161 500 L-1 500 L-1 490 L7 489 C33 487 61 465 72 436 L245 -2 C240 -14 229 -39 219 -67 C184 -155 153 -194 118 -194 C118 -194 69 -170 49 -170 C33 -170 21 -180 21 -193 C21 -214 48 -230 85 -230 C145 -230 191 -182 234 -72 C246 -37 258 -10 258 -10 C317 139 375 288 434 436 C447 470 475 486 507 490 L506 490 L506 490 Z " />
<glyph glyph-name="z" unicode="z" horiz-adv-x="499" d="M456 110 C452 112 444 115 444 115 L427 83 C405 42 360 12 319 12 L127 12 L449 500 L71 500 L69 494 C64 474 56 445 51 425 L59 425 L68 434 C99 465 148 486 184 487 L379 488 L55 0 L437 0 C442 32 450 77 455 109 L456 110 L456 110 Z " />
<glyph glyph-name="braceleft" unicode="&#x7b;" horiz-adv-x="253" d="M238 -120 L238 -111 L210 -111 C150 -111 106 -59 106 12 L106 173 C106 225 77 264 35 271 C77 278 106 317 106 369 L106 529 C106 600 150 652 210 652 L238 652 L238 661 L198 661 C120 661 64 606 64 529 L64 339 C64 299 40 276 5 276 L5 266 C40 266 64 243 64 204 L64 13 C64 -64 120 -119 198 -119 L238 -120 L238 -120 Z " />
<glyph glyph-name="bar" unicode="&#x7c;" horiz-adv-x="162" d="M60 770 L60 -234 L102 -234 L102 770 L60 770 L60 770 Z " />
<glyph glyph-name="braceright" unicode="&#x7d;" horiz-adv-x="253" d="M5 660 L5 651 L33 651 C93 651 137 599 137 528 L137 367 C137 315 166 276 208 269 C166 262 137 223 137 171 L137 11 C137 -60 93 -112 33 -112 L5 -112 L5 -121 L45 -121 C123 -121 179 -66 179 11 L179 201 C179 241 203 264 238 264 L238 274 C203 274 179 297 179 336 L179 527 C179 604 123 659 45 659 L5 660 L5 660 Z " />
<glyph glyph-name="asciitilde" unicode="&#x7e;" horiz-adv-x="359" d="M27 310 C27 348 48 376 76 376 C132 376 213 313 269 313 C311 313 342 354 342 410 L333 410 C333 375 311 350 281 350 C225 350 144 412 88 412 C47 412 18 369 18 310 L27 310 L27 310 Z " />
<glyph glyph-name="nbspace" unicode="&#xa0;" horiz-adv-x="237" d="" />
<glyph glyph-name="exclamdown" unicode="&#xa1;" horiz-adv-x="188" d="M50 466 C50 415 128 415 128 466 C128 517 50 517 50 466 L50 466 Z M60 -120 C59 -146 72 -165 93 -165 C114 -165 128 -146 126 -120 C126 154 93 352 93 352 L85 352 C85 352 60 154 60 -120 L60 -120 Z " />
<glyph glyph-name="cent" unicode="&#xa2;" horiz-adv-x="494" d="M283 575 L283 504 C147 493 50 384 50 236 C50 97 132 -4 246 -4 C258 -4 270 -4 282 -3 L282 -74 L300 -74 L300 -1 C361 6 416 23 441 45 L436 51 C422 40 366 31 300 30 L300 492 C349 492 388 456 392 406 C394 374 443 369 443 403 C438 465 378 509 301 507 L301 577 L283 575 L283 575 Z M283 30 C180 35 107 129 107 258 C107 387 179 482 283 492 L283 30 Z " />
<glyph glyph-name="guillemotleft" unicode="&#xab;" horiz-adv-x="484" d="M197 247 C197 248 197 249 197 249 C197 247 199 247 202 247 C237 224 433 37 433 37 L439 42 C439 42 295 195 253 249 C280 284 356 378 437 459 L432 464 C286 318 197 253 197 253 L197 247 L197 247 Z M76 249 C103 284 179 378 260 459 L255 464 C109 318 20 253 20 253 L20 249 L20 247 C20 248 20 249 20 249 C20 247 22 247 25 247 C60 224 256 37 256 37 L262 42 C262 42 118 195 76 249 L76 249 Z " />
<glyph glyph-name="acute" unicode="&#xb4;" horiz-adv-x="359" d="M102 531 C102 531 183 621 213 660 C237 688 254 710 254 714 C254 720 232 736 223 736 C221 736 205 713 185 681 C155 642 96 536 96 536 L102 531 Z " />
<glyph glyph-name="guillemotright" unicode="&#xbb;" horiz-adv-x="484" d="M51 36 C51 36 247 223 282 246 C285 246 287 246 287 246 L287 248 C287 248 287 247 287 246 L287 252 C287 252 198 317 52 463 L47 458 C128 377 204 283 231 248 C189 194 45 41 45 41 L51 36 L51 36 Z M228 36 C228 36 424 223 459 246 C462 246 464 246 464 246 L464 248 C464 248 464 247 464 246 L464 252 C464 252 375 317 229 463 L224 458 C305 377 381 283 408 248 C366 194 222 41 222 41 L228 36 L228 36 Z " />
<glyph glyph-name="onequarter" unicode="&#xbc;" horiz-adv-x="764" d="M206 641 C206 642 206 643 206 644 L207 644 L206 641 L206 641 Z M232 670 L232 676 L183 676 L183 672 L134 672 L134 668 C147 668 155 661 158 649 L158 449 C158 433 148 423 132 423 L132 419 L158 419 L158 415 L204 415 L204 419 L231 419 L231 425 C217 429 206 434 205 452 L204 452 L204 644 L205 644 C206 662 217 667 231 671 L232 670 L232 670 Z M107 -13 L679 657 L655 677 L84 7 L107 -13 L107 -13 Z M448 63 L449 63 L447 62 C447 62 447 62 447 63 L448 63 L448 63 Z M436 71 L437 70 L437 63 L444 63 L444 62 L576 62 L576 10 L622 10 L622 62 L682 62 L682 82 L622 82 L622 300 L621 302 L621 313 L616 313 L616 314 C616 314 616 314 615 313 L614 313 C615 312 598 296 436 70 L436 71 L436 71 Z M460 81 C485 116 537 188 576 240 C576 239 576 238 576 237 L576 81 L460 81 L460 81 Z " />
<glyph glyph-name="onehalf" unicode="&#xbd;" horiz-adv-x="764" d="M206 641 C206 642 206 643 206 644 L207 644 L206 641 L206 641 Z M232 670 L232 676 L183 676 L183 672 L134 672 L134 668 C147 668 155 661 158 649 L158 449 C158 433 148 423 132 423 L132 419 L158 419 L158 415 L204 415 L204 419 L231 419 L231 425 C217 429 206 434 205 452 L204 452 L204 644 L205 644 C206 662 217 667 231 671 L232 670 L232 670 Z M107 -13 L679 657 L655 677 L84 7 L107 -13 L107 -13 Z M671 88 C667 73 659 62 642 62 L527 62 C607 112 660 148 660 189 C660 233 624 265 575 265 C531 265 487 235 470 193 L476 190 C486 215 518 233 553 233 C586 233 610 209 610 176 C610 114 542 85 449 26 L449 16 L447 12 C449 13 451 14 453 15 L667 15 L669 38 L671 38 C673 52 675 73 676 87 L671 88 L671 88 Z M454 15 C460 19 466 23 472 27 C465 21 459 16 453 15 L454 15 Z " />
<glyph glyph-name="threequarters" unicode="&#xbe;" horiz-adv-x="764" d="M94 340 C212 346 298 395 298 457 C298 496 262 526 210 533 C256 557 285 586 285 611 C285 647 252 673 207 673 C167 673 119 646 92 609 L98 605 C112 625 149 640 185 640 C217 640 240 622 240 597 C240 575 220 552 189 535 L189 535 C177 528 163 522 148 518 L148 514 C147 514 146 514 145 514 L145 507 C193 526 254 503 254 459 C254 402 189 358 99 354 L100 346 L94 340 L94 340 Z M109 -13 L681 657 L657 677 L86 7 L109 -13 L109 -13 Z M455 60 L456 60 L454 59 C454 59 454 59 454 60 L455 60 L455 60 Z M443 68 L444 67 L444 60 L451 60 L451 59 L583 59 L583 7 L629 7 L629 59 L689 59 L689 79 L629 79 L629 297 L628 299 L628 310 L623 310 L623 311 C623 311 623 311 622 310 L621 310 C622 309 605 293 443 67 L443 68 L443 68 Z M467 78 C492 113 544 185 583 237 C583 236 583 235 583 234 L583 78 L467 78 L467 78 Z " />
<glyph glyph-name="questiondown" unicode="&#xbf;" horiz-adv-x="383" d="M199 466 C199 415 277 415 277 466 C277 517 199 517 199 466 L199 466 Z M224 173 L189 173 C64 173 35 97 35 57 C35 -72 127 -165 253 -165 C305 -165 342 -137 342 -99 C342 -90 330 -84 313 -84 C291 -84 258 -123 236 -123 C126 -123 47 -50 47 51 C47 79 77 132 207 132 L242 132 C249 132 254 135 254 140 L242 347 L234 347 L224 173 L224 173 Z " />
<glyph glyph-name="Agrave" unicode="&#xc0;" horiz-adv-x="616" d="M216 874 C216 870 234 848 259 820 C290 781 372 691 372 691 L378 696 C378 696 317 802 286 841 C266 873 250 896 247 896 C238 896 216 880 216 874 L216 874 Z M429 0 L608 0 L608 10 C580 10 560 25 544 59 L306 675 L291 675 L72 57 C58 27 34 14 4 10 L4 0 L148 0 L148 10 L137 11 C104 13 88 37 96 70 L154 236 L413 236 L477 64 C488 35 474 13 445 11 L429 10 L429 0 L429 0 Z M407 251 L159 251 L279 596 L407 251 L407 251 Z " />
<glyph glyph-name="Aacute" unicode="&#xc1;" horiz-adv-x="616" d="M236 691 C236 691 316 781 346 820 C370 849 388 871 388 874 C388 880 366 896 357 896 C355 896 339 873 319 841 C289 802 230 696 230 696 L236 691 Z M429 0 L608 0 L608 10 C580 10 560 25 544 59 L306 675 L291 675 L72 57 C58 27 34 14 4 10 L4 0 L148 0 L148 10 L137 11 C104 13 88 37 96 70 L154 236 L413 236 L477 64 C488 35 474 13 445 11 L429 10 L429 0 L429 0 Z M407 251 L159 251 L279 596 L407 251 L407 251 Z " />
<glyph glyph-name="Acircumflex" unicode="&#xc2;" horiz-adv-x="616" d="M316 889 C313 894 306 905 299 905 C290 905 283 894 281 890 C281 890 186 709 177 698 L183 693 C226 744 273 810 298 846 C335 793 414 693 414 693 L420 698 C420 698 361 796 316 889 L316 889 Z M429 0 L608 0 L608 10 C580 10 560 25 544 59 L306 675 L291 675 L72 57 C58 27 34 14 4 10 L4 0 L148 0 L148 10 L137 11 C104 13 88 37 96 70 L154 236 L413 236 L477 64 C488 35 474 13 445 11 L429 10 L429 0 L429 0 Z M407 251 L159 251 L279 596 L407 251 L407 251 Z " />
<glyph glyph-name="Atilde" unicode="&#xc3;" horiz-adv-x="616" d="M146 755 C146 793 167 821 195 821 C251 821 332 758 388 758 C430 758 460 799 460 855 L451 855 C451 820 430 795 400 795 C344 795 262 857 206 857 C166 857 137 814 137 755 L146 755 L146 755 Z M429 0 L608 0 L608 10 C580 10 560 25 544 59 L306 675 L291 675 L72 57 C58 27 34 14 4 10 L4 0 L148 0 L148 10 L137 11 C104 13 88 37 96 70 L154 236 L413 236 L477 64 C488 35 474 13 445 11 L429 10 L429 0 L429 0 Z M407 251 L159 251 L279 596 L407 251 L407 251 Z " />
<glyph glyph-name="Adieresis" unicode="&#xc4;" horiz-adv-x="616" d="M422 763 C422 806 356 806 356 763 C356 720 422 720 422 763 L422 763 Z M241 763 C241 806 175 806 175 763 C175 720 241 720 241 763 L241 763 Z M429 0 L608 0 L608 10 C580 10 560 25 544 59 L306 675 L291 675 L72 57 C58 27 34 14 4 10 L4 0 L148 0 L148 10 L137 11 C104 13 88 37 96 70 L154 236 L413 236 L477 64 C488 35 474 13 445 11 L429 10 L429 0 L429 0 Z M407 251 L159 251 L279 596 L407 251 L407 251 Z " />
<glyph glyph-name="Aring" unicode="&#xc5;" horiz-adv-x="616" d="M219 788 C219 834 253 868 299 868 C345 868 378 834 378 788 C378 746 340 707 299 707 C257 707 219 746 219 788 L219 788 Z M204 788 C204 739 249 695 299 695 C348 695 393 739 393 788 C393 841 354 880 299 880 C244 880 204 841 204 788 L204 788 Z M429 0 L608 0 L608 10 C580 10 560 25 544 59 L306 675 L291 675 L72 57 C58 27 34 14 4 10 L4 0 L148 0 L148 10 L137 11 C104 13 88 37 96 70 L154 236 L413 236 L477 64 C488 35 474 13 445 11 L429 10 L429 0 L429 0 Z M407 251 L159 251 L279 596 L407 251 L407 251 Z " />
<glyph glyph-name="Ccedilla" unicode="&#xc7;" horiz-adv-x="733" d="M673 504 L673 603 C611 639 498 665 405 665 C205 665 60 524 60 330 C60 138 202 -2 399 -5 C395 -13 379 -48 357 -93 L361 -95 C380 -86 409 -80 430 -80 C469 -80 498 -103 498 -135 C498 -175 465 -204 419 -204 C378 -204 340 -199 329 -191 L326 -196 C347 -210 391 -220 430 -220 C489 -220 531 -184 531 -135 C531 -97 494 -69 442 -69 C417 -69 385 -75 366 -84 C392 -33 411 -11 417 -5 C508 -3 614 22 673 56 L669 63 C669 63 672 57 672 56 L672 155 L663 155 C659 147 655 136 651 128 C626 73 560 26 493 16 C463 12 433 10 404 10 C243 10 126 144 126 330 C126 516 243 650 404 650 C446 650 492 645 535 636 C581 622 628 580 650 532 C654 524 658 513 662 505 L673 504 L673 504 Z " />
<glyph glyph-name="Egrave" unicode="&#xc8;" horiz-adv-x="550" d="M172 874 C172 870 190 848 215 820 C246 781 328 691 328 691 L334 696 C334 696 273 802 242 841 C222 873 206 896 203 896 C194 896 172 880 172 874 L172 874 Z M394 286 L394 412 L386 412 L382 404 C371 378 334 360 296 360 L152 360 L152 645 L328 645 C374 645 422 612 442 567 L449 552 L456 552 L456 660 L40 660 L40 650 L48 649 C74 647 92 625 92 596 L92 64 C92 35 74 13 48 11 L40 10 L40 0 L461 0 L462 7 L463 7 C468 36 476 79 481 108 L474 108 L464 93 C436 48 382 15 336 15 L152 15 L152 344 L296 344 C334 344 370 323 382 294 L386 286 L394 286 L394 286 Z " />
<glyph glyph-name="Eacute" unicode="&#xc9;" horiz-adv-x="550" d="M239 691 C239 691 319 781 349 820 C373 849 391 871 391 874 C391 880 369 896 360 896 C358 896 342 873 322 841 C292 802 233 696 233 696 L239 691 Z M394 286 L394 412 L386 412 L382 404 C371 378 334 360 296 360 L152 360 L152 645 L328 645 C374 645 422 612 442 567 L449 552 L456 552 L456 660 L40 660 L40 650 L48 649 C74 647 92 625 92 596 L92 64 C92 35 74 13 48 11 L40 10 L40 0 L461 0 L462 7 L463 7 C468 36 476 79 481 108 L474 108 L464 93 C436 48 382 15 336 15 L152 15 L152 344 L296 344 C334 344 370 323 382 294 L386 286 L394 286 L394 286 Z " />
<glyph glyph-name="Ecircumflex" unicode="&#xca;" horiz-adv-x="550" d="M288 889 C285 894 278 905 271 905 C262 905 255 894 253 890 C253 890 158 709 149 698 L155 693 C198 744 245 810 270 846 C307 793 386 693 386 693 L392 698 C392 698 333 796 288 889 L288 889 Z M394 286 L394 412 L386 412 L382 404 C371 378 334 360 296 360 L152 360 L152 645 L328 645 C374 645 422 612 442 567 L449 552 L456 552 L456 660 L40 660 L40 650 L48 649 C74 647 92 625 92 596 L92 64 C92 35 74 13 48 11 L40 10 L40 0 L461 0 L462 7 L463 7 C468 36 476 79 481 108 L474 108 L464 93 C436 48 382 15 336 15 L152 15 L152 344 L296 344 C334 344 370 323 382 294 L386 286 L394 286 L394 286 Z " />
<glyph glyph-name="Edieresis" unicode="&#xcb;" horiz-adv-x="550" d="M394 763 C394 806 328 806 328 763 C328 720 394 720 394 763 L394 763 Z M213 763 C213 806 147 806 147 763 C147 720 213 720 213 763 L213 763 Z M394 286 L394 412 L386 412 L382 404 C371 378 334 360 296 360 L152 360 L152 645 L328 645 C374 645 422 612 442 567 L449 552 L456 552 L456 660 L40 660 L40 650 L48 649 C74 647 92 625 92 596 L92 64 C92 35 74 13 48 11 L40 10 L40 0 L461 0 L462 7 L463 7 C468 36 476 79 481 108 L474 108 L464 93 C436 48 382 15 336 15 L152 15 L152 344 L296 344 C334 344 370 323 382 294 L386 286 L394 286 L394 286 Z " />
<glyph glyph-name="Igrave" unicode="&#xcc;" horiz-adv-x="243" d="M40 874 C40 869 58 847 82 820 C113 781 195 691 195 691 L202 696 C202 696 141 802 110 841 C90 873 74 896 71 896 C62 896 40 880 40 874 L40 874 Z M204 10 L196 11 C170 13 152 35 152 64 L152 596 C152 625 170 647 196 649 L204 650 L204 660 L40 660 L40 650 L48 649 C74 647 92 625 92 596 L92 64 C92 35 74 13 48 11 L40 10 L40 0 L204 0 L204 10 L204 10 Z " />
<glyph glyph-name="Iacute" unicode="&#xcd;" horiz-adv-x="243" d="M61 691 C61 691 141 781 171 820 C195 848 212 871 212 874 C212 880 190 896 181 896 C179 896 163 873 143 841 C113 802 54 696 54 696 L61 691 Z M204 10 L196 11 C170 13 152 35 152 64 L152 596 C152 625 170 647 196 649 L204 650 L204 660 L40 660 L40 650 L48 649 C74 647 92 625 92 596 L92 64 C92 35 74 13 48 11 L40 10 L40 0 L204 0 L204 10 L204 10 Z " />
<glyph glyph-name="Icircumflex" unicode="&#xce;" horiz-adv-x="243" d="M139 889 C136 894 129 905 122 905 C114 905 107 894 105 890 C105 890 10 709 1 698 L6 693 C49 745 97 812 122 848 C159 795 239 694 239 694 L244 699 C244 699 185 797 140 890 L139 889 L139 889 Z M205 11 L197 12 C171 14 153 36 153 65 L153 597 C153 626 171 648 197 650 L205 651 L205 661 L41 661 L41 651 L49 650 C75 648 93 626 93 597 L93 65 C93 36 75 14 49 12 L41 11 L41 1 L205 1 L205 11 L205 11 Z " />
<glyph glyph-name="Idieresis" unicode="&#xcf;" horiz-adv-x="243" d="M245 763 C245 806 179 806 179 763 C179 720 245 720 245 763 L245 763 Z M65 763 C65 806 -1 806 -1 763 C-1 720 65 720 65 763 L65 763 Z M204 10 L196 11 C170 13 152 35 152 64 L152 596 C152 625 170 647 196 649 L204 650 L204 660 L40 660 L40 650 L48 649 C74 647 92 625 92 596 L92 64 C92 35 74 13 48 11 L40 10 L40 0 L204 0 L204 10 L204 10 Z " />
<glyph glyph-name="Ntilde" unicode="&#xd1;" horiz-adv-x="668" d="M184 755 C184 793 205 821 233 821 C289 821 370 758 426 758 C468 758 499 799 499 855 L490 855 C490 820 468 795 438 795 C382 795 301 857 245 857 C204 857 175 814 175 755 L184 755 L184 755 Z M42 650 L50 649 C76 647 94 625 94 596 L94 64 C94 35 76 13 50 11 L42 10 L42 0 L164 0 L164 10 L156 11 C130 13 112 35 112 64 L112 608 C262 401 412 195 561 -12 L580 -12 L580 596 C580 625 598 647 624 649 L632 650 L632 660 L510 660 L510 650 L518 649 C544 647 562 625 562 596 L562 87 L148 660 L42 660 L42 650 L42 650 Z " />
<glyph glyph-name="Ograve" unicode="&#xd2;" horiz-adv-x="774" d="M127 330 C127 497 223 650 392 650 C562 650 658 497 658 330 C658 163 562 10 392 10 C223 10 127 163 127 330 L127 330 Z M60 330 C60 155 180 -5 392 -5 C604 -5 724 155 724 330 C724 505 604 665 392 665 C180 665 60 505 60 330 L60 330 Z M310 874 C310 869 328 847 352 820 C383 781 465 691 465 691 L472 696 C472 696 411 802 380 841 C360 873 344 896 341 896 C332 896 310 880 310 874 L310 874 Z " />
<glyph glyph-name="Oacute" unicode="&#xd3;" horiz-adv-x="774" d="M368 691 C368 691 448 781 478 820 C502 848 519 871 519 874 C519 880 497 896 488 896 C486 896 470 873 450 841 C420 802 361 696 361 696 L368 691 Z M127 330 C127 497 223 650 392 650 C562 650 658 497 658 330 C658 163 562 10 392 10 C223 10 127 163 127 330 L127 330 Z M60 330 C60 155 180 -5 392 -5 C604 -5 724 155 724 330 C724 505 604 665 392 665 C180 665 60 505 60 330 L60 330 Z " />
<glyph glyph-name="Ocircumflex" unicode="&#xd4;" horiz-adv-x="774" d="M127 330 C127 497 223 650 392 650 C562 650 658 497 658 330 C658 163 562 10 392 10 C223 10 127 163 127 330 L127 330 Z M60 330 C60 155 180 -5 392 -5 C604 -5 724 155 724 330 C724 505 604 665 392 665 C180 665 60 505 60 330 L60 330 Z M409 889 C406 894 399 905 392 905 C384 905 377 894 375 890 C375 890 280 709 271 698 L276 693 C319 745 367 812 392 848 C429 795 509 694 509 694 L514 699 C514 699 455 797 410 890 L409 889 L409 889 Z " />
<glyph glyph-name="Otilde" unicode="&#xd5;" horiz-adv-x="774" d="M239 755 C239 793 260 821 288 821 C344 821 425 758 481 758 C523 758 554 799 554 855 L545 855 C545 820 523 795 493 795 C437 795 356 857 300 857 C259 857 230 814 230 755 L239 755 L239 755 Z M127 330 C127 497 223 650 392 650 C562 650 658 497 658 330 C658 163 562 10 392 10 C223 10 127 163 127 330 L127 330 Z M60 330 C60 155 180 -5 392 -5 C604 -5 724 155 724 330 C724 505 604 665 392 665 C180 665 60 505 60 330 L60 330 Z " />
<glyph glyph-name="Odieresis" unicode="&#xd6;" horiz-adv-x="774" d="M515 763 C515 806 449 806 449 763 C449 720 515 720 515 763 L515 763 Z M335 763 C335 806 269 806 269 763 C269 720 335 720 335 763 L335 763 Z M127 330 C127 497 223 650 392 650 C562 650 658 497 658 330 C658 163 562 10 392 10 C223 10 127 163 127 330 L127 330 Z M60 330 C60 155 180 -5 392 -5 C604 -5 724 155 724 330 C724 505 604 665 392 665 C180 665 60 505 60 330 L60 330 Z " />
<glyph glyph-name="Oslash" unicode="&#xd8;" horiz-adv-x="774" d="M70 -15 L164 80 C220 28 297 -5 393 -5 C605 -5 725 155 725 330 C725 416 696 499 641 561 L735 656 L715 676 L621 581 C565 633 488 666 392 666 C180 666 60 506 60 331 C60 245 89 162 144 100 L50 5 L70 -15 L70 -15 Z M590 550 L178 134 C145 189 127 258 127 329 C127 496 223 649 392 649 C478 649 545 610 590 550 L590 550 Z M606 526 C640 470 658 401 658 329 C658 162 562 9 392 9 C306 9 239 48 194 109 L606 526 Z " />
<glyph glyph-name="Ugrave" unicode="&#xd9;" horiz-adv-x="652" d="M251 874 C251 869 269 847 293 820 C324 781 406 691 406 691 L413 696 C413 696 352 802 321 841 C301 873 285 896 282 896 C273 896 251 880 251 874 L251 874 Z M632 660 L494 660 L494 650 L503 649 C534 647 556 622 556 588 L556 186 C556 87 492 16 347 16 C211 16 152 92 152 198 L152 596 C152 625 170 647 196 649 L204 650 L204 660 L40 660 L40 650 L48 649 C74 647 92 625 92 596 L92 210 C92 85 167 -5 338 -5 C502 -5 574 73 574 180 L574 588 C574 622 595 647 624 649 L632 650 L632 660 L632 660 Z " />
<glyph glyph-name="Uacute" unicode="&#xda;" horiz-adv-x="652" d="M332 691 C332 691 412 781 442 820 C466 848 483 871 483 874 C483 880 461 896 452 896 C450 896 434 873 414 841 C384 802 325 696 325 696 L332 691 Z M632 660 L494 660 L494 650 L503 649 C534 647 556 622 556 588 L556 186 C556 87 492 16 347 16 C211 16 152 92 152 198 L152 596 C152 625 170 647 196 649 L204 650 L204 660 L40 660 L40 650 L48 649 C74 647 92 625 92 596 L92 210 C92 85 167 -5 338 -5 C502 -5 574 73 574 180 L574 588 C574 622 595 647 624 649 L632 650 L632 660 L632 660 Z " />
<glyph glyph-name="Ucircumflex" unicode="&#xdb;" horiz-adv-x="652" d="M350 889 C347 894 340 905 333 905 C325 905 318 894 316 890 C316 890 221 709 212 698 L217 693 C260 745 308 812 333 848 C370 795 450 694 450 694 L455 699 C455 699 396 797 351 890 L350 889 L350 889 Z M633 661 L495 661 L495 651 L504 650 C535 648 557 623 557 589 L557 187 C557 88 493 17 348 17 C212 17 153 93 153 199 L153 597 C153 626 171 648 197 650 L205 651 L205 661 L41 661 L41 651 L49 650 C75 648 93 626 93 597 L93 211 C93 86 168 -4 339 -4 C503 -4 575 74 575 181 L575 589 C575 623 596 648 625 650 L633 651 L633 661 L633 661 Z " />
<glyph glyph-name="Udieresis" unicode="&#xdc;" horiz-adv-x="652" d="M456 763 C456 806 390 806 390 763 C390 720 456 720 456 763 L456 763 Z M276 763 C276 806 210 806 210 763 C210 720 276 720 276 763 L276 763 Z M632 660 L494 660 L494 650 L503 649 C534 647 556 622 556 588 L556 186 C556 87 492 16 347 16 C211 16 152 92 152 198 L152 596 C152 625 170 647 196 649 L204 650 L204 660 L40 660 L40 650 L48 649 C74 647 92 625 92 596 L92 210 C92 85 167 -5 338 -5 C502 -5 574 73 574 180 L574 588 C574 622 595 647 624 649 L632 650 L632 660 L632 660 Z " />
<glyph glyph-name="Yacute" unicode="&#xdd;" horiz-adv-x="591" d="M302 691 C302 691 382 781 412 820 C436 848 453 871 453 874 C453 880 431 896 422 896 C420 896 404 873 384 841 C354 802 295 696 295 696 L302 691 Z M187 660 L21 660 L21 650 C46 646 70 629 88 596 L88 596 L273 261 L272 64 C272 35 254 13 228 11 L220 10 L220 0 L385 0 L385 10 L377 11 C351 13 333 35 333 64 L333 288 L519 604 C539 634 563 647 591 651 L591 661 L458 661 L458 651 L469 650 C502 648 509 619 487 581 L488 581 L323 297 L160 597 C145 626 152 648 179 650 L187 651 L187 660 L187 660 Z " />
<glyph glyph-name="agrave" unicode="&#xe0;" horiz-adv-x="500" d="M478 38 C465 25 449 16 427 16 C398 16 388 41 388 75 L388 359 C388 444 333 505 258 505 C157 505 75 463 64 405 L119 405 C129 454 182 490 246 490 C295 490 331 440 331 371 L331 252 C297 249 242 243 210 235 C109 210 36 154 36 102 C36 40 87 -5 157 -5 C216 -5 284 23 331 65 C332 21 347 -10 390 -10 C431 -10 462 7 485 30 L478 38 L478 38 Z M144 714 C144 709 162 687 186 660 C217 621 299 531 299 531 L306 536 C306 536 245 642 214 681 C194 713 178 736 175 736 C166 736 144 720 144 714 L144 714 Z M331 239 L331 76 C293 48 237 30 184 30 C129 30 89 66 89 116 C89 157 140 200 210 217 C249 227 300 235 331 239 L331 239 Z " />
<glyph glyph-name="aacute" unicode="&#xe1;" horiz-adv-x="500" d="M195 531 C195 531 275 621 305 660 C329 688 346 711 346 714 C346 720 324 736 315 736 C313 736 297 713 277 681 C247 642 188 536 188 536 L195 531 Z M478 38 C465 25 449 16 427 16 C398 16 388 41 388 75 L388 359 C388 444 333 505 258 505 C157 505 75 463 64 405 L119 405 C129 454 182 490 246 490 C295 490 331 440 331 371 L331 252 C297 249 242 243 210 235 C109 210 36 154 36 102 C36 40 87 -5 157 -5 C216 -5 284 23 331 65 C332 21 347 -10 390 -10 C431 -10 462 7 485 30 L478 38 L478 38 Z M331 239 L331 76 C293 48 237 30 184 30 C129 30 89 66 89 116 C89 157 140 200 210 217 C249 227 300 235 331 239 L331 239 Z " />
<glyph glyph-name="acircumflex" unicode="&#xe2;" horiz-adv-x="500" d="M478 38 C465 25 449 16 427 16 C398 16 388 41 388 75 L388 359 C388 444 333 505 258 505 C157 505 75 463 64 405 L119 405 C129 454 182 490 246 490 C295 490 331 440 331 371 L331 252 C297 249 242 243 210 235 C109 210 36 154 36 102 C36 40 87 -5 157 -5 C216 -5 284 23 331 65 C332 21 347 -10 390 -10 C431 -10 462 7 485 30 L478 38 L478 38 Z M243 729 C240 734 233 745 226 745 C218 745 211 734 209 730 C209 730 114 549 105 538 L110 533 C153 585 201 652 226 688 C263 635 343 534 343 534 L348 539 C348 539 289 637 244 730 L243 729 L243 729 Z M332 240 L332 77 C294 49 238 31 185 31 C130 31 90 67 90 117 C90 158 141 201 211 218 C250 228 301 236 332 240 L332 240 Z " />
<glyph glyph-name="atilde" unicode="&#xe3;" horiz-adv-x="500" d="M73 595 C73 633 94 661 122 661 C178 661 259 598 315 598 C357 598 388 639 388 695 L379 695 C379 660 357 635 327 635 C271 635 190 697 134 697 C93 697 64 654 64 595 L73 595 L73 595 Z M478 38 C465 25 449 16 427 16 C398 16 388 41 388 75 L388 359 C388 444 333 505 258 505 C157 505 75 463 64 405 L119 405 C129 454 182 490 246 490 C295 490 331 440 331 371 L331 252 C297 249 242 243 210 235 C109 210 36 154 36 102 C36 40 87 -5 157 -5 C216 -5 284 23 331 65 C332 21 347 -10 390 -10 C431 -10 462 7 485 30 L478 38 L478 38 Z M331 239 L331 76 C293 48 237 30 184 30 C129 30 89 66 89 116 C89 157 140 200 210 217 C249 227 300 235 331 239 L331 239 Z " />
<glyph glyph-name="adieresis" unicode="&#xe4;" horiz-adv-x="500" d="M349 603 C349 646 283 646 283 603 C283 560 349 560 349 603 L349 603 Z M169 603 C169 646 103 646 103 603 C103 560 169 560 169 603 L169 603 Z M478 38 C465 25 449 16 427 16 C398 16 388 41 388 75 L388 359 C388 444 333 505 258 505 C157 505 75 463 64 405 L119 405 C129 454 182 490 246 490 C295 490 331 440 331 371 L331 252 C297 249 242 243 210 235 C109 210 36 154 36 102 C36 40 87 -5 157 -5 C216 -5 284 23 331 65 C332 21 347 -10 390 -10 C431 -10 462 7 485 30 L478 38 L478 38 Z M331 239 L331 76 C293 48 237 30 184 30 C129 30 89 66 89 116 C89 157 140 200 210 217 C249 227 300 235 331 239 L331 239 Z " />
<glyph glyph-name="aring" unicode="&#xe5;" horiz-adv-x="500" d="M147 628 C147 674 180 708 226 708 C272 708 305 674 305 628 C305 586 267 547 226 547 C185 547 147 586 147 628 L147 628 Z M132 628 C132 579 177 535 226 535 C275 535 320 579 320 628 C320 681 281 720 226 720 C171 720 132 681 132 628 L132 628 Z M478 38 C465 25 449 16 427 16 C398 16 388 41 388 75 L388 359 C388 444 333 505 258 505 C157 505 75 463 64 405 L119 405 C129 454 182 490 246 490 C295 490 331 440 331 371 L331 252 C297 249 242 243 210 235 C109 210 36 154 36 102 C36 40 87 -5 157 -5 C216 -5 284 23 331 65 C332 21 347 -10 390 -10 C431 -10 462 7 485 30 L478 38 L478 38 Z M331 239 L331 76 C293 48 237 30 184 30 C129 30 89 66 89 116 C89 157 140 200 210 217 C249 227 300 235 331 239 L331 239 Z " />
<glyph glyph-name="ccedilla" unicode="&#xe7;" horiz-adv-x="494" d="M208 -84 C234 -33 253 -11 259 -5 C336 -3 412 16 443 43 L438 49 C423 37 362 28 292 28 C185 28 108 124 108 256 C108 392 189 490 302 490 C351 490 390 454 394 404 C396 372 445 367 445 401 C440 461 382 505 308 505 C159 505 51 392 51 235 C51 98 130 -2 241 -5 C237 -13 221 -48 199 -93 L203 -95 C222 -86 251 -80 272 -80 C311 -80 340 -103 340 -135 C340 -175 307 -204 261 -204 C220 -204 182 -199 171 -191 L168 -196 C189 -210 233 -220 272 -220 C331 -220 373 -184 373 -135 C373 -97 336 -69 284 -69 C259 -69 227 -75 208 -84 L208 -84 Z " />
<glyph glyph-name="egrave" unicode="&#xe8;" horiz-adv-x="501" d="M449 43 L444 49 C429 37 367 28 295 28 C165 28 83 165 113 323 L451 323 C451 429 377 505 274 505 C144 505 50 392 50 235 C50 96 134 -5 250 -5 C332 -5 416 15 449 43 L449 43 Z M192 714 C192 709 210 687 234 660 C265 621 347 531 347 531 L354 536 C354 536 293 642 262 681 C242 713 226 736 223 736 C214 736 192 720 192 714 L192 714 Z M400 369 C400 355 390 344 376 342 L115 333 C136 427 195 489 271 489 C346 489 400 438 400 368 L400 369 L400 369 Z " />
<glyph glyph-name="eacute" unicode="&#xe9;" horiz-adv-x="501" d="M243 531 C243 531 323 621 353 660 C377 688 394 711 394 714 C394 720 372 736 363 736 C361 736 345 713 325 681 C295 642 236 536 236 536 L243 531 Z M449 43 L444 49 C429 37 367 28 295 28 C165 28 83 165 113 323 L451 323 C451 429 377 505 274 505 C144 505 50 392 50 235 C50 96 134 -5 250 -5 C332 -5 416 15 449 43 L449 43 Z M400 369 C400 355 390 344 376 342 L115 333 C136 427 195 489 271 489 C346 489 400 438 400 368 L400 369 L400 369 Z " />
<glyph glyph-name="ecircumflex" unicode="&#xea;" horiz-adv-x="501" d="M449 43 L444 49 C429 37 367 28 295 28 C165 28 83 165 113 323 L451 323 C451 429 377 505 274 505 C144 505 50 392 50 235 C50 96 134 -5 250 -5 C332 -5 416 15 449 43 L449 43 Z M291 729 C288 734 281 745 274 745 C266 745 259 734 257 730 C257 730 162 549 153 538 L158 533 C201 585 249 652 274 688 C311 635 391 534 391 534 L396 539 C396 539 337 637 292 730 L291 729 L291 729 Z M401 370 C401 356 391 345 377 343 L116 334 C137 428 196 490 272 490 C347 490 401 439 401 369 L401 370 L401 370 Z " />
<glyph glyph-name="edieresis" unicode="&#xeb;" horiz-adv-x="501" d="M397 603 C397 646 331 646 331 603 C331 560 397 560 397 603 L397 603 Z M217 603 C217 646 151 646 151 603 C151 560 217 560 217 603 L217 603 Z M449 43 L444 49 C429 37 367 28 295 28 C165 28 83 165 113 323 L451 323 C451 429 377 505 274 505 C144 505 50 392 50 235 C50 96 134 -5 250 -5 C332 -5 416 15 449 43 L449 43 Z M400 369 C400 355 390 344 376 342 L115 333 C136 427 195 489 271 489 C346 489 400 438 400 368 L400 369 L400 369 Z " />
<glyph glyph-name="igrave" unicode="&#xec;" horiz-adv-x="247" d="M42 714 C42 709 60 687 84 660 C115 621 197 531 197 531 L204 536 C204 536 143 642 112 681 C92 713 76 736 73 736 C64 736 42 720 42 714 L42 714 Z M203 10 L195 11 C169 13 151 35 151 64 L151 500 L140 500 L45 472 L45 466 C85 451 97 440 97 393 L97 63 C97 34 79 12 53 10 L45 9 L45 -1 L203 -1 L203 10 L203 10 Z " />
<glyph glyph-name="iacute" unicode="&#xed;" horiz-adv-x="247" d="M48 531 C48 531 128 621 158 660 C182 688 199 711 199 714 C199 720 177 736 168 736 C166 736 150 713 130 681 C100 642 41 536 41 536 L48 531 Z M203 10 L195 11 C169 13 151 35 151 64 L151 500 L140 500 L45 472 L45 466 C85 451 97 440 97 393 L97 63 C97 34 79 12 53 10 L45 9 L45 -1 L203 -1 L203 10 L203 10 Z " />
<glyph glyph-name="icircumflex" unicode="&#xee;" horiz-adv-x="247" d="M141 729 C138 734 131 745 124 745 C116 745 109 734 107 730 C107 730 12 549 3 538 L8 533 C51 585 99 652 124 688 C161 635 241 534 241 534 L246 539 C246 539 187 637 142 730 L141 729 L141 729 Z M204 11 L196 12 C170 14 152 36 152 65 L152 501 L141 501 L46 473 L46 467 C86 452 98 441 98 394 L98 64 C98 35 80 13 54 11 L46 10 L46 0 L204 0 L204 11 L204 11 Z " />
<glyph glyph-name="idieresis" unicode="&#xef;" horiz-adv-x="247" d="M247 603 C247 646 181 646 181 603 C181 560 247 560 247 603 L247 603 Z M67 603 C67 646 1 646 1 603 C1 560 67 560 67 603 L67 603 Z M203 10 L195 11 C169 13 151 35 151 64 L151 500 L140 500 L45 472 L45 466 C85 451 97 440 97 393 L97 63 C97 34 79 12 53 10 L45 9 L45 -1 L203 -1 L203 10 L203 10 Z " />
<glyph glyph-name="ntilde" unicode="&#xf1;" horiz-adv-x="589" d="M144 595 C144 633 165 661 193 661 C249 661 330 598 386 598 C428 598 459 639 459 695 L450 695 C450 660 428 635 398 635 C342 635 261 697 205 697 C164 697 135 654 135 595 L144 595 L144 595 Z M392 0 L550 0 L550 10 L542 11 C516 13 498 35 498 64 L498 336 C498 434 458 505 367 505 C317 505 227 476 149 436 L149 500 L138 500 L43 472 L43 466 C83 451 95 440 95 393 L95 63 C95 34 77 12 51 10 L43 9 L43 -1 L201 -1 L201 9 L193 10 C167 12 149 34 149 63 L149 429 C195 451 267 468 324 468 C407 468 443 410 443 330 L443 63 C443 34 425 12 399 10 L391 9 L392 0 L392 0 Z " />
<glyph glyph-name="ograve" unicode="&#xf2;" horiz-adv-x="606" d="M110 250 C110 391 191 493 303 493 C415 493 496 391 496 250 C496 109 415 7 303 7 C191 7 110 109 110 250 L110 250 Z M50 250 C50 102 156 -5 303 -5 C450 -5 556 102 556 250 C556 398 450 505 303 505 C156 505 50 398 50 250 L50 250 Z M221 714 C221 709 239 687 263 660 C294 621 376 531 376 531 L383 536 C383 536 322 642 291 681 C271 713 255 736 252 736 C243 736 221 720 221 714 L221 714 Z " />
<glyph glyph-name="oacute" unicode="&#xf3;" horiz-adv-x="606" d="M272 531 C272 531 352 621 382 660 C406 688 423 711 423 714 C423 720 401 736 392 736 C390 736 374 713 354 681 C324 642 265 536 265 536 L272 531 Z M110 250 C110 391 191 493 303 493 C415 493 496 391 496 250 C496 109 415 7 303 7 C191 7 110 109 110 250 L110 250 Z M50 250 C50 102 156 -5 303 -5 C450 -5 556 102 556 250 C556 398 450 505 303 505 C156 505 50 398 50 250 L50 250 Z " />
<glyph glyph-name="ocircumflex" unicode="&#xf4;" horiz-adv-x="606" d="M110 250 C110 391 191 493 303 493 C415 493 496 391 496 250 C496 109 415 7 303 7 C191 7 110 109 110 250 L110 250 Z M50 250 C50 102 156 -5 303 -5 C450 -5 556 102 556 250 C556 398 450 505 303 505 C156 505 50 398 50 250 L50 250 Z M320 729 C317 734 310 745 303 745 C295 745 288 734 286 730 C286 730 191 549 182 538 L187 533 C230 585 278 652 303 688 C340 635 420 534 420 534 L425 539 C425 539 366 637 321 730 L320 729 L320 729 Z " />
<glyph glyph-name="otilde" unicode="&#xf5;" horiz-adv-x="606" d="M150 595 C150 633 171 661 199 661 C255 661 336 598 392 598 C434 598 465 639 465 695 L456 695 C456 660 434 635 404 635 C348 635 267 697 211 697 C170 697 141 654 141 595 L150 595 L150 595 Z M110 250 C110 391 191 493 303 493 C415 493 496 391 496 250 C496 109 415 7 303 7 C191 7 110 109 110 250 L110 250 Z M50 250 C50 102 156 -5 303 -5 C450 -5 556 102 556 250 C556 398 450 505 303 505 C156 505 50 398 50 250 L50 250 Z " />
<glyph glyph-name="odieresis" unicode="&#xf6;" horiz-adv-x="606" d="M426 603 C426 646 360 646 360 603 C360 560 426 560 426 603 L426 603 Z M246 603 C246 646 180 646 180 603 C180 560 246 560 246 603 L246 603 Z M110 250 C110 391 191 493 303 493 C415 493 496 391 496 250 C496 109 415 7 303 7 C191 7 110 109 110 250 L110 250 Z M50 250 C50 102 156 -5 303 -5 C450 -5 556 102 556 250 C556 398 450 505 303 505 C156 505 50 398 50 250 L50 250 Z " />
<glyph glyph-name="oslash" unicode="&#xf8;" horiz-adv-x="606" d="M56 -11 L127 61 C171 19 232 -5 302 -5 C449 -5 555 102 555 250 C555 321 531 382 490 427 L562 499 L550 511 L479 439 C435 481 374 505 304 505 C157 505 51 398 51 250 C51 179 75 118 116 73 L44 1 L56 -11 L56 -11 Z M451 411 L146 103 C123 143 110 193 110 249 C110 390 191 492 303 492 C364 492 416 461 451 410 L451 411 L451 411 Z M460 395 C483 355 496 305 496 249 C496 108 415 6 303 6 C242 6 190 37 155 88 L460 395 Z " />
<glyph glyph-name="ugrave" unicode="&#xf9;" horiz-adv-x="554" d="M185 714 C185 709 203 687 227 660 C258 621 340 531 340 531 L347 536 C347 536 286 642 255 681 C235 713 219 736 216 736 C207 736 185 720 185 714 L185 714 Z M14 490 L22 489 C48 487 66 465 66 436 L66 156 C66 63 123 -5 224 -5 C307 -5 372 21 414 58 L414 0 L425 0 L520 28 L520 34 C480 49 468 60 468 107 L468 501 L362 501 L362 491 L370 490 C396 488 414 466 414 437 L414 67 C391 46 342 31 266 31 C173 31 120 86 120 161 L120 500 L14 500 L14 490 L14 490 Z " />
<glyph glyph-name="uacute" unicode="&#xfa;" horiz-adv-x="554" d="M236 531 C236 531 316 621 346 660 C370 688 387 711 387 714 C387 720 365 736 356 736 C354 736 338 713 318 681 C288 642 229 536 229 536 L236 531 Z M14 490 L22 489 C48 487 66 465 66 436 L66 156 C66 63 123 -5 224 -5 C307 -5 372 21 414 58 L414 0 L425 0 L520 28 L520 34 C480 49 468 60 468 107 L468 501 L362 501 L362 491 L370 490 C396 488 414 466 414 437 L414 67 C391 46 342 31 266 31 C173 31 120 86 120 161 L120 500 L14 500 L14 490 L14 490 Z " />
<glyph glyph-name="ucircumflex" unicode="&#xfb;" horiz-adv-x="554" d="M284 729 C281 734 274 745 267 745 C259 745 252 734 250 730 C250 730 155 549 146 538 L151 533 C194 585 242 652 267 688 C304 635 384 534 384 534 L389 539 C389 539 330 637 285 730 L284 729 L284 729 Z M15 491 L23 490 C49 488 67 466 67 437 L67 157 C67 64 124 -4 225 -4 C308 -4 373 22 415 59 L415 1 L426 1 L521 29 L521 35 C481 50 469 61 469 108 L469 502 L363 502 L363 492 L371 491 C397 489 415 467 415 438 L415 68 C392 47 343 32 267 32 C174 32 121 87 121 162 L121 501 L15 501 L15 491 L15 491 Z " />
<glyph glyph-name="udieresis" unicode="&#xfc;" horiz-adv-x="554" d="M390 603 C390 646 324 646 324 603 C324 560 390 560 390 603 L390 603 Z M210 603 C210 646 144 646 144 603 C144 560 210 560 210 603 L210 603 Z M14 490 L22 489 C48 487 66 465 66 436 L66 156 C66 63 123 -5 224 -5 C307 -5 372 21 414 58 L414 0 L425 0 L520 28 L520 34 C480 49 468 60 468 107 L468 501 L362 501 L362 491 L370 490 C396 488 414 466 414 437 L414 67 C391 46 342 31 266 31 C173 31 120 86 120 161 L120 500 L14 500 L14 490 L14 490 Z " />
<glyph glyph-name="ydieresis" unicode="&#xff;" horiz-adv-x="447" d="M376 603 C376 646 310 646 310 603 C310 560 376 560 376 603 L376 603 Z M195 603 C195 646 129 646 129 603 C129 560 195 560 195 603 L195 603 Z M506 490 L506 500 L388 500 L388 490 L395 489 C417 487 426 467 417 440 L273 56 L133 436 C123 464 131 487 154 489 L161 490 L161 500 L-1 500 L-1 490 L7 489 C33 487 61 465 72 436 L245 -2 C240 -14 229 -39 219 -67 C184 -155 153 -194 118 -194 C118 -194 69 -170 49 -170 C33 -170 21 -180 21 -193 C21 -214 48 -230 85 -230 C145 -230 191 -182 234 -72 C246 -37 258 -10 258 -10 C317 139 375 288 434 436 C447 470 475 486 507 490 L506 490 L506 490 Z " />
<glyph glyph-name="Amacron" unicode="&#x100;" horiz-adv-x="616" d="M141 769 L456 769 L456 800 L141 800 L141 769 L141 769 Z M429 0 L608 0 L608 10 C580 10 560 25 544 59 L306 675 L291 675 L72 57 C58 27 34 14 4 10 L4 0 L148 0 L148 10 L137 11 C104 13 88 37 96 70 L154 236 L413 236 L477 64 C488 35 474 13 445 11 L429 10 L429 0 L429 0 Z M407 251 L159 251 L279 596 L407 251 L407 251 Z " />
<glyph glyph-name="amacron" unicode="&#x101;" horiz-adv-x="500" d="M68 609 L384 609 L384 640 L68 640 L68 609 L68 609 Z M478 38 C465 25 449 16 427 16 C398 16 388 41 388 75 L388 359 C388 444 333 505 258 505 C157 505 75 463 64 405 L119 405 C129 454 182 490 246 490 C295 490 331 440 331 371 L331 252 C297 249 242 243 210 235 C109 210 36 154 36 102 C36 40 87 -5 157 -5 C216 -5 284 23 331 65 C332 21 347 -10 390 -10 C431 -10 462 7 485 30 L478 38 L478 38 Z M331 239 L331 76 C293 48 237 30 184 30 C129 30 89 66 89 116 C89 157 140 200 210 217 C249 227 300 235 331 239 L331 239 Z " />
<glyph glyph-name="Abreve" unicode="&#x102;" horiz-adv-x="616" d="M174 872 C186 811 238 766 299 766 C359 766 410 810 422 871 L413 873 C405 832 357 802 299 802 C240 802 192 832 184 873 L174 872 L174 872 Z M429 0 L608 0 L608 10 C580 10 560 25 544 59 L306 675 L291 675 L72 57 C58 27 34 14 4 10 L4 0 L148 0 L148 10 L137 11 C104 13 88 37 96 70 L154 236 L413 236 L477 64 C488 35 474 13 445 11 L429 10 L429 0 L429 0 Z M407 251 L159 251 L279 596 L407 251 L407 251 Z " />
<glyph glyph-name="abreve" unicode="&#x103;" horiz-adv-x="500" d="M102 682 C114 621 166 576 226 576 C286 576 338 620 350 681 L341 683 C333 642 285 612 226 612 C167 612 119 642 111 683 L102 682 L102 682 Z M478 38 C465 25 449 16 427 16 C398 16 388 41 388 75 L388 359 C388 444 333 505 258 505 C157 505 75 463 64 405 L119 405 C129 454 182 490 246 490 C295 490 331 440 331 371 L331 252 C297 249 242 243 210 235 C109 210 36 154 36 102 C36 40 87 -5 157 -5 C216 -5 284 23 331 65 C332 21 347 -10 390 -10 C431 -10 462 7 485 30 L478 38 L478 38 Z M331 239 L331 76 C293 48 237 30 184 30 C129 30 89 66 89 116 C89 157 140 200 210 217 C249 227 300 235 331 239 L331 239 Z " />
<glyph glyph-name="Aogonek" unicode="&#x104;" horiz-adv-x="616" d="M608 10 C580 10 560 25 544 59 L306 675 L291 675 L72 57 C58 27 34 14 4 10 L4 0 L148 0 L148 10 L137 11 C104 13 88 37 96 70 L154 236 L413 236 L477 64 C488 35 474 13 445 11 L429 10 L429 0 L477 0 C429 -30 356 -100 356 -156 C356 -201 400 -233 461 -233 C492 -233 526 -219 542 -200 L538 -195 C527 -208 500 -218 473 -218 C424 -218 389 -189 389 -150 C389 -87 469 -12 501 0 L608 0 L608 10 L608 10 Z M407 251 L159 251 L279 596 L407 251 L407 251 Z " />
<glyph glyph-name="aogonek" unicode="&#x105;" horiz-adv-x="500" d="M445 18 C404 8 388 34 388 76 L388 360 C388 445 333 506 258 506 C157 506 75 464 64 406 L119 406 C129 455 182 491 246 491 C295 491 331 441 331 372 L331 253 C297 250 242 244 210 236 C109 211 36 155 36 103 C36 41 87 -4 157 -4 C216 -4 284 24 331 66 C332 12 357 -16 414 -6 C376 -42 340 -91 340 -133 C340 -190 384 -231 445 -231 C476 -231 510 -217 526 -198 L522 -193 C511 -206 484 -216 457 -216 C408 -216 373 -179 373 -128 C373 -80 411 -28 445 4 C460 11 473 21 484 32 L484 44 C473 40 459 32 443 20 L445 18 L445 18 Z M329 241 L329 78 C291 50 235 32 182 32 C127 32 87 68 87 118 C87 159 138 202 208 219 C247 229 298 237 329 241 L329 241 Z " />
<glyph glyph-name="Cacute" unicode="&#x106;" horiz-adv-x="733" d="M359 691 C359 691 439 781 469 820 C493 848 510 871 510 874 C510 880 488 896 479 896 C477 896 461 873 441 841 C411 802 352 696 352 696 L359 691 Z M673 504 L673 603 C611 639 498 665 405 665 C205 665 60 524 60 330 C60 136 205 -5 405 -5 C498 -5 611 21 673 57 L669 64 C669 64 672 58 672 57 L672 156 L663 156 C659 148 655 137 651 129 C626 74 560 27 493 17 C463 13 433 11 404 11 C243 11 126 145 126 331 C126 517 243 651 404 651 C446 651 492 646 535 637 C581 623 628 581 650 533 C654 525 658 514 662 506 L673 504 L673 504 Z " />
<glyph glyph-name="cacute" unicode="&#x107;" horiz-adv-x="494" d="M231 531 C231 531 311 621 341 660 C365 688 382 711 382 714 C382 720 360 736 351 736 C349 736 333 713 313 681 C283 642 224 536 224 536 L231 531 Z M442 43 L437 49 C422 37 361 28 291 28 C184 28 107 124 107 256 C107 392 188 490 301 490 C350 490 389 454 393 404 C395 372 444 367 444 401 C439 461 381 505 307 505 C158 505 50 392 50 235 C50 96 132 -5 246 -5 C327 -5 409 15 442 43 L442 43 Z " />
<glyph glyph-name="Ccircumflex" unicode="&#x108;" horiz-adv-x="733" d="M673 504 L673 603 C611 639 498 665 405 665 C205 665 60 524 60 330 C60 136 205 -5 405 -5 C498 -5 611 21 673 57 L669 64 C669 64 672 58 672 57 L672 156 L663 156 C659 148 655 137 651 129 C626 74 560 27 493 17 C463 13 433 11 404 11 C243 11 126 145 126 331 C126 517 243 651 404 651 C446 651 492 646 535 637 C581 623 628 581 650 533 C654 525 658 514 662 506 L673 504 L673 504 Z M420 891 C417 896 410 907 403 907 C395 907 388 896 386 892 C386 892 291 711 282 700 L287 695 C330 747 378 814 403 850 C440 797 520 696 520 696 L525 701 C525 701 466 799 421 892 L420 891 L420 891 Z " />
<glyph glyph-name="Cdot" unicode="&#x10a;" horiz-adv-x="733" d="M438 763 C438 806 372 806 372 763 C372 720 438 720 438 763 L438 763 Z M673 504 L673 603 C611 639 498 665 405 665 C205 665 60 524 60 330 C60 136 205 -5 405 -5 C498 -5 611 21 673 57 L669 64 C669 64 672 58 672 57 L672 156 L663 156 C659 148 655 137 651 129 C626 74 560 27 493 17 C463 13 433 11 404 11 C243 11 126 145 126 331 C126 517 243 651 404 651 C446 651 492 646 535 637 C581 623 628 581 650 533 C654 525 658 514 662 506 L673 504 L673 504 Z " />
<glyph glyph-name="cdot" unicode="&#x10b;" horiz-adv-x="494" d="M340 603 C340 646 274 646 274 603 C274 560 340 560 340 603 L340 603 Z M442 43 L437 49 C422 37 361 28 291 28 C184 28 107 124 107 256 C107 392 188 490 301 490 C350 490 389 454 393 404 C395 372 444 367 444 401 C439 461 381 505 307 505 C158 505 50 392 50 235 C50 96 132 -5 246 -5 C327 -5 409 15 442 43 L442 43 Z " />
<glyph glyph-name="Ccaron" unicode="&#x10c;" horiz-adv-x="733" d="M521 927 C521 927 441 826 404 773 C379 809 331 876 288 928 L283 923 C292 912 387 731 387 731 C389 727 396 716 404 716 C411 716 418 727 421 732 C466 825 525 923 525 923 L521 927 L521 927 Z M672 505 L672 604 C610 640 497 666 404 666 C204 666 59 525 59 331 C59 137 204 -4 404 -4 C497 -4 610 22 672 58 L668 65 C668 65 671 59 671 58 L671 157 L662 157 C658 149 654 138 650 130 C625 75 559 28 492 18 C462 14 432 12 403 12 C242 12 125 146 125 332 C125 518 242 652 403 652 C445 652 491 647 534 638 C580 624 627 582 649 534 C653 526 657 515 661 507 L672 505 L672 505 Z " />
<glyph glyph-name="ccaron" unicode="&#x10d;" horiz-adv-x="494" d="M423 767 C423 767 343 666 306 613 C281 649 233 716 190 768 L185 763 C194 752 289 571 289 571 C291 567 298 556 306 556 C313 556 320 567 323 572 C368 665 427 763 427 763 L423 767 L423 767 Z M441 44 L436 50 C421 38 360 29 290 29 C183 29 106 125 106 257 C106 393 187 491 300 491 C349 491 388 455 392 405 C394 373 443 368 443 402 C438 462 380 506 306 506 C157 506 49 393 49 236 C49 97 131 -4 245 -4 C326 -4 408 16 441 44 L441 44 Z " />
<glyph glyph-name="Dcaron" unicode="&#x10e;" horiz-adv-x="687" d="M455 927 C455 927 376 827 339 774 C314 810 267 876 224 927 L218 922 C227 911 322 730 322 730 C324 726 331 715 340 715 C347 715 354 726 357 731 C402 824 461 922 461 922 L455 927 L455 927 Z M50 650 L58 649 C84 647 102 625 102 596 L102 64 C102 35 84 13 58 11 L50 10 L50 0 L334 0 C510 0 637 139 637 330 C637 521 492 660 291 660 L50 660 L50 650 L50 650 Z M162 15 L162 645 L291 645 C457 645 577 513 577 330 C577 147 475 15 334 15 L162 15 L162 15 Z " />
<glyph glyph-name="dcaron" unicode="&#x10f;" horiz-adv-x="612" d="M623 753 C612 753 595 689 586 646 L550 484 L557 481 L620 634 C641 685 657 735 657 741 C657 749 633 753 623 753 L623 753 Z M396 686 C436 671 448 660 448 613 L448 435 C414 474 351 504 284 504 C152 504 56 386 56 224 C56 91 143 -6 264 -6 C332 -6 408 19 449 55 L449 -1 L460 -1 L555 27 L555 33 C515 48 503 59 503 106 L503 720 L492 720 L397 692 L396 686 L396 686 Z M449 63 C424 42 360 27 293 27 C188 27 112 118 112 244 C112 386 183 489 281 489 C354 489 423 452 449 408 L449 63 Z " />
<glyph glyph-name="Emacron" unicode="&#x112;" horiz-adv-x="550" d="M113 769 L428 769 L428 800 L113 800 L113 769 L113 769 Z M394 286 L394 412 L386 412 L382 404 C371 378 334 360 296 360 L152 360 L152 645 L328 645 C374 645 422 612 442 567 L449 552 L456 552 L456 660 L40 660 L40 650 L48 649 C74 647 92 625 92 596 L92 64 C92 35 74 13 48 11 L40 10 L40 0 L461 0 L462 7 L463 7 C468 36 476 79 481 108 L474 108 L464 93 C436 48 382 15 336 15 L152 15 L152 344 L296 344 C334 344 370 323 382 294 L386 286 L394 286 L394 286 Z " />
<glyph glyph-name="emacron" unicode="&#x113;" horiz-adv-x="501" d="M116 609 L432 609 L432 640 L116 640 L116 609 L116 609 Z M449 43 L444 49 C429 37 367 28 295 28 C165 28 83 165 113 323 L451 323 C451 429 377 505 274 505 C144 505 50 392 50 235 C50 96 134 -5 250 -5 C332 -5 416 15 449 43 L449 43 Z M400 369 C400 355 390 344 376 342 L115 333 C136 427 195 489 271 489 C346 489 400 438 400 368 L400 369 L400 369 Z " />
<glyph glyph-name="Ebreve" unicode="&#x114;" horiz-adv-x="550" d="M146 872 C158 811 210 766 271 766 C331 766 382 810 394 871 L385 873 C377 832 329 802 271 802 C212 802 164 832 156 873 L146 872 L146 872 Z M394 286 L394 412 L386 412 L382 404 C371 378 334 360 296 360 L152 360 L152 645 L328 645 C374 645 422 612 442 567 L449 552 L456 552 L456 660 L40 660 L40 650 L48 649 C74 647 92 625 92 596 L92 64 C92 35 74 13 48 11 L40 10 L40 0 L461 0 L462 7 L463 7 C468 36 476 79 481 108 L474 108 L464 93 C436 48 382 15 336 15 L152 15 L152 344 L296 344 C334 344 370 323 382 294 L386 286 L394 286 L394 286 Z " />
<glyph glyph-name="ebreve" unicode="&#x115;" horiz-adv-x="501" d="M150 712 C162 651 214 606 274 606 C334 606 386 650 398 711 L389 713 C381 672 333 642 274 642 C215 642 167 672 159 713 L150 712 L150 712 Z M449 43 L444 49 C429 37 367 28 295 28 C165 28 83 165 113 323 L451 323 C451 429 377 505 274 505 C144 505 50 392 50 235 C50 96 134 -5 250 -5 C332 -5 416 15 449 43 L449 43 Z M400 369 C400 355 390 344 376 342 L115 333 C136 427 195 489 271 489 C346 489 400 438 400 368 L400 369 L400 369 Z " />
<glyph glyph-name="Edot" unicode="&#x116;" horiz-adv-x="550" d="M304 763 C304 806 237 805 237 763 C237 720 304 719 304 762 L304 763 Z M394 285 L394 411 L386 411 L382 403 C371 377 334 359 296 359 L152 359 L152 644 L328 644 C374 644 422 611 442 566 L449 551 L456 551 L456 659 L40 659 L40 649 L48 648 C74 646 92 624 92 595 L92 63 C92 34 74 12 48 10 L40 9 L40 -1 L461 -1 L462 6 L463 6 C468 35 476 78 481 107 L474 107 L464 92 C436 47 382 14 336 14 L152 14 L152 343 L296 343 C334 343 370 322 382 293 L386 285 L394 285 L394 285 Z " />
<glyph glyph-name="edot" unicode="&#x117;" horiz-adv-x="501" d="M307 603 C307 646 241 646 241 603 C241 560 307 560 307 603 L307 603 Z M449 43 L444 49 C429 37 367 28 295 28 C165 28 83 165 113 323 L451 323 C451 429 377 505 274 505 C144 505 50 392 50 235 C50 96 134 -5 250 -5 C332 -5 416 15 449 43 L449 43 Z M400 369 C400 355 390 344 376 342 L115 333 C136 427 195 489 271 489 C346 489 400 438 400 368 L400 369 L400 369 Z " />
<glyph glyph-name="Eogonek" unicode="&#x118;" horiz-adv-x="550" d="M394 286 L394 412 L386 412 L382 404 C371 378 334 360 296 360 L152 360 L152 645 L328 645 C374 645 422 612 442 567 L449 552 L456 552 L456 660 L40 660 L40 650 L48 649 C74 647 92 625 92 596 L92 64 C92 35 74 13 48 11 L40 10 L40 0 L435 0 C387 -30 314 -100 314 -156 C314 -201 358 -233 419 -233 C450 -233 484 -219 500 -200 L496 -195 C485 -208 458 -218 431 -218 C382 -218 347 -189 347 -150 C347 -87 427 -12 459 0 L461 0 L462 7 L463 7 C468 36 476 79 481 108 L474 108 L464 93 C436 48 382 15 336 15 L152 15 L152 344 L296 344 C334 344 370 323 382 294 L386 286 L394 286 L394 286 Z " />
<glyph glyph-name="eogonek" unicode="&#x119;" horiz-adv-x="501" d="M400 369 C400 355 390 344 376 342 L115 333 C136 427 195 489 271 489 C346 489 400 438 400 368 L400 369 L400 369 Z M113 322 L451 322 C451 428 377 504 274 504 C144 504 50 391 50 234 C50 95 134 -6 250 -6 C264 -6 278 -5 292 -4 C244 -35 176 -102 176 -156 C176 -201 220 -233 281 -233 C312 -233 346 -219 362 -200 L358 -195 C347 -208 320 -218 293 -218 C244 -218 209 -189 209 -150 C209 -88 287 -14 320 -1 C377 6 427 22 451 42 L446 48 C431 36 369 27 297 27 C167 27 85 164 115 322 L113 322 L113 322 Z " />
<glyph glyph-name="Ecaron" unicode="&#x11a;" horiz-adv-x="550" d="M386 927 C386 927 307 827 270 774 C245 810 198 876 155 927 L149 922 C158 911 253 730 253 730 C255 726 262 715 271 715 C278 715 285 726 288 731 C333 824 392 922 392 922 L386 927 L386 927 Z M394 286 L394 412 L386 412 L382 404 C371 378 334 360 296 360 L152 360 L152 645 L328 645 C374 645 422 612 442 567 L449 552 L456 552 L456 660 L40 660 L40 650 L48 649 C74 647 92 625 92 596 L92 64 C92 35 74 13 48 11 L40 10 L40 0 L461 0 L462 7 L463 7 C468 36 476 79 481 108 L474 108 L464 93 C436 48 382 15 336 15 L152 15 L152 344 L296 344 C334 344 370 323 382 294 L386 286 L394 286 L394 286 Z " />
<glyph glyph-name="ecaron" unicode="&#x11b;" horiz-adv-x="501" d="M390 767 C390 767 310 666 273 613 C248 649 200 716 157 768 L152 763 C161 752 256 571 256 571 C258 567 265 556 273 556 C280 556 287 567 290 572 C335 665 394 763 394 763 L390 767 L390 767 Z M448 44 L443 50 C428 38 366 29 294 29 C164 29 82 166 112 324 L450 324 C450 430 376 506 273 506 C143 506 49 393 49 236 C49 97 133 -4 249 -4 C331 -4 415 16 448 44 L448 44 Z M399 370 C399 356 389 345 375 343 L114 334 C135 428 194 490 270 490 C345 490 399 439 399 369 L399 370 L399 370 Z " />
<glyph glyph-name="Gcircumflex" unicode="&#x11c;" horiz-adv-x="802" d="M411 889 C408 894 401 905 394 905 C386 905 379 894 377 890 C377 890 282 709 273 698 L278 693 C321 745 369 812 394 848 C431 795 511 694 511 694 L516 699 C516 699 457 797 412 890 L411 889 L411 889 Z M654 505 L654 604 C592 640 483 666 395 666 C201 666 61 525 61 331 C61 137 201 -4 395 -4 C486 -4 597 22 659 58 L659 247 C659 276 677 298 703 300 L711 301 L711 311 L553 311 L553 301 L561 300 C587 298 605 276 605 247 L605 50 C544 27 463 12 394 12 C239 12 127 146 127 332 C127 518 239 652 394 652 C429 652 468 648 505 641 L505 641 C555 631 608 586 632 534 C636 526 640 515 644 507 L654 505 L654 505 Z " />
<glyph glyph-name="Gbreve" unicode="&#x11e;" horiz-adv-x="802" d="M270 872 C282 811 334 766 394 766 C454 766 506 810 518 871 L509 873 C501 832 453 802 394 802 C335 802 287 832 279 873 L270 872 L270 872 Z M653 504 L653 603 C591 639 482 665 394 665 C200 665 60 524 60 330 C60 136 200 -5 394 -5 C485 -5 596 21 658 57 L658 246 C658 275 676 297 702 299 L710 300 L710 310 L552 310 L552 300 L560 299 C586 297 604 275 604 246 L604 49 C543 26 462 11 393 11 C238 11 126 145 126 331 C126 517 238 651 393 651 C428 651 467 647 504 640 L504 640 C554 630 607 585 631 533 C635 525 639 514 643 506 L653 504 L653 504 Z " />
<glyph glyph-name="gbreve" unicode="&#x11f;" horiz-adv-x="483" d="M129 712 C141 651 193 606 253 606 C313 606 365 650 377 711 L368 713 C360 672 312 642 253 642 C194 642 146 672 138 713 L129 712 L129 712 Z M483 500 L343 487 C317 499 286 505 252 505 C145 505 67 440 67 350 C67 280 115 224 187 203 C108 201 51 163 51 110 C51 64 95 29 161 19 C81 -5 25 -59 25 -114 C25 -187 90 -240 179 -240 C343 -240 462 -160 462 -49 C462 20 386 70 280 70 C264 70 195 67 195 67 C132 67 86 93 86 130 C86 167 131 193 192 193 L252 193 C359 193 436 259 436 349 C436 397 414 438 377 466 L482 469 L483 500 L483 500 Z M252 205 C174 205 118 265 118 349 C118 432 174 492 252 492 C329 492 385 432 385 349 C385 265 329 205 252 205 L252 205 Z M177 17 C194 16 240 20 264 20 C356 20 423 -20 423 -75 C423 -161 323 -224 184 -224 C112 -224 60 -174 60 -106 C60 -52 109 -1 177 18 L177 17 Z " />
<glyph glyph-name="Gdot" unicode="&#x120;" horiz-adv-x="802" d="M427 763 C427 806 361 806 361 763 C361 720 427 720 427 763 L427 763 Z M653 504 L653 603 C591 639 482 665 394 665 C200 665 60 524 60 330 C60 136 200 -5 394 -5 C485 -5 596 21 658 57 L658 246 C658 275 676 297 702 299 L710 300 L710 310 L552 310 L552 300 L560 299 C586 297 604 275 604 246 L604 49 C543 26 462 11 393 11 C238 11 126 145 126 331 C126 517 238 651 393 651 C428 651 467 647 504 640 L504 640 C554 630 607 585 631 533 C635 525 639 514 643 506 L653 504 L653 504 Z " />
<glyph glyph-name="gdot" unicode="&#x121;" horiz-adv-x="483" d="M286 603 C286 646 220 646 220 603 C220 560 286 560 286 603 L286 603 Z M483 500 L343 487 C317 499 286 505 252 505 C145 505 67 440 67 350 C67 280 115 224 187 203 C108 201 51 163 51 110 C51 64 95 29 161 19 C81 -5 25 -59 25 -114 C25 -187 90 -240 179 -240 C343 -240 462 -160 462 -49 C462 20 386 70 280 70 C264 70 195 67 195 67 C132 67 86 93 86 130 C86 167 131 193 192 193 L252 193 C359 193 436 259 436 349 C436 397 414 438 377 466 L482 469 L483 500 L483 500 Z M252 205 C174 205 118 265 118 349 C118 432 174 492 252 492 C329 492 385 432 385 349 C385 265 329 205 252 205 L252 205 Z M177 17 C194 16 240 20 264 20 C356 20 423 -20 423 -75 C423 -161 323 -224 184 -224 C112 -224 60 -174 60 -106 C60 -52 109 -1 177 18 L177 17 Z " />
<glyph glyph-name="Hcircumflex" unicode="&#x124;" horiz-adv-x="739" d="M387 889 C384 894 377 905 370 905 C362 905 355 894 353 890 C353 890 258 709 249 698 L254 693 C297 745 345 812 370 848 C407 795 487 694 487 694 L492 699 C492 699 433 797 388 890 L387 889 L387 889 Z M701 11 L693 12 C667 14 649 36 649 65 L649 597 C649 626 667 648 693 650 L701 651 L701 661 L537 661 L537 651 L545 650 C571 648 589 626 589 597 L589 356 L153 356 L153 597 C153 626 171 648 197 650 L205 651 L205 661 L41 661 L41 651 L49 650 C75 648 93 626 93 597 L93 65 C93 36 75 14 49 12 L41 11 L41 1 L205 1 L205 11 L197 12 C171 14 153 36 153 65 L153 340 L589 340 L589 65 C589 36 571 14 545 12 L537 11 L537 1 L701 1 L701 11 L701 11 Z " />
<glyph glyph-name="Itilde" unicode="&#x128;" horiz-adv-x="243" d="M-31 755 C-31 793 -10 821 18 821 C74 821 155 758 211 758 C253 758 284 799 284 855 L275 855 C275 820 253 795 223 795 C167 795 86 857 30 857 C-11 857 -40 814 -40 755 L-31 755 L-31 755 Z M204 10 L196 11 C170 13 152 35 152 64 L152 596 C152 625 170 647 196 649 L204 650 L204 660 L40 660 L40 650 L48 649 C74 647 92 625 92 596 L92 64 C92 35 74 13 48 11 L40 10 L40 0 L204 0 L204 10 L204 10 Z " />
<glyph glyph-name="itilde" unicode="&#x129;" horiz-adv-x="247" d="M-29 595 C-29 633 -8 661 20 661 C76 661 157 598 213 598 C255 598 286 639 286 695 L277 695 C277 660 255 635 225 635 C169 635 88 697 32 697 C-9 697 -38 654 -38 595 L-29 595 L-29 595 Z M203 10 L195 11 C169 13 151 35 151 64 L151 500 L140 500 L45 472 L45 466 C85 451 97 440 97 393 L97 63 C97 34 79 12 53 10 L45 9 L45 -1 L203 -1 L203 10 L203 10 Z " />
<glyph glyph-name="Imacron" unicode="&#x12a;" horiz-adv-x="243" d="M-36 769 L280 769 L280 800 L-36 800 L-36 769 L-36 769 Z M204 10 L196 11 C170 13 152 35 152 64 L152 596 C152 625 170 647 196 649 L204 650 L204 660 L40 660 L40 650 L48 649 C74 647 92 625 92 596 L92 64 C92 35 74 13 48 11 L40 10 L40 0 L204 0 L204 10 L204 10 Z " />
<glyph glyph-name="imacron" unicode="&#x12b;" horiz-adv-x="247" d="M-34 609 L282 609 L282 640 L-34 640 L-34 609 L-34 609 Z M203 10 L195 11 C169 13 151 35 151 64 L151 500 L140 500 L45 472 L45 466 C85 451 97 440 97 393 L97 63 C97 34 79 12 53 10 L45 9 L45 -1 L203 -1 L203 10 L203 10 Z " />
<glyph glyph-name="Ibreve" unicode="&#x12c;" horiz-adv-x="243" d="M-2 872 C10 811 62 766 122 766 C182 766 234 810 246 871 L237 873 C229 832 181 802 122 802 C63 802 15 832 7 873 L-2 872 L-2 872 Z M204 10 L196 11 C170 13 152 35 152 64 L152 596 C152 625 170 647 196 649 L204 650 L204 660 L40 660 L40 650 L48 649 C74 647 92 625 92 596 L92 64 C92 35 74 13 48 11 L40 10 L40 0 L204 0 L204 10 L204 10 Z " />
<glyph glyph-name="ibreve" unicode="&#x12d;" horiz-adv-x="247" d="M0 712 C12 651 64 606 124 606 C184 606 236 650 248 711 L239 713 C231 672 183 642 124 642 C65 642 17 672 9 713 L0 712 L0 712 Z M203 10 L195 11 C169 13 151 35 151 64 L151 500 L140 500 L45 472 L45 466 C85 451 97 440 97 393 L97 63 C97 34 79 12 53 10 L45 9 L45 -1 L203 -1 L203 10 L203 10 Z " />
<glyph glyph-name="Idot" unicode="&#x130;" horiz-adv-x="243" d="M155 763 C155 806 89 806 89 763 C89 720 155 720 155 763 L155 763 Z M204 10 L196 11 C170 13 152 35 152 64 L152 596 C152 625 170 647 196 649 L204 650 L204 660 L40 660 L40 650 L48 649 C74 647 92 625 92 596 L92 64 C92 35 74 13 48 11 L40 10 L40 0 L204 0 L204 10 L204 10 Z " />
<glyph glyph-name="dotlessi" unicode="&#x131;" horiz-adv-x="247" d="M203 10 L195 11 C169 13 151 35 151 64 L151 500 L140 500 L45 472 L45 466 C85 451 97 440 97 393 L97 63 C97 34 79 12 53 10 L45 9 L45 -1 L203 -1 L203 10 L203 10 Z " />
<glyph glyph-name="Jcircumflex" unicode="&#x134;" horiz-adv-x="361" d="M257 889 C254 894 247 905 240 905 C231 905 224 894 222 890 C222 890 127 709 118 698 L124 693 C167 744 214 810 239 846 C276 793 355 693 355 693 L361 698 C361 698 302 796 257 889 L257 889 Z M322 660 L157 660 L157 650 L165 649 C191 647 209 625 209 596 L209 200 C209 62 182 2 119 2 C87 2 58 22 51 50 C48 64 36 74 24 74 C7 74 -3 64 0 50 C9 15 52 -10 104 -10 C219 -10 269 69 269 251 C270 250 270 481 270 596 C270 625 288 647 314 649 L322 650 L322 660 L322 660 Z " />
<glyph glyph-name="Lacute" unicode="&#x139;" horiz-adv-x="550" d="M99 691 C99 691 179 781 209 820 C233 848 250 871 250 874 C250 880 228 896 219 896 C217 896 201 873 181 841 C151 802 92 696 92 696 L99 691 Z M204 660 L40 660 L40 650 L48 649 C74 647 92 625 92 596 L92 64 C92 35 74 13 48 11 L40 10 L40 0 L462 0 L463 7 C469 38 477 82 482 113 C478 115 470 118 470 118 L453 86 C431 45 386 15 345 15 L152 15 L152 596 C152 625 170 647 196 649 L204 650 L204 660 L204 660 Z " />
<glyph glyph-name="Lcaron" unicode="&#x13d;" horiz-adv-x="550" d="M326 693 C315 693 298 629 289 586 L253 424 L260 421 L323 574 C344 625 360 675 360 681 C360 689 336 693 326 693 L326 693 Z M204 660 L40 660 L40 650 L48 649 C74 647 92 625 92 596 L92 64 C92 35 74 13 48 11 L40 10 L40 0 L462 0 L463 7 C469 38 477 82 482 113 C478 115 470 118 470 118 L453 86 C431 45 386 15 345 15 L152 15 L152 596 C152 625 170 647 196 649 L204 650 L204 660 L204 660 Z " />
<glyph glyph-name="lcaron" unicode="&#x13e;" horiz-adv-x="247" d="M272 723 C261 723 244 659 235 616 L199 454 L206 451 L269 604 C290 655 306 705 306 711 C306 719 282 723 272 723 L272 723 Z M203 10 L195 11 C169 13 151 35 151 64 L151 720 L140 720 L45 692 L45 686 C85 671 97 660 97 613 L97 63 C97 34 79 12 53 10 L45 9 L45 -1 L203 -1 L203 10 L203 10 Z " />
<glyph glyph-name="Lslash" unicode="&#x141;" horiz-adv-x="550" d="M40 0 L462 0 L463 7 C469 38 477 82 482 113 C478 115 470 118 470 118 L453 86 C431 45 386 15 345 15 L152 15 L152 312 L307 371 L307 389 L152 330 L152 596 C152 625 170 647 196 649 L204 650 L204 660 L40 660 L40 650 L48 649 C74 647 92 625 92 596 L92 308 L43 289 L43 271 L92 290 L92 64 C92 35 74 13 48 11 L40 10 L40 0 L40 0 Z " />
<glyph glyph-name="lslash" unicode="&#x142;" horiz-adv-x="247" d="M45 0 L203 0 L203 10 L195 11 C169 13 151 35 151 64 L151 362 L251 401 L251 419 L151 380 L151 720 L140 720 L45 692 L45 686 C85 671 97 660 97 613 L97 357 L-3 318 L-3 300 L97 339 L97 63 C97 34 79 12 53 10 L45 9 L45 0 L45 0 Z " />
<glyph glyph-name="Nacute" unicode="&#x143;" horiz-adv-x="668" d="M306 691 C306 691 386 781 416 820 C440 848 457 871 457 874 C457 880 435 896 426 896 C424 896 408 873 388 841 C358 802 299 696 299 696 L306 691 Z M42 650 L50 649 C76 647 94 625 94 596 L94 64 C94 35 76 13 50 11 L42 10 L42 0 L164 0 L164 10 L156 11 C130 13 112 35 112 64 L112 608 C262 401 412 195 561 -12 L580 -12 L580 596 C580 625 598 647 624 649 L632 650 L632 660 L510 660 L510 650 L518 649 C544 647 562 625 562 596 L562 87 L148 660 L42 660 L42 650 L42 650 Z " />
<glyph glyph-name="nacute" unicode="&#x144;" horiz-adv-x="589" d="M221 531 C221 531 301 621 331 660 C355 688 372 711 372 714 C372 720 350 736 341 736 C339 736 323 713 303 681 C273 642 214 536 214 536 L221 531 Z M392 0 L550 0 L550 10 L542 11 C516 13 498 35 498 64 L498 336 C498 434 458 505 367 505 C317 505 227 476 149 436 L149 500 L138 500 L43 472 L43 466 C83 451 95 440 95 393 L95 63 C95 34 77 12 51 10 L43 9 L43 -1 L201 -1 L201 9 L193 10 C167 12 149 34 149 63 L149 429 C195 451 267 468 324 468 C407 468 443 410 443 330 L443 63 C443 34 425 12 399 10 L391 9 L392 0 L392 0 Z " />
<glyph glyph-name="Ncaron" unicode="&#x147;" horiz-adv-x="668" d="M453 927 C453 927 373 826 336 773 C311 809 263 876 220 928 L215 923 C224 912 319 731 319 731 C321 727 328 716 336 716 C343 716 350 727 353 732 C398 825 457 923 457 923 L453 927 L453 927 Z M41 651 L49 650 C75 648 93 626 93 597 L93 65 C93 36 75 14 49 12 L41 11 L41 1 L163 1 L163 11 L155 12 C129 14 111 36 111 65 L111 609 C261 402 411 196 560 -11 L579 -11 L579 597 C579 626 597 648 623 650 L631 651 L631 661 L509 661 L509 651 L517 650 C543 648 561 626 561 597 L561 88 L147 661 L41 661 L41 651 L41 651 Z " />
<glyph glyph-name="ncaron" unicode="&#x148;" horiz-adv-x="589" d="M413 767 C413 767 333 666 296 613 C271 649 223 716 180 768 L175 763 C184 752 279 571 279 571 C281 567 288 556 296 556 C303 556 310 567 313 572 C358 665 417 763 417 763 L413 767 L413 767 Z M391 1 L549 1 L549 11 L541 12 C515 14 497 36 497 65 L497 337 C497 435 457 506 366 506 C316 506 226 477 148 437 L148 501 L137 501 L42 473 L42 467 C82 452 94 441 94 394 L94 64 C94 35 76 13 50 11 L42 10 L42 0 L200 0 L200 10 L192 11 C166 13 148 35 148 64 L148 430 C194 452 266 469 323 469 C406 469 442 411 442 331 L442 64 C442 35 424 13 398 11 L390 10 L391 1 L391 1 Z " />
<glyph glyph-name="Omacron" unicode="&#x14c;" horiz-adv-x="774" d="M234 769 L550 769 L550 800 L234 800 L234 769 L234 769 Z M127 330 C127 497 223 650 392 650 C562 650 658 497 658 330 C658 163 562 10 392 10 C223 10 127 163 127 330 L127 330 Z M60 330 C60 155 180 -5 392 -5 C604 -5 724 155 724 330 C724 505 604 665 392 665 C180 665 60 505 60 330 L60 330 Z " />
<glyph glyph-name="omacron" unicode="&#x14d;" horiz-adv-x="606" d="M145 609 L461 609 L461 640 L145 640 L145 609 L145 609 Z M110 250 C110 391 191 493 303 493 C415 493 496 391 496 250 C496 109 415 7 303 7 C191 7 110 109 110 250 L110 250 Z M50 250 C50 102 156 -5 303 -5 C450 -5 556 102 556 250 C556 398 450 505 303 505 C156 505 50 398 50 250 L50 250 Z " />
<glyph glyph-name="Obreve" unicode="&#x14e;" horiz-adv-x="774" d="M268 872 C280 811 332 766 392 766 C452 766 504 810 516 871 L507 873 C499 832 451 802 392 802 C333 802 285 832 277 873 L268 872 L268 872 Z M127 330 C127 497 223 650 392 650 C562 650 658 497 658 330 C658 163 562 10 392 10 C223 10 127 163 127 330 L127 330 Z M60 330 C60 155 180 -5 392 -5 C604 -5 724 155 724 330 C724 505 604 665 392 665 C180 665 60 505 60 330 L60 330 Z " />
<glyph glyph-name="obreve" unicode="&#x14f;" horiz-adv-x="606" d="M179 712 C191 651 243 606 303 606 C363 606 415 650 427 711 L418 713 C410 672 362 642 303 642 C244 642 196 672 188 713 L179 712 L179 712 Z M110 250 C110 391 191 493 303 493 C415 493 496 391 496 250 C496 109 415 7 303 7 C191 7 110 109 110 250 L110 250 Z M50 250 C50 102 156 -5 303 -5 C450 -5 556 102 556 250 C556 398 450 505 303 505 C156 505 50 398 50 250 L50 250 Z " />
<glyph glyph-name="Racute" unicode="&#x154;" horiz-adv-x="627" d="M234 691 C234 691 314 781 344 820 C368 849 386 871 386 874 C386 880 364 896 355 896 C353 896 337 873 317 841 C287 802 228 696 228 696 L234 691 Z M50 650 L58 649 C84 647 102 625 102 596 L102 64 C102 35 84 13 58 11 L50 10 L50 0 L214 0 L214 10 L206 11 C180 13 162 35 162 64 L162 316 L270 316 C297 284 364 206 449 106 C533 8 544 0 605 0 L628 0 L628 12 C599 12 598 15 530 94 C436 204 363 290 338 320 C447 336 521 402 521 489 C521 588 434 659 315 659 L50 659 L50 650 L50 650 Z M285 330 L162 330 L162 644 L315 644 C397 644 457 579 457 489 C457 397 385 330 285 330 L285 330 Z " />
<glyph glyph-name="Rcaron" unicode="&#x158;" horiz-adv-x="627" d="M427 927 C427 927 348 827 311 774 C286 810 239 876 196 927 L190 922 C199 911 294 730 294 730 C296 726 303 715 312 715 C319 715 326 726 329 731 C374 824 433 922 433 922 L427 927 L427 927 Z M50 650 L58 649 C84 647 102 625 102 596 L102 64 C102 35 84 13 58 11 L50 10 L50 0 L214 0 L214 10 L206 11 C180 13 162 35 162 64 L162 316 L270 316 C297 284 364 206 449 106 C533 8 544 0 605 0 L628 0 L628 12 C599 12 598 15 530 94 C436 204 363 290 338 320 C447 336 521 402 521 489 C521 588 434 659 315 659 L50 659 L50 650 L50 650 Z M285 330 L162 330 L162 644 L315 644 C397 644 457 579 457 489 C457 397 385 330 285 330 L285 330 Z " />
<glyph glyph-name="rcaron" unicode="&#x159;" horiz-adv-x="408" d="M317 767 C317 767 237 666 200 613 C175 649 127 716 84 768 L79 763 C88 752 183 571 183 571 C185 567 192 556 200 556 C207 556 214 567 217 572 C262 665 321 763 321 763 L317 767 L317 767 Z M43 467 C83 452 95 441 95 394 L95 64 C95 35 77 13 51 11 L43 10 L43 0 L201 0 L201 10 L193 11 C167 13 149 35 149 64 L149 415 C176 444 222 465 262 465 C294 465 339 442 371 442 C386 442 397 453 397 468 C397 489 369 505 305 505 C255 505 191 471 150 423 L150 501 L139 501 L44 473 L43 467 L43 467 Z " />
<glyph glyph-name="Sacute" unicode="&#x15a;" horiz-adv-x="520" d="M200 691 C200 691 280 781 310 820 C334 848 351 871 351 874 C351 880 329 896 320 896 C318 896 302 873 282 841 C252 802 193 696 193 696 L200 691 Z M440 510 L440 615 C390 644 309 665 248 665 C134 665 51 587 51 480 C51 410 130 337 238 307 C351 276 433 208 433 145 C433 67 368 10 278 10 C248 10 215 14 182 20 C135 32 86 74 63 123 C59 131 55 142 51 150 L42 150 L42 45 C92 16 191 -5 278 -5 C392 -5 475 68 475 169 C475 245 395 322 284 353 C173 384 92 447 92 504 C92 589 157 650 246 650 C272 650 305 644 338 634 C365 624 392 599 404 572 L432 509 L440 510 L440 510 Z " />
<glyph glyph-name="sacute" unicode="&#x15b;" horiz-adv-x="439" d="M146 531 C146 531 226 621 256 660 C280 688 297 711 297 714 C297 720 275 736 266 736 C264 736 248 713 228 681 C198 642 139 536 139 536 L146 531 Z M365 393 L365 461 C321 487 261 505 222 505 C131 505 65 451 65 377 C65 325 129 264 218 231 C291 204 344 156 344 117 C344 53 296 7 229 7 C208 7 185 9 162 13 C115 23 75 64 53 107 L46 107 L46 33 C85 10 160 -6 224 -6 C319 -6 387 54 387 136 C387 184 332 239 255 268 C167 301 104 354 104 395 C104 451 153 492 220 492 C235 492 257 487 281 478 C316 463 343 429 355 392 L365 393 L365 393 Z " />
<glyph glyph-name="Scircumflex" unicode="&#x15c;" horiz-adv-x="520" d="M263 889 C260 894 253 905 246 905 C238 905 231 894 229 890 C229 890 134 709 125 698 L130 693 C173 745 221 812 246 848 C283 795 363 694 363 694 L368 699 C368 699 309 797 264 890 L263 889 L263 889 Z M441 511 L441 616 C391 645 310 666 249 666 C135 666 52 588 52 481 C52 411 131 338 239 308 C352 277 434 209 434 146 C434 68 369 11 279 11 C249 11 216 15 183 21 C136 33 87 75 64 124 C60 132 56 143 52 151 L43 151 L43 46 C93 17 192 -4 279 -4 C393 -4 476 69 476 170 C476 246 396 323 285 354 C174 385 93 448 93 505 C93 590 158 651 247 651 C273 651 306 645 339 635 C366 625 393 600 405 573 L433 510 L441 511 L441 511 Z " />
<glyph glyph-name="Scedilla" unicode="&#x15e;" horiz-adv-x="520" d="M440 510 L440 615 C390 644 309 665 248 665 C134 665 51 587 51 480 C51 410 130 337 238 307 C351 276 433 208 433 145 C433 67 368 10 278 10 C248 10 215 14 182 20 C135 32 86 74 63 123 C59 131 55 142 51 150 L42 150 L42 45 C91 17 187 -4 273 -5 C269 -13 253 -48 231 -93 L235 -95 C254 -86 283 -80 304 -80 C343 -80 372 -103 372 -135 C372 -175 339 -204 293 -204 C252 -204 214 -199 203 -191 L200 -196 C221 -210 265 -220 304 -220 C363 -220 405 -184 405 -135 C405 -97 368 -69 316 -69 C291 -69 259 -75 240 -84 C266 -33 285 -11 291 -5 C399 0 476 71 476 168 C476 244 396 321 285 352 C174 383 93 446 93 503 C93 588 158 649 247 649 C273 649 306 643 339 633 C366 623 393 598 405 571 L433 508 L440 510 L440 510 Z " />
<glyph glyph-name="scedilla" unicode="&#x15f;" horiz-adv-x="439" d="M365 393 L365 461 C321 487 261 505 222 505 C131 505 65 451 65 377 C65 325 129 264 218 231 C291 204 344 156 344 117 C344 53 296 7 229 7 C208 7 185 9 162 13 C115 23 75 64 53 107 L46 107 L46 33 C84 11 156 -5 219 -6 C215 -14 199 -49 177 -94 L181 -96 C200 -87 229 -81 250 -81 C289 -81 318 -104 318 -136 C318 -176 285 -205 239 -205 C198 -205 160 -200 149 -192 L146 -197 C167 -211 211 -221 250 -221 C309 -221 351 -185 351 -136 C351 -98 314 -70 262 -70 C237 -70 205 -76 186 -85 C212 -34 231 -12 237 -6 C325 -1 387 57 387 135 C387 183 332 238 255 267 C167 300 104 353 104 394 C104 450 153 491 220 491 C235 491 257 486 281 477 C316 462 343 428 355 391 L365 393 L365 393 Z " />
<glyph glyph-name="Scaron" unicode="&#x160;" horiz-adv-x="520" d="M362 927 C362 927 282 826 245 773 C220 809 172 876 129 928 L124 923 C133 912 228 731 228 731 C230 727 237 716 245 716 C252 716 259 727 262 732 C307 825 366 923 366 923 L362 927 L362 927 Z M439 511 L439 616 C389 645 308 666 247 666 C133 666 50 588 50 481 C50 411 129 338 237 308 C350 277 432 209 432 146 C432 68 367 11 277 11 C247 11 214 15 181 21 C134 33 85 75 62 124 C58 132 54 143 50 151 L41 151 L41 46 C91 17 190 -4 277 -4 C391 -4 474 69 474 170 C474 246 394 323 283 354 C172 385 91 448 91 505 C91 590 156 651 245 651 C271 651 304 645 337 635 C364 625 391 600 403 573 L431 510 L439 511 L439 511 Z " />
<glyph glyph-name="scaron" unicode="&#x161;" horiz-adv-x="439" d="M338 767 C338 767 258 666 221 613 C196 649 148 716 105 768 L100 763 C109 752 204 571 204 571 C206 567 213 556 221 556 C228 556 235 567 238 572 C283 665 342 763 342 763 L338 767 L338 767 Z M364 394 L364 462 C320 488 260 506 221 506 C130 506 64 452 64 378 C64 326 128 265 217 232 C290 205 343 157 343 118 C343 54 295 8 228 8 C207 8 184 10 161 14 C114 24 74 65 52 108 L45 108 L45 34 C84 11 159 -5 223 -5 C318 -5 386 55 386 137 C386 185 331 240 254 269 C166 302 103 355 103 396 C103 452 152 493 219 493 C234 493 256 488 280 479 C315 464 342 430 354 393 L364 394 L364 394 Z " />
<glyph glyph-name="Tcaron" unicode="&#x164;" horiz-adv-x="636" d="M432 927 C432 927 352 826 315 773 C290 809 242 876 199 928 L194 923 C203 912 298 731 298 731 C300 727 307 716 315 716 C322 716 329 727 332 732 C377 825 436 923 436 923 L432 927 L432 927 Z M22 543 L43 583 C62 620 102 646 139 646 L287 646 L287 65 C287 36 269 14 243 12 L235 11 L235 1 L399 1 L399 11 L391 12 C365 14 347 36 347 65 L347 646 L492 646 C530 646 570 620 589 583 L610 543 L618 543 C617 551 609 654 607 654 L606 661 L23 661 L22 653 L23 653 C20 621 16 575 13 543 L22 543 L22 543 Z " />
<glyph glyph-name="tcaron" unicode="&#x165;" horiz-adv-x="367" d="M336 500 L161 500 L161 640 L152 640 L133 571 C117 526 73 490 25 484 L25 478 L107 478 L107 110 C107 23 131 -6 204 -6 C268 -6 313 15 347 43 L343 47 C323 30 289 18 231 18 C178 18 161 38 161 101 L161 478 L336 478 L336 500 L336 500 Z M457 722 C446 722 429 658 420 615 L384 453 L391 450 L454 603 C475 654 491 704 491 710 C491 718 467 722 457 722 L457 722 Z " />
<glyph glyph-name="Utilde" unicode="&#x168;" horiz-adv-x="652" d="M180 755 C180 793 201 821 229 821 C285 821 366 758 422 758 C464 758 495 799 495 855 L486 855 C486 820 464 795 434 795 C378 795 297 857 241 857 C200 857 171 814 171 755 L180 755 L180 755 Z M632 660 L494 660 L494 650 L503 649 C534 647 556 622 556 588 L556 186 C556 87 492 16 347 16 C211 16 152 92 152 198 L152 596 C152 625 170 647 196 649 L204 650 L204 660 L40 660 L40 650 L48 649 C74 647 92 625 92 596 L92 210 C92 85 167 -5 338 -5 C502 -5 574 73 574 180 L574 588 C574 622 595 647 624 649 L632 650 L632 660 L632 660 Z " />
<glyph glyph-name="utilde" unicode="&#x169;" horiz-adv-x="554" d="M114 595 C114 633 135 661 163 661 C219 661 300 598 356 598 C398 598 429 639 429 695 L420 695 C420 660 398 635 368 635 C312 635 231 697 175 697 C134 697 105 654 105 595 L114 595 L114 595 Z M14 490 L22 489 C48 487 66 465 66 436 L66 156 C66 63 123 -5 224 -5 C307 -5 372 21 414 58 L414 0 L425 0 L520 28 L520 34 C480 49 468 60 468 107 L468 501 L362 501 L362 491 L370 490 C396 488 414 466 414 437 L414 67 C391 46 342 31 266 31 C173 31 120 86 120 161 L120 500 L14 500 L14 490 L14 490 Z " />
<glyph glyph-name="Umacron" unicode="&#x16a;" horiz-adv-x="652" d="M175 769 L491 769 L491 800 L175 800 L175 769 L175 769 Z M632 660 L494 660 L494 650 L503 649 C534 647 556 622 556 588 L556 186 C556 87 492 16 347 16 C211 16 152 92 152 198 L152 596 C152 625 170 647 196 649 L204 650 L204 660 L40 660 L40 650 L48 649 C74 647 92 625 92 596 L92 210 C92 85 167 -5 338 -5 C502 -5 574 73 574 180 L574 588 C574 622 595 647 624 649 L632 650 L632 660 L632 660 Z " />
<glyph glyph-name="umacron" unicode="&#x16b;" horiz-adv-x="554" d="M109 609 L425 609 L425 640 L109 640 L109 609 L109 609 Z M14 490 L22 489 C48 487 66 465 66 436 L66 156 C66 63 123 -5 224 -5 C307 -5 372 21 414 58 L414 0 L425 0 L520 28 L520 34 C480 49 468 60 468 107 L468 501 L362 501 L362 491 L370 490 C396 488 414 466 414 437 L414 67 C391 46 342 31 266 31 C173 31 120 86 120 161 L120 500 L14 500 L14 490 L14 490 Z " />
<glyph glyph-name="Ubreve" unicode="&#x16c;" horiz-adv-x="652" d="M209 872 C221 811 273 766 333 766 C393 766 445 810 457 871 L448 873 C440 832 392 802 333 802 C274 802 226 832 218 873 L209 872 L209 872 Z M632 660 L494 660 L494 650 L503 649 C534 647 556 622 556 588 L556 186 C556 87 492 16 347 16 C211 16 152 92 152 198 L152 596 C152 625 170 647 196 649 L204 650 L204 660 L40 660 L40 650 L48 649 C74 647 92 625 92 596 L92 210 C92 85 167 -5 338 -5 C502 -5 574 73 574 180 L574 588 C574 622 595 647 624 649 L632 650 L632 660 L632 660 Z " />
<glyph glyph-name="ubreve" unicode="&#x16d;" horiz-adv-x="554" d="M143 712 C155 651 207 606 267 606 C327 606 379 650 391 711 L382 713 C374 672 326 642 267 642 C208 642 160 672 152 713 L143 712 L143 712 Z M14 490 L22 489 C48 487 66 465 66 436 L66 156 C66 63 123 -5 224 -5 C307 -5 372 21 414 58 L414 0 L425 0 L520 28 L520 34 C480 49 468 60 468 107 L468 501 L362 501 L362 491 L370 490 C396 488 414 466 414 437 L414 67 C391 46 342 31 266 31 C173 31 120 86 120 161 L120 500 L14 500 L14 490 L14 490 Z " />
<glyph glyph-name="Uring" unicode="&#x16e;" horiz-adv-x="652" d="M254 788 C254 834 287 868 333 868 C379 868 412 834 412 788 C412 746 374 707 333 707 C292 707 254 746 254 788 L254 788 Z M239 788 C239 739 284 695 333 695 C382 695 427 739 427 788 C427 841 388 880 333 880 C278 880 239 841 239 788 L239 788 Z M632 660 L494 660 L494 650 L503 649 C534 647 556 622 556 588 L556 186 C556 87 492 16 347 16 C211 16 152 92 152 198 L152 596 C152 625 170 647 196 649 L204 650 L204 660 L40 660 L40 650 L48 649 C74 647 92 625 92 596 L92 210 C92 85 167 -5 338 -5 C502 -5 574 73 574 180 L574 588 C574 622 595 647 624 649 L632 650 L632 660 L632 660 Z " />
<glyph glyph-name="uring" unicode="&#x16f;" horiz-adv-x="554" d="M188 628 C188 674 221 708 267 708 C313 708 346 674 346 628 C346 586 308 547 267 547 C226 547 188 586 188 628 L188 628 Z M173 628 C173 579 218 535 267 535 C316 535 361 579 361 628 C361 681 322 720 267 720 C212 720 173 681 173 628 L173 628 Z M14 490 L22 489 C48 487 66 465 66 436 L66 156 C66 63 123 -5 224 -5 C307 -5 372 21 414 58 L414 0 L425 0 L520 28 L520 34 C480 49 468 60 468 107 L468 501 L362 501 L362 491 L370 490 C396 488 414 466 414 437 L414 67 C391 46 342 31 266 31 C173 31 120 86 120 161 L120 500 L14 500 L14 490 L14 490 Z " />
<glyph glyph-name="Wcircumflex" unicode="&#x174;" horiz-adv-x="923" d="M167 660 L1 660 L1 650 C26 646 45 633 58 603 L267 -15 L283 -15 L453 570 L652 -15 L667 -15 L851 596 C860 625 885 647 911 649 L919 650 L919 660 L780 660 L780 650 L797 649 C827 648 842 625 833 596 L680 79 L482 670 L467 670 L293 74 L126 596 C118 624 130 647 159 649 L168 650 L167 660 L167 660 Z M493 889 C490 894 483 905 476 905 C467 905 460 894 458 890 C458 890 363 709 354 698 L360 693 C403 744 450 810 475 846 C512 793 591 693 591 693 L597 698 C597 698 538 796 493 889 L493 889 Z " />
<glyph glyph-name="Ycircumflex" unicode="&#x176;" horiz-adv-x="591" d="M187 660 L21 660 L21 650 C46 646 70 629 88 596 L88 596 L273 261 L272 64 C272 35 254 13 228 11 L220 10 L220 0 L385 0 L385 10 L377 11 C351 13 333 35 333 64 L333 288 L519 604 C539 634 563 647 591 651 L591 661 L458 661 L458 651 L469 650 C502 648 509 619 487 581 L488 581 L323 297 L160 597 C145 626 152 648 179 650 L187 651 L187 660 L187 660 Z M320 890 C317 895 310 906 303 906 C295 906 288 895 286 891 C286 891 191 710 182 699 L187 694 C230 746 278 813 303 849 C340 796 420 695 420 695 L425 700 C425 700 366 798 321 891 L320 890 L320 890 Z " />
<glyph glyph-name="Ydieresis" unicode="&#x178;" horiz-adv-x="591" d="M426 763 C426 806 360 806 360 763 C360 720 426 720 426 763 L426 763 Z M246 763 C246 806 180 806 180 763 C180 720 246 720 246 763 L246 763 Z M187 660 L21 660 L21 650 C46 646 70 629 88 596 L88 596 L273 261 L272 64 C272 35 254 13 228 11 L220 10 L220 0 L385 0 L385 10 L377 11 C351 13 333 35 333 64 L333 288 L519 604 C539 634 563 647 591 651 L591 661 L458 661 L458 651 L469 650 C502 648 509 619 487 581 L488 581 L323 297 L160 597 C145 626 152 648 179 650 L187 651 L187 660 L187 660 Z " />
<glyph glyph-name="Zacute" unicode="&#x179;" horiz-adv-x="600" d="M338 691 C338 691 418 781 448 820 C472 848 489 871 489 874 C489 880 467 896 458 896 C456 896 440 873 420 841 C390 802 331 696 331 696 L338 691 Z M551 114 C547 116 539 119 539 119 L522 87 C500 46 455 16 414 16 L128 16 L545 660 L117 660 L115 653 L114 653 C107 627 97 589 90 563 L98 563 L114 582 C144 619 192 645 229 645 L466 645 L51 0 L531 0 C535 35 545 80 550 114 L551 114 L551 114 Z " />
<glyph glyph-name="zacute" unicode="&#x17a;" horiz-adv-x="499" d="M191 531 C191 531 271 621 301 660 C325 688 342 711 342 714 C342 720 320 736 311 736 C309 736 293 713 273 681 C243 642 184 536 184 536 L191 531 Z M456 110 C452 112 444 115 444 115 L427 83 C405 42 360 12 319 12 L127 12 L449 500 L71 500 L69 494 C64 474 56 445 51 425 L59 425 L68 434 C99 465 148 486 184 487 L379 488 L55 0 L437 0 C442 32 450 77 455 109 L456 110 L456 110 Z " />
<glyph glyph-name="Zdot" unicode="&#x17b;" horiz-adv-x="600" d="M372 763 C372 806 306 806 306 763 C306 720 372 720 372 763 L372 763 Z M551 114 C547 116 539 119 539 119 L522 87 C500 46 455 16 414 16 L128 16 L545 660 L117 660 L115 653 L114 653 C107 627 97 589 90 563 L98 563 L114 582 C144 619 192 645 229 645 L466 645 L51 0 L531 0 C535 35 545 80 550 114 L551 114 L551 114 Z " />
<glyph glyph-name="zdot" unicode="&#x17c;" horiz-adv-x="499" d="M300 603 C300 646 234 646 234 603 C234 560 300 560 300 603 L300 603 Z M456 110 C452 112 444 115 444 115 L427 83 C405 42 360 12 319 12 L127 12 L449 500 L71 500 L69 494 C64 474 56 445 51 425 L59 425 L68 434 C99 465 148 486 184 487 L379 488 L55 0 L437 0 C442 32 450 77 455 109 L456 110 L456 110 Z " />
<glyph glyph-name="Zcaron" unicode="&#x17d;" horiz-adv-x="600" d="M455 927 C455 927 375 826 338 773 C313 809 265 876 222 928 L217 923 C226 912 321 731 321 731 C323 727 330 716 338 716 C345 716 352 727 355 732 C400 825 459 923 459 923 L455 927 L455 927 Z M550 115 C546 117 538 120 538 120 L521 88 C499 47 454 17 413 17 L127 17 L544 661 L116 661 L114 654 L113 654 C106 628 96 590 89 564 L97 564 L113 583 C143 620 191 646 228 646 L465 646 L50 1 L530 1 C534 36 544 81 549 115 L550 115 L550 115 Z " />
<glyph glyph-name="zcaron" unicode="&#x17e;" horiz-adv-x="499" d="M383 767 C383 767 303 666 266 613 C241 649 193 716 150 768 L145 763 C154 752 249 571 249 571 C251 567 258 556 266 556 C273 556 280 567 283 572 C328 665 387 763 387 763 L383 767 L383 767 Z M455 111 C451 113 443 116 443 116 L426 84 C404 43 359 13 318 13 L126 13 L448 501 L70 501 L68 495 C63 475 55 446 50 426 L58 426 L67 435 C98 466 147 487 183 488 L378 489 L54 1 L436 1 C441 33 449 78 454 110 L455 111 L455 111 Z " />
<glyph glyph-name="oogonek" unicode="&#x1eb;" horiz-adv-x="710" d="M730 -51 L725 -47 C703 -74 644 -93 586 -93 C498 -93 421 -56 366 -5 C554 -3 660 131 660 277 C660 424 552 558 361 558 C170 558 62 424 62 277 C62 133 165 1 348 -5 C421 -77 506 -129 581 -129 C630 -129 693 -97 730 -52 L730 -51 L730 -51 Z M122 276 C122 416 209 544 361 544 C513 544 600 416 600 276 C600 136 513 8 361 8 C209 8 122 136 122 276 L122 276 Z " />
<glyph glyph-name="Adotabove" unicode="&#x226;" horiz-adv-x="616" d="M332 763 C332 806 265 805 265 763 C265 720 332 719 332 762 L332 763 Z M429 -1 L608 -1 L608 9 C580 9 560 24 544 58 L306 674 L291 674 L72 56 C58 26 34 13 4 9 L4 -1 L148 -1 L148 9 L137 10 C104 12 88 36 96 69 L154 235 L413 235 L477 63 C488 34 474 12 445 10 L429 9 L429 -1 L429 -1 Z M407 250 L159 250 L279 595 L407 250 L407 250 Z " />
<glyph glyph-name="G_sc" unicode="&#x262;" horiz-adv-x="739" d="M590 398 L590 496 L587 490 C587 492 589 494 590 496 C528 532 431 558 360 558 C187 558 62 440 62 277 C62 113 187 -5 360 -5 C434 -5 533 21 595 57 L595 196 C595 225 613 247 639 249 L647 250 L647 260 L494 260 L494 250 L502 249 C528 247 546 225 546 196 L546 49 C489 25 417 9 361 9 C223 9 123 122 123 277 C123 432 223 545 361 545 C385 545 412 542 440 536 L440 536 C492 525 547 479 571 426 C575 418 579 406 583 398 L590 398 L590 398 Z " />
<glyph glyph-name="I_sc" unicode="&#x26a;" horiz-adv-x="240" d="M201 10 L193 11 C167 13 149 35 149 64 L149 489 C149 518 167 540 193 542 L201 543 L201 553 L43 553 L43 543 L51 542 C77 540 95 518 95 489 L95 64 C95 35 77 13 51 11 L43 10 L43 0 L201 0 L201 10 L201 10 Z " />
<glyph glyph-name="N_sc" unicode="&#x274;" horiz-adv-x="602" d="M42 543 L50 542 C76 540 94 518 94 489 L94 64 C94 35 76 13 50 11 L42 10 L42 0 L163 0 L163 10 L155 11 C129 13 111 35 111 64 L111 506 C240 334 368 161 498 -11 L514 -11 L514 489 C514 518 532 540 558 542 L566 543 L566 553 L446 553 L446 543 L454 542 C480 540 498 518 498 489 L498 77 L143 553 L42 553 L42 543 L42 543 Z " />
<glyph glyph-name="R_sc" unicode="&#x280;" horiz-adv-x="572" d="M51 543 L59 542 C85 540 103 518 103 489 L103 64 C103 35 85 13 59 11 L51 10 L51 0 L209 0 L209 10 L201 11 C175 13 157 35 157 64 L157 265 L226 265 C251 240 311 181 386 106 C485 8 497 0 551 0 L572 0 L572 11 C544 11 542 14 460 96 C376 179 311 245 287 269 C384 283 450 339 450 412 C450 494 370 553 259 553 L50 553 L51 543 L51 543 Z M238 278 L156 279 L156 539 L259 540 C337 540 393 486 393 412 C393 334 328 278 238 278 L238 278 Z " />
<glyph glyph-name="Y_sc" unicode="&#x28f;" horiz-adv-x="521" d="M182 553 L23 553 L23 543 C48 539 70 524 89 493 L242 220 L241 64 C240 35 222 12 196 10 L188 9 L188 -1 L347 -1 L347 9 L339 10 C313 12 295 34 295 63 L295 243 L448 498 C468 526 492 538 519 542 L519 552 L388 552 L388 542 L399 541 C429 539 438 515 422 482 L282 246 L149 495 C137 521 147 540 172 542 L180 543 L182 553 L182 553 Z " />
<glyph glyph-name="B_sc" unicode="&#x299;" horiz-adv-x="521" d="M248 301 L205 300 L157 299 L157 539 C157 539 230 540 260 540 C338 540 394 493 394 427 C394 358 334 301 248 301 L248 301 Z M51 543 L59 542 C85 540 103 518 103 489 L103 64 C103 35 85 13 59 11 L51 10 L51 0 L282 0 C409 0 501 64 501 152 C501 226 422 283 306 297 C391 314 448 363 448 426 C448 499 369 552 260 552 L51 552 L51 543 L51 543 Z M157 289 L232 289 C355 289 444 231 444 151 C444 71 373 13 276 13 L157 13 L157 289 L157 289 Z " />
<glyph glyph-name="H_sc" unicode="&#x29c;" horiz-adv-x="674" d="M635 10 L627 11 C601 13 583 35 583 64 L583 489 C583 518 601 540 627 542 L635 543 L635 553 L476 553 L476 543 L484 542 C510 540 528 518 528 489 L528 300 L147 300 L147 489 C147 518 165 540 191 542 L199 543 L199 553 L41 553 L41 543 L49 542 C75 540 93 518 93 489 L93 64 C93 35 75 13 49 11 L41 10 L41 0 L199 0 L199 10 L191 11 C165 13 147 35 147 64 L147 286 L528 286 L528 64 C528 35 510 13 484 11 L476 10 L476 0 L635 0 L635 10 L635 10 Z " />
<glyph glyph-name="L_sc" unicode="&#x29f;" horiz-adv-x="496" d="M199 553 L41 553 L41 543 L49 542 C75 540 93 518 93 489 L93 64 C93 35 75 13 49 11 L41 10 L41 0 L406 0 L407 7 L408 7 C413 37 421 82 426 112 C421 114 413 117 413 117 L396 85 C374 44 329 14 288 14 L147 14 L147 489 C147 518 165 540 191 542 L199 543 L199 553 L199 553 Z " />
<glyph glyph-name="circumflex" unicode="&#x2c6;" horiz-adv-x="359" d="M197 729 C194 734 187 745 180 745 C172 745 165 734 163 730 C163 730 69 551 58 538 L64 533 C107 585 155 652 180 688 C217 635 297 534 297 534 L302 539 C302 539 243 637 198 730 L197 729 L197 729 Z " />
<glyph glyph-name="caron" unicode="&#x2c7;" horiz-adv-x="359" d="M296 767 C296 767 216 666 179 613 C154 649 106 716 63 768 L57 763 C68 750 162 571 162 571 C164 567 171 556 179 556 C186 556 193 567 196 572 C241 665 300 763 300 763 L296 767 L296 767 Z " />
<glyph glyph-name="firsttonechinese" unicode="&#x2c9;" horiz-adv-x="359" d="M22 609 L338 609 L338 640 L22 640 L22 609 L22 609 Z " />
<glyph glyph-name="breve" unicode="&#x2d8;" horiz-adv-x="359" d="M55 712 C67 651 119 606 180 606 C240 606 292 650 304 711 L295 713 C287 672 239 642 180 642 C121 642 73 672 65 713 L55 712 L55 712 Z " />
<glyph glyph-name="dotaccent" unicode="&#x2d9;" horiz-adv-x="359" d="M213 603 C213 646 147 646 147 603 C147 560 213 560 213 603 L213 603 Z " />
<glyph glyph-name="ring" unicode="&#x2da;" horiz-adv-x="359" d="M101 628 C101 674 134 708 180 708 C226 708 259 674 259 628 C259 586 221 547 180 547 C139 547 101 586 101 628 L101 628 Z M86 628 C86 579 131 535 180 535 C229 535 274 579 274 628 C274 681 235 720 180 720 C125 720 86 681 86 628 L86 628 Z " />
<glyph glyph-name="A_sc" unicode="&#x1d00;" horiz-adv-x="544" d="M5 0 L146 0 L146 10 L135 11 C100 13 84 40 97 76 L140 198 L360 198 L411 64 C421 36 409 13 379 11 L363 10 L363 0 L535 0 L535 10 L528 10 C507 9 482 33 469 64 L270 566 L256 566 L75 64 C65 35 38 13 12 11 L4 10 L5 0 L5 0 Z M354 211 L144 212 L245 496 L354 211 L354 211 Z " />
<glyph glyph-name="C_sc" unicode="&#x1d04;" horiz-adv-x="670" d="M601 155 C597 147 593 135 589 127 C564 73 503 27 439 15 C415 11 392 9 371 9 C227 9 122 122 122 277 C122 432 227 545 371 545 C398 545 428 541 459 535 L459 535 C511 524 565 479 589 426 C593 418 597 406 601 398 L610 398 L610 496 L607 490 C607 492 609 494 610 496 C548 532 447 558 371 558 C192 558 62 440 62 277 C62 113 192 -5 371 -5 C447 -5 548 21 610 57 L610 155 L601 155 L601 155 Z " />
<glyph glyph-name="D_sc" unicode="&#x1d05;" horiz-adv-x="618" d="M51 543 L59 542 C85 540 103 518 103 489 L103 64 C103 35 85 13 59 11 L51 10 L51 0 L281 0 C447 0 568 116 568 277 C568 437 434 553 250 553 L51 553 L51 543 L51 543 Z M157 14 L157 539 C184 539 223 540 250 540 C403 540 514 430 514 277 C514 124 416 14 281 14 L157 14 L157 14 Z " />
<glyph glyph-name="E_sc" unicode="&#x1d07;" horiz-adv-x="496" d="M340 230 L340 354 L332 354 L328 346 C317 320 280 302 242 302 L147 302 L147 539 C186 539 235 539 283 539 C326 535 369 503 388 461 L395 446 L402 446 L402 552 L41 552 L41 542 L49 541 C75 539 93 517 93 488 L93 63 C93 34 75 12 49 10 L41 9 L41 -1 L406 -1 L407 6 L408 6 C413 35 420 77 425 106 L418 106 L408 91 C380 46 326 13 280 13 L147 13 L147 287 L242 287 C280 287 316 266 328 237 L332 229 L340 230 L340 230 Z " />
<glyph glyph-name="J_sc" unicode="&#x1d0a;" horiz-adv-x="296" d="M257 553 L99 553 L99 543 L107 542 C133 540 151 518 151 489 L151 168 C151 52 133 1 91 1 C72 1 53 22 46 50 C43 63 33 72 22 72 C6 72 -3 63 0 50 C9 15 41 -10 78 -10 C166 -10 205 58 205 213 L205 489 C205 518 223 540 249 542 L257 543 L257 553 L257 553 Z " />
<glyph glyph-name="K_sc" unicode="&#x1d0b;" horiz-adv-x="569" d="M209 553 L51 553 L51 543 L59 542 C85 540 103 518 103 489 L103 64 C103 35 85 13 59 11 L51 10 L51 0 L209 0 L209 10 L201 11 C175 13 157 35 157 64 L157 298 L166 287 L167 288 C185 269 226 227 277 174 C397 49 476 -5 539 -5 L560 -5 L560 6 C523 6 456 65 317 210 C266 263 225 305 207 323 L399 497 C434 525 466 538 499 542 L499 552 L389 552 L389 542 L395 541 C412 539 401 517 369 488 L370 488 L157 297 L157 488 C157 517 175 539 201 541 L209 542 L209 553 L209 553 Z " />
<glyph glyph-name="M_sc" unicode="&#x1d0d;" horiz-adv-x="724" d="M687 554 L612 554 L612 553 L587 553 L353 -5 L367 -5 L589 513 L608 64 C609 35 592 12 567 10 L559 9 L559 -1 L717 -1 L717 9 L709 10 C684 12 666 35 663 63 L640 488 L641 488 C639 518 656 540 680 542 L688 543 L687 554 L687 554 Z M38 -1 L181 -1 L181 9 L168 10 C135 12 110 35 108 67 L127 487 C203 323 279 160 354 -5 L380 58 L379 61 L156 553 L62 553 L62 543 L70 542 C95 540 112 518 111 489 L92 60 C89 33 70 13 46 11 L38 10 L38 -1 L38 -1 Z " />
<glyph glyph-name="O_sc" unicode="&#x1d0f;" horiz-adv-x="710" d="M122 277 C122 417 209 545 361 545 C513 545 600 417 600 277 C600 137 513 9 361 9 C209 9 122 137 122 277 L122 277 Z M62 277 C62 130 170 -5 361 -5 C552 -5 660 130 660 277 C660 424 552 558 361 558 C170 558 62 424 62 277 L62 277 Z " />
<glyph glyph-name="P_sc" unicode="&#x1d18;" horiz-adv-x="497" d="M209 10 L201 11 C175 13 157 35 157 64 L157 250 L248 250 C381 250 477 313 477 400 C477 489 390 553 271 553 L51 553 L51 543 L59 542 C85 540 103 518 103 489 L103 64 C103 35 85 13 59 11 L51 10 L51 0 L209 0 L209 10 L209 10 Z M157 264 L157 539 C190 539 238 540 271 540 C357 540 420 481 420 400 C420 321 348 263 248 263 C248 263 183 264 157 264 L157 264 Z " />
<glyph glyph-name="T_sc" unicode="&#x1d1b;" horiz-adv-x="571" d="M26 437 L47 477 C67 514 107 540 144 540 L258 540 L258 64 C258 35 240 13 214 11 L206 10 L206 0 L365 0 L365 10 L357 11 C331 13 313 35 313 64 L313 540 L428 540 C466 540 506 514 525 477 L546 437 L554 437 C551 469 547 514 544 546 L545 546 L544 553 L28 553 L27 547 C26 547 18 445 17 437 L26 437 L26 437 Z " />
<glyph glyph-name="U_sc" unicode="&#x1d1c;" horiz-adv-x="588" d="M568 553 L432 553 L432 543 L441 542 C472 540 494 515 494 481 L494 153 C494 72 439 14 314 14 C198 14 147 76 147 162 L147 489 C147 518 165 540 191 542 L199 543 L199 553 L41 553 L41 543 L49 542 C75 540 93 518 93 489 L93 173 C93 70 158 -5 306 -5 C448 -5 510 59 510 148 L510 481 C510 515 531 540 560 542 L568 543 L568 553 L568 553 Z " />
<glyph glyph-name="V_sc" unicode="&#x1d20;" horiz-adv-x="544" d="M180 553 L14 553 L14 543 C39 539 61 525 76 494 L290 -14 L304 -14 L476 497 C490 527 513 540 543 544 L543 554 L397 554 L397 544 L408 543 C445 541 462 512 452 472 L313 53 L137 489 C125 518 137 540 166 542 L179 543 L180 553 L180 553 Z " />
<glyph glyph-name="W_sc" unicode="&#x1d21;" horiz-adv-x="787" d="M783 553 L646 553 L646 543 L663 542 C692 541 708 518 699 489 L574 63 L411 563 L398 563 L232 -15 L246 -15 L387 480 L551 -15 L565 -15 L715 489 C724 518 749 540 775 542 L783 543 L783 553 L783 553 Z M161 553 L1 553 L1 543 C27 539 46 525 59 494 L232 -16 L253 58 L119 488 C110 517 124 539 152 541 L161 542 L161 553 L161 553 Z " />
<glyph glyph-name="Z_sc" unicode="&#x1d22;" horiz-adv-x="535" d="M467 7 L468 7 C473 37 481 82 486 112 C481 114 473 117 473 117 L456 85 C434 44 389 14 348 14 L122 14 L480 553 L120 553 L118 547 C111 521 101 484 94 458 L102 458 L118 477 C148 514 196 540 233 540 L410 540 L53 0 L466 0 L467 7 L467 7 Z " />
<glyph glyph-name="Wgrave" unicode="&#x1e80;" horiz-adv-x="923" d="M167 660 L1 660 L1 650 C26 646 45 633 58 603 L267 -15 L283 -15 L453 570 L652 -15 L667 -15 L851 596 C860 625 885 647 911 649 L919 650 L919 660 L780 660 L780 650 L797 649 C827 648 842 625 833 596 L680 79 L482 670 L467 670 L293 74 L126 596 C118 624 130 647 159 649 L168 650 L167 660 L167 660 Z M393 874 C393 870 411 848 436 820 C467 781 549 691 549 691 L555 696 C555 696 494 802 463 841 C443 873 427 896 424 896 C415 896 393 880 393 874 L393 874 Z " />
<glyph glyph-name="Wacute" unicode="&#x1e82;" horiz-adv-x="923" d="M412 691 C412 691 492 781 522 820 C546 849 564 871 564 874 C564 880 542 896 533 896 C531 896 515 873 495 841 C465 802 406 696 406 696 L412 691 Z M167 660 L1 660 L1 650 C26 646 45 633 58 603 L267 -15 L283 -15 L453 570 L652 -15 L667 -15 L851 596 C860 625 885 647 911 649 L919 650 L919 660 L780 660 L780 650 L797 649 C827 648 842 625 833 596 L680 79 L482 670 L467 670 L293 74 L126 596 C118 624 130 647 159 649 L168 650 L167 660 L167 660 Z " />
<glyph glyph-name="Wdieresis" unicode="&#x1e84;" horiz-adv-x="923" d="M598 763 C598 806 532 806 532 763 C532 720 598 720 598 763 L598 763 Z M417 763 C417 806 351 806 351 763 C351 720 417 720 417 763 L417 763 Z M167 660 L1 660 L1 650 C26 646 45 633 58 603 L267 -15 L283 -15 L453 570 L652 -15 L667 -15 L851 596 C860 625 885 647 911 649 L919 650 L919 660 L780 660 L780 650 L797 649 C827 648 842 625 833 596 L680 79 L482 670 L467 670 L293 74 L126 596 C118 624 130 647 159 649 L168 650 L167 660 L167 660 Z " />
<glyph glyph-name="Etilde" unicode="&#x1ebc;" horiz-adv-x="550" d="M118 755 C118 793 139 821 167 821 C223 821 304 758 360 758 C402 758 432 799 432 855 L423 855 C423 820 402 795 372 795 C316 795 234 857 178 857 C138 857 109 814 109 755 L118 755 L118 755 Z M394 286 L394 412 L386 412 L382 404 C371 378 334 360 296 360 L152 360 L152 645 L328 645 C374 645 422 612 442 567 L449 552 L456 552 L456 660 L40 660 L40 650 L48 649 C74 647 92 625 92 596 L92 64 C92 35 74 13 48 11 L40 10 L40 0 L461 0 L462 7 L463 7 C468 36 476 79 481 108 L474 108 L464 93 C436 48 382 15 336 15 L152 15 L152 344 L296 344 C334 344 370 323 382 294 L386 286 L394 286 L394 286 Z " />
<glyph glyph-name="Ygrave" unicode="&#x1ef2;" horiz-adv-x="591" d="M187 660 L21 660 L21 650 C46 646 70 629 88 596 L88 596 L273 261 L272 64 C272 35 254 13 228 11 L220 10 L220 0 L385 0 L385 10 L377 11 C351 13 333 35 333 64 L333 288 L519 604 C539 634 563 647 591 651 L591 661 L458 661 L458 651 L469 650 C502 648 509 619 487 581 L488 581 L323 297 L160 597 C145 626 152 648 179 650 L187 651 L187 660 L187 660 Z M221 875 C221 870 239 848 263 821 C294 782 376 692 376 692 L383 697 C383 697 322 803 291 842 C271 874 255 897 252 897 C243 897 221 881 221 875 L221 875 Z " />
<glyph glyph-name="quoteleft" unicode="&#x2018;" horiz-adv-x="195" d="M70 502 C77 495 87 491 99 491 C122 491 138 507 138 530 C138 557 115 576 87 567 C81 606 102 645 128 658 L124 666 C83 646 54 598 54 552 C54 533 61 511 71 501 L70 502 L70 502 Z " />
<glyph glyph-name="quoteright" unicode="&#x2019;" horiz-adv-x="195" d="M128 654 C121 661 111 665 99 665 C76 665 60 649 60 626 C60 599 83 580 111 589 C117 550 96 511 70 498 L74 490 C115 510 144 558 144 604 C144 623 137 645 127 655 L128 654 L128 654 Z " />
<glyph glyph-name="quotedblleft" unicode="&#x201c;" horiz-adv-x="310" d="M185 502 C192 495 202 491 214 491 C237 491 253 507 253 530 C253 557 230 576 202 567 C196 606 217 645 243 658 L239 666 C198 646 169 598 169 552 C169 533 176 511 186 501 L185 502 L185 502 Z M71 501 C78 494 88 490 100 490 C123 490 139 506 139 529 C139 556 116 575 88 566 C82 605 103 644 129 657 L125 665 C84 645 55 597 55 551 C55 532 62 510 72 500 L71 501 L71 501 Z " />
<glyph glyph-name="quotedblright" unicode="&#x201d;" horiz-adv-x="310" d="M243 654 C236 661 226 665 214 665 C191 665 175 649 175 626 C175 599 198 580 226 589 C232 550 211 511 185 498 L189 490 C230 510 259 558 259 604 C259 623 252 645 242 655 L243 654 L243 654 Z M127 655 C120 662 110 666 98 666 C75 666 59 650 59 627 C59 600 82 581 110 590 C116 551 95 512 69 499 L73 491 C114 511 143 559 143 605 C143 624 136 646 126 656 L127 655 L127 655 Z " />
<glyph glyph-name="ellipsis" unicode="&#x2026;" horiz-adv-x="462" d="M424 39 C424 90 346 90 346 39 C346 -12 424 -12 424 39 L424 39 Z M270 39 C270 90 192 90 192 39 C192 -12 270 -12 270 39 L270 39 Z M116 39 C116 90 38 90 38 39 C38 -12 116 -12 116 39 L116 39 Z " />
<glyph glyph-name="guilsinglleft" unicode="&#x2039;" horiz-adv-x="309" d="M79 251 L262 459 L257 464 L20 253 L20 247 L258 37 L264 43 L79 251 L79 251 Z " />
<glyph glyph-name="guilsinglright" unicode="&#x203a;" horiz-adv-x="309" d="M51 37 L289 247 L289 253 L52 464 L47 459 L230 251 L45 43 L51 37 L51 37 Z " />
<glyph glyph-name="Euro" unicode="&#x20ac;" horiz-adv-x="773" d="M713 504 L713 603 C651 639 538 665 445 665 C268 665 134 554 106 394 L56 394 L51 355 L102 355 C101 339 101 322 102 306 L51 306 L46 267 L106 267 C134 107 268 -4 445 -4 C538 -4 651 22 713 58 L709 65 C709 65 712 59 712 58 L712 157 L703 157 C699 149 695 138 691 130 C666 75 600 28 533 18 C503 14 473 12 444 12 C301 12 193 116 169 268 L491 268 L497 307 L165 307 C164 323 164 340 165 356 L497 356 L502 395 L169 395 C193 547 301 651 444 651 C486 651 532 646 575 637 C621 623 668 581 690 533 C694 525 698 514 702 506 L713 504 L713 504 Z " />
<glyph glyph-name="F_sc" unicode="&#xa730;" horiz-adv-x="435" d="M41 543 L49 542 C75 540 93 518 93 489 L93 64 C93 35 75 13 49 11 L41 10 L41 0 L209 0 L209 10 L198 11 C168 13 147 35 147 64 L147 284 L232 284 C270 284 306 263 318 234 L322 226 L330 226 L330 350 L322 350 L318 342 C307 316 270 298 232 298 L147 298 L147 539 C195 539 255 539 313 539 C356 535 399 503 418 461 L425 446 L432 446 L432 552 L41 552 L41 543 L41 543 Z " />
<glyph glyph-name="S_sc" unicode="&#xa731;" horiz-adv-x="456" d="M376 405 L376 507 L372 499 C372 501 375 504 376 507 C325 537 258 558 218 558 C122 558 52 492 52 402 C52 343 117 282 206 257 C302 230 372 172 372 120 C372 56 317 9 241 9 C239 9 196 12 196 13 C144 21 89 66 64 121 C60 129 56 140 52 148 L43 148 L43 46 C94 16 177 -5 241 -5 C340 -5 411 57 411 142 C411 205 342 270 246 297 C155 323 89 376 89 424 C89 494 142 545 216 545 C216 545 264 540 263 536 C293 527 325 499 338 469 C346 450 359 424 367 405 L376 405 L376 405 Z " />
<glyph glyph-name="X_sc" unicode="&#xf078;" horiz-adv-x="574" d="M54 0 L192 0 L192 10 L182 11 C151 13 142 37 160 69 L280 258 L415 64 C434 36 430 13 400 11 L391 10 L391 0 L553 0 L553 10 C529 14 506 27 483 55 L307 307 L449 499 C474 527 502 539 533 543 L533 553 L394 553 L394 543 L409 542 C438 540 445 519 426 491 L300 316 L180 488 C161 516 165 539 195 541 L204 542 L204 552 L42 552 L42 542 C66 538 89 525 112 497 L272 268 L134 55 C111 26 84 13 53 9 L54 0 L54 0 Z " />
</font>
</svg>
