<?xml version="1.0" encoding="UTF-8"?>
<svg xmlns="http://www.w3.org/2000/svg" xmlns:xlink="http://www.w3.org/1999/xlink" version="1.2" >
<font id="Cammron Round">
<font-face  font-family="Cammron" units-per-em="1024" ascent="936" descent="-280" font-style="normal" font-weight="400" font-stretch="normal" cap-height="927" x-height="468" underline-position="-125" underline-thickness="50" />
<missing-glyph  horiz-adv-x="100" d="" />
<glyph glyph-name="NULL" d="" />
<glyph glyph-name="CR" unicode="&#xd;" horiz-adv-x="256" d="" />
<glyph glyph-name="space" unicode="&#x20;" horiz-adv-x="253" d="" />
<glyph glyph-name="exclam" unicode="&#x21;" horiz-adv-x="188" d="M138 34 C138 85 60 85 60 34 C60 -17 138 -17 138 34 L138 34 Z M128 620 C129 646 116 665 95 665 C74 665 60 646 62 620 C62 483 95 148 95 148 C95 148 97 148 99 148 C101 148 103 146 103 149 C104 165 128 486 128 620 L128 620 Z " />
<glyph glyph-name="quotedbl" unicode="&#x22;" horiz-adv-x="248" d="M141 648 L168 468 C169 466 171 464 174 464 C176 464 178 466 179 468 L206 648 C207 655 203 660 196 660 L151 660 C144 660 140 655 141 648 L141 648 Z M42 648 L69 468 C70 466 72 464 75 464 C77 464 79 466 80 468 L107 648 C108 655 104 660 97 660 L52 660 C45 660 41 655 42 648 L42 648 Z " />
<glyph glyph-name="numbersign" unicode="&#x23;" horiz-adv-x="556" d="M403 670 L377 490 C377 485 372 481 367 481 L233 481 C226 481 222 486 223 493 L248 669 C248 674 244 679 239 679 L237 679 C232 679 227 675 227 670 L201 490 C201 485 196 481 191 481 L73 481 C68 481 64 477 63 472 L60 450 C60 444 64 439 71 439 L182 439 C189 439 193 434 192 427 L164 230 C164 225 159 221 154 221 L34 221 C29 221 24 217 24 212 L21 191 C20 184 24 179 31 179 L145 179 C152 179 156 174 155 167 L133 10 C132 5 136 0 142 0 L143 0 C148 0 153 4 153 9 L177 170 C177 175 182 179 187 179 L321 179 C328 179 332 174 331 167 L309 10 C308 5 312 0 318 0 L319 0 C324 0 329 4 329 9 L353 170 C353 175 358 179 363 179 L476 179 C481 179 486 183 486 188 L489 209 C490 216 486 221 479 221 L372 221 C365 221 361 226 362 233 L390 430 C390 435 395 439 400 439 L521 439 C526 439 531 443 531 448 L534 469 C535 476 531 481 524 481 L409 481 C402 481 398 486 399 493 L424 669 C424 674 420 679 415 679 L413 679 C408 679 403 675 403 670 L403 670 Z M224 439 L358 439 C365 439 369 434 368 427 L340 230 C340 225 335 221 330 221 L196 221 C189 221 185 226 186 233 L214 430 C214 435 219 439 224 439 L224 439 Z " />
<glyph glyph-name="dollar" unicode="&#x24;" horiz-adv-x="520" d="M42 145 L42 51 C42 48 45 43 47 42 C81 24 133 10 189 2 C194 2 198 -3 198 -8 L198 -65 C198 -70 202 -74 207 -74 C212 -74 216 -70 216 -65 L216 -12 C216 -6 222 -2 228 -2 C242 -3 256 -4 269 -4 C274 -4 278 -9 278 -14 L278 -65 C278 -70 282 -74 287 -74 C292 -74 296 -70 296 -65 L296 -13 C296 -7 299 -3 304 -2 C405 8 476 77 476 171 C476 242 405 314 304 348 C300 350 296 355 296 359 L296 639 C296 643 299 645 303 645 C314 642 326 639 338 636 C365 626 392 601 404 574 L430 515 C431 513 434 511 437 511 C439 511 441 513 441 516 L441 610 C441 613 438 618 435 619 C399 639 350 654 304 661 C299 662 296 666 296 671 L296 726 C296 731 292 735 287 735 C282 735 278 731 278 726 L278 675 C278 669 272 665 266 665 C252 666 238 666 225 664 C220 664 216 668 216 673 L216 726 C216 731 212 735 207 735 C202 735 198 731 198 726 L198 667 C198 663 196 658 192 657 C108 635 52 567 52 479 C52 420 109 358 192 323 C195 321 198 317 198 313 L198 28 C198 21 192 17 185 19 C132 32 87 72 64 122 C61 129 57 138 54 145 C53 147 50 149 48 149 L47 150 C44 150 42 148 42 145 L42 145 Z M216 383 L216 638 C216 642 220 647 225 648 C239 650 253 650 268 648 C273 648 278 643 278 638 L278 366 C278 359 273 356 267 358 C251 363 236 368 222 375 C219 376 216 380 216 383 L216 383 Z M184 395 C128 427 93 467 93 505 C93 568 129 618 184 639 C191 642 198 638 198 630 L198 404 C198 395 191 390 184 395 L184 395 Z M227 311 C243 307 259 303 274 298 C277 296 278 293 278 289 L278 22 C278 16 275 12 269 12 C255 13 240 14 225 16 C220 16 216 21 216 26 L216 304 C216 310 222 313 227 311 L227 311 Z M308 285 C384 250 434 197 434 148 C434 79 383 26 308 14 C302 13 296 18 296 24 L296 275 C296 283 301 288 308 285 L308 285 Z " />
<glyph glyph-name="ampersand" unicode="&#x26;" horiz-adv-x="714" d="M607 300 L502 300 C499 300 497 298 497 295 L497 294 C497 292 499 290 501 290 L505 289 C531 287 549 265 549 236 L549 206 C549 168 535 134 512 105 C508 100 505 99 501 103 C438 162 344 274 289 352 C285 358 289 366 297 368 C393 393 461 464 461 544 C461 614 399 664 314 664 C229 664 167 596 167 503 C167 466 188 416 223 359 C227 354 227 349 221 347 C119 302 50 226 50 154 C50 61 139 -7 262 -7 C348 -7 421 15 474 51 C477 53 486 54 489 52 C573 -10 639 -14 707 -4 C709 -3 712 -1 712 2 C712 4 710 6 708 5 C659 -2 606 7 521 81 C517 85 517 90 520 95 C545 126 559 163 559 204 L559 234 C559 263 577 285 603 287 L607 288 C609 288 611 290 612 292 L612 294 C613 297 610 300 607 300 L607 300 Z M206 526 C206 599 249 651 308 651 C371 651 417 604 417 540 C417 461 360 393 280 372 C276 371 273 371 271 375 C231 436 206 488 206 526 L206 526 Z M459 58 C415 31 357 16 290 16 C179 16 99 82 99 174 C99 236 150 300 226 337 C231 339 233 338 236 334 C289 254 386 136 458 75 C463 70 465 62 459 58 L459 58 Z " />
<glyph glyph-name="quotesingle" unicode="&#x27;" horiz-adv-x="149" d="M42 648 L69 468 C70 466 72 464 75 464 C77 464 79 466 80 468 L107 648 C108 655 104 660 97 660 L52 660 C45 660 41 655 42 648 L42 648 Z " />
<glyph glyph-name="parenleft" unicode="&#x28;" horiz-adv-x="212" d="M190 683 C114 589 60 459 60 270 C60 76 117 -56 196 -150 C198 -152 197 -149 199 -147 C201 -145 199 -140 198 -139 C142 -69 102 54 102 270 C102 486 142 609 198 679 C199 680 201 685 199 687 C197 689 192 685 190 683 L190 683 Z " />
<glyph glyph-name="parenright" unicode="&#x29;" horiz-adv-x="212" d="M16 -143 C92 -49 146 81 146 270 C146 464 89 596 10 690 C8 692 9 689 7 687 C5 685 7 680 8 679 C64 609 104 486 104 270 C104 54 64 -69 8 -139 C7 -140 5 -145 7 -147 C9 -149 14 -145 16 -143 L16 -143 Z " />
<glyph glyph-name="asterisk" unicode="&#x2a;" horiz-adv-x="272" d="M262 584 C263 585 263 585 264 584 L262 584 Z M272 471 C277 478 275 487 269 492 C265 495 262 494 260 490 L249 470 C247 467 247 464 250 463 C259 461 267 463 273 471 L272 471 Z M266 587 C288 600 268 633 248 616 C247 615 245 614 245 614 C221 599 177 564 159 550 C157 548 153 548 153 551 C155 589 168 662 168 662 C173 689 130 689 135 662 C135 662 145 605 149 565 C150 556 142 551 134 556 C102 579 57 616 57 616 C57 616 54 611 51 606 L46 597 C43 592 34 589 40 587 C43 586 100 564 135 548 C142 545 143 538 137 535 C103 519 43 494 42 496 C15 485 37 448 57 466 C59 466 109 508 142 531 C146 533 149 531 149 527 C144 501 136 448 136 423 C136 423 136 421 136 421 C133 396 174 397 169 423 C169 423 169 425 169 425 C169 452 160 504 156 529 C156 532 159 534 162 532 C180 518 216 490 239 474 C244 471 250 473 253 478 L260 489 C263 494 262 500 257 502 C232 515 192 531 170 539 C167 541 166 545 170 546 C194 555 243 574 265 587 C265 587 266 587 266 587 L266 587 Z M44 596 L52 610 C56 616 56 620 49 622 C33 625 22 604 32 593 C37 587 41 589 44 596 L44 596 Z " />
<glyph glyph-name="plus" unicode="&#x2b;" horiz-adv-x="555" d="M262 440 L262 272 C262 267 257 262 252 262 L85 262 C80 262 75 257 75 252 L75 248 C75 243 80 238 85 238 L252 238 C257 238 262 233 262 228 L262 60 C262 55 267 50 272 50 L278 50 C283 50 288 55 288 60 L288 228 C288 233 293 238 298 238 L465 238 C470 238 475 243 475 248 L475 252 C475 257 470 262 465 262 L298 262 C293 262 288 267 288 272 L288 440 C288 445 283 450 278 450 L272 450 C267 450 262 445 262 440 L262 440 Z " />
<glyph glyph-name="comma" unicode="&#x2c;" horiz-adv-x="195" d="M128 62 C121 69 111 73 99 73 C48 73 48 -5 99 -5 C102 -5 105 -2 108 2 C109 3 110 2 111 1 C119 -36 101 -77 77 -92 C75 -93 73 -97 73 -99 C73 -101 74 -103 76 -101 C115 -81 144 -34 144 11 C144 30 138 52 128 62 L128 62 Z " />
<glyph glyph-name="hyphen" unicode="&#x2d;" horiz-adv-x="300" d="M30 214 L270 214 C275 214 280 219 280 224 L280 246 C280 251 275 256 270 256 L30 256 C25 256 20 251 20 246 L20 224 C20 219 25 214 30 214 L30 214 Z " />
<glyph glyph-name="period" unicode="&#x2e;" horiz-adv-x="224" d="M164 34 C164 85 86 85 86 34 C86 -17 164 -17 164 34 L164 34 Z " />
<glyph glyph-name="slash" unicode="&#x2f;" horiz-adv-x="334" d="M12 -145 L17 -145 C21 -145 25 -142 26 -138 L330 699 C332 705 328 710 322 710 L317 710 C313 710 309 707 308 703 L4 -134 C2 -140 6 -145 12 -145 L12 -145 Z " />
<glyph glyph-name="zero" unicode="0" horiz-adv-x="616" d="M110 250 C110 391 193 493 308 493 C423 493 506 391 506 250 C506 109 423 7 308 7 C193 7 110 109 110 250 L110 250 Z M50 250 C50 102 158 -5 308 -5 C458 -5 566 102 566 250 C566 398 458 505 308 505 C158 505 50 398 50 250 L50 250 Z " />
<glyph glyph-name="one" unicode="1" horiz-adv-x="267" d="M209 11 L205 11 C179 13 161 35 161 64 L161 436 C161 465 179 487 205 489 L209 490 C211 490 213 492 213 494 L213 495 C213 498 211 500 208 500 L60 500 C57 500 55 498 55 495 L55 494 C55 492 57 490 59 490 L63 489 C89 487 107 465 107 436 L107 64 C107 35 89 13 63 11 L59 11 C57 10 55 8 55 6 L55 5 C55 2 57 0 60 0 L208 0 C211 0 213 2 213 5 L213 6 C213 8 211 10 209 11 L209 11 Z " />
<glyph glyph-name="two" unicode="2" horiz-adv-x="497" d="M459 102 L458 98 C458 98 458 96 458 96 C453 71 429 54 401 54 L148 54 C138 54 132 66 141 72 C320 182 441 257 441 350 C441 440 371 505 275 505 C193 505 109 446 74 364 C73 362 73 357 75 356 C76 355 79 357 80 359 C108 420 177 465 248 465 C325 465 380 409 380 331 C380 209 231 142 25 12 C23 11 25 9 25 6 L25 6 C25 3 28 0 31 0 L451 0 C457 0 461 4 462 9 L463 27 L470 101 C470 104 468 106 465 106 L464 106 C462 106 460 104 459 102 L459 102 Z " />
<glyph glyph-name="three" unicode="3" horiz-adv-x="473" d="M191 189 C293 189 366 126 366 38 C366 -94 223 -196 25 -206 C23 -206 25 -208 25 -211 C25 -213 40 -214 42 -214 C264 -199 423 -93 423 41 C423 127 354 192 254 207 C244 208 244 227 253 232 C331 276 379 330 379 378 C379 452 317 505 231 505 C159 505 69 454 14 382 C13 380 12 375 14 374 C15 373 19 374 20 376 C61 429 137 466 203 466 C273 466 324 422 324 361 C324 301 253 235 151 197 C142 194 134 191 125 188 C123 187 121 184 121 182 C121 179 123 177 125 178 C145 184 171 189 192 189 L191 189 Z " />
<glyph glyph-name="four" unicode="4" horiz-adv-x="514" d="M18 7 L18 5 C18 2 20 0 23 0 L321 0 C326 0 331 -5 331 -10 L331 -140 C331 -145 336 -150 341 -150 L375 -150 C380 -150 385 -145 385 -140 L385 -10 C385 -5 390 0 395 0 L494 0 C499 0 504 5 504 10 L504 14 C504 19 499 24 494 24 L395 24 C390 24 385 29 385 34 L385 501 C385 503 383 505 381 505 L379 505 C377 505 376 505 375 504 C348 475 18 10 18 10 C18 10 18 12 18 7 L18 7 Z M62 42 C116 119 234 283 311 390 C317 398 330 395 330 385 L330 35 C330 30 325 25 320 25 L69 24 C60 24 57 35 62 42 L62 42 Z " />
<glyph glyph-name="five" unicode="5" horiz-adv-x="457" d="M412 552 L411 552 C409 552 406 550 405 548 L403 544 C403 544 402 542 402 542 C392 517 364 500 336 500 L100 500 C95 500 90 492 90 487 C88 398 68 218 68 218 C68 218 71 218 75 218 L78 218 C80 218 81 219 81 221 C81 219 82 218 84 218 L137 218 C262 218 353 149 353 54 C353 -71 218 -165 31 -171 C28 -171 31 -173 31 -177 C31 -180 44 -181 47 -181 C257 -170 407 -65 407 72 C407 187 305 271 164 271 L98 271 C92 271 88 276 88 282 C93 326 99 384 102 435 C103 440 107 443 113 443 L374 443 C377 443 382 446 383 450 L391 471 C397 494 408 524 415 547 C416 549 415 552 412 552 L412 552 Z " />
<glyph glyph-name="six" unicode="6" horiz-adv-x="586" d="M502 714 C251 697 70 525 70 298 C70 122 167 -5 301 -5 C444 -5 543 88 536 216 C536 339 449 428 329 428 C220 428 145 373 133 291 C133 291 132 290 132 290 C133 299 134 308 134 316 C134 534 297 697 523 705 C526 705 523 707 523 710 C522 713 505 714 502 714 L502 714 Z M321 412 C413 412 480 328 480 212 C486 94 414 9 308 9 C198 9 123 121 131 268 C131 268 131 264 131 263 C131 256 132 250 133 243 C134 240 136 238 139 238 L140 238 C143 238 145 242 145 245 C134 342 207 412 321 412 L321 412 Z " />
<glyph glyph-name="seven" unicode="7" horiz-adv-x="455" d="M31 397 L32 401 C32 401 32 403 32 403 C37 428 61 445 89 445 L400 445 C408 445 412 438 409 430 L144 -125 C141 -133 145 -140 153 -140 L190 -140 C194 -140 202 -127 203 -124 C283 83 362 290 444 496 C445 497 443 497 442 499 C441 500 438 501 437 501 L38 501 C33 501 29 497 28 492 L27 474 C25 453 22 423 20 400 C19 397 21 394 25 394 L26 393 C28 393 30 395 31 397 L31 397 Z " />
<glyph glyph-name="eight" unicode="8" horiz-adv-x="555" d="M365 362 C431 390 474 449 474 518 C474 604 393 666 282 666 C171 666 90 595 90 496 C90 432 133 371 198 336 C207 331 207 311 197 308 C116 286 63 232 63 165 C63 68 156 -3 284 -3 C412 -3 505 73 505 177 C505 239 450 300 366 337 C358 340 357 358 365 362 L365 362 Z M319 355 C306 358 294 361 282 364 C196 382 134 447 134 518 C134 597 194 655 278 655 C365 655 428 594 428 510 C428 435 386 374 326 355 C325 355 320 354 319 355 L319 355 Z M113 174 C113 247 169 302 250 315 C250 315 252 315 252 315 L271 310 C378 287 455 223 455 158 C455 72 384 9 287 9 C187 9 114 78 114 174 L113 174 Z " />
<glyph glyph-name="nine" unicode="9" horiz-adv-x="586" d="M84 -214 C335 -197 516 -25 516 202 C516 378 419 505 285 505 C142 505 43 412 50 284 C50 161 137 72 257 72 C366 72 441 127 453 209 C453 209 454 210 454 210 C453 201 452 192 452 184 C452 -34 289 -197 63 -205 C60 -205 63 -207 64 -210 C64 -213 81 -214 84 -214 L84 -214 Z M265 88 C173 88 106 172 106 288 C100 406 172 491 278 491 C388 491 463 379 455 232 C455 232 455 236 455 237 C455 244 454 250 453 257 C452 260 450 262 447 262 L446 262 C443 262 441 258 441 255 C452 158 379 89 265 89 L265 88 Z " />
<glyph glyph-name="colon" unicode="&#x3a;" horiz-adv-x="224" d="M164 406 C164 457 86 457 86 406 C86 355 164 355 164 406 L164 406 Z M164 34 C164 85 86 85 86 34 C86 -17 164 -17 164 34 L164 34 Z " />
<glyph glyph-name="semicolon" unicode="&#x3b;" horiz-adv-x="195" d="M138 406 C138 457 60 457 60 406 C60 355 138 355 138 406 L138 406 Z M128 62 C121 69 111 73 99 73 C48 73 48 -5 99 -5 C102 -5 105 -2 108 2 C109 3 110 2 111 1 C119 -36 101 -77 77 -92 C75 -93 73 -97 73 -99 C73 -101 74 -103 76 -101 C115 -81 144 -34 144 11 C144 30 138 52 128 62 L128 62 Z " />
<glyph glyph-name="less" unicode="&#x3c;" horiz-adv-x="552" d="M465 494 L46 291 C44 291 42 288 40 288 L40 268 C40 265 48 258 51 257 C189 188 328 123 467 55 C473 52 478 57 478 64 L478 71 C478 74 475 78 472 80 L83 266 C75 270 75 280 83 284 L472 470 C475 472 478 476 478 480 L478 487 C477 493 471 497 465 494 L465 494 Z " />
<glyph glyph-name="equal" unicode="&#x3d;" horiz-adv-x="544" d="M78 202 L78 198 C78 193 83 188 88 188 L464 188 C469 188 474 193 474 198 L474 202 C474 207 469 212 464 212 L88 212 C83 212 78 207 78 202 L78 202 Z M78 302 L78 298 C78 293 83 288 88 288 L464 288 C469 288 474 293 474 298 L474 302 C474 307 469 312 464 312 L88 312 C83 312 78 307 78 302 L78 302 Z " />
<glyph glyph-name="greater" unicode="&#x3e;" horiz-adv-x="546" d="M506 270 L506 286 C503 286 499 291 496 291 L87 494 C81 497 75 493 75 487 L75 479 C75 476 78 472 81 470 L461 284 C469 280 469 270 461 266 L81 80 C78 78 75 74 75 71 L75 64 C75 57 80 52 86 55 C223 123 359 190 495 259 C498 260 506 267 506 270 L506 270 Z " />
<glyph glyph-name="question" unicode="&#x3f;" horiz-adv-x="383" d="M184 34 C184 85 106 85 106 34 C106 -17 184 -17 184 34 L184 34 Z M169 327 L194 327 C319 327 348 403 348 443 C348 572 256 665 130 665 C78 665 41 637 41 599 C41 590 53 584 70 584 C92 584 125 623 147 623 C257 623 336 550 336 449 C336 421 306 368 176 368 L141 368 C134 368 129 365 129 360 L141 157 C141 155 143 153 145 153 C147 153 149 155 149 157 L158 317 C159 323 163 327 169 327 L169 327 Z " />
<glyph glyph-name="at" unicode="&#x40;" horiz-adv-x="1165" d="M1062 -10 C993 -143 798 -238 591 -238 C304 -238 97 -29 97 259 C97 547 301 756 583 756 C864 756 1068 583 1068 343 C1068 147 986 5 873 5 C759 5 697 87 725 200 L792 467 C794 474 789 480 782 480 L752 480 C748 480 743 476 742 472 L729 418 C727 411 714 412 711 418 C689 462 644 490 588 490 C422 490 302 367 302 196 C302 90 377 13 481 13 C547 13 609 49 649 105 C654 113 672 107 675 99 C697 30 766 -14 865 -14 C1008 -14 1111 136 1111 343 C1111 591 890 771 584 771 C278 771 56 556 56 259 C56 -38 281 -253 592 -253 C805 -253 1008 -152 1081 -11 C1083 -7 1081 0 1077 0 L1074 0 C1070 0 1063 -8 1062 -10 L1062 -10 Z M714 355 L675 200 C652 108 583 42 510 42 C425 42 363 111 363 207 C363 362 458 475 588 475 C661 475 714 425 714 356 C714 356 714 355 714 355 L714 355 Z " />
<glyph glyph-name="A" unicode="A" horiz-adv-x="616" d="M434 0 L603 0 C606 0 608 2 608 5 C608 8 606 10 604 10 C578 12 559 27 544 59 L309 668 C307 672 303 675 299 675 L298 675 C294 675 290 672 289 668 L72 57 C72 57 71 55 71 55 C58 28 36 15 9 11 C6 10 4 8 4 5 C4 2 6 0 9 0 L143 0 C146 0 148 2 148 5 C148 8 146 10 143 10 L137 11 C104 13 88 37 96 70 C96 70 96 70 96 70 L152 229 C153 233 157 236 161 236 L406 236 C410 236 414 233 415 229 L477 64 C488 35 474 13 445 11 L434 10 C431 10 429 8 429 5 C429 2 431 0 434 0 L434 0 Z M392 251 L173 251 C166 251 161 258 164 265 L270 569 C273 579 285 579 289 569 L402 265 C405 258 400 251 392 251 L392 251 Z " />
<glyph glyph-name="B" unicode="B" horiz-adv-x="591" d="M288 358 L246 357 L172 357 C167 357 162 362 162 367 L162 635 C162 640 167 645 172 645 L315 645 C397 645 457 588 457 510 C457 423 388 358 288 358 L288 358 Z M54 650 L58 649 C84 647 102 625 102 596 L102 64 C102 35 84 13 58 11 L54 11 C52 10 50 8 50 6 L50 5 C50 2 52 0 55 0 L341 0 C474 0 571 76 571 181 C571 259 503 320 399 345 C391 347 393 365 401 368 C472 395 517 447 517 511 C517 598 432 661 315 661 L56 661 C52 661 50 659 50 656 L50 654 C50 652 52 650 54 650 L54 650 Z M172 347 L269 347 C407 347 507 278 507 182 C507 86 435 16 335 16 L172 16 C167 16 162 21 162 26 L162 337 C162 342 167 347 172 347 L172 347 Z " />
<glyph glyph-name="C" unicode="C" horiz-adv-x="733" d="M673 510 L673 597 C673 600 671 604 668 606 C605 640 496 665 405 665 C205 665 60 524 60 330 C60 136 205 -5 405 -5 C496 -5 605 20 668 54 C670 55 672 59 671 61 L671 61 C671 61 670 61 671 61 C671 60 672 60 672 61 L672 152 C672 154 670 156 668 156 L667 156 C665 156 662 154 661 152 C658 145 654 136 651 129 C626 74 560 27 493 17 C463 13 433 11 404 11 C243 11 126 145 126 331 C126 517 243 651 404 651 C446 651 492 646 535 637 C535 637 538 636 538 636 C583 621 629 580 650 533 C653 526 657 517 660 510 C661 508 664 506 666 505 L668 505 C670 504 673 507 673 510 L673 510 Z " />
<glyph glyph-name="D" unicode="D" horiz-adv-x="687" d="M54 650 L58 649 C84 647 102 625 102 596 L102 64 C102 35 84 13 58 11 L54 11 C52 10 50 8 50 6 L50 5 C50 2 52 0 55 0 L334 0 C510 0 637 139 637 330 C637 521 492 660 291 660 L55 660 C52 660 50 658 50 655 L50 654 C50 652 52 650 54 650 L54 650 Z M162 25 L162 635 C162 640 167 645 172 645 L291 645 C457 645 577 513 577 330 C577 147 475 15 334 15 L172 15 C167 15 162 20 162 25 L162 25 Z " />
<glyph glyph-name="E" unicode="E" horiz-adv-x="550" d="M394 290 L394 408 C394 410 392 412 390 412 C388 412 385 410 384 408 L382 404 C371 378 334 360 296 360 L162 360 C157 360 152 365 152 370 L152 635 C152 640 157 645 162 645 L328 645 C374 645 422 612 442 567 L448 555 C448 554 451 552 453 552 C454 552 456 554 456 556 L456 650 C456 655 451 660 446 660 L45 660 C42 660 40 658 40 655 L40 654 C40 652 42 650 44 650 L48 649 C74 647 92 625 92 596 L92 64 C92 35 74 13 48 11 L44 11 C42 10 40 8 40 6 L40 5 C40 2 42 0 45 0 L457 0 C459 0 461 2 462 3 L463 7 C467 35 476 77 481 106 C481 108 479 108 478 108 C476 108 473 106 472 105 L464 93 C436 48 382 15 336 15 L162 15 C157 15 152 20 152 25 L152 334 C152 339 157 344 162 344 L296 344 C334 344 370 323 382 294 L384 290 C385 288 388 286 390 286 C392 286 394 288 394 290 L394 290 Z " />
<glyph glyph-name="F" unicode="F" horiz-adv-x="489" d="M44 650 L48 649 C74 647 92 625 92 596 L92 64 C92 35 74 13 48 11 L44 11 C42 10 40 8 40 6 L40 5 C40 2 42 0 45 0 L209 0 C212 0 214 2 214 5 C214 8 212 10 209 10 L203 11 C173 13 152 35 152 64 L152 329 C152 334 157 339 162 339 L286 339 C324 339 360 318 372 289 L374 285 C375 283 378 281 380 281 C382 281 384 283 384 285 L384 403 C384 405 382 407 380 407 C378 407 375 405 374 403 L372 399 C361 373 324 355 286 355 L162 355 C157 355 152 360 152 365 L152 635 C152 640 157 645 162 645 L358 645 C404 645 452 612 472 567 L478 555 C478 554 481 552 483 552 C484 552 486 554 486 556 L486 650 C486 655 481 660 476 660 L45 660 C42 660 40 658 40 655 L40 654 C40 652 42 650 44 650 L44 650 Z " />
<glyph glyph-name="G" unicode="G" horiz-adv-x="802" d="M653 509 L653 597 C653 600 651 604 648 606 C586 640 480 665 394 665 C200 665 60 524 60 330 C60 136 200 -5 394 -5 C483 -5 590 20 653 54 C656 56 658 60 658 63 L658 246 C658 275 676 297 702 299 L706 300 C708 300 710 302 710 304 L710 305 C710 308 708 310 705 310 L557 310 C554 310 552 308 552 305 L552 304 C552 302 554 300 556 300 L560 299 C586 297 604 275 604 246 L604 56 C604 52 603 49 599 47 C539 25 460 11 393 11 C238 11 126 145 126 331 C126 517 238 651 393 651 C428 651 467 647 504 640 C554 630 607 585 631 533 C634 526 638 517 641 510 C642 508 645 506 647 505 L648 505 C651 504 653 506 653 509 L653 509 Z " />
<glyph glyph-name="H" unicode="H" horiz-adv-x="739" d="M696 11 L692 11 C666 13 648 35 648 64 L648 596 C648 625 666 647 692 649 L696 650 C698 650 700 652 700 654 L700 655 C700 658 698 660 695 660 L541 660 C538 660 536 658 536 655 L536 654 C536 652 538 650 540 650 L544 649 C570 647 588 625 588 596 L588 365 C588 360 583 355 578 355 L162 355 C157 355 152 360 152 365 L152 596 C152 625 170 647 196 649 L200 650 C202 650 204 652 204 654 L204 655 C204 658 202 660 199 660 L45 660 C42 660 40 658 40 655 L40 654 C40 652 42 650 44 650 L48 649 C74 647 92 625 92 596 L92 64 C92 35 74 13 48 11 L44 11 C42 10 40 8 40 6 L40 5 C40 2 42 0 45 0 L199 0 C202 0 204 2 204 5 L204 6 C204 8 202 10 200 11 L196 11 C170 13 152 35 152 64 L152 329 C152 334 157 339 162 339 L578 339 C583 339 588 334 588 329 L588 64 C588 35 570 13 544 11 L540 11 C538 10 536 8 536 6 L536 5 C536 2 538 0 541 0 L695 0 C698 0 700 2 700 5 L700 6 C700 8 698 10 696 11 L696 11 Z " />
<glyph glyph-name="I" unicode="I" horiz-adv-x="243" d="M200 11 L196 11 C170 13 152 35 152 64 L152 596 C152 625 170 647 196 649 L200 650 C202 650 204 652 204 654 L204 655 C204 658 202 660 199 660 L45 660 C42 660 40 658 40 655 L40 654 C40 652 42 650 44 650 L48 649 C74 647 92 625 92 596 L92 64 C92 35 74 13 48 11 L44 11 C42 10 40 8 40 6 L40 5 C40 2 42 0 45 0 L199 0 C202 0 204 2 204 5 L204 6 C204 8 202 10 200 11 L200 11 Z " />
<glyph glyph-name="J" unicode="J" horiz-adv-x="361" d="M317 660 L162 660 C159 660 157 658 157 655 L157 654 C157 652 159 650 161 650 L165 649 C191 647 209 625 209 596 L209 200 C209 62 182 2 119 2 C87 2 58 22 51 50 C48 64 36 74 24 74 C7 74 -3 64 0 50 C9 15 52 -10 104 -10 C219 -10 269 69 269 251 C270 250 270 481 270 596 C270 625 288 647 314 649 L318 650 C320 650 322 652 322 654 L322 655 C322 658 320 660 317 660 L317 660 Z " />
<glyph glyph-name="K" unicode="K" horiz-adv-x="640" d="M209 660 L55 660 C52 660 50 658 50 655 L50 654 C50 652 52 650 54 650 L58 649 C84 647 102 625 102 596 L102 64 C102 35 84 13 58 11 L54 11 C52 10 50 8 50 6 L50 5 C50 2 52 0 55 0 L209 0 C212 0 214 2 214 5 L214 6 C214 8 212 10 210 11 L206 11 C180 13 162 35 162 64 L162 347 C162 350 165 351 167 349 L173 344 C197 319 260 253 341 170 C459 48 540 -5 607 -5 L624 -5 C627 -5 630 -2 630 1 C630 4 627 7 624 7 C585 13 519 73 386 210 C313 285 255 346 226 375 C222 380 222 387 226 391 L464 604 C497 632 531 645 562 649 C565 650 567 652 567 655 C567 658 565 660 562 660 L458 660 C455 660 453 658 453 655 L453 653 C453 651 454 650 456 650 L459 649 C477 647 466 625 433 596 L179 370 C172 364 162 368 162 378 L162 596 C162 625 180 647 206 649 L210 650 C212 650 214 652 214 654 L214 655 C214 658 212 660 209 660 L209 660 Z " />
<glyph glyph-name="L" unicode="L" horiz-adv-x="550" d="M199 660 L45 660 C42 660 40 658 40 655 L40 654 C40 652 42 650 44 650 L48 649 C74 647 92 625 92 596 L92 64 C92 35 74 13 48 11 L44 11 C42 10 40 8 40 6 L40 5 C40 2 42 0 45 0 L458 0 C460 0 462 2 463 3 L463 7 C469 38 477 82 482 113 C478 115 470 118 470 118 C470 118 469 117 468 114 L453 86 C431 45 386 15 345 15 L162 15 C157 15 152 20 152 25 L152 596 C152 625 170 647 196 649 L200 650 C202 650 204 652 204 654 L204 655 C204 658 202 660 199 660 L199 660 Z " />
<glyph glyph-name="M" unicode="M" horiz-adv-x="794" d="M630 0 L782 0 C785 0 787 2 787 5 L787 6 C787 8 785 10 783 11 L779 11 C755 13 736 33 733 60 L709 596 C708 625 725 647 750 649 L754 650 C755 650 757 652 757 654 L757 655 C757 658 755 660 752 660 L659 660 C655 660 651 657 649 654 L423 90 C419 81 408 81 404 90 L162 654 C160 657 156 660 152 660 L65 660 C62 660 60 658 60 655 L60 654 C60 652 62 650 64 650 L68 649 C91 647 108 628 110 603 C110 603 110 602 110 602 L90 64 C88 36 70 13 45 11 L41 11 C39 10 37 8 37 6 L37 5 C37 2 39 0 42 0 L177 0 C180 0 182 2 182 5 C182 8 180 10 177 10 L169 11 C133 13 108 40 109 76 L126 541 C127 552 143 552 147 542 C227 359 305 177 385 -4 C386 -7 388 -4 392 -4 L393 -4 C397 -4 401 -1 403 2 L636 570 C640 580 655 577 656 567 L674 60 C674 60 674 57 674 57 C671 32 654 14 632 12 L628 12 C626 11 624 9 624 7 L624 6 C624 2 626 0 630 0 L630 0 Z " />
<glyph glyph-name="N" unicode="N" horiz-adv-x="668" d="M46 650 L50 649 C76 647 94 625 94 596 L94 64 C94 35 76 13 50 11 L46 11 C44 10 42 8 42 6 L42 5 C42 2 44 0 47 0 L159 0 C162 0 164 2 164 5 L164 6 C164 8 162 10 160 11 L156 11 C130 13 112 35 112 64 L112 576 C112 587 128 585 134 577 C277 380 419 185 561 -12 C562 -14 564 -12 566 -12 L571 -12 C576 -12 580 -8 580 -3 L580 596 C580 625 598 647 624 649 L628 650 C630 650 632 652 632 654 L632 655 C632 658 630 660 627 660 L515 660 C512 660 510 658 510 655 L510 654 C510 652 512 650 514 650 L518 649 C544 647 562 625 562 596 L562 119 C562 108 549 104 543 113 L151 656 C150 658 145 660 143 660 L47 660 C44 660 42 658 42 655 L42 654 C42 652 44 650 46 650 L46 650 Z " />
<glyph glyph-name="O" unicode="O" horiz-adv-x="774" d="M127 330 C127 497 223 650 392 650 C562 650 658 497 658 330 C658 163 562 10 392 10 C223 10 127 163 127 330 L127 330 Z M60 330 C60 155 180 -5 392 -5 C604 -5 724 155 724 330 C724 505 604 665 392 665 C180 665 60 505 60 330 L60 330 Z " />
<glyph glyph-name="P" unicode="P" horiz-adv-x="565" d="M210 11 L206 11 C180 13 162 35 162 64 L162 287 C162 292 167 297 172 297 L295 297 C440 297 545 373 545 478 C545 584 454 660 328 660 L55 660 C52 660 50 658 50 655 L50 654 C50 652 52 650 54 650 L58 649 C84 647 102 625 102 596 L102 64 C102 35 84 13 58 11 L54 11 C52 10 50 8 50 6 L50 5 C50 2 52 0 55 0 L209 0 C212 0 214 2 214 5 L214 6 C214 8 212 10 210 11 L210 11 Z M162 322 L162 635 C162 640 167 645 172 645 L328 645 C417 645 482 575 482 478 C482 382 403 312 295 312 L172 312 C167 312 162 317 162 322 L162 322 Z " />
<glyph glyph-name="Q" unicode="Q" horiz-adv-x="774" d="M821 -49 C819 -48 818 -48 816 -49 C794 -73 727 -90 656 -90 C556 -90 476 -63 420 -23 C412 -17 419 -4 429 -3 C618 14 724 166 724 330 C724 505 604 665 392 665 C180 665 60 505 60 330 C60 159 174 2 377 -5 C378 -5 382 -9 383 -10 C458 -81 553 -129 650 -129 C711 -129 782 -98 821 -54 C822 -53 823 -50 821 -49 L821 -49 Z M127 330 C127 497 223 650 392 650 C562 650 658 497 658 330 C658 163 562 10 392 10 C223 10 127 163 127 330 L127 330 Z " />
<glyph glyph-name="R" unicode="R" horiz-adv-x="627" d="M54 650 L58 649 C84 647 102 625 102 596 L102 64 C102 35 84 13 58 11 L54 11 C52 10 50 8 50 6 L50 5 C50 2 52 0 55 0 L209 0 C212 0 214 2 214 5 L214 6 C214 8 212 10 210 11 L206 11 C180 13 162 35 162 64 L162 306 C162 311 167 316 172 316 L265 316 C267 316 271 315 272 314 C300 280 366 204 449 106 C533 8 544 0 605 0 L622 0 C625 0 628 3 628 6 C628 9 625 12 622 12 C598 13 593 21 530 94 C448 190 382 268 350 306 C344 313 346 321 354 323 C454 343 521 406 521 489 C521 588 434 659 315 659 L55 659 C52 659 50 657 50 655 L50 654 C50 652 52 650 54 650 L54 650 Z M285 330 L172 330 C167 330 162 335 162 340 L162 634 C162 639 167 644 172 644 L315 644 C397 644 457 579 457 489 C457 397 385 330 285 330 L285 330 Z " />
<glyph glyph-name="S" unicode="S" horiz-adv-x="520" d="M440 514 L440 609 C440 612 439 616 436 617 C386 645 307 665 248 665 C134 665 51 587 51 480 C51 410 130 337 238 307 C351 276 433 208 433 145 C433 67 368 10 278 10 C248 10 215 14 182 20 C135 32 86 74 63 123 C60 130 56 139 53 146 C52 148 49 150 47 150 L47 150 C44 150 42 148 42 146 L42 51 C42 48 43 44 46 43 C97 15 193 -5 278 -5 C392 -5 475 68 475 169 C475 245 395 322 284 353 C173 384 92 447 92 504 C92 589 157 650 246 650 C272 650 305 644 338 634 C365 624 392 599 404 572 L430 513 C431 511 434 509 436 510 C438 510 440 512 440 514 L440 514 Z " />
<glyph glyph-name="T" unicode="T" horiz-adv-x="636" d="M25 546 L44 582 C63 619 103 645 140 645 L278 645 C283 645 288 640 288 635 L288 64 C288 35 270 13 244 11 L240 11 C238 10 236 8 236 6 L236 5 C236 2 238 0 241 0 L395 0 C398 0 400 2 400 5 L400 6 C400 8 398 10 396 11 L392 11 C366 13 348 35 348 64 L348 635 C348 640 353 645 358 645 L493 645 C531 645 571 619 590 582 L609 546 C610 544 613 542 615 542 C617 542 619 543 619 545 C617 565 610 653 608 653 L608 657 C607 658 605 660 603 660 L28 660 C26 660 24 658 24 656 L24 652 C21 621 17 576 14 544 C14 542 16 542 19 542 C21 542 24 544 25 546 L25 546 Z " />
<glyph glyph-name="U" unicode="U" horiz-adv-x="652" d="M627 660 L499 660 C496 660 494 658 494 655 L494 655 C494 652 496 650 499 650 L503 649 C534 647 556 622 556 588 L556 186 C556 87 492 16 347 16 C211 16 152 92 152 198 L152 596 C152 625 170 647 196 649 L200 650 C202 650 204 652 204 654 L204 655 C204 658 202 660 199 660 L45 660 C42 660 40 658 40 655 L40 654 C40 652 42 650 44 650 L48 649 C74 647 92 625 92 596 L92 210 C92 85 167 -5 338 -5 C502 -5 574 73 574 180 L574 588 C574 622 595 647 624 649 L628 650 C630 650 632 652 632 654 L632 655 C632 658 630 660 627 660 L627 660 Z " />
<glyph glyph-name="V" unicode="V" horiz-adv-x="647" d="M181 660 L18 660 C15 660 13 658 13 655 C13 652 14 650 17 649 C41 644 62 629 75 598 L321 -8 C323 -11 327 -14 331 -14 L333 -14 C336 -14 341 -11 342 -7 L544 597 C555 626 580 649 606 651 L610 652 C612 652 614 654 614 656 L614 657 C614 660 612 662 609 662 L471 662 C468 662 466 660 466 657 C466 654 468 652 471 652 L477 651 C515 649 532 619 520 578 L361 98 C358 88 345 88 342 97 L143 599 C131 628 144 650 173 652 L182 653 C184 653 186 655 186 657 C185 658 183 660 181 660 L181 660 Z " />
<glyph glyph-name="W" unicode="W" horiz-adv-x="934" d="M162 660 L6 660 C3 660 1 658 1 655 C1 652 3 650 5 649 C28 644 46 631 58 603 L265 -8 C266 -12 271 -15 274 -15 L275 -15 C279 -15 284 -12 285 -8 L444 539 C447 549 460 549 463 539 L650 -8 C651 -12 656 -15 659 -15 L660 -15 C663 -15 668 -12 669 -8 L851 596 C860 625 885 647 911 649 L915 650 C917 650 919 652 919 654 L919 655 C919 658 917 660 914 660 L785 660 C782 660 780 658 780 655 C780 652 782 650 785 650 L797 649 C827 648 842 625 833 596 L689 110 C686 100 673 100 670 110 L484 663 C483 667 478 670 475 670 L475 670 C471 670 466 667 465 663 L302 106 C299 96 286 96 283 106 L126 596 C118 624 130 647 159 649 L164 650 C166 650 168 652 168 655 L168 655 C167 658 165 660 162 660 L162 660 Z " />
<glyph glyph-name="X" unicode="X" horiz-adv-x="653" d="M205 660 L47 660 C44 660 42 658 42 655 C42 652 45 649 48 649 C69 644 90 631 110 605 C174 510 239 415 303 320 C305 317 301 317 299 314 L131 55 C131 55 129 53 129 53 C108 27 83 14 55 10 C52 9 50 7 50 4 C50 1 52 -1 55 -1 L189 -1 C192 -1 194 1 194 4 C194 7 192 9 189 9 L184 10 C153 12 144 36 162 68 L305 293 C309 299 317 300 322 293 L478 63 C498 34 490 12 461 10 L457 10 C454 9 452 7 452 4 L452 4 C452 1 454 -1 457 -1 L616 -1 C619 -1 621 1 621 4 C621 7 618 10 615 10 C594 15 573 28 553 54 L353 348 C351 351 351 357 353 360 L518 601 C541 630 568 644 598 648 C601 649 603 651 603 654 C603 657 601 659 598 659 L463 659 C460 659 458 657 458 654 C458 651 460 649 463 649 L474 648 C504 646 510 623 492 595 L349 381 C345 374 337 374 332 381 L188 595 C168 624 175 646 204 648 L209 649 C211 649 213 651 212 653 L212 655 C211 657 208 660 205 660 L205 660 Z " />
<glyph glyph-name="Y" unicode="Y" horiz-adv-x="602" d="M194 660 L37 660 C34 660 32 658 32 655 C32 653 35 649 38 649 C61 643 82 627 99 596 L283 263 C283 263 284 259 284 258 L283 64 C283 35 265 13 239 11 L235 11 C233 10 231 8 231 6 L231 5 C231 2 233 0 236 0 L391 0 C394 0 396 2 396 5 L396 6 C396 8 394 10 392 11 L388 11 C362 13 344 35 344 64 L344 285 C344 286 345 290 345 290 L530 604 C549 633 572 646 598 650 C600 651 602 653 602 656 C602 659 600 661 597 661 L474 661 C471 661 469 659 469 656 C469 653 471 651 474 651 L480 650 C513 648 521 619 499 581 L343 313 C339 305 329 305 325 313 L171 597 C156 626 163 648 190 650 L194 651 C196 651 198 653 198 655 L198 656 C198 658 196 660 194 660 L194 660 Z " />
<glyph glyph-name="Z" unicode="Z" horiz-adv-x="600" d="M551 114 C547 116 539 119 539 119 C539 119 538 118 537 115 L522 87 C500 46 455 16 414 16 L147 16 C138 16 133 24 138 32 L535 644 C540 652 535 660 526 660 L121 660 C119 660 116 658 116 657 L115 653 C108 628 98 591 91 565 C90 563 92 563 94 563 C96 563 99 565 101 566 L114 582 C144 619 192 645 229 645 L447 645 C456 645 461 637 456 629 L61 16 C56 8 61 0 70 0 L522 0 C527 0 531 3 532 8 C537 42 546 83 551 114 L551 114 Z " />
<glyph glyph-name="bracketleft" unicode="&#x5b;" horiz-adv-x="234" d="M129 648 L218 648 C221 648 224 651 224 654 C224 657 221 660 218 660 L86 660 C81 660 76 655 76 650 L76 -110 C76 -115 81 -120 86 -120 L218 -120 C221 -120 224 -117 224 -114 C224 -111 221 -108 218 -108 L129 -108 C124 -108 119 -103 119 -98 L119 638 C119 643 124 648 129 648 L129 648 Z " />
<glyph glyph-name="backslash" unicode="&#x5c;" horiz-adv-x="228" d="M217 -145 L219 -145 C224 -145 227 -141 225 -136 L-39 703 C-40 707 -45 710 -49 710 L-51 710 C-56 710 -59 706 -57 701 L207 -138 C208 -142 213 -145 217 -145 L217 -145 Z " />
<glyph glyph-name="bracketright" unicode="&#x5d;" horiz-adv-x="222" d="M110 638 L110 -98 C110 -103 105 -108 100 -108 L11 -108 C8 -108 5 -111 5 -114 C5 -117 8 -120 11 -120 L142 -120 C147 -120 152 -115 152 -110 L152 650 C152 655 147 660 142 660 L11 660 C8 660 5 657 5 654 C5 651 8 648 11 648 L100 648 C105 648 110 643 110 638 L110 638 Z " />
<glyph glyph-name="asciicircum" unicode="&#x5e;" horiz-adv-x="359" d="M196 730 C193 736 186 745 180 745 C172 745 165 734 163 730 C163 730 78 568 60 541 C59 540 60 537 61 536 C63 534 66 535 67 537 C105 583 146 640 172 676 C176 682 185 681 189 675 C229 620 297 534 297 534 C297 534 298 535 300 537 C301 538 303 538 302 539 C299 544 241 639 198 730 C197 730 196 730 196 730 L196 730 Z " />
<glyph glyph-name="underscore" unicode="&#x5f;" horiz-adv-x="490" d="M5 -60 L5 -70 C5 -75 10 -80 15 -80 L475 -80 C480 -80 485 -75 485 -70 L485 -60 C485 -55 480 -50 475 -50 L15 -50 C10 -50 5 -55 5 -60 L5 -60 Z " />
<glyph glyph-name="grave" unicode="&#x60;" horiz-adv-x="359" d="M97 714 C97 710 115 688 140 660 C171 621 253 531 253 531 C253 531 254 532 256 534 C258 535 260 534 259 536 C256 541 197 643 167 681 C167 681 165 684 165 684 C146 714 131 736 128 736 C119 736 97 720 97 714 L97 714 Z " />
<glyph glyph-name="a" unicode="a" horiz-adv-x="500" d="M473 34 C461 23 446 16 427 16 C398 16 388 41 388 75 L388 359 C388 444 333 505 258 505 C165 505 87 469 68 418 C65 411 69 405 76 405 L111 405 C115 405 120 408 121 412 C134 458 185 490 246 490 C295 490 331 440 331 371 L331 261 C331 256 328 252 323 251 C289 248 240 242 210 235 C109 210 36 154 36 102 C36 40 87 -5 157 -5 C209 -5 267 16 312 50 C319 55 332 51 333 43 C338 11 355 -10 390 -10 C429 -10 459 5 481 27 C484 29 483 32 482 34 C480 36 475 35 473 34 L473 34 Z M331 227 L331 81 C331 79 330 75 328 74 C290 47 236 30 184 30 C129 30 89 66 89 116 C89 157 140 200 210 217 C244 226 287 233 319 237 C325 238 331 234 331 227 L331 227 Z " />
<glyph glyph-name="b" unicode="b" horiz-adv-x="592" d="M290 -5 C433 -5 537 101 537 248 C537 397 444 505 315 505 C266 505 200 489 150 466 C143 463 134 467 134 475 L134 715 C134 718 132 720 129 720 L124 720 C124 720 122 720 122 720 L31 693 C29 692 28 691 28 689 C28 687 30 685 31 685 C69 670 80 659 80 613 L80 2 C80 0 81 -1 83 -1 C84 -1 86 0 87 1 C92 14 107 23 123 23 C171 23 226 -6 290 -6 L290 -5 Z M290 9 C200 9 134 62 134 135 L134 442 C134 445 137 449 139 451 C175 468 230 480 274 480 C393 480 480 372 480 223 C480 99 400 9 290 9 L290 9 Z " />
<glyph glyph-name="c" unicode="c" horiz-adv-x="494" d="M440 46 C438 47 436 48 434 47 C416 36 358 28 291 28 C184 28 107 124 107 256 C107 392 188 490 301 490 C350 490 389 454 393 404 C395 372 444 367 444 401 C439 461 381 505 307 505 C158 505 50 392 50 235 C50 96 132 -5 246 -5 C325 -5 405 14 439 41 C441 42 441 44 440 46 L440 46 Z " />
<glyph glyph-name="d" unicode="d" horiz-adv-x="612" d="M399 685 C437 670 448 659 448 613 L448 461 C448 452 438 446 431 452 C395 482 341 504 284 504 C152 504 56 386 56 224 C56 91 143 -6 264 -6 C324 -6 389 13 432 42 C439 47 449 41 449 32 L449 5 C449 1 451 -1 455 -1 L459 -1 C459 -1 461 -1 461 -1 L552 26 C554 27 555 28 555 30 C555 32 553 34 552 34 C514 49 503 60 503 106 L503 715 C503 718 501 720 498 720 L493 720 C493 720 491 720 491 720 L400 693 C398 692 397 690 397 689 C396 687 397 685 399 685 L399 685 Z M445 60 C418 41 357 27 293 27 C188 27 112 118 112 244 C112 386 183 489 281 489 C352 489 420 454 447 411 C447 411 449 406 449 405 L449 68 C449 65 447 61 445 60 L445 60 Z " />
<glyph glyph-name="e" unicode="e" horiz-adv-x="501" d="M447 46 C445 47 443 48 441 47 C423 36 363 28 295 28 C168 28 87 158 111 311 C112 316 117 323 121 323 L441 323 C447 323 451 325 451 331 C447 433 374 505 274 505 C144 505 50 392 50 235 C50 96 134 -5 250 -5 C330 -5 412 14 446 41 C448 42 448 44 447 46 L447 46 Z M400 369 C400 355 390 344 376 342 C376 342 375 342 375 342 L128 333 C121 333 117 340 118 347 C142 433 199 489 271 489 C346 489 400 439 400 369 L400 369 Z " />
<glyph glyph-name="f" unicode="f" horiz-adv-x="372" d="M213 11 L209 11 C183 13 165 35 165 64 L165 469 C165 474 170 479 175 479 L301 479 C306 479 311 484 311 489 L311 490 C311 495 306 500 301 500 L175 500 C170 500 165 505 165 510 L165 533 C165 634 246 708 279 708 C312 708 338 688 340 660 C342 630 391 627 391 660 C388 695 347 720 294 720 C190 720 114 646 114 545 C112 545 111 500 111 500 C111 500 107 500 101 500 L32 500 C27 500 22 495 22 490 L22 489 C22 484 27 479 32 479 L101 479 C106 479 111 474 111 469 L111 64 C111 35 93 13 67 11 L63 11 C61 10 59 8 59 6 L59 5 C59 2 61 0 64 0 L212 0 C215 0 217 2 217 5 L217 6 C217 8 215 10 213 11 L213 11 Z " />
<glyph glyph-name="g" unicode="g" horiz-adv-x="483" d="M471 499 L346 487 C345 487 342 488 341 488 C315 499 285 505 252 505 C145 505 67 440 67 350 C67 292 100 244 152 217 C157 214 153 200 148 199 C90 187 51 154 51 110 C51 72 81 42 128 26 C135 24 139 11 132 9 C68 -19 25 -66 25 -114 C25 -187 90 -240 179 -240 C343 -240 462 -160 462 -49 C462 20 386 70 280 70 C264 70 195 67 195 67 C132 67 86 93 86 130 C86 167 131 193 192 193 L252 193 C359 193 436 259 436 349 C436 389 421 423 395 450 C390 456 393 466 400 467 L472 469 C478 469 482 473 482 479 L483 488 C483 495 478 500 471 499 L471 499 Z M252 205 C174 205 118 265 118 349 C118 432 174 492 252 492 C329 492 385 432 385 349 C385 265 329 205 252 205 L252 205 Z M178 17 C196 16 241 20 264 20 C356 20 423 -20 423 -75 C423 -161 323 -224 184 -224 C112 -224 60 -174 60 -106 C60 -52 109 -2 177 18 C177 18 178 17 178 17 L178 17 Z " />
<glyph glyph-name="h" unicode="h" horiz-adv-x="589" d="M397 0 L545 0 C548 0 550 2 550 5 L550 6 C550 8 548 10 546 11 L542 11 C516 13 498 35 498 64 L498 336 C498 434 458 505 367 505 C321 505 240 480 167 445 C159 441 149 445 149 453 L149 715 C149 718 147 720 144 720 L139 720 C139 720 137 720 137 720 L46 693 C44 692 43 691 43 689 C43 687 45 685 46 685 C84 670 95 659 95 613 L95 63 C95 34 77 12 51 10 L47 10 C45 9 43 7 43 5 L43 4 C43 1 45 -1 48 -1 L196 -1 C199 -1 201 1 201 4 L201 5 C201 7 199 9 197 10 L193 10 C167 12 149 34 149 63 L149 423 C149 426 153 431 156 432 C202 453 270 468 324 468 C407 468 443 410 443 330 L443 63 C443 34 425 12 399 10 L395 10 C393 9 391 7 391 5 L392 5 C392 2 394 0 397 0 L397 0 Z " />
<glyph glyph-name="i" unicode="i" horiz-adv-x="247" d="M157 606 C157 653 85 653 85 606 C85 559 157 559 157 606 L157 606 Z M199 11 L195 11 C169 13 151 35 151 64 L151 495 C151 498 149 500 146 500 L141 500 C141 500 139 500 139 500 L48 473 C46 472 45 471 45 469 C45 467 47 465 48 465 C86 450 97 439 97 393 L97 63 C97 34 79 12 53 10 L49 10 C47 9 45 7 45 5 L45 4 C45 1 47 -1 50 -1 L198 -1 C201 -1 203 1 203 5 L203 6 C203 8 201 10 199 11 L199 11 Z " />
<glyph glyph-name="j" unicode="j" horiz-adv-x="250" d="M160 606 C160 653 88 653 88 606 C88 559 160 559 160 606 L160 606 Z M48 466 C86 452 99 441 100 397 C100 258 100 6 99 7 C99 -120 69 -170 -12 -222 C-14 -223 -17 -228 -16 -230 C-14 -232 -6 -230 -4 -228 C110 -155 154 -98 154 21 L154 494 C154 497 152 499 149 499 L144 499 C144 499 142 499 142 499 L48 471 L48 466 L48 466 Z " />
<glyph glyph-name="k" unicode="k" horiz-adv-x="514" d="M55 685 C93 670 104 659 104 613 L104 63 C104 34 86 12 60 10 L56 10 C54 9 52 7 52 5 L52 4 C52 1 54 -1 57 -1 L205 -1 C208 -1 210 1 210 4 L210 5 C210 7 208 9 206 10 L202 10 C176 12 158 34 158 63 L158 269 C158 271 160 272 161 271 L165 267 L371 63 C400 34 408 12 390 10 L387 10 C385 9 384 8 384 6 L384 4 C384 1 386 -1 389 -1 L540 -1 C543 -1 545 1 545 4 C545 7 543 9 540 10 C509 14 477 29 447 57 L215 294 C211 298 211 305 216 309 L389 447 C425 472 458 484 489 488 C492 489 494 491 494 494 C494 497 492 499 489 499 L384 499 C381 499 379 497 379 494 L379 492 C379 490 380 489 382 489 L385 488 C402 486 389 464 354 435 L176 288 C169 282 159 287 159 296 L159 714 C159 717 157 719 154 719 L149 719 C149 719 147 719 147 719 L55 692 C54 691 53 690 53 689 C52 687 54 685 55 685 L55 685 Z " />
<glyph glyph-name="l" unicode="l" horiz-adv-x="247" d="M199 11 L195 11 C169 13 151 35 151 64 L151 715 C151 718 149 720 146 720 L141 720 C141 720 139 720 139 720 L48 693 C46 692 45 691 45 689 C45 687 47 685 48 685 C86 670 97 659 97 613 L97 63 C97 34 79 12 53 10 L49 10 C47 9 45 7 45 5 L45 4 C45 1 47 -1 50 -1 L198 -1 C201 -1 203 1 203 5 L203 6 C203 8 201 10 199 11 L199 11 Z " />
<glyph glyph-name="m" unicode="m" horiz-adv-x="957" d="M765 0 L913 0 C916 0 918 2 918 5 L918 6 C918 8 916 10 914 11 L910 11 C884 13 866 35 866 64 L866 336 C866 434 804 505 727 505 C683 505 593 471 499 422 C494 419 489 425 486 430 C462 476 420 505 373 505 C319 505 241 480 168 445 C160 441 150 445 150 453 L150 495 C150 498 148 500 145 500 L140 500 C140 500 138 500 138 500 L47 473 C45 472 44 471 44 469 C44 467 46 465 47 465 C85 450 96 439 96 393 L96 63 C96 34 78 12 52 10 L48 10 C46 9 44 7 44 5 L44 4 C44 1 46 -1 49 -1 L197 -1 C200 -1 202 1 202 4 L202 5 C202 7 200 9 198 10 L194 10 C168 12 150 34 150 63 L150 423 C150 426 155 431 158 433 C206 455 272 471 331 471 C399 471 454 412 454 330 L454 63 C454 34 436 12 410 10 L406 10 C404 9 402 7 402 5 L402 4 C402 1 404 -1 407 -1 L555 -1 C558 -1 560 1 560 4 L560 5 C560 7 558 9 556 10 L552 10 C526 12 508 34 508 63 L508 335 C508 359 504 381 498 401 C496 405 501 412 505 414 C568 445 637 468 684 468 C754 468 811 410 811 330 L811 63 C811 34 793 12 767 10 L763 10 C761 9 759 7 759 5 L760 5 C760 2 762 0 765 0 L765 0 Z " />
<glyph glyph-name="n" unicode="n" horiz-adv-x="589" d="M397 0 L545 0 C548 0 550 2 550 5 L550 6 C550 8 548 10 546 11 L542 11 C516 13 498 35 498 64 L498 336 C498 434 458 505 367 505 C321 505 240 480 167 445 C159 441 149 445 149 453 L149 495 C149 498 147 500 144 500 L139 500 C139 500 137 500 137 500 L46 473 C44 472 43 471 43 469 C43 467 45 465 46 465 C84 450 95 439 95 393 L95 63 C95 34 77 12 51 10 L47 10 C45 9 43 7 43 5 L43 4 C43 1 45 -1 48 -1 L196 -1 C199 -1 201 1 201 4 L201 5 C201 7 199 9 197 10 L193 10 C167 12 149 34 149 63 L149 423 C149 426 153 431 156 432 C202 453 270 468 324 468 C407 468 443 410 443 330 L443 63 C443 34 425 12 399 10 L395 10 C393 9 391 7 391 5 L392 5 C392 2 394 0 397 0 L397 0 Z " />
<glyph glyph-name="o" unicode="o" horiz-adv-x="606" d="M110 250 C110 391 191 493 303 493 C415 493 496 391 496 250 C496 109 415 7 303 7 C191 7 110 109 110 250 L110 250 Z M50 250 C50 102 156 -5 303 -5 C450 -5 556 102 556 250 C556 398 450 505 303 505 C156 505 50 398 50 250 L50 250 Z " />
<glyph glyph-name="p" unicode="p" horiz-adv-x="626" d="M198 -220 L194 -219 C168 -217 150 -195 150 -166 L150 27 C150 36 161 41 168 36 C205 10 255 -5 312 -5 C462 -5 571 105 571 258 C571 401 482 505 358 505 C292 505 217 477 168 437 C161 431 149 436 149 445 L149 494 C149 497 147 499 144 499 L139 499 C139 499 137 499 137 499 L46 472 C44 471 43 470 43 468 C43 466 45 464 46 464 C84 449 95 438 95 392 L95 -168 C95 -197 77 -219 51 -221 L47 -222 C45 -222 43 -224 43 -226 L43 -227 C43 -230 45 -232 48 -232 L195 -232 C198 -232 201 -229 202 -226 L202 -224 C202 -222 200 -220 198 -220 L198 -220 Z M149 133 L149 405 C149 407 150 410 152 412 C186 445 253 468 315 468 C432 468 517 362 517 216 C517 96 430 9 311 9 C223 9 155 62 149 134 L149 133 Z " />
<glyph glyph-name="q" unicode="q" horiz-adv-x="606" d="M558 -220 L554 -219 C528 -217 510 -195 510 -166 L510 497 C510 499 509 500 507 500 C506 500 503 498 502 496 C496 484 481 476 465 476 C417 476 361 505 298 505 C162 505 64 387 64 225 C64 92 148 -5 265 -5 C326 -5 394 15 438 45 C446 50 456 45 456 36 L456 -165 C456 -194 438 -216 412 -218 L408 -219 C406 -219 404 -221 404 -223 L404 -224 C404 -227 406 -229 409 -229 L558 -229 C560 -229 562 -227 562 -225 L562 -224 C562 -222 560 -220 558 -220 L558 -220 Z M452 66 C423 44 360 29 294 29 C193 29 120 120 120 246 C120 388 195 491 298 491 C390 491 456 438 456 365 L456 74 C456 71 454 67 452 66 L452 66 Z " />
<glyph glyph-name="r" unicode="r" horiz-adv-x="408" d="M47 465 C85 450 96 439 96 393 L96 63 C96 34 78 12 52 10 L48 10 C46 9 44 7 44 5 L44 4 C44 1 46 -1 49 -1 L197 -1 C200 -1 202 1 202 4 L202 5 C202 7 200 9 198 10 L194 10 C168 12 150 34 150 63 L150 410 C150 412 151 415 152 416 C179 444 224 464 263 464 C295 464 340 441 372 441 C387 441 398 452 398 467 C398 488 370 504 306 504 C264 504 211 479 171 443 C164 436 151 440 151 450 L151 495 C151 498 149 500 146 500 L141 500 C141 500 139 500 139 500 L48 473 C46 472 45 470 45 469 C44 467 45 465 47 465 L47 465 Z " />
<glyph glyph-name="s" unicode="s" horiz-adv-x="439" d="M365 398 L365 455 C365 458 361 463 358 465 C315 489 259 505 222 505 C131 505 65 451 65 377 C65 325 129 264 218 231 C291 204 344 156 344 117 C344 53 296 7 229 7 C208 7 185 9 162 13 C116 23 77 62 55 104 C54 105 51 107 50 107 C48 107 46 105 46 104 L46 39 C46 36 49 31 52 30 C92 8 163 -6 224 -6 C319 -6 387 54 387 136 C387 184 332 239 255 268 C167 301 104 354 104 395 C104 451 153 492 220 492 C235 492 257 487 281 478 C314 464 340 432 353 398 C354 395 357 392 360 393 C363 393 365 395 365 398 L365 398 Z " />
<glyph glyph-name="t" unicode="t" horiz-adv-x="367" d="M326 500 L171 500 C166 500 161 505 161 510 L161 636 C161 638 159 640 157 640 C154 640 151 638 151 636 L133 571 C117 527 75 492 29 485 C27 484 25 483 25 481 C25 479 26 478 28 478 L97 478 C102 478 107 473 107 468 L107 110 C107 23 131 -6 204 -6 C266 -6 311 14 344 41 C346 42 346 44 345 45 C344 46 343 47 341 46 C321 29 288 18 231 18 C178 18 161 38 161 101 L161 468 C161 473 166 478 171 478 L326 478 C331 478 336 483 336 488 L336 490 C336 495 331 500 326 500 L326 500 Z " />
<glyph glyph-name="u" unicode="u" horiz-adv-x="554" d="M18 490 L22 489 C48 487 66 465 66 436 L66 156 C66 63 123 -5 224 -5 C297 -5 355 15 397 45 C404 50 414 44 414 35 L414 6 C414 2 416 0 420 0 L424 0 C424 0 426 0 426 0 L517 27 C519 28 520 29 520 31 C520 33 518 35 517 35 C479 50 468 61 468 107 L468 491 C468 496 463 501 458 501 L367 501 C364 501 362 499 362 496 L362 495 C362 493 364 491 366 491 L370 490 C396 488 414 466 414 437 L414 72 C414 69 412 65 410 64 C386 45 338 31 266 31 C173 31 120 86 120 161 L120 490 C120 495 115 500 110 500 L19 500 C16 500 14 498 14 495 L14 494 C14 492 16 490 18 490 L18 490 Z " />
<glyph glyph-name="v" unicode="v" horiz-adv-x="519" d="M506 495 C506 498 504 500 501 500 L393 500 C390 500 388 498 388 495 L388 494 C388 492 390 490 392 490 L395 489 C417 487 426 467 417 440 L283 82 C279 72 267 73 263 82 L133 436 C123 464 131 487 154 489 L158 490 C159 490 161 492 161 494 L161 495 C161 498 159 500 156 500 L4 500 C1 500 -1 498 -1 495 L-1 494 C-1 492 1 490 3 490 L7 489 C33 487 61 465 72 436 L246 -6 C247 -8 250 -10 253 -10 C255 -10 261 -1 261 1 C319 146 375 292 433 436 C445 468 471 484 501 489 C504 490 506 492 506 495 L506 495 Z " />
<glyph glyph-name="w" unicode="w" horiz-adv-x="810" d="M194 500 L42 500 C39 500 37 498 37 495 C37 493 40 489 43 489 C66 483 87 467 99 436 L273 -6 C274 -8 277 -10 280 -10 C282 -10 285 -8 286 -6 L408 297 C412 306 424 306 427 297 L546 -6 C547 -8 550 -10 553 -10 C555 -10 561 -1 561 1 C619 146 675 292 733 436 C745 468 771 484 801 489 C804 490 806 492 806 495 C806 498 804 500 801 500 L673 500 C670 500 668 498 668 495 C668 492 670 490 673 490 L684 489 C713 487 726 467 717 440 L583 83 C579 73 567 73 563 83 L433 437 C423 465 436 488 465 490 L476 491 C479 491 481 493 481 496 C481 499 479 501 476 501 L324 501 C321 501 319 499 319 496 C319 494 322 490 324 490 C343 484 361 467 373 437 L411 341 C412 339 412 335 412 333 L313 84 C309 75 297 75 294 84 L161 438 C150 467 162 489 190 491 L195 492 C197 492 199 494 199 496 C198 498 196 500 194 500 L194 500 Z " />
<glyph glyph-name="x" unicode="x" horiz-adv-x="582" d="M193 500 L42 500 C39 500 37 498 37 495 C37 492 40 489 43 489 C67 484 89 471 112 445 L253 258 C256 255 256 249 254 246 L124 61 C101 30 69 15 35 10 C33 9 30 7 30 4 C30 1 32 -1 35 -1 L177 -1 C180 -1 182 1 182 4 C182 7 180 9 177 9 L160 10 C132 11 125 33 143 61 L259 229 C263 235 271 236 276 230 L401 63 C423 34 424 12 404 10 L401 10 C399 9 397 7 397 5 L397 4 C397 1 399 -1 402 -1 L537 -1 C540 -1 542 1 542 4 C542 7 539 10 536 10 C516 15 496 27 474 52 L303 279 C300 282 300 288 303 291 L417 442 C442 470 469 483 499 487 C502 488 504 490 504 493 C504 496 502 498 499 498 L377 498 C374 498 372 496 372 493 L372 493 C372 490 374 488 377 488 L381 487 C411 485 414 462 394 434 L299 303 C295 297 287 297 283 303 L185 434 C163 463 165 485 190 487 L194 488 C196 488 198 490 198 492 L199 494 C199 497 196 500 193 500 L193 500 Z " />
<glyph glyph-name="y" unicode="y" horiz-adv-x="519" d="M506 495 C506 498 504 500 501 500 L393 500 C390 500 388 498 388 495 L388 494 C388 492 390 490 392 490 L395 489 C417 487 426 467 417 440 L283 82 C279 72 267 73 263 82 L133 436 C123 464 131 487 154 489 L158 490 C159 490 161 492 161 494 L161 495 C161 498 159 500 156 500 L4 500 C1 500 -1 498 -1 495 L-1 494 C-1 492 1 490 3 490 L7 489 C33 487 61 465 72 436 L243 2 C244 0 244 -4 243 -6 C238 -19 228 -42 219 -67 C185 -153 155 -192 121 -194 C120 -194 119 -194 118 -194 C116 -193 68 -170 49 -170 C33 -170 21 -180 21 -193 C21 -214 48 -230 85 -230 C145 -230 191 -182 234 -72 C246 -37 258 -10 258 -10 C317 139 375 288 434 436 C446 468 472 484 502 489 C504 490 506 492 506 495 L506 495 Z " />
<glyph glyph-name="z" unicode="z" horiz-adv-x="499" d="M456 110 C452 112 444 115 444 115 C444 115 443 114 442 111 L427 83 C405 42 360 12 319 12 L146 12 C137 12 133 21 137 28 L439 484 C443 491 439 500 430 500 L74 500 C73 500 71 499 70 497 L69 494 C64 475 57 449 52 429 C51 427 53 425 55 425 C57 425 61 427 62 428 L68 434 C99 465 148 486 184 487 L360 488 C369 488 373 479 368 472 L66 16 C61 9 65 0 74 0 L428 0 C433 0 437 3 438 8 C443 39 451 80 456 110 L456 110 Z " />
<glyph glyph-name="braceleft" unicode="&#x7b;" horiz-adv-x="253" d="M238 -116 C238 -113 236 -111 234 -111 L210 -111 C150 -111 106 -59 106 12 L106 173 C106 216 86 250 56 264 C53 266 53 276 56 278 C86 292 106 326 106 369 L106 529 C106 600 150 652 210 652 L234 652 C236 652 238 654 238 657 C238 659 236 661 234 661 L198 661 C120 661 64 606 64 529 L64 339 C64 301 42 278 10 276 C8 276 5 274 5 271 C5 268 8 266 10 266 C42 264 64 241 64 204 L64 13 C64 -64 120 -119 198 -119 L234 -120 C236 -120 238 -118 238 -116 L238 -116 Z " />
<glyph glyph-name="bar" unicode="&#x7c;" horiz-adv-x="162" d="M60 760 L60 -224 C60 -229 65 -234 70 -234 L92 -234 C97 -234 102 -229 102 -224 L102 760 C102 765 97 770 92 770 L70 770 C65 770 60 765 60 760 L60 760 Z " />
<glyph glyph-name="braceright" unicode="&#x7d;" horiz-adv-x="253" d="M5 656 C5 653 7 651 10 651 L33 651 C93 651 137 599 137 528 L137 367 C137 324 157 290 187 276 C190 274 190 264 187 262 C157 248 137 214 137 171 L137 11 C137 -60 93 -112 33 -112 L10 -112 C7 -112 5 -114 5 -117 C5 -119 7 -121 10 -121 L45 -121 C123 -121 179 -66 179 11 L179 201 C179 239 201 262 233 264 C235 264 238 266 238 269 C238 272 235 274 233 274 C201 276 179 299 179 336 L179 527 C179 604 123 659 45 659 L9 660 C7 660 5 658 5 656 L5 656 Z " />
<glyph glyph-name="asciitilde" unicode="&#x7e;" horiz-adv-x="359" d="M27 316 C29 351 49 376 76 376 C132 376 213 313 269 313 C310 313 340 352 342 406 C342 408 340 410 338 410 C335 410 333 407 333 405 C331 373 310 350 281 350 C225 350 144 412 88 412 C48 412 19 371 18 314 C18 312 20 310 23 310 C25 310 27 313 27 316 L27 316 Z " />
<glyph glyph-name="nbspace" unicode="&#xa0;" horiz-adv-x="237" d="" />
<glyph glyph-name="exclamdown" unicode="&#xa1;" horiz-adv-x="188" d="M50 466 C50 415 128 415 128 466 C128 517 50 517 50 466 L50 466 Z M60 -120 C59 -146 72 -165 93 -165 C114 -165 128 -146 126 -120 C126 154 93 352 93 352 C93 352 92 352 89 352 C87 352 85 354 85 352 C84 342 60 147 60 -120 L60 -120 Z " />
<glyph glyph-name="cent" unicode="&#xa2;" horiz-adv-x="494" d="M283 566 L283 513 C283 508 278 504 273 503 C142 488 50 380 50 236 C50 97 132 -4 246 -4 C256 -4 266 -4 275 -3 C278 -3 282 -6 282 -9 L282 -65 C282 -70 286 -74 291 -74 C296 -74 300 -70 300 -65 L300 -10 C300 -5 304 -1 309 0 C363 7 412 22 437 42 C439 43 440 46 439 48 C437 49 434 49 432 49 C415 39 367 32 310 30 C304 30 300 35 300 40 L300 482 C300 488 305 492 311 491 C355 487 388 452 392 406 C394 374 443 369 443 403 C438 462 384 505 312 507 C307 507 301 512 301 518 L301 568 C301 573 297 577 292 576 C287 575 283 571 283 566 L283 566 Z M275 31 C176 40 107 132 107 258 C107 384 175 477 275 491 C282 492 283 487 283 481 L283 41 C283 35 281 30 275 31 L275 31 Z " />
<glyph glyph-name="guillemotleft" unicode="&#xab;" horiz-adv-x="484" d="M200 247 C200 247 204 245 205 245 C247 215 433 37 433 37 C433 37 434 38 436 40 C438 41 440 41 439 42 C432 49 301 189 256 245 C254 248 255 251 257 255 C288 293 360 382 437 459 C438 460 436 460 435 462 C433 463 423 455 421 453 C282 315 197 253 197 253 C197 253 197 253 197 250 L197 250 C197 248 198 247 200 247 L200 247 Z M80 255 C111 293 183 382 260 459 C261 460 259 460 258 462 C256 463 246 455 244 453 C105 315 20 248 20 248 C20 248 22 248 23 248 L23 247 C24 247 28 245 28 245 C70 215 256 37 256 37 C256 37 257 38 259 40 C261 41 263 41 262 42 C255 49 124 189 79 245 C77 248 78 251 80 255 L80 255 Z " />
<glyph glyph-name="acute" unicode="&#xb4;" horiz-adv-x="359" d="M102 531 C106 535 184 622 213 660 C237 688 254 710 254 714 C254 720 232 736 223 736 C221 736 205 713 185 681 C185 681 183 678 183 678 C152 637 96 536 96 536 C96 536 97 535 99 534 C101 532 101 530 102 531 L102 531 Z " />
<glyph glyph-name="guillemotright" unicode="&#xbb;" horiz-adv-x="484" d="M51 36 C60 45 238 215 279 244 C280 244 284 246 285 246 C286 246 287 248 287 249 L287 249 C287 250 288 251 287 252 C283 255 194 321 52 463 C51 464 51 462 50 461 C48 459 52 453 53 452 C128 376 197 291 227 254 C229 250 230 247 228 244 C182 186 45 41 45 41 C45 41 46 40 48 39 C50 37 50 35 51 36 L51 36 Z M228 36 C237 45 415 215 456 244 C457 244 461 246 462 246 C463 246 464 248 464 249 L464 249 C464 250 465 251 464 252 C460 255 371 321 229 463 C228 464 228 462 227 461 C225 459 229 453 230 452 C305 376 374 291 404 254 C406 250 407 247 405 244 C359 186 222 41 222 41 C222 41 223 40 225 39 C227 37 227 35 228 36 L228 36 Z " />
<glyph glyph-name="onequarter" unicode="&#xbc;" horiz-adv-x="764" d="M206 641 C206 642 206 643 206 644 L207 644 L206 641 L206 641 Z M232 673 C232 675 231 676 229 676 L183 674 L140 671 C140 671 141 669 141 669 C149 667 155 660 157 651 C157 651 158 648 158 648 L158 449 C158 436 151 426 140 422 C140 422 139 420 140 420 L157 417 C157 417 159 417 159 417 L204 417 L228 419 C230 419 231 420 231 422 C231 424 230 425 229 426 C216 430 205 435 205 452 L205 644 C205 661 216 666 229 670 C231 670 232 671 232 673 L232 673 Z M114 -5 L672 649 C676 653 675 660 671 664 L663 671 C658 674 652 674 648 669 L91 15 C87 10 87 4 92 0 L99 -6 C104 -10 110 -9 114 -5 L114 -5 Z M448 63 L449 63 L447 62 C447 62 447 62 447 63 L448 63 L448 63 Z M437 67 L437 67 C437 65 439 63 441 63 L444 63 L566 62 C571 62 576 57 576 52 L576 20 C576 15 581 10 586 10 L612 10 C617 10 622 15 622 20 L622 52 C622 57 627 62 632 62 L672 62 C678 62 682 66 682 72 C682 78 678 82 672 82 L632 82 C627 82 622 87 622 92 L622 301 L621 310 C621 312 620 313 618 313 L615 313 C616 312 598 297 436 71 C435 69 437 68 437 67 L437 67 Z M471 96 C493 127 527 173 558 214 C564 222 576 218 576 208 L576 91 C576 86 571 81 566 81 L480 81 C471 81 465 88 471 96 L471 96 Z " />
<glyph glyph-name="onehalf" unicode="&#xbd;" horiz-adv-x="764" d="M206 641 C206 642 206 643 206 644 L207 644 L206 641 L206 641 Z M232 673 C232 675 231 676 229 676 L183 674 L140 671 C140 671 141 669 141 669 C149 667 155 660 157 651 C157 651 158 648 158 648 L158 449 C158 436 151 426 140 422 C140 422 139 420 140 420 L157 417 C157 417 159 417 159 417 L204 417 L228 419 C230 419 231 420 231 422 C231 424 230 425 229 426 C216 430 205 435 205 452 L205 644 C205 661 216 666 229 670 C231 670 232 671 232 673 L232 673 Z M114 -5 L672 649 C676 653 675 660 671 664 L663 671 C658 674 652 674 648 669 L91 15 C87 10 87 4 92 0 L99 -6 C104 -10 110 -9 114 -5 L114 -5 Z M670 86 C666 72 658 62 642 62 L563 62 C552 62 547 75 556 80 C619 121 660 153 660 189 C660 233 624 265 575 265 C532 265 489 236 471 196 C471 194 471 192 473 192 C475 191 477 192 478 194 C489 217 520 233 553 233 C586 233 610 209 610 176 C610 116 545 86 456 30 C454 29 449 23 449 21 L448 17 C448 15 449 14 451 15 L452 15 C452 15 454 15 454 15 L658 15 C663 15 668 19 668 24 L670 38 C672 51 675 71 676 85 C676 86 675 87 674 88 C672 88 671 87 670 86 L670 86 Z M457 17 L468 24 C468 25 468 24 468 24 C464 20 461 18 457 16 C456 16 456 16 457 17 L457 17 Z " />
<glyph glyph-name="threequarters" unicode="&#xbe;" horiz-adv-x="764" d="M103 341 C216 348 298 397 298 457 C298 489 273 515 236 527 C229 530 226 542 233 546 C265 567 285 590 285 611 C285 647 252 673 207 673 C168 673 121 647 94 612 C93 610 93 608 95 607 C97 606 99 607 100 608 C116 626 151 640 185 640 C217 640 240 622 240 597 C240 575 220 552 189 535 C178 529 164 521 151 516 C149 516 146 513 146 511 C145 509 147 508 149 508 C196 525 254 502 254 459 C254 403 192 360 106 354 C104 354 99 352 100 350 C100 348 98 344 97 343 L97 343 C96 342 101 340 103 341 L103 341 Z M116 -5 L674 649 C678 653 677 660 673 664 L665 671 C660 674 654 674 650 669 L93 15 C89 10 89 4 94 0 L101 -6 C106 -10 112 -9 116 -5 L116 -5 Z M455 60 L456 60 L454 59 C454 59 454 59 454 60 L455 60 L455 60 Z M444 64 L444 64 C444 62 446 60 448 60 L451 60 L573 59 C578 59 583 54 583 49 L583 17 C583 12 588 7 593 7 L619 7 C624 7 629 12 629 17 L629 49 C629 54 634 59 639 59 L679 59 C685 59 689 63 689 69 C689 75 685 79 679 79 L639 79 C634 79 629 84 629 89 L629 298 L628 307 C628 309 627 310 625 310 L622 310 C623 309 605 294 443 68 C442 66 444 65 444 64 L444 64 Z M478 93 C500 124 534 170 565 211 C571 219 583 215 583 205 L583 88 C583 83 578 78 573 78 L487 78 C478 78 472 85 478 93 L478 93 Z " />
<glyph glyph-name="questiondown" unicode="&#xbf;" horiz-adv-x="383" d="M199 466 C199 415 277 415 277 466 C277 517 199 517 199 466 L199 466 Z M214 173 L189 173 C64 173 35 97 35 57 C35 -72 127 -165 253 -165 C305 -165 342 -137 342 -99 C342 -90 330 -84 313 -84 C291 -84 258 -123 236 -123 C126 -123 47 -50 47 51 C47 79 77 132 207 132 L242 132 C249 132 254 135 254 140 L242 343 C242 345 240 347 238 347 C236 347 234 345 234 343 L225 183 C224 177 220 173 214 173 L214 173 Z " />
<glyph glyph-name="Agrave" unicode="&#xc0;" horiz-adv-x="616" d="M216 874 C216 870 234 848 259 820 C290 781 372 691 372 691 C372 691 373 692 375 694 C377 695 379 694 378 696 C375 701 316 803 286 841 C286 841 284 844 284 844 C265 874 250 896 247 896 C238 896 216 880 216 874 L216 874 Z M434 0 L603 0 C606 0 608 2 608 5 C608 8 606 10 604 10 C578 12 559 27 544 59 L309 668 C307 672 303 675 299 675 L298 675 C294 675 290 672 289 668 L72 57 C72 57 71 55 71 55 C58 28 36 15 9 11 C6 10 4 8 4 5 C4 2 6 0 9 0 L143 0 C146 0 148 2 148 5 C148 8 146 10 143 10 L137 11 C104 13 88 37 96 70 C96 70 96 70 96 70 L152 229 C153 233 157 236 161 236 L406 236 C410 236 414 233 415 229 L477 64 C488 35 474 13 445 11 L434 10 C431 10 429 8 429 5 C429 2 431 0 434 0 L434 0 Z M392 251 L173 251 C166 251 161 258 164 265 L270 569 C273 579 285 579 289 569 L402 265 C405 258 400 251 392 251 L392 251 Z " />
<glyph glyph-name="Aacute" unicode="&#xc1;" horiz-adv-x="616" d="M236 691 C240 695 317 782 346 820 C370 849 388 871 388 874 C388 880 366 896 357 896 C355 896 339 873 319 841 C319 841 317 838 317 838 C286 797 230 696 230 696 C230 696 231 695 233 694 C235 692 235 690 236 691 L236 691 Z M434 0 L603 0 C606 0 608 2 608 5 C608 8 606 10 604 10 C578 12 559 27 544 59 L309 668 C307 672 303 675 299 675 L298 675 C294 675 290 672 289 668 L72 57 C72 57 71 55 71 55 C58 28 36 15 9 11 C6 10 4 8 4 5 C4 2 6 0 9 0 L143 0 C146 0 148 2 148 5 C148 8 146 10 143 10 L137 11 C104 13 88 37 96 70 C96 70 96 70 96 70 L152 229 C153 233 157 236 161 236 L406 236 C410 236 414 233 415 229 L477 64 C488 35 474 13 445 11 L434 10 C431 10 429 8 429 5 C429 2 431 0 434 0 L434 0 Z M392 251 L173 251 C166 251 161 258 164 265 L270 569 C273 579 285 579 289 569 L402 265 C405 258 400 251 392 251 L392 251 Z " />
<glyph glyph-name="Acircumflex" unicode="&#xc2;" horiz-adv-x="616" d="M315 890 C312 896 305 905 299 905 C290 905 283 894 281 890 C281 890 195 727 179 701 C178 699 179 697 180 696 C182 694 185 695 186 697 C224 742 264 798 290 834 C294 840 303 839 307 833 C346 779 414 693 414 693 C414 693 415 694 417 696 C419 697 421 696 420 698 C417 703 360 798 316 889 C316 889 315 890 315 890 L315 890 Z M434 0 L603 0 C606 0 608 2 608 5 C608 8 606 10 604 10 C578 12 559 27 544 59 L309 668 C307 672 303 675 299 675 L298 675 C294 675 290 672 289 668 L72 57 C72 57 71 55 71 55 C58 28 36 15 9 11 C6 10 4 8 4 5 C4 2 6 0 9 0 L143 0 C146 0 148 2 148 5 C148 8 146 10 143 10 L137 11 C104 13 88 37 96 70 C96 70 96 70 96 70 L152 229 C153 233 157 236 161 236 L406 236 C410 236 414 233 415 229 L477 64 C488 35 474 13 445 11 L434 10 C431 10 429 8 429 5 C429 2 431 0 434 0 L434 0 Z M392 251 L173 251 C166 251 161 258 164 265 L270 569 C273 579 285 579 289 569 L402 265 C405 258 400 251 392 251 L392 251 Z " />
<glyph glyph-name="Atilde" unicode="&#xc3;" horiz-adv-x="616" d="M146 761 C148 796 168 821 195 821 C251 821 332 758 388 758 C429 758 458 797 460 851 C460 853 458 855 456 855 C453 855 451 852 451 850 C449 818 429 795 400 795 C344 795 262 857 206 857 C167 857 138 816 137 759 C137 757 139 755 142 755 C144 755 146 758 146 761 L146 761 Z M434 0 L603 0 C606 0 608 2 608 5 C608 8 606 10 604 10 C578 12 559 27 544 59 L309 668 C307 672 303 675 299 675 L298 675 C294 675 290 672 289 668 L72 57 C72 57 71 55 71 55 C58 28 36 15 9 11 C6 10 4 8 4 5 C4 2 6 0 9 0 L143 0 C146 0 148 2 148 5 C148 8 146 10 143 10 L137 11 C104 13 88 37 96 70 C96 70 96 70 96 70 L152 229 C153 233 157 236 161 236 L406 236 C410 236 414 233 415 229 L477 64 C488 35 474 13 445 11 L434 10 C431 10 429 8 429 5 C429 2 431 0 434 0 L434 0 Z M392 251 L173 251 C166 251 161 258 164 265 L270 569 C273 579 285 579 289 569 L402 265 C405 258 400 251 392 251 L392 251 Z " />
<glyph glyph-name="Adieresis" unicode="&#xc4;" horiz-adv-x="616" d="M422 763 C422 806 356 806 356 763 C356 720 422 720 422 763 L422 763 Z M241 763 C241 806 175 806 175 763 C175 720 241 720 241 763 L241 763 Z M434 0 L603 0 C606 0 608 2 608 5 C608 8 606 10 604 10 C578 12 559 27 544 59 L309 668 C307 672 303 675 299 675 L298 675 C294 675 290 672 289 668 L72 57 C72 57 71 55 71 55 C58 28 36 15 9 11 C6 10 4 8 4 5 C4 2 6 0 9 0 L143 0 C146 0 148 2 148 5 C148 8 146 10 143 10 L137 11 C104 13 88 37 96 70 C96 70 96 70 96 70 L152 229 C153 233 157 236 161 236 L406 236 C410 236 414 233 415 229 L477 64 C488 35 474 13 445 11 L434 10 C431 10 429 8 429 5 C429 2 431 0 434 0 L434 0 Z M392 251 L173 251 C166 251 161 258 164 265 L270 569 C273 579 285 579 289 569 L402 265 C405 258 400 251 392 251 L392 251 Z " />
<glyph glyph-name="Aring" unicode="&#xc5;" horiz-adv-x="616" d="M219 788 C219 834 253 868 299 868 C345 868 378 834 378 788 C378 746 340 707 299 707 C257 707 219 746 219 788 L219 788 Z M204 788 C204 739 249 695 299 695 C348 695 393 739 393 788 C393 841 354 880 299 880 C244 880 204 841 204 788 L204 788 Z M434 0 L603 0 C606 0 608 2 608 5 C608 8 606 10 604 10 C578 12 559 27 544 59 L309 668 C307 672 303 675 299 675 L298 675 C294 675 290 672 289 668 L72 57 C72 57 71 55 71 55 C58 28 36 15 9 11 C6 10 4 8 4 5 C4 2 6 0 9 0 L143 0 C146 0 148 2 148 5 C148 8 146 10 143 10 L137 11 C104 13 88 37 96 70 C96 70 96 70 96 70 L152 229 C153 233 157 236 161 236 L406 236 C410 236 414 233 415 229 L477 64 C488 35 474 13 445 11 L434 10 C431 10 429 8 429 5 C429 2 431 0 434 0 L434 0 Z M392 251 L173 251 C166 251 161 258 164 265 L270 569 C273 579 285 579 289 569 L402 265 C405 258 400 251 392 251 L392 251 Z " />
<glyph glyph-name="Ccedilla" unicode="&#xc7;" horiz-adv-x="733" d="M673 510 L673 597 C673 600 671 604 668 606 C605 640 496 665 405 665 C205 665 60 524 60 330 C60 138 202 -2 399 -5 C401 -5 398 -7 397 -9 C392 -21 380 -49 364 -84 C362 -87 365 -91 369 -90 C387 -84 412 -80 430 -80 C469 -80 498 -103 498 -135 C498 -175 465 -204 419 -204 C381 -204 346 -200 332 -193 C331 -192 328 -192 328 -194 C327 -195 326 -196 328 -197 C349 -210 392 -220 430 -220 C489 -220 531 -184 531 -135 C531 -97 494 -69 442 -69 C421 -69 394 -73 375 -80 C372 -82 370 -76 372 -73 C392 -36 407 -16 414 -8 C415 -7 422 -5 424 -5 C511 -2 610 22 668 53 C670 55 672 58 671 60 L671 60 C671 60 670 60 671 60 C671 59 672 59 672 60 L672 151 C672 153 670 155 668 155 L667 155 C665 155 662 153 661 151 C658 144 654 135 651 128 C626 73 560 26 493 16 C463 12 433 10 404 10 C243 10 126 144 126 330 C126 516 243 650 404 650 C446 650 492 645 535 636 C535 636 538 635 538 635 C583 620 629 579 650 532 C653 525 657 516 660 509 C661 507 664 505 666 505 L668 505 C671 504 673 506 673 510 L673 510 Z " />
<glyph glyph-name="Egrave" unicode="&#xc8;" horiz-adv-x="550" d="M172 874 C172 870 190 848 215 820 C246 781 328 691 328 691 C328 691 329 692 331 694 C333 695 335 694 334 696 C331 701 272 803 242 841 C242 841 240 844 240 844 C221 874 206 896 203 896 C194 896 172 880 172 874 L172 874 Z M394 290 L394 408 C394 410 392 412 390 412 C388 412 385 410 384 408 L382 404 C371 378 334 360 296 360 L162 360 C157 360 152 365 152 370 L152 635 C152 640 157 645 162 645 L328 645 C374 645 422 612 442 567 L448 555 C448 554 451 552 453 552 C454 552 456 554 456 556 L456 650 C456 655 451 660 446 660 L45 660 C42 660 40 658 40 655 L40 654 C40 652 42 650 44 650 L48 649 C74 647 92 625 92 596 L92 64 C92 35 74 13 48 11 L44 11 C42 10 40 8 40 6 L40 5 C40 2 42 0 45 0 L457 0 C459 0 461 2 462 3 L463 7 C467 35 476 77 481 106 C481 108 479 108 478 108 C476 108 473 106 472 105 L464 93 C436 48 382 15 336 15 L162 15 C157 15 152 20 152 25 L152 334 C152 339 157 344 162 344 L296 344 C334 344 370 323 382 294 L384 290 C385 288 388 286 390 286 C392 286 394 288 394 290 L394 290 Z " />
<glyph glyph-name="Eacute" unicode="&#xc9;" horiz-adv-x="550" d="M239 691 C243 695 320 782 349 820 C373 849 391 871 391 874 C391 880 369 896 360 896 C358 896 342 873 322 841 C322 841 320 838 320 838 C289 797 233 696 233 696 C233 696 234 695 236 694 C238 692 238 690 239 691 L239 691 Z M394 290 L394 408 C394 410 392 412 390 412 C388 412 385 410 384 408 L382 404 C371 378 334 360 296 360 L162 360 C157 360 152 365 152 370 L152 635 C152 640 157 645 162 645 L328 645 C374 645 422 612 442 567 L448 555 C448 554 451 552 453 552 C454 552 456 554 456 556 L456 650 C456 655 451 660 446 660 L45 660 C42 660 40 658 40 655 L40 654 C40 652 42 650 44 650 L48 649 C74 647 92 625 92 596 L92 64 C92 35 74 13 48 11 L44 11 C42 10 40 8 40 6 L40 5 C40 2 42 0 45 0 L457 0 C459 0 461 2 462 3 L463 7 C467 35 476 77 481 106 C481 108 479 108 478 108 C476 108 473 106 472 105 L464 93 C436 48 382 15 336 15 L162 15 C157 15 152 20 152 25 L152 334 C152 339 157 344 162 344 L296 344 C334 344 370 323 382 294 L384 290 C385 288 388 286 390 286 C392 286 394 288 394 290 L394 290 Z " />
<glyph glyph-name="Ecircumflex" unicode="&#xca;" horiz-adv-x="550" d="M287 890 C284 896 277 905 271 905 C262 905 255 894 253 890 C253 890 167 727 151 701 C150 699 151 697 152 696 C154 694 157 695 158 697 C196 742 236 798 262 834 C266 840 275 839 279 833 C318 779 386 693 386 693 C386 693 387 694 389 696 C391 697 393 696 392 698 C389 703 332 798 288 889 C288 889 287 890 287 890 L287 890 Z M394 290 L394 408 C394 410 392 412 390 412 C388 412 385 410 384 408 L382 404 C371 378 334 360 296 360 L162 360 C157 360 152 365 152 370 L152 635 C152 640 157 645 162 645 L328 645 C374 645 422 612 442 567 L448 555 C448 554 451 552 453 552 C454 552 456 554 456 556 L456 650 C456 655 451 660 446 660 L45 660 C42 660 40 658 40 655 L40 654 C40 652 42 650 44 650 L48 649 C74 647 92 625 92 596 L92 64 C92 35 74 13 48 11 L44 11 C42 10 40 8 40 6 L40 5 C40 2 42 0 45 0 L457 0 C459 0 461 2 462 3 L463 7 C467 35 476 77 481 106 C481 108 479 108 478 108 C476 108 473 106 472 105 L464 93 C436 48 382 15 336 15 L162 15 C157 15 152 20 152 25 L152 334 C152 339 157 344 162 344 L296 344 C334 344 370 323 382 294 L384 290 C385 288 388 286 390 286 C392 286 394 288 394 290 L394 290 Z " />
<glyph glyph-name="Edieresis" unicode="&#xcb;" horiz-adv-x="550" d="M394 763 C394 806 328 806 328 763 C328 720 394 720 394 763 L394 763 Z M213 763 C213 806 147 806 147 763 C147 720 213 720 213 763 L213 763 Z M394 290 L394 408 C394 410 392 412 390 412 C388 412 385 410 384 408 L382 404 C371 378 334 360 296 360 L162 360 C157 360 152 365 152 370 L152 635 C152 640 157 645 162 645 L328 645 C374 645 422 612 442 567 L448 555 C448 554 451 552 453 552 C454 552 456 554 456 556 L456 650 C456 655 451 660 446 660 L45 660 C42 660 40 658 40 655 L40 654 C40 652 42 650 44 650 L48 649 C74 647 92 625 92 596 L92 64 C92 35 74 13 48 11 L44 11 C42 10 40 8 40 6 L40 5 C40 2 42 0 45 0 L457 0 C459 0 461 2 462 3 L463 7 C467 35 476 77 481 106 C481 108 479 108 478 108 C476 108 473 106 472 105 L464 93 C436 48 382 15 336 15 L162 15 C157 15 152 20 152 25 L152 334 C152 339 157 344 162 344 L296 344 C334 344 370 323 382 294 L384 290 C385 288 388 286 390 286 C392 286 394 288 394 290 L394 290 Z " />
<glyph glyph-name="Igrave" unicode="&#xcc;" horiz-adv-x="243" d="M40 874 C40 869 58 847 82 820 C113 781 195 691 195 691 C195 691 196 692 199 694 C200 695 203 694 202 696 C199 701 140 803 110 841 C110 841 108 844 108 844 C89 874 74 896 71 896 C62 896 40 880 40 874 L40 874 Z M200 11 L196 11 C170 13 152 35 152 64 L152 596 C152 625 170 647 196 649 L200 650 C202 650 204 652 204 654 L204 655 C204 658 202 660 199 660 L45 660 C42 660 40 658 40 655 L40 654 C40 652 42 650 44 650 L48 649 C74 647 92 625 92 596 L92 64 C92 35 74 13 48 11 L44 11 C42 10 40 8 40 6 L40 5 C40 2 42 0 45 0 L199 0 C202 0 204 2 204 5 L204 6 C204 8 202 10 200 11 L200 11 Z " />
<glyph glyph-name="Iacute" unicode="&#xcd;" horiz-adv-x="243" d="M61 691 C65 695 142 782 171 820 C195 848 212 871 212 874 C212 880 190 896 181 896 C179 896 163 873 143 841 C143 841 141 838 141 838 C110 797 54 696 54 696 C54 696 55 695 58 694 C59 692 60 689 61 691 L61 691 Z M200 11 L196 11 C170 13 152 35 152 64 L152 596 C152 625 170 647 196 649 L200 650 C202 650 204 652 204 654 L204 655 C204 658 202 660 199 660 L45 660 C42 660 40 658 40 655 L40 654 C40 652 42 650 44 650 L48 649 C74 647 92 625 92 596 L92 64 C92 35 74 13 48 11 L44 11 C42 10 40 8 40 6 L40 5 C40 2 42 0 45 0 L199 0 C202 0 204 2 204 5 L204 6 C204 8 202 10 200 11 L200 11 Z " />
<glyph glyph-name="Icircumflex" unicode="&#xce;" horiz-adv-x="243" d="M138 890 C135 896 128 905 122 905 C114 905 107 894 105 890 C105 890 19 727 3 701 C2 699 2 697 3 696 C5 694 8 695 9 697 C47 743 88 800 114 836 C118 842 127 841 131 835 C171 780 239 694 239 694 C239 694 240 695 242 697 C243 698 245 698 244 699 C241 704 183 799 140 890 C139 890 138 890 138 890 L138 890 Z M201 12 L197 12 C171 14 153 36 153 65 L153 597 C153 626 171 648 197 650 L201 651 C203 651 205 653 205 655 L205 656 C205 659 203 661 200 661 L46 661 C43 661 41 659 41 656 L41 655 C41 653 43 651 45 651 L49 650 C75 648 93 626 93 597 L93 65 C93 36 75 14 49 12 L45 12 C43 11 41 9 41 7 L41 6 C41 3 43 1 46 1 L200 1 C203 1 205 3 205 6 L205 7 C205 9 203 11 201 12 L201 12 Z " />
<glyph glyph-name="Idieresis" unicode="&#xcf;" horiz-adv-x="243" d="M245 763 C245 806 179 806 179 763 C179 720 245 720 245 763 L245 763 Z M65 763 C65 806 -1 806 -1 763 C-1 720 65 720 65 763 L65 763 Z M200 11 L196 11 C170 13 152 35 152 64 L152 596 C152 625 170 647 196 649 L200 650 C202 650 204 652 204 654 L204 655 C204 658 202 660 199 660 L45 660 C42 660 40 658 40 655 L40 654 C40 652 42 650 44 650 L48 649 C74 647 92 625 92 596 L92 64 C92 35 74 13 48 11 L44 11 C42 10 40 8 40 6 L40 5 C40 2 42 0 45 0 L199 0 C202 0 204 2 204 5 L204 6 C204 8 202 10 200 11 L200 11 Z " />
<glyph glyph-name="Ntilde" unicode="&#xd1;" horiz-adv-x="668" d="M184 761 C186 796 206 821 233 821 C289 821 370 758 426 758 C467 758 497 797 499 851 C499 853 497 855 495 855 C492 855 490 852 490 850 C488 818 466 795 438 795 C382 795 301 857 245 857 C205 857 176 816 175 759 C175 757 177 755 180 755 C182 755 184 758 184 761 L184 761 Z M46 650 L50 649 C76 647 94 625 94 596 L94 64 C94 35 76 13 50 11 L46 11 C44 10 42 8 42 6 L42 5 C42 2 44 0 47 0 L159 0 C162 0 164 2 164 5 L164 6 C164 8 162 10 160 11 L156 11 C130 13 112 35 112 64 L112 576 C112 587 128 585 134 577 C277 380 419 185 561 -12 C562 -14 564 -12 566 -12 L571 -12 C576 -12 580 -8 580 -3 L580 596 C580 625 598 647 624 649 L628 650 C630 650 632 652 632 654 L632 655 C632 658 630 660 627 660 L515 660 C512 660 510 658 510 655 L510 654 C510 652 512 650 514 650 L518 649 C544 647 562 625 562 596 L562 119 C562 108 549 104 543 113 L151 656 C150 658 145 660 143 660 L47 660 C44 660 42 658 42 655 L42 654 C42 652 44 650 46 650 L46 650 Z " />
<glyph glyph-name="Ograve" unicode="&#xd2;" horiz-adv-x="774" d="M127 330 C127 497 223 650 392 650 C562 650 658 497 658 330 C658 163 562 10 392 10 C223 10 127 163 127 330 L127 330 Z M60 330 C60 155 180 -5 392 -5 C604 -5 724 155 724 330 C724 505 604 665 392 665 C180 665 60 505 60 330 L60 330 Z M310 874 C310 869 328 847 352 820 C383 781 465 691 465 691 C465 691 466 692 469 694 C470 695 473 694 472 696 C469 701 410 803 380 841 C380 841 378 844 378 844 C359 874 344 896 341 896 C332 896 310 880 310 874 L310 874 Z " />
<glyph glyph-name="Oacute" unicode="&#xd3;" horiz-adv-x="774" d="M368 691 C372 695 449 782 478 820 C502 848 519 871 519 874 C519 880 497 896 488 896 C486 896 470 873 450 841 C450 841 448 838 448 838 C417 797 361 696 361 696 C361 696 362 695 365 694 C366 692 367 689 368 691 L368 691 Z M127 330 C127 497 223 650 392 650 C562 650 658 497 658 330 C658 163 562 10 392 10 C223 10 127 163 127 330 L127 330 Z M60 330 C60 155 180 -5 392 -5 C604 -5 724 155 724 330 C724 505 604 665 392 665 C180 665 60 505 60 330 L60 330 Z " />
<glyph glyph-name="Ocircumflex" unicode="&#xd4;" horiz-adv-x="774" d="M127 330 C127 497 223 650 392 650 C562 650 658 497 658 330 C658 163 562 10 392 10 C223 10 127 163 127 330 L127 330 Z M60 330 C60 155 180 -5 392 -5 C604 -5 724 155 724 330 C724 505 604 665 392 665 C180 665 60 505 60 330 L60 330 Z M408 890 C405 896 398 905 392 905 C384 905 377 894 375 890 C375 890 289 727 273 701 C272 699 272 697 274 696 C275 694 278 695 279 697 C317 743 358 800 384 836 C388 842 397 841 401 835 C441 780 509 694 509 694 C509 694 510 695 512 697 C513 698 515 698 514 699 C511 704 453 799 410 890 C409 890 408 890 408 890 L408 890 Z " />
<glyph glyph-name="Otilde" unicode="&#xd5;" horiz-adv-x="774" d="M239 761 C241 796 261 821 288 821 C344 821 425 758 481 758 C522 758 552 797 554 851 C554 853 552 855 550 855 C547 855 545 852 545 850 C543 818 522 795 493 795 C437 795 356 857 300 857 C260 857 231 816 230 759 C230 757 232 755 235 755 C237 755 239 758 239 761 L239 761 Z M127 330 C127 497 223 650 392 650 C562 650 658 497 658 330 C658 163 562 10 392 10 C223 10 127 163 127 330 L127 330 Z M60 330 C60 155 180 -5 392 -5 C604 -5 724 155 724 330 C724 505 604 665 392 665 C180 665 60 505 60 330 L60 330 Z " />
<glyph glyph-name="Odieresis" unicode="&#xd6;" horiz-adv-x="774" d="M515 763 C515 806 449 806 449 763 C449 720 515 720 515 763 L515 763 Z M335 763 C335 806 269 806 269 763 C269 720 335 720 335 763 L335 763 Z M127 330 C127 497 223 650 392 650 C562 650 658 497 658 330 C658 163 562 10 392 10 C223 10 127 163 127 330 L127 330 Z M60 330 C60 155 180 -5 392 -5 C604 -5 724 155 724 330 C724 505 604 665 392 665 C180 665 60 505 60 330 L60 330 Z " />
<glyph glyph-name="Oslash" unicode="&#xd8;" horiz-adv-x="774" d="M77 -8 L157 73 C161 77 169 76 173 72 C228 25 302 -5 393 -5 C605 -5 725 155 725 330 C725 412 699 491 649 552 C646 555 644 564 648 568 L728 649 C732 653 732 659 728 663 L722 669 C718 673 712 673 708 669 L628 588 C624 584 616 585 612 589 C557 636 483 666 392 666 C180 666 60 506 60 331 C60 249 86 170 136 109 C139 106 141 97 137 93 L57 12 C53 8 53 2 57 -2 L63 -8 C67 -12 73 -12 77 -8 L77 -8 Z M584 544 L187 143 C182 138 174 140 171 147 C142 199 127 263 127 329 C127 496 223 649 392 649 C474 649 538 614 583 559 C586 555 587 547 584 544 L584 544 Z M613 513 C643 460 658 396 658 329 C658 162 562 9 392 9 C310 9 246 44 201 100 C198 104 197 112 200 115 L597 517 C602 522 610 520 613 513 L613 513 Z " />
<glyph glyph-name="Ugrave" unicode="&#xd9;" horiz-adv-x="652" d="M251 874 C251 869 269 847 293 820 C324 781 406 691 406 691 C406 691 407 692 410 694 C411 695 414 694 413 696 C410 701 351 803 321 841 C321 841 319 844 319 844 C300 874 285 896 282 896 C273 896 251 880 251 874 L251 874 Z M627 660 L499 660 C496 660 494 658 494 655 L494 655 C494 652 496 650 499 650 L503 649 C534 647 556 622 556 588 L556 186 C556 87 492 16 347 16 C211 16 152 92 152 198 L152 596 C152 625 170 647 196 649 L200 650 C202 650 204 652 204 654 L204 655 C204 658 202 660 199 660 L45 660 C42 660 40 658 40 655 L40 654 C40 652 42 650 44 650 L48 649 C74 647 92 625 92 596 L92 210 C92 85 167 -5 338 -5 C502 -5 574 73 574 180 L574 588 C574 622 595 647 624 649 L628 650 C630 650 632 652 632 654 L632 655 C632 658 630 660 627 660 L627 660 Z " />
<glyph glyph-name="Uacute" unicode="&#xda;" horiz-adv-x="652" d="M332 691 C336 695 413 782 442 820 C466 848 483 871 483 874 C483 880 461 896 452 896 C450 896 434 873 414 841 C414 841 412 838 412 838 C381 797 325 696 325 696 C325 696 326 695 329 694 C330 692 331 689 332 691 L332 691 Z M627 660 L499 660 C496 660 494 658 494 655 L494 655 C494 652 496 650 499 650 L503 649 C534 647 556 622 556 588 L556 186 C556 87 492 16 347 16 C211 16 152 92 152 198 L152 596 C152 625 170 647 196 649 L200 650 C202 650 204 652 204 654 L204 655 C204 658 202 660 199 660 L45 660 C42 660 40 658 40 655 L40 654 C40 652 42 650 44 650 L48 649 C74 647 92 625 92 596 L92 210 C92 85 167 -5 338 -5 C502 -5 574 73 574 180 L574 588 C574 622 595 647 624 649 L628 650 C630 650 632 652 632 654 L632 655 C632 658 630 660 627 660 L627 660 Z " />
<glyph glyph-name="Ucircumflex" unicode="&#xdb;" horiz-adv-x="652" d="M349 890 C346 896 339 905 333 905 C325 905 318 894 316 890 C316 890 230 727 214 701 C213 699 213 697 215 696 C216 694 219 695 220 697 C258 743 299 800 325 836 C329 842 338 841 342 835 C382 780 450 694 450 694 C450 694 451 695 453 697 C454 698 456 698 455 699 C452 704 394 799 351 890 C350 890 349 890 349 890 L349 890 Z M628 661 L500 661 C497 661 495 659 495 656 L495 656 C495 653 497 651 500 651 L504 650 C535 648 557 623 557 589 L557 187 C557 88 493 17 348 17 C212 17 153 93 153 199 L153 597 C153 626 171 648 197 650 L201 651 C203 651 205 653 205 655 L205 656 C205 659 203 661 200 661 L46 661 C43 661 41 659 41 656 L41 655 C41 653 43 651 45 651 L49 650 C75 648 93 626 93 597 L93 211 C93 86 168 -4 339 -4 C503 -4 575 74 575 181 L575 589 C575 623 596 648 625 650 L629 651 C631 651 633 653 633 655 L633 656 C633 659 631 661 628 661 L628 661 Z " />
<glyph glyph-name="Udieresis" unicode="&#xdc;" horiz-adv-x="652" d="M456 763 C456 806 390 806 390 763 C390 720 456 720 456 763 L456 763 Z M276 763 C276 806 210 806 210 763 C210 720 276 720 276 763 L276 763 Z M627 660 L499 660 C496 660 494 658 494 655 L494 655 C494 652 496 650 499 650 L503 649 C534 647 556 622 556 588 L556 186 C556 87 492 16 347 16 C211 16 152 92 152 198 L152 596 C152 625 170 647 196 649 L200 650 C202 650 204 652 204 654 L204 655 C204 658 202 660 199 660 L45 660 C42 660 40 658 40 655 L40 654 C40 652 42 650 44 650 L48 649 C74 647 92 625 92 596 L92 210 C92 85 167 -5 338 -5 C502 -5 574 73 574 180 L574 588 C574 622 595 647 624 649 L628 650 C630 650 632 652 632 654 L632 655 C632 658 630 660 627 660 L627 660 Z " />
<glyph glyph-name="Yacute" unicode="&#xdd;" horiz-adv-x="591" d="M302 691 C306 695 383 782 412 820 C436 848 453 871 453 874 C453 880 431 896 422 896 C420 896 404 873 384 841 C384 841 382 838 382 838 C351 797 295 696 295 696 C295 696 296 695 299 694 C300 692 301 689 302 691 L302 691 Z M183 660 L26 660 C23 660 21 658 21 655 C21 653 24 649 27 649 C50 643 71 627 88 596 L272 263 C272 263 273 259 273 258 L272 64 C272 35 254 13 228 11 L224 11 C222 10 220 8 220 6 L220 5 C220 2 222 0 225 0 L380 0 C383 0 385 2 385 5 L385 6 C385 8 383 10 381 11 L377 11 C351 13 333 35 333 64 L333 285 C333 286 334 290 334 290 L519 604 C538 633 561 646 587 650 C589 651 591 653 591 656 C591 659 589 661 586 661 L463 661 C460 661 458 659 458 656 C458 653 460 651 463 651 L469 650 C502 648 510 619 488 581 L332 313 C328 305 318 305 314 313 L160 597 C145 626 152 648 179 650 L183 651 C185 651 187 653 187 655 L187 656 C187 658 185 660 183 660 L183 660 Z " />
<glyph glyph-name="agrave" unicode="&#xe0;" horiz-adv-x="500" d="M473 34 C461 23 446 16 427 16 C398 16 388 41 388 75 L388 359 C388 444 333 505 258 505 C165 505 87 469 68 418 C65 411 69 405 76 405 L111 405 C115 405 120 408 121 412 C134 458 185 490 246 490 C295 490 331 440 331 371 L331 261 C331 256 328 252 323 251 C289 248 240 242 210 235 C109 210 36 154 36 102 C36 40 87 -5 157 -5 C209 -5 267 16 312 50 C319 55 332 51 333 43 C338 11 355 -10 390 -10 C429 -10 459 5 481 27 C484 29 483 32 482 34 C480 36 475 35 473 34 L473 34 Z M144 714 C144 709 162 687 186 660 C217 621 299 531 299 531 C299 531 300 532 303 534 C304 535 307 534 306 536 C303 541 244 643 214 681 C214 681 212 684 212 684 C193 714 178 736 175 736 C166 736 144 720 144 714 L144 714 Z M331 227 L331 81 C331 79 330 75 328 74 C290 47 236 30 184 30 C129 30 89 66 89 116 C89 157 140 200 210 217 C244 226 287 233 319 237 C325 238 331 234 331 227 L331 227 Z " />
<glyph glyph-name="aacute" unicode="&#xe1;" horiz-adv-x="500" d="M195 531 C199 535 276 622 305 660 C329 688 346 711 346 714 C346 720 324 736 315 736 C313 736 297 713 277 681 C277 681 275 678 275 678 C244 637 188 536 188 536 C188 536 189 535 192 534 C193 532 194 529 195 531 L195 531 Z M473 34 C461 23 446 16 427 16 C398 16 388 41 388 75 L388 359 C388 444 333 505 258 505 C165 505 87 469 68 418 C65 411 69 405 76 405 L111 405 C115 405 120 408 121 412 C134 458 185 490 246 490 C295 490 331 440 331 371 L331 261 C331 256 328 252 323 251 C289 248 240 242 210 235 C109 210 36 154 36 102 C36 40 87 -5 157 -5 C209 -5 267 16 312 50 C319 55 332 51 333 43 C338 11 355 -10 390 -10 C429 -10 459 5 481 27 C484 29 483 32 482 34 C480 36 475 35 473 34 L473 34 Z M331 227 L331 81 C331 79 330 75 328 74 C290 47 236 30 184 30 C129 30 89 66 89 116 C89 157 140 200 210 217 C244 226 287 233 319 237 C325 238 331 234 331 227 L331 227 Z " />
<glyph glyph-name="acircumflex" unicode="&#xe2;" horiz-adv-x="500" d="M473 34 C461 23 446 16 427 16 C398 16 388 41 388 75 L388 359 C388 444 333 505 258 505 C165 505 87 469 68 418 C65 411 69 405 76 405 L111 405 C115 405 120 408 121 412 C134 458 185 490 246 490 C295 490 331 440 331 371 L331 261 C331 256 328 252 323 251 C289 248 240 242 210 235 C109 210 36 154 36 102 C36 40 87 -5 157 -5 C209 -5 267 16 312 50 C319 55 332 51 333 43 C338 11 355 -10 390 -10 C429 -10 459 5 481 27 C484 29 483 32 482 34 C480 36 475 35 473 34 L473 34 Z M242 730 C239 736 232 745 226 745 C218 745 211 734 209 730 C209 730 123 567 107 541 C106 539 106 537 108 536 C109 534 112 535 113 537 C151 583 192 640 218 676 C222 682 231 681 235 675 C275 620 343 534 343 534 C343 534 344 535 346 537 C347 538 349 538 348 539 C345 544 287 639 244 730 C243 730 242 730 242 730 L242 730 Z M332 228 L332 82 C332 80 331 76 329 75 C291 48 237 31 185 31 C130 31 90 67 90 117 C90 158 141 201 211 218 C245 227 288 234 320 238 C326 239 332 235 332 228 L332 228 Z " />
<glyph glyph-name="atilde" unicode="&#xe3;" horiz-adv-x="500" d="M73 601 C75 636 95 661 122 661 C178 661 259 598 315 598 C356 598 386 637 388 691 C388 693 386 695 384 695 C381 695 379 692 379 690 C377 658 356 635 327 635 C271 635 190 697 134 697 C94 697 65 656 64 599 C64 597 66 595 69 595 C71 595 73 598 73 601 L73 601 Z M473 34 C461 23 446 16 427 16 C398 16 388 41 388 75 L388 359 C388 444 333 505 258 505 C165 505 87 469 68 418 C65 411 69 405 76 405 L111 405 C115 405 120 408 121 412 C134 458 185 490 246 490 C295 490 331 440 331 371 L331 261 C331 256 328 252 323 251 C289 248 240 242 210 235 C109 210 36 154 36 102 C36 40 87 -5 157 -5 C209 -5 267 16 312 50 C319 55 332 51 333 43 C338 11 355 -10 390 -10 C429 -10 459 5 481 27 C484 29 483 32 482 34 C480 36 475 35 473 34 L473 34 Z M331 227 L331 81 C331 79 330 75 328 74 C290 47 236 30 184 30 C129 30 89 66 89 116 C89 157 140 200 210 217 C244 226 287 233 319 237 C325 238 331 234 331 227 L331 227 Z " />
<glyph glyph-name="adieresis" unicode="&#xe4;" horiz-adv-x="500" d="M349 603 C349 646 283 646 283 603 C283 560 349 560 349 603 L349 603 Z M169 603 C169 646 103 646 103 603 C103 560 169 560 169 603 L169 603 Z M473 34 C461 23 446 16 427 16 C398 16 388 41 388 75 L388 359 C388 444 333 505 258 505 C165 505 87 469 68 418 C65 411 69 405 76 405 L111 405 C115 405 120 408 121 412 C134 458 185 490 246 490 C295 490 331 440 331 371 L331 261 C331 256 328 252 323 251 C289 248 240 242 210 235 C109 210 36 154 36 102 C36 40 87 -5 157 -5 C209 -5 267 16 312 50 C319 55 332 51 333 43 C338 11 355 -10 390 -10 C429 -10 459 5 481 27 C484 29 483 32 482 34 C480 36 475 35 473 34 L473 34 Z M331 227 L331 81 C331 79 330 75 328 74 C290 47 236 30 184 30 C129 30 89 66 89 116 C89 157 140 200 210 217 C244 226 287 233 319 237 C325 238 331 234 331 227 L331 227 Z " />
<glyph glyph-name="aring" unicode="&#xe5;" horiz-adv-x="500" d="M147 628 C147 674 180 708 226 708 C272 708 305 674 305 628 C305 586 267 547 226 547 C185 547 147 586 147 628 L147 628 Z M132 628 C132 579 177 535 226 535 C275 535 320 579 320 628 C320 681 281 720 226 720 C171 720 132 681 132 628 L132 628 Z M473 34 C461 23 446 16 427 16 C398 16 388 41 388 75 L388 359 C388 444 333 505 258 505 C165 505 87 469 68 418 C65 411 69 405 76 405 L111 405 C115 405 120 408 121 412 C134 458 185 490 246 490 C295 490 331 440 331 371 L331 261 C331 256 328 252 323 251 C289 248 240 242 210 235 C109 210 36 154 36 102 C36 40 87 -5 157 -5 C209 -5 267 16 312 50 C319 55 332 51 333 43 C338 11 355 -10 390 -10 C429 -10 459 5 481 27 C484 29 483 32 482 34 C480 36 475 35 473 34 L473 34 Z M331 227 L331 81 C331 79 330 75 328 74 C290 47 236 30 184 30 C129 30 89 66 89 116 C89 157 140 200 210 217 C244 226 287 233 319 237 C325 238 331 234 331 227 L331 227 Z " />
<glyph glyph-name="ccedilla" unicode="&#xe7;" horiz-adv-x="494" d="M214 -73 C234 -36 249 -16 256 -8 C257 -7 263 -5 265 -5 C338 -2 409 16 441 41 C442 42 442 44 441 46 C439 47 437 48 435 47 C417 36 359 28 292 28 C185 28 108 124 108 256 C108 392 189 490 302 490 C351 490 390 454 394 404 C396 372 445 367 445 401 C440 461 382 505 308 505 C159 505 51 392 51 235 C51 101 126 3 233 -5 C235 -5 240 -7 239 -9 C234 -21 222 -49 206 -84 C204 -87 207 -91 211 -90 C229 -84 254 -80 272 -80 C311 -80 340 -103 340 -135 C340 -175 307 -204 261 -204 C223 -204 188 -200 174 -193 C173 -192 170 -192 170 -194 C169 -195 168 -196 170 -197 C191 -210 234 -220 272 -220 C331 -220 373 -184 373 -135 C373 -97 336 -69 284 -69 C263 -69 236 -73 217 -80 C214 -82 212 -76 214 -73 L214 -73 Z " />
<glyph glyph-name="egrave" unicode="&#xe8;" horiz-adv-x="501" d="M447 46 C445 47 443 48 441 47 C423 36 363 28 295 28 C168 28 87 158 111 311 C112 316 117 323 121 323 L441 323 C447 323 451 325 451 331 C447 433 374 505 274 505 C144 505 50 392 50 235 C50 96 134 -5 250 -5 C330 -5 412 14 446 41 C448 42 448 44 447 46 L447 46 Z M192 714 C192 709 210 687 234 660 C265 621 347 531 347 531 C347 531 348 532 351 534 C352 535 355 534 354 536 C351 541 292 643 262 681 C262 681 260 684 260 684 C241 714 226 736 223 736 C214 736 192 720 192 714 L192 714 Z M400 369 C400 355 390 344 376 342 C376 342 375 342 375 342 L128 333 C121 333 117 340 118 347 C142 433 199 489 271 489 C346 489 400 439 400 369 L400 369 Z " />
<glyph glyph-name="eacute" unicode="&#xe9;" horiz-adv-x="501" d="M243 531 C247 535 324 622 353 660 C377 688 394 711 394 714 C394 720 372 736 363 736 C361 736 345 713 325 681 C325 681 323 678 323 678 C292 637 236 536 236 536 C236 536 237 535 240 534 C241 532 242 529 243 531 L243 531 Z M447 46 C445 47 443 48 441 47 C423 36 363 28 295 28 C168 28 87 158 111 311 C112 316 117 323 121 323 L441 323 C447 323 451 325 451 331 C447 433 374 505 274 505 C144 505 50 392 50 235 C50 96 134 -5 250 -5 C330 -5 412 14 446 41 C448 42 448 44 447 46 L447 46 Z M400 369 C400 355 390 344 376 342 C376 342 375 342 375 342 L128 333 C121 333 117 340 118 347 C142 433 199 489 271 489 C346 489 400 439 400 369 L400 369 Z " />
<glyph glyph-name="ecircumflex" unicode="&#xea;" horiz-adv-x="501" d="M447 46 C445 47 443 48 441 47 C423 36 363 28 295 28 C168 28 87 158 111 311 C112 316 117 323 121 323 L441 323 C447 323 451 325 451 331 C447 433 374 505 274 505 C144 505 50 392 50 235 C50 96 134 -5 250 -5 C330 -5 412 14 446 41 C448 42 448 44 447 46 L447 46 Z M290 730 C287 736 280 745 274 745 C266 745 259 734 257 730 C257 730 171 567 155 541 C154 539 154 537 156 536 C157 534 160 535 161 537 C199 583 240 640 266 676 C270 682 279 681 283 675 C323 620 391 534 391 534 C391 534 392 535 394 537 C395 538 397 538 396 539 C393 544 335 639 292 730 C291 730 290 730 290 730 L290 730 Z M401 370 C401 356 391 345 377 343 C377 343 376 343 376 343 L129 334 C122 334 118 341 119 348 C143 434 200 490 272 490 C347 490 401 440 401 370 L401 370 Z " />
<glyph glyph-name="edieresis" unicode="&#xeb;" horiz-adv-x="501" d="M397 603 C397 646 331 646 331 603 C331 560 397 560 397 603 L397 603 Z M217 603 C217 646 151 646 151 603 C151 560 217 560 217 603 L217 603 Z M447 46 C445 47 443 48 441 47 C423 36 363 28 295 28 C168 28 87 158 111 311 C112 316 117 323 121 323 L441 323 C447 323 451 325 451 331 C447 433 374 505 274 505 C144 505 50 392 50 235 C50 96 134 -5 250 -5 C330 -5 412 14 446 41 C448 42 448 44 447 46 L447 46 Z M400 369 C400 355 390 344 376 342 C376 342 375 342 375 342 L128 333 C121 333 117 340 118 347 C142 433 199 489 271 489 C346 489 400 439 400 369 L400 369 Z " />
<glyph glyph-name="igrave" unicode="&#xec;" horiz-adv-x="247" d="M42 714 C42 709 60 687 84 660 C115 621 197 531 197 531 C197 531 198 532 201 534 C202 535 205 534 204 536 C201 541 142 643 112 681 C112 681 110 684 110 684 C91 714 76 736 73 736 C64 736 42 720 42 714 L42 714 Z M199 11 L195 11 C169 13 151 35 151 64 L151 495 C151 498 149 500 146 500 L141 500 C141 500 139 500 139 500 L48 473 C46 472 45 471 45 469 C45 467 47 465 48 465 C86 450 97 439 97 393 L97 63 C97 34 79 12 53 10 L49 10 C47 9 45 7 45 5 L45 4 C45 1 47 -1 50 -1 L198 -1 C201 -1 203 1 203 5 L203 6 C203 8 201 10 199 11 L199 11 Z " />
<glyph glyph-name="iacute" unicode="&#xed;" horiz-adv-x="247" d="M48 531 C52 535 129 622 158 660 C182 688 199 711 199 714 C199 720 177 736 168 736 C166 736 150 713 130 681 C130 681 128 678 128 678 C97 637 41 536 41 536 C41 536 42 535 45 534 C46 532 47 529 48 531 L48 531 Z M199 11 L195 11 C169 13 151 35 151 64 L151 495 C151 498 149 500 146 500 L141 500 C141 500 139 500 139 500 L48 473 C46 472 45 471 45 469 C45 467 47 465 48 465 C86 450 97 439 97 393 L97 63 C97 34 79 12 53 10 L49 10 C47 9 45 7 45 5 L45 4 C45 1 47 -1 50 -1 L198 -1 C201 -1 203 1 203 5 L203 6 C203 8 201 10 199 11 L199 11 Z " />
<glyph glyph-name="icircumflex" unicode="&#xee;" horiz-adv-x="247" d="M140 730 C137 736 130 745 124 745 C116 745 109 734 107 730 C107 730 21 567 5 541 C4 539 4 537 6 536 C7 534 10 535 11 537 C49 583 90 640 116 676 C120 682 129 681 133 675 C173 620 241 534 241 534 C241 534 242 535 244 537 C245 538 247 538 246 539 C243 544 185 639 142 730 C141 730 140 730 140 730 L140 730 Z M200 12 L196 12 C170 14 152 36 152 65 L152 496 C152 499 150 501 147 501 L142 501 C142 501 140 501 140 501 L49 474 C47 473 46 472 46 470 C46 468 48 466 49 466 C87 451 98 440 98 394 L98 64 C98 35 80 13 54 11 L50 11 C48 10 46 8 46 6 L46 5 C46 2 48 0 51 0 L199 0 C202 0 204 2 204 6 L204 7 C204 9 202 11 200 12 L200 12 Z " />
<glyph glyph-name="idieresis" unicode="&#xef;" horiz-adv-x="247" d="M247 603 C247 646 181 646 181 603 C181 560 247 560 247 603 L247 603 Z M67 603 C67 646 1 646 1 603 C1 560 67 560 67 603 L67 603 Z M199 11 L195 11 C169 13 151 35 151 64 L151 495 C151 498 149 500 146 500 L141 500 C141 500 139 500 139 500 L48 473 C46 472 45 471 45 469 C45 467 47 465 48 465 C86 450 97 439 97 393 L97 63 C97 34 79 12 53 10 L49 10 C47 9 45 7 45 5 L45 4 C45 1 47 -1 50 -1 L198 -1 C201 -1 203 1 203 5 L203 6 C203 8 201 10 199 11 L199 11 Z " />
<glyph glyph-name="ntilde" unicode="&#xf1;" horiz-adv-x="589" d="M144 601 C146 636 166 661 193 661 C249 661 330 598 386 598 C427 598 457 637 459 691 C459 693 457 695 455 695 C452 695 450 692 450 690 C448 658 426 635 398 635 C342 635 261 697 205 697 C165 697 136 656 135 599 C135 597 137 595 140 595 C142 595 144 598 144 601 L144 601 Z M397 0 L545 0 C548 0 550 2 550 5 L550 6 C550 8 548 10 546 11 L542 11 C516 13 498 35 498 64 L498 336 C498 434 458 505 367 505 C321 505 240 480 167 445 C159 441 149 445 149 453 L149 495 C149 498 147 500 144 500 L139 500 C139 500 137 500 137 500 L46 473 C44 472 43 471 43 469 C43 467 45 465 46 465 C84 450 95 439 95 393 L95 63 C95 34 77 12 51 10 L47 10 C45 9 43 7 43 5 L43 4 C43 1 45 -1 48 -1 L196 -1 C199 -1 201 1 201 4 L201 5 C201 7 199 9 197 10 L193 10 C167 12 149 34 149 63 L149 423 C149 426 153 431 156 432 C202 453 270 468 324 468 C407 468 443 410 443 330 L443 63 C443 34 425 12 399 10 L395 10 C393 9 391 7 391 5 L392 5 C392 2 394 0 397 0 L397 0 Z " />
<glyph glyph-name="ograve" unicode="&#xf2;" horiz-adv-x="606" d="M110 250 C110 391 191 493 303 493 C415 493 496 391 496 250 C496 109 415 7 303 7 C191 7 110 109 110 250 L110 250 Z M50 250 C50 102 156 -5 303 -5 C450 -5 556 102 556 250 C556 398 450 505 303 505 C156 505 50 398 50 250 L50 250 Z M221 714 C221 709 239 687 263 660 C294 621 376 531 376 531 C376 531 377 532 380 534 C381 535 384 534 383 536 C380 541 321 643 291 681 C291 681 289 684 289 684 C270 714 255 736 252 736 C243 736 221 720 221 714 L221 714 Z " />
<glyph glyph-name="oacute" unicode="&#xf3;" horiz-adv-x="606" d="M272 531 C276 535 353 622 382 660 C406 688 423 711 423 714 C423 720 401 736 392 736 C390 736 374 713 354 681 C354 681 352 678 352 678 C321 637 265 536 265 536 C265 536 266 535 269 534 C270 532 271 529 272 531 L272 531 Z M110 250 C110 391 191 493 303 493 C415 493 496 391 496 250 C496 109 415 7 303 7 C191 7 110 109 110 250 L110 250 Z M50 250 C50 102 156 -5 303 -5 C450 -5 556 102 556 250 C556 398 450 505 303 505 C156 505 50 398 50 250 L50 250 Z " />
<glyph glyph-name="ocircumflex" unicode="&#xf4;" horiz-adv-x="606" d="M110 250 C110 391 191 493 303 493 C415 493 496 391 496 250 C496 109 415 7 303 7 C191 7 110 109 110 250 L110 250 Z M50 250 C50 102 156 -5 303 -5 C450 -5 556 102 556 250 C556 398 450 505 303 505 C156 505 50 398 50 250 L50 250 Z M319 730 C316 736 309 745 303 745 C295 745 288 734 286 730 C286 730 200 567 184 541 C183 539 183 537 185 536 C186 534 189 535 190 537 C228 583 269 640 295 676 C299 682 308 681 312 675 C352 620 420 534 420 534 C420 534 421 535 423 537 C424 538 426 538 425 539 C422 544 364 639 321 730 C320 730 319 730 319 730 L319 730 Z " />
<glyph glyph-name="otilde" unicode="&#xf5;" horiz-adv-x="606" d="M150 601 C152 636 172 661 199 661 C255 661 336 598 392 598 C433 598 463 637 465 691 C465 693 463 695 461 695 C458 695 456 692 456 690 C454 658 432 635 404 635 C348 635 267 697 211 697 C171 697 142 656 141 599 C141 597 143 595 146 595 C148 595 150 598 150 601 L150 601 Z M110 250 C110 391 191 493 303 493 C415 493 496 391 496 250 C496 109 415 7 303 7 C191 7 110 109 110 250 L110 250 Z M50 250 C50 102 156 -5 303 -5 C450 -5 556 102 556 250 C556 398 450 505 303 505 C156 505 50 398 50 250 L50 250 Z " />
<glyph glyph-name="odieresis" unicode="&#xf6;" horiz-adv-x="606" d="M426 603 C426 646 360 646 360 603 C360 560 426 560 426 603 L426 603 Z M246 603 C246 646 180 646 180 603 C180 560 246 560 246 603 L246 603 Z M110 250 C110 391 191 493 303 493 C415 493 496 391 496 250 C496 109 415 7 303 7 C191 7 110 109 110 250 L110 250 Z M50 250 C50 102 156 -5 303 -5 C450 -5 556 102 556 250 C556 398 450 505 303 505 C156 505 50 398 50 250 L50 250 Z " />
<glyph glyph-name="oslash" unicode="&#xf8;" horiz-adv-x="606" d="M62 -5 L120 54 C124 58 130 58 134 55 C177 17 235 -5 302 -5 C449 -5 555 102 555 250 C555 317 533 376 496 420 C493 424 493 430 497 434 L556 493 C559 496 559 502 556 505 C553 508 547 508 544 505 L486 446 C482 442 476 442 472 445 C429 483 371 505 304 505 C157 505 51 398 51 250 C51 183 73 124 110 80 C113 76 113 70 109 66 L50 7 C47 4 47 -2 50 -5 C53 -8 59 -8 62 -5 L62 -5 Z M445 405 L155 113 C150 107 143 109 139 115 C121 153 110 199 110 249 C110 390 191 492 303 492 C361 492 411 464 446 418 C449 414 448 408 445 405 L445 405 Z M467 383 C485 345 496 299 496 249 C496 108 415 6 303 6 C245 6 195 34 160 81 C157 84 158 91 161 94 L451 385 C456 391 463 389 467 383 L467 383 Z " />
<glyph glyph-name="ugrave" unicode="&#xf9;" horiz-adv-x="554" d="M185 714 C185 709 203 687 227 660 C258 621 340 531 340 531 C340 531 341 532 344 534 C345 535 348 534 347 536 C344 541 285 643 255 681 C255 681 253 684 253 684 C234 714 219 736 216 736 C207 736 185 720 185 714 L185 714 Z M18 490 L22 489 C48 487 66 465 66 436 L66 156 C66 63 123 -5 224 -5 C297 -5 355 15 397 45 C404 50 414 44 414 35 L414 6 C414 2 416 0 420 0 L424 0 C424 0 426 0 426 0 L517 27 C519 28 520 29 520 31 C520 33 518 35 517 35 C479 50 468 61 468 107 L468 491 C468 496 463 501 458 501 L367 501 C364 501 362 499 362 496 L362 495 C362 493 364 491 366 491 L370 490 C396 488 414 466 414 437 L414 72 C414 69 412 65 410 64 C386 45 338 31 266 31 C173 31 120 86 120 161 L120 490 C120 495 115 500 110 500 L19 500 C16 500 14 498 14 495 L14 494 C14 492 16 490 18 490 L18 490 Z " />
<glyph glyph-name="uacute" unicode="&#xfa;" horiz-adv-x="554" d="M236 531 C240 535 317 622 346 660 C370 688 387 711 387 714 C387 720 365 736 356 736 C354 736 338 713 318 681 C318 681 316 678 316 678 C285 637 229 536 229 536 C229 536 230 535 233 534 C234 532 235 529 236 531 L236 531 Z M18 490 L22 489 C48 487 66 465 66 436 L66 156 C66 63 123 -5 224 -5 C297 -5 355 15 397 45 C404 50 414 44 414 35 L414 6 C414 2 416 0 420 0 L424 0 C424 0 426 0 426 0 L517 27 C519 28 520 29 520 31 C520 33 518 35 517 35 C479 50 468 61 468 107 L468 491 C468 496 463 501 458 501 L367 501 C364 501 362 499 362 496 L362 495 C362 493 364 491 366 491 L370 490 C396 488 414 466 414 437 L414 72 C414 69 412 65 410 64 C386 45 338 31 266 31 C173 31 120 86 120 161 L120 490 C120 495 115 500 110 500 L19 500 C16 500 14 498 14 495 L14 494 C14 492 16 490 18 490 L18 490 Z " />
<glyph glyph-name="ucircumflex" unicode="&#xfb;" horiz-adv-x="554" d="M283 730 C280 736 273 745 267 745 C259 745 252 734 250 730 C250 730 164 567 148 541 C147 539 147 537 149 536 C150 534 153 535 154 537 C192 583 233 640 259 676 C263 682 272 681 276 675 C316 620 384 534 384 534 C384 534 385 535 387 537 C388 538 390 538 389 539 C386 544 328 639 285 730 C284 730 283 730 283 730 L283 730 Z M19 491 L23 490 C49 488 67 466 67 437 L67 157 C67 64 124 -4 225 -4 C298 -4 356 16 398 46 C405 51 415 45 415 36 L415 7 C415 3 417 1 421 1 L425 1 C425 1 427 1 427 1 L518 28 C520 29 521 30 521 32 C521 34 519 36 518 36 C480 51 469 62 469 108 L469 492 C469 497 464 502 459 502 L368 502 C365 502 363 500 363 497 L363 496 C363 494 365 492 367 492 L371 491 C397 489 415 467 415 438 L415 73 C415 70 413 66 411 65 C387 46 339 32 267 32 C174 32 121 87 121 162 L121 491 C121 496 116 501 111 501 L20 501 C17 501 15 499 15 496 L15 495 C15 493 17 491 19 491 L19 491 Z " />
<glyph glyph-name="udieresis" unicode="&#xfc;" horiz-adv-x="554" d="M390 603 C390 646 324 646 324 603 C324 560 390 560 390 603 L390 603 Z M210 603 C210 646 144 646 144 603 C144 560 210 560 210 603 L210 603 Z M18 490 L22 489 C48 487 66 465 66 436 L66 156 C66 63 123 -5 224 -5 C297 -5 355 15 397 45 C404 50 414 44 414 35 L414 6 C414 2 416 0 420 0 L424 0 C424 0 426 0 426 0 L517 27 C519 28 520 29 520 31 C520 33 518 35 517 35 C479 50 468 61 468 107 L468 491 C468 496 463 501 458 501 L367 501 C364 501 362 499 362 496 L362 495 C362 493 364 491 366 491 L370 490 C396 488 414 466 414 437 L414 72 C414 69 412 65 410 64 C386 45 338 31 266 31 C173 31 120 86 120 161 L120 490 C120 495 115 500 110 500 L19 500 C16 500 14 498 14 495 L14 494 C14 492 16 490 18 490 L18 490 Z " />
<glyph glyph-name="ydieresis" unicode="&#xff;" horiz-adv-x="447" d="M376 603 C376 646 310 646 310 603 C310 560 376 560 376 603 L376 603 Z M195 603 C195 646 129 646 129 603 C129 560 195 560 195 603 L195 603 Z M506 495 C506 498 504 500 501 500 L393 500 C390 500 388 498 388 495 L388 494 C388 492 390 490 392 490 L395 489 C417 487 426 467 417 440 L283 82 C279 72 267 73 263 82 L133 436 C123 464 131 487 154 489 L158 490 C159 490 161 492 161 494 L161 495 C161 498 159 500 156 500 L4 500 C1 500 -1 498 -1 495 L-1 494 C-1 492 1 490 3 490 L7 489 C33 487 61 465 72 436 L243 2 C244 0 244 -4 243 -6 C238 -19 228 -42 219 -67 C185 -153 155 -192 121 -194 C120 -194 119 -194 118 -194 C116 -193 68 -170 49 -170 C33 -170 21 -180 21 -193 C21 -214 48 -230 85 -230 C145 -230 191 -182 234 -72 C246 -37 258 -10 258 -10 C317 139 375 288 434 436 C446 468 472 484 502 489 C504 490 506 492 506 495 L506 495 Z " />
<glyph glyph-name="Amacron" unicode="&#x100;" horiz-adv-x="616" d="M151 769 L446 769 C451 769 456 774 456 779 L456 790 C456 795 451 800 446 800 L151 800 C146 800 141 795 141 790 L141 779 C141 774 146 769 151 769 L151 769 Z M434 0 L603 0 C606 0 608 2 608 5 C608 8 606 10 604 10 C578 12 559 27 544 59 L309 668 C307 672 303 675 299 675 L298 675 C294 675 290 672 289 668 L72 57 C72 57 71 55 71 55 C58 28 36 15 9 11 C6 10 4 8 4 5 C4 2 6 0 9 0 L143 0 C146 0 148 2 148 5 C148 8 146 10 143 10 L137 11 C104 13 88 37 96 70 C96 70 96 70 96 70 L152 229 C153 233 157 236 161 236 L406 236 C410 236 414 233 415 229 L477 64 C488 35 474 13 445 11 L434 10 C431 10 429 8 429 5 C429 2 431 0 434 0 L434 0 Z M392 251 L173 251 C166 251 161 258 164 265 L270 569 C273 579 285 579 289 569 L402 265 C405 258 400 251 392 251 L392 251 Z " />
<glyph glyph-name="amacron" unicode="&#x101;" horiz-adv-x="500" d="M78 609 L374 609 C379 609 384 614 384 619 L384 630 C384 635 379 640 374 640 L78 640 C73 640 68 635 68 630 L68 619 C68 614 73 609 78 609 L78 609 Z M473 34 C461 23 446 16 427 16 C398 16 388 41 388 75 L388 359 C388 444 333 505 258 505 C165 505 87 469 68 418 C65 411 69 405 76 405 L111 405 C115 405 120 408 121 412 C134 458 185 490 246 490 C295 490 331 440 331 371 L331 261 C331 256 328 252 323 251 C289 248 240 242 210 235 C109 210 36 154 36 102 C36 40 87 -5 157 -5 C209 -5 267 16 312 50 C319 55 332 51 333 43 C338 11 355 -10 390 -10 C429 -10 459 5 481 27 C484 29 483 32 482 34 C480 36 475 35 473 34 L473 34 Z M331 227 L331 81 C331 79 330 75 328 74 C290 47 236 30 184 30 C129 30 89 66 89 116 C89 157 140 200 210 217 C244 226 287 233 319 237 C325 238 331 234 331 227 L331 227 Z " />
<glyph glyph-name="Abreve" unicode="&#x102;" horiz-adv-x="616" d="M175 867 C189 809 240 766 299 766 C358 766 407 808 421 866 C422 869 420 871 418 872 C415 873 413 872 412 870 C403 831 356 802 299 802 C243 802 197 829 185 867 C185 869 181 873 179 873 C176 872 174 870 175 867 L175 867 Z M434 0 L603 0 C606 0 608 2 608 5 C608 8 606 10 604 10 C578 12 559 27 544 59 L309 668 C307 672 303 675 299 675 L298 675 C294 675 290 672 289 668 L72 57 C72 57 71 55 71 55 C58 28 36 15 9 11 C6 10 4 8 4 5 C4 2 6 0 9 0 L143 0 C146 0 148 2 148 5 C148 8 146 10 143 10 L137 11 C104 13 88 37 96 70 C96 70 96 70 96 70 L152 229 C153 233 157 236 161 236 L406 236 C410 236 414 233 415 229 L477 64 C488 35 474 13 445 11 L434 10 C431 10 429 8 429 5 C429 2 431 0 434 0 L434 0 Z M392 251 L173 251 C166 251 161 258 164 265 L270 569 C273 579 285 579 289 569 L402 265 C405 258 400 251 392 251 L392 251 Z " />
<glyph glyph-name="abreve" unicode="&#x103;" horiz-adv-x="500" d="M103 677 C117 619 168 576 226 576 C284 576 335 618 349 676 C350 679 348 681 346 682 C343 683 341 682 340 680 C331 641 284 612 226 612 C168 612 121 641 112 680 C111 682 109 683 107 683 C104 682 102 680 103 677 L103 677 Z M473 34 C461 23 446 16 427 16 C398 16 388 41 388 75 L388 359 C388 444 333 505 258 505 C165 505 87 469 68 418 C65 411 69 405 76 405 L111 405 C115 405 120 408 121 412 C134 458 185 490 246 490 C295 490 331 440 331 371 L331 261 C331 256 328 252 323 251 C289 248 240 242 210 235 C109 210 36 154 36 102 C36 40 87 -5 157 -5 C209 -5 267 16 312 50 C319 55 332 51 333 43 C338 11 355 -10 390 -10 C429 -10 459 5 481 27 C484 29 483 32 482 34 C480 36 475 35 473 34 L473 34 Z M331 227 L331 81 C331 79 330 75 328 74 C290 47 236 30 184 30 C129 30 89 66 89 116 C89 157 140 200 210 217 C244 226 287 233 319 237 C325 238 331 234 331 227 L331 227 Z " />
<glyph glyph-name="Aogonek" unicode="&#x104;" horiz-adv-x="616" d="M604 10 C578 12 559 27 544 59 L309 668 C307 672 303 675 299 675 L298 675 C294 675 290 672 289 668 L72 57 C72 57 71 55 71 55 C58 28 36 15 9 11 C6 10 4 8 4 5 C4 2 6 0 9 0 L143 0 C146 0 148 2 148 5 C148 8 146 10 143 10 L137 11 C104 13 88 37 96 70 C96 70 96 70 96 70 L152 229 C153 233 157 236 161 236 L406 236 C410 236 414 233 415 229 L477 64 C488 35 474 13 445 11 L434 10 C431 10 429 8 429 5 C429 2 431 0 434 0 L453 0 C460 0 464 -9 458 -13 C412 -47 356 -107 356 -156 C356 -201 400 -233 461 -233 C490 -233 523 -220 539 -203 C541 -201 541 -199 540 -198 C539 -196 537 -196 536 -197 C524 -209 498 -218 473 -218 C424 -218 389 -189 389 -150 C389 -89 465 -16 499 -1 C499 -1 502 0 503 0 L603 0 C606 0 608 2 608 5 C608 8 606 10 604 10 L604 10 Z M392 251 L173 251 C166 251 161 258 164 265 L270 569 C273 579 285 579 289 569 L402 265 C405 258 400 251 392 251 L392 251 Z " />
<glyph glyph-name="aogonek" unicode="&#x105;" horiz-adv-x="500" d="M442 17 C403 9 388 35 388 76 L388 360 C388 445 333 506 258 506 C165 506 87 470 68 419 C65 412 69 406 76 406 L111 406 C115 406 120 409 121 413 C134 459 185 491 246 491 C295 491 331 441 331 372 L331 262 C331 257 328 253 323 252 C289 249 240 243 210 236 C109 211 36 155 36 103 C36 41 87 -4 157 -4 C209 -4 267 17 312 51 C319 56 332 52 333 43 C339 12 356 -6 387 -8 C394 -8 399 -21 394 -26 C365 -59 340 -98 340 -133 C340 -190 384 -231 445 -231 C474 -231 507 -218 523 -201 C525 -199 525 -197 524 -196 C523 -194 521 -194 520 -195 C508 -207 482 -216 457 -216 C408 -216 373 -179 373 -128 C373 -80 411 -28 445 4 C445 4 447 5 447 5 C460 11 471 20 481 29 C482 30 484 34 484 36 L484 38 C484 41 482 43 479 42 C470 38 459 30 446 21 C446 20 442 17 442 17 L442 17 Z M329 229 L329 83 C329 81 328 77 326 76 C288 49 234 32 182 32 C127 32 87 68 87 118 C87 159 138 202 208 219 C242 228 285 235 317 239 C323 240 329 236 329 229 L329 229 Z " />
<glyph glyph-name="Cacute" unicode="&#x106;" horiz-adv-x="733" d="M359 691 C363 695 440 782 469 820 C493 848 510 871 510 874 C510 880 488 896 479 896 C477 896 461 873 441 841 C441 841 439 838 439 838 C408 797 352 696 352 696 C352 696 353 695 356 694 C357 692 358 689 359 691 L359 691 Z M673 510 L673 597 C673 600 671 604 668 606 C605 640 496 665 405 665 C205 665 60 524 60 330 C60 136 205 -5 405 -5 C496 -5 605 20 668 54 C670 55 672 59 671 61 L671 61 C671 61 670 61 671 61 C671 60 672 60 672 61 L672 152 C672 154 670 156 668 156 L667 156 C665 156 662 154 661 152 C658 145 654 136 651 129 C626 74 560 27 493 17 C463 13 433 11 404 11 C243 11 126 145 126 331 C126 517 243 651 404 651 C446 651 492 646 535 637 C535 637 538 636 538 636 C583 621 629 580 650 533 C653 526 657 517 660 510 C661 508 664 506 666 505 L668 505 C670 504 673 507 673 510 L673 510 Z " />
<glyph glyph-name="cacute" unicode="&#x107;" horiz-adv-x="494" d="M231 531 C235 535 312 622 341 660 C365 688 382 711 382 714 C382 720 360 736 351 736 C349 736 333 713 313 681 C313 681 311 678 311 678 C280 637 224 536 224 536 C224 536 225 535 228 534 C229 532 230 529 231 531 L231 531 Z M440 46 C438 47 436 48 434 47 C416 36 358 28 291 28 C184 28 107 124 107 256 C107 392 188 490 301 490 C350 490 389 454 393 404 C395 372 444 367 444 401 C439 461 381 505 307 505 C158 505 50 392 50 235 C50 96 132 -5 246 -5 C325 -5 405 14 439 41 C441 42 441 44 440 46 L440 46 Z " />
<glyph glyph-name="Ccircumflex" unicode="&#x108;" horiz-adv-x="733" d="M673 510 L673 597 C673 600 671 604 668 606 C605 640 496 665 405 665 C205 665 60 524 60 330 C60 136 205 -5 405 -5 C496 -5 605 20 668 54 C670 55 672 59 671 61 L671 61 C671 61 670 61 671 61 C671 60 672 60 672 61 L672 152 C672 154 670 156 668 156 L667 156 C665 156 662 154 661 152 C658 145 654 136 651 129 C626 74 560 27 493 17 C463 13 433 11 404 11 C243 11 126 145 126 331 C126 517 243 651 404 651 C446 651 492 646 535 637 C535 637 538 636 538 636 C583 621 629 580 650 533 C653 526 657 517 660 510 C661 508 664 506 666 505 L668 505 C670 504 673 507 673 510 L673 510 Z M419 892 C416 898 409 907 403 907 C395 907 388 896 386 892 C386 892 300 729 284 703 C283 701 283 699 285 698 C286 696 289 697 290 699 C328 745 369 802 395 838 C399 844 408 843 412 837 C452 782 520 696 520 696 C520 696 521 697 523 699 C524 700 526 700 525 701 C522 706 464 801 421 892 C420 892 419 892 419 892 L419 892 Z " />
<glyph glyph-name="Cdot" unicode="&#x10a;" horiz-adv-x="733" d="M438 763 C438 806 372 806 372 763 C372 720 438 720 438 763 L438 763 Z M673 510 L673 597 C673 600 671 604 668 606 C605 640 496 665 405 665 C205 665 60 524 60 330 C60 136 205 -5 405 -5 C496 -5 605 20 668 54 C670 55 672 59 671 61 L671 61 C671 61 670 61 671 61 C671 60 672 60 672 61 L672 152 C672 154 670 156 668 156 L667 156 C665 156 662 154 661 152 C658 145 654 136 651 129 C626 74 560 27 493 17 C463 13 433 11 404 11 C243 11 126 145 126 331 C126 517 243 651 404 651 C446 651 492 646 535 637 C535 637 538 636 538 636 C583 621 629 580 650 533 C653 526 657 517 660 510 C661 508 664 506 666 505 L668 505 C670 504 673 507 673 510 L673 510 Z " />
<glyph glyph-name="cdot" unicode="&#x10b;" horiz-adv-x="494" d="M340 603 C340 646 274 646 274 603 C274 560 340 560 340 603 L340 603 Z M440 46 C438 47 436 48 434 47 C416 36 358 28 291 28 C184 28 107 124 107 256 C107 392 188 490 301 490 C350 490 389 454 393 404 C395 372 444 367 444 401 C439 461 381 505 307 505 C158 505 50 392 50 235 C50 96 132 -5 246 -5 C325 -5 405 14 439 41 C441 42 441 44 440 46 L440 46 Z " />
<glyph glyph-name="Ccaron" unicode="&#x10c;" horiz-adv-x="733" d="M521 927 C517 922 451 839 413 786 C409 780 400 779 396 785 C370 821 329 878 291 924 C290 926 287 927 286 926 C284 924 284 922 285 920 C301 894 387 731 387 731 C389 727 396 716 404 716 C411 716 418 727 421 732 C421 732 424 739 424 739 C469 830 525 923 525 923 C525 923 524 924 523 925 C522 926 522 928 521 927 L521 927 Z M672 511 L672 598 C672 601 670 605 667 607 C604 641 495 666 404 666 C204 666 59 525 59 331 C59 137 204 -4 404 -4 C495 -4 604 21 667 55 C669 56 671 60 670 62 L670 62 C670 62 669 62 670 62 C670 61 671 61 671 62 L671 153 C671 155 669 157 667 157 L666 157 C664 157 661 155 660 153 C657 146 653 137 650 130 C625 75 559 28 492 18 C462 14 432 12 403 12 C242 12 125 146 125 332 C125 518 242 652 403 652 C445 652 491 647 534 638 C534 638 537 637 537 637 C582 622 628 581 649 534 C652 527 656 518 659 511 C660 509 663 507 665 506 L667 506 C669 505 672 508 672 511 L672 511 Z " />
<glyph glyph-name="ccaron" unicode="&#x10d;" horiz-adv-x="494" d="M423 767 C419 762 353 679 315 626 C311 620 302 619 298 625 C272 661 231 718 193 764 C192 766 189 767 188 766 C186 764 186 762 187 760 C203 734 289 571 289 571 C291 567 298 556 306 556 C313 556 320 567 323 572 C323 572 326 579 326 579 C371 670 427 763 427 763 C427 763 426 764 425 765 C424 766 424 768 423 767 L423 767 Z M439 47 C437 48 435 49 433 48 C415 37 357 29 290 29 C183 29 106 125 106 257 C106 393 187 491 300 491 C349 491 388 455 392 405 C394 373 443 368 443 402 C438 462 380 506 306 506 C157 506 49 393 49 236 C49 97 131 -4 245 -4 C324 -4 404 15 438 42 C440 43 440 45 439 47 L439 47 Z " />
<glyph glyph-name="Dcaron" unicode="&#x10e;" horiz-adv-x="687" d="M455 927 C451 922 386 840 348 787 C344 781 335 780 331 786 C305 822 265 878 227 923 C226 925 223 926 221 925 C220 923 219 921 220 919 C236 893 322 730 322 730 C324 726 331 715 340 715 C347 715 354 726 357 731 C357 731 360 738 360 738 C405 829 461 922 461 922 C461 922 460 923 458 925 C456 926 456 929 455 927 L455 927 Z M54 650 L58 649 C84 647 102 625 102 596 L102 64 C102 35 84 13 58 11 L54 11 C52 10 50 8 50 6 L50 5 C50 2 52 0 55 0 L334 0 C510 0 637 139 637 330 C637 521 492 660 291 660 L55 660 C52 660 50 658 50 655 L50 654 C50 652 52 650 54 650 L54 650 Z M162 25 L162 635 C162 640 167 645 172 645 L291 645 C457 645 577 513 577 330 C577 147 475 15 334 15 L172 15 C167 15 162 20 162 25 L162 25 Z " />
<glyph glyph-name="dcaron" unicode="&#x10f;" horiz-adv-x="612" d="M623 753 C612 753 595 689 586 646 L551 488 C550 486 552 483 554 483 C555 482 558 483 558 485 L620 634 C641 685 657 735 657 741 C657 749 633 753 623 753 L623 753 Z M399 685 C437 670 448 659 448 613 L448 461 C448 452 438 446 431 452 C395 482 341 504 284 504 C152 504 56 386 56 224 C56 91 143 -6 264 -6 C324 -6 389 13 432 42 C439 47 449 41 449 32 L449 5 C449 1 451 -1 455 -1 L459 -1 C459 -1 461 -1 461 -1 L552 26 C554 27 555 28 555 30 C555 32 553 34 552 34 C514 49 503 60 503 106 L503 715 C503 718 501 720 498 720 L493 720 C493 720 491 720 491 720 L400 693 C398 692 397 690 397 689 C396 687 397 685 399 685 L399 685 Z M445 60 C418 41 357 27 293 27 C188 27 112 118 112 244 C112 386 183 489 281 489 C352 489 420 454 447 411 C447 411 449 406 449 405 L449 68 C449 65 447 61 445 60 L445 60 Z " />
<glyph glyph-name="Emacron" unicode="&#x112;" horiz-adv-x="550" d="M123 769 L418 769 C423 769 428 774 428 779 L428 790 C428 795 423 800 418 800 L123 800 C118 800 113 795 113 790 L113 779 C113 774 118 769 123 769 L123 769 Z M394 290 L394 408 C394 410 392 412 390 412 C388 412 385 410 384 408 L382 404 C371 378 334 360 296 360 L162 360 C157 360 152 365 152 370 L152 635 C152 640 157 645 162 645 L328 645 C374 645 422 612 442 567 L448 555 C448 554 451 552 453 552 C454 552 456 554 456 556 L456 650 C456 655 451 660 446 660 L45 660 C42 660 40 658 40 655 L40 654 C40 652 42 650 44 650 L48 649 C74 647 92 625 92 596 L92 64 C92 35 74 13 48 11 L44 11 C42 10 40 8 40 6 L40 5 C40 2 42 0 45 0 L457 0 C459 0 461 2 462 3 L463 7 C467 35 476 77 481 106 C481 108 479 108 478 108 C476 108 473 106 472 105 L464 93 C436 48 382 15 336 15 L162 15 C157 15 152 20 152 25 L152 334 C152 339 157 344 162 344 L296 344 C334 344 370 323 382 294 L384 290 C385 288 388 286 390 286 C392 286 394 288 394 290 L394 290 Z " />
<glyph glyph-name="emacron" unicode="&#x113;" horiz-adv-x="501" d="M126 609 L422 609 C427 609 432 614 432 619 L432 630 C432 635 427 640 422 640 L126 640 C121 640 116 635 116 630 L116 619 C116 614 121 609 126 609 L126 609 Z M447 46 C445 47 443 48 441 47 C423 36 363 28 295 28 C168 28 87 158 111 311 C112 316 117 323 121 323 L441 323 C447 323 451 325 451 331 C447 433 374 505 274 505 C144 505 50 392 50 235 C50 96 134 -5 250 -5 C330 -5 412 14 446 41 C448 42 448 44 447 46 L447 46 Z M400 369 C400 355 390 344 376 342 C376 342 375 342 375 342 L128 333 C121 333 117 340 118 347 C142 433 199 489 271 489 C346 489 400 439 400 369 L400 369 Z " />
<glyph glyph-name="Ebreve" unicode="&#x114;" horiz-adv-x="550" d="M147 867 C161 809 212 766 271 766 C330 766 379 808 393 866 C394 869 392 871 390 872 C387 873 385 872 384 870 C375 831 328 802 271 802 C215 802 169 829 157 867 C157 869 153 873 151 873 C148 872 146 870 147 867 L147 867 Z M394 290 L394 408 C394 410 392 412 390 412 C388 412 385 410 384 408 L382 404 C371 378 334 360 296 360 L162 360 C157 360 152 365 152 370 L152 635 C152 640 157 645 162 645 L328 645 C374 645 422 612 442 567 L448 555 C448 554 451 552 453 552 C454 552 456 554 456 556 L456 650 C456 655 451 660 446 660 L45 660 C42 660 40 658 40 655 L40 654 C40 652 42 650 44 650 L48 649 C74 647 92 625 92 596 L92 64 C92 35 74 13 48 11 L44 11 C42 10 40 8 40 6 L40 5 C40 2 42 0 45 0 L457 0 C459 0 461 2 462 3 L463 7 C467 35 476 77 481 106 C481 108 479 108 478 108 C476 108 473 106 472 105 L464 93 C436 48 382 15 336 15 L162 15 C157 15 152 20 152 25 L152 334 C152 339 157 344 162 344 L296 344 C334 344 370 323 382 294 L384 290 C385 288 388 286 390 286 C392 286 394 288 394 290 L394 290 Z " />
<glyph glyph-name="ebreve" unicode="&#x115;" horiz-adv-x="501" d="M151 707 C165 649 216 606 274 606 C333 606 383 648 397 706 C398 709 396 711 394 712 C391 713 389 712 388 710 C379 671 332 642 274 642 C216 642 169 671 160 710 C159 712 157 713 155 713 C152 712 150 710 151 707 L151 707 Z M447 46 C445 47 443 48 441 47 C423 36 363 28 295 28 C168 28 87 158 111 311 C112 316 117 323 121 323 L441 323 C447 323 451 325 451 331 C447 433 374 505 274 505 C144 505 50 392 50 235 C50 96 134 -5 250 -5 C330 -5 412 14 446 41 C448 42 448 44 447 46 L447 46 Z M400 369 C400 355 390 344 376 342 C376 342 375 342 375 342 L128 333 C121 333 117 340 118 347 C142 433 199 489 271 489 C346 489 400 439 400 369 L400 369 Z " />
<glyph glyph-name="Edot" unicode="&#x116;" horiz-adv-x="550" d="M304 763 C304 806 237 805 237 763 C237 720 304 720 304 763 L304 763 Z M394 289 L394 407 C394 409 392 411 390 411 C388 411 385 409 384 407 L382 403 C371 377 334 359 296 359 L162 359 C157 359 152 364 152 369 L152 634 C152 639 157 644 162 644 L328 644 C374 644 422 611 442 566 L448 554 C448 553 451 551 453 551 C454 551 456 553 456 555 L456 649 C456 654 451 659 446 659 L45 659 C42 659 40 657 40 654 L40 653 C40 651 42 649 44 649 L48 648 C74 646 92 624 92 595 L92 63 C92 34 74 12 48 10 L44 10 C42 9 40 7 40 5 L40 4 C40 1 42 -1 45 -1 L457 -1 C459 -1 461 1 462 2 L463 6 C467 34 476 76 481 105 C481 107 479 107 478 107 C476 107 473 105 472 104 L464 92 C436 47 382 14 336 14 L162 14 C157 14 152 19 152 24 L152 333 C152 338 157 343 162 343 L296 343 C334 343 370 322 382 293 L384 289 C385 287 388 285 390 285 C392 285 394 287 394 289 L394 289 Z " />
<glyph glyph-name="edot" unicode="&#x117;" horiz-adv-x="501" d="M307 603 C307 646 241 646 241 603 C241 560 307 560 307 603 L307 603 Z M447 46 C445 47 443 48 441 47 C423 36 363 28 295 28 C168 28 87 158 111 311 C112 316 117 323 121 323 L441 323 C447 323 451 325 451 331 C447 433 374 505 274 505 C144 505 50 392 50 235 C50 96 134 -5 250 -5 C330 -5 412 14 446 41 C448 42 448 44 447 46 L447 46 Z M400 369 C400 355 390 344 376 342 C376 342 375 342 375 342 L128 333 C121 333 117 340 118 347 C142 433 199 489 271 489 C346 489 400 439 400 369 L400 369 Z " />
<glyph glyph-name="Eogonek" unicode="&#x118;" horiz-adv-x="550" d="M394 290 L394 408 C394 410 392 412 390 412 C388 412 385 410 384 408 L382 404 C371 378 334 360 296 360 L162 360 C157 360 152 365 152 370 L152 635 C152 640 157 645 162 645 L328 645 C374 645 422 612 442 567 L448 555 C448 554 451 552 453 552 C454 552 456 554 456 556 L456 650 C456 655 451 660 446 660 L45 660 C42 660 40 658 40 655 L40 654 C40 652 42 650 44 650 L48 649 C74 647 92 625 92 596 L92 64 C92 35 74 13 48 11 L44 11 C42 10 40 8 40 6 L40 5 C40 2 42 0 45 0 L407 0 C415 0 418 -11 412 -16 C367 -51 314 -108 314 -156 C314 -201 358 -233 419 -233 C448 -233 481 -220 497 -203 C499 -201 499 -199 498 -198 C497 -196 495 -196 494 -197 C482 -209 456 -218 431 -218 C382 -218 347 -189 347 -150 C347 -89 424 -16 458 -1 C459 0 461 2 461 4 L462 6 C462 6 463 9 463 9 C468 37 476 78 481 106 C481 108 479 108 478 108 C476 108 473 106 472 105 L464 93 C436 48 382 15 336 15 L162 15 C157 15 152 20 152 25 L152 334 C152 339 157 344 162 344 L296 344 C334 344 370 323 382 294 L384 290 C385 288 388 286 390 286 C392 286 394 288 394 290 L394 290 Z " />
<glyph glyph-name="eogonek" unicode="&#x119;" horiz-adv-x="501" d="M400 369 C400 355 390 344 376 342 C376 342 375 342 375 342 L128 333 C121 333 117 340 118 347 C142 433 199 489 271 489 C346 489 400 439 400 369 L400 369 Z M121 322 L441 322 C447 322 451 324 451 330 C447 432 374 504 274 504 C144 504 50 391 50 234 C50 95 134 -6 250 -6 C262 -6 273 -5 285 -4 C287 -4 286 -8 285 -9 C237 -42 176 -105 176 -156 C176 -201 220 -233 281 -233 C310 -233 343 -220 359 -203 C361 -201 361 -199 360 -198 C359 -196 357 -196 356 -197 C344 -209 318 -218 293 -218 C244 -218 209 -189 209 -150 C209 -88 287 -14 320 -1 C320 -1 324 0 324 0 C377 6 423 21 447 39 C449 40 450 43 449 45 C447 46 445 47 443 46 C425 35 365 27 297 27 C170 27 88 157 112 310 C113 315 117 322 121 322 L121 322 Z " />
<glyph glyph-name="Ecaron" unicode="&#x11a;" horiz-adv-x="550" d="M386 927 C382 922 317 840 279 787 C275 781 266 780 262 786 C236 822 196 878 158 923 C157 925 154 926 152 925 C151 923 150 921 151 919 C167 893 253 730 253 730 C255 726 262 715 271 715 C278 715 285 726 288 731 C288 731 291 738 291 738 C336 829 392 922 392 922 C392 922 391 923 389 925 C387 926 387 929 386 927 L386 927 Z M394 290 L394 408 C394 410 392 412 390 412 C388 412 385 410 384 408 L382 404 C371 378 334 360 296 360 L162 360 C157 360 152 365 152 370 L152 635 C152 640 157 645 162 645 L328 645 C374 645 422 612 442 567 L448 555 C448 554 451 552 453 552 C454 552 456 554 456 556 L456 650 C456 655 451 660 446 660 L45 660 C42 660 40 658 40 655 L40 654 C40 652 42 650 44 650 L48 649 C74 647 92 625 92 596 L92 64 C92 35 74 13 48 11 L44 11 C42 10 40 8 40 6 L40 5 C40 2 42 0 45 0 L457 0 C459 0 461 2 462 3 L463 7 C467 35 476 77 481 106 C481 108 479 108 478 108 C476 108 473 106 472 105 L464 93 C436 48 382 15 336 15 L162 15 C157 15 152 20 152 25 L152 334 C152 339 157 344 162 344 L296 344 C334 344 370 323 382 294 L384 290 C385 288 388 286 390 286 C392 286 394 288 394 290 L394 290 Z " />
<glyph glyph-name="ecaron" unicode="&#x11b;" horiz-adv-x="501" d="M390 767 C386 762 320 679 282 626 C278 620 269 619 265 625 C239 661 198 718 160 764 C159 766 156 767 155 766 C153 764 153 762 154 760 C170 734 256 571 256 571 C258 567 265 556 273 556 C280 556 287 567 290 572 C290 572 293 579 293 579 C338 670 394 763 394 763 C394 763 393 764 392 765 C391 766 391 768 390 767 L390 767 Z M446 47 C444 48 442 49 440 48 C422 37 362 29 294 29 C167 29 86 159 110 312 C111 317 116 324 120 324 L440 324 C446 324 450 326 450 332 C446 434 373 506 273 506 C143 506 49 393 49 236 C49 97 133 -4 249 -4 C329 -4 411 15 445 42 C447 43 447 45 446 47 L446 47 Z M399 370 C399 356 389 345 375 343 C375 343 374 343 374 343 L127 334 C120 334 116 341 117 348 C141 434 198 490 270 490 C345 490 399 440 399 370 L399 370 Z " />
<glyph glyph-name="Gcircumflex" unicode="&#x11c;" horiz-adv-x="802" d="M410 890 C407 896 400 905 394 905 C386 905 379 894 377 890 C377 890 291 727 275 701 C274 699 274 697 276 696 C277 694 280 695 281 697 C319 743 360 800 386 836 C390 842 399 841 403 835 C443 780 511 694 511 694 C511 694 512 695 514 697 C515 698 517 698 516 699 C513 704 455 799 412 890 C411 890 410 890 410 890 L410 890 Z M654 510 L654 598 C654 601 652 605 649 607 C587 641 481 666 395 666 C201 666 61 525 61 331 C61 137 201 -4 395 -4 C484 -4 591 21 654 55 C657 57 659 61 659 64 L659 247 C659 276 677 298 703 300 L707 301 C709 301 711 303 711 305 L711 306 C711 309 709 311 706 311 L558 311 C555 311 553 309 553 306 L553 305 C553 303 555 301 557 301 L561 300 C587 298 605 276 605 247 L605 57 C605 53 604 50 600 48 C540 26 461 12 394 12 C239 12 127 146 127 332 C127 518 239 652 394 652 C429 652 468 648 505 641 C555 631 608 586 632 534 C635 527 639 518 642 511 C643 509 646 507 648 506 L649 506 C652 505 654 507 654 510 L654 510 Z " />
<glyph glyph-name="Gbreve" unicode="&#x11e;" horiz-adv-x="802" d="M271 867 C285 809 336 766 394 766 C453 766 503 808 517 866 C518 869 516 871 514 872 C511 873 509 872 508 870 C499 831 452 802 394 802 C336 802 289 831 280 870 C279 872 277 873 275 873 C272 872 270 870 271 867 L271 867 Z M653 509 L653 597 C653 600 651 604 648 606 C586 640 480 665 394 665 C200 665 60 524 60 330 C60 136 200 -5 394 -5 C483 -5 590 20 653 54 C656 56 658 60 658 63 L658 246 C658 275 676 297 702 299 L706 300 C708 300 710 302 710 304 L710 305 C710 308 708 310 705 310 L557 310 C554 310 552 308 552 305 L552 304 C552 302 554 300 556 300 L560 299 C586 297 604 275 604 246 L604 56 C604 52 603 49 599 47 C539 25 460 11 393 11 C238 11 126 145 126 331 C126 517 238 651 393 651 C428 651 467 647 504 640 C554 630 607 585 631 533 C634 526 638 517 641 510 C642 508 645 506 647 505 L648 505 C651 504 653 506 653 509 L653 509 Z " />
<glyph glyph-name="gbreve" unicode="&#x11f;" horiz-adv-x="483" d="M130 707 C144 649 194 606 253 606 C312 606 362 648 376 706 C377 709 375 711 373 712 C370 713 368 712 367 710 C358 671 311 642 253 642 C195 642 148 671 139 710 C138 712 136 713 134 713 C131 712 129 710 130 707 L130 707 Z M471 499 L346 487 C345 487 342 488 341 488 C315 499 285 505 252 505 C145 505 67 440 67 350 C67 292 100 244 152 217 C157 214 153 200 148 199 C90 187 51 154 51 110 C51 72 81 42 128 26 C135 24 139 11 132 9 C68 -19 25 -66 25 -114 C25 -187 90 -240 179 -240 C343 -240 462 -160 462 -49 C462 20 386 70 280 70 C264 70 195 67 195 67 C132 67 86 93 86 130 C86 167 131 193 192 193 L252 193 C359 193 436 259 436 349 C436 389 421 423 395 450 C390 456 393 466 400 467 L472 469 C478 469 482 473 482 479 L483 488 C483 495 478 500 471 499 L471 499 Z M252 205 C174 205 118 265 118 349 C118 432 174 492 252 492 C329 492 385 432 385 349 C385 265 329 205 252 205 L252 205 Z M178 17 C196 16 241 20 264 20 C356 20 423 -20 423 -75 C423 -161 323 -224 184 -224 C112 -224 60 -174 60 -106 C60 -52 109 -2 177 18 C177 18 178 17 178 17 L178 17 Z " />
<glyph glyph-name="Gdot" unicode="&#x120;" horiz-adv-x="802" d="M427 763 C427 806 361 806 361 763 C361 720 427 720 427 763 L427 763 Z M653 509 L653 597 C653 600 651 604 648 606 C586 640 480 665 394 665 C200 665 60 524 60 330 C60 136 200 -5 394 -5 C483 -5 590 20 653 54 C656 56 658 60 658 63 L658 246 C658 275 676 297 702 299 L706 300 C708 300 710 302 710 304 L710 305 C710 308 708 310 705 310 L557 310 C554 310 552 308 552 305 L552 304 C552 302 554 300 556 300 L560 299 C586 297 604 275 604 246 L604 56 C604 52 603 49 599 47 C539 25 460 11 393 11 C238 11 126 145 126 331 C126 517 238 651 393 651 C428 651 467 647 504 640 C554 630 607 585 631 533 C634 526 638 517 641 510 C642 508 645 506 647 505 L648 505 C651 504 653 506 653 509 L653 509 Z " />
<glyph glyph-name="gdot" unicode="&#x121;" horiz-adv-x="483" d="M286 603 C286 646 220 646 220 603 C220 560 286 560 286 603 L286 603 Z M471 499 L346 487 C345 487 342 488 341 488 C315 499 285 505 252 505 C145 505 67 440 67 350 C67 292 100 244 152 217 C157 214 153 200 148 199 C90 187 51 154 51 110 C51 72 81 42 128 26 C135 24 139 11 132 9 C68 -19 25 -66 25 -114 C25 -187 90 -240 179 -240 C343 -240 462 -160 462 -49 C462 20 386 70 280 70 C264 70 195 67 195 67 C132 67 86 93 86 130 C86 167 131 193 192 193 L252 193 C359 193 436 259 436 349 C436 389 421 423 395 450 C390 456 393 466 400 467 L472 469 C478 469 482 473 482 479 L483 488 C483 495 478 500 471 499 L471 499 Z M252 205 C174 205 118 265 118 349 C118 432 174 492 252 492 C329 492 385 432 385 349 C385 265 329 205 252 205 L252 205 Z M178 17 C196 16 241 20 264 20 C356 20 423 -20 423 -75 C423 -161 323 -224 184 -224 C112 -224 60 -174 60 -106 C60 -52 109 -2 177 18 C177 18 178 17 178 17 L178 17 Z " />
<glyph glyph-name="Hcircumflex" unicode="&#x124;" horiz-adv-x="739" d="M386 890 C383 896 376 905 370 905 C362 905 355 894 353 890 C353 890 267 727 251 701 C250 699 250 697 252 696 C253 694 256 695 257 697 C295 743 336 800 362 836 C366 842 375 841 379 835 C419 780 487 694 487 694 C487 694 488 695 490 697 C491 698 493 698 492 699 C489 704 431 799 388 890 C387 890 386 890 386 890 L386 890 Z M697 12 L693 12 C667 14 649 36 649 65 L649 597 C649 626 667 648 693 650 L697 651 C699 651 701 653 701 655 L701 656 C701 659 699 661 696 661 L542 661 C539 661 537 659 537 656 L537 655 C537 653 539 651 541 651 L545 650 C571 648 589 626 589 597 L589 366 C589 361 584 356 579 356 L163 356 C158 356 153 361 153 366 L153 597 C153 626 171 648 197 650 L201 651 C203 651 205 653 205 655 L205 656 C205 659 203 661 200 661 L46 661 C43 661 41 659 41 656 L41 655 C41 653 43 651 45 651 L49 650 C75 648 93 626 93 597 L93 65 C93 36 75 14 49 12 L45 12 C43 11 41 9 41 7 L41 6 C41 3 43 1 46 1 L200 1 C203 1 205 3 205 6 L205 7 C205 9 203 11 201 12 L197 12 C171 14 153 36 153 65 L153 330 C153 335 158 340 163 340 L579 340 C584 340 589 335 589 330 L589 65 C589 36 571 14 545 12 L541 12 C539 11 537 9 537 7 L537 6 C537 3 539 1 542 1 L696 1 C699 1 701 3 701 6 L701 7 C701 9 699 11 697 12 L697 12 Z " />
<glyph glyph-name="Itilde" unicode="&#x128;" horiz-adv-x="243" d="M-31 761 C-29 796 -9 821 18 821 C74 821 155 758 211 758 C252 758 282 797 284 851 C284 853 282 855 280 855 C277 855 275 852 275 850 C273 818 252 795 223 795 C167 795 86 857 30 857 C-10 857 -39 816 -40 759 C-40 757 -38 755 -36 755 C-33 755 -31 758 -31 761 L-31 761 Z M200 11 L196 11 C170 13 152 35 152 64 L152 596 C152 625 170 647 196 649 L200 650 C202 650 204 652 204 654 L204 655 C204 658 202 660 199 660 L45 660 C42 660 40 658 40 655 L40 654 C40 652 42 650 44 650 L48 649 C74 647 92 625 92 596 L92 64 C92 35 74 13 48 11 L44 11 C42 10 40 8 40 6 L40 5 C40 2 42 0 45 0 L199 0 C202 0 204 2 204 5 L204 6 C204 8 202 10 200 11 L200 11 Z " />
<glyph glyph-name="itilde" unicode="&#x129;" horiz-adv-x="247" d="M-29 601 C-27 636 -7 661 20 661 C76 661 157 598 213 598 C254 598 284 637 286 691 C286 693 284 695 282 695 C279 695 277 692 277 690 C275 658 254 635 225 635 C169 635 88 697 32 697 C-8 697 -37 656 -38 599 C-38 597 -36 595 -34 595 C-31 595 -29 598 -29 601 L-29 601 Z M199 11 L195 11 C169 13 151 35 151 64 L151 495 C151 498 149 500 146 500 L141 500 C141 500 139 500 139 500 L48 473 C46 472 45 471 45 469 C45 467 47 465 48 465 C86 450 97 439 97 393 L97 63 C97 34 79 12 53 10 L49 10 C47 9 45 7 45 5 L45 4 C45 1 47 -1 50 -1 L198 -1 C201 -1 203 1 203 5 L203 6 C203 8 201 10 199 11 L199 11 Z " />
<glyph glyph-name="Imacron" unicode="&#x12a;" horiz-adv-x="243" d="M-26 769 L270 769 C275 769 280 774 280 779 L280 790 C280 795 275 800 270 800 L-26 800 C-31 800 -36 795 -36 790 L-36 779 C-36 774 -31 769 -26 769 L-26 769 Z M200 11 L196 11 C170 13 152 35 152 64 L152 596 C152 625 170 647 196 649 L200 650 C202 650 204 652 204 654 L204 655 C204 658 202 660 199 660 L45 660 C42 660 40 658 40 655 L40 654 C40 652 42 650 44 650 L48 649 C74 647 92 625 92 596 L92 64 C92 35 74 13 48 11 L44 11 C42 10 40 8 40 6 L40 5 C40 2 42 0 45 0 L199 0 C202 0 204 2 204 5 L204 6 C204 8 202 10 200 11 L200 11 Z " />
<glyph glyph-name="imacron" unicode="&#x12b;" horiz-adv-x="247" d="M-24 609 L272 609 C277 609 282 614 282 619 L282 630 C282 635 277 640 272 640 L-24 640 C-29 640 -34 635 -34 630 L-34 619 C-34 614 -29 609 -24 609 L-24 609 Z M199 11 L195 11 C169 13 151 35 151 64 L151 495 C151 498 149 500 146 500 L141 500 C141 500 139 500 139 500 L48 473 C46 472 45 471 45 469 C45 467 47 465 48 465 C86 450 97 439 97 393 L97 63 C97 34 79 12 53 10 L49 10 C47 9 45 7 45 5 L45 4 C45 1 47 -1 50 -1 L198 -1 C201 -1 203 1 203 5 L203 6 C203 8 201 10 199 11 L199 11 Z " />
<glyph glyph-name="Ibreve" unicode="&#x12c;" horiz-adv-x="243" d="M-1 867 C13 809 63 766 122 766 C181 766 231 808 245 866 C246 869 244 871 242 872 C239 873 237 872 236 870 C227 831 180 802 122 802 C64 802 17 831 8 870 C7 872 5 873 3 873 C0 872 -2 870 -1 867 L-1 867 Z M200 11 L196 11 C170 13 152 35 152 64 L152 596 C152 625 170 647 196 649 L200 650 C202 650 204 652 204 654 L204 655 C204 658 202 660 199 660 L45 660 C42 660 40 658 40 655 L40 654 C40 652 42 650 44 650 L48 649 C74 647 92 625 92 596 L92 64 C92 35 74 13 48 11 L44 11 C42 10 40 8 40 6 L40 5 C40 2 42 0 45 0 L199 0 C202 0 204 2 204 5 L204 6 C204 8 202 10 200 11 L200 11 Z " />
<glyph glyph-name="ibreve" unicode="&#x12d;" horiz-adv-x="247" d="M1 707 C15 649 66 606 124 606 C183 606 233 648 247 706 C248 709 246 711 244 712 C241 713 239 712 238 710 C229 671 182 642 124 642 C66 642 19 671 10 710 C9 712 7 713 5 713 C2 712 0 710 1 707 L1 707 Z M199 11 L195 11 C169 13 151 35 151 64 L151 495 C151 498 149 500 146 500 L141 500 C141 500 139 500 139 500 L48 473 C46 472 45 471 45 469 C45 467 47 465 48 465 C86 450 97 439 97 393 L97 63 C97 34 79 12 53 10 L49 10 C47 9 45 7 45 5 L45 4 C45 1 47 -1 50 -1 L198 -1 C201 -1 203 1 203 5 L203 6 C203 8 201 10 199 11 L199 11 Z " />
<glyph glyph-name="Idot" unicode="&#x130;" horiz-adv-x="243" d="M155 763 C155 806 89 806 89 763 C89 720 155 720 155 763 L155 763 Z M200 11 L196 11 C170 13 152 35 152 64 L152 596 C152 625 170 647 196 649 L200 650 C202 650 204 652 204 654 L204 655 C204 658 202 660 199 660 L45 660 C42 660 40 658 40 655 L40 654 C40 652 42 650 44 650 L48 649 C74 647 92 625 92 596 L92 64 C92 35 74 13 48 11 L44 11 C42 10 40 8 40 6 L40 5 C40 2 42 0 45 0 L199 0 C202 0 204 2 204 5 L204 6 C204 8 202 10 200 11 L200 11 Z " />
<glyph glyph-name="dotlessi" unicode="&#x131;" horiz-adv-x="247" d="M199 11 L195 11 C169 13 151 35 151 64 L151 495 C151 498 149 500 146 500 L141 500 C141 500 139 500 139 500 L48 473 C46 472 45 471 45 469 C45 467 47 465 48 465 C86 450 97 439 97 393 L97 63 C97 34 79 12 53 10 L49 10 C47 9 45 7 45 5 L45 4 C45 1 47 -1 50 -1 L198 -1 C201 -1 203 1 203 5 L203 6 C203 8 201 10 199 11 L199 11 Z " />
<glyph glyph-name="Jcircumflex" unicode="&#x134;" horiz-adv-x="361" d="M256 890 C253 896 246 905 240 905 C231 905 224 894 222 890 C222 890 136 727 120 701 C119 699 120 697 121 696 C123 694 126 695 127 697 C165 742 205 798 231 834 C235 840 244 839 248 833 C287 779 355 693 355 693 C355 693 356 694 358 696 C360 697 362 696 361 698 C358 703 301 798 257 889 C257 889 256 890 256 890 L256 890 Z M317 660 L162 660 C159 660 157 658 157 655 L157 654 C157 652 159 650 161 650 L165 649 C191 647 209 625 209 596 L209 200 C209 62 182 2 119 2 C87 2 58 22 51 50 C48 64 36 74 24 74 C7 74 -3 64 0 50 C9 15 52 -10 104 -10 C219 -10 269 69 269 251 C270 250 270 481 270 596 C270 625 288 647 314 649 L318 650 C320 650 322 652 322 654 L322 655 C322 658 320 660 317 660 L317 660 Z " />
<glyph glyph-name="Lacute" unicode="&#x139;" horiz-adv-x="550" d="M99 691 C103 695 180 782 209 820 C233 848 250 871 250 874 C250 880 228 896 219 896 C217 896 201 873 181 841 C181 841 179 838 179 838 C148 797 92 696 92 696 C92 696 93 695 96 694 C97 692 98 689 99 691 L99 691 Z M199 660 L45 660 C42 660 40 658 40 655 L40 654 C40 652 42 650 44 650 L48 649 C74 647 92 625 92 596 L92 64 C92 35 74 13 48 11 L44 11 C42 10 40 8 40 6 L40 5 C40 2 42 0 45 0 L458 0 C460 0 462 2 463 3 L463 7 C469 38 477 82 482 113 C478 115 470 118 470 118 C470 118 469 117 468 114 L453 86 C431 45 386 15 345 15 L162 15 C157 15 152 20 152 25 L152 596 C152 625 170 647 196 649 L200 650 C202 650 204 652 204 654 L204 655 C204 658 202 660 199 660 L199 660 Z " />
<glyph glyph-name="Lcaron" unicode="&#x13d;" horiz-adv-x="550" d="M326 693 C315 693 298 629 289 586 L254 428 C253 426 255 423 257 423 C258 422 261 423 261 425 L323 574 C344 625 360 675 360 681 C360 689 336 693 326 693 L326 693 Z M199 660 L45 660 C42 660 40 658 40 655 L40 654 C40 652 42 650 44 650 L48 649 C74 647 92 625 92 596 L92 64 C92 35 74 13 48 11 L44 11 C42 10 40 8 40 6 L40 5 C40 2 42 0 45 0 L458 0 C460 0 462 2 463 3 L463 7 C469 38 477 82 482 113 C478 115 470 118 470 118 C470 118 469 117 468 114 L453 86 C431 45 386 15 345 15 L162 15 C157 15 152 20 152 25 L152 596 C152 625 170 647 196 649 L200 650 C202 650 204 652 204 654 L204 655 C204 658 202 660 199 660 L199 660 Z " />
<glyph glyph-name="lcaron" unicode="&#x13e;" horiz-adv-x="247" d="M272 723 C261 723 244 659 235 616 L200 458 C199 456 201 453 203 453 C204 452 207 453 207 455 L269 604 C290 655 306 705 306 711 C306 719 282 723 272 723 L272 723 Z M199 11 L195 11 C169 13 151 35 151 64 L151 715 C151 718 149 720 146 720 L141 720 C141 720 139 720 139 720 L48 693 C46 692 45 691 45 689 C45 687 47 685 48 685 C86 670 97 659 97 613 L97 63 C97 34 79 12 53 10 L49 10 C47 9 45 7 45 5 L45 4 C45 1 47 -1 50 -1 L198 -1 C201 -1 203 1 203 5 L203 6 C203 8 201 10 199 11 L199 11 Z " />
<glyph glyph-name="Lslash" unicode="&#x141;" horiz-adv-x="550" d="M45 0 L458 0 C460 0 462 2 463 3 L463 7 C469 38 477 82 482 113 C478 115 470 118 470 118 C470 118 469 117 468 114 L453 86 C431 45 386 15 345 15 L162 15 C157 15 152 20 152 25 L152 305 C152 309 155 313 159 315 L300 368 C304 370 307 374 307 378 L307 380 C307 385 303 387 299 386 L166 335 C159 333 152 337 152 345 L152 596 C152 625 170 647 196 649 L200 650 C202 650 204 652 204 654 L204 655 C204 658 202 660 199 660 L45 660 C42 660 40 658 40 655 L40 654 C40 652 42 650 44 650 L48 649 C74 647 92 625 92 596 L92 315 C92 311 89 307 85 305 L50 292 C46 290 43 286 43 282 L43 280 C43 275 47 273 51 274 L78 285 C85 287 92 283 92 275 L92 64 C92 35 74 13 48 11 L44 11 C42 10 40 8 40 6 L40 5 C40 2 42 0 45 0 L45 0 Z " />
<glyph glyph-name="lslash" unicode="&#x142;" horiz-adv-x="247" d="M50 0 L198 0 C201 0 203 2 203 5 L203 6 C203 8 201 10 199 11 L195 11 C169 13 151 35 151 64 L151 355 C151 359 154 363 158 365 L244 398 C248 400 251 404 251 408 L251 410 C251 415 247 417 243 416 L165 385 C158 383 151 387 151 395 L151 715 C151 718 149 720 146 720 L141 720 C141 720 139 720 139 720 L48 693 C46 692 45 691 45 689 C45 687 47 685 48 685 C86 670 97 659 97 613 L97 364 C97 360 94 356 90 354 L4 321 C0 319 -3 315 -3 311 L-3 309 C-3 304 1 302 5 303 L83 334 C90 336 97 332 97 324 L97 63 C97 34 79 12 53 10 L49 10 C47 9 45 7 45 5 L45 5 C45 2 47 0 50 0 L50 0 Z " />
<glyph glyph-name="Nacute" unicode="&#x143;" horiz-adv-x="668" d="M306 691 C310 695 387 782 416 820 C440 848 457 871 457 874 C457 880 435 896 426 896 C424 896 408 873 388 841 C388 841 386 838 386 838 C355 797 299 696 299 696 C299 696 300 695 303 694 C304 692 305 689 306 691 L306 691 Z M46 650 L50 649 C76 647 94 625 94 596 L94 64 C94 35 76 13 50 11 L46 11 C44 10 42 8 42 6 L42 5 C42 2 44 0 47 0 L159 0 C162 0 164 2 164 5 L164 6 C164 8 162 10 160 11 L156 11 C130 13 112 35 112 64 L112 576 C112 587 128 585 134 577 C277 380 419 185 561 -12 C562 -14 564 -12 566 -12 L571 -12 C576 -12 580 -8 580 -3 L580 596 C580 625 598 647 624 649 L628 650 C630 650 632 652 632 654 L632 655 C632 658 630 660 627 660 L515 660 C512 660 510 658 510 655 L510 654 C510 652 512 650 514 650 L518 649 C544 647 562 625 562 596 L562 119 C562 108 549 104 543 113 L151 656 C150 658 145 660 143 660 L47 660 C44 660 42 658 42 655 L42 654 C42 652 44 650 46 650 L46 650 Z " />
<glyph glyph-name="nacute" unicode="&#x144;" horiz-adv-x="589" d="M221 531 C225 535 302 622 331 660 C355 688 372 711 372 714 C372 720 350 736 341 736 C339 736 323 713 303 681 C303 681 301 678 301 678 C270 637 214 536 214 536 C214 536 215 535 218 534 C219 532 220 529 221 531 L221 531 Z M397 0 L545 0 C548 0 550 2 550 5 L550 6 C550 8 548 10 546 11 L542 11 C516 13 498 35 498 64 L498 336 C498 434 458 505 367 505 C321 505 240 480 167 445 C159 441 149 445 149 453 L149 495 C149 498 147 500 144 500 L139 500 C139 500 137 500 137 500 L46 473 C44 472 43 471 43 469 C43 467 45 465 46 465 C84 450 95 439 95 393 L95 63 C95 34 77 12 51 10 L47 10 C45 9 43 7 43 5 L43 4 C43 1 45 -1 48 -1 L196 -1 C199 -1 201 1 201 4 L201 5 C201 7 199 9 197 10 L193 10 C167 12 149 34 149 63 L149 423 C149 426 153 431 156 432 C202 453 270 468 324 468 C407 468 443 410 443 330 L443 63 C443 34 425 12 399 10 L395 10 C393 9 391 7 391 5 L392 5 C392 2 394 0 397 0 L397 0 Z " />
<glyph glyph-name="Ncaron" unicode="&#x147;" horiz-adv-x="668" d="M453 927 C449 922 383 839 345 786 C341 780 332 779 328 785 C302 821 261 878 223 924 C222 926 219 927 218 926 C216 924 216 922 217 920 C233 894 319 731 319 731 C321 727 328 716 336 716 C343 716 350 727 353 732 C353 732 356 739 356 739 C401 830 457 923 457 923 C457 923 456 924 455 925 C454 926 454 928 453 927 L453 927 Z M45 651 L49 650 C75 648 93 626 93 597 L93 65 C93 36 75 14 49 12 L45 12 C43 11 41 9 41 7 L41 6 C41 3 43 1 46 1 L158 1 C161 1 163 3 163 6 L163 7 C163 9 161 11 159 12 L155 12 C129 14 111 36 111 65 L111 577 C111 588 127 586 133 578 C276 381 418 186 560 -11 C561 -13 563 -11 565 -11 L570 -11 C575 -11 579 -7 579 -2 L579 597 C579 626 597 648 623 650 L627 651 C629 651 631 653 631 655 L631 656 C631 659 629 661 626 661 L514 661 C511 661 509 659 509 656 L509 655 C509 653 511 651 513 651 L517 650 C543 648 561 626 561 597 L561 120 C561 109 548 105 542 114 L150 657 C149 659 144 661 142 661 L46 661 C43 661 41 659 41 656 L41 655 C41 653 43 651 45 651 L45 651 Z " />
<glyph glyph-name="ncaron" unicode="&#x148;" horiz-adv-x="589" d="M413 767 C409 762 343 679 305 626 C301 620 292 619 288 625 C262 661 221 718 183 764 C182 766 179 767 178 766 C176 764 176 762 177 760 C193 734 279 571 279 571 C281 567 288 556 296 556 C303 556 310 567 313 572 C313 572 316 579 316 579 C361 670 417 763 417 763 C417 763 416 764 415 765 C414 766 414 768 413 767 L413 767 Z M396 1 L544 1 C547 1 549 3 549 6 L549 7 C549 9 547 11 545 12 L541 12 C515 14 497 36 497 65 L497 337 C497 435 457 506 366 506 C320 506 239 481 166 446 C158 442 148 446 148 454 L148 496 C148 499 146 501 143 501 L138 501 C138 501 136 501 136 501 L45 474 C43 473 42 472 42 470 C42 468 44 466 45 466 C83 451 94 440 94 394 L94 64 C94 35 76 13 50 11 L46 11 C44 10 42 8 42 6 L42 5 C42 2 44 0 47 0 L195 0 C198 0 200 2 200 5 L200 6 C200 8 198 10 196 11 L192 11 C166 13 148 35 148 64 L148 424 C148 427 152 432 155 433 C201 454 269 469 323 469 C406 469 442 411 442 331 L442 64 C442 35 424 13 398 11 L394 11 C392 10 390 8 390 6 L391 6 C391 3 393 1 396 1 L396 1 Z " />
<glyph glyph-name="Omacron" unicode="&#x14c;" horiz-adv-x="774" d="M244 769 L540 769 C545 769 550 774 550 779 L550 790 C550 795 545 800 540 800 L244 800 C239 800 234 795 234 790 L234 779 C234 774 239 769 244 769 L244 769 Z M127 330 C127 497 223 650 392 650 C562 650 658 497 658 330 C658 163 562 10 392 10 C223 10 127 163 127 330 L127 330 Z M60 330 C60 155 180 -5 392 -5 C604 -5 724 155 724 330 C724 505 604 665 392 665 C180 665 60 505 60 330 L60 330 Z " />
<glyph glyph-name="omacron" unicode="&#x14d;" horiz-adv-x="606" d="M155 609 L451 609 C456 609 461 614 461 619 L461 630 C461 635 456 640 451 640 L155 640 C150 640 145 635 145 630 L145 619 C145 614 150 609 155 609 L155 609 Z M110 250 C110 391 191 493 303 493 C415 493 496 391 496 250 C496 109 415 7 303 7 C191 7 110 109 110 250 L110 250 Z M50 250 C50 102 156 -5 303 -5 C450 -5 556 102 556 250 C556 398 450 505 303 505 C156 505 50 398 50 250 L50 250 Z " />
<glyph glyph-name="Obreve" unicode="&#x14e;" horiz-adv-x="774" d="M269 867 C283 809 334 766 392 766 C451 766 501 808 515 866 C516 869 514 871 512 872 C509 873 507 872 506 870 C497 831 450 802 392 802 C334 802 287 831 278 870 C277 872 275 873 273 873 C270 872 268 870 269 867 L269 867 Z M127 330 C127 497 223 650 392 650 C562 650 658 497 658 330 C658 163 562 10 392 10 C223 10 127 163 127 330 L127 330 Z M60 330 C60 155 180 -5 392 -5 C604 -5 724 155 724 330 C724 505 604 665 392 665 C180 665 60 505 60 330 L60 330 Z " />
<glyph glyph-name="obreve" unicode="&#x14f;" horiz-adv-x="606" d="M180 707 C194 649 244 606 303 606 C362 606 412 648 426 706 C427 709 425 711 423 712 C420 713 418 712 417 710 C408 671 361 642 303 642 C245 642 198 671 189 710 C188 712 186 713 184 713 C181 712 179 710 180 707 L180 707 Z M110 250 C110 391 191 493 303 493 C415 493 496 391 496 250 C496 109 415 7 303 7 C191 7 110 109 110 250 L110 250 Z M50 250 C50 102 156 -5 303 -5 C450 -5 556 102 556 250 C556 398 450 505 303 505 C156 505 50 398 50 250 L50 250 Z " />
<glyph glyph-name="Racute" unicode="&#x154;" horiz-adv-x="627" d="M234 691 C238 695 315 782 344 820 C368 849 386 871 386 874 C386 880 364 896 355 896 C353 896 337 873 317 841 C317 841 315 838 315 838 C284 797 228 696 228 696 C228 696 229 695 231 694 C233 692 233 690 234 691 L234 691 Z M54 650 L58 649 C84 647 102 625 102 596 L102 64 C102 35 84 13 58 11 L54 11 C52 10 50 8 50 6 L50 5 C50 2 52 0 55 0 L209 0 C212 0 214 2 214 5 L214 6 C214 8 212 10 210 11 L206 11 C180 13 162 35 162 64 L162 306 C162 311 167 316 172 316 L265 316 C267 316 271 315 272 314 C300 280 366 204 449 106 C533 8 544 0 605 0 L622 0 C625 0 628 3 628 6 C628 9 625 12 622 12 C598 13 593 21 530 94 C448 190 382 268 350 306 C344 313 346 321 354 323 C454 343 521 406 521 489 C521 588 434 659 315 659 L55 659 C52 659 50 657 50 655 L50 654 C50 652 52 650 54 650 L54 650 Z M285 330 L172 330 C167 330 162 335 162 340 L162 634 C162 639 167 644 172 644 L315 644 C397 644 457 579 457 489 C457 397 385 330 285 330 L285 330 Z " />
<glyph glyph-name="Rcaron" unicode="&#x158;" horiz-adv-x="627" d="M427 927 C423 922 358 840 320 787 C316 781 307 780 303 786 C277 822 237 878 199 923 C198 925 195 926 193 925 C192 923 191 921 192 919 C208 893 294 730 294 730 C296 726 303 715 312 715 C319 715 326 726 329 731 C329 731 332 738 332 738 C377 829 433 922 433 922 C433 922 432 923 430 925 C428 926 428 929 427 927 L427 927 Z M54 650 L58 649 C84 647 102 625 102 596 L102 64 C102 35 84 13 58 11 L54 11 C52 10 50 8 50 6 L50 5 C50 2 52 0 55 0 L209 0 C212 0 214 2 214 5 L214 6 C214 8 212 10 210 11 L206 11 C180 13 162 35 162 64 L162 306 C162 311 167 316 172 316 L265 316 C267 316 271 315 272 314 C300 280 366 204 449 106 C533 8 544 0 605 0 L622 0 C625 0 628 3 628 6 C628 9 625 12 622 12 C598 13 593 21 530 94 C448 190 382 268 350 306 C344 313 346 321 354 323 C454 343 521 406 521 489 C521 588 434 659 315 659 L55 659 C52 659 50 657 50 655 L50 654 C50 652 52 650 54 650 L54 650 Z M285 330 L172 330 C167 330 162 335 162 340 L162 634 C162 639 167 644 172 644 L315 644 C397 644 457 579 457 489 C457 397 385 330 285 330 L285 330 Z " />
<glyph glyph-name="rcaron" unicode="&#x159;" horiz-adv-x="408" d="M317 767 C313 762 247 679 209 626 C205 620 196 619 192 625 C166 661 125 718 87 764 C86 766 83 767 82 766 C80 764 80 762 81 760 C97 734 183 571 183 571 C185 567 192 556 200 556 C207 556 214 567 217 572 C217 572 220 579 220 579 C265 670 321 763 321 763 C321 763 320 764 319 765 C318 766 318 768 317 767 L317 767 Z M46 466 C84 451 95 440 95 394 L95 64 C95 35 77 13 51 11 L47 11 C45 10 43 8 43 6 L43 5 C43 2 45 0 48 0 L196 0 C199 0 201 2 201 5 L201 6 C201 8 199 10 197 11 L193 11 C167 13 149 35 149 64 L149 411 C149 413 150 416 151 417 C178 445 223 465 262 465 C294 465 339 442 371 442 C386 442 397 453 397 468 C397 489 369 505 305 505 C263 505 210 480 170 444 C163 437 150 441 150 451 L150 496 C150 499 148 501 145 501 L140 501 C140 501 138 501 138 501 L47 474 C45 473 44 471 44 470 C43 468 44 466 46 466 L46 466 Z " />
<glyph glyph-name="Sacute" unicode="&#x15a;" horiz-adv-x="520" d="M200 691 C204 695 281 782 310 820 C334 848 351 871 351 874 C351 880 329 896 320 896 C318 896 302 873 282 841 C282 841 280 838 280 838 C249 797 193 696 193 696 C193 696 194 695 197 694 C198 692 199 689 200 691 L200 691 Z M440 514 L440 609 C440 612 439 616 436 617 C386 645 307 665 248 665 C134 665 51 587 51 480 C51 410 130 337 238 307 C351 276 433 208 433 145 C433 67 368 10 278 10 C248 10 215 14 182 20 C135 32 86 74 63 123 C60 130 56 139 53 146 C52 148 49 150 47 150 L47 150 C44 150 42 148 42 146 L42 51 C42 48 43 44 46 43 C97 15 193 -5 278 -5 C392 -5 475 68 475 169 C475 245 395 322 284 353 C173 384 92 447 92 504 C92 589 157 650 246 650 C272 650 305 644 338 634 C365 624 392 599 404 572 L430 513 C431 511 434 509 436 510 C438 510 440 512 440 514 L440 514 Z " />
<glyph glyph-name="sacute" unicode="&#x15b;" horiz-adv-x="439" d="M146 531 C150 535 227 622 256 660 C280 688 297 711 297 714 C297 720 275 736 266 736 C264 736 248 713 228 681 C228 681 226 678 226 678 C195 637 139 536 139 536 C139 536 140 535 143 534 C144 532 145 529 146 531 L146 531 Z M365 398 L365 455 C365 458 361 463 358 465 C315 489 259 505 222 505 C131 505 65 451 65 377 C65 325 129 264 218 231 C291 204 344 156 344 117 C344 53 296 7 229 7 C208 7 185 9 162 13 C116 23 77 62 55 104 C54 105 51 107 50 107 C48 107 46 105 46 104 L46 39 C46 36 49 31 52 30 C92 8 163 -6 224 -6 C319 -6 387 54 387 136 C387 184 332 239 255 268 C167 301 104 354 104 395 C104 451 153 492 220 492 C235 492 257 487 281 478 C314 464 340 432 353 398 C354 395 357 392 360 393 C363 393 365 395 365 398 L365 398 Z " />
<glyph glyph-name="Scircumflex" unicode="&#x15c;" horiz-adv-x="520" d="M262 890 C259 896 252 905 246 905 C238 905 231 894 229 890 C229 890 143 727 127 701 C126 699 126 697 128 696 C129 694 132 695 133 697 C171 743 212 800 238 836 C242 842 251 841 255 835 C295 780 363 694 363 694 C363 694 364 695 366 697 C367 698 369 698 368 699 C365 704 307 799 264 890 C263 890 262 890 262 890 L262 890 Z M441 515 L441 610 C441 613 440 617 437 618 C387 646 308 666 249 666 C135 666 52 588 52 481 C52 411 131 338 239 308 C352 277 434 209 434 146 C434 68 369 11 279 11 C249 11 216 15 183 21 C136 33 87 75 64 124 C61 131 57 140 54 147 C53 149 50 151 48 151 L48 151 C45 151 43 149 43 147 L43 52 C43 49 44 45 47 44 C98 16 194 -4 279 -4 C393 -4 476 69 476 170 C476 246 396 323 285 354 C174 385 93 448 93 505 C93 590 158 651 247 651 C273 651 306 645 339 635 C366 625 393 600 405 573 L431 514 C432 512 435 510 437 511 C439 511 441 513 441 515 L441 515 Z " />
<glyph glyph-name="Scedilla" unicode="&#x15e;" horiz-adv-x="520" d="M440 514 L440 609 C440 612 439 616 436 617 C386 645 307 665 248 665 C134 665 51 587 51 480 C51 410 130 337 238 307 C351 276 433 208 433 145 C433 67 368 10 278 10 C248 10 215 14 182 20 C135 32 86 74 63 123 C60 130 56 139 53 146 C52 148 49 150 47 150 L47 150 C44 150 42 148 42 146 L42 51 C42 48 43 44 46 43 C95 17 184 -3 267 -5 C269 -5 272 -7 271 -9 C266 -21 254 -49 238 -84 C236 -87 239 -91 243 -90 C261 -84 286 -80 304 -80 C343 -80 372 -103 372 -135 C372 -175 339 -204 293 -204 C255 -204 220 -200 206 -193 C205 -192 202 -192 202 -194 C201 -195 200 -196 202 -197 C223 -210 266 -220 304 -220 C363 -220 405 -184 405 -135 C405 -97 368 -69 316 -69 C295 -69 268 -73 249 -80 C246 -82 244 -76 246 -73 C266 -36 281 -16 288 -8 C289 -7 297 -5 299 -5 C403 4 476 73 476 168 C476 244 396 321 285 352 C174 383 93 446 93 503 C93 588 158 649 247 649 C273 649 306 643 339 633 C366 623 393 598 405 571 L432 511 C432 510 435 508 437 509 C438 510 440 512 440 514 L440 514 Z " />
<glyph glyph-name="scedilla" unicode="&#x15f;" horiz-adv-x="439" d="M365 398 L365 455 C365 458 361 463 358 465 C315 489 259 505 222 505 C131 505 65 451 65 377 C65 325 129 264 218 231 C291 204 344 156 344 117 C344 53 296 7 229 7 C208 7 185 9 162 13 C116 23 77 62 55 104 C54 105 51 107 50 107 C48 107 46 105 46 104 L46 39 C46 36 49 31 52 30 C90 10 156 -4 214 -6 C216 -6 218 -8 217 -10 C212 -22 200 -50 184 -85 C182 -88 185 -92 189 -91 C207 -85 232 -81 250 -81 C289 -81 318 -104 318 -136 C318 -176 285 -205 239 -205 C201 -205 166 -201 152 -194 C151 -193 148 -193 148 -195 C147 -196 146 -197 148 -198 C169 -211 212 -221 250 -221 C309 -221 351 -185 351 -136 C351 -98 314 -70 262 -70 C241 -70 214 -74 195 -81 C192 -83 190 -77 192 -74 C212 -37 227 -17 234 -9 C235 -8 242 -6 244 -6 C328 2 387 59 387 135 C387 183 332 238 255 267 C167 300 104 353 104 394 C104 450 153 491 220 491 C235 491 257 486 281 477 C314 463 340 431 353 397 C354 394 357 391 360 392 C363 393 365 395 365 398 L365 398 Z " />
<glyph glyph-name="Scaron" unicode="&#x160;" horiz-adv-x="520" d="M362 927 C358 922 292 839 254 786 C250 780 241 779 237 785 C211 821 170 878 132 924 C131 926 128 927 127 926 C125 924 125 922 126 920 C142 894 228 731 228 731 C230 727 237 716 245 716 C252 716 259 727 262 732 C262 732 265 739 265 739 C310 830 366 923 366 923 C366 923 365 924 364 925 C363 926 363 928 362 927 L362 927 Z M439 515 L439 610 C439 613 438 617 435 618 C385 646 306 666 247 666 C133 666 50 588 50 481 C50 411 129 338 237 308 C350 277 432 209 432 146 C432 68 367 11 277 11 C247 11 214 15 181 21 C134 33 85 75 62 124 C59 131 55 140 52 147 C51 149 48 151 46 151 L46 151 C43 151 41 149 41 147 L41 52 C41 49 42 45 45 44 C96 16 192 -4 277 -4 C391 -4 474 69 474 170 C474 246 394 323 283 354 C172 385 91 448 91 505 C91 590 156 651 245 651 C271 651 304 645 337 635 C364 625 391 600 403 573 L429 514 C430 512 433 510 435 511 C437 511 439 513 439 515 L439 515 Z " />
<glyph glyph-name="scaron" unicode="&#x161;" horiz-adv-x="439" d="M338 767 C334 762 268 679 230 626 C226 620 217 619 213 625 C187 661 146 718 108 764 C107 766 104 767 103 766 C101 764 101 762 102 760 C118 734 204 571 204 571 C206 567 213 556 221 556 C228 556 235 567 238 572 C238 572 241 579 241 579 C286 670 342 763 342 763 C342 763 341 764 340 765 C339 766 339 768 338 767 L338 767 Z M364 399 L364 456 C364 459 360 464 357 466 C314 490 258 506 221 506 C130 506 64 452 64 378 C64 326 128 265 217 232 C290 205 343 157 343 118 C343 54 295 8 228 8 C207 8 184 10 161 14 C115 24 76 63 54 105 C53 106 50 108 49 108 C47 108 45 106 45 105 L45 40 C45 37 48 32 51 31 C91 9 162 -5 223 -5 C318 -5 386 55 386 137 C386 185 331 240 254 269 C166 302 103 355 103 396 C103 452 152 493 219 493 C234 493 256 488 280 479 C313 465 339 433 352 399 C353 396 356 393 359 394 C362 394 364 396 364 399 L364 399 Z " />
<glyph glyph-name="Tcaron" unicode="&#x164;" horiz-adv-x="636" d="M432 927 C428 922 362 839 324 786 C320 780 311 779 307 785 C281 821 240 878 202 924 C201 926 198 927 197 926 C195 924 195 922 196 920 C212 894 298 731 298 731 C300 727 307 716 315 716 C322 716 329 727 332 732 C332 732 335 739 335 739 C380 830 436 923 436 923 C436 923 435 924 434 925 C433 926 433 928 432 927 L432 927 Z M24 547 L43 583 C62 620 102 646 139 646 L277 646 C282 646 287 641 287 636 L287 65 C287 36 269 14 243 12 L239 12 C237 11 235 9 235 7 L235 6 C235 3 237 1 240 1 L394 1 C397 1 399 3 399 6 L399 7 C399 9 397 11 395 12 L391 12 C365 14 347 36 347 65 L347 636 C347 641 352 646 357 646 L492 646 C530 646 570 620 589 583 L608 547 C609 545 612 543 614 543 C616 543 618 544 618 546 C616 566 609 654 607 654 L607 658 C606 659 604 661 602 661 L27 661 C25 661 23 659 23 657 L23 653 C20 622 16 577 13 545 C13 543 15 543 18 543 C20 543 23 545 24 547 L24 547 Z " />
<glyph glyph-name="tcaron" unicode="&#x165;" horiz-adv-x="367" d="M326 500 L171 500 C166 500 161 505 161 510 L161 636 C161 638 159 640 157 640 C154 640 151 638 151 636 L133 571 C117 527 75 492 29 485 C27 484 25 483 25 481 C25 479 26 478 28 478 L97 478 C102 478 107 473 107 468 L107 110 C107 23 131 -6 204 -6 C266 -6 311 14 344 41 C346 42 346 44 345 45 C344 46 343 47 341 46 C321 29 288 18 231 18 C178 18 161 38 161 101 L161 468 C161 473 166 478 171 478 L326 478 C331 478 336 483 336 488 L336 490 C336 495 331 500 326 500 L326 500 Z M457 722 C446 722 429 658 420 615 L385 457 C384 455 386 452 388 452 C389 451 392 452 392 454 L454 603 C475 654 491 704 491 710 C491 718 467 722 457 722 L457 722 Z " />
<glyph glyph-name="Utilde" unicode="&#x168;" horiz-adv-x="652" d="M180 761 C182 796 202 821 229 821 C285 821 366 758 422 758 C463 758 493 797 495 851 C495 853 493 855 491 855 C488 855 486 852 486 850 C484 818 462 795 434 795 C378 795 297 857 241 857 C201 857 172 816 171 759 C171 757 173 755 176 755 C178 755 180 758 180 761 L180 761 Z M627 660 L499 660 C496 660 494 658 494 655 L494 655 C494 652 496 650 499 650 L503 649 C534 647 556 622 556 588 L556 186 C556 87 492 16 347 16 C211 16 152 92 152 198 L152 596 C152 625 170 647 196 649 L200 650 C202 650 204 652 204 654 L204 655 C204 658 202 660 199 660 L45 660 C42 660 40 658 40 655 L40 654 C40 652 42 650 44 650 L48 649 C74 647 92 625 92 596 L92 210 C92 85 167 -5 338 -5 C502 -5 574 73 574 180 L574 588 C574 622 595 647 624 649 L628 650 C630 650 632 652 632 654 L632 655 C632 658 630 660 627 660 L627 660 Z " />
<glyph glyph-name="utilde" unicode="&#x169;" horiz-adv-x="554" d="M114 601 C116 636 136 661 163 661 C219 661 300 598 356 598 C397 598 427 637 429 691 C429 693 427 695 425 695 C422 695 420 692 420 690 C418 658 396 635 368 635 C312 635 231 697 175 697 C135 697 106 656 105 599 C105 597 107 595 110 595 C112 595 114 598 114 601 L114 601 Z M18 490 L22 489 C48 487 66 465 66 436 L66 156 C66 63 123 -5 224 -5 C297 -5 355 15 397 45 C404 50 414 44 414 35 L414 6 C414 2 416 0 420 0 L424 0 C424 0 426 0 426 0 L517 27 C519 28 520 29 520 31 C520 33 518 35 517 35 C479 50 468 61 468 107 L468 491 C468 496 463 501 458 501 L367 501 C364 501 362 499 362 496 L362 495 C362 493 364 491 366 491 L370 490 C396 488 414 466 414 437 L414 72 C414 69 412 65 410 64 C386 45 338 31 266 31 C173 31 120 86 120 161 L120 490 C120 495 115 500 110 500 L19 500 C16 500 14 498 14 495 L14 494 C14 492 16 490 18 490 L18 490 Z " />
<glyph glyph-name="Umacron" unicode="&#x16a;" horiz-adv-x="652" d="M185 769 L481 769 C486 769 491 774 491 779 L491 790 C491 795 486 800 481 800 L185 800 C180 800 175 795 175 790 L175 779 C175 774 180 769 185 769 L185 769 Z M627 660 L499 660 C496 660 494 658 494 655 L494 655 C494 652 496 650 499 650 L503 649 C534 647 556 622 556 588 L556 186 C556 87 492 16 347 16 C211 16 152 92 152 198 L152 596 C152 625 170 647 196 649 L200 650 C202 650 204 652 204 654 L204 655 C204 658 202 660 199 660 L45 660 C42 660 40 658 40 655 L40 654 C40 652 42 650 44 650 L48 649 C74 647 92 625 92 596 L92 210 C92 85 167 -5 338 -5 C502 -5 574 73 574 180 L574 588 C574 622 595 647 624 649 L628 650 C630 650 632 652 632 654 L632 655 C632 658 630 660 627 660 L627 660 Z " />
<glyph glyph-name="umacron" unicode="&#x16b;" horiz-adv-x="554" d="M119 609 L415 609 C420 609 425 614 425 619 L425 630 C425 635 420 640 415 640 L119 640 C114 640 109 635 109 630 L109 619 C109 614 114 609 119 609 L119 609 Z M18 490 L22 489 C48 487 66 465 66 436 L66 156 C66 63 123 -5 224 -5 C297 -5 355 15 397 45 C404 50 414 44 414 35 L414 6 C414 2 416 0 420 0 L424 0 C424 0 426 0 426 0 L517 27 C519 28 520 29 520 31 C520 33 518 35 517 35 C479 50 468 61 468 107 L468 491 C468 496 463 501 458 501 L367 501 C364 501 362 499 362 496 L362 495 C362 493 364 491 366 491 L370 490 C396 488 414 466 414 437 L414 72 C414 69 412 65 410 64 C386 45 338 31 266 31 C173 31 120 86 120 161 L120 490 C120 495 115 500 110 500 L19 500 C16 500 14 498 14 495 L14 494 C14 492 16 490 18 490 L18 490 Z " />
<glyph glyph-name="Ubreve" unicode="&#x16c;" horiz-adv-x="652" d="M210 867 C224 809 275 766 333 766 C392 766 442 808 456 866 C457 869 455 871 453 872 C450 873 448 872 447 870 C438 831 391 802 333 802 C275 802 228 831 219 870 C218 872 216 873 214 873 C211 872 209 870 210 867 L210 867 Z M627 660 L499 660 C496 660 494 658 494 655 L494 655 C494 652 496 650 499 650 L503 649 C534 647 556 622 556 588 L556 186 C556 87 492 16 347 16 C211 16 152 92 152 198 L152 596 C152 625 170 647 196 649 L200 650 C202 650 204 652 204 654 L204 655 C204 658 202 660 199 660 L45 660 C42 660 40 658 40 655 L40 654 C40 652 42 650 44 650 L48 649 C74 647 92 625 92 596 L92 210 C92 85 167 -5 338 -5 C502 -5 574 73 574 180 L574 588 C574 622 595 647 624 649 L628 650 C630 650 632 652 632 654 L632 655 C632 658 630 660 627 660 L627 660 Z " />
<glyph glyph-name="ubreve" unicode="&#x16d;" horiz-adv-x="554" d="M144 707 C158 649 209 606 267 606 C326 606 376 648 390 706 C391 709 389 711 387 712 C384 713 382 712 381 710 C372 671 325 642 267 642 C209 642 162 671 153 710 C152 712 150 713 148 713 C145 712 143 710 144 707 L144 707 Z M18 490 L22 489 C48 487 66 465 66 436 L66 156 C66 63 123 -5 224 -5 C297 -5 355 15 397 45 C404 50 414 44 414 35 L414 6 C414 2 416 0 420 0 L424 0 C424 0 426 0 426 0 L517 27 C519 28 520 29 520 31 C520 33 518 35 517 35 C479 50 468 61 468 107 L468 491 C468 496 463 501 458 501 L367 501 C364 501 362 499 362 496 L362 495 C362 493 364 491 366 491 L370 490 C396 488 414 466 414 437 L414 72 C414 69 412 65 410 64 C386 45 338 31 266 31 C173 31 120 86 120 161 L120 490 C120 495 115 500 110 500 L19 500 C16 500 14 498 14 495 L14 494 C14 492 16 490 18 490 L18 490 Z " />
<glyph glyph-name="Uring" unicode="&#x16e;" horiz-adv-x="652" d="M254 788 C254 834 287 868 333 868 C379 868 412 834 412 788 C412 746 374 707 333 707 C292 707 254 746 254 788 L254 788 Z M239 788 C239 739 284 695 333 695 C382 695 427 739 427 788 C427 841 388 880 333 880 C278 880 239 841 239 788 L239 788 Z M627 660 L499 660 C496 660 494 658 494 655 L494 655 C494 652 496 650 499 650 L503 649 C534 647 556 622 556 588 L556 186 C556 87 492 16 347 16 C211 16 152 92 152 198 L152 596 C152 625 170 647 196 649 L200 650 C202 650 204 652 204 654 L204 655 C204 658 202 660 199 660 L45 660 C42 660 40 658 40 655 L40 654 C40 652 42 650 44 650 L48 649 C74 647 92 625 92 596 L92 210 C92 85 167 -5 338 -5 C502 -5 574 73 574 180 L574 588 C574 622 595 647 624 649 L628 650 C630 650 632 652 632 654 L632 655 C632 658 630 660 627 660 L627 660 Z " />
<glyph glyph-name="uring" unicode="&#x16f;" horiz-adv-x="554" d="M188 628 C188 674 221 708 267 708 C313 708 346 674 346 628 C346 586 308 547 267 547 C226 547 188 586 188 628 L188 628 Z M173 628 C173 579 218 535 267 535 C316 535 361 579 361 628 C361 681 322 720 267 720 C212 720 173 681 173 628 L173 628 Z M18 490 L22 489 C48 487 66 465 66 436 L66 156 C66 63 123 -5 224 -5 C297 -5 355 15 397 45 C404 50 414 44 414 35 L414 6 C414 2 416 0 420 0 L424 0 C424 0 426 0 426 0 L517 27 C519 28 520 29 520 31 C520 33 518 35 517 35 C479 50 468 61 468 107 L468 491 C468 496 463 501 458 501 L367 501 C364 501 362 499 362 496 L362 495 C362 493 364 491 366 491 L370 490 C396 488 414 466 414 437 L414 72 C414 69 412 65 410 64 C386 45 338 31 266 31 C173 31 120 86 120 161 L120 490 C120 495 115 500 110 500 L19 500 C16 500 14 498 14 495 L14 494 C14 492 16 490 18 490 L18 490 Z " />
<glyph glyph-name="Wcircumflex" unicode="&#x174;" horiz-adv-x="923" d="M162 660 L6 660 C3 660 1 658 1 655 C1 652 3 650 5 649 C28 644 46 631 58 603 L265 -8 C266 -12 271 -15 274 -15 L275 -15 C279 -15 284 -12 285 -8 L444 539 C447 549 460 549 463 539 L650 -8 C651 -12 656 -15 659 -15 L660 -15 C663 -15 668 -12 669 -8 L851 596 C860 625 885 647 911 649 L915 650 C917 650 919 652 919 654 L919 655 C919 658 917 660 914 660 L785 660 C782 660 780 658 780 655 C780 652 782 650 785 650 L797 649 C827 648 842 625 833 596 L689 110 C686 100 673 100 670 110 L484 663 C483 667 478 670 475 670 L475 670 C471 670 466 667 465 663 L302 106 C299 96 286 96 283 106 L126 596 C118 624 130 647 159 649 L164 650 C166 650 168 652 168 655 L168 655 C167 658 165 660 162 660 L162 660 Z M492 890 C489 896 482 905 476 905 C467 905 460 894 458 890 C458 890 372 727 356 701 C355 699 356 697 357 696 C359 694 362 695 363 697 C401 742 441 798 467 834 C471 840 480 839 484 833 C523 779 591 693 591 693 C591 693 592 694 594 696 C596 697 598 696 597 698 C594 703 537 798 493 889 C493 889 492 890 492 890 L492 890 Z " />
<glyph glyph-name="Ycircumflex" unicode="&#x176;" horiz-adv-x="591" d="M183 660 L26 660 C23 660 21 658 21 655 C21 653 24 649 27 649 C50 643 71 627 88 596 L272 263 C272 263 273 259 273 258 L272 64 C272 35 254 13 228 11 L224 11 C222 10 220 8 220 6 L220 5 C220 2 222 0 225 0 L380 0 C383 0 385 2 385 5 L385 6 C385 8 383 10 381 11 L377 11 C351 13 333 35 333 64 L333 285 C333 286 334 290 334 290 L519 604 C538 633 561 646 587 650 C589 651 591 653 591 656 C591 659 589 661 586 661 L463 661 C460 661 458 659 458 656 C458 653 460 651 463 651 L469 650 C502 648 510 619 488 581 L332 313 C328 305 318 305 314 313 L160 597 C145 626 152 648 179 650 L183 651 C185 651 187 653 187 655 L187 656 C187 658 185 660 183 660 L183 660 Z M319 891 C316 897 309 906 303 906 C295 906 288 895 286 891 C286 891 200 728 184 702 C183 700 183 698 185 697 C186 695 189 696 190 698 C228 744 269 801 295 837 C299 843 308 842 312 836 C352 781 420 695 420 695 C420 695 421 696 423 698 C424 699 426 699 425 700 C422 705 364 800 321 891 C320 891 319 891 319 891 L319 891 Z " />
<glyph glyph-name="Ydieresis" unicode="&#x178;" horiz-adv-x="591" d="M426 763 C426 806 360 806 360 763 C360 720 426 720 426 763 L426 763 Z M246 763 C246 806 180 806 180 763 C180 720 246 720 246 763 L246 763 Z M183 660 L26 660 C23 660 21 658 21 655 C21 653 24 649 27 649 C50 643 71 627 88 596 L272 263 C272 263 273 259 273 258 L272 64 C272 35 254 13 228 11 L224 11 C222 10 220 8 220 6 L220 5 C220 2 222 0 225 0 L380 0 C383 0 385 2 385 5 L385 6 C385 8 383 10 381 11 L377 11 C351 13 333 35 333 64 L333 285 C333 286 334 290 334 290 L519 604 C538 633 561 646 587 650 C589 651 591 653 591 656 C591 659 589 661 586 661 L463 661 C460 661 458 659 458 656 C458 653 460 651 463 651 L469 650 C502 648 510 619 488 581 L332 313 C328 305 318 305 314 313 L160 597 C145 626 152 648 179 650 L183 651 C185 651 187 653 187 655 L187 656 C187 658 185 660 183 660 L183 660 Z " />
<glyph glyph-name="Zacute" unicode="&#x179;" horiz-adv-x="600" d="M338 691 C342 695 419 782 448 820 C472 848 489 871 489 874 C489 880 467 896 458 896 C456 896 440 873 420 841 C420 841 418 838 418 838 C387 797 331 696 331 696 C331 696 332 695 335 694 C336 692 337 689 338 691 L338 691 Z M551 114 C547 116 539 119 539 119 C539 119 538 118 537 115 L522 87 C500 46 455 16 414 16 L147 16 C138 16 133 24 138 32 L535 644 C540 652 535 660 526 660 L121 660 C119 660 116 658 116 657 L115 653 C108 628 98 591 91 565 C90 563 92 563 94 563 C96 563 99 565 101 566 L114 582 C144 619 192 645 229 645 L447 645 C456 645 461 637 456 629 L61 16 C56 8 61 0 70 0 L522 0 C527 0 531 3 532 8 C537 42 546 83 551 114 L551 114 Z " />
<glyph glyph-name="zacute" unicode="&#x17a;" horiz-adv-x="499" d="M191 531 C195 535 272 622 301 660 C325 688 342 711 342 714 C342 720 320 736 311 736 C309 736 293 713 273 681 C273 681 271 678 271 678 C240 637 184 536 184 536 C184 536 185 535 188 534 C189 532 190 529 191 531 L191 531 Z M456 110 C452 112 444 115 444 115 C444 115 443 114 442 111 L427 83 C405 42 360 12 319 12 L146 12 C137 12 133 21 137 28 L439 484 C443 491 439 500 430 500 L74 500 C73 500 71 499 70 497 L69 494 C64 475 57 449 52 429 C51 427 53 425 55 425 C57 425 61 427 62 428 L68 434 C99 465 148 486 184 487 L360 488 C369 488 373 479 368 472 L66 16 C61 9 65 0 74 0 L428 0 C433 0 437 3 438 8 C443 39 451 80 456 110 L456 110 Z " />
<glyph glyph-name="Zdot" unicode="&#x17b;" horiz-adv-x="600" d="M372 763 C372 806 306 806 306 763 C306 720 372 720 372 763 L372 763 Z M551 114 C547 116 539 119 539 119 C539 119 538 118 537 115 L522 87 C500 46 455 16 414 16 L147 16 C138 16 133 24 138 32 L535 644 C540 652 535 660 526 660 L121 660 C119 660 116 658 116 657 L115 653 C108 628 98 591 91 565 C90 563 92 563 94 563 C96 563 99 565 101 566 L114 582 C144 619 192 645 229 645 L447 645 C456 645 461 637 456 629 L61 16 C56 8 61 0 70 0 L522 0 C527 0 531 3 532 8 C537 42 546 83 551 114 L551 114 Z " />
<glyph glyph-name="zdot" unicode="&#x17c;" horiz-adv-x="499" d="M300 603 C300 646 234 646 234 603 C234 560 300 560 300 603 L300 603 Z M456 110 C452 112 444 115 444 115 C444 115 443 114 442 111 L427 83 C405 42 360 12 319 12 L146 12 C137 12 133 21 137 28 L439 484 C443 491 439 500 430 500 L74 500 C73 500 71 499 70 497 L69 494 C64 475 57 449 52 429 C51 427 53 425 55 425 C57 425 61 427 62 428 L68 434 C99 465 148 486 184 487 L360 488 C369 488 373 479 368 472 L66 16 C61 9 65 0 74 0 L428 0 C433 0 437 3 438 8 C443 39 451 80 456 110 L456 110 Z " />
<glyph glyph-name="Zcaron" unicode="&#x17d;" horiz-adv-x="600" d="M455 927 C451 922 385 839 347 786 C343 780 334 779 330 785 C304 821 263 878 225 924 C224 926 221 927 220 926 C218 924 218 922 219 920 C235 894 321 731 321 731 C323 727 330 716 338 716 C345 716 352 727 355 732 C355 732 358 739 358 739 C403 830 459 923 459 923 C459 923 458 924 457 925 C456 926 456 928 455 927 L455 927 Z M550 115 C546 117 538 120 538 120 C538 120 537 119 536 116 L521 88 C499 47 454 17 413 17 L146 17 C137 17 132 25 137 33 L534 645 C539 653 534 661 525 661 L120 661 C118 661 115 659 115 658 L114 654 C107 629 97 592 90 566 C89 564 91 564 93 564 C95 564 98 566 100 567 L113 583 C143 620 191 646 228 646 L446 646 C455 646 460 638 455 630 L60 17 C55 9 60 1 69 1 L521 1 C526 1 530 4 531 9 C536 43 545 84 550 115 L550 115 Z " />
<glyph glyph-name="zcaron" unicode="&#x17e;" horiz-adv-x="499" d="M383 767 C379 762 313 679 275 626 C271 620 262 619 258 625 C232 661 191 718 153 764 C152 766 149 767 148 766 C146 764 146 762 147 760 C163 734 249 571 249 571 C251 567 258 556 266 556 C273 556 280 567 283 572 C283 572 286 579 286 579 C331 670 387 763 387 763 C387 763 386 764 385 765 C384 766 384 768 383 767 L383 767 Z M455 111 C451 113 443 116 443 116 C443 116 442 115 441 112 L426 84 C404 43 359 13 318 13 L145 13 C136 13 132 22 136 29 L438 485 C442 492 438 501 429 501 L73 501 C72 501 70 500 69 498 L68 495 C63 476 56 450 51 430 C50 428 52 426 54 426 C56 426 60 428 61 429 L67 435 C98 466 147 487 183 488 L359 489 C368 489 372 480 367 473 L65 17 C60 10 64 1 73 1 L427 1 C432 1 436 4 437 9 C442 40 450 81 455 111 L455 111 Z " />
<glyph glyph-name="oogonek" unicode="&#x1eb;" horiz-adv-x="710" d="M728 -49 C726 -48 724 -48 723 -49 C700 -75 643 -93 586 -93 C509 -93 440 -65 388 -23 C380 -17 384 -5 394 -4 C564 10 660 138 660 277 C660 424 552 558 361 558 C170 558 62 424 62 277 C62 133 165 1 348 -5 C349 -5 352 -9 353 -10 C425 -80 508 -129 581 -129 C629 -129 690 -98 727 -55 C728 -53 729 -50 728 -49 L728 -49 Z M122 276 C122 416 209 544 361 544 C513 544 600 416 600 276 C600 136 513 8 361 8 C209 8 122 136 122 276 L122 276 Z " />
<glyph glyph-name="Adotabove" unicode="&#x226;" horiz-adv-x="616" d="M332 763 C332 806 265 805 265 763 C265 720 332 720 332 763 L332 763 Z M434 -1 L603 -1 C606 -1 608 1 608 4 C608 7 606 9 604 9 C578 11 559 26 544 58 L309 667 C307 671 303 674 299 674 L298 674 C294 674 290 671 289 667 L72 56 C72 56 71 54 71 54 C58 27 36 14 9 10 C6 9 4 7 4 4 C4 1 6 -1 9 -1 L143 -1 C146 -1 148 1 148 4 C148 7 146 9 143 9 L137 10 C104 12 88 36 96 69 C96 69 96 69 96 69 L152 228 C153 232 157 235 161 235 L406 235 C410 235 414 232 415 228 L477 63 C488 34 474 12 445 10 L434 9 C431 9 429 7 429 4 C429 1 431 -1 434 -1 L434 -1 Z M392 250 L173 250 C166 250 161 257 164 264 L270 568 C273 578 285 578 289 568 L402 264 C405 257 400 250 392 250 L392 250 Z " />
<glyph glyph-name="G_sc" unicode="&#x262;" horiz-adv-x="739" d="M590 402 L590 493 C590 493 589 494 589 493 C589 495 587 498 585 499 C523 533 429 558 360 558 C187 558 62 440 62 277 C62 113 187 -5 360 -5 C432 -5 528 20 590 54 C593 56 595 60 595 63 L595 196 C595 225 613 247 639 249 L643 250 C645 250 647 252 647 254 L647 255 C647 258 645 260 642 260 L499 260 C496 260 494 258 494 255 L494 254 C494 252 496 250 498 250 L502 249 C528 247 546 225 546 196 L546 56 C546 52 545 49 542 47 C485 24 416 9 361 9 C223 9 123 122 123 277 C123 432 223 545 361 545 C385 545 412 542 440 536 C492 525 547 479 571 426 C574 419 578 410 581 402 C582 400 585 398 587 398 C588 398 590 400 590 402 L590 402 Z " />
<glyph glyph-name="I_sc" unicode="&#x26a;" horiz-adv-x="240" d="M197 11 L193 11 C167 13 149 35 149 64 L149 489 C149 518 167 540 193 542 L197 543 C199 543 201 545 201 547 L201 548 C201 551 199 553 196 553 L48 553 C45 553 43 551 43 548 L43 547 C43 545 45 543 47 543 L51 542 C77 540 95 518 95 489 L95 64 C95 35 77 13 51 11 L47 11 C45 10 43 8 43 6 L43 5 C43 2 45 0 48 0 L196 0 C199 0 201 2 201 5 L201 6 C201 8 199 10 197 11 L197 11 Z " />
<glyph glyph-name="N_sc" unicode="&#x274;" horiz-adv-x="602" d="M46 543 L50 542 C76 540 94 518 94 489 L94 64 C94 35 76 13 50 11 L46 11 C44 10 42 8 42 6 L42 5 C42 2 44 0 47 0 L158 0 C161 0 163 2 163 5 L163 6 C163 8 161 10 159 11 L155 11 C129 13 111 35 111 64 L111 475 C111 485 124 488 130 480 C253 317 374 152 498 -11 C499 -13 501 -11 503 -11 L506 -11 C510 -11 514 -7 514 -3 L514 489 C514 518 532 540 558 542 L562 543 C564 543 566 545 566 547 L566 548 C566 551 564 553 561 553 L451 553 C448 553 446 551 446 548 L446 547 C446 545 448 543 450 543 L454 542 C480 540 498 518 498 489 L498 108 C498 98 486 94 480 102 L146 549 C145 551 140 553 138 553 L47 553 C44 553 42 551 42 548 L42 547 C42 545 44 543 46 543 L46 543 Z " />
<glyph glyph-name="R_sc" unicode="&#x280;" horiz-adv-x="572" d="M55 543 L59 542 C85 540 103 518 103 489 L103 64 C103 35 85 13 59 11 L55 11 C53 10 51 8 51 6 L51 5 C51 2 53 0 56 0 L204 0 C207 0 209 2 209 5 L209 6 C209 8 207 10 205 11 L201 11 C175 13 157 35 157 64 L157 255 C157 260 162 265 167 265 L222 265 C223 265 229 262 230 261 C257 234 315 177 386 106 C485 8 497 0 551 0 L567 0 C570 0 572 2 572 6 C572 8 569 11 566 11 C543 12 536 20 460 96 C387 169 328 228 298 258 C293 263 294 270 301 271 C390 289 450 343 450 412 C450 494 370 553 259 553 L55 553 C52 553 50 551 51 548 L51 547 C51 545 53 543 55 543 L55 543 Z M238 278 L166 279 C161 279 156 284 156 289 L156 529 C156 534 161 539 166 539 L259 540 C337 540 393 486 393 412 C393 334 328 278 238 278 L238 278 Z " />
<glyph glyph-name="Y_sc" unicode="&#x28f;" horiz-adv-x="521" d="M177 553 L28 553 C25 553 23 551 23 548 C23 545 26 542 29 542 C51 537 71 522 89 493 L241 222 C241 222 242 218 242 217 L241 64 C240 35 222 12 196 10 L192 10 C190 9 188 7 188 5 L188 4 C188 1 190 -1 193 -1 L342 -1 C345 -1 347 1 347 4 L347 5 C347 7 345 9 343 10 L339 10 C313 12 295 34 295 63 L295 240 C295 241 296 245 296 245 L448 498 C467 525 490 537 515 541 C517 542 519 544 519 547 C519 550 517 552 514 552 L393 552 C390 552 388 550 388 547 C388 544 390 542 393 542 L399 541 C429 539 438 515 422 482 L291 262 C287 254 277 254 273 262 L149 495 C137 521 147 540 172 542 L176 543 C178 543 180 545 181 547 L181 548 C182 551 180 553 177 553 L177 553 Z " />
<glyph glyph-name="B_sc" unicode="&#x299;" horiz-adv-x="521" d="M248 301 L205 300 L167 299 C162 299 157 304 157 309 L157 529 C157 534 152 539 157 539 C161 539 231 540 260 540 C338 540 394 493 394 427 C394 358 334 301 248 301 L248 301 Z M55 543 L59 542 C85 540 103 518 103 489 L103 64 C103 35 85 13 59 11 L55 11 C53 10 51 8 51 6 L51 5 C51 2 53 0 56 0 L282 0 C409 0 501 64 501 152 C501 217 441 268 348 290 C341 291 341 306 348 309 C409 332 448 374 448 426 C448 499 369 552 260 552 L56 552 C53 552 51 550 51 548 L51 547 C51 545 53 543 55 543 L55 543 Z M167 289 L232 289 C355 289 444 231 444 151 C444 71 373 13 276 13 L167 13 C162 13 157 18 157 23 L157 279 C157 284 162 289 167 289 L167 289 Z " />
<glyph glyph-name="H_sc" unicode="&#x29c;" horiz-adv-x="674" d="M631 11 L627 11 C601 13 583 35 583 64 L583 489 C583 518 601 540 627 542 L631 543 C633 543 635 545 635 547 L635 548 C635 551 633 553 630 553 L481 553 C478 553 476 551 476 548 L476 547 C476 545 478 543 480 543 L484 542 C510 540 528 518 528 489 L528 310 C528 305 523 300 518 300 L157 300 C152 300 147 305 147 310 L147 489 C147 518 165 540 191 542 L195 543 C197 543 199 545 199 547 L199 548 C199 551 197 553 194 553 L46 553 C43 553 41 551 41 548 L41 547 C41 545 43 543 45 543 L49 542 C75 540 93 518 93 489 L93 64 C93 35 75 13 49 11 L45 11 C43 10 41 8 41 6 L41 5 C41 2 43 0 46 0 L194 0 C197 0 199 2 199 5 L199 6 C199 8 197 10 195 11 L191 11 C165 13 147 35 147 64 L147 276 C147 281 152 286 157 286 L518 286 C523 286 528 281 528 276 L528 64 C528 35 510 13 484 11 L480 11 C478 10 476 8 476 6 L476 5 C476 2 478 0 481 0 L630 0 C633 0 635 2 635 5 L635 6 C635 8 633 10 631 11 L631 11 Z " />
<glyph glyph-name="L_sc" unicode="&#x29f;" horiz-adv-x="496" d="M194 553 L46 553 C43 553 41 551 41 548 L41 547 C41 545 43 543 45 543 L49 542 C75 540 93 518 93 489 L93 64 C93 35 75 13 49 11 L45 11 C43 10 41 8 41 6 L41 5 C41 2 43 0 46 0 L402 0 C404 0 406 2 407 3 L408 7 C412 35 420 77 425 107 C426 111 423 113 420 115 C416 116 412 114 410 111 L396 85 C374 44 329 14 288 14 L157 14 C152 14 147 19 147 24 L147 489 C147 518 165 540 191 542 L195 543 C197 543 199 545 199 547 L199 548 C199 551 197 553 194 553 L194 553 Z " />
<glyph glyph-name="circumflex" unicode="&#x2c6;" horiz-adv-x="359" d="M196 730 C193 736 186 745 180 745 C172 745 165 734 163 730 C163 730 78 568 60 541 C59 540 60 537 61 536 C63 534 66 535 67 537 C105 583 146 640 172 676 C176 682 185 681 189 675 C229 620 297 534 297 534 C297 534 298 535 300 537 C301 538 303 538 302 539 C299 544 241 639 198 730 C197 730 196 730 196 730 L196 730 Z " />
<glyph glyph-name="caron" unicode="&#x2c7;" horiz-adv-x="359" d="M296 767 C292 762 226 679 188 626 C184 620 175 619 171 625 C145 661 104 718 66 764 C65 766 62 767 60 766 C59 764 58 761 59 760 C77 733 162 571 162 571 C164 567 171 556 179 556 C186 556 193 567 196 572 C196 572 199 579 199 579 C244 670 300 763 300 763 C300 763 299 764 298 765 C297 766 297 768 296 767 L296 767 Z " />
<glyph glyph-name="firsttonechinese" unicode="&#x2c9;" horiz-adv-x="359" d="M32 609 L328 609 C333 609 338 614 338 619 L338 630 C338 635 333 640 328 640 L32 640 C27 640 22 635 22 630 L22 619 C22 614 27 609 32 609 L32 609 Z " />
<glyph glyph-name="breve" unicode="&#x2d8;" horiz-adv-x="359" d="M56 707 C70 649 121 606 180 606 C239 606 289 648 303 706 C304 709 302 711 300 712 C297 713 295 712 294 710 C285 671 238 642 180 642 C124 642 78 669 66 707 C66 709 62 713 60 713 C57 712 55 710 56 707 L56 707 Z " />
<glyph glyph-name="dotaccent" unicode="&#x2d9;" horiz-adv-x="359" d="M213 603 C213 646 147 646 147 603 C147 560 213 560 213 603 L213 603 Z " />
<glyph glyph-name="ring" unicode="&#x2da;" horiz-adv-x="359" d="M101 628 C101 674 134 708 180 708 C226 708 259 674 259 628 C259 586 221 547 180 547 C139 547 101 586 101 628 L101 628 Z M86 628 C86 579 131 535 180 535 C229 535 274 579 274 628 C274 681 235 720 180 720 C125 720 86 681 86 628 L86 628 Z " />
<glyph glyph-name="A_sc" unicode="&#x1d00;" horiz-adv-x="544" d="M10 0 L141 0 C144 0 146 2 146 5 C146 8 144 10 141 10 L135 11 C100 13 84 40 97 76 L138 191 C139 195 143 198 147 198 L353 198 C357 198 361 195 363 191 L411 64 C421 36 409 13 379 11 L368 10 C365 10 363 8 363 5 C363 2 365 0 368 0 L530 0 C533 0 535 2 535 5 L535 7 C535 8 533 10 532 10 L528 10 C507 9 482 33 469 64 L273 560 C271 563 267 566 263 566 L263 566 C259 566 255 563 254 559 L75 64 C65 35 38 13 12 11 L8 11 C6 10 4 8 4 6 L5 5 C5 2 7 0 10 0 L10 0 Z M339 211 L158 212 C151 212 146 219 149 226 L236 470 C239 479 251 479 255 470 L349 225 C351 218 347 211 339 211 L339 211 Z " />
<glyph glyph-name="C_sc" unicode="&#x1d04;" horiz-adv-x="670" d="M599 151 C596 143 592 134 589 127 C564 73 503 27 439 15 C415 11 392 9 371 9 C227 9 122 122 122 277 C122 432 227 545 371 545 C398 545 428 541 459 535 C511 524 565 479 589 426 C592 419 596 410 599 402 C600 400 603 398 605 398 L606 398 C608 398 610 400 610 403 L610 493 C610 493 609 494 609 493 C609 495 607 498 605 499 C543 533 445 558 371 558 C192 558 62 440 62 277 C62 113 192 -5 371 -5 C445 -5 543 20 605 54 C608 56 610 60 610 63 L610 151 C610 153 608 155 606 155 L605 155 C603 155 600 153 599 151 L599 151 Z " />
<glyph glyph-name="D_sc" unicode="&#x1d05;" horiz-adv-x="618" d="M55 543 L59 542 C85 540 103 518 103 489 L103 64 C103 35 85 13 59 11 L55 11 C53 10 51 8 51 6 L51 5 C51 2 53 0 56 0 L281 0 C447 0 568 116 568 277 C568 437 434 553 250 553 L56 553 C53 553 51 551 51 548 L51 547 C51 545 53 543 55 543 L55 543 Z M157 24 L157 529 C157 534 162 539 168 539 C194 539 226 540 250 540 C403 540 514 430 514 277 C514 124 416 14 281 14 L167 14 C162 14 157 19 157 24 L157 24 Z " />
<glyph glyph-name="E_sc" unicode="&#x1d07;" horiz-adv-x="496" d="M340 234 L340 350 C340 352 338 354 336 354 C334 354 331 352 330 350 L328 346 C317 320 280 302 242 302 L157 302 C152 302 147 307 147 312 L147 529 C147 534 152 539 157 539 L283 539 C283 539 286 539 286 539 C328 533 369 502 388 461 L394 449 C394 448 397 446 399 446 C400 446 402 448 402 450 L402 542 C402 547 397 552 392 552 L46 552 C43 552 41 550 41 547 L41 546 C41 544 43 542 45 542 L49 541 C75 539 93 517 93 488 L93 63 C93 34 75 12 49 10 L45 10 C43 9 41 7 41 5 L41 4 C41 1 43 -1 46 -1 L402 -1 C404 -1 406 1 407 2 L408 6 C412 34 420 75 425 104 C425 106 423 106 422 106 C420 106 417 104 416 103 L408 91 C380 46 326 13 280 13 L157 13 C152 13 147 18 147 23 L147 277 C147 282 152 287 157 287 L242 287 C280 287 316 266 328 237 L330 233 C331 231 334 229 336 230 C338 230 340 232 340 234 L340 234 Z " />
<glyph glyph-name="J_sc" unicode="&#x1d0a;" horiz-adv-x="296" d="M252 553 L104 553 C101 553 99 551 99 548 L99 547 C99 545 101 543 103 543 L107 542 C133 540 151 518 151 489 L151 168 C151 52 133 1 91 1 C72 1 53 22 46 50 C43 63 33 72 22 72 C6 72 -3 63 0 50 C9 15 41 -10 78 -10 C166 -10 205 58 205 213 L205 489 C205 518 223 540 249 542 L253 543 C255 543 257 545 257 547 L257 548 C257 551 255 553 252 553 L252 553 Z " />
<glyph glyph-name="K_sc" unicode="&#x1d0b;" horiz-adv-x="569" d="M204 553 L56 553 C53 553 51 551 51 548 L51 547 C51 545 53 543 55 543 L59 542 C85 540 103 518 103 489 L103 64 C103 35 85 13 59 11 L55 11 C53 10 51 8 51 6 L51 5 C51 2 53 0 56 0 L204 0 C207 0 209 2 209 5 L209 6 C209 8 207 10 205 11 L201 11 C175 13 157 35 157 64 L157 291 C157 294 160 295 162 293 L167 288 C185 269 226 227 277 174 C397 49 476 -5 539 -5 L555 -5 C558 -5 560 -3 560 1 C560 3 557 6 554 6 C516 12 449 72 317 210 C272 256 235 294 215 315 C211 319 211 326 215 330 L399 497 C432 524 463 537 494 541 C497 542 499 544 499 547 C499 550 497 552 494 552 L394 552 C391 552 389 550 389 547 L389 545 C389 543 390 542 392 542 L395 541 C412 539 402 517 370 488 L174 312 C167 306 157 311 157 320 L157 488 C157 517 175 539 201 541 L205 542 C207 542 209 544 209 546 L209 548 C209 551 207 553 204 553 L204 553 Z " />
<glyph glyph-name="M_sc" unicode="&#x1d0d;" horiz-adv-x="724" d="M681 554 L612 554 L594 553 C590 553 586 550 584 547 L356 1 C354 -2 356 -5 360 -5 L360 -5 C364 -5 368 -2 370 1 L571 472 C575 481 590 479 591 468 L608 64 C609 35 592 12 567 10 L563 10 C561 9 559 7 559 5 L559 4 C559 1 561 -1 564 -1 L712 -1 C715 -1 717 1 717 4 L717 5 C717 7 715 9 713 10 L709 10 C684 12 666 35 663 63 L641 488 C639 518 656 540 680 542 L684 543 C686 543 688 545 688 547 L688 549 C687 552 685 554 681 554 L681 554 Z M44 -1 L176 -1 C179 -1 181 1 181 4 C181 7 179 9 176 9 L168 10 C135 12 110 35 108 67 C108 67 108 68 108 68 L125 445 C126 456 140 460 144 450 C211 307 277 164 343 20 C347 11 359 9 363 17 L378 55 C379 57 378 62 378 63 L159 547 C157 550 153 553 149 553 L67 553 C64 553 62 551 62 548 L62 547 C62 545 64 543 66 543 L70 542 C95 540 112 518 111 489 L92 60 C89 33 70 13 46 11 L42 11 C40 10 38 8 38 6 L38 5 C38 1 40 -1 44 -1 L44 -1 Z " />
<glyph glyph-name="O_sc" unicode="&#x1d0f;" horiz-adv-x="710" d="M122 277 C122 417 209 545 361 545 C513 545 600 417 600 277 C600 137 513 9 361 9 C209 9 122 137 122 277 L122 277 Z M62 277 C62 130 170 -5 361 -5 C552 -5 660 130 660 277 C660 424 552 558 361 558 C170 558 62 424 62 277 L62 277 Z " />
<glyph glyph-name="P_sc" unicode="&#x1d18;" horiz-adv-x="497" d="M205 11 L201 11 C175 13 157 35 157 64 L157 240 C157 245 162 250 167 250 L248 250 C381 250 477 313 477 400 C477 489 390 553 271 553 L56 553 C53 553 51 551 51 548 L51 547 C51 545 53 543 55 543 L59 542 C85 540 103 518 103 489 L103 64 C103 35 85 13 59 11 L55 11 C53 10 51 8 51 6 L51 5 C51 2 53 0 56 0 L204 0 C207 0 209 2 209 5 L209 6 C209 8 207 10 205 11 L205 11 Z M157 274 L157 529 C157 534 162 539 168 539 C200 539 241 540 271 540 C357 540 420 481 420 400 C420 321 348 263 248 263 C248 263 198 264 168 264 C163 264 157 269 157 274 L157 274 Z " />
<glyph glyph-name="T_sc" unicode="&#x1d1b;" horiz-adv-x="571" d="M28 441 L47 477 C67 514 107 540 144 540 L248 540 C253 540 258 535 258 530 L258 64 C258 35 240 13 214 11 L210 11 C208 10 206 8 206 6 L206 5 C206 2 208 0 211 0 L360 0 C363 0 365 2 365 5 L365 6 C365 8 363 10 361 11 L357 11 C331 13 313 35 313 64 L313 530 C313 535 318 540 323 540 L428 540 C466 540 506 514 525 477 L544 441 C545 439 548 437 550 437 C552 437 554 440 554 442 C551 474 547 516 545 546 L544 550 C544 551 542 553 540 553 L31 553 C29 553 28 552 28 550 L27 547 C26 547 19 460 17 440 C17 438 19 437 21 437 L22 437 C24 437 27 439 28 441 L28 441 Z " />
<glyph glyph-name="U_sc" unicode="&#x1d1c;" horiz-adv-x="588" d="M563 553 L437 553 C434 553 432 551 432 548 L432 548 C432 545 434 543 437 543 L441 542 C472 540 494 515 494 481 L494 153 C494 72 439 14 314 14 C198 14 147 76 147 162 L147 489 C147 518 165 540 191 542 L195 543 C197 543 199 545 199 547 L199 548 C199 551 197 553 194 553 L46 553 C43 553 41 551 41 548 L41 547 C41 545 43 543 45 543 L49 542 C75 540 93 518 93 489 L93 173 C93 70 158 -5 306 -5 C448 -5 510 59 510 148 L510 481 C510 515 531 540 560 542 L564 543 C566 543 568 545 568 547 L568 548 C568 551 566 553 563 553 L563 553 Z " />
<glyph glyph-name="V_sc" unicode="&#x1d20;" horiz-adv-x="544" d="M175 553 L19 553 C16 553 14 551 14 548 C14 545 17 542 20 542 C42 537 62 523 76 494 L287 -8 C289 -11 293 -14 297 -14 L297 -14 C301 -14 305 -11 306 -7 L476 496 C476 497 477 499 477 499 C490 526 511 539 538 543 C541 544 543 546 543 549 C543 552 541 554 538 554 L402 554 C399 554 397 552 397 549 C397 546 399 544 402 544 L408 543 C445 541 462 512 452 472 L322 79 C319 70 306 70 303 79 L137 489 C125 518 137 540 166 542 L174 543 C177 543 179 545 180 548 C180 551 178 553 175 553 L175 553 Z " />
<glyph glyph-name="W_sc" unicode="&#x1d21;" horiz-adv-x="787" d="M778 553 L651 553 C648 553 646 551 646 548 C646 545 648 543 651 543 L663 542 C692 541 708 518 699 489 L583 95 C580 85 567 85 564 94 L413 557 C412 560 408 563 405 563 C401 563 397 560 396 557 L234 -8 C233 -12 235 -15 239 -15 C243 -15 247 -12 248 -8 L378 448 C381 458 394 458 397 448 L549 -8 C550 -12 554 -15 558 -15 C562 -15 566 -12 567 -8 L715 489 C724 518 749 540 775 542 L779 543 C781 543 783 545 783 547 L783 548 C783 551 781 553 778 553 L778 553 Z M156 553 L6 553 C3 553 1 551 1 548 C1 545 3 543 5 542 C29 537 47 523 59 494 L221 15 C225 5 238 6 241 16 L252 55 C252 56 252 60 252 61 L119 488 C110 517 124 539 152 541 L157 542 C159 542 161 544 161 547 L161 548 C161 551 159 553 156 553 L156 553 Z " />
<glyph glyph-name="Z_sc" unicode="&#x1d22;" horiz-adv-x="535" d="M468 7 C472 35 480 77 485 107 C486 111 483 113 480 115 C476 116 472 114 470 111 L456 85 C434 44 389 14 348 14 L141 14 C132 14 128 23 133 30 L469 537 C474 544 470 553 461 553 L123 553 C122 553 120 552 119 550 L118 547 L95 462 C94 460 96 458 98 458 C100 458 103 460 105 461 L118 477 C148 514 196 540 233 540 L391 540 C400 540 404 531 399 524 L64 16 C59 9 63 0 72 0 L462 0 C464 0 466 2 467 3 L467 7 L468 7 Z " />
<glyph glyph-name="Wgrave" unicode="&#x1e80;" horiz-adv-x="923" d="M162 660 L6 660 C3 660 1 658 1 655 C1 652 3 650 5 649 C28 644 46 631 58 603 L265 -8 C266 -12 271 -15 274 -15 L275 -15 C279 -15 284 -12 285 -8 L444 539 C447 549 460 549 463 539 L650 -8 C651 -12 656 -15 659 -15 L660 -15 C663 -15 668 -12 669 -8 L851 596 C860 625 885 647 911 649 L915 650 C917 650 919 652 919 654 L919 655 C919 658 917 660 914 660 L785 660 C782 660 780 658 780 655 C780 652 782 650 785 650 L797 649 C827 648 842 625 833 596 L689 110 C686 100 673 100 670 110 L484 663 C483 667 478 670 475 670 L475 670 C471 670 466 667 465 663 L302 106 C299 96 286 96 283 106 L126 596 C118 624 130 647 159 649 L164 650 C166 650 168 652 168 655 L168 655 C167 658 165 660 162 660 L162 660 Z M393 874 C393 870 411 848 436 820 C467 781 549 691 549 691 C549 691 550 692 552 694 C554 695 556 694 555 696 C552 701 493 803 463 841 C463 841 461 844 461 844 C442 874 427 896 424 896 C415 896 393 880 393 874 L393 874 Z " />
<glyph glyph-name="Wacute" unicode="&#x1e82;" horiz-adv-x="923" d="M412 691 C416 695 493 782 522 820 C546 849 564 871 564 874 C564 880 542 896 533 896 C531 896 515 873 495 841 C495 841 493 838 493 838 C462 797 406 696 406 696 C406 696 407 695 409 694 C411 692 411 690 412 691 L412 691 Z M162 660 L6 660 C3 660 1 658 1 655 C1 652 3 650 5 649 C28 644 46 631 58 603 L265 -8 C266 -12 271 -15 274 -15 L275 -15 C279 -15 284 -12 285 -8 L444 539 C447 549 460 549 463 539 L650 -8 C651 -12 656 -15 659 -15 L660 -15 C663 -15 668 -12 669 -8 L851 596 C860 625 885 647 911 649 L915 650 C917 650 919 652 919 654 L919 655 C919 658 917 660 914 660 L785 660 C782 660 780 658 780 655 C780 652 782 650 785 650 L797 649 C827 648 842 625 833 596 L689 110 C686 100 673 100 670 110 L484 663 C483 667 478 670 475 670 L475 670 C471 670 466 667 465 663 L302 106 C299 96 286 96 283 106 L126 596 C118 624 130 647 159 649 L164 650 C166 650 168 652 168 655 L168 655 C167 658 165 660 162 660 L162 660 Z " />
<glyph glyph-name="Wdieresis" unicode="&#x1e84;" horiz-adv-x="923" d="M598 763 C598 806 532 806 532 763 C532 720 598 720 598 763 L598 763 Z M417 763 C417 806 351 806 351 763 C351 720 417 720 417 763 L417 763 Z M162 660 L6 660 C3 660 1 658 1 655 C1 652 3 650 5 649 C28 644 46 631 58 603 L265 -8 C266 -12 271 -15 274 -15 L275 -15 C279 -15 284 -12 285 -8 L444 539 C447 549 460 549 463 539 L650 -8 C651 -12 656 -15 659 -15 L660 -15 C663 -15 668 -12 669 -8 L851 596 C860 625 885 647 911 649 L915 650 C917 650 919 652 919 654 L919 655 C919 658 917 660 914 660 L785 660 C782 660 780 658 780 655 C780 652 782 650 785 650 L797 649 C827 648 842 625 833 596 L689 110 C686 100 673 100 670 110 L484 663 C483 667 478 670 475 670 L475 670 C471 670 466 667 465 663 L302 106 C299 96 286 96 283 106 L126 596 C118 624 130 647 159 649 L164 650 C166 650 168 652 168 655 L168 655 C167 658 165 660 162 660 L162 660 Z " />
<glyph glyph-name="Etilde" unicode="&#x1ebc;" horiz-adv-x="550" d="M118 761 C120 796 140 821 167 821 C223 821 304 758 360 758 C401 758 430 797 432 851 C432 853 430 855 428 855 C425 855 423 852 423 850 C421 818 401 795 372 795 C316 795 234 857 178 857 C139 857 110 816 109 759 C109 757 111 755 114 755 C116 755 118 758 118 761 L118 761 Z M394 290 L394 408 C394 410 392 412 390 412 C388 412 385 410 384 408 L382 404 C371 378 334 360 296 360 L162 360 C157 360 152 365 152 370 L152 635 C152 640 157 645 162 645 L328 645 C374 645 422 612 442 567 L448 555 C448 554 451 552 453 552 C454 552 456 554 456 556 L456 650 C456 655 451 660 446 660 L45 660 C42 660 40 658 40 655 L40 654 C40 652 42 650 44 650 L48 649 C74 647 92 625 92 596 L92 64 C92 35 74 13 48 11 L44 11 C42 10 40 8 40 6 L40 5 C40 2 42 0 45 0 L457 0 C459 0 461 2 462 3 L463 7 C467 35 476 77 481 106 C481 108 479 108 478 108 C476 108 473 106 472 105 L464 93 C436 48 382 15 336 15 L162 15 C157 15 152 20 152 25 L152 334 C152 339 157 344 162 344 L296 344 C334 344 370 323 382 294 L384 290 C385 288 388 286 390 286 C392 286 394 288 394 290 L394 290 Z " />
<glyph glyph-name="Ygrave" unicode="&#x1ef2;" horiz-adv-x="591" d="M183 660 L26 660 C23 660 21 658 21 655 C21 653 24 649 27 649 C50 643 71 627 88 596 L272 263 C272 263 273 259 273 258 L272 64 C272 35 254 13 228 11 L224 11 C222 10 220 8 220 6 L220 5 C220 2 222 0 225 0 L380 0 C383 0 385 2 385 5 L385 6 C385 8 383 10 381 11 L377 11 C351 13 333 35 333 64 L333 285 C333 286 334 290 334 290 L519 604 C538 633 561 646 587 650 C589 651 591 653 591 656 C591 659 589 661 586 661 L463 661 C460 661 458 659 458 656 C458 653 460 651 463 651 L469 650 C502 648 510 619 488 581 L332 313 C328 305 318 305 314 313 L160 597 C145 626 152 648 179 650 L183 651 C185 651 187 653 187 655 L187 656 C187 658 185 660 183 660 L183 660 Z M221 875 C221 870 239 848 263 821 C294 782 376 692 376 692 C376 692 377 693 380 695 C381 696 384 695 383 697 C380 702 321 804 291 842 C291 842 289 845 289 845 C270 875 255 897 252 897 C243 897 221 881 221 875 L221 875 Z " />
<glyph glyph-name="quoteleft" unicode="&#x2018;" horiz-adv-x="195" d="M70 502 C77 495 87 491 99 491 C122 491 138 507 138 530 C138 553 121 571 98 569 C92 569 86 573 86 579 C85 612 103 643 124 656 C126 657 127 660 126 662 C125 664 123 666 121 664 C82 644 54 597 54 552 C54 533 61 512 71 502 L70 502 Z " />
<glyph glyph-name="quoteright" unicode="&#x2019;" horiz-adv-x="195" d="M128 654 C121 661 111 665 99 665 C76 665 60 649 60 626 C60 603 77 585 100 587 C106 587 112 583 112 577 C113 544 95 513 74 500 C72 499 71 496 72 494 C73 492 75 490 77 492 C116 512 144 559 144 604 C144 623 138 645 128 655 L128 654 Z " />
<glyph glyph-name="quotedblleft" unicode="&#x201c;" horiz-adv-x="310" d="M185 502 C192 495 202 491 214 491 C237 491 253 507 253 530 C253 553 236 571 213 569 C207 569 201 573 201 579 C200 612 218 643 239 656 C241 657 242 660 241 662 C240 664 238 666 236 664 C197 644 169 597 169 552 C169 533 176 512 186 502 L185 502 Z M71 501 C78 494 88 490 100 490 C123 490 139 506 139 529 C139 552 122 570 99 568 C93 568 87 572 87 578 C86 611 104 642 125 655 C127 656 128 659 127 661 C126 663 124 665 122 663 C83 643 55 596 55 551 C55 532 62 511 72 501 L71 501 Z " />
<glyph glyph-name="quotedblright" unicode="&#x201d;" horiz-adv-x="310" d="M243 654 C236 661 226 665 214 665 C191 665 175 649 175 626 C175 603 192 585 215 587 C221 587 227 583 227 577 C228 544 210 513 189 500 C187 499 186 496 187 494 C188 492 190 490 192 492 C231 512 259 559 259 604 C259 623 253 645 243 655 L243 654 Z M127 655 C120 662 110 666 98 666 C75 666 59 650 59 627 C59 604 76 586 99 588 C105 588 111 584 111 578 C112 545 94 514 73 501 C71 500 70 497 71 495 C72 493 74 491 76 493 C115 513 143 560 143 605 C143 624 137 646 127 656 L127 655 Z " />
<glyph glyph-name="ellipsis" unicode="&#x2026;" horiz-adv-x="462" d="M424 39 C424 90 346 90 346 39 C346 -12 424 -12 424 39 L424 39 Z M270 39 C270 90 192 90 192 39 C192 -12 270 -12 270 39 L270 39 Z M116 39 C116 90 38 90 38 39 C38 -12 116 -12 116 39 L116 39 Z " />
<glyph glyph-name="guilsinglleft" unicode="&#x2039;" horiz-adv-x="309" d="M85 258 L260 456 C261 458 261 460 260 462 C258 463 256 463 254 462 L22 255 C21 254 20 251 20 250 C20 249 21 246 22 245 L255 40 C257 38 259 38 261 40 C263 42 263 44 261 46 L85 244 C82 248 82 254 85 258 L85 258 Z " />
<glyph glyph-name="guilsinglright" unicode="&#x203a;" horiz-adv-x="309" d="M54 40 L287 245 C288 246 289 249 289 250 C289 251 288 254 287 255 L55 462 C53 463 51 463 50 462 C48 460 48 458 49 456 L224 258 C227 254 227 248 224 244 L48 46 C46 44 46 42 48 40 C50 38 52 38 54 40 L54 40 Z " />
<glyph glyph-name="Euro" unicode="&#x20ac;" horiz-adv-x="773" d="M713 510 L713 597 C713 600 711 604 708 606 C645 640 536 665 445 665 C272 665 141 559 108 406 C107 402 102 394 97 394 L65 394 C60 394 55 390 55 385 L52 367 C52 360 56 355 63 355 L94 355 C98 355 102 352 102 348 C101 336 101 325 102 313 C102 309 98 306 94 306 L60 306 C55 306 50 302 50 297 L47 279 C47 272 51 267 58 267 L97 267 C102 267 107 259 108 255 C141 102 272 -4 445 -4 C536 -4 645 21 708 55 C710 56 712 60 711 62 L711 62 C711 62 710 62 711 62 C711 61 712 61 712 62 L712 153 C712 155 710 157 708 157 L707 157 C705 157 702 155 701 153 C698 146 694 137 691 130 C666 75 600 28 533 18 C503 14 473 12 444 12 C305 12 198 111 171 257 C170 263 174 268 181 268 L482 268 C487 268 492 272 492 277 L495 295 C496 302 492 307 485 307 L173 307 C169 307 165 309 165 314 C164 326 164 337 165 349 C165 354 169 356 173 356 L488 356 C493 356 498 360 498 365 L501 383 C501 390 497 395 490 395 L181 395 C174 395 170 400 171 406 C198 552 305 651 444 651 C486 651 532 646 575 637 C575 637 578 636 578 636 C623 621 669 580 690 533 C693 526 697 517 700 510 C701 508 704 506 706 505 L708 505 C710 504 713 507 713 510 L713 510 Z " />
<glyph glyph-name="F_sc" unicode="&#xa730;" horiz-adv-x="435" d="M45 543 L49 542 C75 540 93 518 93 489 L93 64 C93 35 75 13 49 11 L45 11 C43 10 41 8 41 6 L41 5 C41 2 43 0 46 0 L204 0 C207 0 209 2 209 5 C209 8 207 10 204 10 L198 11 C168 13 147 35 147 64 L147 274 C147 279 152 284 157 284 L232 284 C270 284 306 263 318 234 L320 230 C321 228 324 226 326 226 C328 226 330 228 330 230 L330 346 C330 348 328 350 326 350 C324 350 321 348 320 346 L318 342 C307 316 270 298 232 298 L157 298 C152 298 147 303 147 308 L147 529 C147 534 152 539 157 539 L313 539 C313 539 316 539 316 539 C358 533 399 502 418 461 L424 449 C424 448 427 446 429 446 C430 446 432 448 432 450 L432 542 C432 547 427 552 422 552 L46 552 C43 552 41 550 41 548 L41 547 C41 545 43 543 45 543 L45 543 Z " />
<glyph glyph-name="S_sc" unicode="&#xa731;" horiz-adv-x="456" d="M376 410 L376 503 C376 504 374 504 374 503 L372 499 C372 501 375 504 376 507 C325 537 258 558 218 558 C122 558 52 492 52 402 C52 343 117 282 206 257 C302 230 372 172 372 120 C372 56 317 9 241 9 C239 9 196 12 196 13 C144 21 89 66 64 121 C61 128 57 137 54 144 C53 146 50 148 48 148 L48 148 C45 148 43 146 43 144 L43 52 C43 49 44 45 47 44 C98 15 179 -5 241 -5 C340 -5 411 57 411 142 C411 205 342 270 246 297 C155 323 89 376 89 424 C89 494 142 545 216 545 C216 545 216 545 216 545 C219 545 264 540 263 536 C293 527 325 499 338 469 C345 451 357 427 365 409 C366 407 369 405 372 405 C374 405 376 407 376 410 L376 410 Z " />
<glyph glyph-name="X_sc" unicode="&#xf078;" horiz-adv-x="574" d="M59 0 L187 0 C190 0 192 2 192 5 C192 8 190 10 187 10 L182 11 C151 13 142 37 160 69 L272 245 C276 252 284 252 289 245 L415 64 C434 36 430 13 400 11 L396 11 C393 10 391 8 391 5 L391 5 C391 2 393 0 396 0 L548 0 C551 0 553 2 553 5 C553 8 550 11 547 11 C525 16 504 29 483 55 L311 301 C309 304 309 310 311 313 L449 499 C449 499 451 501 451 501 C474 526 500 538 528 542 C531 543 533 545 533 548 C533 551 531 553 528 553 L399 553 C396 553 394 551 394 548 C394 545 396 543 399 543 L409 542 C438 540 445 519 426 491 L308 328 C304 322 296 322 292 328 L180 488 C161 516 165 539 195 541 L200 542 C202 542 204 544 204 547 L204 547 C204 550 202 552 199 552 L47 552 C44 552 42 550 42 547 C42 544 45 541 48 541 C70 536 91 523 112 497 L268 274 C270 271 270 265 268 262 L134 55 C134 55 132 53 132 53 C111 27 86 14 58 10 C55 9 53 7 54 5 C54 2 56 0 59 0 L59 0 Z " />
</font>
</svg>
