<?xml version="1.0" encoding="UTF-8"?>
<svg xmlns="http://www.w3.org/2000/svg" xmlns:xlink="http://www.w3.org/1999/xlink" version="1.2" >
<font id="CASSIUS">
<font-face  font-family="CASSIUS" units-per-em="1000" ascent="750" descent="-250" font-style="normal" font-weight="400" font-stretch="normal" cap-height="700" x-height="500" underline-position="-75" underline-thickness="50" />
<missing-glyph  horiz-adv-x="199" d="" />
<glyph glyph-name="NULL" d="" />
<glyph glyph-name="nonmarkingreturn" unicode="&#xd;" horiz-adv-x="199" d="" />
<glyph glyph-name="space" unicode="&#x20;" horiz-adv-x="199" d="" />
<glyph glyph-name="percent" unicode="&#x25;" horiz-adv-x="398" d="M162 454 Q162 412 146 391.5 Q130 371 90 371 Q49 371 33 391.5 Q17 412 17 454 L17 557 Q17 599 33 620.5 Q49 642 90 642 Q130 642 146 620.5 Q162 599 162 557 L162 454 Z M359 639 L106 -70 L38 -70 L291 639 L359 639 Z M66 460 Q66 422 90 422 Q113 422 113 460 L113 551 Q113 590 90 590 Q66 590 66 551 L66 460 Z M376 10 Q376 -33 360.5 -54 Q345 -75 305 -75 Q264 -75 248 -54 Q232 -33 232 10 L232 112 Q232 155 248 176 Q264 197 305 197 Q345 197 360.5 176 Q376 155 376 112 L376 10 Z M282 15 Q282 -23 305 -23 Q327 -24 327 15 L327 106 Q327 145 305 145 Q282 145 282 106 L282 15 Z " />
<glyph glyph-name="ampersand" unicode="&#x26;" horiz-adv-x="439" d="M320 264 L320 75 Q320 54 325.5 41.5 Q331 29 340.5 22 Q350 15 362.5 13 Q375 11 389 11 L389 -76 Q361 -81 329.5 -79 Q298 -77 272 -63 Q238 -80 181 -80 Q136 -80 108 -70.5 Q80 -61 65 -41 Q51 -21 46 3 Q41 27 41 62 L41 194 Q41 264 106 297 Q41 328 41 401 L41 508 Q41 543 46 565.5 Q51 588 65 608 Q80 628 108 636.5 Q136 645 181 645 Q271 645 297 608 Q311 588 315.5 566 Q320 544 320 508 L320 494 L220 494 L220 503 Q220 547 211 562 Q202 577 181 577 Q159 577 150 562 Q141 547 141 503 L141 410 Q141 363 150 347 Q159 332 181 332 Q183 332 183.5 331.5 Q184 331 186 331 L220 331 L220 382 L320 382 L320 331 L389 331 L389 264 L320 264 Z M220 264 L181 264 Q159 264 150 248 Q141 233 141 182 L141 61 Q141 18 150 3 Q159 -12 181 -12 Q202 -12 211 3 Q220 18 220 61 L220 182 L220 202 L220 264 Z " />
<glyph glyph-name="dollar" unicode="&#x24;" horiz-adv-x="372" d="M332 387 L233 387 L233 465 Q233 499 220.5 512.5 Q208 526 182 526 Q159 526 146.5 512 Q134 498 134 463 L134 393 Q134 373 141 359 Q148 345 159 337 Q170 329 178.5 326 Q187 323 195 321 Q208 320 222 316.5 Q236 313 257 302 Q268 297 277 291 Q286 285 294 278 Q309 264 320.5 238.5 Q332 213 332 182 L332 108 Q332 -12 215 -22 L215 -70 L152 -70 L152 -22 Q92 -15 63.5 15.5 Q35 46 35 108 L35 184 L134 184 L134 106 Q134 72 147 58.5 Q160 45 185 45 Q208 45 220.5 59 Q233 73 233 108 L233 181 Q233 201 226 216 Q219 231 208 239 Q189 252 172 254 Q159 256 144.5 259.5 Q130 263 110 273 Q90 282 73 297 Q57 311 46 336 Q35 361 35 393 L35 463 Q35 524 63.5 555 Q92 586 152 593 L152 640 L215 640 L215 592 Q332 582 332 463 L332 387 Z " />
<glyph glyph-name="parenleft" unicode="&#x28;" horiz-adv-x="251" d="M208 700 Q141 520 141 278 Q141 41 208 -139 L125 -174 Q50 10 50 278 Q50 560 125 739 L208 700 Z " />
<glyph glyph-name="quotesingle" unicode="&#x27;" horiz-adv-x="153" d="M42 640 L119 640 L77 442 L52 463 L42 640 L42 640 Z " />
<glyph glyph-name="parenright" unicode="&#x29;" horiz-adv-x="251" d="M126 738 Q163 648 182 533.5 Q201 419 201 277 Q201 142 182 30 Q163 -82 126 -175 L43 -140 Q110 40 110 277 Q110 519 43 699 L126 738 Z " />
<glyph glyph-name="asterisk" unicode="&#x2a;" horiz-adv-x="254" d="M212 565 L159 548 L193 501 L163 480 L126 529 L89 480 L60 501 L93 548 L41 565 L52 600 L107 582 L107 640 L144 640 L144 582 L200 600 L212 565 L212 565 Z " />
<glyph glyph-name="plus" unicode="&#x2b;" horiz-adv-x="309" d="M259 232 L187 232 L187 133 L121 133 L121 232 L50 232 L50 300 L121 300 L121 400 L187 400 L187 300 L259 300 L259 232 L259 232 Z " />
<glyph glyph-name="comma" unicode="&#x2c;" horiz-adv-x="233" d="M35 -141 L71 0 L167 0 L89 -141 L35 -141 L35 -141 Z " />
<glyph glyph-name="hyphen" unicode="&#x2d;" horiz-adv-x="298" d="M50 233 L50 300 L248 300 L248 233 L50 233 L50 233 Z " />
<glyph glyph-name="period" unicode="&#x2e;" horiz-adv-x="177" d="M38 -70 L38 23 L140 23 L140 -70 L38 -70 L38 -70 Z " />
<glyph glyph-name="slash" unicode="&#x2f;" horiz-adv-x="393" d="M367 639 L115 -70 L24 -70 L277 639 L367 639 L367 639 Z " />
<glyph glyph-name="zero" unicode="0" horiz-adv-x="380" d="M299 611 Q330 579 330 503 L330 63 Q330 -12 299 -46 Q267 -79 190 -79 Q113 -79 82 -46 Q50 -11 50 63 L50 503 Q50 577 82 611 Q113 645 190 645 Q268 645 299 611 Z M230 474 Q230 507 228 528 Q226 549 223 559 Q216 578 190 578 Q167 578 159 558 Q151 539 151 474 L151 92 Q151 27 159 8 Q167 -12 190 -12 Q213 -12 223 7 Q226 17 228 38 Q230 59 230 92 L230 474 Z " />
<glyph glyph-name="one" unicode="1" horiz-adv-x="290" d="M200 -3 L269 -3 L269 -70 L25 -70 L25 -3 L100 -3 L100 543 L22 503 L22 582 L122 640 L200 640 L200 -3 L200 -3 Z " />
<glyph glyph-name="two" unicode="2" horiz-adv-x="330" d="M306 493 Q306 466 301.5 436.5 Q297 407 289 372 Q281 337 271 304.5 Q261 272 249 241 Q238 209 226 180 Q214 151 202 124 Q190 97 180 74.5 Q170 52 161 35 Q144 -1 144 -3 L301 -3 L301 -70 L26 -70 L26 -3 Q26 0 44 35 Q54 52 65 74.5 Q76 97 90 124 Q103 151 116 180 Q129 209 142 240 Q167 303 187 372 Q205 441 205 494 L205 502 Q205 525 203 539.5 Q201 554 197 562 Q187 578 167 578 Q145 578 136 560 Q127 542 127 490 L127 442 L26 442 L26 510 Q26 580 58 612 Q89 645 169 645 Q249 645 277 611 Q304 576 306 499 L306 493 Z " />
<glyph glyph-name="four" unicode="4" horiz-adv-x="355" d="M331 155 L331 87 L285 87 L285 -70 L184 -70 L184 87 L27 87 L27 154 L189 640 L285 640 L285 155 L331 155 L331 155 Z M184 155 L184 460 L96 155 L184 155 L184 155 Z " />
<glyph glyph-name="three" unicode="3" horiz-adv-x="340" d="M312 429 Q312 388 301 358 Q290 328 273 314 Q256 299 242 292 Q228 285 214 283 Q219 282 223 281.5 Q227 281 229 281 Q231 280 235 278.5 Q239 277 246 275 Q258 270 264.5 264.5 Q271 259 282 248 Q292 236 297.5 222 Q303 208 307 185 Q310 174 311 162 Q312 150 312 136 L312 53 Q312 18 307 -3.5 Q302 -25 288 -44 Q274 -63 247 -71 Q220 -79 178 -79 Q132 -79 102 -71 Q72 -63 58 -44 Q43 -25 37.5 -3.5 Q32 18 32 53 L32 111 L132 111 L132 64 Q132 16 142 2 Q153 -12 176 -12 Q199 -12 208 3 Q217 18 217 65 L217 134 Q217 166 212 188.5 Q207 211 200 222 Q192 234 181 239 Q168 246 161 247 Q154 248 140 249 L135 249 L135 317 Q152 318 163 322 Q174 326 188 337 Q217 360 217 440 L217 489 Q217 543 208 561 Q197 578 176 578 Q153 578 142 561 Q132 545 132 490 L132 441 L32 441 L32 503 Q32 540 37.5 563.5 Q43 587 58 607 Q72 627 102 636 Q132 645 178 645 Q262 645 288 608 Q302 588 307 565.5 Q312 543 312 508 L312 429 Z " />
<glyph glyph-name="five" unicode="5" horiz-adv-x="380" d="M330 283 L330 58 Q330 23 325 0.5 Q320 -22 306 -42 Q279 -79 190 -79 Q103 -79 74 -41 Q60 -21 55 1.5 Q50 24 50 58 L50 110 L150 110 L150 68 Q150 15 159 2 Q170 -12 190 -12 Q206 -12 213 -8 Q220 -4 225 14 Q230 34 230 66 L230 270 Q230 321 221 338 Q211 354 191 354 Q171 354 160.5 334.5 Q150 315 150 266 L150 255 L122 255 L122 256 L50 256 L50 640 L329 640 L329 573 L150 573 L150 380 Q175 420 231 420 Q285 420 307.5 384 Q330 348 330 283 Z " />
<glyph glyph-name="six" unicode="6" horiz-adv-x="380" d="M330 470 L229 470 L229 503 Q229 525 226.5 539.5 Q224 554 220 562 Q210 578 190 578 Q171 578 160 562 Q149 546 149 504 L149 384 Q175 419 230 419 Q328 419 330 282 L330 58 Q330 23 324.5 0.5 Q319 -22 305 -42 Q279 -79 190 -79 Q102 -79 75 -42 Q60 -22 55 0.5 Q50 23 50 58 L50 506 Q50 536 55.5 558.5 Q61 581 76 602 Q105 645 191 645 Q278 645 306 602 Q320 581 325 559 Q330 537 330 506 L330 470 Z M149 270 L149 61 Q149 17 159 2 Q167 -12 189 -12 Q211 -12 220 2 Q224 9 226.5 23.5 Q229 38 229 61 L229 273 Q229 317 221 336 Q212 353 192 353 Q149 353 149 270 Z " />
<glyph glyph-name="seven" unicode="7" horiz-adv-x="314" d="M192 566 L192 572 L18 572 L18 640 L293 640 L293 566 L139 -70 L32 -70 L192 566 L192 566 Z " />
<glyph glyph-name="eight" unicode="8" horiz-adv-x="348" d="M290 608 Q304 588 308.5 566 Q313 544 313 508 L313 401 Q313 328 249 298 Q313 264 313 195 L313 63 Q313 27 308.5 4 Q304 -19 290 -40 Q264 -79 174 -79 Q87 -79 58 -40 Q44 -20 39 4 Q34 28 34 63 L34 195 Q34 263 99 298 Q34 328 34 401 L34 508 Q34 543 39 565.5 Q44 588 58 608 Q73 628 101 636.5 Q129 645 174 645 Q264 645 290 608 Z M213 504 Q213 547 204 562 Q194 578 174 578 Q154 578 144 562 Q134 548 134 504 L134 410 Q134 362 144 348 Q153 332 174 332 Q195 332 204 348 Q213 363 213 410 L213 504 Z M213 183 Q213 232 204 249 Q195 264 174 264 Q153 264 144 248 Q134 234 134 183 L134 62 Q134 19 144 3 Q153 -12 174 -12 Q195 -12 204 3 Q213 19 213 62 L213 183 Z " />
<glyph glyph-name="nine" unicode="9" horiz-adv-x="380" d="M190 645 Q235 645 262 636 Q289 628 305 608 Q319 588 324.5 565 Q330 542 330 507 L330 61 Q330 31 324 8 Q318 -15 304 -36 Q273 -79 189 -79 Q100 -79 73 -36 Q59 -15 54.5 7 Q50 29 50 61 L50 97 L150 97 L150 63 Q150 18 159 3 Q168 -12 189 -12 Q209 -12 220 3 Q230 20 230 62 L230 181 Q204 146 149 147 Q50 147 50 283 L50 507 Q50 542 55 565 Q60 588 74 608 Q90 627 117 636 Q145 645 190 645 Z M230 296 L230 505 Q230 549 221 564 Q212 578 190 578 Q168 578 159 564 Q150 549 150 505 L150 292 Q150 246 159 230 Q168 214 188 214 Q230 214 230 296 Z " />
<glyph glyph-name="colon" unicode="&#x3a;" horiz-adv-x="216" d="M55 348 L55 441 L157 441 L157 348 L55 348 L55 348 Z M55 -70 L55 23 L157 23 L157 -70 L55 -70 L55 -70 Z " />
<glyph glyph-name="semicolon" unicode="&#x3b;" horiz-adv-x="214" d="M30 -180 L67 -39 L164 -39 L84 -180 L30 -180 L30 -180 Z M63 348 L63 441 L165 441 L165 348 L63 348 L63 348 Z " />
<glyph glyph-name="less" unicode="&#x3c;" horiz-adv-x="301" d="M252 441 L252 345 L105 185 L252 25 L252 -70 L51 145 L51 226 L252 441 L252 441 Z " />
<glyph glyph-name="equal" unicode="&#x3d;" horiz-adv-x="267" d="M227 232 L40 232 L40 300 L227 300 L227 232 L227 232 Z M227 5 L40 5 L40 71 L227 71 L227 5 L227 5 Z " />
<glyph glyph-name="greater" unicode="&#x3e;" horiz-adv-x="300" d="M48 441 L250 226 L250 145 L48 -70 L48 25 L196 185 L48 345 L48 441 L48 441 Z " />
<glyph glyph-name="question" unicode="&#x3f;" horiz-adv-x="350" d="M130 83 Q130 162 136 209 Q141 258 158 295 Q160 301 179 336 Q198 370 206 400 Q213 428 213 473 Q213 537 204 558 Q195 578 172 578 Q149 578 140 557 Q130 538 130 473 L130 430 L30 430 L30 475 Q30 521 36 550.5 Q42 580 57 603 Q72 626 100 635.5 Q128 645 173 645 Q217 645 245 635.5 Q273 626 288 603 Q302 580 307.5 551.5 Q313 523 313 475 Q313 451 310 427.5 Q307 404 303 388 Q300 373 292 354 Q284 334 280 328 Q278 323 275 317 Q272 311 267 303 Q262 295 260 290 Q258 285 256 283 Q248 265 242 246.5 Q236 228 234 208 Q231 169 231 83 L130 83 Z M129 -70 L129 23 L231 23 L231 -70 L129 -70 Z " />
<glyph glyph-name="at" unicode="&#x40;" horiz-adv-x="525" d="M421 -1 Q359 -70 262 -70 Q153 -70 97.5 10.5 Q42 91 47 252 Q51 421 119 523 Q188 623 303 623 Q396 623 440 548 Q484 474 478 344 Q474 261 457 198.5 Q440 136 407 98 Q374 62 328 69 Q309 72 296.5 86.5 Q284 101 286 125 Q280 106 264 94 Q249 83 228 86 Q166 97 172 237 Q175 294 187 346.5 Q199 399 222 436 Q246 474 274 475 Q290 476 301.5 460 Q313 444 313 421 L319 466 L354 466 L322 162 Q316 120 338 118 Q369 117 384 185 Q390 220 393.5 255.5 Q397 291 399 340 Q404 449 380 504.5 Q356 560 293 560 Q223 560 174 477 Q125 392 121 255 Q112 -12 265 -12 Q303 -12 328 4 Q341 12 350 21 Q359 30 365 38 L421 -1 Z M284 206 L297 336 Q300 371 293.5 391 Q287 411 273 407 Q254 401 239 351 Q222 300 221 247 Q216 148 249 148 Q275 148 284 206 Z " />
<glyph glyph-name="A" unicode="A" horiz-adv-x="404" d="M319 618 Q354 589 354 521 L354 -70 L250 -70 L251 265 L154 265 L154 -70 L50 -70 L50 521 Q50 589 86 618 Q120 645 202 645 Q283 645 319 618 Z M251 333 L251 515 Q251 578 202 578 Q154 578 154 515 L154 333 L251 333 Z " />
<glyph glyph-name="B" unicode="B" horiz-adv-x="364" d="M343 172 L343 82 Q343 -6 321 -37 Q297 -70 238 -70 L50 -70 L50 640 L210 640 Q273 640 305 613 Q337 587 337 512 L337 435 Q337 373 323 342 Q309 311 277 302 Q312 295 327.5 265 Q343 235 343 172 Z M149 572 L149 333 L188 333 Q211 333 221.5 338 Q232 343 239 361 Q246 378 246 417 L246 487 Q246 525 238 543.5 Q230 562 217 567 Q204 572 179 572 L149 572 Z M246 166 Q246 228 235 247 Q222 266 191 266 L149 266 L149 -3 L193 -3 Q226 -3 237 12 Q246 27 246 83 L246 166 Z " />
<glyph glyph-name="C" unicode="C" horiz-adv-x="373" d="M343 392 L240 392 L240 515 Q240 577 191 578 Q143 578 143 515 L143 51 Q143 -10 190 -12 Q240 -12 240 51 L240 177 L343 177 L343 46 Q343 -23 308 -52 Q273 -79 190 -79 Q108 -79 74 -51 Q40 -23 40 46 L40 520 Q40 591 75 617 Q109 645 191 645 Q273 645 308 617 Q343 588 343 520 L343 392 Z " />
<glyph glyph-name="D" unicode="D" horiz-adv-x="398" d="M50 -70 L50 640 L232 640 Q287 640 319 611 Q348 580 348 507 L348 64 Q348 -14 319 -42 Q290 -70 232 -70 L50 -70 Z M186 -3 Q213 -3 225 3 Q237 9 243 29 Q249 50 249 97 L249 473 Q249 519 243.5 539.5 Q238 560 226 566 Q214 572 187 572 L150 572 L150 -3 L186 -3 Z " />
<glyph glyph-name="E" unicode="E" horiz-adv-x="320" d="M150 572 L150 317 L265 317 L265 248 L150 248 L150 -3 L292 -3 L292 -70 L50 -70 L50 640 L292 640 L292 572 L150 572 L150 572 Z " />
<glyph glyph-name="F" unicode="F" horiz-adv-x="302" d="M149 572 L149 317 L252 317 L252 248 L149 248 L149 -70 L50 -70 L50 640 L280 640 L280 572 L149 572 L149 572 Z " />
<glyph glyph-name="G" unicode="G" horiz-adv-x="380" d="M351 392 L254 392 L254 511 Q254 548 240.5 563 Q227 578 202 578 Q150 578 150 511 L150 54 Q150 -12 201 -12 Q254 -12 254 54 L254 205 L201 205 L201 273 L351 273 L351 46 Q351 -23 316 -52 Q280 -79 199 -79 Q119 -79 85 -51 Q50 -22 50 46 L50 520 Q50 590 85 617 Q119 645 200 645 Q281 645 316 617 Q351 588 351 520 L351 392 Z " />
<glyph glyph-name="H" unicode="H" horiz-adv-x="394" d="M344 640 L344 -70 L244 -70 L244 248 L149 248 L149 -70 L50 -70 L50 640 L149 640 L149 317 L244 317 L244 640 L344 640 L344 640 Z " />
<glyph glyph-name="I" unicode="I" horiz-adv-x="220" d="M160 572 L160 -2 L185 -2 L185 -70 L35 -70 L35 -2 L60 -2 L60 572 L35 572 L35 640 L185 640 L185 572 L160 572 L160 572 Z " />
<glyph glyph-name="J" unicode="J" horiz-adv-x="362" d="M339 640 L339 572 L312 572 L312 46 Q312 -23 278 -51 Q246 -79 167 -79 Q89 -79 55 -51 Q20 -22 20 46 L20 248 L118 248 L118 49 Q118 -12 167 -12 Q215 -12 215 51 L215 572 L188 572 L188 640 L339 640 Z " />
<glyph glyph-name="K" unicode="K" horiz-adv-x="368" d="M348 640 L228 284 L348 -70 L241 -70 L150 219 L150 -70 L50 -70 L50 640 L150 640 L150 349 L241 640 L348 640 L348 640 Z " />
<glyph glyph-name="L" unicode="L" horiz-adv-x="300" d="M50 -70 L50 640 L150 640 L150 -3 L279 -3 L279 -70 L50 -70 L50 -70 Z " />
<glyph glyph-name="M" unicode="M" horiz-adv-x="506" d="M50 -70 L50 640 L161 640 L253 125 L344 640 L456 640 L456 -70 L361 -70 L361 386 L286 -70 L219 -70 L144 386 L144 -70 L50 -70 L50 -70 Z " />
<glyph glyph-name="N" unicode="N" horiz-adv-x="422" d="M149 -70 L50 -70 L50 640 L141 640 L272 185 L272 640 L372 640 L372 -70 L278 -70 L149 386 L149 -70 L149 -70 Z " />
<glyph glyph-name="O" unicode="O" horiz-adv-x="389" d="M313 617 Q349 588 349 520 L349 46 Q349 -24 313 -52 Q277 -79 193 -79 Q110 -79 75 -51 Q40 -22 40 46 L40 520 Q40 590 75 617 Q110 645 193 645 Q278 645 313 617 Z M248 494 Q248 540 236.5 559 Q225 578 194 578 Q164 578 152 559 Q140 540 140 494 L140 74 Q140 28 152 8 Q164 -12 194 -12 Q225 -12 236.5 7.5 Q248 27 248 74 L248 494 Z " />
<glyph glyph-name="P" unicode="P" horiz-adv-x="365" d="M206 640 Q247 640 272 632 Q297 624 311 604 Q325 584 329.5 558 Q334 532 334 490 L334 363 Q334 276 309 245 Q283 212 206 212 L150 212 L150 -70 L50 -70 L50 640 L206 640 Z M246 484 Q246 543 229 559 Q220 568 210.5 570 Q201 572 184 572 L150 572 L150 281 L183 281 Q200 281 210 283 Q220 285 229 294 Q246 311 246 374 L246 484 Z " />
<glyph glyph-name="Q" unicode="Q" horiz-adv-x="409" d="M323 617 Q359 588 359 520 L359 46 Q359 -24 323 -52 Q295 -72 243 -78 Q245 -89 254 -93.5 Q263 -98 274 -99 Q285 -100 296.5 -98 Q308 -96 316 -94 L305 -157 Q281 -167 257 -166.5 Q233 -166 213 -155.5 Q193 -145 179.5 -125.5 Q166 -106 164 -77 Q113 -73 85 -51 Q50 -24 50 46 L50 520 Q50 590 85 617 Q120 645 204 645 Q288 645 323 617 Z M258 494 Q258 540 246.5 559 Q235 578 204 578 Q174 578 161.5 559 Q149 540 149 494 L149 74 Q149 28 161.5 8 Q174 -12 204 -12 Q235 -12 246.5 7.5 Q258 27 258 74 L258 494 Z " />
<glyph glyph-name="R" unicode="R" horiz-adv-x="381" d="M341 390 Q341 291 278 261 Q338 230 339 139 Q338 87 339 44 Q340 7 341.5 -26.5 Q343 -60 348 -70 L257 -70 Q252 -55 250 -24 Q248 7 247 39 Q246 76 246 117 Q246 184 236 207 Q224 228 188 228 L150 228 L150 -70 L50 -70 L50 640 L216 640 Q256 640 280 632 Q304 624 318 604 Q331 584 336 558.5 Q341 533 341 490 L341 390 Z M150 572 L149 296 L183 296 Q200 296 210 298.5 Q220 301 229 310 Q246 327 246 388 L246 484 Q246 525 238.5 544 Q231 563 221 568 Q210 572 189 572 L150 572 Z " />
<glyph glyph-name="S" unicode="S" horiz-adv-x="387" d="M44 46 L44 177 L139 177 L139 61 Q139 19 153.5 3.5 Q168 -12 195 -12 Q220 -12 234 3.5 Q248 19 248 61 L248 169 Q248 205 234 221 Q221 235 191 248 Q186 250 179.5 252 Q173 254 163 257 Q154 260 146.5 262 Q139 264 134 266 Q123 270 107 277 Q91 284 82 293 Q67 307 55 329 Q43 351 44 386 L44 520 Q44 588 81 616.5 Q118 645 193 645 Q267 645 304.5 616.5 Q342 588 342 520 L342 392 L248 392 L248 508 Q248 547 233.5 562.5 Q219 578 193 578 Q139 578 139 508 L139 409 Q139 381 148 363.5 Q157 346 168 339 Q178 333 195 327 Q204 322 223 318 Q232 316 239 314 Q246 312 251 310 Q259 307 274 301 Q289 295 297 290 Q305 284 315 274 Q325 264 330 252 Q335 240 338.5 223.5 Q342 207 342 187 L342 46 Q342 -22 305 -50.5 Q268 -79 195 -79 Q120 -79 82 -50.5 Q44 -22 44 46 Z " />
<glyph glyph-name="T" unicode="T" horiz-adv-x="340" d="M316 572 L220 572 L220 -70 L120 -70 L120 572 L25 572 L25 640 L316 640 L316 572 L316 572 Z " />
<glyph glyph-name="U" unicode="U" horiz-adv-x="409" d="M86 -51 Q50 -23 50 46 L50 640 L150 640 L150 74 Q150 28 162 8 Q174 -12 205 -12 Q235 -12 247 7.5 Q259 27 259 74 L259 640 L359 640 L359 46 Q359 -24 323 -52 Q287 -79 203 -79 Q120 -79 86 -51 Z " />
<glyph glyph-name="V" unicode="V" horiz-adv-x="377" d="M190 21 L249 640 L355 640 L265 -70 L113 -70 L21 640 L127 640 L190 21 L190 21 Z " />
<glyph glyph-name="W" unicode="W" horiz-adv-x="549" d="M82 -70 L21 640 L127 640 L159 40 L231 640 L319 640 L391 40 L421 640 L528 640 L467 -70 L330 -70 L275 421 L219 -70 L82 -70 L82 -70 Z " />
<glyph glyph-name="X" unicode="X" horiz-adv-x="354" d="M120 282 L20 640 L121 640 L177 379 L231 640 L332 640 L234 282 L334 -70 L232 -70 L177 184 L119 -70 L18 -70 L120 282 L120 282 Z " />
<glyph glyph-name="Y" unicode="Y" horiz-adv-x="343" d="M239 640 L339 640 L222 178 L222 -70 L121 -70 L121 178 L4 640 L103 640 L172 289 L239 640 L239 640 Z " />
<glyph glyph-name="Z" unicode="Z" horiz-adv-x="310" d="M122 -3 L283 -3 L283 -70 L22 -70 L22 -3 L180 572 L30 572 L30 640 L281 640 L281 573 L122 -1 L122 -3 L122 -3 Z " />
<glyph glyph-name="bracketleft" unicode="&#x5b;" horiz-adv-x="258" d="M224 711 L224 643 L133 643 L133 -70 L224 -70 L224 -137 L50 -137 L50 711 L224 711 L224 711 Z " />
<glyph glyph-name="backslash" unicode="&#x5c;" horiz-adv-x="387" d="M272 -70 L20 639 L111 639 L364 -70 L272 -70 L272 -70 Z " />
<glyph glyph-name="bracketright" unicode="&#x5d;" horiz-adv-x="259" d="M35 711 L209 711 L209 -137 L35 -137 L35 -70 L125 -70 L125 643 L35 643 L35 711 L35 711 Z " />
<glyph glyph-name="asciicircum" unicode="&#x5e;" horiz-adv-x="324" d="M280 528 L218 528 L164 610 L110 527 L48 527 L128 640 L201 640 L280 528 L280 528 Z " />
<glyph glyph-name="underscore" unicode="&#x5f;" horiz-adv-x="415" d="M54 -70 L54 -3 L362 -3 L362 -70 L54 -70 L54 -70 Z " />
<glyph glyph-name="grave" unicode="&#x60;" horiz-adv-x="197" d="M153 501 L105 501 L42 586 L111 586 L153 501 L153 501 Z " />
<glyph glyph-name="a" unicode="a" horiz-adv-x="388" d="M307 416 Q322 400 330 375.5 Q338 351 338 316 L338 -70 L262 -70 L250 -36 Q221 -75 166 -75 Q107 -75 76 -51 Q45 -26 45 34 L45 106 Q46 141 67 169 Q84 193 124 213 Q164 233 238 233 L238 311 Q238 347 229 363 Q220 379 198 379 Q152 379 152 313 L152 257 L50 257 L50 316 Q50 385 86.5 416 Q123 447 198 447 Q276 447 307 416 Z M238 174 L230 174 Q226 174 221 173.5 Q216 173 211 172 Q201 170 189.5 168 Q178 166 168 159 Q158 152 151.5 139.5 Q145 127 145 106 L145 95 L145 51 Q145 18 154.5 4 Q164 -10 188 -10 Q211 -10 224.5 12 Q238 34 238 69 L238 174 Z " />
<glyph glyph-name="c" unicode="c" horiz-adv-x="387" d="M337 251 L237 251 L237 307 Q237 347 227.5 363 Q218 379 194 379 Q171 379 160.5 362.5 Q150 346 150 306 L150 67 Q150 26 160.5 9.5 Q171 -7 194 -7 Q218 -7 227.5 9 Q237 25 237 65 L237 121 L337 121 L337 55 Q337 -13 304 -44 Q272 -75 194 -75 Q116 -75 83 -44.5 Q50 -14 50 55 L50 316 Q50 385 83 416 Q116 447 194 447 Q271 447 304 416 Q337 385 337 316 L337 251 Z " />
<glyph glyph-name="b" unicode="b" horiz-adv-x="393" d="M343 321 L343 44 Q343 -21 315 -48 Q287 -75 234 -75 Q172 -75 145 -28 L139 -70 L50 -70 L50 667 L150 667 L150 409 Q179 447 235 447 Q343 447 343 321 Z M242 306 Q242 344 233 361.5 Q224 379 201 379 Q178 379 164 357 Q150 335 150 294 L150 76 Q150 35 164.5 14 Q179 -7 202 -7 Q225 -7 233.5 8.5 Q242 24 242 62 L242 306 Z " />
<glyph glyph-name="d" unicode="d" horiz-adv-x="392" d="M241 667 L342 667 L342 -70 L253 -70 L247 -28 Q220 -77 158 -75 Q105 -75 77.5 -48 Q50 -21 50 44 L50 321 Q50 447 157 447 Q214 447 241 409 L241 667 Z M241 76 L241 294 Q241 335 227.5 357 Q214 379 191 379 Q168 379 159 361.5 Q150 344 150 306 L150 62 Q150 24 158.5 8.5 Q167 -7 190 -7 Q213 -7 227 14 Q241 35 241 76 Z " />
<glyph glyph-name="e" unicode="e" horiz-adv-x="386" d="M303 416 Q336 384 336 316 L336 176 L149 176 L149 67 Q149 26 159.5 9.5 Q170 -7 194 -7 Q217 -7 226.5 9 Q236 25 236 65 L236 121 L336 121 L336 55 Q336 -13 303 -44 Q271 -75 194 -75 Q115 -75 83 -44 Q50 -14 50 55 L50 316 Q50 386 83 416 Q115 447 194 447 Q269 447 303 416 Z M236 226 L236 307 Q236 347 226.5 363 Q217 379 194 379 Q170 379 159.5 362.5 Q149 346 149 306 L149 226 L236 226 Z " />
<glyph glyph-name="f" unicode="f" horiz-adv-x="279" d="M179 503 L179 441 L251 441 L251 374 L179 374 L179 -70 L80 -70 L80 374 L15 374 L15 441 L80 441 L80 501 Q80 550 91 584.5 Q102 619 122 637 Q153 664 194.5 669 Q236 674 271 660 L260 593 Q233 603 217 596 Q201 589 192.5 573.5 Q184 558 181.5 538 Q179 518 179 503 Z " />
<glyph glyph-name="g" unicode="g" horiz-adv-x="390" d="M268 441 L340 441 L340 -100 Q340 -235 197 -235 Q121 -235 92 -207 Q61 -179 61 -127 L61 -114 L153 -114 L153 -119 Q153 -178 195 -178 Q239 -178 239 -109 L239 -37 Q212 -75 165 -75 Q50 -75 50 53 L50 327 Q50 383 81 415 Q112 447 170 447 Q231 447 254 402 L268 441 Z M239 67 L239 312 Q239 379 197 379 Q150 379 149 316 L149 57 Q149 22 161 7.5 Q173 -7 197 -7 Q239 -7 239 67 Z " />
<glyph glyph-name="h" unicode="h" horiz-adv-x="392" d="M342 321 L342 -70 L242 -70 L242 306 Q242 345 232.5 362 Q223 379 200 379 Q177 379 163 357.5 Q149 336 149 294 L149 -70 L50 -70 L50 667 L149 667 L149 409 Q178 447 233 447 Q342 447 342 321 Z " />
<glyph glyph-name="i" unicode="i" horiz-adv-x="200" d="M50 539 L50 639 L150 639 L150 539 L50 539 L50 539 Z M50 -70 L50 441 L150 441 L150 -70 L50 -70 L50 -70 Z " />
<glyph glyph-name="j" unicode="j" horiz-adv-x="240" d="M90 441 L190 441 L190 -76 Q190 -126 179.5 -157.5 Q169 -189 146 -205 Q122 -221 95 -227 Q68 -233 26 -233 L15 -233 L15 -170 L31 -170 Q90 -171 90 -80 L90 441 Z M90 639 L190 639 L190 539 L90 539 L90 639 Z " />
<glyph glyph-name="k" unicode="k" horiz-adv-x="391" d="M362 441 L230 248 L358 -70 L245 -70 L173 162 L150 128 L150 -70 L50 -70 L50 667 L150 667 L150 281 L242 441 L362 441 L362 441 Z " />
<glyph glyph-name="l" unicode="l" horiz-adv-x="200" d="M150 667 L150 -70 L50 -70 L50 667 L150 667 L150 667 Z " />
<glyph glyph-name="m" unicode="m" horiz-adv-x="551" d="M501 321 L501 -70 L400 -70 L400 306 Q400 345 392.5 362 Q385 379 364 379 Q344 379 331.5 355 Q319 331 319 289 L319 -70 L230 -70 L230 303 Q230 344 222.5 361.5 Q215 379 195 379 Q175 379 162.5 355 Q150 331 150 289 L150 -70 L50 -70 L50 441 L134 441 L145 390 Q159 419 182 433 Q205 447 229 447 Q292 447 312 385 Q326 416 349 431.5 Q372 447 398 447 Q449 447 475 417 Q501 387 501 321 Z " />
<glyph glyph-name="n" unicode="n" horiz-adv-x="392" d="M342 321 L342 -70 L243 -70 L243 306 Q243 346 233.5 362.5 Q224 379 201 379 Q178 379 164 354 Q150 329 150 288 L150 -70 L50 -70 L50 441 L134 441 L145 395 Q172 447 235 447 Q343 447 342 321 Z " />
<glyph glyph-name="o" unicode="o" horiz-adv-x="387" d="M305 416 Q337 385 337 316 L337 55 Q337 -13 305 -44 Q274 -75 194 -75 Q116 -75 84 -44 Q50 -13 50 55 L50 316 Q50 385 84 416 Q116 447 194 447 Q274 447 305 416 Z M237 316 Q237 349 227 364 Q217 379 194 379 Q150 379 150 316 L150 62 Q150 24 160.5 8.5 Q171 -7 194 -7 Q217 -7 227 8.5 Q237 24 237 62 L237 316 Z " />
<glyph glyph-name="p" unicode="p" horiz-adv-x="393" d="M343 327 L343 51 Q343 -77 234 -75 Q177 -75 150 -37 L150 -233 L50 -233 L50 441 L140 441 L145 399 Q172 447 235 447 Q288 447 315.5 419.5 Q343 392 343 327 Z M242 311 Q242 379 202 379 Q179 379 164.5 358 Q150 337 150 298 L150 79 Q150 37 163.5 15 Q177 -7 201 -7 Q222 -7 232 10 Q242 27 242 67 L242 311 Z " />
<glyph glyph-name="q" unicode="q" horiz-adv-x="393" d="M254 441 L343 441 L343 -233 L243 -233 L243 -37 Q216 -75 158 -75 Q50 -75 50 51 L50 327 Q50 392 77.5 419.5 Q105 447 158 447 Q220 447 247 399 L254 441 Z M243 79 L243 298 Q243 337 228 358 Q213 379 190 379 Q150 379 150 311 L150 67 Q150 27 160 10 Q170 -7 193 -7 Q216 -7 229.5 15 Q243 37 243 79 Z " />
<glyph glyph-name="s" unicode="s" horiz-adv-x="386" d="M336 254 L237 253 L237 316 Q237 379 193 379 Q151 379 150 316 L150 283 Q150 248 166 234 Q182 220 209 215 Q221 213 230 211.5 Q239 210 246 208 Q255 207 278 197 Q298 190 309 176 Q320 164 328 142 Q336 120 336 91 L336 53 Q336 -13 302.5 -44 Q269 -75 194 -75 Q118 -75 84 -45.5 Q50 -16 50 50 L50 118 L150 118 L150 55 Q150 19 161 6 Q172 -7 194 -7 Q216 -7 226.5 6 Q237 19 237 55 L237 91 Q237 128 222 142 Q207 157 178 161 Q167 163 158.5 164.5 Q150 166 142.5 168.5 Q135 171 127 174 Q119 177 109 182 Q89 190 79 203 Q67 214 58.5 235.5 Q50 257 50 286 L50 322 Q50 447 193 447 Q338 447 336 322 L336 254 Z " />
<glyph glyph-name="r" unicode="r" horiz-adv-x="280" d="M263 441 L263 359 L254 362 Q245 365 223 365 Q190 362 171 334 Q150 304 150 263 L150 -70 L50 -70 L50 441 L133 441 L143 383 Q157 412 179 429 Q201 446 227 447 Q253 447 263 441 Z " />
<glyph glyph-name="t" unicode="t" horiz-adv-x="280" d="M180 374 L180 78 Q180 57 185.5 44.5 Q191 32 200.5 25 Q210 18 222.5 16 Q235 14 249 14 L249 -73 Q223 -78 193 -76.5 Q163 -75 138 -63.5 Q113 -52 96.5 -27 Q80 -2 80 40 L80 374 L7 374 L7 441 L80 441 L80 619 L180 619 L180 441 L256 441 L256 374 L180 374 Z " />
<glyph glyph-name="u" unicode="u" horiz-adv-x="392" d="M242 441 L342 441 L342 -70 L259 -70 L249 -26 Q223 -77 158 -77 Q50 -77 50 51 L50 441 L150 441 L150 67 Q150 26 159.5 9.5 Q169 -7 191 -7 Q215 -7 228.5 14.5 Q242 36 242 78 L242 441 Z " />
<glyph glyph-name="v" unicode="v" horiz-adv-x="341" d="M324 441 L239 -70 L102 -70 L16 441 L121 441 L171 18 L219 441 L324 441 L324 441 Z " />
<glyph glyph-name="w" unicode="w" horiz-adv-x="511" d="M388 441 L488 441 L427 -70 L313 -70 L256 271 L200 -70 L86 -70 L23 441 L124 441 L153 29 L222 441 L290 441 L359 29 L388 441 L388 441 Z " />
<glyph glyph-name="x" unicode="x" horiz-adv-x="353" d="M118 184 L12 441 L123 441 L177 263 L229 441 L341 441 L236 184 L343 -70 L231 -70 L177 103 L121 -70 L9 -70 L118 184 L118 184 Z " />
<glyph glyph-name="y" unicode="y" horiz-adv-x="357" d="M37 -170 L38 -170 Q71 -170 89 -163.5 Q107 -157 115 -146 Q126 -129 128 -109.5 Q130 -90 132 -70 L19 441 L127 441 L181 65 L235 441 L344 441 L227 -70 L213 -130 Q200 -185 160 -209 Q121 -233 38 -233 L37 -170 Z " />
<glyph glyph-name="z" unicode="z" horiz-adv-x="292" d="M127 -2 L271 -2 L271 -70 L19 -70 L19 0 L163 373 L163 374 L28 374 L28 441 L269 441 L269 372 L127 0 L127 -2 L127 -2 Z " />
<glyph glyph-name="braceleft" unicode="&#x7b;" horiz-adv-x="268" d="M241 640 Q230 640 223 638 Q216 636 206 628 Q185 612 185 551 L185 361 Q185 338 174.5 321.5 Q164 305 153 297 Q141 290 129.5 284.5 Q118 279 117 277 Q117 276 130 271 Q142 266 154 257 Q165 249 175 225 Q185 201 185 165 L185 18 Q185 -51 205 -71 Q215 -80 222.5 -83 Q230 -86 241 -86 L241 -153 Q167 -153 134 -123 Q101 -92 101 -5 L101 133 Q101 180 86 206 Q71 232 50 242 L50 311 Q66 314 84 336 Q101 359 101 394 L101 572 Q101 644 135 676 Q169 708 241 708 L241 640 Z " />
<glyph glyph-name="bar" unicode="&#x7c;" horiz-adv-x="183" d="M50 -79 L50 752 L133 752 L133 -79 L50 -79 L50 -79 Z " />
<glyph glyph-name="braceright" unicode="&#x7d;" horiz-adv-x="268" d="M27 708 Q99 708 132.5 676 Q166 644 166 572 L166 394 Q166 360 184 336 Q202 314 218 311 L218 242 Q197 233 181.5 206.5 Q166 180 166 133 L166 -5 Q166 -91 134 -123 Q101 -153 27 -153 L27 -86 Q38 -86 45.5 -83 Q53 -80 63 -71 Q83 -51 83 18 L83 165 Q83 201 93 225 Q103 249 114 257 Q126 266 138 271 Q149 275 151 277 Q150 279 138.5 284.5 Q127 290 115 297 Q103 305 93 321.5 Q83 338 83 361 L83 551 Q83 612 62 628 Q52 636 45 638 Q38 640 27 640 L27 708 Z " />
<glyph glyph-name="asciitilde" unicode="&#x7e;" horiz-adv-x="335" d="M297 254 Q293 244 274 230 Q257 215 234 215 Q219 214 208 220.5 Q197 227 188 235 Q179 243 170 249.5 Q161 256 151 255 Q138 255 127 246.5 Q116 238 109 228 L63 274 Q97 323 140 323 Q158 323 180 303 Q201 283 219 283 Q242 283 251 300 L297 254 Z " />
<glyph glyph-name="Euro" unicode="&#x20ac;" horiz-adv-x="380" d="M286 139 L187 139 L187 106 Q187 52 201 20 Q215 -12 243 -12 Q258 -12 272 -1 Q285 8 291 18 Q293 23 295 26.5 Q297 30 299 35 L363 -6 Q362 -10 360 -15 Q358 -20 347 -32 Q342 -39 336 -44 Q330 -49 324 -54 Q311 -64 289 -71.5 Q267 -79 243 -79 Q86 -79 86 109 L86 139 L35 139 L35 208 L86 208 L86 335 L35 335 L35 401 L86 401 L86 457 Q86 644 243 644 Q271 644 294 636.5 Q317 629 330 617 Q344 606 350 597.5 Q356 589 359 584 L297 535 Q298 536 292.5 544 Q287 552 277 563 Q272 568 263 573 Q254 578 243 578 Q215 578 201 544 Q187 508 187 457 L187 401 L286 401 L286 335 L187 335 L187 208 L286 208 L286 139 Z " />
<glyph glyph-name="ellipsis" unicode="&#x2026;" horiz-adv-x="531" d="M38 -70 L38 23 L140 23 L140 -70 L38 -70 L38 -70 Z M215 -70 L215 23 L317 23 L317 -70 L215 -70 L215 -70 Z M392 -70 L392 23 L494 23 L494 -70 L392 -70 L392 -70 Z " />
<glyph glyph-name="dagger" unicode="&#x2020;" horiz-adv-x="264" d="M247 460 L174 460 L174 -79 L90 -79 L90 460 L19 460 L19 527 L90 527 L90 725 L174 725 L174 527 L247 527 L247 460 L247 460 Z " />
<glyph glyph-name="daggerdbl" unicode="&#x2021;" horiz-adv-x="284" d="M257 460 L184 460 L184 190 L248 190 L248 122 L184 122 L184 -79 L100 -79 L100 122 L29 122 L29 190 L100 190 L100 460 L29 460 L29 527 L100 527 L100 725 L184 725 L184 527 L257 527 L257 460 L257 460 Z " />
<glyph glyph-name="circumflex" unicode="&#x2c6;" horiz-adv-x="240" d="M154 585 L199 500 L142 500 L122 559 L103 500 L45 500 L90 585 L154 585 L154 585 Z " />
<glyph glyph-name="OE" unicode="&#x152;" horiz-adv-x="596" d="M569 572 L427 572 L427 317 L541 317 L541 249 L427 249 L427 -2 L569 -2 L569 -70 L327 -70 L327 -48 Q292 -78 204 -78 Q120 -78 86 -50 Q50 -22 50 47 L50 521 Q50 591 86 618 Q120 646 204 646 Q292 646 327 616 L327 640 L569 640 L569 572 Z M259 495 Q259 541 247.5 560 Q236 579 205 579 Q174 579 162 560 Q150 541 150 495 L150 75 Q150 29 162 9 Q174 -11 205 -11 Q236 -11 247.5 9 Q259 29 259 75 L259 495 Z " />
<glyph glyph-name="oe" unicode="&#x153;" horiz-adv-x="574" d="M491 415 Q524 385 524 316 L524 175 L337 175 L337 67 Q337 26 347.5 9.5 Q358 -7 382 -7 Q405 -7 414.5 9 Q424 25 424 65 L424 121 L524 121 L524 55 Q524 -14 491 -44 Q459 -75 382 -75 Q322 -75 288 -57 Q255 -75 195 -75 Q116 -75 84 -44 Q50 -14 50 55 L50 316 Q50 385 84 416 Q116 447 195 447 Q225 447 248 442 Q271 437 288 429 Q305 437 328.5 442 Q352 447 382 447 Q457 447 491 415 Z M237 316 Q237 349 227 364 Q217 379 195 379 Q150 379 150 316 L150 61 Q150 24 161 8.5 Q172 -7 195 -7 Q217 -7 227 8.5 Q237 24 237 61 L237 316 Z M424 226 L424 307 Q424 347 414.5 363 Q405 379 382 379 Q359 379 348 362.5 Q337 346 337 305 L337 226 L424 226 Z " />
<glyph glyph-name="AE" unicode="&#xc6;" horiz-adv-x="524" d="M354 572 L354 334 L469 334 L469 265 L354 265 L354 -2 L496 -2 L496 -70 L250 -70 L250 265 L154 265 L154 -70 L50 -70 L50 521 Q50 591 85 618 Q119 646 201 646 Q238 646 265 640 L496 640 L496 572 L354 572 Z M251 515 Q251 577 201 579 Q153 579 154 515 L154 334 L250 334 L251 515 Z " />
<glyph glyph-name="ae" unicode="&#xe6;" horiz-adv-x="573" d="M337 176 L337 67 L337 51 Q339 19 349.5 6 Q360 -7 381 -7 Q404 -7 413.5 9 Q423 25 423 65 L423 121 L523 121 L523 55 Q523 -13 490 -44 Q458 -75 381 -75 Q365 -75 351 -73.5 Q337 -72 325 -70 Q290 -62 270 -44 Q263 -37 257 -28 L256 -26 L256 -27 Q243 -47 217.5 -61 Q192 -75 165 -75 Q106 -75 76 -51 Q44 -27 44 34 L44 105 Q45 141 66 169 Q83 193 123 213 Q163 233 237 233 L237 311 Q237 346 228 362.5 Q219 379 197 379 Q151 379 151 313 L151 257 L50 257 L50 316 Q50 384 86 415.5 Q122 447 197 447 Q256 447 288 429 Q322 447 381 447 Q456 447 490 416 Q523 384 523 316 L523 176 L337 176 Z M337 226 L423 226 L423 307 Q423 347 413.5 363 Q404 379 381 379 Q360 379 349.5 366 Q339 353 337 321 L337 305 L337 226 Z M237 174 L229 174 Q225 174 220 173.5 Q215 173 210 172 Q200 170 188.5 167.5 Q177 165 167 158.5 Q157 152 150.5 139.5 Q144 127 144 105 L144 95 L144 51 Q144 18 154 4 Q164 -10 187 -10 Q210 -10 223.5 12 Q237 34 237 68 L237 174 Z " />
<glyph glyph-name="guillemotleft" unicode="&#xab;" horiz-adv-x="469" d="M272 441 L132 223 L272 5 L169 5 L31 223 L169 441 L272 441 L272 441 Z M435 441 L295 223 L435 5 L332 5 L194 223 L332 441 L435 441 L435 441 Z " />
<glyph glyph-name="guillemotright" unicode="&#xbb;" horiz-adv-x="468" d="M34 441 L136 441 L274 223 L136 5 L34 5 L174 223 L34 441 L34 441 Z M196 441 L298 441 L437 223 L298 5 L196 5 L336 223 L196 441 L196 441 Z " />
<glyph glyph-name="tilde" unicode="&#x2dc;" horiz-adv-x="255" d="M220 589 Q220 578 209 542 Q204 525 192 512.5 Q180 500 166 500 Q148 500 133 515 Q117 531 110 531 Q102 531 97 523.5 Q92 516 90 510 L89 503 L38 503 Q39 507 40 512.5 Q41 518 45 533 Q50 550 55 560 Q61 571 71 580.5 Q81 590 95 590 Q110 590 127 575 Q142 560 150 560 Q157 560 161.5 567 Q166 574 168 582 L169 589 L220 589 Z " />
<glyph glyph-name="caron" unicode="&#x2c7;" horiz-adv-x="198" d="M120 585 L176 585 L131 500 L67 500 L23 585 L80 585 L100 525 L120 585 L120 585 Z " />
<glyph glyph-name="hungarumlaut" unicode="&#x2dd;" horiz-adv-x="325" d="M61 507 L103 583 L167 583 L108 507 L61 507 L61 507 Z M165 507 L207 583 L272 583 L211 507 L165 507 L165 507 Z " />
<glyph glyph-name="ring" unicode="&#x2da;" horiz-adv-x="201" d="M101 489 Q75 489 58 507 Q41 525 41 550 Q41 576 59.5 593 Q78 610 101 610 Q127 610 143.5 591.5 Q160 573 160 550 Q160 524 142 506.5 Q124 489 101 489 Z M121 550 Q121 560 114.5 565.5 Q108 571 100.5 571 Q93 571 86.5 566 Q80 561 80 550 Q80 539 86.5 534 Q93 529 100.5 529 Q108 529 114.5 534 Q121 539 121 550 Z " />
<glyph glyph-name="breve" unicode="&#x2d8;" horiz-adv-x="226" d="M182 587 Q182 551 164 531.5 Q146 512 113 512 Q81 512 63.5 531.5 Q46 551 46 587 L93 587 Q93 550 113 550 Q125 550 130 558.5 Q135 567 135 587 L182 587 Z " />
<glyph glyph-name="dotaccent" unicode="&#x2d9;" horiz-adv-x="160" d="M107 516 L48 516 L48 583 L107 583 L107 516 L107 516 Z " />
<glyph glyph-name="ogonek" unicode="&#x2db;" horiz-adv-x="238" d="M145 -70 Q111 -95 111 -123 Q111 -134 121 -139 Q131 -144 143.5 -145 Q156 -146 167.5 -144 Q179 -142 183 -140 L185 -195 Q179 -198 159.5 -200.5 Q140 -203 114 -201 Q87 -201 68 -186 Q49 -171 49 -145 Q49 -125 59 -108 Q64 -98 69 -91 Q74 -84 79 -79 L89 -70 L145 -70 Z " />
<glyph glyph-name="lslash" unicode="&#x142;" horiz-adv-x="228" d="M211 415 L211 328 L160 283 L160 -70 L60 -70 L60 195 L9 152 L9 238 L60 283 L60 667 L160 667 L160 370 L211 415 L211 415 Z " />
<glyph glyph-name="Lslash" unicode="&#x141;" horiz-adv-x="300" d="M150 -2 L279 -2 L279 -70 L50 -70 L50 165 L8 118 L8 206 L50 253 L50 640 L150 640 L150 364 L214 434 L214 346 L150 275 L150 -2 L150 -2 Z " />
<glyph glyph-name="guilsinglleft" unicode="&#x2039;" horiz-adv-x="288" d="M267 441 L127 223 L267 5 L164 5 L26 223 L164 441 L267 441 L267 441 Z " />
<glyph glyph-name="guilsinglright" unicode="&#x203a;" horiz-adv-x="293" d="M21 441 L123 441 L262 223 L123 5 L21 5 L161 223 L21 441 L21 441 Z " />
<glyph glyph-name="eth" unicode="&#xf0;" horiz-adv-x="388" d="M260 594 Q338 496 338 288 L338 60 Q338 -79 193 -79 Q50 -79 50 60 L50 277 Q50 445 177 445 Q205 445 240 429 Q235 461 228 486.5 Q221 512 211 531 L187 501 L151 528 L182 569 Q175 577 163.5 583.5 Q152 590 137 598 L175 661 Q217 636 226 627 L256 666 L293 636 L260 594 Z M237 290 Q237 331 228 354 Q219 377 193 377 Q168 377 159 354.5 Q150 332 150 290 L150 73 Q150 -12 193 -12 Q237 -12 237 73 L237 290 Z " />
<glyph glyph-name="sterling" unicode="&#xa3;" horiz-adv-x="384" d="M365 -71 L250 -75 L95 -81 L68 -18 L70 -16 Q71 -15 72.5 -14 Q74 -13 76 -11 Q83 -4 87 0 Q91 4 99 17 Q103 23 106.5 29 Q110 35 112 41 Q117 54 120 74.5 Q123 95 123 118 Q123 150 120 182 Q117 214 112 246 L50 246 L50 313 L96 313 Q76 399 75 461 Q72 539 109 593 Q145 646 222 647 Q288 647 321 617 Q354 587 362 540 L273 504 Q258 579 222 579 Q200 579 186.5 552 Q173 525 173 472 Q173 443 177.5 403.5 Q182 364 193 313 L289 313 L289 246 L205 246 Q210 211 211 176.5 Q212 142 210 108 Q208 80 196 45.5 Q184 11 170 -13 L258 -8 L336 -4 L365 -71 Z " />
<glyph glyph-name="trademark" unicode="&#x2122;" horiz-adv-x="324" d="M140 610 L98 610 L98 529 L65 529 L65 610 L21 610 L21 640 L140 640 L140 610 L140 610 Z M156 529 L156 640 L195 640 L221 574 L246 640 L284 640 L284 529 L253 529 L253 595 L232 529 L209 529 L188 595 L188 529 L156 529 L156 529 Z " />
<glyph glyph-name="perthousand" unicode="&#x2030;" horiz-adv-x="568" d="M162 456 Q162 414 146 393 Q130 372 90 372 Q49 372 33 393 Q17 414 17 456 L17 558 Q17 600 33 622 Q49 644 90 644 Q130 644 146 622.5 Q162 601 162 558 L162 456 Z M359 640 L107 -69 L38 -69 L291 640 L359 640 Z M66 461 Q66 423 90 423 Q113 423 113 461 L113 553 Q113 591 90 591 Q66 591 66 553 L66 461 Z M376 11 Q376 -31 360.5 -52 Q345 -73 305 -73 Q265 -73 248.5 -52 Q232 -31 232 11 L232 114 Q232 156 248.5 177 Q265 198 305 198 Q345 198 360.5 177 Q376 156 376 114 L376 11 Z M282 17 Q282 -22 305 -22 Q328 -22 328 17 L328 107 Q328 146 305 146 Q282 146 282 107 L282 17 Z M547 11 Q547 -31 530.5 -52 Q514 -73 474 -73 Q434 -73 418 -52 Q402 -31 402 11 L402 114 Q402 156 418 177 Q434 198 474 198 Q514 198 530.5 177 Q547 156 547 114 L547 11 Z M451 17 Q451 -22 474 -22 Q497 -22 497 17 L497 107 Q497 146 474 146 Q451 146 451 107 L451 17 Z " />
<glyph glyph-name="germandbls" unicode="&#xdf;" horiz-adv-x="399" d="M50 -156 L50 441 Q50 492 59 529.5 Q68 567 82 588 Q95 609 118 623 Q140 637 159 640.5 Q178 644 204 645 Q265 648 308 605 Q350 561 347 491 Q347 465 339 442 Q331 419 321.5 398.5 Q312 378 304 358.5 Q296 339 297 320 Q297 292 313.5 270.5 Q330 249 348 223 Q360 206 368.5 179 Q377 152 379 119 Q385 14 332 -39 Q279 -91 188 -71 L188 -3 Q230 -18 260 20 Q289 58 283 134 Q281 164 268.5 190 Q256 216 242 232 Q228 248 217.5 271 Q207 294 207 320 Q207 356 232 406 Q257 457 258 486 Q260 505 256.5 521.5 Q253 538 246 552 Q232 581 207 579 Q199 577 193.5 576.5 Q188 576 179 570 Q170 564 165 553 Q159 542 154.5 520.5 Q150 499 150 470 L150 -156 L50 -156 Z " />
<glyph glyph-name="copyright" unicode="&#xa9;" horiz-adv-x="474" d="M424 124 Q424 25 376.5 -26.5 Q329 -78 233 -78 Q142 -78 96 -26.5 Q50 25 50 124 L50 443 Q50 527 91 584 Q111 613 147.5 629 Q184 645 233 645 Q286 645 323.5 629 Q361 613 382 584 Q404 555 414 520 Q424 485 424 443 L424 124 Z M356 436 Q356 469 351 495 Q346 521 332 543 Q306 588 233 588 Q112 586 112 436 L112 131 Q112 97 117.5 71 Q123 45 136 23 Q163 -21 233 -21 Q306 -21 332 24 Q346 46 351 70.5 Q356 95 356 128 L356 436 Z M317 136 Q317 47 234 47 Q152 47 152 136 L152 424 Q152 484 179 505 Q193 514 205 517 Q217 520 234 520 Q251 520 263.5 517 Q276 514 290 505 Q304 495 311.5 474.5 Q319 454 317 424 L317 370 L265 370 L265 391 Q265 429 259 444 Q253 459 234 459 Q216 459 210.5 444 Q205 429 205 391 L205 178 Q205 138 210.5 123 Q216 108 234 108 Q252 108 258.5 124 Q265 140 265 178 L265 197 L317 197 L317 136 Z " />
<glyph glyph-name="yen" unicode="&#xa5;" horiz-adv-x="363" d="M351 640 L263 289 L327 289 L327 222 L245 222 L233 178 L233 154 L327 154 L327 86 L233 86 L233 -70 L133 -70 L133 86 L40 86 L40 154 L133 154 L133 178 L122 222 L40 222 L40 289 L104 289 L15 640 L115 640 L183 289 L251 640 L351 640 L351 640 Z " />
<glyph glyph-name="section" unicode="&#xa7;" horiz-adv-x="395" d="M294 95 Q329 49 329 -13 Q329 -76 298 -114 Q268 -152 202 -152 Q73 -152 73 -16 L73 14 L160 14 L160 -16 Q160 -62 172 -78 Q182 -94 202 -94 Q245 -94 245 -15 Q245 8 237 28.5 Q229 49 215 64 Q201 78 183.5 94.5 Q166 111 148 125 Q130 140 112.5 158.5 Q95 177 81 197 Q67 217 58.5 245.5 Q50 274 50 307 Q50 403 115 459 Q73 523 73 573 Q73 634 103 672 Q132 710 200 710 Q267 710 298 674 Q329 638 329 574 L329 545 L242 545 L242 574 Q242 654 200 654 Q181 654 168.5 633.5 Q156 613 156 574 Q156 550 164.5 531 Q173 512 187 495.5 Q201 479 218.5 463.5 Q236 448 254 432 Q291 401 321 357 Q335 337 343 308 Q351 279 351 247 Q351 193 334 155.5 Q317 118 294 95 Z M135 306 Q135 278 147 254 Q157 230 172 215 L205 182 Q223 167 230 156 Q266 189 266 253 Q266 279 255 306 Q248 318 241.5 328 Q235 338 228 345 L196 378 Q186 387 180 393.5 Q174 400 170 404 Q135 369 135 306 Z " />
<glyph glyph-name="brokenbar" unicode="&#xa6;" horiz-adv-x="194" d="M56 353 L56 700 L139 700 L139 353 L56 353 L56 353 Z M56 -131 L56 216 L139 216 L139 -131 L56 -131 L56 -131 Z " />
<glyph glyph-name="Scaron" unicode="&#x160;" horiz-adv-x="387" d="M44 46 L44 177 L139 177 L139 61 Q139 19 153.5 3.5 Q168 -12 195 -12 Q220 -12 234 3.5 Q248 19 248 61 L248 169 Q248 205 234 221 Q221 235 191 248 Q186 250 179.5 252 Q173 254 163 257 Q154 260 146.5 262 Q139 264 134 266 Q123 270 107 277 Q91 284 82 293 Q67 307 55 329 Q43 351 44 386 L44 520 Q44 588 81 616.5 Q118 645 193 645 Q267 645 304.5 616.5 Q342 588 342 520 L342 392 L248 392 L248 508 Q248 547 233.5 562.5 Q219 578 193 578 Q139 578 139 508 L139 409 Q139 381 148 363.5 Q157 346 168 339 Q178 333 195 327 Q204 322 223 318 Q232 316 239 314 Q246 312 251 310 Q259 307 274 301 Q289 295 297 290 Q305 284 315 274 Q325 264 330 252 Q335 240 338.5 223.5 Q342 207 342 187 L342 46 Q342 -22 305 -50.5 Q268 -79 195 -79 Q120 -79 82 -50.5 Q44 -22 44 46 Z M216 785 L272 785 L227 700 L163 700 L119 785 L176 785 L196 725 L216 785 L216 785 Z " />
<glyph glyph-name="scaron" unicode="&#x161;" horiz-adv-x="386" d="M336 254 L237 253 L237 316 Q237 379 193 379 Q151 379 150 316 L150 283 Q150 248 166 234 Q182 220 209 215 Q221 213 230 211.5 Q239 210 246 208 Q255 207 278 197 Q298 190 309 176 Q320 164 328 142 Q336 120 336 91 L336 53 Q336 -13 302.5 -44 Q269 -75 194 -75 Q118 -75 84 -45.5 Q50 -16 50 50 L50 118 L150 118 L150 55 Q150 19 161 6 Q172 -7 194 -7 Q216 -7 226.5 6 Q237 19 237 55 L237 91 Q237 128 222 142 Q207 157 178 161 Q167 163 158.5 164.5 Q150 166 142.5 168.5 Q135 171 127 174 Q119 177 109 182 Q89 190 79 203 Q67 214 58.5 235.5 Q50 257 50 286 L50 322 Q50 447 193 447 Q338 447 336 322 L336 254 Z M215 585 L271 585 L226 500 L162 500 L118 585 L175 585 L195 525 L215 585 L215 585 Z " />
<glyph glyph-name="quotedblright" unicode="&#x201d;" horiz-adv-x="280" d="M39 640 L116 640 L74 442 L48 463 L39 640 Z M145 640 L223 640 L180 442 L155 463 L145 640 Z " />
<glyph glyph-name="quotedblleft" unicode="&#x201c;" horiz-adv-x="294" d="M233 443 L155 443 L198 640 L224 619 L233 443 Z M126 443 L49 443 L92 640 L117 619 L126 443 Z " />
<glyph glyph-name="quoteleft" unicode="&#x2018;" horiz-adv-x="219" d="M140 443 L63 443 L105 640 L130 619 L140 443 L140 443 Z " />
<glyph glyph-name="quoteright" unicode="&#x2019;" horiz-adv-x="167" d="M42 640 L119 640 L77 442 L52 463 L42 640 L42 640 Z " />
<glyph glyph-name="quotedblbase" unicode="&#x201e;" horiz-adv-x="277" d="M54 0 L131 0 L89 -198 L63 -177 L54 0 Z M160 0 L238 0 L195 -198 L170 -177 L160 0 Z " />
<glyph glyph-name="quotesinglbase" unicode="&#x201a;" horiz-adv-x="167" d="M46 0 L123 0 L81 -198 L56 -177 L46 0 L46 0 Z " />
<glyph glyph-name="bullet" unicode="&#x2022;" horiz-adv-x="202" d="M50 209 L50 301 L152 301 L152 209 L50 209 L50 209 Z " />
<glyph glyph-name="dieresis" unicode="&#xa8;" horiz-adv-x="269" d="M115 500 L56 500 L56 563 L115 563 L115 500 L115 500 Z M217 500 L157 500 L157 563 L217 563 L217 500 L217 500 Z " />
<glyph glyph-name="registered" unicode="&#xae;" horiz-adv-x="474" d="M50 124 L50 443 Q50 527 91 584 Q111 613 147.5 629 Q184 645 233 645 Q286 645 323.5 629 Q361 613 383 584 Q424 527 424 443 L424 124 Q424 25 376.5 -26.5 Q329 -78 233 -78 Q142 -78 96 -26.5 Q50 25 50 124 Z M332 24 Q346 46 351 70.5 Q356 95 356 128 L356 436 Q356 469 351 495 Q346 521 332 543 Q306 588 233 588 Q113 587 112 436 L112 131 Q112 97 117.5 71 Q123 45 136 23 Q164 -21 233 -21 Q306 -21 332 24 Z M169 61 L169 510 L249 510 Q284 510 297.5 485 Q311 460 311 410 Q311 388 310 374 Q309 360 306 343 Q302 309 275 300 Q296 295 302.5 278.5 Q309 262 309 232 L309 61 L261 61 L261 217 Q261 246 255 255.5 Q249 265 235 265 L220 265 L220 61 L169 61 Z M220 320 L237 320 Q254 320 258 339.5 Q262 359 262 399 Q262 432 257 447 Q252 462 238 462 L220 462 L220 320 Z " />
<glyph glyph-name="cedilla" unicode="&#xb8;" horiz-adv-x="196" d="M91 -112 Q105 -105 121 -104.5 Q137 -104 150 -114 Q163 -123 163 -142 Q163 -164 149.5 -179 Q136 -194 116 -199 Q96 -204 73.5 -205.5 Q51 -207 31 -202 L43 -163 Q50 -165 64.5 -166 Q79 -167 94 -162 Q110 -156 110 -144 Q111 -132 102.5 -129.5 Q94 -127 83 -138 L53 -131 L65 -70 L105 -70 L91 -112 Z " />
<glyph glyph-name="multiply" unicode="&#xd7;" horiz-adv-x="315" d="M262 244 L214 197 L158 252 L101 197 L53 244 L109 300 L53 356 L102 404 L158 348 L214 404 L261 356 L205 300 L262 244 L262 244 Z " />
<glyph glyph-name="questiondown" unicode="&#xbf;" horiz-adv-x="350" d="M229 487 Q229 447 227.5 415.5 Q226 384 224 361 Q221 337 215.5 315.5 Q210 294 202 275 Q200 272 195 261.5 Q190 251 180 234 Q160 199 154 170 Q150 155 148 137 Q146 119 146 96 Q146 33 155 12 Q166 -8 188 -8 Q210 -8 220 12 Q229 33 229 96 L229 140 L329 140 L329 96 Q329 49 323.5 19.5 Q318 -10 303 -33 Q287 -56 259 -65.5 Q231 -75 187 -75 Q142 -75 114 -65.5 Q86 -56 72 -33 Q57 -10 51.5 18.5 Q46 47 46 95 Q46 120 49 143.5 Q52 167 56 182 Q59 196 68 216 Q73 234 79 243 Q81 247 84 253 Q87 259 92 267 Q97 275 99 280 Q101 285 103 287 Q120 320 125 361 Q127 381 128 412 Q129 443 129 487 L229 487 Z M231 640 L231 547 L128 547 L128 640 L231 640 Z " />
<glyph glyph-name="paragraph" unicode="&#xb6;" horiz-adv-x="385" d="M339 712 L339 -79 L272 -79 L272 644 L227 644 L227 -79 L160 -79 L160 339 L156 339 Q91 339 56.5 387.5 Q22 436 22 527 Q22 615 56 663.5 Q90 712 156 712 L339 712 Z " />
<glyph glyph-name="cent" unicode="&#xa2;" horiz-adv-x="387" d="M337 300 L237 300 L237 357 Q237 397 227.5 413 Q218 429 195 429 Q171 429 160.5 412.5 Q150 396 150 355 L150 116 Q150 75 160.5 59 Q171 43 195 43 Q218 43 227.5 59 Q237 75 237 115 L237 170 L337 170 L337 105 Q337 44 311 12.5 Q285 -19 224 -24 L224 -72 L163 -72 L163 -24 Q103 -19 76.5 12 Q50 43 50 105 L50 366 Q50 427 76.5 458 Q103 489 163 496 L163 548 L224 548 L224 496 Q285 491 311 460 Q337 429 337 366 L337 300 Z " />
<glyph glyph-name="degree" unicode="&#xb0;" horiz-adv-x="198" d="M48 514 Q27 536 27 567 Q27 596 48 619 Q69 640 100 640 Q130 640 151 619 Q172 596 172 567 Q172 536 151 514 Q130 493 100 493 Q69 493 48 514 Z M127 566 Q127 579 119 587 Q111 595 100 595 Q87 595 79 586.5 Q71 578 71 566 Q71 554 79.5 545.5 Q88 537 100 537 Q112 537 119.5 545.5 Q127 554 127 566 Z " />
<glyph glyph-name="acute" unicode="&#xb4;" horiz-adv-x="187" d="M39 500 L81 585 L151 585 L87 500 L39 500 L39 500 Z " />
<glyph glyph-name="plusminus" unicode="&#xb1;" horiz-adv-x="309" d="M259 233 L188 233 L188 133 L121 133 L121 233 L50 233 L50 300 L121 300 L121 399 L188 399 L188 300 L259 300 L259 233 L259 233 Z M63 2 L63 70 L244 70 L244 2 L63 2 L63 2 Z " />
<glyph glyph-name="Ydieresis" unicode="&#x178;" horiz-adv-x="363" d="M249 640 L349 640 L232 178 L232 -70 L131 -70 L131 178 L14 640 L113 640 L182 289 L249 640 L249 640 Z M160 700 L101 700 L101 763 L160 763 L160 700 L160 700 Z M262 700 L202 700 L202 763 L262 763 L262 700 L262 700 Z " />
<glyph glyph-name="Agrave" unicode="&#xc0;" horiz-adv-x="404" d="M319 618 Q354 589 354 521 L354 -70 L250 -70 L251 265 L154 265 L154 -70 L50 -70 L50 521 Q50 589 86 618 Q120 645 202 645 Q283 645 319 618 Z M251 333 L251 515 Q251 578 202 578 Q154 578 154 515 L154 333 L251 333 Z M257 701 L209 701 L146 786 L215 786 L257 701 L257 701 Z " />
<glyph glyph-name="Aacute" unicode="&#xc1;" horiz-adv-x="404" d="M319 618 Q354 589 354 521 L354 -70 L250 -70 L251 265 L154 265 L154 -70 L50 -70 L50 521 Q50 589 86 618 Q120 645 202 645 Q283 645 319 618 Z M251 333 L251 515 Q251 578 202 578 Q154 578 154 515 L154 333 L251 333 Z M146 700 L188 785 L258 785 L194 700 L146 700 L146 700 Z " />
<glyph glyph-name="Acircumflex" unicode="&#xc2;" horiz-adv-x="404" d="M319 618 Q354 589 354 521 L354 -70 L250 -70 L251 265 L154 265 L154 -70 L50 -70 L50 521 Q50 589 86 618 Q120 645 202 645 Q283 645 319 618 Z M251 333 L251 515 Q251 578 202 578 Q154 578 154 515 L154 333 L251 333 Z M235 785 L280 700 L223 700 L203 759 L184 700 L126 700 L171 785 L235 785 L235 785 Z " />
<glyph glyph-name="Atilde" unicode="&#xc3;" horiz-adv-x="404" d="M319 618 Q354 589 354 521 L354 -70 L250 -70 L251 265 L154 265 L154 -70 L50 -70 L50 521 Q50 589 86 618 Q120 645 202 645 Q283 645 319 618 Z M251 333 L251 515 Q251 578 202 578 Q154 578 154 515 L154 333 L251 333 Z M293 789 Q293 778 282 742 Q277 725 265 712.5 Q253 700 239 700 Q221 700 206 715 Q190 731 183 731 Q175 731 170 723.5 Q165 716 163 710 L162 703 L111 703 Q112 707 113 712.5 Q114 718 118 733 Q123 750 128 760 Q134 771 144 780.5 Q154 790 168 790 Q183 790 200 775 Q215 760 223 760 Q230 760 234.5 767 Q239 774 241 782 L242 789 L293 789 Z " />
<glyph glyph-name="Adieresis" unicode="&#xc4;" horiz-adv-x="404" d="M319 618 Q354 589 354 521 L354 -70 L250 -70 L251 265 L154 265 L154 -70 L50 -70 L50 521 Q50 589 86 618 Q120 645 202 645 Q283 645 319 618 Z M251 333 L251 515 Q251 578 202 578 Q154 578 154 515 L154 333 L251 333 Z M180 700 L121 700 L121 763 L180 763 L180 700 L180 700 Z M282 700 L222 700 L222 763 L282 763 L282 700 L282 700 Z " />
<glyph glyph-name="Aring" unicode="&#xc5;" horiz-adv-x="404" d="M319 618 Q354 589 354 521 L354 -70 L250 -70 L251 265 L154 265 L154 -70 L50 -70 L50 521 Q50 589 86 618 Q120 645 202 645 Q283 645 319 618 Z M251 333 L251 515 Q251 578 202 578 Q154 578 154 515 L154 333 L251 333 Z M202 689 Q176 689 159 707 Q142 725 142 750 Q142 776 160.5 793 Q179 810 202 810 Q228 810 244.5 791.5 Q261 773 261 750 Q261 724 243 706.5 Q225 689 202 689 Z M222 750 Q222 760 215.5 765.5 Q209 771 201.5 771 Q194 771 187.5 766 Q181 761 181 750 Q181 739 187.5 734 Q194 729 201.5 729 Q209 729 215.5 734 Q222 739 222 750 Z " />
<glyph glyph-name="Ccedilla" unicode="&#xc7;" horiz-adv-x="383" d="M353 392 L250 392 L250 515 Q250 577 201 578 Q153 578 153 515 L153 51 Q153 -10 200 -12 Q250 -12 250 51 L250 177 L353 177 L353 46 Q353 -23 318 -52 Q283 -79 200 -79 Q118 -79 84 -51 Q50 -23 50 46 L50 520 Q50 591 85 617 Q119 645 201 645 Q283 645 318 617 Q353 588 353 520 L353 392 Z M185 -112 Q199 -105 215 -104.5 Q231 -104 244 -114 Q257 -123 257 -142 Q257 -164 243.5 -179 Q230 -194 210 -199 Q190 -204 167.5 -205.5 Q145 -207 125 -202 L137 -163 Q144 -165 158.5 -166 Q173 -167 188 -162 Q204 -156 204 -144 Q205 -132 196.5 -129.5 Q188 -127 177 -138 L147 -131 L159 -70 L199 -70 L185 -112 Z " />
<glyph glyph-name="Egrave" unicode="&#xc8;" horiz-adv-x="320" d="M150 572 L150 317 L265 317 L265 248 L150 248 L150 -3 L292 -3 L292 -70 L50 -70 L50 640 L292 640 L292 572 L150 572 L150 572 Z M215 701 L167 701 L104 786 L173 786 L215 701 L215 701 Z " />
<glyph glyph-name="Eacute" unicode="&#xc9;" horiz-adv-x="320" d="M150 572 L150 317 L265 317 L265 248 L150 248 L150 -3 L292 -3 L292 -70 L50 -70 L50 640 L292 640 L292 572 L150 572 L150 572 Z M104 700 L146 785 L216 785 L152 700 L104 700 L104 700 Z " />
<glyph glyph-name="Ecircumflex" unicode="&#xca;" horiz-adv-x="320" d="M150 572 L150 317 L265 317 L265 248 L150 248 L150 -3 L292 -3 L292 -70 L50 -70 L50 640 L292 640 L292 572 L150 572 L150 572 Z M193 785 L238 700 L181 700 L161 759 L142 700 L84 700 L129 785 L193 785 L193 785 Z " />
<glyph glyph-name="Edieresis" unicode="&#xcb;" horiz-adv-x="320" d="M150 572 L150 317 L265 317 L265 248 L150 248 L150 -3 L292 -3 L292 -70 L50 -70 L50 640 L292 640 L292 572 L150 572 L150 572 Z M138 700 L79 700 L79 763 L138 763 L138 700 L138 700 Z M240 700 L180 700 L180 763 L240 763 L240 700 L240 700 Z " />
<glyph glyph-name="Igrave" unicode="&#xcc;" horiz-adv-x="220" d="M160 572 L160 -2 L185 -2 L185 -70 L35 -70 L35 -2 L60 -2 L60 572 L35 572 L35 640 L185 640 L185 572 L160 572 L160 572 Z M165 701 L117 701 L54 786 L123 786 L165 701 L165 701 Z " />
<glyph glyph-name="Iacute" unicode="&#xcd;" horiz-adv-x="220" d="M160 572 L160 -2 L185 -2 L185 -70 L35 -70 L35 -2 L60 -2 L60 572 L35 572 L35 640 L185 640 L185 572 L160 572 L160 572 Z M54 700 L96 785 L166 785 L102 700 L54 700 L54 700 Z " />
<glyph glyph-name="Icircumflex" unicode="&#xce;" horiz-adv-x="220" d="M160 572 L160 -2 L185 -2 L185 -70 L35 -70 L35 -2 L60 -2 L60 572 L35 572 L35 640 L185 640 L185 572 L160 572 L160 572 Z M143 785 L188 700 L131 700 L111 759 L92 700 L34 700 L79 785 L143 785 L143 785 Z " />
<glyph glyph-name="Idieresis" unicode="&#xcf;" horiz-adv-x="220" d="M160 572 L160 -2 L185 -2 L185 -70 L35 -70 L35 -2 L60 -2 L60 572 L35 572 L35 640 L185 640 L185 572 L160 572 L160 572 Z M89 700 L30 700 L30 763 L89 763 L89 700 L89 700 Z M191 700 L131 700 L131 763 L191 763 L191 700 L191 700 Z " />
<glyph glyph-name="Eth" unicode="&#xd0;" horiz-adv-x="402" d="M233 640 Q289 640 321 611 Q352 580 352 507 L352 64 Q352 -13 321 -41 Q292 -70 233 -70 L52 -70 L52 248 L25 248 L25 317 L52 317 L52 640 L233 640 Z M250 473 Q250 520 245 540 Q240 560 229 566 Q217 572 189 572 L152 572 L152 317 L192 317 L192 248 L152 248 L152 -2 L188 -2 Q218 -2 228 3 Q241 9 245 30 Q248 41 249 57.5 Q250 74 250 97 L250 473 Z " />
<glyph glyph-name="Oslash" unicode="&#xd8;" horiz-adv-x="409" d="M379 638 L352 574 Q359 553 359 520 L359 46 Q359 -24 324 -51 Q289 -79 204 -79 Q123 -79 89 -54 L82 -71 L35 -71 L59 -14 Q51 11 50 46 L50 520 Q50 589 86 618 Q122 645 204 645 Q287 645 323 618 L332 638 L379 638 Z M151 205 L259 464 L259 494 Q259 540 247.5 559 Q236 578 205 578 Q174 578 162.5 559.5 Q151 541 151 494 L151 205 Z M259 352 L151 93 L151 74 Q151 28 162.5 8 Q174 -12 205 -12 Q236 -12 247.5 7.5 Q259 27 259 74 L259 352 Z " />
<glyph glyph-name="oslash" unicode="&#xf8;" horiz-adv-x="387" d="M316 403 Q337 373 337 316 L337 55 Q337 -13 305 -44 Q274 -75 195 -75 Q140 -75 109 -60 L105 -70 L59 -70 L75 -35 Q50 -4 50 55 L50 316 Q50 385 84 416 Q116 447 195 447 Q251 447 283 430 L288 441 L333 441 L316 403 Z M150 133 L237 327 Q234 379 195 379 Q150 379 150 316 L150 133 Z M237 228 L152 36 Q158 -7 195 -7 Q217 -7 227 8.5 Q237 24 237 61 L237 228 Z " />
<glyph glyph-name="Thorn" unicode="&#xde;" horiz-adv-x="400" d="M350 223 Q350 155 328 117 Q305 81 248 81 L150 81 L150 -70 L50 -70 L50 640 L150 640 L150 480 L248 480 Q306 480 330 439 Q350 400 350 339 L350 223 Z M250 311 Q250 368 238 390 Q226 412 198 412 L151 412 L151 149 L198 149 Q227 149 237 171 Q248 193 250 250 L250 311 Z " />
<glyph glyph-name="thorn" unicode="&#xfe;" horiz-adv-x="393" d="M343 321 L343 44 Q343 -21 315.5 -48 Q288 -75 235 -75 Q178 -75 150 -35 L150 -233 L50 -233 L50 667 L150 667 L150 409 Q179 447 236 447 Q343 447 343 321 Z M243 306 Q243 344 233.5 361.5 Q224 379 201 379 Q178 379 164 357 Q150 335 150 294 L150 76 Q150 35 164.5 14 Q179 -7 202 -7 Q225 -7 234 8.5 Q243 24 243 62 L243 306 Z " />
<glyph glyph-name="Ntilde" unicode="&#xd1;" horiz-adv-x="422" d="M149 -70 L50 -70 L50 640 L141 640 L272 185 L272 640 L372 640 L372 -70 L278 -70 L149 386 L149 -70 L149 -70 Z M302 789 Q302 778 291 742 Q286 725 274 712.5 Q262 700 248 700 Q230 700 215 715 Q199 731 192 731 Q184 731 179 723.5 Q174 716 172 710 L171 703 L120 703 Q121 707 122 712.5 Q123 718 127 733 Q132 750 137 760 Q143 771 153 780.5 Q163 790 177 790 Q192 790 209 775 Q224 760 232 760 Q239 760 243.5 767 Q248 774 250 782 L251 789 L302 789 Z " />
<glyph glyph-name="Ograve" unicode="&#xd2;" horiz-adv-x="409" d="M323 617 Q359 588 359 520 L359 46 Q359 -24 323 -52 Q287 -79 203 -79 Q120 -79 85 -51 Q50 -22 50 46 L50 520 Q50 590 85 617 Q120 645 203 645 Q288 645 323 617 Z M258 494 Q258 540 246.5 559 Q235 578 204 578 Q174 578 162 559 Q150 540 150 494 L150 74 Q150 28 162 8 Q174 -12 204 -12 Q235 -12 246.5 7.5 Q258 27 258 74 L258 494 Z M260 701 L212 701 L149 786 L218 786 L260 701 L260 701 Z " />
<glyph glyph-name="Oacute" unicode="&#xd3;" horiz-adv-x="409" d="M323 617 Q359 588 359 520 L359 46 Q359 -24 323 -52 Q287 -79 203 -79 Q120 -79 85 -51 Q50 -22 50 46 L50 520 Q50 590 85 617 Q120 645 203 645 Q288 645 323 617 Z M258 494 Q258 540 246.5 559 Q235 578 204 578 Q174 578 162 559 Q150 540 150 494 L150 74 Q150 28 162 8 Q174 -12 204 -12 Q235 -12 246.5 7.5 Q258 27 258 74 L258 494 Z M148 700 L190 785 L260 785 L196 700 L148 700 L148 700 Z " />
<glyph glyph-name="Ocircumflex" unicode="&#xd4;" horiz-adv-x="409" d="M323 617 Q359 588 359 520 L359 46 Q359 -24 323 -52 Q287 -79 203 -79 Q120 -79 85 -51 Q50 -22 50 46 L50 520 Q50 590 85 617 Q120 645 203 645 Q288 645 323 617 Z M258 494 Q258 540 246.5 559 Q235 578 204 578 Q174 578 162 559 Q150 540 150 494 L150 74 Q150 28 162 8 Q174 -12 204 -12 Q235 -12 246.5 7.5 Q258 27 258 74 L258 494 Z M237 785 L282 700 L225 700 L205 759 L186 700 L128 700 L173 785 L237 785 L237 785 Z " />
<glyph glyph-name="Otilde" unicode="&#xd5;" horiz-adv-x="409" d="M323 617 Q359 588 359 520 L359 46 Q359 -24 323 -52 Q287 -79 203 -79 Q120 -79 85 -51 Q50 -22 50 46 L50 520 Q50 590 85 617 Q120 645 203 645 Q288 645 323 617 Z M258 494 Q258 540 246.5 559 Q235 578 204 578 Q174 578 162 559 Q150 540 150 494 L150 74 Q150 28 162 8 Q174 -12 204 -12 Q235 -12 246.5 7.5 Q258 27 258 74 L258 494 Z M295 789 Q295 778 284 742 Q279 725 267 712.5 Q255 700 241 700 Q223 700 208 715 Q192 731 185 731 Q177 731 172 723.5 Q167 716 165 710 L164 703 L113 703 Q114 707 115 712.5 Q116 718 120 733 Q125 750 130 760 Q136 771 146 780.5 Q156 790 170 790 Q185 790 202 775 Q217 760 225 760 Q232 760 236.5 767 Q241 774 243 782 L244 789 L295 789 Z " />
<glyph glyph-name="Odieresis" unicode="&#xd6;" horiz-adv-x="409" d="M323 617 Q359 588 359 520 L359 46 Q359 -24 323 -52 Q287 -79 203 -79 Q120 -79 85 -51 Q50 -22 50 46 L50 520 Q50 590 85 617 Q120 645 203 645 Q288 645 323 617 Z M258 494 Q258 540 246.5 559 Q235 578 204 578 Q174 578 162 559 Q150 540 150 494 L150 74 Q150 28 162 8 Q174 -12 204 -12 Q235 -12 246.5 7.5 Q258 27 258 74 L258 494 Z M183 700 L124 700 L124 763 L183 763 L183 700 L183 700 Z M285 700 L225 700 L225 763 L285 763 L285 700 L285 700 Z " />
<glyph glyph-name="Ugrave" unicode="&#xd9;" horiz-adv-x="409" d="M86 -51 Q50 -23 50 46 L50 640 L150 640 L150 74 Q150 28 162 8 Q174 -12 205 -12 Q235 -12 247 7.5 Q259 27 259 74 L259 640 L359 640 L359 46 Q359 -24 323 -52 Q287 -79 203 -79 Q120 -79 86 -51 Z M260 701 L212 701 L149 786 L218 786 L260 701 L260 701 Z " />
<glyph glyph-name="Uacute" unicode="&#xda;" horiz-adv-x="409" d="M86 -51 Q50 -23 50 46 L50 640 L150 640 L150 74 Q150 28 162 8 Q174 -12 205 -12 Q235 -12 247 7.5 Q259 27 259 74 L259 640 L359 640 L359 46 Q359 -24 323 -52 Q287 -79 203 -79 Q120 -79 86 -51 Z M148 700 L190 785 L260 785 L196 700 L148 700 L148 700 Z " />
<glyph glyph-name="Ucircumflex" unicode="&#xdb;" horiz-adv-x="409" d="M86 -51 Q50 -23 50 46 L50 640 L150 640 L150 74 Q150 28 162 8 Q174 -12 205 -12 Q235 -12 247 7.5 Q259 27 259 74 L259 640 L359 640 L359 46 Q359 -24 323 -52 Q287 -79 203 -79 Q120 -79 86 -51 Z M237 785 L282 700 L225 700 L205 759 L186 700 L128 700 L173 785 L237 785 L237 785 Z " />
<glyph glyph-name="Udieresis" unicode="&#xdc;" horiz-adv-x="409" d="M86 -51 Q50 -23 50 46 L50 640 L150 640 L150 74 Q150 28 162 8 Q174 -12 205 -12 Q235 -12 247 7.5 Q259 27 259 74 L259 640 L359 640 L359 46 Q359 -24 323 -52 Q287 -79 203 -79 Q120 -79 86 -51 Z M183 700 L124 700 L124 763 L183 763 L183 700 L183 700 Z M285 700 L225 700 L225 763 L285 763 L285 700 L285 700 Z " />
<glyph glyph-name="Yacute" unicode="&#xdd;" horiz-adv-x="363" d="M249 640 L349 640 L232 178 L232 -70 L131 -70 L131 178 L14 640 L113 640 L182 289 L249 640 L249 640 Z M125 700 L167 785 L237 785 L173 700 L125 700 L125 700 Z " />
<glyph glyph-name="agrave" unicode="&#xe0;" horiz-adv-x="388" d="M307 416 Q322 400 330 375.5 Q338 351 338 316 L338 -70 L262 -70 L250 -36 Q221 -75 166 -75 Q107 -75 76 -51 Q45 -26 45 34 L45 106 Q46 141 67 169 Q84 193 124 213 Q164 233 238 233 L238 311 Q238 347 229 363 Q220 379 198 379 Q152 379 152 313 L152 257 L50 257 L50 316 Q50 385 86.5 416 Q123 447 198 447 Q276 447 307 416 Z M238 174 L230 174 Q226 174 221 173.5 Q216 173 211 172 Q201 170 189.5 168 Q178 166 168 159 Q158 152 151.5 139.5 Q145 127 145 106 L145 95 L145 51 Q145 18 154.5 4 Q164 -10 188 -10 Q211 -10 224.5 12 Q238 34 238 69 L238 174 Z M249 501 L201 501 L138 586 L207 586 L249 501 L249 501 Z " />
<glyph glyph-name="aacute" unicode="&#xe1;" horiz-adv-x="388" d="M307 416 Q322 400 330 375.5 Q338 351 338 316 L338 -70 L262 -70 L250 -36 Q221 -75 166 -75 Q107 -75 76 -51 Q45 -26 45 34 L45 106 Q46 141 67 169 Q84 193 124 213 Q164 233 238 233 L238 311 Q238 347 229 363 Q220 379 198 379 Q152 379 152 313 L152 257 L50 257 L50 316 Q50 385 86.5 416 Q123 447 198 447 Q276 447 307 416 Z M238 174 L230 174 Q226 174 221 173.5 Q216 173 211 172 Q201 170 189.5 168 Q178 166 168 159 Q158 152 151.5 139.5 Q145 127 145 106 L145 95 L145 51 Q145 18 154.5 4 Q164 -10 188 -10 Q211 -10 224.5 12 Q238 34 238 69 L238 174 Z M138 500 L180 585 L250 585 L186 500 L138 500 L138 500 Z " />
<glyph glyph-name="acircumflex" unicode="&#xe2;" horiz-adv-x="388" d="M307 416 Q322 400 330 375.5 Q338 351 338 316 L338 -70 L262 -70 L250 -36 Q221 -75 166 -75 Q107 -75 76 -51 Q45 -26 45 34 L45 106 Q46 141 67 169 Q84 193 124 213 Q164 233 238 233 L238 311 Q238 347 229 363 Q220 379 198 379 Q152 379 152 313 L152 257 L50 257 L50 316 Q50 385 86.5 416 Q123 447 198 447 Q276 447 307 416 Z M238 174 L230 174 Q226 174 221 173.5 Q216 173 211 172 Q201 170 189.5 168 Q178 166 168 159 Q158 152 151.5 139.5 Q145 127 145 106 L145 95 L145 51 Q145 18 154.5 4 Q164 -10 188 -10 Q211 -10 224.5 12 Q238 34 238 69 L238 174 Z M227 585 L272 500 L215 500 L195 559 L176 500 L118 500 L163 585 L227 585 L227 585 Z " />
<glyph glyph-name="atilde" unicode="&#xe3;" horiz-adv-x="388" d="M307 416 Q322 400 330 375.5 Q338 351 338 316 L338 -70 L262 -70 L250 -36 Q221 -75 166 -75 Q107 -75 76 -51 Q45 -26 45 34 L45 106 Q46 141 67 169 Q84 193 124 213 Q164 233 238 233 L238 311 Q238 347 229 363 Q220 379 198 379 Q152 379 152 313 L152 257 L50 257 L50 316 Q50 385 86.5 416 Q123 447 198 447 Q276 447 307 416 Z M238 174 L230 174 Q226 174 221 173.5 Q216 173 211 172 Q201 170 189.5 168 Q178 166 168 159 Q158 152 151.5 139.5 Q145 127 145 106 L145 95 L145 51 Q145 18 154.5 4 Q164 -10 188 -10 Q211 -10 224.5 12 Q238 34 238 69 L238 174 Z M285 589 Q285 578 274 542 Q269 525 257 512.5 Q245 500 231 500 Q213 500 198 515 Q182 531 175 531 Q167 531 162 523.5 Q157 516 155 510 L154 503 L103 503 Q104 507 105 512.5 Q106 518 110 533 Q115 550 120 560 Q126 571 136 580.5 Q146 590 160 590 Q175 590 192 575 Q207 560 215 560 Q222 560 226.5 567 Q231 574 233 582 L234 589 L285 589 Z " />
<glyph glyph-name="adieresis" unicode="&#xe4;" horiz-adv-x="388" d="M307 416 Q322 400 330 375.5 Q338 351 338 316 L338 -70 L262 -70 L250 -36 Q221 -75 166 -75 Q107 -75 76 -51 Q45 -26 45 34 L45 106 Q46 141 67 169 Q84 193 124 213 Q164 233 238 233 L238 311 Q238 347 229 363 Q220 379 198 379 Q152 379 152 313 L152 257 L50 257 L50 316 Q50 385 86.5 416 Q123 447 198 447 Q276 447 307 416 Z M238 174 L230 174 Q226 174 221 173.5 Q216 173 211 172 Q201 170 189.5 168 Q178 166 168 159 Q158 152 151.5 139.5 Q145 127 145 106 L145 95 L145 51 Q145 18 154.5 4 Q164 -10 188 -10 Q211 -10 224.5 12 Q238 34 238 69 L238 174 Z M172 500 L113 500 L113 563 L172 563 L172 500 L172 500 Z M274 500 L214 500 L214 563 L274 563 L274 500 L274 500 Z " />
<glyph glyph-name="aring" unicode="&#xe5;" horiz-adv-x="388" d="M307 416 Q322 400 330 375.5 Q338 351 338 316 L338 -70 L262 -70 L250 -36 Q221 -75 166 -75 Q107 -75 76 -51 Q45 -26 45 34 L45 106 Q46 141 67 169 Q84 193 124 213 Q164 233 238 233 L238 311 Q238 347 229 363 Q220 379 198 379 Q152 379 152 313 L152 257 L50 257 L50 316 Q50 385 86.5 416 Q123 447 198 447 Q276 447 307 416 Z M238 174 L230 174 Q226 174 221 173.5 Q216 173 211 172 Q201 170 189.5 168 Q178 166 168 159 Q158 152 151.5 139.5 Q145 127 145 106 L145 95 L145 51 Q145 18 154.5 4 Q164 -10 188 -10 Q211 -10 224.5 12 Q238 34 238 69 L238 174 Z M194 489 Q168 489 151 507 Q134 525 134 550 Q134 576 152.5 593 Q171 610 194 610 Q220 610 236.5 591.5 Q253 573 253 550 Q253 524 235 506.5 Q217 489 194 489 Z M214 550 Q214 560 207.5 565.5 Q201 571 193.5 571 Q186 571 179.5 566 Q173 561 173 550 Q173 539 179.5 534 Q186 529 193.5 529 Q201 529 207.5 534 Q214 539 214 550 Z " />
<glyph glyph-name="ccedilla" unicode="&#xe7;" horiz-adv-x="387" d="M337 251 L237 251 L237 307 Q237 347 227.5 363 Q218 379 194 379 Q171 379 160.5 362.5 Q150 346 150 306 L150 67 Q150 26 160.5 9.5 Q171 -7 194 -7 Q218 -7 227.5 9 Q237 25 237 65 L237 121 L337 121 L337 55 Q337 -13 304 -44 Q272 -75 194 -75 Q116 -75 83 -44.5 Q50 -14 50 55 L50 316 Q50 385 83 416 Q116 447 194 447 Q271 447 304 416 Q337 385 337 316 L337 251 Z M187 -112 Q201 -105 217 -104.5 Q233 -104 246 -114 Q259 -123 259 -142 Q259 -164 245.5 -179 Q232 -194 212 -199 Q192 -204 169.5 -205.5 Q147 -207 127 -202 L139 -163 Q146 -165 160.5 -166 Q175 -167 190 -162 Q206 -156 206 -144 Q207 -132 198.5 -129.5 Q190 -127 179 -138 L149 -131 L161 -70 L201 -70 L187 -112 Z " />
<glyph glyph-name="egrave" unicode="&#xe8;" horiz-adv-x="386" d="M303 416 Q336 384 336 316 L336 176 L149 176 L149 67 Q149 26 159.5 9.5 Q170 -7 194 -7 Q217 -7 226.5 9 Q236 25 236 65 L236 121 L336 121 L336 55 Q336 -13 303 -44 Q271 -75 194 -75 Q115 -75 83 -44 Q50 -14 50 55 L50 316 Q50 386 83 416 Q115 447 194 447 Q269 447 303 416 Z M236 226 L236 307 Q236 347 226.5 363 Q217 379 194 379 Q170 379 159.5 362.5 Q149 346 149 306 L149 226 L236 226 Z M248 501 L200 501 L137 586 L206 586 L248 501 L248 501 Z " />
<glyph glyph-name="ecircumflex" unicode="&#xea;" horiz-adv-x="386" d="M303 416 Q336 384 336 316 L336 176 L149 176 L149 67 Q149 26 159.5 9.5 Q170 -7 194 -7 Q217 -7 226.5 9 Q236 25 236 65 L236 121 L336 121 L336 55 Q336 -13 303 -44 Q271 -75 194 -75 Q115 -75 83 -44 Q50 -14 50 55 L50 316 Q50 386 83 416 Q115 447 194 447 Q269 447 303 416 Z M236 226 L236 307 Q236 347 226.5 363 Q217 379 194 379 Q170 379 159.5 362.5 Q149 346 149 306 L149 226 L236 226 Z M226 585 L271 500 L214 500 L194 559 L175 500 L117 500 L162 585 L226 585 L226 585 Z " />
<glyph glyph-name="eacute" unicode="&#xe9;" horiz-adv-x="386" d="M303 416 Q336 384 336 316 L336 176 L149 176 L149 67 Q149 26 159.5 9.5 Q170 -7 194 -7 Q217 -7 226.5 9 Q236 25 236 65 L236 121 L336 121 L336 55 Q336 -13 303 -44 Q271 -75 194 -75 Q115 -75 83 -44 Q50 -14 50 55 L50 316 Q50 386 83 416 Q115 447 194 447 Q269 447 303 416 Z M236 226 L236 307 Q236 347 226.5 363 Q217 379 194 379 Q170 379 159.5 362.5 Q149 346 149 306 L149 226 L236 226 Z M137 500 L179 585 L249 585 L185 500 L137 500 L137 500 Z " />
<glyph glyph-name="edieresis" unicode="&#xeb;" horiz-adv-x="386" d="M303 416 Q336 384 336 316 L336 176 L149 176 L149 67 Q149 26 159.5 9.5 Q170 -7 194 -7 Q217 -7 226.5 9 Q236 25 236 65 L236 121 L336 121 L336 55 Q336 -13 303 -44 Q271 -75 194 -75 Q115 -75 83 -44 Q50 -14 50 55 L50 316 Q50 386 83 416 Q115 447 194 447 Q269 447 303 416 Z M236 226 L236 307 Q236 347 226.5 363 Q217 379 194 379 Q170 379 159.5 362.5 Q149 346 149 306 L149 226 L236 226 Z M171 500 L112 500 L112 563 L171 563 L171 500 L171 500 Z M273 500 L213 500 L213 563 L273 563 L273 500 L273 500 Z " />
<glyph glyph-name="igrave" unicode="&#xec;" horiz-adv-x="200" d="M50 -70 L50 441 L150 441 L150 -70 L50 -70 L50 -70 Z M155 501 L107 501 L44 586 L113 586 L155 501 L155 501 Z " />
<glyph glyph-name="iacute" unicode="&#xed;" horiz-adv-x="200" d="M50 -70 L50 441 L150 441 L150 -70 L50 -70 L50 -70 Z M44 500 L86 585 L156 585 L92 500 L44 500 L44 500 Z " />
<glyph glyph-name="icircumflex" unicode="&#xee;" horiz-adv-x="200" d="M50 -70 L50 441 L150 441 L150 -70 L50 -70 L50 -70 Z M133 585 L178 500 L121 500 L101 559 L82 500 L24 500 L69 585 L133 585 L133 585 Z " />
<glyph glyph-name="idieresis" unicode="&#xef;" horiz-adv-x="200" d="M50 -70 L50 441 L150 441 L150 -70 L50 -70 L50 -70 Z M79 500 L20 500 L20 563 L79 563 L79 500 L79 500 Z M181 500 L121 500 L121 563 L181 563 L181 500 L181 500 Z " />
<glyph glyph-name="ntilde" unicode="&#xf1;" horiz-adv-x="392" d="M342 321 L342 -70 L243 -70 L243 306 Q243 346 233.5 362.5 Q224 379 201 379 Q178 379 164 354 Q150 329 150 288 L150 -70 L50 -70 L50 441 L134 441 L145 395 Q172 447 235 447 Q343 447 342 321 Z M287 589 Q287 578 276 542 Q271 525 259 512.5 Q247 500 233 500 Q215 500 200 515 Q184 531 177 531 Q169 531 164 523.5 Q159 516 157 510 L156 503 L105 503 Q106 507 107 512.5 Q108 518 112 533 Q117 550 122 560 Q128 571 138 580.5 Q148 590 162 590 Q177 590 194 575 Q209 560 217 560 Q224 560 228.5 567 Q233 574 235 582 L236 589 L287 589 Z " />
<glyph glyph-name="ograve" unicode="&#xf2;" horiz-adv-x="387" d="M305 416 Q337 385 337 316 L337 55 Q337 -13 305 -44 Q274 -75 194 -75 Q116 -75 84 -44 Q50 -13 50 55 L50 316 Q50 385 84 416 Q116 447 194 447 Q274 447 305 416 Z M237 316 Q237 349 227 364 Q217 379 194 379 Q150 379 150 316 L150 62 Q150 24 160.5 8.5 Q171 -7 194 -7 Q217 -7 227 8.5 Q237 24 237 62 L237 316 Z M249 501 L201 501 L138 586 L207 586 L249 501 L249 501 Z " />
<glyph glyph-name="oacute" unicode="&#xf3;" horiz-adv-x="387" d="M305 416 Q337 385 337 316 L337 55 Q337 -13 305 -44 Q274 -75 194 -75 Q116 -75 84 -44 Q50 -13 50 55 L50 316 Q50 385 84 416 Q116 447 194 447 Q274 447 305 416 Z M237 316 Q237 349 227 364 Q217 379 194 379 Q150 379 150 316 L150 62 Q150 24 160.5 8.5 Q171 -7 194 -7 Q217 -7 227 8.5 Q237 24 237 62 L237 316 Z M137 500 L179 585 L249 585 L185 500 L137 500 L137 500 Z " />
<glyph glyph-name="ocircumflex" unicode="&#xf4;" horiz-adv-x="387" d="M305 416 Q337 385 337 316 L337 55 Q337 -13 305 -44 Q274 -75 194 -75 Q116 -75 84 -44 Q50 -13 50 55 L50 316 Q50 385 84 416 Q116 447 194 447 Q274 447 305 416 Z M237 316 Q237 349 227 364 Q217 379 194 379 Q150 379 150 316 L150 62 Q150 24 160.5 8.5 Q171 -7 194 -7 Q217 -7 227 8.5 Q237 24 237 62 L237 316 Z M226 585 L271 500 L214 500 L194 559 L175 500 L117 500 L162 585 L226 585 L226 585 Z " />
<glyph glyph-name="otilde" unicode="&#xf5;" horiz-adv-x="387" d="M305 416 Q337 385 337 316 L337 55 Q337 -13 305 -44 Q274 -75 194 -75 Q116 -75 84 -44 Q50 -13 50 55 L50 316 Q50 385 84 416 Q116 447 194 447 Q274 447 305 416 Z M237 316 Q237 349 227 364 Q217 379 194 379 Q150 379 150 316 L150 62 Q150 24 160.5 8.5 Q171 -7 194 -7 Q217 -7 227 8.5 Q237 24 237 62 L237 316 Z M284 589 Q284 578 273 542 Q268 525 256 512.5 Q244 500 230 500 Q212 500 197 515 Q181 531 174 531 Q166 531 161 523.5 Q156 516 154 510 L153 503 L102 503 Q103 507 104 512.5 Q105 518 109 533 Q114 550 119 560 Q125 571 135 580.5 Q145 590 159 590 Q174 590 191 575 Q206 560 214 560 Q221 560 225.5 567 Q230 574 232 582 L233 589 L284 589 Z " />
<glyph glyph-name="odieresis" unicode="&#xf6;" horiz-adv-x="387" d="M305 416 Q337 385 337 316 L337 55 Q337 -13 305 -44 Q274 -75 194 -75 Q116 -75 84 -44 Q50 -13 50 55 L50 316 Q50 385 84 416 Q116 447 194 447 Q274 447 305 416 Z M237 316 Q237 349 227 364 Q217 379 194 379 Q150 379 150 316 L150 62 Q150 24 160.5 8.5 Q171 -7 194 -7 Q217 -7 227 8.5 Q237 24 237 62 L237 316 Z M172 500 L113 500 L113 563 L172 563 L172 500 L172 500 Z M274 500 L214 500 L214 563 L274 563 L274 500 L274 500 Z " />
<glyph glyph-name="divide" unicode="&#xf7;" horiz-adv-x="298" d="M50 233 L50 300 L248 300 L248 233 L50 233 L50 233 Z M182 471 L182 392 L116 392 L116 471 L182 471 L182 471 Z M116 144 L182 144 L182 67 L116 67 L116 144 L116 144 Z " />
<glyph glyph-name="ugrave" unicode="&#xf9;" horiz-adv-x="392" d="M242 441 L342 441 L342 -70 L259 -70 L249 -26 Q223 -77 158 -77 Q50 -77 50 51 L50 441 L150 441 L150 67 Q150 26 159.5 9.5 Q169 -7 191 -7 Q215 -7 228.5 14.5 Q242 36 242 78 L242 441 Z M251 501 L203 501 L140 586 L209 586 L251 501 L251 501 Z " />
<glyph glyph-name="uacute" unicode="&#xfa;" horiz-adv-x="392" d="M242 441 L342 441 L342 -70 L259 -70 L249 -26 Q223 -77 158 -77 Q50 -77 50 51 L50 441 L150 441 L150 67 Q150 26 159.5 9.5 Q169 -7 191 -7 Q215 -7 228.5 14.5 Q242 36 242 78 L242 441 Z M140 500 L182 585 L252 585 L188 500 L140 500 L140 500 Z " />
<glyph glyph-name="ucircumflex" unicode="&#xfb;" horiz-adv-x="392" d="M242 441 L342 441 L342 -70 L259 -70 L249 -26 Q223 -77 158 -77 Q50 -77 50 51 L50 441 L150 441 L150 67 Q150 26 159.5 9.5 Q169 -7 191 -7 Q215 -7 228.5 14.5 Q242 36 242 78 L242 441 Z M229 585 L274 500 L217 500 L197 559 L178 500 L120 500 L165 585 L229 585 L229 585 Z " />
<glyph glyph-name="udieresis" unicode="&#xfc;" horiz-adv-x="392" d="M242 441 L342 441 L342 -70 L259 -70 L249 -26 Q223 -77 158 -77 Q50 -77 50 51 L50 441 L150 441 L150 67 Q150 26 159.5 9.5 Q169 -7 191 -7 Q215 -7 228.5 14.5 Q242 36 242 78 L242 441 Z M174 500 L115 500 L115 563 L174 563 L174 500 L174 500 Z M276 500 L216 500 L216 563 L276 563 L276 500 L276 500 Z " />
<glyph glyph-name="yacute" unicode="&#xfd;" horiz-adv-x="357" d="M37 -170 L38 -170 Q71 -170 89 -163.5 Q107 -157 115 -146 Q126 -129 128 -109.5 Q130 -90 132 -70 L19 441 L127 441 L181 65 L235 441 L344 441 L227 -70 L213 -130 Q200 -185 160 -209 Q121 -233 38 -233 L37 -170 Z M122 500 L164 585 L234 585 L170 500 L122 500 L122 500 Z " />
<glyph glyph-name="ydieresis" unicode="&#xff;" horiz-adv-x="357" d="M37 -170 L38 -170 Q71 -170 89 -163.5 Q107 -157 115 -146 Q126 -129 128 -109.5 Q130 -90 132 -70 L19 441 L127 441 L181 65 L235 441 L344 441 L227 -70 L213 -130 Q200 -185 160 -209 Q121 -233 38 -233 L37 -170 Z M157 500 L98 500 L98 563 L157 563 L157 500 L157 500 Z M259 500 L199 500 L199 563 L259 563 L259 500 L259 500 Z " />
<glyph glyph-name="Zcaron" unicode="&#x17d;" horiz-adv-x="310" d="M122 -3 L283 -3 L283 -70 L22 -70 L22 -3 L180 572 L30 572 L30 640 L281 640 L281 573 L122 -1 L122 -3 L122 -3 Z M177 785 L233 785 L188 700 L124 700 L80 785 L137 785 L157 725 L177 785 L177 785 Z " />
<glyph glyph-name="zcaron" unicode="&#x17e;" horiz-adv-x="292" d="M127 -2 L271 -2 L271 -70 L19 -70 L19 0 L163 373 L163 374 L28 374 L28 441 L269 441 L269 372 L127 0 L127 -2 L127 -2 Z M168 585 L224 585 L179 500 L115 500 L71 585 L128 585 L148 525 L168 585 L168 585 Z " />
<glyph glyph-name="exclam" unicode="&#x21;" horiz-adv-x="199" d="M49 -70 L49 23 L151 23 L151 -70 L49 -70 L49 -70 Z M149 640 L149 82 L50 82 L50 640 L149 640 L149 640 Z " />
<glyph glyph-name="quotedbl" unicode="&#x22;" horiz-adv-x="257" d="M39 640 L116 640 L74 442 L48 463 L39 640 Z M145 640 L223 640 L180 442 L155 463 L145 640 Z " />
<glyph glyph-name="numbersign" unicode="&#x23;" horiz-adv-x="512" d="M474 358 L390 358 L369 210 L457 210 L457 142 L359 142 L329 -70 L252 -70 L282 142 L184 142 L155 -70 L78 -70 L108 142 L32 142 L32 210 L117 210 L139 358 L49 358 L49 425 L147 425 L178 640 L255 640 L225 425 L322 425 L353 640 L429 640 L398 425 L474 425 L474 358 L474 358 Z M291 210 L312 358 L215 358 L194 210 L291 210 L291 210 Z " />
</font>
</svg>
