<?xml version="1.0" encoding="UTF-8"?>
<svg xmlns="http://www.w3.org/2000/svg" xmlns:xlink="http://www.w3.org/1999/xlink" version="1.2" >
<font id="Earwyn Light">
<font-face  font-family="Earwyn" units-per-em="1024" ascent="936" descent="-280" font-style="normal" font-weight="300" font-stretch="normal" cap-height="662" x-height="502" underline-position="-125" underline-thickness="50" />
<missing-glyph  horiz-adv-x="650" d="" />
<glyph glyph-name="NULL" d="" />
<glyph glyph-name="CR" unicode="&#xd;" horiz-adv-x="256" d="" />
<glyph glyph-name="space" unicode="&#x20;" horiz-adv-x="220" d="" />
<glyph glyph-name="exclam" unicode="&#x21;" horiz-adv-x="183" d="M96 -5 C117 -5 132 11 132 31 C132 52 117 67 96 67 C76 67 60 52 60 31 C60 11 76 -5 96 -5 L96 -5 Z M123 620 C125 646 112 665 93 665 C74 665 60 646 62 620 L93 142 L99 142 L123 620 L123 620 Z " />
<glyph glyph-name="quotedbl" unicode="&#x22;" horiz-adv-x="237" d="M134 660 L161 471 L170 471 L197 660 L134 660 L134 660 Z M40 660 L67 471 L76 471 L104 660 L40 660 L40 660 Z " />
<glyph glyph-name="numbersign" unicode="&#x23;" horiz-adv-x="379" d="M283 681 L254 479 L180 479 L209 681 L189 681 L160 479 L64 479 L59 441 L155 441 L123 219 L25 219 L19 181 L118 181 L92 0 L112 0 L138 181 L212 181 L186 0 L206 0 L232 181 L309 181 L314 219 L237 219 L269 441 L354 441 L359 479 L274 479 L303 681 L283 681 L283 681 Z M175 441 L249 441 L217 219 L143 219 L175 441 L175 441 Z " />
<glyph glyph-name="dollar" unicode="&#x24;" horiz-adv-x="384" d="M215 735 L215 658 C202 663 192 666 186 666 C174 666 163 664 152 660 L152 735 L135 735 L135 652 C85 626 51 561 51 482 C51 430 85 371 135 332 L135 24 C134 25 133 26 132 27 C112 50 80 85 60 108 C53 117 47 123 46 123 C45 123 44 117 44 108 L44 48 L48 56 L48 56 L44 48 C72 32 105 18 136 9 L136 -72 L153 -72 L153 5 C170 1 186 -1 199 -1 C205 -1 211 -1 217 0 L217 -71 L234 -71 L234 4 C297 22 341 88 341 172 C341 228 297 296 234 339 L234 626 C253 604 275 578 291 560 C298 551 303 545 304 545 C306 545 307 551 307 560 L307 620 C281 635 255 648 233 657 L233 741 L215 735 L215 735 Z M216 350 C213 352 210 354 207 356 C187 366 169 379 153 394 L153 649 C163 654 174 657 185 657 C189 657 200 653 216 646 L216 350 L216 350 Z M136 412 C108 444 91 480 91 512 C91 567 109 613 136 638 L136 412 L136 412 Z M153 327 C158 324 163 321 168 318 C185 309 201 298 216 286 L216 17 C210 16 204 15 198 15 C187 15 171 18 152 24 L153 327 L153 327 Z M232 271 C273 233 300 188 300 150 C300 89 272 40 232 22 L232 271 L232 271 Z " />
<glyph glyph-name="ampersand" unicode="&#x26;" horiz-adv-x="644" d="M264 374 C339 400 393 469 393 546 C393 613 344 664 280 664 C216 664 167 595 167 503 C167 486 186 431 217 367 C121 329 51 243 51 159 C51 65 130 -6 234 -6 C316 -6 387 26 434 78 C526 -3 588 -12 646 -2 L646 6 C606 0 557 14 460 113 C482 149 494 192 494 239 L494 269 C494 320 504 336 518 340 L529 343 C534 345 533 343 533 361 C533 382 534 379 529 379 L490 379 L451 379 C446 379 447 382 447 361 C447 343 446 345 451 343 L461 340 C474 337 483 321 483 269 L483 239 C483 195 472 155 452 121 C426 148 396 181 362 221 C325 265 292 320 266 372 L264 374 L264 374 Z M262 381 C229 448 209 507 209 525 C209 597 239 652 280 652 C324 652 357 605 357 542 C357 470 318 406 262 381 L262 381 Z M427 85 C387 42 329 16 263 16 C170 16 99 86 99 178 C99 252 151 326 223 358 C250 302 286 240 327 191 C364 147 397 112 427 85 L427 85 Z " />
<glyph glyph-name="quotesingle" unicode="&#x27;" horiz-adv-x="143" d="M40 660 L67 471 L76 471 L104 660 L40 660 L40 660 Z " />
<glyph glyph-name="parenleft" unicode="&#x28;" horiz-adv-x="159" d="M143 690 C96 633 60 507 60 270 C60 33 96 -93 143 -150 L150 -145 C121 -110 99 8 99 270 C99 532 121 650 150 685 L143 690 L143 690 Z " />
<glyph glyph-name="parenright" unicode="&#x29;" horiz-adv-x="159" d="M10 -150 C57 -93 93 33 94 270 C93 507 57 633 10 690 L4 685 C32 650 54 532 55 270 C54 8 32 -110 4 -145 L10 -150 L10 -150 Z " />
<glyph glyph-name="asterisk" unicode="&#x2a;" horiz-adv-x="268" d="M147 540 L38 493 C28 489 24 479 29 470 C35 462 45 460 54 467 L149 537 L135 420 C133 409 140 401 150 401 C160 401 167 409 165 420 L151 537 L246 467 C255 460 265 462 271 470 C276 479 272 489 262 493 L153 540 L262 587 C272 591 276 601 271 610 C265 618 255 620 246 613 L151 543 L165 660 C167 671 160 679 150 679 C140 679 133 671 135 660 L149 543 L54 613 C45 620 35 618 29 610 C24 601 28 591 38 587 L147 540 L147 540 Z " />
<glyph glyph-name="plus" unicode="&#x2b;" horiz-adv-x="435" d="M203 390 L203 261 L75 261 L75 239 L203 239 L203 110 L227 110 L227 239 L355 239 L355 261 L227 261 L227 390 L203 390 L203 390 Z " />
<glyph glyph-name="comma" unicode="&#x2c;" horiz-adv-x="188" d="M119 3 C127 10 132 20 132 32 C132 53 117 68 96 68 C76 68 60 53 60 32 C60 22 64 13 70 7 L64 1 C90 -25 109 -39 109 -31 C109 -54 92 -79 70 -89 L74 -97 C111 -79 139 -40 139 -6 C139 -10 131 -6 119 4 L119 3 L119 3 Z " />
<glyph glyph-name="hyphen" unicode="&#x2d;" horiz-adv-x="124" d="M20 216 L104 216 L104 254 L20 254 L20 216 L20 216 Z " />
<glyph glyph-name="period" unicode="&#x2e;" horiz-adv-x="221" d="M125 -5 C146 -5 161 11 161 31 C161 52 146 67 125 67 C104 67 89 52 89 31 C89 11 104 -5 125 -5 L125 -5 Z " />
<glyph glyph-name="slash" unicode="&#x2f;" horiz-adv-x="332" d="M0 -145 L22 -145 L332 710 L310 710 L0 -145 L0 -145 Z " />
<glyph glyph-name="zero" unicode="0" horiz-adv-x="478" d="M239 6 C163 6 106 111 106 250 C106 389 163 494 239 494 C316 494 373 389 373 250 C373 111 316 6 239 6 L239 6 Z M50 250 C50 105 131 -5 239 -5 C347 -5 429 105 429 250 C429 395 347 505 239 505 C131 505 50 395 50 250 L50 250 Z " />
<glyph glyph-name="one" unicode="1" horiz-adv-x="212" d="M106 0 L131 0 L157 0 C165 0 164 -2 164 16 C164 38 165 35 157 36 L131 39 L131 461 L157 464 C165 465 164 462 164 484 C164 502 165 500 157 500 L131 500 L106 500 L81 500 L55 500 C47 500 48 502 48 484 C48 462 47 465 55 464 L81 461 L81 39 L55 36 C47 35 48 38 48 16 C48 -2 47 0 55 0 L81 0 L106 0 L106 0 Z " />
<glyph glyph-name="two" unicode="2" horiz-adv-x="361" d="M329 47 C330 57 331 68 332 76 C332 84 334 83 316 83 C294 83 297 84 296 76 L291 50 L88 50 C215 149 304 216 304 349 C304 438 259 505 199 505 C160 505 105 442 71 358 L78 354 C104 419 146 468 174 468 C216 468 248 410 248 332 C248 180 176 128 75 50 L74 50 L72 48 C57 37 41 25 25 12 L25 1 L325 1 L327 26 L329 47 L329 47 Z " />
<glyph glyph-name="three" unicode="3" horiz-adv-x="336" d="M25 -215 C174 -202 286 -93 286 41 C286 135 199 207 83 210 C178 257 242 321 242 376 C242 449 204 505 154 505 C98 505 37 449 11 376 L18 373 C36 427 83 467 127 467 C163 467 191 421 191 359 C191 300 124 234 29 195 C16 191 1 186 -14 180 L-14 171 C-11 172 -8 173 -5 174 C15 179 43 183 65 183 C161 183 234 121 234 38 C234 -93 144 -200 26 -210 L25 -215 L25 -215 Z " />
<glyph glyph-name="four" unicode="4" horiz-adv-x="308" d="M42 22 L205 380 L205 380 L205 22 L42 22 L42 22 Z M205 0 L205 -150 L255 -150 L255 0 L299 0 L299 22 L255 22 L255 380 L255 490 L255 505 L246 505 L24 5 L24 0 L32 0 L205 0 L205 0 Z " />
<glyph glyph-name="five" unicode="5" horiz-adv-x="320" d="M68 221 L81 221 L84 221 C162 221 220 149 220 55 C220 -69 139 -169 31 -176 L31 -182 C168 -173 271 -64 271 71 C271 184 201 270 109 270 L83 270 L89 447 L248 447 L265 500 C268 509 271 518 274 526 C276 534 278 533 259 533 C238 533 241 534 238 526 L226 500 L91 500 L76 500 L68 221 L68 221 Z " />
<glyph glyph-name="six" unicode="6" horiz-adv-x="450" d="M387 715 C207 709 71 530 71 299 C71 126 142 -5 235 -5 C336 -5 407 90 401 216 C401 336 341 427 262 427 C208 427 158 369 129 281 C130 293 131 306 131 316 C131 534 242 702 389 707 L387 715 L387 715 Z M128 238 C152 342 201 414 254 414 C308 414 349 328 349 213 C355 97 309 9 242 9 C179 9 131 107 128 238 L128 238 Z " />
<glyph glyph-name="seven" unicode="7" horiz-adv-x="318" d="M28 473 C26 459 24 437 23 422 C22 414 20 415 39 415 C60 415 57 414 59 422 L64 448 L288 448 L77 -141 L133 -141 L296 448 L309 494 L305 499 L30 499 L28 473 L28 473 Z " />
<glyph glyph-name="eight" unicode="8" horiz-adv-x="419" d="M249 352 C240 355 231 358 221 360 C170 370 132 437 132 515 C132 594 166 654 212 654 C260 654 297 592 297 509 C297 435 277 374 249 352 L249 352 Z M258 348 C306 371 340 437 340 516 C340 600 287 664 216 664 C145 664 92 591 92 494 C92 420 126 354 175 324 C111 308 65 244 65 163 C65 67 131 -5 218 -5 C305 -5 371 72 371 174 C371 251 325 320 259 349 L258 348 L258 348 Z M182 321 C192 316 202 312 213 310 C277 298 325 232 325 158 C325 72 281 7 222 7 C160 7 113 78 113 172 C113 245 141 304 182 322 L182 321 L182 321 Z " />
<glyph glyph-name="nine" unicode="9" horiz-adv-x="450" d="M63 -215 C244 -209 379 -30 379 201 C379 374 309 505 215 505 C115 505 44 410 50 284 C50 164 110 73 189 73 C243 73 293 131 322 219 C321 207 320 194 320 184 C320 -34 209 -202 62 -207 L63 -215 L63 -215 Z M323 263 C299 159 249 87 196 87 C142 87 102 173 102 288 C95 404 141 492 209 492 C272 492 320 394 323 263 L323 263 Z " />
<glyph glyph-name="colon" unicode="&#x3a;" horiz-adv-x="221" d="M125 364 C146 364 161 379 161 400 C161 421 146 436 125 436 C104 436 89 421 89 400 C89 379 104 364 125 364 L125 364 Z M125 -5 C146 -5 161 11 161 31 C161 52 146 67 125 67 C104 67 89 52 89 31 C89 11 104 -5 125 -5 L125 -5 Z " />
<glyph glyph-name="semicolon" unicode="&#x3b;" horiz-adv-x="188" d="M96 364 C117 364 132 379 132 400 C132 421 117 436 96 436 C76 436 60 421 60 400 C60 379 76 364 96 364 L96 364 Z M119 3 C127 10 132 20 132 32 C132 53 117 68 96 68 C76 68 60 53 60 32 C60 22 64 13 70 7 L64 1 C90 -25 109 -39 109 -31 C109 -54 92 -79 70 -89 L74 -97 C111 -79 139 -40 139 -6 C139 -10 131 -6 119 4 L119 3 L119 3 Z " />
<glyph glyph-name="less" unicode="&#x3c;" horiz-adv-x="415" d="M341 500 L46 290 L40 286 L40 264 L46 260 L341 50 L341 75 L57 275 L341 475 L341 500 L341 500 Z " />
<glyph glyph-name="equal" unicode="&#x3d;" horiz-adv-x="407" d="M78 211 L78 189 L338 189 L338 211 L78 211 L78 211 Z M78 311 L78 289 L338 289 L338 311 L78 311 L78 311 Z " />
<glyph glyph-name="greater" unicode="&#x3e;" horiz-adv-x="410" d="M349 275 L75 75 L75 50 L360 260 L370 268 L370 282 L360 290 L75 500 L75 475 L349 275 L349 275 Z " />
<glyph glyph-name="question" unicode="&#x3f;" horiz-adv-x="246" d="M104 -5 C125 -5 140 11 140 31 C140 52 125 67 104 67 C83 67 68 52 68 31 C68 11 83 -5 104 -5 L104 -5 Z M100 368 C94 368 89 365 90 360 L101 147 L107 147 L118 360 L117 329 L152 329 C200 329 212 405 212 445 C212 570 159 665 89 665 C62 665 41 636 41 598 C41 591 53 585 69 585 C86 585 84 608 92 619 C96 623 100 625 104 625 C158 625 199 549 199 449 C199 421 186 367 134 367 L100 368 L100 368 Z " />
<glyph glyph-name="at" unicode="&#x40;" horiz-adv-x="959" d="M864 0 C801 -136 639 -239 487 -239 C263 -239 94 -25 94 259 C94 543 260 757 480 757 C700 757 866 579 866 343 C866 150 791 4 692 4 C589 4 533 88 561 200 L631 480 L584 480 L561 388 C553 448 522 490 482 490 C351 490 253 364 253 197 C253 92 306 13 377 13 C425 13 477 63 508 135 C513 47 580 -14 683 -14 C809 -14 904 139 904 342 C904 585 722 769 480 769 C238 769 55 549 55 258 C55 -33 241 -253 487 -253 C645 -253 814 -145 881 -1 L864 0 L864 0 Z M553 354 L514 199 C491 108 443 40 403 40 C348 40 307 111 307 206 C307 359 382 475 481 475 C521 475 552 423 552 354 L553 354 L553 354 Z " />
<glyph glyph-name="A" unicode="A" horiz-adv-x="436" d="M394 39 L393 39 L214 675 L200 675 L185 617 L184 614 L184 613 L40 39 L39 39 L13 36 C5 35 6 38 6 17 C6 -2 5 0 12 0 L30 0 L39 0 L48 0 L87 0 C94 0 93 -2 93 16 C93 38 94 35 86 36 L58 39 L58 39 L85 148 L305 148 L333 39 L314 36 C306 35 307 38 307 17 C307 -2 306 0 314 0 L343 0 L373 0 L403 0 L424 0 C432 0 431 -2 431 16 C431 38 432 35 424 36 L394 39 L394 39 Z M301 163 L88 163 L191 584 L301 163 L301 163 Z " />
<glyph glyph-name="B" unicode="B" horiz-adv-x="425" d="M194 358 C193 358 192 358 191 358 L153 356 L134 356 L134 646 L186 646 C250 646 298 588 298 511 C298 432 255 370 195 358 L194 358 L194 358 Z M230 355 C303 375 353 435 353 510 C353 595 281 659 185 659 L133 659 L105 659 L77 659 L51 659 C43 659 44 661 44 643 C44 621 43 624 51 623 L77 620 L77 38 L51 35 C43 34 44 37 44 15 C44 -3 43 -1 51 -1 L77 -1 L105 -1 L133 -1 L201 -1 C318 -1 406 77 406 179 C406 270 332 340 229 354 L230 355 L230 355 Z M133 346 L174 346 C273 346 348 274 348 179 C348 84 282 13 195 13 L133 13 L133 346 L133 346 Z " />
<glyph glyph-name="C" unicode="C" horiz-adv-x="598" d="M539 57 L539 113 C539 122 538 128 536 128 C535 128 529 122 522 113 C502 90 470 56 450 33 C407 18 363 9 331 9 C212 9 123 147 123 330 C123 513 212 651 331 651 C363 651 407 642 450 627 C470 604 502 570 522 547 C529 538 535 532 536 532 C538 532 539 538 539 547 L539 603 C477 638 388 665 331 665 C178 665 62 521 62 330 C62 139 178 -5 331 -5 C388 -5 477 22 539 57 L539 57 Z " />
<glyph glyph-name="D" unicode="D" horiz-adv-x="522" d="M105 0 L133 0 L205 0 C358 0 473 142 473 330 C473 518 350 660 187 660 L133 660 L105 660 L77 660 L51 660 C43 660 44 662 44 644 C44 622 43 625 51 624 L77 621 L77 39 L51 36 C43 35 44 38 44 16 C44 -2 43 0 51 0 L77 0 L105 0 L105 0 Z M133 14 L133 646 L187 646 C318 646 417 510 417 330 C417 150 326 14 205 14 L133 14 L133 14 Z " />
<glyph glyph-name="E" unicode="E" horiz-adv-x="392" d="M330 7 C333 22 337 46 339 61 C340 67 341 70 341 72 C338 70 333 67 325 61 L252 14 L122 14 L122 345 L173 345 L233 315 C251 307 259 303 262 301 C262 303 262 307 262 315 L262 345 L262 352 L262 359 L262 385 C262 392 262 396 262 398 C257 396 248 392 233 385 L173 359 L122 359 L122 646 L245 646 L309 599 C317 593 322 590 324 588 C324 590 324 593 324 599 C325 614 325 638 324 653 L324 660 L318 660 L286 660 L123 660 L95 660 L67 660 L41 660 C33 660 34 662 34 644 C34 622 33 625 41 624 L67 621 L67 39 L41 36 C33 35 34 38 34 16 C34 -2 33 0 41 0 L67 0 L95 0 L123 0 L291 0 L328 0 L330 0 L330 7 L330 7 Z M343 75 C346 75 348 76 343 72 C343 74 343 75 343 75 L343 75 Z M343 75 L343 75 L343 75 L343 75 Z M261 300 C262 300 262 300 262 301 C264 300 263 300 260 300 L261 300 L261 300 Z M260 300 C259 300 258 300 257 300 C258 300 259 300 260 300 L260 300 Z M260 401 C267 401 269 401 262 398 C262 400 262 401 261 401 L260 401 L260 401 Z M261 401 C260 401 259 401 257 401 C258 401 259 401 260 401 L261 401 L261 401 Z M323 585 C323 585 323 586 323 588 C327 585 326 585 323 585 L323 585 Z M323 585 L323 585 C324 585 324 585 324 585 L323 585 L323 585 Z " />
<glyph glyph-name="F" unicode="F" horiz-adv-x="356" d="M250 295 C251 295 251 295 251 296 C253 295 252 295 249 295 L250 295 L250 295 Z M249 295 C248 295 247 295 246 295 C247 295 248 295 249 295 L249 295 Z M251 296 C251 298 251 302 251 310 L251 340 L251 347 L251 354 L251 380 C251 387 251 391 251 393 C246 391 237 387 222 380 L162 354 L121 354 L121 646 L274 646 L338 599 C346 593 351 590 353 588 C353 590 353 593 353 599 C354 614 354 638 353 653 L353 660 L347 660 L315 660 L122 660 L94 660 L66 660 L40 660 C32 660 33 662 33 644 C33 622 32 625 40 624 L66 621 L66 39 L40 36 C32 35 33 38 33 16 C33 -2 32 0 40 0 L66 0 L94 0 L122 0 L158 0 C165 0 164 -2 165 16 C164 38 165 35 158 36 L122 39 L122 340 L163 340 L223 310 C241 302 249 298 252 296 L251 296 L251 296 Z M251 396 C258 396 260 396 253 393 C253 395 253 396 252 396 L251 396 L251 396 Z M252 396 C251 396 250 396 248 396 C249 396 250 396 251 396 L252 396 L252 396 Z M354 585 C354 585 354 586 354 588 C358 585 357 585 354 585 L354 585 Z M354 585 L354 585 C355 585 355 585 355 585 L354 585 L354 585 Z " />
<glyph glyph-name="G" unicode="G" horiz-adv-x="641" d="M474 271 L474 48 C421 25 360 9 319 9 C207 9 122 147 122 330 C122 513 207 651 319 651 C348 651 389 642 430 627 C450 603 481 570 501 547 C508 538 514 532 515 532 C517 532 518 538 518 547 L518 603 C456 638 371 665 319 665 C172 665 61 521 61 330 C61 139 172 -5 319 -5 C374 -5 461 22 523 57 L523 271 L549 274 C557 275 556 272 556 294 C556 312 557 310 549 310 L523 310 L498 310 L473 310 L447 310 C439 310 440 312 440 294 C440 272 439 275 447 274 L474 271 L474 271 Z " />
<glyph glyph-name="H" unicode="H" horiz-adv-x="551" d="M457 0 L485 0 L511 0 C519 0 518 -2 518 16 C518 38 519 35 511 36 L485 39 L485 621 L511 624 C519 625 518 622 518 644 C518 662 519 660 511 660 L485 660 L457 660 L429 660 L403 660 C396 660 397 662 397 644 C397 622 396 625 403 624 L429 621 L429 246 L122 246 L122 621 L148 624 C155 625 154 622 155 644 C154 662 155 660 148 660 L122 660 L94 660 L66 660 L40 660 C32 660 33 662 33 644 C33 622 32 625 40 624 L66 621 L66 39 L40 36 C32 35 33 38 33 16 C33 -2 32 0 40 0 L66 0 L94 0 L122 0 L148 0 C155 0 154 -2 155 16 C154 38 155 35 148 36 L122 39 L122 232 L429 232 L429 39 L403 36 C396 35 397 38 397 16 C397 -2 396 0 403 0 L429 0 L457 0 L457 0 Z " />
<glyph glyph-name="I" unicode="I" horiz-adv-x="187" d="M94 0 L122 0 L148 0 C155 0 154 -2 155 16 C154 38 155 35 148 36 L122 39 L122 621 L148 624 C155 625 154 622 155 644 C154 662 155 660 148 660 L122 660 L94 660 L66 660 L40 660 C32 660 33 662 33 644 C33 622 32 625 40 624 L66 621 L66 39 L40 36 C32 35 33 38 33 16 C33 -2 32 0 40 0 L66 0 L94 0 L94 0 Z " />
<glyph glyph-name="J" unicode="J" horiz-adv-x="219" d="M98 621 L98 200 C98 64 90 1 71 1 C63 1 52 22 47 50 C45 63 34 72 22 72 C7 72 -2 63 0 50 C6 16 30 -10 57 -10 C124 -10 154 71 154 247 L154 621 L180 624 C187 625 186 622 187 644 C186 662 187 660 180 660 L154 660 L126 660 L98 660 L72 660 C64 660 65 662 65 644 C65 622 64 625 72 624 L98 621 L98 621 Z " />
<glyph glyph-name="K" unicode="K" horiz-adv-x="470" d="M460 -5 L460 6 L455 6 C431 6 377 70 287 210 L172 388 L332 621 L360 624 C368 625 367 623 367 642 C367 662 368 660 360 660 L359 660 L352 660 L346 660 L320 660 C312 660 313 662 313 644 C313 629 313 619 313 613 L165 400 L164 401 L133 355 L133 621 L159 624 C167 625 166 622 166 644 C166 662 167 660 159 660 L133 660 L105 660 L77 660 L51 660 C43 660 44 662 44 644 C44 622 43 625 51 624 L77 621 L77 39 L51 36 C43 35 44 38 44 16 C44 -2 43 0 51 0 L77 0 L105 0 L133 0 L159 0 C167 0 166 -2 166 16 C166 38 167 35 159 36 L133 39 L133 355 L256 164 C331 48 388 -5 439 -5 L460 -5 L460 -5 Z " />
<glyph glyph-name="L" unicode="L" horiz-adv-x="392" d="M330 7 C333 23 337 48 340 64 C343 80 343 78 338 78 C329 79 332 81 315 66 L252 14 L122 14 L122 621 L148 624 C155 625 154 622 155 644 C154 662 155 660 148 660 L122 660 L94 660 L66 660 L40 660 C32 660 33 662 33 644 C33 622 32 625 40 624 L66 621 L66 39 L40 36 C32 35 33 38 33 16 C33 -2 32 0 40 0 L66 0 L94 0 L122 0 L290 0 L327 0 L329 0 L330 7 L330 7 Z " />
<glyph glyph-name="M" unicode="M" horiz-adv-x="598" d="M84 621 L85 621 L63 39 L63 39 L37 36 C29 35 30 38 30 17 C30 -2 29 0 37 0 L62 0 L70 0 L78 0 L117 0 C125 0 124 -2 124 16 C123 38 124 35 117 36 L80 39 L79 39 L100 584 L279 22 L288 -5 L302 -5 L492 603 L513 39 L512 39 L487 36 C480 35 481 38 481 16 C481 -2 480 0 487 0 L514 0 L541 0 L569 0 L594 0 C601 0 600 -2 600 17 C600 38 601 35 594 36 L567 39 L541 621 L541 621 L564 624 C571 625 570 622 570 643 C570 662 571 660 564 660 L539 660 L514 660 L509 660 L489 660 L312 77 L129 660 L102 660 L94 660 L86 660 L59 660 C51 660 52 662 53 644 C52 622 51 625 60 624 L84 621 L84 621 Z M312 76 L312 77 L316 63 L312 76 L312 76 Z " />
<glyph glyph-name="N" unicode="N" horiz-adv-x="477" d="M401 621 L401 89 L119 660 L86 660 L77 660 L69 660 L43 660 C35 660 36 662 36 644 C36 622 35 625 43 624 L69 621 L69 39 L43 36 C35 35 36 38 36 16 C36 -2 35 0 43 0 L69 0 L77 0 L86 0 L112 0 C120 0 119 -2 119 16 C119 38 120 35 112 36 L86 39 L86 602 L376 22 L392 -11 L418 -11 L418 42 L418 621 L444 624 C452 625 451 622 451 644 C451 662 452 660 444 660 L418 660 L409 660 L401 660 L375 660 C367 660 368 662 368 644 C368 622 367 625 375 624 L401 621 L401 621 Z " />
<glyph glyph-name="O" unicode="O" horiz-adv-x="639" d="M325 9 C198 9 123 165 123 330 C123 495 198 651 325 651 C452 651 528 495 528 330 C528 165 452 9 325 9 L325 9 Z M62 330 C62 158 160 -5 325 -5 C491 -5 589 158 589 330 C589 502 491 665 325 665 C160 665 62 502 62 330 L62 330 Z " />
<glyph glyph-name="P" unicode="P" horiz-adv-x="401" d="M105 0 L133 0 L159 0 C167 0 166 -2 166 16 C166 38 167 35 159 36 L133 39 L133 298 L181 298 C295 298 381 375 381 478 C381 582 300 660 193 660 L133 660 L105 660 L77 660 L51 660 C43 660 44 662 44 644 C44 622 43 625 51 624 L77 621 L77 39 L51 36 C43 35 44 38 44 16 C44 -2 43 0 51 0 L77 0 L105 0 L105 0 Z M133 311 L133 646 L193 646 C267 646 323 574 323 478 C323 383 262 311 181 311 L133 311 L133 311 Z " />
<glyph glyph-name="Q" unicode="Q" horiz-adv-x="639" d="M626 -51 L621 -47 C599 -73 551 -92 508 -92 C450 -92 384 -55 331 -5 C493 -1 589 160 589 330 C589 502 491 665 325 665 C160 665 62 502 62 330 C62 163 155 4 312 -5 C384 -76 458 -129 503 -129 C537 -129 590 -96 627 -52 L626 -51 L626 -51 Z M326 8 C199 8 124 164 124 329 C124 494 199 650 326 650 C453 650 529 494 529 329 C529 164 453 8 326 8 L326 8 Z " />
<glyph glyph-name="R" unicode="R" horiz-adv-x="442" d="M442 0 L442 11 L437 11 C421 11 414 18 365 95 L220 322 C300 340 356 406 356 490 C356 587 282 660 185 660 L133 660 L105 660 L77 660 L51 660 C43 660 44 662 44 644 C44 622 43 625 51 624 L77 621 L77 39 L51 36 C43 35 44 38 44 16 C44 -2 43 0 51 0 L77 0 L105 0 L133 0 L159 0 C167 0 166 -2 166 16 C166 38 167 35 159 36 L133 39 L133 317 L156 317 L289 106 C350 9 362 0 421 0 L442 0 L442 0 Z M175 330 L148 330 L133 330 L133 646 L185 646 C249 646 298 579 298 490 C298 399 245 330 175 330 L175 330 Z " />
<glyph glyph-name="S" unicode="S" horiz-adv-x="384" d="M216 639 L216 639 C237 615 268 578 289 554 C296 545 301 539 302 539 C304 539 305 545 305 554 L305 614 C255 643 204 665 186 665 C109 665 51 586 51 482 C51 419 101 346 167 311 C243 270 300 199 300 144 C300 67 256 9 198 9 C182 9 158 15 131 25 C111 48 79 83 59 106 C52 115 46 121 45 121 C44 121 43 115 43 106 L43 46 L47 54 L47 54 L43 46 C93 17 160 -5 198 -5 C278 -5 339 69 339 167 C339 230 282 309 206 349 C140 384 90 451 90 505 C90 588 130 651 184 651 C188 651 200 647 216 639 L216 639 Z " />
<glyph glyph-name="T" unicode="T" horiz-adv-x="500" d="M480 579 C480 579 480 580 480 582 C484 579 483 579 480 579 L480 579 Z M480 579 L480 579 C481 579 481 579 481 579 L480 579 L480 579 Z M481 582 C481 584 481 588 480 594 C479 610 477 636 475 653 L474 660 L461 660 L436 660 L66 660 L41 660 L28 660 L27 653 C25 636 23 610 22 594 C21 588 21 584 21 582 C24 584 29 588 38 594 L111 646 L224 646 L224 39 L198 36 C190 35 191 38 191 16 C191 -2 190 0 198 0 L224 0 L252 0 L280 0 L306 0 C313 0 313 -2 313 16 C313 38 313 35 306 36 L280 39 L280 646 L393 646 L466 594 C475 588 480 584 483 582 L481 582 L481 582 Z M22 579 C19 579 18 579 22 582 C22 580 22 579 22 579 L22 579 Z M22 579 C22 579 22 579 23 579 L23 579 L22 579 L22 579 Z " />
<glyph glyph-name="U" unicode="U" horiz-adv-x="463" d="M67 621 L67 203 C67 85 123 -5 244 -5 C360 -5 413 72 413 173 L413 621 L443 624 C451 625 450 622 450 644 C450 662 451 660 443 660 L413 660 L405 660 L397 660 L365 660 C358 660 359 662 359 644 C359 622 358 625 365 624 L397 621 L397 179 C397 85 351 14 252 14 C164 14 123 91 123 193 L123 621 L149 624 C157 625 156 622 156 644 C156 662 157 660 149 660 L123 660 L95 660 L67 660 L41 660 C33 660 34 662 34 644 C34 622 33 625 41 624 L67 621 L67 621 Z " />
<glyph glyph-name="V" unicode="V" horiz-adv-x="436" d="M383 621 L383 621 L239 -15 L252 -15 L399 621 L399 621 L426 624 C434 625 433 622 433 643 C433 662 434 660 426 660 L408 660 L400 660 L392 660 L350 660 C342 660 342 662 343 644 C344 622 343 625 350 624 L383 621 L383 621 Z M46 621 L239 -15 L257 65 L106 621 L106 621 L130 624 C137 625 136 622 137 644 C136 662 137 660 130 660 L95 660 L65 660 L34 660 L24 660 C16 660 17 662 17 643 C17 623 16 625 24 624 L46 621 L46 621 Z " />
<glyph glyph-name="W" unicode="W" horiz-adv-x="606" d="M31 621 L31 621 L181 -15 L195 -15 L306 572 L429 -15 L442 -15 L569 621 L596 624 C604 625 603 622 603 643 C603 662 604 660 596 660 L577 660 L569 660 L560 660 L523 660 C516 660 516 662 517 644 C516 622 515 625 524 624 L552 621 L429 -15 L446 76 L325 670 L311 670 L181 -15 L197 71 L91 621 L91 621 L115 624 C123 625 122 622 121 644 C122 662 122 660 115 660 L83 660 L53 660 L22 660 L10 660 C2 660 3 662 3 643 C3 622 2 625 10 624 L31 621 L31 621 Z " />
<glyph glyph-name="X" unicode="X" horiz-adv-x="490" d="M116 39 L116 39 L234 311 L369 39 L353 36 C346 34 347 36 347 16 C347 -2 346 0 353 0 L388 0 L420 0 L452 0 L453 0 C461 0 460 -2 460 18 C460 37 461 35 453 36 L433 39 L268 370 L395 621 L423 624 C430 625 429 623 430 643 C429 662 430 660 423 660 L415 660 L408 660 L401 660 L363 660 C355 660 356 662 356 644 C356 622 355 625 363 624 L382 621 L263 380 L143 621 L144 621 L159 624 C167 626 166 624 166 644 C166 662 167 660 159 660 L124 660 L93 660 L61 660 L60 660 C52 660 53 662 53 642 C53 623 52 625 60 624 L80 621 L80 621 L228 321 L103 39 L103 39 L76 36 C68 35 69 37 69 17 C69 -2 68 0 75 0 L86 0 L92 0 L99 0 L137 0 C145 0 144 -2 144 16 C144 38 145 35 137 36 L116 39 L116 39 Z " />
<glyph glyph-name="Y" unicode="Y" horiz-adv-x="419" d="M54 621 L54 621 L190 271 L190 39 L164 36 C156 35 157 38 157 16 C157 -2 156 0 164 0 L190 0 L218 0 L246 0 L272 0 C279 0 278 -2 279 16 C278 38 279 35 272 36 L246 39 L246 301 L246 301 L381 621 L381 621 L404 624 C412 625 411 623 411 643 C412 662 413 660 405 660 L397 660 L389 660 L380 660 L342 660 C335 660 335 662 335 644 C335 622 334 625 342 624 L364 621 L231 301 L230 301 L119 621 L137 624 C144 625 143 622 144 644 C144 662 145 660 137 660 L106 660 L72 660 L39 660 L34 660 C26 660 27 662 27 643 C27 623 26 625 34 624 L54 621 L54 621 Z " />
<glyph glyph-name="Z" unicode="Z" horiz-adv-x="457" d="M397 7 C399 24 404 48 407 64 C409 80 409 78 405 78 C396 79 399 81 382 67 L319 14 L121 14 L409 660 L378 660 L346 660 L158 660 L132 660 L119 660 L117 653 C114 639 108 618 104 604 C103 600 102 597 102 595 C106 597 112 600 120 604 L199 646 L340 646 L52 0 L84 0 L115 0 L356 0 L393 0 L395 0 L397 7 L397 7 Z M102 590 L102 590 L102 590 L102 590 Z M102 590 L102 590 L102 590 L102 590 Z M101 590 C93 589 90 588 102 594 C101 591 101 590 101 590 L101 590 Z " />
<glyph glyph-name="bracketleft" unicode="&#x5b;" horiz-adv-x="231" d="M116 649 L221 649 L221 660 L116 660 L77 660 L77 -120 L116 -120 L221 -120 L221 -109 L116 -109 L116 649 L116 649 Z " />
<glyph glyph-name="backslash" unicode="&#x5c;" horiz-adv-x="224" d="M207 -145 L225 -145 L-43 710 L-60 710 L207 -145 L207 -145 Z " />
<glyph glyph-name="bracketright" unicode="&#x5d;" horiz-adv-x="218" d="M110 649 L110 -109 L5 -109 L5 -120 L110 -120 L149 -120 L149 660 L110 660 L5 660 L5 649 L110 649 L110 649 Z " />
<glyph glyph-name="underscore" unicode="&#x5f;" horiz-adv-x="185" d="M5 -50 L5 -78 L180 -78 L180 -50 L5 -50 L5 -50 Z " />
<glyph glyph-name="a" unicode="a" horiz-adv-x="362" d="M341 37 C327 24 310 14 289 14 C260 14 250 39 250 73 L250 359 C250 442 218 505 176 505 C124 505 76 462 65 406 L115 406 C124 454 146 491 165 491 C183 491 197 439 197 371 L197 247 L141 234 C81 219 36 162 36 102 C36 41 64 -5 101 -5 C122 -5 160 23 197 64 C198 22 213 -9 255 -9 C293 -9 323 8 346 31 L341 37 L341 37 Z M197 235 L197 74 C170 48 142 31 124 31 C102 31 85 68 85 117 C85 165 110 209 143 219 L197 235 L197 235 Z " />
<glyph glyph-name="b" unicode="b" horiz-adv-x="430" d="M56 0 L61 0 C66 14 76 24 85 24 C121 24 155 -5 204 -5 C302 -5 376 104 376 248 C376 394 312 505 227 505 C208 505 155 485 106 458 L106 651 L106 707 L106 720 L96 720 L29 700 C27 699 25 698 23 698 C25 695 27 691 30 686 L56 637 L56 132 L56 0 L56 0 Z M17 695 C17 707 16 710 23 697 C18 696 17 695 17 695 L17 695 Z M17 695 L17 695 L17 695 L17 695 Z M106 449 C141 468 176 482 189 482 C265 482 323 371 323 224 C323 101 272 8 204 8 C148 8 106 61 106 132 L106 449 L106 449 Z " />
<glyph glyph-name="c" unicode="c" horiz-adv-x="355" d="M304 41 L299 47 C285 34 250 25 219 25 C153 25 103 124 103 254 C103 389 147 491 206 491 C232 491 254 453 258 404 C260 390 271 379 283 379 C296 379 306 389 306 401 C300 460 260 505 212 505 C120 505 50 389 50 235 C50 98 105 -5 177 -5 C218 -5 273 15 304 41 L304 41 Z " />
<glyph glyph-name="d" unicode="d" horiz-adv-x="475" d="M403 24 C403 12 404 9 397 22 C401 23 402 24 402 24 L403 24 L403 24 Z M402 24 L402 24 L402 24 L402 24 Z M396 22 C394 25 392 29 389 34 L363 83 L363 652 L363 708 L363 721 L353 721 L287 701 C285 700 283 699 281 699 C283 696 285 692 287 687 L313 638 L313 444 C288 478 249 505 213 505 C122 505 53 385 53 225 C53 94 113 -5 193 -5 C228 -5 278 18 312 49 L312 14 L312 1 L322 1 L388 21 C391 22 393 23 395 23 L396 22 L396 22 Z M275 697 C275 709 274 712 281 699 C277 698 276 698 276 698 L275 697 L275 697 Z M276 698 C276 698 276 698 276 697 L276 697 L276 698 L276 698 Z M314 70 L314 57 C294 39 255 26 221 26 C156 26 106 120 106 244 C106 385 151 491 211 491 C251 491 294 458 315 419 L314 70 L314 70 Z " />
<glyph glyph-name="e" unicode="e" horiz-adv-x="362" d="M310 41 L306 47 C291 34 255 25 222 25 C154 25 103 124 103 254 C103 279 104 302 106 324 L264 324 L311 324 C311 427 261 505 195 505 C112 505 49 389 49 235 C49 98 105 -5 179 -5 C222 -5 278 15 309 41 L310 41 L310 41 Z M107 333 C119 427 152 491 192 491 C233 491 264 437 264 366 C264 352 254 342 241 341 L264 342 L107 333 L107 333 Z " />
<glyph glyph-name="f" unicode="f" horiz-adv-x="163" d="M61 0 L86 0 L112 0 C119 0 118 -2 119 16 C118 38 119 35 112 36 L86 39 L86 481 L140 481 L140 500 L86 500 L86 533 C86 633 107 709 134 709 C147 709 158 688 160 660 C161 648 172 638 185 638 C197 638 207 648 207 660 C204 694 179 720 148 720 C92 720 45 644 38 544 L36 500 L-4 500 L-4 481 L36 481 L36 39 L10 36 C2 35 3 38 3 16 C3 -2 2 0 9 0 L36 0 L61 0 L61 0 Z " />
<glyph glyph-name="g" unicode="g" horiz-adv-x="346" d="M347 500 L228 496 L228 495 C215 501 201 504 186 504 C119 504 69 437 69 349 C69 278 101 221 149 201 C93 195 52 158 52 110 C52 62 83 26 127 19 C69 -17 27 -72 27 -113 C27 -185 72 -240 133 -240 C243 -240 327 -159 327 -51 C327 17 266 68 185 68 L149 65 C113 63 85 90 85 129 C85 166 119 193 164 193 L186 193 C253 193 303 260 303 348 C303 400 285 445 257 473 L347 470 L347 500 L347 500 Z M116 348 C116 430 146 492 186 492 C226 492 256 430 256 348 C256 266 226 204 186 204 C146 204 116 266 116 348 L116 348 Z M138 18 C142 18 147 18 152 18 L171 20 C240 20 291 -21 291 -76 C291 -162 225 -227 138 -227 C94 -227 60 -175 60 -107 C60 -62 93 -10 138 18 L138 18 Z " />
<glyph glyph-name="h" unicode="h" horiz-adv-x="402" d="M33 696 C33 709 32 712 39 699 C35 698 34 698 34 698 L33 696 L33 696 Z M34 698 C34 698 34 698 34 697 L34 697 L34 698 L34 698 Z M40 699 C42 696 44 692 46 687 L72 638 L72 39 L46 36 C38 35 39 38 39 16 C39 -2 38 0 46 0 L72 0 L97 0 L122 0 L148 0 C156 0 155 -2 155 16 C155 38 156 35 148 36 L122 39 L122 434 C164 455 204 470 217 470 C265 470 287 410 287 330 L287 38 L261 35 C253 34 254 37 254 15 C254 -3 253 -1 261 -1 L287 -1 L312 -1 L337 -1 L364 -1 C372 -1 371 -3 370 15 C371 37 372 34 364 35 L337 38 L337 335 C337 431 311 504 256 504 C250 504 193 476 122 439 L122 651 L122 707 L122 720 L112 720 L46 700 C44 699 42 698 40 698 L40 699 L40 699 Z " />
<glyph glyph-name="i" unicode="i" horiz-adv-x="192" d="M93 570 C113 570 127 584 127 603 C127 623 113 637 93 637 C74 637 60 623 60 603 C60 584 74 570 93 570 L93 570 Z M33 476 C33 488 32 491 39 478 C35 477 34 477 34 477 L33 476 L33 476 Z M34 477 C34 477 34 477 34 476 L34 476 L34 477 L34 477 Z M40 478 C42 475 44 471 46 466 L72 417 L72 38 L46 35 C38 34 39 37 39 15 C39 -3 38 -1 46 -1 L72 -1 L97 -1 L122 -1 L148 -1 C156 -1 155 -3 155 15 C155 37 156 34 148 35 L122 38 L122 430 L122 486 L122 499 L112 499 L46 479 C44 478 42 477 40 477 L40 478 L40 478 Z " />
<glyph glyph-name="j" unicode="j" horiz-adv-x="168" d="M69 570 C89 570 103 584 103 603 C103 623 89 637 69 637 C50 637 36 623 36 603 C36 584 50 570 69 570 L69 570 Z M9 476 C9 488 8 491 15 478 C11 477 10 477 10 477 L9 476 L9 476 Z M10 477 C10 477 10 477 10 476 L10 476 L10 477 L10 477 Z M16 478 C18 475 20 471 22 466 L48 417 L48 7 C48 -158 36 -208 5 -226 L10 -233 C73 -194 99 -138 99 21 L98 486 L98 499 L88 499 L22 479 C20 478 18 477 16 477 L16 478 L16 478 Z " />
<glyph glyph-name="k" unicode="k" horiz-adv-x="325" d="M317 39 L317 39 L163 308 L266 461 L294 464 C302 465 301 463 301 482 C301 502 302 500 294 500 L292 500 L281 500 L270 500 L243 500 C235 500 236 502 237 484 C236 474 235 477 243 464 L245 461 L246 461 L130 275 L130 651 L130 707 L130 720 L120 720 L53 700 C51 699 49 698 47 698 C49 695 51 691 54 686 L80 637 L80 38 L54 35 C46 34 47 37 47 15 C47 -3 46 -1 53 -1 L80 -1 L105 -1 L130 -1 L156 -1 C163 -1 162 -3 163 15 C162 37 163 34 156 35 L130 38 L130 274 L256 38 L256 38 L251 35 C243 30 244 33 244 15 C244 -3 243 -1 251 -1 L277 -1 L308 -1 L339 -1 L345 -1 C353 -1 352 -3 352 17 C352 36 353 34 345 35 L317 39 L317 39 Z M41 695 C41 707 40 710 47 697 C42 696 41 695 41 695 L41 695 Z M41 695 L41 695 L41 695 L41 695 Z " />
<glyph glyph-name="l" unicode="l" horiz-adv-x="192" d="M33 696 C33 708 32 711 39 698 C35 697 34 697 34 697 L33 696 L33 696 Z M34 697 C34 697 34 697 34 696 L34 696 L34 697 L34 697 Z M40 698 C42 695 44 691 46 686 L72 637 L72 38 L46 35 C38 34 39 37 39 15 C39 -3 38 -1 46 -1 L72 -1 L97 -1 L122 -1 L148 -1 C156 -1 155 -3 155 15 C155 37 156 34 148 35 L122 38 L122 650 L122 706 L122 719 L112 719 L46 699 C44 698 42 697 40 697 L40 698 L40 698 Z " />
<glyph glyph-name="m" unicode="m" horiz-adv-x="638" d="M33 476 C33 489 32 492 39 479 C35 478 34 478 34 478 L33 476 L33 476 Z M34 478 C34 478 34 478 34 477 L34 477 L34 478 L34 478 Z M40 479 C42 476 44 472 46 467 L72 418 L72 39 L46 36 C38 35 39 38 39 16 C39 -2 38 0 46 0 L72 0 L97 0 L122 0 L148 0 C156 0 155 -2 155 16 C155 38 156 35 148 36 L122 39 L122 431 L122 434 C167 457 209 474 223 474 C263 474 297 412 297 330 L297 38 L271 35 C263 34 264 37 264 15 C264 -3 263 -1 271 -1 L297 -1 L322 -1 L347 -1 L374 -1 C382 -1 381 -3 380 15 C381 37 382 34 374 35 L347 38 L347 335 C347 366 343 395 336 420 C392 449 438 470 446 470 C488 470 524 410 524 330 L524 38 L498 35 C490 34 491 37 491 15 C491 -3 490 -1 498 -1 L524 -1 L549 -1 L574 -1 L600 -1 C608 -1 607 -3 607 15 C607 37 608 34 600 35 L574 38 L574 335 C574 431 533 504 484 504 C481 504 417 471 334 428 C319 475 292 505 263 505 C252 505 194 477 123 440 L123 449 L123 501 L113 501 L47 481 C45 480 43 479 41 479 L40 479 L40 479 Z " />
<glyph glyph-name="n" unicode="n" horiz-adv-x="402" d="M33 476 C33 489 32 492 39 479 C35 478 34 478 34 478 L33 476 L33 476 Z M34 478 C34 478 34 478 34 477 L34 477 L34 478 L34 478 Z M40 479 C42 476 44 472 46 467 L72 418 L72 39 L46 36 C38 35 39 38 39 16 C39 -2 38 0 46 0 L72 0 L97 0 L122 0 L148 0 C156 0 155 -2 155 16 C155 38 156 35 148 36 L122 39 L122 431 L122 434 C164 455 204 470 217 470 C265 470 287 410 287 330 L287 38 L261 35 C253 34 254 37 254 15 C254 -3 253 -1 261 -1 L287 -1 L312 -1 L337 -1 L364 -1 C372 -1 371 -3 370 15 C371 37 372 34 364 35 L337 38 L337 335 C337 431 311 504 256 504 C250 504 193 476 122 439 L122 448 L122 500 L112 500 L46 480 C44 479 42 478 40 478 L40 479 L40 479 Z " />
<glyph glyph-name="o" unicode="o" horiz-adv-x="468" d="M234 6 C161 6 106 111 106 250 C106 389 161 494 234 494 C308 494 363 389 363 250 C363 111 308 6 234 6 L234 6 Z M50 250 C50 105 129 -5 234 -5 C340 -5 419 105 419 250 C419 395 340 505 234 505 C129 505 50 395 50 250 L50 250 Z " />
<glyph glyph-name="p" unicode="p" horiz-adv-x="464" d="M33 476 C33 489 32 492 39 479 C35 478 34 478 34 478 L33 476 L33 476 Z M34 478 C34 478 34 478 34 477 L34 477 L34 478 L34 478 Z M40 479 C42 476 44 472 46 467 L72 418 L72 -191 L46 -194 C38 -195 39 -192 39 -214 C39 -232 38 -230 46 -230 L72 -230 L97 -230 L122 -230 L148 -230 C156 -230 155 -232 155 -214 C155 -192 156 -195 148 -194 L122 -191 L122 41 C148 12 185 -6 226 -6 C331 -6 410 107 410 257 C410 398 347 504 263 504 C222 504 163 470 122 425 L122 429 L122 446 L120 446 L115 498 L105 498 L46 478 C44 477 42 476 40 476 L40 479 L40 479 Z M122 133 L122 417 C151 448 193 470 225 470 C302 470 361 362 361 218 C361 98 303 8 226 8 C173 8 128 62 122 134 L122 133 L122 133 Z " />
<glyph glyph-name="q" unicode="q" horiz-adv-x="445" d="M349 -230 L374 -230 L401 -230 C409 -230 408 -232 407 -214 C407 -192 408 -195 401 -194 L374 -191 L374 367 L374 500 L369 500 C364 486 349 476 333 476 C300 476 271 505 227 505 C135 505 65 385 65 225 C65 94 123 -5 199 -5 C233 -5 286 22 325 58 L325 -190 L299 -193 C292 -194 293 -191 293 -213 C292 -231 291 -229 299 -229 L325 -229 L349 -230 L349 -230 Z M325 68 C301 44 259 27 227 27 C165 27 118 121 118 245 C118 386 165 492 228 492 C283 492 325 439 325 368 L325 68 L325 68 Z " />
<glyph glyph-name="r" unicode="r" horiz-adv-x="298" d="M33 476 C33 489 32 492 39 479 C35 478 34 478 34 478 L33 476 L33 476 Z M34 478 C34 478 34 478 34 477 L34 477 L34 478 L34 478 Z M40 479 C42 476 44 472 46 467 L72 418 L72 39 L46 36 C38 35 39 38 39 16 C39 -2 38 0 46 0 L72 0 L97 0 L122 0 L148 0 C156 0 155 -2 155 16 C155 38 156 35 148 36 L122 39 L122 422 C145 448 172 467 188 467 C212 467 242 445 266 445 C280 445 290 455 290 469 C290 489 270 504 228 504 C202 504 158 472 122 429 L122 431 L122 448 L120 448 L115 500 L105 500 L46 480 C44 479 42 478 40 478 L40 479 L40 479 Z " />
<glyph glyph-name="s" unicode="s" horiz-adv-x="302" d="M165 481 L165 481 C178 463 198 437 211 419 C216 413 221 409 224 409 C227 409 229 413 229 419 L229 461 L225 453 L225 453 L229 461 C186 486 156 505 159 505 C106 505 65 450 65 378 C65 328 97 265 138 232 C180 200 211 150 211 117 C211 54 185 6 149 6 C145 6 137 9 126 14 L126 15 C107 33 79 61 61 80 C54 87 49 93 49 93 C48 93 47 88 47 80 L47 35 L51 43 L51 43 L47 35 C86 13 128 -4 146 -4 C206 -4 252 57 252 137 C252 177 218 234 173 269 C133 300 103 355 103 396 C103 453 127 495 158 495 C152 495 155 490 165 482 L165 481 L165 481 Z " />
<glyph glyph-name="t" unicode="t" horiz-adv-x="290" d="M260 500 L125 500 L125 640 L116 640 L78 493 L78 493 L97 569 C86 525 55 489 25 485 L25 480 L75 480 L75 110 C75 24 94 -6 149 -6 C196 -6 237 15 270 43 L267 47 C246 29 216 16 174 16 C137 16 124 38 124 101 L125 480 L260 480 L260 500 L260 500 Z M97 569 L98 571 C98 570 98 569 98 568 L97 569 L97 569 Z " />
<glyph glyph-name="u" unicode="u" horiz-adv-x="383" d="M345 24 C345 11 346 8 339 21 C344 23 345 23 345 23 L345 24 L345 24 Z M345 23 L345 23 L345 23 L345 23 Z M339 20 C337 23 335 27 333 32 L306 81 L306 499 L281 499 L256 499 L230 499 C222 499 223 501 223 483 C223 461 222 464 230 463 L256 460 L256 68 L256 64 C233 42 204 26 177 26 C123 26 90 83 90 159 L90 498 L65 498 L40 498 L14 498 C6 498 7 500 7 482 C7 460 6 463 14 462 L40 459 L40 154 C40 62 77 -7 138 -7 C174 -7 218 20 256 56 L256 12 L256 -1 L266 -1 L333 19 C335 20 337 21 339 21 L339 20 L339 20 Z " />
<glyph glyph-name="v" unicode="v" horiz-adv-x="385" d="M291 461 L292 461 L196 66 L113 461 L131 464 C139 465 138 462 138 484 C138 502 139 500 131 500 L105 500 L76 500 L48 500 L31 500 C23 500 24 502 24 483 C24 462 23 465 31 464 L58 461 L178 -10 L186 -10 L308 461 L308 461 L335 464 C342 465 341 462 342 483 C343 502 343 500 335 500 L318 500 L310 500 L302 500 L275 500 C267 500 268 502 269 484 C269 464 268 466 275 464 L291 461 L291 461 Z " />
<glyph glyph-name="w" unicode="w" horiz-adv-x="505" d="M426 460 L331 66 L248 460 C249 459 252 459 256 460 L272 463 C277 464 276 462 276 481 C276 502 277 499 272 499 L239 499 L222 499 L181 499 L171 499 C166 499 167 502 167 481 C167 462 166 464 171 463 L187 460 C189 459 191 459 191 459 L224 331 L187 65 L111 459 L111 459 C111 458 114 458 118 459 L133 462 C139 463 138 461 138 480 C138 501 139 498 134 498 L103 498 L84 498 L46 498 L34 498 C28 498 29 501 29 480 C30 461 29 463 34 462 L50 459 C54 458 56 458 56 459 L176 -12 L184 -12 L231 304 L312 -12 L320 -12 L442 459 L442 459 C442 458 444 458 447 459 L464 462 C469 463 468 461 468 480 C468 501 469 498 464 498 L452 498 L435 498 L431 498 L398 498 C393 498 394 501 394 480 C394 461 393 463 399 462 L415 459 C420 458 424 457 426 458 L426 460 L426 460 Z M192 459 L192 459 L192 459 L192 459 Z " />
<glyph glyph-name="x" unicode="x" horiz-adv-x="415" d="M286 461 L286 461 L220 314 L148 461 L160 464 C168 466 167 464 167 484 C167 502 168 500 160 500 L129 500 L98 500 L68 500 L64 500 C57 500 58 502 58 482 C58 463 57 465 65 464 L87 461 L87 461 L188 255 L96 39 L66 36 C58 35 59 37 59 17 C59 -2 58 0 66 0 L80 0 L86 0 L91 0 L133 0 C141 0 140 -2 139 16 C139 38 140 35 133 36 L107 39 L192 246 L293 39 L286 36 C279 33 280 35 279 16 C279 -2 278 0 286 0 L312 0 L343 0 L374 0 C381 0 380 -3 380 18 C380 37 381 35 373 36 L355 39 L223 307 L295 461 L295 461 L323 464 C331 465 330 463 330 483 C330 502 331 500 323 500 L313 500 L308 500 L303 500 L268 500 C260 500 261 502 261 484 C261 462 260 465 268 464 L286 461 L286 461 Z " />
<glyph glyph-name="y" unicode="y" horiz-adv-x="355" d="M309 461 L310 461 L214 66 L131 461 L149 464 C157 465 156 462 156 484 C156 502 157 500 149 500 L123 500 L94 500 L66 500 L49 500 C41 500 42 502 42 483 C42 462 41 465 49 464 L76 461 L194 -2 L175 -67 C152 -156 133 -197 114 -197 C97 -197 83 -173 65 -173 C51 -173 40 -182 40 -194 C40 -215 59 -230 84 -230 C127 -230 160 -180 188 -72 L204 -10 L326 461 L326 461 L353 464 C360 465 359 462 360 483 C361 502 361 500 353 500 L336 500 L328 500 L320 500 L293 500 C285 500 286 502 287 484 C287 464 286 466 293 464 L309 461 L309 461 Z " />
<glyph glyph-name="z" unicode="z" horiz-adv-x="379" d="M167 488 L167 488 L267 489 L71 0 L101 0 L130 0 L278 0 L314 0 L317 0 L318 6 C320 22 325 45 327 61 C330 76 330 74 326 75 C317 76 320 77 303 64 L240 11 L134 11 L329 500 L300 500 L271 500 L125 500 L99 500 L86 500 L84 494 C81 483 77 467 74 457 C73 454 72 452 72 450 C77 452 83 454 90 457 L167 488 L167 488 Z M71 442 C55 442 51 441 73 450 C72 444 72 443 72 443 L71 442 L71 442 Z M72 443 C72 443 72 443 73 443 L73 443 L72 443 L72 443 Z " />
<glyph glyph-name="braceleft" unicode="&#x7b;" horiz-adv-x="160" d="M146 -120 L146 -112 L117 -112 C88 -112 66 -82 66 -43 L66 175 C66 225 49 263 26 270 C49 277 66 316 66 366 L66 583 C66 622 88 652 117 652 L146 652 L146 660 L106 660 C61 660 27 627 27 583 L27 338 C27 302 18 274 7 274 L5 274 L5 266 L7 266 C18 266 27 239 27 203 L27 -43 C27 -87 61 -120 106 -120 L146 -120 L146 -120 Z " />
<glyph glyph-name="bar" unicode="&#x7c;" horiz-adv-x="158" d="M60 770 L60 -234 L99 -234 L99 770 L60 770 L60 770 Z " />
<glyph glyph-name="braceright" unicode="&#x7d;" horiz-adv-x="160" d="M5 660 L5 652 L34 652 C63 652 85 622 85 583 L85 365 C85 315 102 277 125 270 C102 263 85 224 85 174 L85 -43 C85 -82 63 -112 34 -112 L5 -112 L5 -120 L45 -120 C90 -120 124 -87 124 -43 L124 202 C124 238 132 266 144 266 L146 266 L146 274 L144 274 C132 274 124 301 124 337 L124 583 C124 627 90 660 45 660 L5 660 L5 660 Z " />
<glyph glyph-name="asciitilde" unicode="&#x7e;" horiz-adv-x="353" d="M122 175 C122 213 127 242 133 242 C170 242 173 179 209 179 C228 179 242 219 242 272 L234 272 C234 238 228 212 220 212 C184 212 181 275 144 275 C127 275 114 232 114 175 L122 175 L122 175 Z " />
<glyph glyph-name="nbspace" unicode="&#xa0;" horiz-adv-x="88" d="" />
<glyph glyph-name="exclamdown" unicode="&#xa1;" horiz-adv-x="183" d="M87 505 C67 505 51 489 51 469 C51 448 67 433 87 433 C108 433 123 448 123 469 C123 489 108 505 87 505 L87 505 Z M60 -120 C58 -146 72 -165 91 -165 C110 -165 123 -146 121 -120 L91 358 L84 358 L60 -120 L60 -120 Z " />
<glyph glyph-name="cent" unicode="&#xa2;" horiz-adv-x="355" d="M188 575 L188 502 C108 484 50 375 50 235 C50 98 105 -5 177 -5 C181 -5 185 -5 189 -5 L189 -75 L206 -75 L206 -2 C242 4 281 21 305 41 L300 47 C286 34 251 25 220 25 C215 25 210 26 205 27 L205 491 L205 491 C231 491 253 453 257 404 C259 390 270 379 282 379 C295 379 305 389 305 401 C299 460 259 505 211 505 C209 505 207 505 205 505 L205 575 L188 575 L188 575 Z M188 33 C138 59 103 146 103 255 C103 376 138 470 188 488 L188 33 L188 33 Z " />
<glyph glyph-name="guillemotleft" unicode="&#xab;" horiz-adv-x="241" d="M136 250 L196 459 L190 464 L91 253 L91 247 L191 36 L197 41 L136 250 L136 250 Z M65 250 L125 459 L119 464 L20 253 L20 247 L121 36 L126 41 L65 250 L65 250 Z " />
<glyph glyph-name="guillemotright" unicode="&#xbb;" horiz-adv-x="241" d="M106 250 L46 459 L52 464 L151 253 L151 247 L50 36 L45 41 L106 250 L106 250 Z M177 250 L117 459 L123 464 L222 253 L222 247 L121 36 L116 41 L177 250 L177 250 Z " />
<glyph glyph-name="onequarter" unicode="&#xbc;" horiz-adv-x="671" d="M82 -14 L611 656 L589 674 L60 4 L82 -14 L82 -14 Z M420 69 L483 203 L482 199 L482 69 L420 69 L420 69 Z M482 50 L482 -3 L524 -3 L524 50 L546 50 L546 69 L524 69 L524 199 L524 289 L524 302 L517 302 L404 54 L404 50 L411 50 L482 50 L482 50 Z M140 415 L162 415 L175 415 C179 415 178 414 178 423 C178 434 179 432 175 433 L162 434 L162 646 L175 647 C179 648 178 646 178 657 C178 666 179 665 175 665 L162 665 L140 665 L119 665 L106 665 C102 665 103 666 103 657 C103 646 102 648 106 647 L119 646 L119 434 L106 433 C102 432 103 434 103 423 C103 414 102 415 106 415 L119 415 L140 415 L140 415 Z " />
<glyph glyph-name="onehalf" unicode="&#xbd;" horiz-adv-x="671" d="M82 -14 L611 656 L589 674 L60 4 L82 -14 L82 -14 Z M551 32 L552 43 L552 43 C552 48 552 53 552 57 C553 60 554 60 544 60 C534 60 535 60 534 57 L531 44 L451 44 C505 87 542 121 541 178 C541 222 518 255 487 255 C465 255 437 223 420 181 L425 178 C435 204 453 223 466 223 C482 223 494 197 494 164 C494 71 452 56 397 11 L397 2 L547 2 L549 23 L549 23 C549 26 549 30 549 34 L551 32 L551 32 Z M138 417 L160 417 L173 417 C177 417 176 416 176 425 C176 436 177 434 173 435 L160 436 L160 648 L173 649 C177 650 176 648 176 659 C176 668 177 667 173 667 L160 667 L138 667 L117 667 L104 667 C100 667 101 668 101 659 C101 648 100 650 104 649 L117 648 L117 436 L104 435 C100 434 101 436 101 425 C101 416 100 417 104 417 L117 417 L138 417 L138 417 Z " />
<glyph glyph-name="threequarters" unicode="&#xbe;" horiz-adv-x="671" d="M74 340 C151 347 209 397 209 457 C209 495 172 525 120 531 C163 554 191 582 191 606 C191 641 170 668 144 668 C113 668 80 640 67 603 L73 601 C79 620 100 635 121 635 C136 635 148 617 148 592 C148 573 130 551 102 534 C101 534 100 534 99 534 C100 534 101 534 101 534 C95 531 89 528 83 525 C75 522 65 518 53 514 L53 507 C54 507 55 507 56 507 C65 510 78 512 88 512 C131 512 163 487 163 455 C163 397 124 350 73 346 L74 340 L74 340 Z M81 -13 L610 657 L588 675 L59 5 L81 -13 L81 -13 Z M419 70 L482 204 L481 200 L481 70 L419 70 L419 70 Z M481 51 L481 -2 L523 -2 L523 51 L545 51 L545 70 L523 70 L523 200 L523 290 L523 303 L516 303 L403 55 L403 51 L410 51 L481 51 L481 51 Z " />
<glyph glyph-name="questiondown" unicode="&#xbf;" horiz-adv-x="246" d="M143 505 C122 505 107 489 107 469 C107 448 122 433 143 433 C163 433 179 448 179 469 C179 489 163 505 143 505 L143 505 Z M130 171 L95 171 C47 171 35 95 35 55 C35 -70 88 -165 158 -165 C185 -165 206 -136 206 -98 C206 -91 194 -85 178 -85 C159 -85 162 -110 153 -121 C149 -124 145 -126 142 -126 C88 -126 47 -50 46 50 C47 78 60 132 112 132 L147 132 C153 132 157 135 157 140 L146 353 L139 353 L130 171 L130 171 Z " />
<glyph glyph-name="Agrave" unicode="&#xc0;" horiz-adv-x="436" d="M394 39 L393 39 L214 675 L200 675 L185 617 L184 614 L184 613 L40 39 L39 39 L13 36 C5 35 6 38 6 17 C6 -2 5 0 12 0 L30 0 L39 0 L48 0 L87 0 C94 0 93 -2 93 16 C93 38 94 35 86 36 L58 39 L58 39 L106 236 L282 236 L333 39 L314 36 C306 35 307 38 307 17 C307 -2 306 0 314 0 L343 0 L373 0 L403 0 L424 0 C432 0 431 -2 431 16 C431 38 432 35 424 36 L394 39 L394 39 Z M192 840 C172 871 156 895 152 895 C144 895 124 880 124 875 C124 870 142 847 167 820 L280 691 L285 695 L192 840 L192 840 Z M278 251 L110 251 L191 584 L278 251 L278 251 Z " />
<glyph glyph-name="Aacute" unicode="&#xc1;" horiz-adv-x="436" d="M145 691 L255 820 C278 849 296 871 297 875 C297 880 276 895 268 895 C265 895 249 871 229 840 L139 695 L145 691 L145 691 Z M394 39 L393 39 L214 675 L200 675 L185 617 L184 614 L184 613 L40 39 L39 39 L13 36 C5 35 6 38 6 17 C6 -2 5 0 12 0 L30 0 L39 0 L48 0 L87 0 C94 0 93 -2 93 16 C93 38 94 35 86 36 L58 39 L58 39 L106 236 L282 236 L333 39 L314 36 C306 35 307 38 307 17 C307 -2 306 0 314 0 L343 0 L373 0 L403 0 L424 0 C432 0 431 -2 431 16 C431 38 432 35 424 36 L394 39 L394 39 Z M278 251 L110 251 L191 584 L278 251 L278 251 Z " />
<glyph glyph-name="Acircumflex" unicode="&#xc2;" horiz-adv-x="436" d="M394 39 L393 39 L214 675 L200 675 L185 617 L184 614 L184 613 L40 39 L39 39 L13 36 C5 35 6 38 6 17 C6 -2 5 0 12 0 L30 0 L39 0 L48 0 L87 0 C94 0 93 -2 93 16 C93 38 94 35 86 36 L58 39 L58 39 L106 236 L282 236 L333 39 L314 36 C306 35 307 38 307 17 C307 -2 306 0 314 0 L343 0 L373 0 L403 0 L424 0 C432 0 431 -2 431 16 C431 38 432 35 424 36 L394 39 L394 39 Z M206 847 L295 693 L300 698 L222 891 C220 895 215 905 206 905 C197 905 192 895 190 891 L112 698 L117 693 L206 847 L206 847 Z M278 251 L110 251 L191 584 L278 251 L278 251 Z " />
<glyph glyph-name="Atilde" unicode="&#xc3;" horiz-adv-x="436" d="M149 755 C149 793 156 822 164 822 C201 822 200 759 236 759 C257 759 273 799 273 852 L265 852 C265 818 257 792 247 792 C211 792 211 855 175 855 C156 855 141 812 141 755 L149 755 L149 755 Z M394 39 L393 39 L214 675 L200 675 L185 617 L184 614 L184 613 L40 39 L39 39 L13 36 C5 35 6 38 6 17 C6 -2 5 0 12 0 L30 0 L39 0 L48 0 L87 0 C94 0 93 -2 93 16 C93 38 94 35 86 36 L58 39 L58 39 L106 236 L282 236 L333 39 L314 36 C306 35 307 38 307 17 C307 -2 306 0 314 0 L343 0 L373 0 L403 0 L424 0 C432 0 431 -2 431 16 C431 38 432 35 424 36 L394 39 L394 39 Z M278 251 L110 251 L191 584 L278 251 L278 251 Z " />
<glyph glyph-name="Adieresis" unicode="&#xc4;" horiz-adv-x="436" d="M291 730 C308 730 321 743 321 761 C321 778 308 791 291 791 C273 791 260 778 260 761 C260 743 273 730 291 730 L291 730 Z M124 730 C141 730 154 743 154 761 C154 778 141 791 124 791 C106 791 93 778 93 761 C93 743 106 730 124 730 L124 730 Z M394 39 L393 39 L214 675 L200 675 L185 617 L184 614 L184 613 L40 39 L39 39 L13 36 C5 35 6 38 6 17 C6 -2 5 0 12 0 L30 0 L39 0 L48 0 L87 0 C94 0 93 -2 93 16 C93 38 94 35 86 36 L58 39 L58 39 L106 236 L282 236 L333 39 L314 36 C306 35 307 38 307 17 C307 -2 306 0 314 0 L343 0 L373 0 L403 0 L424 0 C432 0 431 -2 431 16 C431 38 432 35 424 36 L394 39 L394 39 Z M278 251 L110 251 L191 584 L278 251 L278 251 Z " />
<glyph glyph-name="Aring" unicode="&#xc5;" horiz-adv-x="436" d="M207 706 C166 706 127 746 127 788 C127 834 161 869 207 869 C253 869 287 834 287 788 C287 746 248 706 207 706 L207 706 Z M113 788 C113 740 159 695 207 695 C255 695 301 740 301 788 C301 840 261 880 207 880 C154 880 113 840 113 788 L113 788 Z M394 39 L393 39 L214 675 L200 675 L185 617 L184 614 L184 613 L40 39 L39 39 L13 36 C5 35 6 38 6 17 C6 -2 5 0 12 0 L30 0 L39 0 L48 0 L87 0 C94 0 93 -2 93 16 C93 38 94 35 86 36 L58 39 L58 39 L106 236 L282 236 L333 39 L314 36 C306 35 307 38 307 17 C307 -2 306 0 314 0 L343 0 L373 0 L403 0 L424 0 C432 0 431 -2 431 16 C431 38 432 35 424 36 L394 39 L394 39 Z M278 251 L110 251 L191 584 L278 251 L278 251 Z " />
<glyph glyph-name="Ccedilla" unicode="&#xc7;" horiz-adv-x="598" d="M318 -81 L342 -5 C399 -2 481 24 539 57 L539 113 C539 122 538 128 536 128 C535 128 529 122 522 113 C502 90 470 56 450 33 C407 18 363 9 331 9 C212 9 123 147 123 330 C123 513 212 651 331 651 C363 651 407 642 450 627 C470 604 502 570 522 547 C529 538 535 532 536 532 C538 532 539 538 539 547 L539 603 C477 638 388 665 331 665 C178 665 62 521 62 330 C62 141 176 -2 327 -5 L311 -93 L314 -93 C322 -85 330 -78 333 -78 C343 -78 351 -102 351 -134 C351 -174 339 -205 323 -205 C308 -205 290 -199 281 -190 L280 -197 C293 -210 316 -220 333 -220 C361 -220 382 -183 382 -134 C382 -96 366 -68 345 -68 C336 -68 325 -73 318 -81 L318 -81 Z " />
<glyph glyph-name="Egrave" unicode="&#xc8;" horiz-adv-x="392" d="M162 840 C142 871 126 895 122 895 C114 895 93 880 93 875 C93 870 112 847 136 820 L249 691 L255 695 L162 840 L162 840 Z M330 7 C333 22 337 46 339 61 C340 67 341 70 341 72 C338 70 333 67 325 61 L252 14 L122 14 L122 345 L173 345 L233 315 C251 307 259 303 262 301 C262 303 262 307 262 315 L262 345 L262 352 L262 359 L262 385 C262 392 262 396 262 398 C257 396 248 392 233 385 L173 359 L122 359 L122 646 L245 646 L309 599 C317 593 322 590 324 588 C324 590 324 593 324 599 C325 614 325 638 324 653 L324 660 L318 660 L286 660 L123 660 L95 660 L67 660 L41 660 C33 660 34 662 34 644 C34 622 33 625 41 624 L67 621 L67 39 L41 36 C33 35 34 38 34 16 C34 -2 33 0 41 0 L67 0 L95 0 L123 0 L291 0 L328 0 L330 0 L330 7 L330 7 Z M343 75 C346 75 348 76 343 72 C343 74 343 75 343 75 L343 75 Z M343 75 L343 75 L343 75 L343 75 Z M261 300 C262 300 262 300 262 301 C264 300 263 300 260 300 L261 300 L261 300 Z M260 300 C259 300 258 300 257 300 C258 300 259 300 260 300 L260 300 Z M260 401 C267 401 269 401 262 398 C262 400 262 401 261 401 L260 401 L260 401 Z M261 401 C260 401 259 401 257 401 C258 401 259 401 260 401 L261 401 L261 401 Z M323 585 C323 585 323 586 323 588 C327 585 326 585 323 585 L323 585 Z M323 585 L323 585 C324 585 324 585 324 585 L323 585 L323 585 Z " />
<glyph glyph-name="Eacute" unicode="&#xc9;" horiz-adv-x="392" d="M159 691 L269 820 C294 849 312 871 311 875 C311 880 291 895 283 895 C281 895 264 871 244 840 L154 695 L159 691 L159 691 Z M330 7 C333 22 337 46 339 61 C340 67 341 70 341 72 C338 70 333 67 325 61 L252 14 L122 14 L122 345 L173 345 L233 315 C251 307 259 303 262 301 C262 303 262 307 262 315 L262 345 L262 352 L262 359 L262 385 C262 392 262 396 262 398 C257 396 248 392 233 385 L173 359 L122 359 L122 646 L245 646 L309 599 C317 593 322 590 324 588 C324 590 324 593 324 599 C325 614 325 638 324 653 L324 660 L318 660 L286 660 L123 660 L95 660 L67 660 L41 660 C33 660 34 662 34 644 C34 622 33 625 41 624 L67 621 L67 39 L41 36 C33 35 34 38 34 16 C34 -2 33 0 41 0 L67 0 L95 0 L123 0 L291 0 L328 0 L330 0 L330 7 L330 7 Z M343 75 C346 75 348 76 343 72 C343 74 343 75 343 75 L343 75 Z M343 75 L343 75 L343 75 L343 75 Z M261 300 C262 300 262 300 262 301 C264 300 263 300 260 300 L261 300 L261 300 Z M260 300 C259 300 258 300 257 300 C258 300 259 300 260 300 L260 300 Z M260 401 C267 401 269 401 262 398 C262 400 262 401 261 401 L260 401 L260 401 Z M261 401 C260 401 259 401 257 401 C258 401 259 401 260 401 L261 401 L261 401 Z M323 585 C323 585 323 586 323 588 C327 585 326 585 323 585 L323 585 Z M323 585 L323 585 C324 585 324 585 324 585 L323 585 L323 585 Z " />
<glyph glyph-name="Ecircumflex" unicode="&#xca;" horiz-adv-x="392" d="M191 847 L280 693 L285 698 L207 891 C206 895 200 905 191 905 C183 905 177 895 176 891 L97 698 L102 693 L191 847 L191 847 Z M330 7 C333 22 337 46 339 61 C340 67 341 70 341 72 C338 70 333 67 325 61 L252 14 L122 14 L122 345 L173 345 L233 315 C251 307 259 303 262 301 C262 303 262 307 262 315 L262 345 L262 352 L262 359 L262 385 C262 392 262 396 262 398 C257 396 248 392 233 385 L173 359 L122 359 L122 646 L245 646 L309 599 C317 593 322 590 324 588 C324 590 324 593 324 599 C325 614 325 638 324 653 L324 660 L318 660 L286 660 L123 660 L95 660 L67 660 L41 660 C33 660 34 662 34 644 C34 622 33 625 41 624 L67 621 L67 39 L41 36 C33 35 34 38 34 16 C34 -2 33 0 41 0 L67 0 L95 0 L123 0 L291 0 L328 0 L330 0 L330 7 L330 7 Z M343 75 C346 75 348 76 343 72 C343 74 343 75 343 75 L343 75 Z M343 75 L343 75 L343 75 L343 75 Z M261 300 C262 300 262 300 262 301 C264 300 263 300 260 300 L261 300 L261 300 Z M260 300 C259 300 258 300 257 300 C258 300 259 300 260 300 L260 300 Z M260 401 C267 401 269 401 262 398 C262 400 262 401 261 401 L260 401 L260 401 Z M261 401 C260 401 259 401 257 401 C258 401 259 401 260 401 L261 401 L261 401 Z M323 585 C323 585 323 586 323 588 C327 585 326 585 323 585 L323 585 Z M323 585 L323 585 C324 585 324 585 324 585 L323 585 L323 585 Z " />
<glyph glyph-name="Edieresis" unicode="&#xcb;" horiz-adv-x="392" d="M275 730 C293 730 306 743 306 761 C306 778 293 791 275 791 C257 791 244 778 244 761 C244 743 257 730 275 730 L275 730 Z M108 730 C125 730 138 743 138 761 C138 778 125 791 108 791 C90 791 77 778 77 761 C77 743 90 730 108 730 L108 730 Z M330 7 C333 22 337 46 339 61 C340 67 341 70 341 72 C338 70 333 67 325 61 L252 14 L122 14 L122 345 L173 345 L233 315 C251 307 259 303 262 301 C262 303 262 307 262 315 L262 345 L262 352 L262 359 L262 385 C262 392 262 396 262 398 C257 396 248 392 233 385 L173 359 L122 359 L122 646 L245 646 L309 599 C317 593 322 590 324 588 C324 590 324 593 324 599 C325 614 325 638 324 653 L324 660 L318 660 L286 660 L123 660 L95 660 L67 660 L41 660 C33 660 34 662 34 644 C34 622 33 625 41 624 L67 621 L67 39 L41 36 C33 35 34 38 34 16 C34 -2 33 0 41 0 L67 0 L95 0 L123 0 L291 0 L328 0 L330 0 L330 7 L330 7 Z M343 75 C346 75 348 76 343 72 C343 74 343 75 343 75 L343 75 Z M343 75 L343 75 L343 75 L343 75 Z M261 300 C262 300 262 300 262 301 C264 300 263 300 260 300 L261 300 L261 300 Z M260 300 C259 300 258 300 257 300 C258 300 259 300 260 300 L260 300 Z M260 401 C267 401 269 401 262 398 C262 400 262 401 261 401 L260 401 L260 401 Z M261 401 C260 401 259 401 257 401 C258 401 259 401 260 401 L261 401 L261 401 Z M323 585 C323 585 323 586 323 588 C327 585 326 585 323 585 L323 585 Z M323 585 L323 585 C324 585 324 585 324 585 L323 585 L323 585 Z " />
<glyph glyph-name="Igrave" unicode="&#xcc;" horiz-adv-x="187" d="M80 840 C60 871 43 895 40 895 C32 895 12 880 12 875 C12 870 30 847 55 820 L168 691 L173 695 L80 840 L80 840 Z M94 0 L122 0 L148 0 C155 0 154 -2 155 16 C154 38 155 35 148 36 L122 39 L122 621 L148 624 C155 625 154 622 155 644 C154 662 155 660 148 660 L122 660 L94 660 L66 660 L40 660 C32 660 33 662 33 644 C33 622 32 625 40 624 L66 621 L66 39 L40 36 C32 35 33 38 33 16 C33 -2 32 0 40 0 L66 0 L94 0 L94 0 Z " />
<glyph glyph-name="Iacute" unicode="&#xcd;" horiz-adv-x="187" d="M32 691 L142 820 C165 849 183 871 183 875 C183 880 163 895 155 895 C152 895 136 871 116 840 L26 695 L32 691 L32 691 Z M94 0 L122 0 L148 0 C155 0 154 -2 155 16 C154 38 155 35 148 36 L122 39 L122 621 L148 624 C155 625 154 622 155 644 C154 662 155 660 148 660 L122 660 L94 660 L66 660 L40 660 C32 660 33 662 33 644 C33 622 32 625 40 624 L66 621 L66 39 L40 36 C32 35 33 38 33 16 C33 -2 32 0 40 0 L66 0 L94 0 L94 0 Z " />
<glyph glyph-name="Icircumflex" unicode="&#xce;" horiz-adv-x="187" d="M94 847 L183 693 L188 698 L110 891 C108 895 103 905 94 905 C85 905 80 895 78 891 L0 698 L5 693 L94 847 L94 847 Z M94 0 L122 0 L148 0 C155 0 154 -2 155 16 C154 38 155 35 148 36 L122 39 L122 621 L148 624 C155 625 154 622 155 644 C154 662 155 660 148 660 L122 660 L94 660 L66 660 L40 660 C32 660 33 662 33 644 C33 622 32 625 40 624 L66 621 L66 39 L40 36 C32 35 33 38 33 16 C33 -2 32 0 40 0 L66 0 L94 0 L94 0 Z " />
<glyph glyph-name="Idieresis" unicode="&#xcf;" horiz-adv-x="187" d="M177 730 C195 730 208 743 208 761 C208 778 195 791 177 791 C160 791 147 778 147 761 C147 743 160 730 177 730 L177 730 Z M10 730 C28 730 41 743 41 761 C41 778 28 791 10 791 C-7 791 -20 778 -20 761 C-20 743 -7 730 10 730 L10 730 Z M94 0 L122 0 L148 0 C155 0 154 -2 155 16 C154 38 155 35 148 36 L122 39 L122 621 L148 624 C155 625 154 622 155 644 C154 662 155 660 148 660 L122 660 L94 660 L66 660 L40 660 C32 660 33 662 33 644 C33 622 32 625 40 624 L66 621 L66 39 L40 36 C32 35 33 38 33 16 C33 -2 32 0 40 0 L66 0 L94 0 L94 0 Z " />
<glyph glyph-name="Ntilde" unicode="&#xd1;" horiz-adv-x="477" d="M185 755 C185 793 192 822 201 822 C237 822 236 759 273 759 C294 759 310 799 310 852 L301 852 C301 818 293 792 283 792 C247 792 248 855 212 855 C192 855 177 812 177 755 L185 755 L185 755 Z M401 621 L401 89 L119 660 L86 660 L77 660 L69 660 L43 660 C35 660 36 662 36 644 C36 622 35 625 43 624 L69 621 L69 39 L43 36 C35 35 36 38 36 16 C36 -2 35 0 43 0 L69 0 L77 0 L86 0 L112 0 C120 0 119 -2 119 16 C119 38 120 35 112 36 L86 39 L86 602 L376 22 L392 -11 L418 -11 L418 42 L418 621 L444 624 C452 625 451 622 451 644 C451 662 452 660 444 660 L418 660 L409 660 L401 660 L375 660 C367 660 368 662 368 644 C368 622 367 625 375 624 L401 621 L401 621 Z " />
<glyph glyph-name="Ograve" unicode="&#xd2;" horiz-adv-x="639" d="M325 9 C198 9 123 165 123 330 C123 495 198 651 325 651 C452 651 528 495 528 330 C528 165 452 9 325 9 L325 9 Z M62 330 C62 158 160 -5 325 -5 C491 -5 589 158 589 330 C589 502 491 665 325 665 C160 665 62 502 62 330 L62 330 Z M311 840 C292 871 275 895 272 895 C263 895 243 880 243 875 C243 870 261 847 286 820 L399 691 L404 695 L311 840 L311 840 Z " />
<glyph glyph-name="Oacute" unicode="&#xd3;" horiz-adv-x="639" d="M301 691 L411 820 C434 849 452 871 453 875 C453 880 432 895 424 895 C422 895 406 871 385 840 L295 695 L301 691 L301 691 Z M325 9 C198 9 123 165 123 330 C123 495 198 651 325 651 C452 651 528 495 528 330 C528 165 452 9 325 9 L325 9 Z M62 330 C62 158 160 -5 325 -5 C491 -5 589 158 589 330 C589 502 491 665 325 665 C160 665 62 502 62 330 L62 330 Z " />
<glyph glyph-name="Ocircumflex" unicode="&#xd4;" horiz-adv-x="639" d="M325 9 C198 9 123 165 123 330 C123 495 198 651 325 651 C452 651 528 495 528 330 C528 165 452 9 325 9 L325 9 Z M62 330 C62 158 160 -5 325 -5 C491 -5 589 158 589 330 C589 502 491 665 325 665 C160 665 62 502 62 330 L62 330 Z M325 847 L414 693 L419 698 L341 891 C340 895 334 905 325 905 C317 905 311 895 310 891 L231 698 L236 693 L325 847 L325 847 Z " />
<glyph glyph-name="Otilde" unicode="&#xd5;" horiz-adv-x="639" d="M267 755 C267 793 274 822 283 822 C319 822 318 759 355 759 C376 759 392 799 392 852 L383 852 C383 818 375 792 365 792 C329 792 330 855 293 855 C274 855 259 812 259 755 L267 755 L267 755 Z M325 9 C198 9 123 165 123 330 C123 495 198 651 325 651 C452 651 528 495 528 330 C528 165 452 9 325 9 L325 9 Z M62 330 C62 158 160 -5 325 -5 C491 -5 589 158 589 330 C589 502 491 665 325 665 C160 665 62 502 62 330 L62 330 Z " />
<glyph glyph-name="Odieresis" unicode="&#xd6;" horiz-adv-x="639" d="M409 730 C426 730 439 743 439 761 C439 778 426 791 409 791 C391 791 378 778 378 761 C378 743 391 730 409 730 L409 730 Z M242 730 C259 730 272 743 272 761 C272 778 259 791 242 791 C224 791 211 778 211 761 C211 743 224 730 242 730 L242 730 Z M325 9 C198 9 123 165 123 330 C123 495 198 651 325 651 C452 651 528 495 528 330 C528 165 452 9 325 9 L325 9 Z M62 330 C62 158 160 -5 325 -5 C491 -5 589 158 589 330 C589 502 491 665 325 665 C160 665 62 502 62 330 L62 330 Z " />
<glyph glyph-name="Oslash" unicode="&#xd8;" horiz-adv-x="639" d="M72 -13 L145 80 C189 28 250 -5 324 -5 C490 -5 588 158 588 330 C588 414 564 496 520 558 L597 656 L577 672 L503 579 C459 631 398 664 323 664 C158 664 60 501 60 329 C60 244 84 162 128 100 L51 2 L72 -13 L72 -13 Z M324 8 C258 8 206 50 171 114 L489 519 C513 464 526 397 526 329 C526 164 450 8 323 8 L324 8 L324 8 Z M158 139 C134 194 121 261 121 329 C121 494 196 650 323 650 C389 650 441 608 476 544 L158 139 L158 139 Z " />
<glyph glyph-name="Ugrave" unicode="&#xd9;" horiz-adv-x="463" d="M226 840 C207 871 190 895 187 895 C178 895 158 880 158 875 C158 870 176 847 201 820 L314 691 L319 695 L226 840 L226 840 Z M67 621 L67 203 C67 85 123 -5 244 -5 C360 -5 413 72 413 173 L413 621 L443 624 C451 625 450 622 450 644 C450 662 451 660 443 660 L413 660 L405 660 L397 660 L365 660 C358 660 359 662 359 644 C359 622 358 625 365 624 L397 621 L397 179 C397 85 351 14 252 14 C164 14 123 91 123 193 L123 621 L149 624 C157 625 156 622 156 644 C156 662 157 660 149 660 L123 660 L95 660 L67 660 L41 660 C33 660 34 662 34 644 C34 622 33 625 41 624 L67 621 L67 621 Z " />
<glyph glyph-name="Uacute" unicode="&#xda;" horiz-adv-x="463" d="M239 691 L349 820 C372 849 390 871 390 875 C390 880 370 895 362 895 C360 895 344 871 323 840 L233 695 L239 691 L239 691 Z M67 621 L67 203 C67 85 123 -5 244 -5 C360 -5 413 72 413 173 L413 621 L443 624 C451 625 450 622 450 644 C450 662 451 660 443 660 L413 660 L405 660 L397 660 L365 660 C358 660 359 662 359 644 C359 622 358 625 365 624 L397 621 L397 179 C397 85 351 14 252 14 C164 14 123 91 123 193 L123 621 L149 624 C157 625 156 622 156 644 C156 662 157 660 149 660 L123 660 L95 660 L67 660 L41 660 C33 660 34 662 34 644 C34 622 33 625 41 624 L67 621 L67 621 Z " />
<glyph glyph-name="Ucircumflex" unicode="&#xdb;" horiz-adv-x="463" d="M240 847 L329 693 L334 698 L256 891 C255 895 249 905 240 905 C232 905 226 895 225 891 L146 698 L151 693 L240 847 L240 847 Z M67 621 L67 203 C67 85 123 -5 244 -5 C360 -5 413 72 413 173 L413 621 L443 624 C451 625 450 622 450 644 C450 662 451 660 443 660 L413 660 L405 660 L397 660 L365 660 C358 660 359 662 359 644 C359 622 358 625 365 624 L397 621 L397 179 C397 85 351 14 252 14 C164 14 123 91 123 193 L123 621 L149 624 C157 625 156 622 156 644 C156 662 157 660 149 660 L123 660 L95 660 L67 660 L41 660 C33 660 34 662 34 644 C34 622 33 625 41 624 L67 621 L67 621 Z " />
<glyph glyph-name="Udieresis" unicode="&#xdc;" horiz-adv-x="463" d="M324 730 C341 730 354 743 354 761 C354 778 341 791 324 791 C306 791 293 778 293 761 C293 743 306 730 324 730 L324 730 Z M157 730 C174 730 187 743 187 761 C187 778 174 791 157 791 C139 791 126 778 126 761 C126 743 139 730 157 730 L157 730 Z M67 621 L67 203 C67 85 123 -5 244 -5 C360 -5 413 72 413 173 L413 621 L443 624 C451 625 450 622 450 644 C450 662 451 660 443 660 L413 660 L405 660 L397 660 L365 660 C358 660 359 662 359 644 C359 622 358 625 365 624 L397 621 L397 179 C397 85 351 14 252 14 C164 14 123 91 123 193 L123 621 L149 624 C157 625 156 622 156 644 C156 662 157 660 149 660 L123 660 L95 660 L67 660 L41 660 C33 660 34 662 34 644 C34 622 33 625 41 624 L67 621 L67 621 Z " />
<glyph glyph-name="Yacute" unicode="&#xdd;" horiz-adv-x="419" d="M216 691 L326 820 C350 849 368 871 368 875 C368 880 348 895 339 895 C337 895 321 871 301 840 L211 695 L216 691 L216 691 Z M54 621 L54 621 L190 271 L190 39 L164 36 C156 35 157 38 157 16 C157 -2 156 0 164 0 L190 0 L218 0 L246 0 L272 0 C279 0 278 -2 279 16 C278 38 279 35 272 36 L246 39 L246 301 L246 301 L381 621 L381 621 L404 624 C412 625 411 623 411 643 C412 662 413 660 405 660 L397 660 L389 660 L380 660 L342 660 C335 660 335 662 335 644 C335 622 334 625 342 624 L364 621 L231 301 L230 301 L119 621 L137 624 C144 625 143 622 144 644 C144 662 145 660 137 660 L106 660 L72 660 L39 660 L34 660 C26 660 27 662 27 643 C27 623 26 625 34 624 L54 621 L54 621 Z " />
<glyph glyph-name="agrave" unicode="&#xe0;" horiz-adv-x="453" d="M167 680 C147 711 130 735 127 735 C119 735 98 720 98 715 C98 710 117 687 141 660 L254 531 L260 535 L167 680 L167 680 Z M381 24 C381 12 382 9 375 22 C379 23 380 24 380 24 L381 24 L381 24 Z M380 24 L380 24 L380 24 L380 24 Z M374 22 C372 25 370 29 367 34 L341 83 L341 407 L341 501 L327 501 L298 426 C278 469 235 507 198 507 C115 507 53 387 53 227 C53 96 107 -3 179 -3 C204 -3 250 44 290 109 L290 70 L290 14 L290 1 L290 -4 L299 -4 L334 11 L366 21 C369 22 371 23 373 23 L374 22 L374 22 Z M291 120 C260 67 224 28 207 28 C149 28 106 122 106 246 C106 387 145 493 197 493 C233 493 276 452 292 408 L291 120 L291 120 Z " />
<glyph glyph-name="aacute" unicode="&#xe1;" horiz-adv-x="362" d="M125 531 L235 660 C260 689 278 711 277 715 C277 720 257 735 249 735 C247 735 230 711 210 680 L120 535 L125 531 L125 531 Z M341 37 C327 24 310 14 289 14 C260 14 250 39 250 73 L250 359 C250 442 218 505 176 505 C124 505 76 462 65 406 L115 406 C124 454 146 491 165 491 C183 491 197 439 197 371 L197 247 L141 234 C81 219 36 162 36 102 C36 41 64 -5 101 -5 C122 -5 160 23 197 64 C198 22 213 -9 255 -9 C293 -9 323 8 346 31 L341 37 L341 37 Z M197 235 L197 74 C170 48 142 31 124 31 C102 31 85 68 85 117 C85 165 110 209 143 219 L197 235 L197 235 Z " />
<glyph glyph-name="acircumflex" unicode="&#xe2;" horiz-adv-x="453" d="M181 688 L270 533 L276 538 L197 731 C196 735 190 745 182 745 C173 745 167 735 166 731 L87 538 L93 533 L181 688 L181 688 Z M382 24 C382 12 383 9 376 22 C380 23 381 24 381 24 L382 24 L382 24 Z M381 24 L381 24 L381 24 L381 24 Z M375 22 C373 25 371 29 368 34 L342 83 L342 407 L342 501 L328 501 L299 426 C279 469 236 507 199 507 C116 507 54 387 54 227 C54 96 108 -3 180 -3 C205 -3 251 44 291 109 L291 70 L291 14 L291 1 L291 -4 L300 -4 L335 11 L367 21 C370 22 372 23 374 23 L375 22 L375 22 Z M292 120 C261 67 225 28 208 28 C150 28 107 122 107 246 C107 387 146 493 198 493 C234 493 277 452 293 408 L292 120 L292 120 Z " />
<glyph glyph-name="atilde" unicode="&#xe3;" horiz-adv-x="453" d="M123 595 C123 633 129 662 138 662 C174 662 174 599 210 599 C231 599 247 639 247 692 L238 692 C238 658 230 632 221 632 C184 632 185 695 149 695 C129 695 114 652 114 595 L123 595 L123 595 Z M381 24 C381 12 382 9 375 22 C379 23 380 24 380 24 L381 24 L381 24 Z M380 24 L380 24 L380 24 L380 24 Z M374 22 C372 25 370 29 367 34 L341 83 L341 407 L341 501 L327 501 L298 426 C278 469 235 507 198 507 C115 507 53 387 53 227 C53 96 107 -3 179 -3 C204 -3 250 44 290 109 L290 70 L290 14 L290 1 L290 -4 L299 -4 L334 11 L366 21 C369 22 371 23 373 23 L374 22 L374 22 Z M291 120 C260 67 224 28 207 28 C149 28 106 122 106 246 C106 387 145 493 197 493 C233 493 276 452 292 408 L291 120 L291 120 Z " />
<glyph glyph-name="adieresis" unicode="&#xe4;" horiz-adv-x="453" d="M264 570 C282 570 295 583 295 601 C295 618 282 631 264 631 C246 631 233 618 233 601 C233 583 246 570 264 570 L264 570 Z M97 570 C115 570 128 583 128 601 C128 618 115 631 97 631 C79 631 66 618 66 601 C66 583 79 570 97 570 L97 570 Z M381 24 C381 12 382 9 375 22 C379 23 380 24 380 24 L381 24 L381 24 Z M380 24 L380 24 L380 24 L380 24 Z M374 22 C372 25 370 29 367 34 L341 83 L341 407 L341 501 L327 501 L298 426 C278 469 235 507 198 507 C115 507 53 387 53 227 C53 96 107 -3 179 -3 C204 -3 250 44 290 109 L290 70 L290 14 L290 1 L290 -4 L299 -4 L334 11 L366 21 C369 22 371 23 373 23 L374 22 L374 22 Z M291 120 C260 67 224 28 207 28 C149 28 106 122 106 246 C106 387 145 493 197 493 C233 493 276 452 292 408 L291 120 L291 120 Z " />
<glyph glyph-name="aring" unicode="&#xe5;" horiz-adv-x="453" d="M181 546 C139 546 100 586 100 628 C100 674 135 709 181 709 C226 709 261 674 261 628 C261 586 222 546 181 546 L181 546 Z M86 628 C86 580 132 535 181 535 C229 535 275 580 275 628 C275 680 234 720 181 720 C127 720 86 680 86 628 L86 628 Z M381 24 C381 12 382 9 375 22 C379 23 380 24 380 24 L381 24 L381 24 Z M380 24 L380 24 L380 24 L380 24 Z M374 22 C372 25 370 29 367 34 L341 83 L341 407 L341 501 L327 501 L298 426 C278 469 235 507 198 507 C115 507 53 387 53 227 C53 96 107 -3 179 -3 C204 -3 250 44 290 109 L290 70 L290 14 L290 1 L290 -4 L299 -4 L334 11 L366 21 C369 22 371 23 373 23 L374 22 L374 22 Z M291 120 C260 67 224 28 207 28 C149 28 106 122 106 246 C106 387 145 493 197 493 C233 493 276 452 292 408 L291 120 L291 120 Z " />
<glyph glyph-name="ccedilla" unicode="&#xe7;" horiz-adv-x="355" d="M165 -80 L189 -4 C228 -1 276 18 304 42 L299 48 C285 35 250 26 219 26 C153 26 103 125 103 255 C103 390 147 492 206 492 C232 492 254 454 258 405 C260 391 271 380 283 380 C296 380 306 390 306 402 C300 461 260 506 212 506 C120 506 50 390 50 236 C50 102 103 0 173 -4 L157 -92 L161 -92 C168 -84 176 -77 179 -77 C190 -77 198 -101 198 -133 C198 -173 185 -204 169 -204 C154 -204 136 -198 128 -189 L126 -196 C140 -209 163 -219 179 -219 C207 -219 228 -182 228 -133 C228 -95 212 -67 191 -67 C182 -67 171 -72 165 -80 L165 -80 Z " />
<glyph glyph-name="egrave" unicode="&#xe8;" horiz-adv-x="362" d="M310 41 L306 47 C291 34 255 25 222 25 C154 25 103 124 103 254 C103 279 104 302 106 324 L264 324 L311 324 C311 427 261 505 195 505 C112 505 49 389 49 235 C49 98 105 -5 179 -5 C222 -5 278 15 309 41 L310 41 L310 41 Z M181 680 C161 711 144 735 141 735 C133 735 112 720 112 715 C112 710 131 687 155 660 L268 531 L274 535 L181 680 L181 680 Z M107 333 C119 427 152 491 192 491 C233 491 264 437 264 366 C264 352 254 342 241 341 L264 342 L107 333 L107 333 Z " />
<glyph glyph-name="eacute" unicode="&#xe9;" horiz-adv-x="362" d="M164 531 L274 660 C298 689 316 711 315 715 C315 720 295 735 287 735 C285 735 268 711 248 680 L158 535 L164 531 L164 531 Z M310 41 L306 47 C291 34 255 25 222 25 C154 25 103 124 103 254 C103 279 104 302 106 324 L264 324 L311 324 C311 427 261 505 195 505 C112 505 49 389 49 235 C49 98 105 -5 179 -5 C222 -5 278 15 309 41 L310 41 L310 41 Z M107 333 C119 427 152 491 192 491 C233 491 264 437 264 366 C264 352 254 342 241 341 L264 342 L107 333 L107 333 Z " />
<glyph glyph-name="ecircumflex" unicode="&#xea;" horiz-adv-x="362" d="M310 41 L306 47 C291 34 255 25 222 25 C154 25 103 124 103 254 C103 279 104 302 106 324 L264 324 L311 324 C311 427 261 505 195 505 C112 505 49 389 49 235 C49 98 105 -5 179 -5 C222 -5 278 15 309 41 L310 41 L310 41 Z M195 688 L284 533 L289 538 L211 731 C209 735 203 745 195 745 C186 745 180 735 179 731 L101 538 L106 533 L195 688 L195 688 Z M107 333 C119 427 152 491 192 491 C233 491 264 437 264 366 C264 352 254 342 241 341 L264 342 L107 333 L107 333 Z " />
<glyph glyph-name="edieresis" unicode="&#xeb;" horiz-adv-x="362" d="M279 570 C297 570 310 583 310 601 C310 618 297 631 279 631 C262 631 249 618 249 601 C249 583 262 570 279 570 L279 570 Z M112 570 C130 570 143 583 143 601 C143 618 130 631 112 631 C94 631 81 618 81 601 C81 583 94 570 112 570 L112 570 Z M310 41 L306 47 C291 34 255 25 222 25 C154 25 103 124 103 254 C103 279 104 302 106 324 L264 324 L311 324 C311 427 261 505 195 505 C112 505 49 389 49 235 C49 98 105 -5 179 -5 C222 -5 278 15 309 41 L310 41 L310 41 Z M107 333 C119 427 152 491 192 491 C233 491 264 437 264 366 C264 352 254 342 241 341 L264 342 L107 333 L107 333 Z " />
<glyph glyph-name="igrave" unicode="&#xec;" horiz-adv-x="192" d="M82 680 C62 711 46 735 42 735 C34 735 14 720 14 715 C14 710 32 687 57 660 L170 531 L175 535 L82 680 L82 680 Z M33 450 C33 463 32 466 39 453 C35 452 34 452 34 452 L33 450 L33 450 Z M34 452 C34 452 34 452 34 451 L34 451 L34 452 L34 452 Z M40 453 C42 450 44 446 46 441 L72 392 L72 39 L46 36 C38 35 39 38 39 16 C39 -2 38 0 46 0 L72 0 L97 0 L122 0 L148 0 C156 0 155 -2 155 16 C155 38 156 35 148 36 L122 39 L122 405 L122 461 L122 474 L112 474 L46 454 C44 453 42 452 40 452 L40 453 L40 453 Z " />
<glyph glyph-name="iacute" unicode="&#xed;" horiz-adv-x="192" d="M19 531 L129 660 C152 689 170 711 170 715 C170 720 150 735 142 735 C139 735 123 711 103 680 L13 535 L19 531 L19 531 Z M33 450 C33 463 32 466 39 453 C35 452 34 452 34 452 L33 450 L33 450 Z M34 452 C34 452 34 452 34 451 L34 451 L34 452 L34 452 Z M40 453 C42 450 44 446 46 441 L72 392 L72 39 L46 36 C38 35 39 38 39 16 C39 -2 38 0 46 0 L72 0 L97 0 L122 0 L148 0 C156 0 155 -2 155 16 C155 38 156 35 148 36 L122 39 L122 405 L122 461 L122 474 L112 474 L46 454 C44 453 42 452 40 452 L40 453 L40 453 Z " />
<glyph glyph-name="icircumflex" unicode="&#xee;" horiz-adv-x="192" d="M96 687 L185 533 L190 538 L112 731 C110 735 105 745 96 745 C87 745 82 735 80 731 L2 538 L7 533 L96 687 L96 687 Z M33 450 C33 463 32 466 39 453 C35 452 34 452 34 452 L33 450 L33 450 Z M34 452 C34 452 34 452 34 451 L34 451 L34 452 L34 452 Z M40 453 C42 450 44 446 46 441 L72 392 L72 39 L46 36 C38 35 39 38 39 16 C39 -2 38 0 46 0 L72 0 L97 0 L122 0 L148 0 C156 0 155 -2 155 16 C155 38 156 35 148 36 L122 39 L122 405 L122 461 L122 474 L112 474 L46 454 C44 453 42 452 40 452 L40 453 L40 453 Z " />
<glyph glyph-name="idieresis" unicode="&#xef;" horiz-adv-x="192" d="M180 570 C197 570 210 583 210 601 C210 618 197 631 180 631 C162 631 149 618 149 601 C149 583 162 570 180 570 L180 570 Z M13 570 C30 570 43 583 43 601 C43 618 30 631 13 631 C-5 631 -18 618 -18 601 C-18 583 -5 570 13 570 L13 570 Z M33 450 C33 463 32 466 39 453 C35 452 34 452 34 452 L33 450 L33 450 Z M34 452 C34 452 34 452 34 451 L34 451 L34 452 L34 452 Z M40 453 C42 450 44 446 46 441 L72 392 L72 39 L46 36 C38 35 39 38 39 16 C39 -2 38 0 46 0 L72 0 L97 0 L122 0 L148 0 C156 0 155 -2 155 16 C155 38 156 35 148 36 L122 39 L122 405 L122 461 L122 474 L112 474 L46 454 C44 453 42 452 40 452 L40 453 L40 453 Z " />
<glyph glyph-name="ntilde" unicode="&#xf1;" horiz-adv-x="402" d="M146 595 C146 633 152 662 161 662 C197 662 197 599 233 599 C254 599 270 639 270 692 L262 692 C262 658 254 632 244 632 C208 632 208 695 172 695 C152 695 137 652 137 595 L146 595 L146 595 Z M33 476 C33 489 32 492 39 479 C35 478 34 478 34 478 L33 476 L33 476 Z M34 478 C34 478 34 478 34 477 L34 477 L34 478 L34 478 Z M40 479 C42 476 44 472 46 467 L72 418 L72 39 L46 36 C38 35 39 38 39 16 C39 -2 38 0 46 0 L72 0 L97 0 L122 0 L148 0 C156 0 155 -2 155 16 C155 38 156 35 148 36 L122 39 L122 431 L122 434 C164 455 204 470 217 470 C265 470 287 410 287 330 L287 38 L261 35 C253 34 254 37 254 15 C254 -3 253 -1 261 -1 L287 -1 L312 -1 L337 -1 L364 -1 C372 -1 371 -3 370 15 C371 37 372 34 364 35 L337 38 L337 335 C337 431 311 504 256 504 C250 504 193 476 122 439 L122 448 L122 500 L112 500 L46 480 C44 479 42 478 40 478 L40 479 L40 479 Z " />
<glyph glyph-name="ograve" unicode="&#xf2;" horiz-adv-x="468" d="M234 6 C161 6 106 111 106 250 C106 389 161 494 234 494 C308 494 363 389 363 250 C363 111 308 6 234 6 L234 6 Z M50 250 C50 105 129 -5 234 -5 C340 -5 419 105 419 250 C419 395 340 505 234 505 C129 505 50 395 50 250 L50 250 Z M221 680 C201 711 184 735 181 735 C172 735 152 720 152 715 C152 710 170 687 195 660 L308 531 L314 535 L221 680 L221 680 Z " />
<glyph glyph-name="oacute" unicode="&#xf3;" horiz-adv-x="468" d="M202 531 L312 660 C337 689 355 711 354 715 C354 720 334 735 326 735 C324 735 307 711 287 680 L197 535 L202 531 L202 531 Z M234 6 C161 6 106 111 106 250 C106 389 161 494 234 494 C308 494 363 389 363 250 C363 111 308 6 234 6 L234 6 Z M50 250 C50 105 129 -5 234 -5 C340 -5 419 105 419 250 C419 395 340 505 234 505 C129 505 50 395 50 250 L50 250 Z " />
<glyph glyph-name="ocircumflex" unicode="&#xf4;" horiz-adv-x="468" d="M234 6 C161 6 106 111 106 250 C106 389 161 494 234 494 C308 494 363 389 363 250 C363 111 308 6 234 6 L234 6 Z M50 250 C50 105 129 -5 234 -5 C340 -5 419 105 419 250 C419 395 340 505 234 505 C129 505 50 395 50 250 L50 250 Z M234 687 L323 533 L329 538 L250 731 C249 735 243 745 234 745 C226 745 220 735 219 731 L140 538 L145 533 L234 687 L234 687 Z " />
<glyph glyph-name="otilde" unicode="&#xf5;" horiz-adv-x="468" d="M177 595 C177 633 183 662 192 662 C228 662 228 599 264 599 C285 599 301 639 301 692 L292 692 C292 658 284 632 274 632 C238 632 239 695 203 695 C183 695 168 652 168 595 L177 595 L177 595 Z M234 6 C161 6 106 111 106 250 C106 389 161 494 234 494 C308 494 363 389 363 250 C363 111 308 6 234 6 L234 6 Z M50 250 C50 105 129 -5 234 -5 C340 -5 419 105 419 250 C419 395 340 505 234 505 C129 505 50 395 50 250 L50 250 Z " />
<glyph glyph-name="odieresis" unicode="&#xf6;" horiz-adv-x="468" d="M318 570 C336 570 349 583 349 601 C349 618 336 631 318 631 C300 631 287 618 287 601 C287 583 300 570 318 570 L318 570 Z M151 570 C168 570 181 583 181 601 C181 618 168 631 151 631 C133 631 120 618 120 601 C120 583 133 570 151 570 L151 570 Z M234 6 C161 6 106 111 106 250 C106 389 161 494 234 494 C308 494 363 389 363 250 C363 111 308 6 234 6 L234 6 Z M50 250 C50 105 129 -5 234 -5 C340 -5 419 105 419 250 C419 395 340 505 234 505 C129 505 50 395 50 250 L50 250 Z " />
<glyph glyph-name="oslash" unicode="&#xf8;" horiz-adv-x="468" d="M57 -10 L108 61 C140 20 184 -5 234 -5 C340 -5 419 105 419 250 C419 319 401 380 371 425 L426 501 L412 511 L361 440 C328 481 284 506 234 506 C129 506 50 396 50 251 C50 182 68 121 98 76 L43 1 L57 -10 L57 -10 Z M234 7 C192 7 156 41 133 96 L342 385 C355 347 362 301 362 250 C362 111 307 6 233 6 L234 7 L234 7 Z M125 115 C112 153 105 199 105 250 C105 389 160 494 233 494 C275 494 311 460 334 405 L125 115 L125 115 Z " />
<glyph glyph-name="ugrave" unicode="&#xf9;" horiz-adv-x="367" d="M160 680 C140 711 123 735 120 735 C112 735 91 720 91 715 C91 710 110 687 134 660 L247 531 L253 535 L160 680 L160 680 Z M345 24 C345 11 346 8 339 21 C344 23 345 23 345 23 L345 24 L345 24 Z M345 23 L345 23 L345 23 L345 23 Z M339 20 C337 23 335 27 333 32 L306 81 L306 499 L281 499 L256 499 L230 499 C222 499 223 501 223 483 C223 461 222 464 230 463 L256 460 L256 68 L256 64 C233 42 204 26 177 26 C123 26 90 83 90 159 L90 498 L65 498 L40 498 L14 498 C6 498 7 500 7 482 C7 460 6 463 14 462 L40 459 L40 154 C40 62 77 -7 138 -7 C174 -7 218 20 256 56 L256 12 L256 -1 L266 -1 L333 19 C335 20 337 21 339 21 L339 20 L339 20 Z " />
<glyph glyph-name="uacute" unicode="&#xfa;" horiz-adv-x="367" d="M142 531 L252 660 C276 689 294 711 293 715 C293 720 273 735 265 735 C263 735 246 711 226 680 L136 535 L142 531 L142 531 Z M345 24 C345 11 346 8 339 21 C344 23 345 23 345 23 L345 24 L345 24 Z M345 23 L345 23 L345 23 L345 23 Z M339 20 C337 23 335 27 333 32 L306 81 L306 499 L281 499 L256 499 L230 499 C222 499 223 501 223 483 C223 461 222 464 230 463 L256 460 L256 68 L256 64 C233 42 204 26 177 26 C123 26 90 83 90 159 L90 498 L65 498 L40 498 L14 498 C6 498 7 500 7 482 C7 460 6 463 14 462 L40 459 L40 154 C40 62 77 -7 138 -7 C174 -7 218 20 256 56 L256 12 L256 -1 L266 -1 L333 19 C335 20 337 21 339 21 L339 20 L339 20 Z " />
<glyph glyph-name="ucircumflex" unicode="&#xfb;" horiz-adv-x="367" d="M174 688 L263 533 L268 538 L190 731 C188 735 182 745 174 745 C165 745 159 735 158 731 L80 538 L85 533 L174 688 L174 688 Z M345 24 C345 11 346 8 339 21 C344 23 345 23 345 23 L345 24 L345 24 Z M345 23 L345 23 L345 23 L345 23 Z M339 20 C337 23 335 27 333 32 L306 81 L306 499 L281 499 L256 499 L230 499 C222 499 223 501 223 483 C223 461 222 464 230 463 L256 460 L256 68 L256 64 C233 42 204 26 177 26 C123 26 90 83 90 159 L90 498 L65 498 L40 498 L14 498 C6 498 7 500 7 482 C7 460 6 463 14 462 L40 459 L40 154 C40 62 77 -7 138 -7 C174 -7 218 20 256 56 L256 12 L256 -1 L266 -1 L333 19 C335 20 337 21 339 21 L339 20 L339 20 Z " />
<glyph glyph-name="udieresis" unicode="&#xfc;" horiz-adv-x="367" d="M257 570 C275 570 288 583 288 601 C288 618 275 631 257 631 C240 631 227 618 227 601 C227 583 240 570 257 570 L257 570 Z M90 570 C108 570 121 583 121 601 C121 618 108 631 90 631 C73 631 60 618 60 601 C60 583 73 570 90 570 L90 570 Z M345 24 C345 11 346 8 339 21 C344 23 345 23 345 23 L345 24 L345 24 Z M345 23 L345 23 L345 23 L345 23 Z M339 20 C337 23 335 27 333 32 L306 81 L306 499 L281 499 L256 499 L230 499 C222 499 223 501 223 483 C223 461 222 464 230 463 L256 460 L256 68 L256 64 C233 42 204 26 177 26 C123 26 90 83 90 159 L90 498 L65 498 L40 498 L14 498 C6 498 7 500 7 482 C7 460 6 463 14 462 L40 459 L40 154 C40 62 77 -7 138 -7 C174 -7 218 20 256 56 L256 12 L256 -1 L266 -1 L333 19 C335 20 337 21 339 21 L339 20 L339 20 Z " />
<glyph glyph-name="ydieresis" unicode="&#xff;" horiz-adv-x="257" d="M242 570 C259 570 272 583 272 601 C272 618 259 631 242 631 C224 631 211 618 211 601 C211 583 224 570 242 570 L242 570 Z M75 570 C92 570 105 583 105 601 C105 618 92 631 75 631 C57 631 44 618 44 601 C44 583 57 570 75 570 L75 570 Z M267 461 L268 461 L172 66 L89 461 L107 464 C115 465 114 462 114 484 C114 502 115 500 107 500 L81 500 L52 500 L24 500 L7 500 C-1 500 0 502 0 483 C0 462 -1 465 7 464 L34 461 L152 -2 L133 -67 C110 -156 91 -197 72 -197 C55 -197 41 -173 23 -173 C9 -173 -2 -182 -2 -194 C-2 -215 17 -230 42 -230 C85 -230 118 -180 146 -72 L162 -10 L284 461 L284 461 L311 464 C318 465 317 462 318 483 C319 502 319 500 311 500 L294 500 L286 500 L278 500 L251 500 C243 500 244 502 245 484 C245 464 244 466 251 464 L267 461 L267 461 Z " />
<glyph glyph-name="Amacron" unicode="&#x100;" horiz-adv-x="436" d="M117 770 L297 770 L297 798 L117 798 L117 770 L117 770 Z M394 39 L393 39 L214 675 L200 675 L185 617 L184 614 L184 613 L40 39 L39 39 L13 36 C5 35 6 38 6 17 C6 -2 5 0 12 0 L30 0 L39 0 L48 0 L87 0 C94 0 93 -2 93 16 C93 38 94 35 86 36 L58 39 L58 39 L106 236 L282 236 L333 39 L314 36 C306 35 307 38 307 17 C307 -2 306 0 314 0 L343 0 L373 0 L403 0 L424 0 C432 0 431 -2 431 16 C431 38 432 35 424 36 L394 39 L394 39 Z M278 251 L110 251 L191 584 L278 251 L278 251 Z " />
<glyph glyph-name="amacron" unicode="&#x101;" horiz-adv-x="453" d="M91 610 L271 610 L271 638 L91 638 L91 610 L91 610 Z M381 24 C381 12 382 9 375 22 C379 23 380 24 380 24 L381 24 L381 24 Z M380 24 L380 24 L380 24 L380 24 Z M374 22 C372 25 370 29 367 34 L341 83 L341 407 L341 501 L327 501 L298 426 C278 469 235 507 198 507 C115 507 53 387 53 227 C53 96 107 -3 179 -3 C204 -3 250 44 290 109 L290 70 L290 14 L290 1 L290 -4 L299 -4 L334 11 L366 21 C369 22 371 23 373 23 L374 22 L374 22 Z M291 120 C260 67 224 28 207 28 C149 28 106 122 106 246 C106 387 145 493 197 493 C233 493 276 452 292 408 L291 120 L291 120 Z " />
<glyph glyph-name="Abreve" unicode="&#x102;" horiz-adv-x="436" d="M153 872 C163 813 187 768 207 768 C228 768 251 813 261 872 L253 873 C245 832 226 801 207 801 C189 801 169 832 162 873 L153 872 L153 872 Z M394 39 L393 39 L214 675 L200 675 L185 617 L184 614 L184 613 L40 39 L39 39 L13 36 C5 35 6 38 6 17 C6 -2 5 0 12 0 L30 0 L39 0 L48 0 L87 0 C94 0 93 -2 93 16 C93 38 94 35 86 36 L58 39 L58 39 L106 236 L282 236 L333 39 L314 36 C306 35 307 38 307 17 C307 -2 306 0 314 0 L343 0 L373 0 L403 0 L424 0 C432 0 431 -2 431 16 C431 38 432 35 424 36 L394 39 L394 39 Z M278 251 L110 251 L191 584 L278 251 L278 251 Z " />
<glyph glyph-name="abreve" unicode="&#x103;" horiz-adv-x="453" d="M126 682 C137 623 160 578 181 578 C201 578 224 623 235 682 L226 683 C219 642 199 611 181 611 C162 611 142 642 135 683 L126 682 L126 682 Z M381 24 C381 12 382 9 375 22 C379 23 380 24 380 24 L381 24 L381 24 Z M380 24 L380 24 L380 24 L380 24 Z M374 22 C372 25 370 29 367 34 L341 83 L341 407 L341 501 L327 501 L298 426 C278 469 235 507 198 507 C115 507 53 387 53 227 C53 96 107 -3 179 -3 C204 -3 250 44 290 109 L290 70 L290 14 L290 1 L290 -4 L299 -4 L334 11 L366 21 C369 22 371 23 373 23 L374 22 L374 22 Z M291 120 C260 67 224 28 207 28 C149 28 106 122 106 246 C106 387 145 493 197 493 C233 493 276 452 292 408 L291 120 L291 120 Z " />
<glyph glyph-name="Aogonek" unicode="&#x104;" horiz-adv-x="436" d="M394 39 L393 39 L214 675 L200 675 L185 617 L184 614 L184 613 L40 39 L39 39 L13 36 C5 35 6 38 6 17 C6 -2 5 0 12 0 L30 0 L39 0 L48 0 L87 0 C94 0 93 -2 93 16 C93 38 94 35 86 36 L58 39 L58 39 L106 236 L282 236 L333 39 L314 36 C306 35 307 38 307 17 C307 -2 306 0 314 0 L321 0 C274 -29 200 -100 200 -155 C200 -199 244 -233 303 -233 C332 -233 367 -218 383 -197 L380 -193 C367 -208 339 -219 314 -219 C267 -219 231 -189 231 -149 C231 -87 311 -12 343 0 L373 0 L403 0 L424 0 C432 0 431 -2 431 16 C431 38 432 35 424 36 L394 39 L394 39 Z M278 251 L110 251 L191 584 L278 251 L278 251 Z " />
<glyph glyph-name="aogonek" unicode="&#x105;" horiz-adv-x="362" d="M341 37 C330 27 318 19 304 16 C314 24 323 29 330 31 L330 42 C319 38 303 28 286 14 C261 17 252 41 252 73 L252 359 C252 442 220 505 178 505 C126 505 78 462 67 406 L117 406 C126 454 148 491 167 491 C185 491 199 439 199 371 L199 247 L143 234 C83 219 38 162 38 102 C38 41 66 -5 103 -5 C124 -5 162 23 199 64 C200 22 215 -9 257 -9 C258 -9 259 -9 260 -9 C223 -44 189 -91 189 -131 C189 -188 233 -231 292 -231 C321 -231 356 -216 373 -195 L369 -191 C357 -206 329 -217 303 -217 C256 -217 220 -178 220 -126 C220 -85 250 -38 281 -6 C308 -1 330 13 348 31 L341 37 L341 37 Z M199 235 L199 74 C172 48 144 31 126 31 C104 31 87 68 87 117 C87 165 112 209 145 219 L199 235 L199 235 Z " />
<glyph glyph-name="Cacute" unicode="&#x106;" horiz-adv-x="598" d="M284 691 L394 820 C417 849 435 871 435 875 C435 880 415 895 407 895 C405 895 388 871 368 840 L278 695 L284 691 L284 691 Z M539 57 L539 113 C539 122 538 128 536 128 C535 128 529 122 522 113 C502 90 470 56 450 33 C407 18 363 9 331 9 C212 9 123 147 123 330 C123 513 212 651 331 651 C363 651 407 642 450 627 C470 604 502 570 522 547 C529 538 535 532 536 532 C538 532 539 538 539 547 L539 603 C477 638 388 665 331 665 C178 665 62 521 62 330 C62 139 178 -5 331 -5 C388 -5 477 22 539 57 L539 57 Z " />
<glyph glyph-name="cacute" unicode="&#x107;" horiz-adv-x="355" d="M134 531 L244 660 C268 689 286 711 286 715 C286 720 266 735 257 735 C255 735 239 711 219 680 L129 535 L134 531 L134 531 Z M304 41 L299 47 C285 34 250 25 219 25 C153 25 103 124 103 254 C103 389 147 491 206 491 C232 491 254 453 258 404 C260 390 271 379 283 379 C296 379 306 389 306 401 C300 460 260 505 212 505 C120 505 50 389 50 235 C50 98 105 -5 177 -5 C218 -5 273 15 304 41 L304 41 Z " />
<glyph glyph-name="Ccircumflex" unicode="&#x108;" horiz-adv-x="598" d="M331 847 L420 693 L425 698 L347 891 C345 895 340 905 331 905 C322 905 317 895 315 891 L237 698 L242 693 L331 847 L331 847 Z M539 57 L539 113 C539 122 538 128 536 128 C535 128 529 122 522 113 C502 90 470 56 450 33 C407 18 363 9 331 9 C212 9 123 147 123 330 C123 513 212 651 331 651 C363 651 407 642 450 627 C470 604 502 570 522 547 C529 538 535 532 536 532 C538 532 539 538 539 547 L539 603 C477 638 388 665 331 665 C178 665 62 521 62 330 C62 139 178 -5 331 -5 C388 -5 477 22 539 57 L539 57 Z " />
<glyph glyph-name="Cdot" unicode="&#x10a;" horiz-adv-x="598" d="M331 730 C348 730 361 743 361 761 C361 778 348 791 331 791 C313 791 300 778 300 761 C300 743 313 730 331 730 L331 730 Z M539 57 L539 113 C539 122 538 128 536 128 C535 128 529 122 522 113 C502 90 470 56 450 33 C407 18 363 9 331 9 C212 9 123 147 123 330 C123 513 212 651 331 651 C363 651 407 642 450 627 C470 604 502 570 522 547 C529 538 535 532 536 532 C538 532 539 538 539 547 L539 603 C477 638 388 665 331 665 C178 665 62 521 62 330 C62 139 178 -5 331 -5 C388 -5 477 22 539 57 L539 57 Z " />
<glyph glyph-name="cdot" unicode="&#x10b;" horiz-adv-x="355" d="M212 570 C229 570 242 583 242 601 C242 618 229 631 212 631 C194 631 181 618 181 601 C181 583 194 570 212 570 L212 570 Z M304 41 L299 47 C285 34 250 25 219 25 C153 25 103 124 103 254 C103 389 147 491 206 491 C232 491 254 453 258 404 C260 390 271 379 283 379 C296 379 306 389 306 401 C300 460 260 505 212 505 C120 505 50 389 50 235 C50 98 105 -5 177 -5 C218 -5 273 15 304 41 L304 41 Z " />
<glyph glyph-name="Ccaron" unicode="&#x10c;" horiz-adv-x="598" d="M331 773 L420 927 L425 922 L347 729 C345 725 340 715 331 715 C322 715 317 725 315 729 L237 922 L242 927 L331 773 L331 773 Z M539 57 L539 113 C539 122 538 128 536 128 C535 128 529 122 522 113 C502 90 470 56 450 33 C407 18 363 9 331 9 C212 9 123 147 123 330 C123 513 212 651 331 651 C363 651 407 642 450 627 C470 604 502 570 522 547 C529 538 535 532 536 532 C538 532 539 538 539 547 L539 603 C477 638 388 665 331 665 C178 665 62 521 62 330 C62 139 178 -5 331 -5 C388 -5 477 22 539 57 L539 57 Z " />
<glyph glyph-name="ccaron" unicode="&#x10d;" horiz-adv-x="355" d="M304 41 L299 47 C285 34 250 25 219 25 C153 25 103 124 103 254 C103 389 147 491 206 491 C232 491 254 453 258 404 C260 390 271 379 283 379 C296 379 306 389 306 401 C300 460 260 505 212 505 C120 505 50 389 50 235 C50 98 105 -5 177 -5 C218 -5 273 15 304 41 L304 41 Z M212 613 L301 767 L306 762 L228 569 C226 565 221 555 212 555 C203 555 197 565 196 569 L118 762 L123 767 L212 613 L212 613 Z " />
<glyph glyph-name="Dcaron" unicode="&#x10e;" horiz-adv-x="522" d="M247 773 L336 927 L341 922 L263 729 C262 725 256 715 247 715 C238 715 233 725 231 729 L153 922 L158 927 L247 773 L247 773 Z M105 0 L133 0 L205 0 C358 0 473 142 473 330 C473 518 350 660 187 660 L133 660 L105 660 L77 660 L51 660 C43 660 44 662 44 644 C44 622 43 625 51 624 L77 621 L77 39 L51 36 C43 35 44 38 44 16 C44 -2 43 0 51 0 L77 0 L105 0 L105 0 Z M133 14 L133 646 L187 646 C318 646 417 510 417 330 C417 150 326 14 205 14 L133 14 L133 14 Z " />
<glyph glyph-name="dcaron" unicode="&#x10f;" horiz-adv-x="475" d="M459 635 C471 681 480 734 480 742 C480 750 458 754 449 753 C439 754 431 689 428 647 L414 484 L420 482 L459 635 L459 635 Z M403 24 C403 12 404 9 397 22 C401 23 402 24 402 24 L403 24 L403 24 Z M402 24 L402 24 L402 24 L402 24 Z M396 22 C394 25 392 29 389 34 L363 83 L363 652 L363 708 L363 721 L353 721 L287 701 C285 700 283 699 281 699 C283 696 285 692 287 687 L313 638 L313 444 C288 478 249 505 213 505 C122 505 53 385 53 225 C53 94 113 -5 193 -5 C228 -5 278 18 312 49 L312 14 L312 1 L322 1 L388 21 C391 22 393 23 395 23 L396 22 L396 22 Z M275 697 C275 709 274 712 281 699 C277 698 276 698 276 698 L275 697 L275 697 Z M276 698 C276 698 276 698 276 697 L276 697 L276 698 L276 698 Z M314 70 L314 57 C294 39 255 26 221 26 C156 26 106 120 106 244 C106 385 151 491 211 491 C251 491 294 458 315 419 L314 70 L314 70 Z " />
<glyph glyph-name="Emacron" unicode="&#x112;" horiz-adv-x="392" d="M101 770 L281 770 L281 798 L101 798 L101 770 L101 770 Z M330 7 C333 22 337 46 339 61 C340 67 341 70 341 72 C338 70 333 67 325 61 L252 14 L122 14 L122 345 L173 345 L233 315 C251 307 259 303 262 301 C262 303 262 307 262 315 L262 345 L262 352 L262 359 L262 385 C262 392 262 396 262 398 C257 396 248 392 233 385 L173 359 L122 359 L122 646 L245 646 L309 599 C317 593 322 590 324 588 C324 590 324 593 324 599 C325 614 325 638 324 653 L324 660 L318 660 L286 660 L123 660 L95 660 L67 660 L41 660 C33 660 34 662 34 644 C34 622 33 625 41 624 L67 621 L67 39 L41 36 C33 35 34 38 34 16 C34 -2 33 0 41 0 L67 0 L95 0 L123 0 L291 0 L328 0 L330 0 L330 7 L330 7 Z M343 75 C346 75 348 76 343 72 C343 74 343 75 343 75 L343 75 Z M343 75 L343 75 L343 75 L343 75 Z M261 300 C262 300 262 300 262 301 C264 300 263 300 260 300 L261 300 L261 300 Z M260 300 C259 300 258 300 257 300 C258 300 259 300 260 300 L260 300 Z M260 401 C267 401 269 401 262 398 C262 400 262 401 261 401 L260 401 L260 401 Z M261 401 C260 401 259 401 257 401 C258 401 259 401 260 401 L261 401 L261 401 Z M323 585 C323 585 323 586 323 588 C327 585 326 585 323 585 L323 585 Z M323 585 L323 585 C324 585 324 585 324 585 L323 585 L323 585 Z " />
<glyph glyph-name="emacron" unicode="&#x113;" horiz-adv-x="362" d="M106 610 L286 610 L286 638 L106 638 L106 610 L106 610 Z M310 41 L306 47 C291 34 255 25 222 25 C154 25 103 124 103 254 C103 279 104 302 106 324 L264 324 L311 324 C311 427 261 505 195 505 C112 505 49 389 49 235 C49 98 105 -5 179 -5 C222 -5 278 15 309 41 L310 41 L310 41 Z M107 333 C119 427 152 491 192 491 C233 491 264 437 264 366 C264 352 254 342 241 341 L264 342 L107 333 L107 333 Z " />
<glyph glyph-name="Ebreve" unicode="&#x114;" horiz-adv-x="392" d="M137 872 C148 813 171 768 191 768 C212 768 235 813 246 872 L237 873 C229 832 210 801 191 801 C173 801 153 832 146 873 L137 872 L137 872 Z M330 7 C333 22 337 46 339 61 C340 67 341 70 341 72 C338 70 333 67 325 61 L252 14 L122 14 L122 345 L173 345 L233 315 C251 307 259 303 262 301 C262 303 262 307 262 315 L262 345 L262 352 L262 359 L262 385 C262 392 262 396 262 398 C257 396 248 392 233 385 L173 359 L122 359 L122 646 L245 646 L309 599 C317 593 322 590 324 588 C324 590 324 593 324 599 C325 614 325 638 324 653 L324 660 L318 660 L286 660 L123 660 L95 660 L67 660 L41 660 C33 660 34 662 34 644 C34 622 33 625 41 624 L67 621 L67 39 L41 36 C33 35 34 38 34 16 C34 -2 33 0 41 0 L67 0 L95 0 L123 0 L291 0 L328 0 L330 0 L330 7 L330 7 Z M343 75 C346 75 348 76 343 72 C343 74 343 75 343 75 L343 75 Z M343 75 L343 75 L343 75 L343 75 Z M261 300 C262 300 262 300 262 301 C264 300 263 300 260 300 L261 300 L261 300 Z M260 300 C259 300 258 300 257 300 C258 300 259 300 260 300 L260 300 Z M260 401 C267 401 269 401 262 398 C262 400 262 401 261 401 L260 401 L260 401 Z M261 401 C260 401 259 401 257 401 C258 401 259 401 260 401 L261 401 L261 401 Z M323 585 C323 585 323 586 323 588 C327 585 326 585 323 585 L323 585 Z M323 585 L323 585 C324 585 324 585 324 585 L323 585 L323 585 Z " />
<glyph glyph-name="ebreve" unicode="&#x115;" horiz-adv-x="362" d="M141 712 C152 653 175 608 196 608 C216 608 239 653 250 712 L241 713 C234 672 214 641 196 641 C177 641 158 672 150 713 L141 712 L141 712 Z M310 41 L306 47 C291 34 255 25 222 25 C154 25 103 124 103 254 C103 279 104 302 106 324 L264 324 L311 324 C311 427 261 505 195 505 C112 505 49 389 49 235 C49 98 105 -5 179 -5 C222 -5 278 15 309 41 L310 41 L310 41 Z M107 333 C119 427 152 491 192 491 C233 491 264 437 264 366 C264 352 254 342 241 341 L264 342 L107 333 L107 333 Z " />
<glyph glyph-name="Edot" unicode="&#x116;" horiz-adv-x="392" d="M191 730 C209 730 222 743 222 761 C222 778 209 791 191 791 C174 791 161 778 161 761 C161 743 174 730 191 730 L191 730 Z M330 7 C333 22 337 46 339 61 C340 67 341 70 341 72 C338 70 333 67 325 61 L252 14 L122 14 L122 345 L173 345 L233 315 C251 307 259 303 262 301 C262 303 262 307 262 315 L262 345 L262 352 L262 359 L262 385 C262 392 262 396 262 398 C257 396 248 392 233 385 L173 359 L122 359 L122 646 L245 646 L309 599 C317 593 322 590 324 588 C324 590 324 593 324 599 C325 614 325 638 324 653 L324 660 L318 660 L286 660 L123 660 L95 660 L67 660 L41 660 C33 660 34 662 34 644 C34 622 33 625 41 624 L67 621 L67 39 L41 36 C33 35 34 38 34 16 C34 -2 33 0 41 0 L67 0 L95 0 L123 0 L291 0 L328 0 L330 0 L330 7 L330 7 Z M343 75 C346 75 348 76 343 72 C343 74 343 75 343 75 L343 75 Z M343 75 L343 75 L343 75 L343 75 Z M261 300 C262 300 262 300 262 301 C264 300 263 300 260 300 L261 300 L261 300 Z M260 300 C259 300 258 300 257 300 C258 300 259 300 260 300 L260 300 Z M260 401 C267 401 269 401 262 398 C262 400 262 401 261 401 L260 401 L260 401 Z M261 401 C260 401 259 401 257 401 C258 401 259 401 260 401 L261 401 L261 401 Z M323 585 C323 585 323 586 323 588 C327 585 326 585 323 585 L323 585 Z M323 585 L323 585 C324 585 324 585 324 585 L323 585 L323 585 Z " />
<glyph glyph-name="edot" unicode="&#x117;" horiz-adv-x="362" d="M196 570 C213 570 226 583 226 601 C226 618 213 631 196 631 C178 631 165 618 165 601 C165 583 178 570 196 570 L196 570 Z M310 41 L306 47 C291 34 255 25 222 25 C154 25 103 124 103 254 C103 279 104 302 106 324 L264 324 L311 324 C311 427 261 505 195 505 C112 505 49 389 49 235 C49 98 105 -5 179 -5 C222 -5 278 15 309 41 L310 41 L310 41 Z M107 333 C119 427 152 491 192 491 C233 491 264 437 264 366 C264 352 254 342 241 341 L264 342 L107 333 L107 333 Z " />
<glyph glyph-name="Eogonek" unicode="&#x118;" horiz-adv-x="392" d="M330 7 C333 22 337 46 339 61 C340 67 341 70 341 72 C338 70 333 67 325 61 L252 14 L122 14 L122 345 L173 345 L233 315 C251 307 259 303 262 301 C262 303 262 307 262 315 L262 345 L262 352 L262 359 L262 385 C262 392 262 396 262 398 C257 396 248 392 233 385 L173 359 L122 359 L122 646 L245 646 L309 599 C317 593 322 590 324 588 C324 590 324 593 324 599 C325 614 325 638 324 653 L324 660 L318 660 L286 660 L123 660 L95 660 L67 660 L41 660 C33 660 34 662 34 644 C34 622 33 625 41 624 L67 621 L67 39 L41 36 C33 35 34 38 34 16 C34 -2 33 0 41 0 L67 0 L95 0 L123 0 L291 0 L306 0 C259 -29 185 -100 185 -155 C185 -199 229 -233 288 -233 C317 -233 352 -218 368 -197 L365 -193 C352 -208 324 -219 299 -219 C251 -219 215 -189 215 -149 C215 -87 296 -12 328 0 L330 0 L330 7 L330 7 Z M343 75 C346 75 348 76 343 72 C343 74 343 75 343 75 L343 75 Z M343 75 L343 75 L343 75 L343 75 Z M261 300 C262 300 262 300 262 301 C264 300 263 300 260 300 L261 300 L261 300 Z M260 300 C259 300 258 300 257 300 C258 300 259 300 260 300 L260 300 Z M260 401 C267 401 269 401 262 398 C262 400 262 401 261 401 L260 401 L260 401 Z M261 401 C260 401 259 401 257 401 C258 401 259 401 260 401 L261 401 L261 401 Z M323 585 C323 585 323 586 323 588 C327 585 326 585 323 585 L323 585 Z M323 585 L323 585 C324 585 324 585 324 585 L323 585 L323 585 Z " />
<glyph glyph-name="eogonek" unicode="&#x119;" horiz-adv-x="362" d="M108 333 C120 427 153 491 193 491 C234 491 265 437 265 366 C265 352 255 342 242 341 L265 342 L108 333 L108 333 Z M107 324 L265 324 L312 324 C312 427 262 505 196 505 C113 505 50 389 50 235 C50 103 102 2 172 -5 C125 -34 51 -103 51 -157 C51 -200 96 -233 155 -233 C183 -233 218 -218 235 -197 L231 -193 C219 -208 191 -219 166 -219 C118 -219 82 -190 82 -152 C82 -92 161 -18 194 -5 C235 -1 283 17 311 40 L307 46 C292 33 256 24 223 24 C155 24 104 123 104 253 C104 278 105 301 107 323 L107 324 L107 324 Z " />
<glyph glyph-name="Ecaron" unicode="&#x11a;" horiz-adv-x="392" d="M191 773 L280 927 L285 922 L207 729 C206 725 200 715 191 715 C183 715 177 725 176 729 L97 922 L102 927 L191 773 L191 773 Z M330 7 C333 22 337 46 339 61 C340 67 341 70 341 72 C338 70 333 67 325 61 L252 14 L122 14 L122 345 L173 345 L233 315 C251 307 259 303 262 301 C262 303 262 307 262 315 L262 345 L262 352 L262 359 L262 385 C262 392 262 396 262 398 C257 396 248 392 233 385 L173 359 L122 359 L122 646 L245 646 L309 599 C317 593 322 590 324 588 C324 590 324 593 324 599 C325 614 325 638 324 653 L324 660 L318 660 L286 660 L123 660 L95 660 L67 660 L41 660 C33 660 34 662 34 644 C34 622 33 625 41 624 L67 621 L67 39 L41 36 C33 35 34 38 34 16 C34 -2 33 0 41 0 L67 0 L95 0 L123 0 L291 0 L328 0 L330 0 L330 7 L330 7 Z M343 75 C346 75 348 76 343 72 C343 74 343 75 343 75 L343 75 Z M343 75 L343 75 L343 75 L343 75 Z M261 300 C262 300 262 300 262 301 C264 300 263 300 260 300 L261 300 L261 300 Z M260 300 C259 300 258 300 257 300 C258 300 259 300 260 300 L260 300 Z M260 401 C267 401 269 401 262 398 C262 400 262 401 261 401 L260 401 L260 401 Z M261 401 C260 401 259 401 257 401 C258 401 259 401 260 401 L261 401 L261 401 Z M323 585 C323 585 323 586 323 588 C327 585 326 585 323 585 L323 585 Z M323 585 L323 585 C324 585 324 585 324 585 L323 585 L323 585 Z " />
<glyph glyph-name="ecaron" unicode="&#x11b;" horiz-adv-x="362" d="M310 41 L306 47 C291 34 255 25 222 25 C154 25 103 124 103 254 C103 279 104 302 106 324 L264 324 L311 324 C311 427 261 505 195 505 C112 505 49 389 49 235 C49 98 105 -5 179 -5 C222 -5 278 15 309 41 L310 41 L310 41 Z M195 612 L284 767 L289 762 L211 569 C209 565 203 555 195 555 C186 555 180 565 179 569 L101 762 L106 767 L195 612 L195 612 Z M107 333 C119 427 152 491 192 491 C233 491 264 437 264 366 C264 352 254 342 241 341 L264 342 L107 333 L107 333 Z " />
<glyph glyph-name="Gcircumflex" unicode="&#x11c;" horiz-adv-x="641" d="M320 848 L409 693 L414 698 L336 891 C334 895 328 905 320 905 C311 905 305 895 304 891 L225 698 L231 693 L320 848 L320 848 Z M474 271 L474 48 C421 25 360 9 319 9 C207 9 122 147 122 330 C122 513 207 651 319 651 C348 651 389 642 430 627 C450 603 481 570 501 547 C508 538 514 532 515 532 C517 532 518 538 518 547 L518 603 C456 638 371 665 319 665 C172 665 61 521 61 330 C61 139 172 -5 319 -5 C374 -5 461 22 523 57 L523 271 L549 274 C557 275 556 272 556 294 C556 312 557 310 549 310 L523 310 L498 310 L473 310 L447 310 C439 310 440 312 440 294 C440 272 439 275 447 274 L474 271 L474 271 Z " />
<glyph glyph-name="Gbreve" unicode="&#x11e;" horiz-adv-x="641" d="M265 872 C276 813 299 768 320 768 C340 768 363 813 374 872 L365 873 C358 832 338 801 320 801 C301 801 281 832 274 873 L265 872 L265 872 Z M474 271 L474 48 C421 25 360 9 319 9 C207 9 122 147 122 330 C122 513 207 651 319 651 C348 651 389 642 430 627 C450 603 481 570 501 547 C508 538 514 532 515 532 C517 532 518 538 518 547 L518 603 C456 638 371 665 319 665 C172 665 61 521 61 330 C61 139 172 -5 319 -5 C374 -5 461 22 523 57 L523 271 L549 274 C557 275 556 272 556 294 C556 312 557 310 549 310 L523 310 L498 310 L473 310 L447 310 C439 310 440 312 440 294 C440 272 439 275 447 274 L474 271 L474 271 Z " />
<glyph glyph-name="gbreve" unicode="&#x11f;" horiz-adv-x="346" d="M132 712 C142 653 165 608 186 608 C207 608 230 653 240 712 L231 713 C224 672 205 641 186 641 C167 641 148 672 141 713 L132 712 L132 712 Z M347 500 L228 496 L228 495 C215 501 201 504 186 504 C119 504 69 437 69 349 C69 278 101 221 149 201 C93 195 52 158 52 110 C52 68 76 35 112 23 C62 -16 27 -70 27 -113 C27 -185 72 -240 133 -240 C243 -240 327 -159 327 -51 C327 17 266 68 185 68 L149 65 C113 63 85 90 85 129 C85 166 119 193 164 193 L186 193 C253 193 303 260 303 348 C303 400 285 445 257 473 L347 470 L347 500 L347 500 Z M116 348 C116 430 146 492 186 492 C226 492 256 430 256 348 C256 266 226 204 186 204 C146 204 116 266 116 348 L116 348 Z M122 20 C131 18 141 17 151 18 L170 20 C239 20 290 -21 290 -76 C290 -162 224 -227 137 -227 C93 -227 59 -175 59 -107 C59 -62 84 -12 121 20 L122 20 L122 20 Z " />
<glyph glyph-name="Gdot" unicode="&#x120;" horiz-adv-x="641" d="M320 730 C337 730 350 743 350 761 C350 778 337 791 320 791 C302 791 289 778 289 761 C289 743 302 730 320 730 L320 730 Z M474 271 L474 48 C421 25 360 9 319 9 C207 9 122 147 122 330 C122 513 207 651 319 651 C348 651 389 642 430 627 C450 603 481 570 501 547 C508 538 514 532 515 532 C517 532 518 538 518 547 L518 603 C456 638 371 665 319 665 C172 665 61 521 61 330 C61 139 172 -5 319 -5 C374 -5 461 22 523 57 L523 271 L549 274 C557 275 556 272 556 294 C556 312 557 310 549 310 L523 310 L498 310 L473 310 L447 310 C439 310 440 312 440 294 C440 272 439 275 447 274 L474 271 L474 271 Z " />
<glyph glyph-name="gdot" unicode="&#x121;" horiz-adv-x="346" d="M186 570 C204 570 217 583 217 601 C217 618 204 631 186 631 C168 631 155 618 155 601 C155 583 168 570 186 570 L186 570 Z M347 500 L228 496 L228 495 C215 501 201 504 186 504 C119 504 69 437 69 349 C69 278 101 221 149 201 C93 195 52 158 52 110 C52 68 76 35 112 23 C62 -16 27 -70 27 -113 C27 -185 72 -240 133 -240 C243 -240 327 -159 327 -51 C327 17 266 68 185 68 L149 65 C113 63 85 90 85 129 C85 166 119 193 164 193 L186 193 C253 193 303 260 303 348 C303 400 285 445 257 473 L347 470 L347 500 L347 500 Z M116 348 C116 430 146 492 186 492 C226 492 256 430 256 348 C256 266 226 204 186 204 C146 204 116 266 116 348 L116 348 Z M122 20 C131 18 141 17 151 18 L170 20 C239 20 290 -21 290 -76 C290 -162 224 -227 137 -227 C93 -227 59 -175 59 -107 C59 -62 84 -12 121 20 L122 20 L122 20 Z " />
<glyph glyph-name="Hcircumflex" unicode="&#x124;" horiz-adv-x="551" d="M276 848 L365 693 L370 698 L292 891 C290 895 284 905 276 905 C267 905 261 895 260 891 L182 698 L187 693 L276 848 L276 848 Z M457 0 L485 0 L511 0 C519 0 518 -2 518 16 C518 38 519 35 511 36 L485 39 L485 621 L511 624 C519 625 518 622 518 644 C518 662 519 660 511 660 L485 660 L457 660 L429 660 L403 660 C396 660 397 662 397 644 C397 622 396 625 403 624 L429 621 L429 354 L122 354 L122 621 L148 624 C155 625 154 622 155 644 C154 662 155 660 148 660 L122 660 L94 660 L66 660 L40 660 C32 660 33 662 33 644 C33 622 32 625 40 624 L66 621 L66 39 L40 36 C32 35 33 38 33 16 C33 -2 32 0 40 0 L66 0 L94 0 L122 0 L148 0 C155 0 154 -2 155 16 C154 38 155 35 148 36 L122 39 L122 340 L429 340 L429 39 L403 36 C396 35 397 38 397 16 C397 -2 396 0 403 0 L429 0 L457 0 L457 0 Z " />
<glyph glyph-name="Itilde" unicode="&#x128;" horiz-adv-x="187" d="M36 755 C36 793 43 822 51 822 C87 822 87 759 123 759 C144 759 160 799 160 852 L152 852 C152 818 144 792 134 792 C98 792 98 855 62 855 C43 855 28 812 28 755 L36 755 L36 755 Z M94 0 L122 0 L148 0 C155 0 154 -2 155 16 C154 38 155 35 148 36 L122 39 L122 621 L148 624 C155 625 154 622 155 644 C154 662 155 660 148 660 L122 660 L94 660 L66 660 L40 660 C32 660 33 662 33 644 C33 622 32 625 40 624 L66 621 L66 39 L40 36 C32 35 33 38 33 16 C33 -2 32 0 40 0 L66 0 L94 0 L94 0 Z " />
<glyph glyph-name="itilde" unicode="&#x129;" horiz-adv-x="192" d="M38 595 C38 633 45 662 53 662 C90 662 89 599 125 599 C146 599 162 639 162 692 L154 692 C154 658 146 632 136 632 C100 632 100 695 64 695 C45 695 30 652 30 595 L38 595 L38 595 Z M33 450 C33 463 32 466 39 453 C35 452 34 452 34 452 L33 450 L33 450 Z M34 452 C34 452 34 452 34 451 L34 451 L34 452 L34 452 Z M40 453 C42 450 44 446 46 441 L72 392 L72 39 L46 36 C38 35 39 38 39 16 C39 -2 38 0 46 0 L72 0 L97 0 L122 0 L148 0 C156 0 155 -2 155 16 C155 38 156 35 148 36 L122 39 L122 405 L122 461 L122 474 L112 474 L46 454 C44 453 42 452 40 452 L40 453 L40 453 Z " />
<glyph glyph-name="Imacron" unicode="&#x12a;" horiz-adv-x="187" d="M4 770 L184 770 L184 798 L4 798 L4 770 L4 770 Z M94 0 L122 0 L148 0 C155 0 154 -2 155 16 C154 38 155 35 148 36 L122 39 L122 621 L148 624 C155 625 154 622 155 644 C154 662 155 660 148 660 L122 660 L94 660 L66 660 L40 660 C32 660 33 662 33 644 C33 622 32 625 40 624 L66 621 L66 39 L40 36 C32 35 33 38 33 16 C33 -2 32 0 40 0 L66 0 L94 0 L94 0 Z " />
<glyph glyph-name="imacron" unicode="&#x12b;" horiz-adv-x="192" d="M6 610 L186 610 L186 638 L6 638 L6 610 L6 610 Z M33 450 C33 463 32 466 39 453 C35 452 34 452 34 452 L33 450 L33 450 Z M34 452 C34 452 34 452 34 451 L34 451 L34 452 L34 452 Z M40 453 C42 450 44 446 46 441 L72 392 L72 39 L46 36 C38 35 39 38 39 16 C39 -2 38 0 46 0 L72 0 L97 0 L122 0 L148 0 C156 0 155 -2 155 16 C155 38 156 35 148 36 L122 39 L122 405 L122 461 L122 474 L112 474 L46 454 C44 453 42 452 40 452 L40 453 L40 453 Z " />
<glyph glyph-name="Ibreve" unicode="&#x12c;" horiz-adv-x="187" d="M40 872 C50 813 73 768 94 768 C114 768 138 813 148 872 L139 873 C132 832 113 801 94 801 C75 801 56 832 49 873 L40 872 L40 872 Z M94 0 L122 0 L148 0 C155 0 154 -2 155 16 C154 38 155 35 148 36 L122 39 L122 621 L148 624 C155 625 154 622 155 644 C154 662 155 660 148 660 L122 660 L94 660 L66 660 L40 660 C32 660 33 662 33 644 C33 622 32 625 40 624 L66 621 L66 39 L40 36 C32 35 33 38 33 16 C33 -2 32 0 40 0 L66 0 L94 0 L94 0 Z " />
<glyph glyph-name="ibreve" unicode="&#x12d;" horiz-adv-x="192" d="M42 712 C52 653 76 608 96 608 C117 608 140 653 150 712 L142 713 C134 672 115 641 96 641 C77 641 58 672 51 713 L42 712 L42 712 Z M33 450 C33 463 32 466 39 453 C35 452 34 452 34 452 L33 450 L33 450 Z M34 452 C34 452 34 452 34 451 L34 451 L34 452 L34 452 Z M40 453 C42 450 44 446 46 441 L72 392 L72 39 L46 36 C38 35 39 38 39 16 C39 -2 38 0 46 0 L72 0 L97 0 L122 0 L148 0 C156 0 155 -2 155 16 C155 38 156 35 148 36 L122 39 L122 405 L122 461 L122 474 L112 474 L46 454 C44 453 42 452 40 452 L40 453 L40 453 Z " />
<glyph glyph-name="Idot" unicode="&#x130;" horiz-adv-x="187" d="M94 730 C111 730 124 743 124 761 C124 778 111 791 94 791 C76 791 63 778 63 761 C63 743 76 730 94 730 L94 730 Z M94 0 L122 0 L148 0 C155 0 154 -2 155 16 C154 38 155 35 148 36 L122 39 L122 621 L148 624 C155 625 154 622 155 644 C154 662 155 660 148 660 L122 660 L94 660 L66 660 L40 660 C32 660 33 662 33 644 C33 622 32 625 40 624 L66 621 L66 39 L40 36 C32 35 33 38 33 16 C33 -2 32 0 40 0 L66 0 L94 0 L94 0 Z " />
<glyph glyph-name="dotlessi" unicode="&#x131;" horiz-adv-x="192" d="M33 450 C33 463 32 466 39 453 C35 452 34 452 34 452 L33 450 L33 450 Z M34 452 C34 452 34 452 34 451 L34 451 L34 452 L34 452 Z M40 453 C42 450 44 446 46 441 L72 392 L72 39 L46 36 C38 35 39 38 39 16 C39 -2 38 0 46 0 L72 0 L97 0 L122 0 L148 0 C156 0 155 -2 155 16 C155 38 156 35 148 36 L122 39 L122 405 L122 461 L122 474 L112 474 L46 454 C44 453 42 452 40 452 L40 453 L40 453 Z " />
<glyph glyph-name="Jcircumflex" unicode="&#x134;" horiz-adv-x="219" d="M126 847 L215 693 L220 698 L142 891 C140 895 135 905 126 905 C117 905 112 895 110 891 L32 698 L37 693 L126 847 L126 847 Z M98 621 L98 200 C98 64 90 1 71 1 C63 1 52 22 47 50 C45 63 34 72 22 72 C7 72 -2 63 0 50 C6 16 30 -10 57 -10 C124 -10 154 71 154 247 L154 621 L180 624 C187 625 186 622 187 644 C186 662 187 660 180 660 L154 660 L126 660 L98 660 L72 660 C64 660 65 662 65 644 C65 622 64 625 72 624 L98 621 L98 621 Z " />
<glyph glyph-name="Lacute" unicode="&#x139;" horiz-adv-x="392" d="M70 691 L180 820 C203 849 221 871 221 875 C221 880 201 895 193 895 C190 895 174 871 154 840 L64 695 L70 691 L70 691 Z M330 7 C333 23 337 48 340 64 C343 80 343 78 338 78 C329 79 332 81 315 66 L252 14 L122 14 L122 621 L148 624 C155 625 154 622 155 644 C154 662 155 660 148 660 L122 660 L94 660 L66 660 L40 660 C32 660 33 662 33 644 C33 622 32 625 40 624 L66 621 L66 39 L40 36 C32 35 33 38 33 16 C33 -2 32 0 40 0 L66 0 L94 0 L122 0 L290 0 L327 0 L329 0 L330 7 L330 7 Z " />
<glyph glyph-name="Lcaron" unicode="&#x13d;" horiz-adv-x="392" d="M242 575 C254 621 263 674 263 682 C263 690 240 694 231 693 C221 694 213 629 210 587 L196 424 L203 422 L242 575 L242 575 Z M330 7 C333 23 337 48 340 64 C343 80 343 78 338 78 C329 79 332 81 315 66 L252 14 L122 14 L122 621 L148 624 C155 625 154 622 155 644 C154 662 155 660 148 660 L122 660 L94 660 L66 660 L40 660 C32 660 33 662 33 644 C33 622 32 625 40 624 L66 621 L66 39 L40 36 C32 35 33 38 33 16 C33 -2 32 0 40 0 L66 0 L94 0 L122 0 L290 0 L327 0 L329 0 L330 7 L330 7 Z " />
<glyph glyph-name="lcaron" unicode="&#x13e;" horiz-adv-x="192" d="M215 605 C227 651 236 704 236 712 C236 720 214 724 205 723 C195 724 187 659 184 617 L170 454 L176 452 L215 605 L215 605 Z M33 696 C33 708 32 711 39 698 C35 697 34 697 34 697 L33 696 L33 696 Z M34 697 C34 697 34 697 34 696 L34 696 L34 697 L34 697 Z M40 698 C42 695 44 691 46 686 L72 637 L72 38 L46 35 C38 34 39 37 39 15 C39 -3 38 -1 46 -1 L72 -1 L97 -1 L122 -1 L148 -1 C156 -1 155 -3 155 15 C155 37 156 34 148 35 L122 38 L122 650 L122 706 L122 719 L112 719 L46 699 C44 698 42 697 40 697 L40 698 L40 698 Z " />
<glyph glyph-name="Lslash" unicode="&#x141;" horiz-adv-x="392" d="M16 272 L66 296 L66 39 L40 36 C32 35 33 38 33 16 C33 -2 32 0 40 0 L66 0 L94 0 L122 0 L290 0 L327 0 L329 0 L330 7 C333 23 337 48 340 64 C343 80 343 78 338 78 C329 79 332 81 315 66 L252 14 L122 14 L122 323 L224 372 L224 388 L122 339 L122 621 L148 624 C155 625 154 622 155 644 C154 662 155 660 148 660 L122 660 L94 660 L66 660 L40 660 C32 660 33 662 33 644 C33 622 32 625 40 624 L66 621 L66 312 L16 288 L16 272 L16 272 Z " />
<glyph glyph-name="lslash" unicode="&#x142;" horiz-adv-x="192" d="M-29 302 L71 342 L71 39 L45 36 C37 35 38 38 38 16 C38 -2 37 0 45 0 L71 0 L96 0 L121 0 L147 0 C155 0 154 -2 154 16 C154 38 155 35 147 36 L121 39 L121 362 L221 402 L221 418 L121 378 L121 651 L121 707 L121 720 L111 720 L45 700 C43 699 41 698 39 698 C41 695 43 691 45 686 L71 637 L71 357 L-29 317 L-29 302 L-29 302 Z M33 695 C33 707 32 710 39 697 C35 696 34 696 34 696 L33 695 L33 695 Z M34 696 C34 696 34 696 34 695 L34 695 L34 696 L34 696 Z " />
<glyph glyph-name="Nacute" unicode="&#x143;" horiz-adv-x="477" d="M211 691 L321 820 C346 849 364 871 363 875 C363 880 343 895 335 895 C333 895 316 871 296 840 L206 695 L211 691 L211 691 Z M401 621 L401 89 L119 660 L86 660 L77 660 L69 660 L43 660 C35 660 36 662 36 644 C36 622 35 625 43 624 L69 621 L69 39 L43 36 C35 35 36 38 36 16 C36 -2 35 0 43 0 L69 0 L77 0 L86 0 L112 0 C120 0 119 -2 119 16 C119 38 120 35 112 36 L86 39 L86 602 L376 22 L392 -11 L418 -11 L418 42 L418 621 L444 624 C452 625 451 622 451 644 C451 662 452 660 444 660 L418 660 L409 660 L401 660 L375 660 C367 660 368 662 368 644 C368 622 367 625 375 624 L401 621 L401 621 Z " />
<glyph glyph-name="nacute" unicode="&#x144;" horiz-adv-x="402" d="M126 531 L236 660 C260 689 278 711 278 715 C278 720 258 735 249 735 C247 735 231 711 211 680 L121 535 L126 531 L126 531 Z M33 476 C33 489 32 492 39 479 C35 478 34 478 34 478 L33 476 L33 476 Z M34 478 C34 478 34 478 34 477 L34 477 L34 478 L34 478 Z M40 479 C42 476 44 472 46 467 L72 418 L72 39 L46 36 C38 35 39 38 39 16 C39 -2 38 0 46 0 L72 0 L97 0 L122 0 L148 0 C156 0 155 -2 155 16 C155 38 156 35 148 36 L122 39 L122 431 L122 434 C164 455 204 470 217 470 C265 470 287 410 287 330 L287 38 L261 35 C253 34 254 37 254 15 C254 -3 253 -1 261 -1 L287 -1 L312 -1 L337 -1 L364 -1 C372 -1 371 -3 370 15 C371 37 372 34 364 35 L337 38 L337 335 C337 431 311 504 256 504 C250 504 193 476 122 439 L122 448 L122 500 L112 500 L46 480 C44 479 42 478 40 478 L40 479 L40 479 Z " />
<glyph glyph-name="Ncaron" unicode="&#x147;" horiz-adv-x="477" d="M243 773 L332 927 L337 922 L259 729 C258 725 252 715 243 715 C235 715 229 725 228 729 L149 922 L154 927 L243 773 L243 773 Z M401 621 L401 89 L119 660 L86 660 L77 660 L69 660 L43 660 C35 660 36 662 36 644 C36 622 35 625 43 624 L69 621 L69 39 L43 36 C35 35 36 38 36 16 C36 -2 35 0 43 0 L69 0 L77 0 L86 0 L112 0 C120 0 119 -2 119 16 C119 38 120 35 112 36 L86 39 L86 602 L376 22 L392 -11 L418 -11 L418 42 L418 621 L444 624 C452 625 451 622 451 644 C451 662 452 660 444 660 L418 660 L409 660 L401 660 L375 660 C367 660 368 662 368 644 C368 622 367 625 375 624 L401 621 L401 621 Z " />
<glyph glyph-name="ncaron" unicode="&#x148;" horiz-adv-x="402" d="M204 612 L293 767 L298 762 L220 569 C218 565 212 555 204 555 C195 555 189 565 188 569 L110 762 L115 767 L204 612 L204 612 Z M33 476 C33 489 32 492 39 479 C35 478 34 478 34 478 L33 476 L33 476 Z M34 478 C34 478 34 478 34 477 L34 477 L34 478 L34 478 Z M40 479 C42 476 44 472 46 467 L72 418 L72 39 L46 36 C38 35 39 38 39 16 C39 -2 38 0 46 0 L72 0 L97 0 L122 0 L148 0 C156 0 155 -2 155 16 C155 38 156 35 148 36 L122 39 L122 431 L122 434 C164 455 204 470 217 470 C265 470 287 410 287 330 L287 38 L261 35 C253 34 254 37 254 15 C254 -3 253 -1 261 -1 L287 -1 L312 -1 L337 -1 L364 -1 C372 -1 371 -3 370 15 C371 37 372 34 364 35 L337 38 L337 335 C337 431 311 504 256 504 C250 504 193 476 122 439 L122 448 L122 500 L112 500 L46 480 C44 479 42 478 40 478 L40 479 L40 479 Z " />
<glyph glyph-name="Omacron" unicode="&#x14c;" horiz-adv-x="639" d="M235 770 L415 770 L415 798 L235 798 L235 770 L235 770 Z M325 9 C198 9 123 165 123 330 C123 495 198 651 325 651 C452 651 528 495 528 330 C528 165 452 9 325 9 L325 9 Z M62 330 C62 158 160 -5 325 -5 C491 -5 589 158 589 330 C589 502 491 665 325 665 C160 665 62 502 62 330 L62 330 Z " />
<glyph glyph-name="omacron" unicode="&#x14d;" horiz-adv-x="468" d="M144 610 L324 610 L324 638 L144 638 L144 610 L144 610 Z M234 6 C161 6 106 111 106 250 C106 389 161 494 234 494 C308 494 363 389 363 250 C363 111 308 6 234 6 L234 6 Z M50 250 C50 105 129 -5 234 -5 C340 -5 419 105 419 250 C419 395 340 505 234 505 C129 505 50 395 50 250 L50 250 Z " />
<glyph glyph-name="Obreve" unicode="&#x14e;" horiz-adv-x="639" d="M271 872 C282 813 305 768 325 768 C346 768 369 813 379 872 L371 873 C363 832 344 801 325 801 C307 801 287 832 280 873 L271 872 L271 872 Z M325 9 C198 9 123 165 123 330 C123 495 198 651 325 651 C452 651 528 495 528 330 C528 165 452 9 325 9 L325 9 Z M62 330 C62 158 160 -5 325 -5 C491 -5 589 158 589 330 C589 502 491 665 325 665 C160 665 62 502 62 330 L62 330 Z " />
<glyph glyph-name="obreve" unicode="&#x14f;" horiz-adv-x="468" d="M180 712 C191 653 214 608 234 608 C255 608 278 653 289 712 L280 713 C272 672 253 641 234 641 C216 641 196 672 189 713 L180 712 L180 712 Z M234 6 C161 6 106 111 106 250 C106 389 161 494 234 494 C308 494 363 389 363 250 C363 111 308 6 234 6 L234 6 Z M50 250 C50 105 129 -5 234 -5 C340 -5 419 105 419 250 C419 395 340 505 234 505 C129 505 50 395 50 250 L50 250 Z " />
<glyph glyph-name="Racute" unicode="&#x154;" horiz-adv-x="442" d="M139 691 L249 820 C273 849 291 871 291 875 C291 880 271 895 262 895 C260 895 244 871 224 840 L134 695 L139 691 L139 691 Z M442 0 L442 11 L437 11 C421 11 414 18 365 95 L220 322 C300 340 356 406 356 490 C356 587 282 660 185 660 L133 660 L105 660 L77 660 L51 660 C43 660 44 662 44 644 C44 622 43 625 51 624 L77 621 L77 39 L51 36 C43 35 44 38 44 16 C44 -2 43 0 51 0 L77 0 L105 0 L133 0 L159 0 C167 0 166 -2 166 16 C166 38 167 35 159 36 L133 39 L133 317 L156 317 L289 106 C350 9 362 0 421 0 L442 0 L442 0 Z M175 330 L148 330 L133 330 L133 646 L185 646 C249 646 298 579 298 490 C298 399 245 330 175 330 L175 330 Z " />
<glyph glyph-name="Rcaron" unicode="&#x158;" horiz-adv-x="392" d="M217 772 L306 927 L311 922 L233 729 C231 725 225 715 217 715 C208 715 202 725 201 729 L123 922 L128 927 L217 772 L217 772 Z M175 317 C233 154 327 -1 393 -43 L398 -35 C365 -14 291 140 224 323 C302 342 356 407 356 490 C356 587 282 660 185 660 L133 660 L105 660 L77 660 L51 660 C43 660 44 662 44 644 C44 622 43 625 51 624 L77 621 L77 39 L51 36 C43 35 44 38 44 16 C44 -2 43 0 51 0 L77 0 L105 0 L133 0 L159 0 C167 0 166 -2 166 16 C166 38 167 35 159 36 L133 39 L133 317 L175 317 L175 317 Z M133 330 L133 646 L185 646 C249 646 298 579 298 490 C298 399 245 330 175 330 L133 330 L133 330 Z " />
<glyph glyph-name="rcaron" unicode="&#x159;" horiz-adv-x="298" d="M149 613 L238 767 L243 762 L165 569 C163 565 158 555 149 555 C140 555 135 565 133 569 L55 762 L60 767 L149 613 L149 613 Z M33 476 C33 489 32 492 39 479 C35 478 34 478 34 478 L33 476 L33 476 Z M34 478 C34 478 34 478 34 477 L34 477 L34 478 L34 478 Z M40 479 C42 476 44 472 46 467 L72 418 L72 39 L46 36 C38 35 39 38 39 16 C39 -2 38 0 46 0 L72 0 L97 0 L122 0 L148 0 C156 0 155 -2 155 16 C155 38 156 35 148 36 L122 39 L122 422 C145 448 172 467 188 467 C212 467 242 445 266 445 C280 445 290 455 290 469 C290 489 270 504 228 504 C202 504 158 472 122 429 L122 431 L122 448 L120 448 L115 500 L105 500 L46 480 C44 479 42 478 40 478 L40 479 L40 479 Z " />
<glyph glyph-name="Sacute" unicode="&#x15a;" horiz-adv-x="384" d="M137 691 L247 820 C270 849 288 871 288 875 C288 880 268 895 260 895 C258 895 241 871 221 840 L131 695 L137 691 L137 691 Z M216 639 L216 639 C237 615 268 578 289 554 C296 545 301 539 302 539 C304 539 305 545 305 554 L305 614 C255 643 204 665 186 665 C109 665 51 586 51 482 C51 419 101 346 167 311 C243 270 300 199 300 144 C300 67 256 9 198 9 C182 9 158 15 131 25 C111 48 79 83 59 106 C52 115 46 121 45 121 C44 121 43 115 43 106 L43 46 L47 54 L47 54 L43 46 C93 17 160 -5 198 -5 C278 -5 339 69 339 167 C339 230 282 309 206 349 C140 384 90 451 90 505 C90 588 130 651 184 651 C188 651 200 647 216 639 L216 639 Z " />
<glyph glyph-name="sacute" unicode="&#x15b;" horiz-adv-x="302" d="M82 531 L192 660 C215 689 233 711 233 715 C233 720 213 735 205 735 C202 735 186 711 166 680 L76 535 L82 531 L82 531 Z M165 481 L165 481 C178 463 198 437 211 419 C216 413 221 409 224 409 C227 409 229 413 229 419 L229 461 L225 453 L225 453 L229 461 C186 486 156 505 159 505 C106 505 65 450 65 378 C65 328 97 265 138 232 C180 200 211 150 211 117 C211 54 185 6 149 6 C145 6 137 9 126 14 L126 15 C107 33 79 61 61 80 C54 87 49 93 49 93 C48 93 47 88 47 80 L47 35 L51 43 L51 43 L47 35 C86 13 128 -4 146 -4 C206 -4 252 57 252 137 C252 177 218 234 173 269 C133 300 103 355 103 396 C103 453 127 495 158 495 C152 495 155 490 165 482 L165 481 L165 481 Z " />
<glyph glyph-name="Scircumflex" unicode="&#x15c;" horiz-adv-x="384" d="M184 847 L273 693 L278 698 L200 891 C198 895 193 905 184 905 C175 905 170 895 168 891 L90 698 L95 693 L184 847 L184 847 Z M216 639 L216 639 C237 615 268 578 289 554 C296 545 301 539 302 539 C304 539 305 545 305 554 L305 614 C255 643 204 665 186 665 C109 665 51 586 51 482 C51 419 101 346 167 311 C243 270 300 199 300 144 C300 67 256 9 198 9 C182 9 158 15 131 25 C111 48 79 83 59 106 C52 115 46 121 45 121 C44 121 43 115 43 106 L43 46 L47 54 L47 54 L43 46 C93 17 160 -5 198 -5 C278 -5 339 69 339 167 C339 230 282 309 206 349 C140 384 90 451 90 505 C90 588 130 651 184 651 C188 651 200 647 216 639 L216 639 Z " />
<glyph glyph-name="Scedilla" unicode="&#x15e;" horiz-adv-x="384" d="M186 -80 L210 -4 C284 3 339 75 339 168 C339 231 282 310 206 350 C140 385 90 452 90 506 C90 589 130 652 184 652 C188 652 200 648 216 640 L216 640 C237 616 268 579 289 555 C296 546 301 540 302 540 C304 540 305 546 305 555 L305 615 C255 644 204 666 186 666 C109 666 51 587 51 483 C51 420 101 347 167 312 C243 271 300 200 300 145 C300 68 256 10 198 10 C182 10 158 16 131 26 C111 49 79 84 59 107 C52 116 46 122 45 122 C44 122 43 116 43 107 L43 47 L47 55 L47 55 L43 47 C91 19 155 -2 194 -4 L178 -92 L182 -92 C189 -84 197 -77 200 -77 C211 -77 219 -101 219 -133 C219 -173 207 -204 190 -204 C175 -204 157 -198 149 -189 L148 -196 C161 -209 184 -219 200 -219 C228 -219 249 -182 249 -133 C249 -95 233 -67 212 -67 C203 -67 192 -72 186 -80 L186 -80 Z " />
<glyph glyph-name="scedilla" unicode="&#x15f;" horiz-adv-x="302" d="M134 -81 L159 -5 C213 2 253 60 253 135 C253 175 219 232 174 267 C134 298 104 353 104 394 C104 451 128 493 159 493 C153 493 156 488 166 480 L166 480 C179 462 199 436 212 418 C217 412 222 408 225 408 C228 408 230 412 230 418 L230 460 L226 452 L226 452 L230 460 C187 485 157 504 160 504 C107 504 66 449 66 377 C66 327 98 264 139 231 C181 199 212 149 212 116 C212 53 186 5 150 5 C146 5 138 8 127 13 L127 14 C108 32 80 60 62 79 C55 86 50 92 50 92 C49 92 48 87 48 79 L48 34 L52 42 L52 42 L48 34 C84 14 122 -2 142 -5 L126 -93 L130 -93 C137 -85 145 -78 149 -78 C159 -78 167 -102 167 -134 C167 -174 155 -205 139 -205 C123 -205 106 -199 97 -190 L96 -197 C109 -210 132 -220 149 -220 C177 -220 198 -183 198 -134 C198 -96 182 -68 161 -68 C152 -68 141 -73 134 -81 L134 -81 Z " />
<glyph glyph-name="Scaron" unicode="&#x160;" horiz-adv-x="384" d="M184 773 L273 927 L278 922 L200 729 C198 725 193 715 184 715 C175 715 170 725 168 729 L90 922 L95 927 L184 773 L184 773 Z M216 639 L216 639 C237 615 268 578 289 554 C296 545 301 539 302 539 C304 539 305 545 305 554 L305 614 C255 643 204 665 186 665 C109 665 51 586 51 482 C51 419 101 346 167 311 C243 270 300 199 300 144 C300 67 256 9 198 9 C182 9 158 15 131 25 C111 48 79 83 59 106 C52 115 46 121 45 121 C44 121 43 115 43 106 L43 46 L47 54 L47 54 L43 46 C93 17 160 -5 198 -5 C278 -5 339 69 339 167 C339 230 282 309 206 349 C140 384 90 451 90 505 C90 588 130 651 184 651 C188 651 200 647 216 639 L216 639 Z " />
<glyph glyph-name="scaron" unicode="&#x161;" horiz-adv-x="302" d="M159 613 L248 767 L253 762 L175 569 C173 565 168 555 159 555 C150 555 145 565 143 569 L65 762 L70 767 L159 613 L159 613 Z M165 481 L165 481 C178 463 198 437 211 419 C216 413 221 409 224 409 C227 409 229 413 229 419 L229 461 L225 453 L225 453 L229 461 C186 486 156 505 159 505 C106 505 65 450 65 378 C65 328 97 265 138 232 C180 200 211 150 211 117 C211 54 185 6 149 6 C145 6 137 9 126 14 L126 15 C107 33 79 61 61 80 C54 87 49 93 49 93 C48 93 47 88 47 80 L47 35 L51 43 L51 43 L47 35 C86 13 128 -4 146 -4 C206 -4 252 57 252 137 C252 177 218 234 173 269 C133 300 103 355 103 396 C103 453 127 495 158 495 C152 495 155 490 165 482 L165 481 L165 481 Z " />
<glyph glyph-name="Tcaron" unicode="&#x164;" horiz-adv-x="500" d="M250 773 L339 927 L344 922 L266 729 C264 725 259 715 250 715 C241 715 236 725 234 729 L156 922 L161 927 L250 773 L250 773 Z M480 579 C480 579 480 580 480 582 C484 579 483 579 480 579 L480 579 Z M480 579 L480 579 C481 579 481 579 481 579 L480 579 L480 579 Z M481 582 C481 584 481 588 480 594 C479 610 477 636 475 653 L474 660 L461 660 L436 660 L66 660 L41 660 L28 660 L27 653 C25 636 23 610 22 594 C21 588 21 584 21 582 C24 584 29 588 38 594 L111 646 L224 646 L224 39 L198 36 C190 35 191 38 191 16 C191 -2 190 0 198 0 L224 0 L252 0 L280 0 L306 0 C313 0 313 -2 313 16 C313 38 313 35 306 36 L280 39 L280 646 L393 646 L466 594 C475 588 480 584 483 582 L481 582 L481 582 Z M22 579 C19 579 18 579 22 582 C22 580 22 579 22 579 L22 579 Z M22 579 C22 579 22 579 23 579 L23 579 L22 579 L22 579 Z " />
<glyph glyph-name="tcaron" unicode="&#x165;" horiz-adv-x="290" d="M260 500 L125 500 L125 640 L116 640 L78 493 L78 493 L97 569 C86 525 55 489 25 485 L25 480 L75 480 L75 110 C75 24 94 -6 149 -6 C196 -6 237 15 270 43 L267 47 C246 29 216 16 174 16 C137 16 124 38 124 101 L125 480 L260 480 L260 500 L260 500 Z M353 604 C365 650 374 703 374 711 C374 719 352 723 343 722 C333 723 325 658 322 616 L308 453 L314 451 L353 604 L353 604 Z M97 569 L98 571 C98 570 98 569 98 568 L97 569 L97 569 Z " />
<glyph glyph-name="Utilde" unicode="&#x168;" horiz-adv-x="463" d="M182 755 C182 793 189 822 198 822 C234 822 233 759 270 759 C291 759 307 799 307 852 L298 852 C298 818 290 792 280 792 C244 792 245 855 208 855 C189 855 174 812 174 755 L182 755 L182 755 Z M67 621 L67 203 C67 85 123 -5 244 -5 C360 -5 413 72 413 173 L413 621 L443 624 C451 625 450 622 450 644 C450 662 451 660 443 660 L413 660 L405 660 L397 660 L365 660 C358 660 359 662 359 644 C359 622 358 625 365 624 L397 621 L397 179 C397 85 351 14 252 14 C164 14 123 91 123 193 L123 621 L149 624 C157 625 156 622 156 644 C156 662 157 660 149 660 L123 660 L95 660 L67 660 L41 660 C33 660 34 662 34 644 C34 622 33 625 41 624 L67 621 L67 621 Z " />
<glyph glyph-name="utilde" unicode="&#x169;" horiz-adv-x="367" d="M116 595 C116 633 122 662 131 662 C167 662 167 599 203 599 C224 599 240 639 240 692 L232 692 C232 658 224 632 214 632 C178 632 178 695 142 695 C122 695 107 652 107 595 L116 595 L116 595 Z M345 24 C345 11 346 8 339 21 C344 23 345 23 345 23 L345 24 L345 24 Z M345 23 L345 23 L345 23 L345 23 Z M339 20 C337 23 335 27 333 32 L306 81 L306 499 L281 499 L256 499 L230 499 C222 499 223 501 223 483 C223 461 222 464 230 463 L256 460 L256 68 L256 64 C233 42 204 26 177 26 C123 26 90 83 90 159 L90 498 L65 498 L40 498 L14 498 C6 498 7 500 7 482 C7 460 6 463 14 462 L40 459 L40 154 C40 62 77 -7 138 -7 C174 -7 218 20 256 56 L256 12 L256 -1 L266 -1 L333 19 C335 20 337 21 339 21 L339 20 L339 20 Z " />
<glyph glyph-name="Umacron" unicode="&#x16a;" horiz-adv-x="463" d="M150 770 L330 770 L330 798 L150 798 L150 770 L150 770 Z M67 621 L67 203 C67 85 123 -5 244 -5 C360 -5 413 72 413 173 L413 621 L443 624 C451 625 450 622 450 644 C450 662 451 660 443 660 L413 660 L405 660 L397 660 L365 660 C358 660 359 662 359 644 C359 622 358 625 365 624 L397 621 L397 179 C397 85 351 14 252 14 C164 14 123 91 123 193 L123 621 L149 624 C157 625 156 622 156 644 C156 662 157 660 149 660 L123 660 L95 660 L67 660 L41 660 C33 660 34 662 34 644 C34 622 33 625 41 624 L67 621 L67 621 Z " />
<glyph glyph-name="umacron" unicode="&#x16b;" horiz-adv-x="367" d="M84 610 L264 610 L264 638 L84 638 L84 610 L84 610 Z M345 24 C345 11 346 8 339 21 C344 23 345 23 345 23 L345 24 L345 24 Z M345 23 L345 23 L345 23 L345 23 Z M339 20 C337 23 335 27 333 32 L306 81 L306 499 L281 499 L256 499 L230 499 C222 499 223 501 223 483 C223 461 222 464 230 463 L256 460 L256 68 L256 64 C233 42 204 26 177 26 C123 26 90 83 90 159 L90 498 L65 498 L40 498 L14 498 C6 498 7 500 7 482 C7 460 6 463 14 462 L40 459 L40 154 C40 62 77 -7 138 -7 C174 -7 218 20 256 56 L256 12 L256 -1 L266 -1 L333 19 C335 20 337 21 339 21 L339 20 L339 20 Z " />
<glyph glyph-name="Ubreve" unicode="&#x16c;" horiz-adv-x="463" d="M186 872 C197 813 220 768 240 768 C261 768 284 813 294 872 L286 873 C278 832 259 801 240 801 C222 801 202 832 195 873 L186 872 L186 872 Z M67 621 L67 203 C67 85 123 -5 244 -5 C360 -5 413 72 413 173 L413 621 L443 624 C451 625 450 622 450 644 C450 662 451 660 443 660 L413 660 L405 660 L397 660 L365 660 C358 660 359 662 359 644 C359 622 358 625 365 624 L397 621 L397 179 C397 85 351 14 252 14 C164 14 123 91 123 193 L123 621 L149 624 C157 625 156 622 156 644 C156 662 157 660 149 660 L123 660 L95 660 L67 660 L41 660 C33 660 34 662 34 644 C34 622 33 625 41 624 L67 621 L67 621 Z " />
<glyph glyph-name="ubreve" unicode="&#x16d;" horiz-adv-x="367" d="M120 712 C130 653 153 608 174 608 C194 608 217 653 228 712 L219 713 C212 672 192 641 174 641 C155 641 136 672 128 713 L120 712 L120 712 Z M345 24 C345 11 346 8 339 21 C344 23 345 23 345 23 L345 24 L345 24 Z M345 23 L345 23 L345 23 L345 23 Z M339 20 C337 23 335 27 333 32 L306 81 L306 499 L281 499 L256 499 L230 499 C222 499 223 501 223 483 C223 461 222 464 230 463 L256 460 L256 68 L256 64 C233 42 204 26 177 26 C123 26 90 83 90 159 L90 498 L65 498 L40 498 L14 498 C6 498 7 500 7 482 C7 460 6 463 14 462 L40 459 L40 154 C40 62 77 -7 138 -7 C174 -7 218 20 256 56 L256 12 L256 -1 L266 -1 L333 19 C335 20 337 21 339 21 L339 20 L339 20 Z " />
<glyph glyph-name="Uring" unicode="&#x16e;" horiz-adv-x="463" d="M240 706 C199 706 160 746 160 788 C160 834 195 869 240 869 C286 869 320 834 320 788 C320 746 281 706 240 706 L240 706 Z M146 788 C146 740 192 695 240 695 C288 695 334 740 334 788 C334 840 294 880 240 880 C187 880 146 840 146 788 L146 788 Z M67 621 L67 203 C67 85 123 -5 244 -5 C360 -5 413 72 413 173 L413 621 L443 624 C451 625 450 622 450 644 C450 662 451 660 443 660 L413 660 L405 660 L397 660 L365 660 C358 660 359 662 359 644 C359 622 358 625 365 624 L397 621 L397 179 C397 85 351 14 252 14 C164 14 123 91 123 193 L123 621 L149 624 C157 625 156 622 156 644 C156 662 157 660 149 660 L123 660 L95 660 L67 660 L41 660 C33 660 34 662 34 644 C34 622 33 625 41 624 L67 621 L67 621 Z " />
<glyph glyph-name="uring" unicode="&#x16f;" horiz-adv-x="367" d="M174 546 C133 546 94 586 94 628 C94 674 128 709 174 709 C219 709 254 674 254 628 C254 586 215 546 174 546 L174 546 Z M80 628 C80 580 126 535 174 535 C222 535 268 580 268 628 C268 680 227 720 174 720 C120 720 80 680 80 628 L80 628 Z M345 24 C345 11 346 8 339 21 C344 23 345 23 345 23 L345 24 L345 24 Z M345 23 L345 23 L345 23 L345 23 Z M339 20 C337 23 335 27 333 32 L306 81 L306 499 L281 499 L256 499 L230 499 C222 499 223 501 223 483 C223 461 222 464 230 463 L256 460 L256 68 L256 64 C233 42 204 26 177 26 C123 26 90 83 90 159 L90 498 L65 498 L40 498 L14 498 C6 498 7 500 7 482 C7 460 6 463 14 462 L40 459 L40 154 C40 62 77 -7 138 -7 C174 -7 218 20 256 56 L256 12 L256 -1 L266 -1 L333 19 C335 20 337 21 339 21 L339 20 L339 20 Z " />
<glyph glyph-name="Wcircumflex" unicode="&#x174;" horiz-adv-x="606" d="M31 621 L31 621 L181 -15 L195 -15 L306 572 L429 -15 L442 -15 L569 621 L596 624 C604 625 603 622 603 643 C603 662 604 660 596 660 L577 660 L569 660 L560 660 L523 660 C516 660 516 662 517 644 C516 622 515 625 524 624 L552 621 L429 -15 L446 76 L325 670 L311 670 L181 -15 L197 71 L91 621 L91 621 L115 624 C123 625 122 622 121 644 C122 662 122 660 115 660 L83 660 L53 660 L22 660 L10 660 C2 660 3 662 3 643 C3 622 2 625 10 624 L31 621 L31 621 Z M318 847 L407 693 L412 698 L334 891 C332 895 327 905 318 905 C309 905 304 895 302 891 L224 698 L229 693 L318 847 L318 847 Z " />
<glyph glyph-name="Ycircumflex" unicode="&#x176;" horiz-adv-x="419" d="M54 621 L54 621 L190 271 L190 39 L164 36 C156 35 157 38 157 16 C157 -2 156 0 164 0 L190 0 L218 0 L246 0 L272 0 C279 0 278 -2 279 16 C278 38 279 35 272 36 L246 39 L246 301 L246 301 L381 621 L381 621 L404 624 C412 625 411 623 411 643 C412 662 413 660 405 660 L397 660 L389 660 L380 660 L342 660 C335 660 335 662 335 644 C335 622 334 625 342 624 L364 621 L231 301 L230 301 L119 621 L137 624 C144 625 143 622 144 644 C144 662 145 660 137 660 L106 660 L72 660 L39 660 L34 660 C26 660 27 662 27 643 C27 623 26 625 34 624 L54 621 L54 621 Z M218 847 L307 693 L312 698 L234 891 C232 895 227 905 218 905 C209 905 204 895 202 891 L124 698 L129 693 L218 847 L218 847 Z " />
<glyph glyph-name="Ydieresis" unicode="&#x178;" horiz-adv-x="419" d="M301 730 C319 730 332 743 332 761 C332 778 319 791 301 791 C284 791 271 778 271 761 C271 743 284 730 301 730 L301 730 Z M134 730 C152 730 165 743 165 761 C165 778 152 791 134 791 C117 791 104 778 104 761 C104 743 117 730 134 730 L134 730 Z M54 621 L54 621 L190 271 L190 39 L164 36 C156 35 157 38 157 16 C157 -2 156 0 164 0 L190 0 L218 0 L246 0 L272 0 C279 0 278 -2 279 16 C278 38 279 35 272 36 L246 39 L246 301 L246 301 L381 621 L381 621 L404 624 C412 625 411 623 411 643 C412 662 413 660 405 660 L397 660 L389 660 L380 660 L342 660 C335 660 335 662 335 644 C335 622 334 625 342 624 L364 621 L231 301 L230 301 L119 621 L137 624 C144 625 143 622 144 644 C144 662 145 660 137 660 L106 660 L72 660 L39 660 L34 660 C26 660 27 662 27 643 C27 623 26 625 34 624 L54 621 L54 621 Z " />
<glyph glyph-name="Zacute" unicode="&#x179;" horiz-adv-x="457" d="M269 691 L379 820 C403 849 421 871 421 875 C421 880 401 895 392 895 C390 895 374 871 354 840 L264 695 L269 691 L269 691 Z M397 7 C399 24 404 48 407 64 C409 80 409 78 405 78 C396 79 399 81 382 67 L319 14 L121 14 L409 660 L378 660 L346 660 L158 660 L132 660 L119 660 L117 653 C114 639 108 618 104 604 C103 600 102 597 102 595 C106 597 112 600 120 604 L199 646 L340 646 L52 0 L84 0 L115 0 L356 0 L393 0 L395 0 L397 7 L397 7 Z M102 590 L102 590 L102 590 L102 590 Z M102 590 L102 590 L102 590 L102 590 Z M101 590 C93 589 90 588 102 594 C101 591 101 590 101 590 L101 590 Z " />
<glyph glyph-name="zacute" unicode="&#x17a;" horiz-adv-x="363" d="M121 531 L231 660 C255 689 273 711 273 715 C273 720 253 735 245 735 C242 735 226 711 206 680 L116 535 L121 531 L121 531 Z M151 488 L151 488 L251 489 L55 0 L85 0 L114 0 L262 0 L298 0 L301 0 L302 6 C304 22 309 45 311 61 C314 76 314 74 310 75 C301 76 304 77 287 64 L224 11 L118 11 L313 500 L284 500 L255 500 L109 500 L83 500 L70 500 L68 494 C65 483 61 467 58 457 C57 454 56 452 56 450 C61 452 67 454 74 457 L151 488 L151 488 Z M55 442 C39 442 35 441 57 450 C56 444 56 443 56 443 L55 442 L55 442 Z M56 443 C56 443 56 443 57 443 L57 443 L56 443 L56 443 Z " />
<glyph glyph-name="Zdot" unicode="&#x17b;" horiz-adv-x="457" d="M271 730 C288 730 301 743 301 761 C301 778 288 791 271 791 C253 791 240 778 240 761 C240 743 253 730 271 730 L271 730 Z M397 7 C399 24 404 48 407 64 C409 80 409 78 405 78 C396 79 399 81 382 67 L319 14 L121 14 L409 660 L378 660 L346 660 L158 660 L132 660 L119 660 L117 653 C114 639 108 618 104 604 C103 600 102 597 102 595 C106 597 112 600 120 604 L199 646 L340 646 L52 0 L84 0 L115 0 L356 0 L393 0 L395 0 L397 7 L397 7 Z M102 590 L102 590 L102 590 L102 590 Z M102 590 L102 590 L102 590 L102 590 Z M101 590 C93 589 90 588 102 594 C101 591 101 590 101 590 L101 590 Z " />
<glyph glyph-name="zdot" unicode="&#x17c;" horiz-adv-x="363" d="M199 570 C216 570 229 583 229 601 C229 618 216 631 199 631 C181 631 168 618 168 601 C168 583 181 570 199 570 L199 570 Z M151 488 L151 488 L251 489 L55 0 L85 0 L114 0 L262 0 L298 0 L301 0 L302 6 C304 22 309 45 311 61 C314 76 314 74 310 75 C301 76 304 77 287 64 L224 11 L118 11 L313 500 L284 500 L255 500 L109 500 L83 500 L70 500 L68 494 C65 483 61 467 58 457 C57 454 56 452 56 450 C61 452 67 454 74 457 L151 488 L151 488 Z M55 442 C39 442 35 441 57 450 C56 444 56 443 56 443 L55 442 L55 442 Z M56 443 C56 443 56 443 57 443 L57 443 L56 443 L56 443 Z " />
<glyph glyph-name="Zcaron" unicode="&#x17d;" horiz-adv-x="457" d="M271 773 L360 927 L365 922 L287 729 C285 725 280 715 271 715 C262 715 257 725 255 729 L177 922 L182 927 L271 773 L271 773 Z M397 7 C399 24 404 48 407 64 C409 80 409 78 405 78 C396 79 399 81 382 67 L319 14 L121 14 L409 660 L378 660 L346 660 L158 660 L132 660 L119 660 L117 653 C114 639 108 618 104 604 C103 600 102 597 102 595 C106 597 112 600 120 604 L199 646 L340 646 L52 0 L84 0 L115 0 L356 0 L393 0 L395 0 L397 7 L397 7 Z M102 590 L102 590 L102 590 L102 590 Z M102 590 L102 590 L102 590 L102 590 Z M101 590 C93 589 90 588 102 594 C101 591 101 590 101 590 L101 590 Z " />
<glyph glyph-name="zcaron" unicode="&#x17e;" horiz-adv-x="363" d="M151 488 L151 488 L251 489 L55 0 L85 0 L114 0 L262 0 L298 0 L301 0 L302 6 C304 22 309 45 311 61 C314 76 314 74 310 75 C301 76 304 77 287 64 L224 11 L118 11 L313 500 L284 500 L255 500 L109 500 L83 500 L70 500 L68 494 C65 483 61 467 58 457 C57 454 56 452 56 450 C61 452 67 454 74 457 L151 488 L151 488 Z M198 613 L287 767 L292 762 L214 569 C212 565 207 555 198 555 C189 555 184 565 182 569 L104 762 L109 767 L198 613 L198 613 Z M55 442 C39 442 35 441 57 450 C56 444 56 443 56 443 L55 442 L55 442 Z M56 443 C56 443 56 443 57 443 L57 443 L56 443 L56 443 Z " />
<glyph glyph-name="oogonek" unicode="&#x1eb;" horiz-adv-x="615" d="M591 -51 L586 -47 C563 -74 519 -95 482 -95 C434 -95 373 -57 319 -5 C473 -2 565 134 565 277 C565 421 471 558 314 558 C157 558 63 421 63 277 C63 136 152 3 301 -4 C373 -74 442 -126 477 -126 C506 -126 554 -93 591 -50 L591 -51 L591 -51 Z M314 9 C191 9 118 140 118 278 C118 416 191 547 314 547 C437 547 510 416 510 278 C510 140 437 9 314 9 L314 9 Z " />
<glyph glyph-name="Adotabove" unicode="&#x226;" horiz-adv-x="436" d="M207 730 C225 730 238 743 238 761 C238 778 225 791 207 791 C190 791 177 778 177 761 C177 743 190 730 207 730 L207 730 Z M394 39 L393 39 L214 675 L200 675 L185 617 L184 614 L184 613 L40 39 L39 39 L13 36 C5 35 6 38 6 17 C6 -2 5 0 12 0 L30 0 L39 0 L48 0 L87 0 C94 0 93 -2 93 16 C93 38 94 35 86 36 L58 39 L58 39 L106 236 L282 236 L333 39 L314 36 C306 35 307 38 307 17 C307 -2 306 0 314 0 L343 0 L373 0 L403 0 L424 0 C432 0 431 -2 431 16 C431 38 432 35 424 36 L394 39 L394 39 Z M278 251 L110 251 L191 584 L278 251 L278 251 Z " />
<glyph glyph-name="G_sc" unicode="&#x262;" horiz-adv-x="619" d="M456 221 L456 49 C403 25 344 8 307 8 C199 8 117 124 117 277 C117 430 199 546 307 546 C332 546 368 537 406 523 L406 523 C427 500 458 464 479 441 C486 433 492 427 492 427 C494 427 495 433 495 441 L495 496 L492 490 L492 490 L496 496 C434 531 353 558 308 558 C168 558 63 437 63 277 C63 116 168 -5 308 -5 C356 -5 440 22 501 57 L501 221 L527 224 C535 225 534 222 534 243 C534 262 535 260 527 260 L501 260 L479 260 L456 260 L430 260 C422 260 423 262 423 243 C423 222 422 225 430 224 L456 221 L456 221 Z " />
<glyph glyph-name="I_sc" unicode="&#x26a;" horiz-adv-x="185" d="M94 0 L119 0 L145 0 C153 0 152 -2 152 16 C152 38 153 35 145 36 L119 39 L119 514 L145 518 C153 519 152 516 152 537 C152 556 153 554 145 553 C131 554 109 554 94 553 C79 554 57 554 43 553 C35 554 36 556 36 537 C36 516 35 519 43 518 L69 514 L69 39 L43 36 C35 35 36 38 36 16 C36 -2 35 0 43 0 L69 0 L94 0 L94 0 Z " />
<glyph glyph-name="N_sc" unicode="&#x274;" horiz-adv-x="451" d="M377 514 L377 77 L114 553 L84 533 L84 533 L114 553 L84 553 L77 553 C67 554 53 554 43 553 C35 554 36 556 36 537 C37 516 36 519 43 518 L69 514 L69 39 L43 36 C36 35 37 38 36 16 C36 -2 35 0 43 0 L69 0 L77 0 L84 0 L111 0 C118 0 117 -2 117 16 C117 38 118 35 111 36 L84 39 L84 505 L354 20 L371 -10 L392 -10 L392 38 L392 514 L418 518 C426 519 425 516 425 537 C425 556 426 554 418 553 C409 554 394 554 385 553 C375 554 361 554 351 553 C343 554 344 556 344 537 C344 516 343 519 351 518 L377 514 L377 514 Z " />
<glyph glyph-name="R_sc" unicode="&#x280;" horiz-adv-x="426" d="M426 0 L426 10 L421 10 C405 10 397 18 336 96 L202 269 C276 284 328 340 328 411 C328 492 259 552 167 552 L129 552 L104 552 C89 553 67 553 52 552 C45 553 46 555 46 536 C46 515 45 518 53 517 L79 513 L79 38 L53 35 C45 34 46 37 46 15 C46 -3 45 -1 52 -1 L79 -1 L104 -1 L129 -1 L155 -1 C162 -1 161 -3 162 15 C161 37 162 34 155 35 L129 38 L129 264 L145 264 L268 105 C343 8 355 -1 406 -1 L426 0 L426 0 Z M160 277 L135 277 L129 277 L129 540 L167 540 C229 540 275 485 275 411 C275 335 225 277 160 277 L160 277 Z " />
<glyph glyph-name="Y_sc" unicode="&#x28f;" horiz-adv-x="389" d="M57 514 L58 514 L179 228 L179 39 L153 36 C145 35 146 38 146 16 C146 -2 145 0 153 0 L179 0 L204 0 L229 0 L255 0 C263 0 262 -2 262 16 C262 38 263 35 255 36 L229 39 L229 252 L349 514 L350 514 L374 518 C382 519 381 516 380 536 C381 556 382 554 374 553 C370 554 364 554 360 553 C347 554 327 554 314 553 C306 554 307 556 307 537 C307 516 306 519 314 518 L335 514 L217 252 L212 252 L115 514 L132 518 C139 519 138 516 139 537 C139 556 140 554 132 553 C115 554 88 554 71 553 C61 554 46 554 37 553 C28 554 29 556 30 536 C30 516 30 519 37 518 L57 514 L57 514 Z " />
<glyph glyph-name="B_sc" unicode="&#x299;" horiz-adv-x="397" d="M181 301 C179 301 177 301 175 301 L144 299 L129 299 L129 541 L167 541 C229 541 275 492 275 427 C275 362 235 311 180 301 L181 301 L181 301 Z M212 299 C278 316 324 365 324 427 C324 499 256 553 166 553 L128 553 L103 553 C88 554 66 554 51 553 C44 554 45 556 45 537 C45 516 44 519 52 518 L78 514 L78 39 L52 36 C44 35 45 38 45 16 C45 -2 44 0 51 0 L78 0 L103 0 L128 0 L180 0 C292 0 377 65 377 152 C377 227 309 286 213 298 L212 299 L212 299 Z M129 290 L160 290 C254 290 325 230 325 151 C325 72 261 12 176 12 L129 12 L129 290 L129 290 Z " />
<glyph glyph-name="H_sc" unicode="&#x29c;" horiz-adv-x="527" d="M436 0 L461 0 L487 0 C495 0 494 -2 494 16 C494 38 495 35 487 36 L461 39 L461 514 L487 518 C495 519 494 516 494 537 C494 556 495 554 487 553 C473 554 451 554 436 553 C421 554 399 554 385 553 C377 554 378 556 378 537 C378 516 377 519 385 518 L411 514 L411 299 L118 299 L118 514 L144 518 C151 519 150 516 150 537 C150 556 151 554 144 553 C129 554 107 554 93 553 C78 554 56 554 41 553 C34 554 35 556 35 537 C35 516 34 519 41 518 L68 514 L68 39 L41 36 C34 35 35 38 35 16 C35 -2 34 0 41 0 L68 0 L93 0 L118 0 L144 0 C151 0 150 -2 150 16 C150 38 151 35 144 36 L118 39 L118 287 L411 287 L411 39 L385 36 C377 35 378 38 378 16 C378 -2 377 0 385 0 L411 0 L436 0 L436 0 Z " />
<glyph glyph-name="L_sc" unicode="&#x29f;" horiz-adv-x="370" d="M307 6 C310 22 315 46 317 62 C321 78 321 76 316 76 C306 77 309 79 292 65 L230 13 L118 13 L118 514 L144 518 C151 519 150 516 150 537 C150 556 151 554 144 553 C129 554 107 554 93 553 C78 554 56 554 41 553 C34 554 35 556 35 537 C35 516 34 519 41 518 L68 514 L68 39 L41 36 C34 35 35 38 35 16 C35 -2 34 0 41 0 L68 0 L93 0 L118 0 L267 0 L305 0 L306 0 L307 6 L307 6 Z " />
<glyph glyph-name="A_sc" unicode="&#x1d00;" horiz-adv-x="407" d="M363 39 L363 39 L200 566 L187 566 L42 39 L15 36 C7 35 8 38 8 17 C8 -2 7 0 15 0 L31 0 L39 0 L48 0 L86 0 C94 0 93 -2 93 16 C93 38 94 35 86 36 L58 39 L101 198 L263 198 L309 39 L292 36 C284 34 285 36 285 17 C285 -2 284 0 292 0 L320 0 L347 0 L375 0 L396 0 C403 0 402 -2 402 16 C402 38 403 35 395 36 L363 39 L363 39 Z M259 211 L104 211 L179 489 L259 211 L259 211 Z " />
<glyph glyph-name="C_sc" unicode="&#x1d04;" horiz-adv-x="575" d="M516 57 L513 63 L513 63 L516 57 L516 57 Z M516 57 L516 112 C516 121 515 127 513 127 C513 127 507 121 500 112 C479 89 448 54 427 31 C387 17 347 8 319 8 C204 8 118 124 118 277 C118 430 204 546 319 546 C347 546 387 537 427 523 L427 522 C448 499 479 464 500 441 C507 433 513 427 513 427 C515 427 516 433 516 441 L516 496 L513 490 L513 490 L517 496 C455 531 371 558 320 558 C174 558 64 437 64 277 C64 116 174 -5 320 -5 C371 -5 455 22 517 57 L516 57 L516 57 Z " />
<glyph glyph-name="D_sc" unicode="&#x1d05;" horiz-adv-x="494" d="M104 0 L129 0 L185 0 C333 0 445 119 445 277 C445 434 327 553 171 553 L129 553 L104 553 C89 554 67 554 52 553 C45 554 46 556 46 537 C46 516 45 519 53 518 L79 514 L79 39 L53 36 C45 35 46 38 46 16 C46 -2 45 0 52 0 L79 0 L104 0 L104 0 Z M129 13 L129 541 L171 541 C299 541 395 427 395 277 C395 126 305 13 185 13 L129 13 L129 13 Z " />
<glyph glyph-name="E_sc" unicode="&#x1d07;" horiz-adv-x="370" d="M307 6 C310 21 314 45 317 60 C318 65 319 68 319 70 C316 68 311 65 302 60 L230 13 L118 13 L118 289 L151 289 L211 259 C230 250 238 246 240 245 C241 246 241 250 241 259 L241 289 L241 295 L241 301 L241 328 C241 334 241 338 241 340 C236 338 227 334 212 328 L152 301 L119 301 L119 541 L223 541 L287 494 C295 489 300 486 303 484 C303 486 303 489 303 494 L303 547 L303 553 L297 553 L264 553 L120 553 L95 553 C80 554 58 554 43 553 C36 554 37 556 37 537 C37 516 36 519 43 518 L70 514 L70 39 L43 36 C36 35 37 38 37 16 C37 -2 36 0 43 0 L70 0 L95 0 L120 0 L269 0 L307 0 L308 0 L307 6 L307 6 Z M321 73 C324 73 326 73 321 70 C321 72 321 73 321 73 L321 73 Z M321 73 C321 73 321 73 320 73 L320 73 L321 73 L321 73 Z M239 244 C240 244 240 244 240 245 C241 244 240 244 238 244 L239 244 L239 244 Z M238 244 C237 244 236 244 235 244 C236 244 237 244 238 244 L238 244 Z M238 343 C244 343 246 343 239 340 C239 342 239 343 238 343 L238 343 Z M238 343 C237 343 236 343 234 343 C235 343 236 343 237 343 L238 343 L238 343 Z M299 480 C299 480 299 481 299 483 C304 479 302 479 298 479 L299 480 L299 480 Z M298 479 L298 479 C299 479 299 479 299 479 L298 479 L298 479 Z " />
<glyph glyph-name="J_sc" unicode="&#x1d0a;" horiz-adv-x="199" d="M83 514 L83 168 C83 53 76 0 62 0 C54 0 46 22 42 50 C41 61 31 70 20 70 C7 70 -1 61 0 50 C4 16 25 -10 49 -10 C107 -10 133 59 133 210 L133 514 L159 518 C167 519 166 516 166 537 C166 556 167 554 159 553 C145 554 123 554 108 553 C93 554 71 554 57 553 C49 554 50 556 50 537 C50 516 49 519 57 518 L83 514 L83 514 Z " />
<glyph glyph-name="K_sc" unicode="&#x1d0b;" horiz-adv-x="442" d="M293 514 L293 514 L158 337 L157 338 L128 298 L128 514 L154 518 C161 519 160 516 161 537 C160 556 161 554 154 553 C139 554 117 554 103 553 C88 554 66 554 51 553 C44 554 45 556 45 537 C45 516 44 519 52 518 L78 514 L78 39 L52 36 C44 35 45 38 45 16 C45 -2 44 0 51 0 L78 0 L103 0 L128 0 L154 0 C161 0 160 -2 161 16 C160 38 161 35 154 36 L128 39 L128 298 L216 170 C300 50 361 -5 411 -5 L431 -5 L431 5 L426 5 C400 5 343 70 246 210 L165 327 L302 514 L303 514 L331 518 C338 519 338 516 338 535 C338 556 338 554 331 553 C330 554 328 554 327 553 C317 554 304 554 296 553 C288 554 289 556 288 537 C287 511 287 509 292 514 C294 515 294 515 292 513 L293 514 L293 514 Z " />
<glyph glyph-name="M_sc" unicode="&#x1d0d;" horiz-adv-x="569" d="M538 39 L538 39 L512 514 L534 518 C541 519 540 516 541 537 C540 556 541 554 534 553 C520 554 500 554 487 553 L482 553 L465 553 L300 63 L125 553 L101 553 L94 553 C84 554 69 554 60 553 C52 554 53 556 53 537 C53 516 52 519 60 518 L84 514 L84 514 L63 39 L37 36 C29 35 30 38 30 17 C30 -2 29 0 37 0 L61 0 L69 0 L76 0 L115 0 C122 0 121 -2 121 16 C121 38 122 35 115 36 L78 39 L78 39 L98 489 L268 20 L277 -5 L294 49 L299 63 L300 62 L296 50 L277 -5 L289 -5 L467 510 L488 39 L488 39 L463 36 C456 35 457 38 457 16 C457 -2 456 0 463 0 L490 0 L515 0 L540 0 L564 0 C572 0 571 -2 571 17 C571 38 572 35 564 36 L538 39 L538 39 Z " />
<glyph glyph-name="O_sc" unicode="&#x1d0f;" horiz-adv-x="615" d="M314 8 C191 8 118 139 118 277 C118 415 191 546 314 546 C437 546 510 415 510 277 C510 139 437 8 314 8 L314 8 Z M63 277 C63 132 157 -5 314 -5 C471 -5 565 132 565 277 C565 421 471 558 314 558 C157 558 63 421 63 277 L63 277 Z " />
<glyph glyph-name="P_sc" unicode="&#x1d18;" horiz-adv-x="374" d="M104 0 L129 0 L155 0 C162 0 161 -2 162 16 C161 38 162 35 155 36 L129 39 L129 250 L165 250 C273 250 354 315 354 400 C354 487 277 553 174 553 L129 553 L104 553 C89 554 67 554 52 553 C45 554 46 556 46 537 C46 516 45 519 53 518 L79 514 L79 39 L53 36 C45 35 46 38 46 16 C46 -2 45 0 52 0 L79 0 L104 0 L104 0 Z M129 263 L129 541 L174 541 C247 541 302 481 302 400 C302 322 243 263 165 263 L129 263 L129 263 Z " />
<glyph glyph-name="T_sc" unicode="&#x1d1b;" horiz-adv-x="476" d="M455 474 C455 474 455 475 455 477 C460 473 458 474 455 474 L455 474 Z M455 474 L455 474 L455 474 L455 474 Z M455 477 C455 479 455 482 455 487 C453 504 451 530 450 546 L449 552 L437 552 L410 552 L68 552 L41 552 L29 552 L28 546 C27 530 25 504 23 487 C23 482 23 479 23 477 C26 479 31 483 39 489 L112 541 L214 541 L214 39 L188 36 C180 35 181 38 181 16 C181 -2 180 0 188 0 L214 0 L239 0 L264 0 L290 0 C298 0 297 -2 297 16 C297 38 298 35 290 36 L264 39 L264 541 L366 541 L439 489 C447 483 452 479 455 477 L455 477 Z M22 474 C19 474 17 473 22 477 C22 475 22 474 22 474 L22 474 Z M22 474 L22 474 L22 474 L22 474 Z " />
<glyph glyph-name="U_sc" unicode="&#x1d1c;" horiz-adv-x="440" d="M69 514 L69 169 C69 70 121 -5 233 -5 C340 -5 390 59 390 144 L390 514 L420 518 C428 519 427 516 427 537 C427 556 428 554 420 553 C410 554 394 554 383 553 C372 554 355 554 344 553 C336 554 337 556 337 537 C337 516 336 519 344 518 L375 514 L375 149 C375 71 332 12 240 12 C157 12 119 76 119 160 L119 514 L145 518 C152 519 151 516 152 537 C151 556 152 554 145 553 C130 554 108 554 94 553 C79 554 57 554 42 553 C35 554 36 556 36 537 C36 516 35 519 43 518 L69 514 L69 514 Z " />
<glyph glyph-name="V_sc" unicode="&#x1d20;" horiz-adv-x="407" d="M354 514 L240 50 L102 514 L125 518 C132 519 131 516 131 537 C131 556 132 554 125 553 C107 554 80 554 62 553 C52 554 36 554 26 553 C17 554 18 556 19 536 C19 516 18 519 26 518 L48 514 L224 -15 L237 -15 L368 514 L369 514 L396 518 C404 519 403 516 402 536 C403 556 404 554 396 553 C388 554 378 554 371 553 C357 554 335 554 321 553 C314 554 315 556 315 537 C315 516 314 519 322 518 L354 514 L354 514 Z " />
<glyph glyph-name="W_sc" unicode="&#x1d21;" horiz-adv-x="551" d="M499 514 L404 61 L294 563 L282 563 L166 -15 L178 -15 L278 484 L388 -15 L401 -15 L514 514 L514 514 L541 518 C548 519 547 516 547 536 C547 556 548 554 541 553 C533 554 522 554 515 553 C502 554 483 554 470 553 C462 554 463 556 464 537 C464 516 463 519 470 518 L499 514 L499 514 Z M32 514 L166 -15 L180 56 L85 514 L109 518 C116 519 115 516 115 537 C115 556 116 554 109 553 C92 554 67 554 50 553 C39 554 22 554 10 553 C2 554 3 556 4 536 C3 516 2 519 10 518 L32 514 L32 514 Z " />
<glyph glyph-name="Z_sc" unicode="&#x1d22;" horiz-adv-x="433" d="M120 547 C117 533 111 513 107 499 C106 495 105 492 104 490 C108 492 114 495 122 499 L201 541 L321 541 L53 0 L81 0 L109 0 L333 0 L370 0 L372 0 L373 6 L370 6 L370 7 L373 7 C376 23 380 47 383 63 C386 79 386 77 381 77 C371 78 374 80 358 65 L295 13 L115 13 L384 553 L356 553 L327 553 L160 553 L133 553 L121 553 L120 547 L120 547 Z M103 484 C95 484 92 483 104 489 C103 485 103 484 103 484 L103 484 Z M103 484 C103 484 103 484 104 484 L104 484 L103 484 L103 484 Z " />
<glyph glyph-name="Wgrave" unicode="&#x1e80;" horiz-adv-x="606" d="M31 621 L31 621 L181 -15 L195 -15 L306 572 L429 -15 L442 -15 L569 621 L596 624 C604 625 603 622 603 643 C603 662 604 660 596 660 L577 660 L569 660 L560 660 L523 660 C516 660 516 662 517 644 C516 622 515 625 524 624 L552 621 L429 -15 L446 76 L325 670 L311 670 L181 -15 L197 71 L91 621 L91 621 L115 624 C123 625 122 622 121 644 C122 662 122 660 115 660 L83 660 L53 660 L22 660 L10 660 C2 660 3 662 3 643 C3 622 2 625 10 624 L31 621 L31 621 Z M304 840 C284 871 267 895 264 895 C256 895 235 880 235 875 C235 870 254 847 278 820 L391 691 L397 695 L304 840 L304 840 Z " />
<glyph glyph-name="Wacute" unicode="&#x1e82;" horiz-adv-x="606" d="M256 691 L365 820 C389 849 407 871 407 875 C407 880 387 895 379 895 C376 895 360 871 340 840 L250 695 L256 691 L256 691 Z M31 621 L31 621 L181 -15 L195 -15 L306 572 L429 -15 L442 -15 L569 621 L596 624 C604 625 603 622 603 643 C603 662 604 660 596 660 L577 660 L569 660 L560 660 L523 660 C516 660 516 662 517 644 C516 622 515 625 524 624 L552 621 L429 -15 L446 76 L325 670 L311 670 L181 -15 L197 71 L91 621 L91 621 L115 624 C123 625 122 622 121 644 C122 662 122 660 115 660 L83 660 L53 660 L22 660 L10 660 C2 660 3 662 3 643 C3 622 2 625 10 624 L31 621 L31 621 Z " />
<glyph glyph-name="Wdieresis" unicode="&#x1e84;" horiz-adv-x="606" d="M401 730 C419 730 432 743 432 761 C432 778 419 791 401 791 C384 791 371 778 371 761 C371 743 384 730 401 730 L401 730 Z M234 730 C252 730 265 743 265 761 C265 778 252 791 234 791 C217 791 204 778 204 761 C204 743 217 730 234 730 L234 730 Z M31 621 L31 621 L181 -15 L195 -15 L306 572 L429 -15 L442 -15 L569 621 L596 624 C604 625 603 622 603 643 C603 662 604 660 596 660 L577 660 L569 660 L560 660 L523 660 C516 660 516 662 517 644 C516 622 515 625 524 624 L552 621 L429 -15 L446 76 L325 670 L311 670 L181 -15 L197 71 L91 621 L91 621 L115 624 C123 625 122 622 121 644 C122 662 122 660 115 660 L83 660 L53 660 L22 660 L10 660 C2 660 3 662 3 643 C3 622 2 625 10 624 L31 621 L31 621 Z " />
<glyph glyph-name="Etilde" unicode="&#x1ebc;" horiz-adv-x="392" d="M134 755 C134 793 140 822 149 822 C185 822 185 759 221 759 C242 759 258 799 258 852 L249 852 C249 818 241 792 231 792 C195 792 196 855 160 855 C140 855 125 812 125 755 L134 755 L134 755 Z M330 7 C333 22 337 46 339 61 C340 67 341 70 341 72 C338 70 333 67 325 61 L252 14 L122 14 L122 345 L173 345 L233 315 C251 307 259 303 262 301 C262 303 262 307 262 315 L262 345 L262 352 L262 359 L262 385 C262 392 262 396 262 398 C257 396 248 392 233 385 L173 359 L122 359 L122 646 L245 646 L309 599 C317 593 322 590 324 588 C324 590 324 593 324 599 C325 614 325 638 324 653 L324 660 L318 660 L286 660 L123 660 L95 660 L67 660 L41 660 C33 660 34 662 34 644 C34 622 33 625 41 624 L67 621 L67 39 L41 36 C33 35 34 38 34 16 C34 -2 33 0 41 0 L67 0 L95 0 L123 0 L291 0 L328 0 L330 0 L330 7 L330 7 Z M343 75 C346 75 348 76 343 72 C343 74 343 75 343 75 L343 75 Z M343 75 L343 75 L343 75 L343 75 Z M261 300 C262 300 262 300 262 301 C264 300 263 300 260 300 L261 300 L261 300 Z M260 300 C259 300 258 300 257 300 C258 300 259 300 260 300 L260 300 Z M260 401 C267 401 269 401 262 398 C262 400 262 401 261 401 L260 401 L260 401 Z M261 401 C260 401 259 401 257 401 C258 401 259 401 260 401 L261 401 L261 401 Z M323 585 C323 585 323 586 323 588 C327 585 326 585 323 585 L323 585 Z M323 585 L323 585 C324 585 324 585 324 585 L323 585 L323 585 Z " />
<glyph glyph-name="Ygrave" unicode="&#x1ef2;" horiz-adv-x="419" d="M54 621 L54 621 L190 271 L190 39 L164 36 C156 35 157 38 157 16 C157 -2 156 0 164 0 L190 0 L218 0 L246 0 L272 0 C279 0 278 -2 279 16 C278 38 279 35 272 36 L246 39 L246 301 L246 301 L381 621 L381 621 L404 624 C412 625 411 623 411 643 C412 662 413 660 405 660 L397 660 L389 660 L380 660 L342 660 C335 660 335 662 335 644 C335 622 334 625 342 624 L364 621 L231 301 L230 301 L119 621 L137 624 C144 625 143 622 144 644 C144 662 145 660 137 660 L106 660 L72 660 L39 660 L34 660 C26 660 27 662 27 643 C27 623 26 625 34 624 L54 621 L54 621 Z M204 840 C184 871 167 895 164 895 C156 895 136 880 136 875 C136 870 154 847 179 820 L292 691 L297 695 L204 840 L204 840 Z " />
<glyph glyph-name="quoteleft" unicode="&#x2018;" horiz-adv-x="188" d="M96 574 C94 574 92 574 90 574 C85 579 82 582 82 583 C82 616 99 649 121 659 L118 667 C80 649 52 602 53 558 C53 557 56 553 61 547 C60 544 60 541 60 538 C60 517 76 502 96 502 C117 502 132 517 132 538 C132 558 117 574 96 574 L96 574 Z " />
<glyph glyph-name="quoteright" unicode="&#x2019;" horiz-adv-x="188" d="M96 593 C98 593 100 593 102 593 C107 587 110 583 110 582 C110 550 93 517 71 506 L75 499 C112 517 140 563 140 607 C140 608 137 612 132 618 C133 621 133 624 133 628 C133 648 118 664 97 664 C77 664 61 648 61 628 C61 607 77 592 97 592 L96 593 L96 593 Z " />
<glyph glyph-name="quotedblleft" unicode="&#x201c;" horiz-adv-x="294" d="M96 574 C94 574 92 574 90 574 C85 579 82 582 82 583 C82 616 99 649 121 659 L118 667 C80 649 52 602 53 558 C53 557 56 553 61 547 C60 544 60 541 60 538 C60 517 76 502 96 502 C117 502 132 517 132 538 C132 558 117 574 96 574 L96 574 Z M182 568 C172 562 166 551 166 538 C166 517 182 502 202 502 C219 502 233 512 238 527 C244 521 251 514 258 507 L286 534 C232 591 191 612 191 583 C191 616 208 649 230 659 L226 667 C189 649 161 602 161 558 C161 571 169 574 183 568 L182 568 L182 568 Z " />
<glyph glyph-name="quotedblright" unicode="&#x201d;" horiz-adv-x="294" d="M96 593 C98 593 100 593 102 593 C107 587 110 583 110 582 C110 550 93 517 71 506 L75 499 C112 517 140 563 140 607 C140 608 137 612 132 618 C132 619 132 620 132 621 C180 574 215 558 215 584 C215 552 198 519 176 508 L180 501 C217 519 245 565 245 609 C245 597 237 594 223 600 C233 606 239 617 239 630 C239 650 223 666 202 666 C186 666 172 655 167 640 C161 646 154 652 147 659 L129 642 C124 656 111 666 95 666 C75 666 59 650 59 630 C59 609 75 594 95 594 L96 593 L96 593 Z " />
<glyph glyph-name="ellipsis" unicode="&#x2026;" horiz-adv-x="450" d="M375 0 C396 0 411 16 411 36 C411 57 396 72 375 72 C354 72 339 57 339 36 C339 16 354 0 375 0 L375 0 Z M225 0 C246 0 261 16 261 36 C261 57 246 72 225 72 C204 72 189 57 189 36 C189 16 204 0 225 0 L225 0 Z M75 0 C96 0 111 16 111 36 C111 57 96 72 75 72 C54 72 39 57 39 36 C39 16 54 0 75 0 L75 0 Z " />
<glyph glyph-name="guilsinglleft" unicode="&#x2039;" horiz-adv-x="172" d="M65 251 L126 459 L121 464 L20 253 L20 248 L122 37 L127 42 L65 251 L65 251 Z " />
<glyph glyph-name="guilsinglright" unicode="&#x203a;" horiz-adv-x="172" d="M107 251 L46 459 L52 464 L152 253 L152 248 L50 37 L45 42 L107 251 L107 251 Z " />
<glyph glyph-name="Euro" unicode="&#x20ac;" horiz-adv-x="596" d="M45 272 L104 272 C124 110 222 -5 348 -5 C383 -5 465 27 538 69 L534 75 L534 75 L538 69 L538 125 C538 133 537 139 535 139 C534 139 529 133 521 125 C501 100 470 64 449 40 C406 21 368 9 348 9 C254 9 180 118 165 272 L381 272 L386 308 L162 308 C162 316 162 324 162 332 C162 340 162 348 162 356 L385 356 L390 391 L164 391 C180 541 254 649 348 649 C370 649 408 638 449 621 L449 621 C470 598 501 562 521 538 C529 530 534 524 535 524 C537 524 538 530 538 538 L538 594 L534 588 L534 588 L538 594 C470 633 388 663 348 663 C222 663 124 549 104 391 L55 391 L50 356 L101 356 C101 348 101 340 101 332 C101 324 101 316 101 308 L50 308 L45 272 L45 272 Z " />
<glyph glyph-name="F_sc" unicode="&#xa730;" horiz-adv-x="334" d="M228 240 C229 240 229 240 229 241 C230 240 229 240 227 240 L228 240 L228 240 Z M227 240 C226 240 225 240 224 240 C225 240 226 240 227 240 L227 240 Z M229 241 C230 242 230 246 230 255 L230 285 L230 291 L230 297 L230 323 C230 329 230 333 230 335 C225 333 216 329 201 323 L141 297 L118 297 L118 541 L252 541 L316 494 C324 489 329 486 332 484 C332 486 332 489 332 494 L332 547 L332 553 L326 553 L293 553 L119 553 L94 553 C79 554 57 554 42 553 C35 554 36 556 36 537 C36 516 35 519 42 518 L69 514 L69 39 L42 36 C35 35 36 38 36 16 C36 -2 35 0 42 0 L69 0 L94 0 L119 0 L155 0 C162 0 161 -2 161 16 C161 38 162 35 155 36 L119 39 L119 285 L142 285 L202 255 C221 246 229 242 231 241 L229 241 L229 241 Z M231 335 C231 339 230 338 226 339 C235 338 239 339 231 335 L231 335 Z M331 480 C331 480 331 481 331 483 C336 479 334 479 330 479 L331 480 L331 480 Z M330 479 L330 479 C331 479 331 479 331 479 L330 479 L330 479 Z " />
<glyph glyph-name="S_sc" unicode="&#xa731;" horiz-adv-x="359" d="M192 537 C213 511 244 473 265 448 C272 440 277 434 278 434 C280 434 281 440 281 448 L281 507 L277 500 L277 500 L281 507 C230 536 184 558 174 558 C104 558 52 492 52 404 C52 350 97 288 157 260 C226 226 279 166 279 120 C279 56 239 8 186 8 C174 8 154 13 131 22 C110 46 79 82 58 105 C51 113 45 119 45 119 C43 119 42 113 42 105 L42 46 L46 54 L46 54 L41 46 C92 17 153 -5 184 -5 C257 -5 313 58 313 140 C313 194 259 260 188 294 C130 322 85 378 85 424 C85 494 121 546 170 546 C172 546 179 543 190 537 L192 537 L192 537 Z " />
<glyph glyph-name="X_sc" unicode="&#xf078;" horiz-adv-x="463" d="M117 39 L117 39 L224 262 L347 39 L347 39 L334 36 C326 34 327 36 327 16 C327 -2 326 0 333 0 L369 0 L397 0 L426 0 C433 0 432 -3 432 18 C432 37 433 35 425 36 L405 39 L253 315 L369 514 L397 518 C404 519 403 516 404 536 C403 556 404 554 397 553 C394 554 389 554 387 553 C374 554 355 554 343 553 C335 554 336 556 336 537 C336 516 335 519 343 518 L359 514 L249 322 L143 514 L157 518 C164 519 163 516 163 537 C163 556 164 554 157 553 C139 554 112 554 93 553 C85 554 73 554 65 553 C58 554 58 556 58 535 C58 516 57 519 65 518 L86 514 L87 514 L222 269 L221 269 L109 39 L81 36 C74 35 75 37 75 17 C75 -2 74 0 81 0 L90 0 L95 0 L100 0 L139 0 C146 0 145 -2 145 16 C145 38 146 35 138 36 L117 39 L117 39 Z " />
</font>
</svg>
