<?xml version="1.0" encoding="UTF-8"?>
<svg xmlns="http://www.w3.org/2000/svg" xmlns:xlink="http://www.w3.org/1999/xlink" version="1.2" >
<font id="Earwyn Regular">
<font-face  font-family="Earwyn" units-per-em="1024" ascent="936" descent="-280" font-style="normal" font-weight="400" font-stretch="normal" cap-height="662" x-height="502" underline-position="-125" underline-thickness="50" />
<missing-glyph  horiz-adv-x="650" d="" />
<glyph glyph-name="NULL" d="" />
<glyph glyph-name="CR" unicode="&#xd;" horiz-adv-x="256" d="" />
<glyph glyph-name="space" unicode="&#x20;" horiz-adv-x="220" d="" />
<glyph glyph-name="exclam" unicode="&#x21;" horiz-adv-x="190" d="M100 -5 C123 -5 140 12 140 35 C140 58 123 75 100 75 C77 75 60 58 60 35 C60 12 77 -5 100 -5 L100 -5 Z M130 620 C132 646 117 665 96 665 C75 665 60 646 62 620 L96 150 L104 150 L130 620 L130 620 Z " />
<glyph glyph-name="quotedbl" unicode="&#x22;" horiz-adv-x="251" d="M141 660 L171 461 L181 461 L211 660 L141 660 L141 660 Z M40 660 L70 461 L80 461 L111 660 L40 660 L40 660 Z " />
<glyph glyph-name="numbersign" unicode="&#x23;" horiz-adv-x="383" d="M286 679 L258 481 L185 481 L213 679 L191 679 L163 481 L65 481 L59 439 L157 439 L126 221 L25 221 L19 179 L120 179 L94 0 L116 0 L142 179 L215 179 L189 0 L210 0 L236 179 L313 179 L319 221 L242 221 L273 439 L358 439 L364 481 L279 481 L307 679 L286 679 L286 679 Z M179 439 L252 439 L221 221 L148 221 L179 439 L179 439 Z " />
<glyph glyph-name="dollar" unicode="&#x24;" horiz-adv-x="385" d="M216 735 L216 658 C204 663 194 666 188 666 C176 666 165 664 154 661 L154 736 L136 736 L136 654 C84 628 50 563 50 483 C50 430 86 369 136 330 L136 27 C134 28 132 29 130 30 L130 31 C110 54 78 88 58 112 C50 120 45 126 44 126 C42 126 41 120 41 112 L41 49 C70 33 104 19 135 10 L135 -71 L153 -71 L153 5 C169 1 183 -1 195 -1 C202 -1 209 0 216 1 L216 -71 L234 -71 L234 5 C296 24 340 90 340 173 C340 229 296 296 234 339 L234 621 C252 599 273 574 289 555 C296 547 301 541 302 541 C304 541 305 547 305 555 L305 618 L300 608 L300 608 L306 618 C281 632 256 645 235 654 L235 738 L216 735 L216 735 Z M217 641 L217 350 C214 352 211 353 208 354 C188 365 170 378 154 393 L154 645 C164 650 174 653 185 653 C189 653 200 649 216 641 L217 641 L217 641 Z M136 412 C109 443 93 478 93 508 C93 562 110 607 136 632 L136 412 L136 412 Z M154 318 C158 316 162 314 166 312 C184 302 201 290 217 277 L217 15 C211 13 204 12 197 12 C187 12 172 15 155 20 L154 318 L154 318 Z M235 260 C273 223 297 180 297 145 C297 86 272 39 235 20 L235 260 L235 260 Z " />
<glyph glyph-name="ampersand" unicode="&#x26;" horiz-adv-x="646" d="M266 378 C340 402 393 471 393 548 C393 615 344 665 279 665 C214 665 165 596 165 504 C165 486 183 431 213 367 C117 328 48 242 48 159 C48 65 127 -6 231 -6 C312 -6 383 26 430 78 C522 -3 585 -11 645 -1 L645 8 C606 2 557 17 458 117 C479 152 491 193 491 238 L491 268 C491 319 501 335 515 339 L526 342 C531 344 530 342 531 360 C531 381 532 378 526 378 L487 378 L447 378 C442 378 443 381 443 360 C443 342 442 344 447 342 L457 339 C470 336 479 320 479 268 L479 238 C479 196 469 157 450 124 C424 151 395 183 362 222 C324 267 290 323 264 375 L266 378 L266 378 Z M260 384 C227 450 207 508 207 526 C207 597 236 651 274 651 C317 651 349 605 349 543 C349 471 312 407 260 384 L260 384 Z M421 85 C382 43 326 18 262 18 C169 18 100 87 100 179 C100 253 149 325 218 356 C245 300 281 239 322 191 C358 148 391 114 421 87 L421 85 L421 85 Z " />
<glyph glyph-name="quotesingle" unicode="&#x27;" horiz-adv-x="150" d="M40 660 L70 461 L80 461 L111 660 L40 660 L40 660 Z " />
<glyph glyph-name="parenleft" unicode="&#x28;" horiz-adv-x="166" d="M149 690 C98 629 60 502 60 270 C60 38 98 -89 149 -150 L156 -144 C126 -108 103 11 103 270 C103 529 126 648 156 684 L149 690 L149 690 Z " />
<glyph glyph-name="parenright" unicode="&#x29;" horiz-adv-x="166" d="M10 -150 C61 -89 99 38 100 270 C99 502 61 629 10 690 L3 684 C33 648 56 529 56 270 C56 11 33 -108 3 -144 L10 -150 L10 -150 Z " />
<glyph glyph-name="asterisk" unicode="&#x2a;" horiz-adv-x="273" d="M147 540 L38 495 C26 490 21 479 27 469 C33 459 45 458 55 465 L148 536 L133 420 C131 407 139 398 150 398 C161 398 169 407 167 420 L152 536 L245 465 C255 458 267 459 273 469 C279 479 274 490 262 495 L153 540 L262 585 C274 590 279 601 273 611 C267 621 255 622 245 615 L152 544 L167 660 C169 673 161 682 150 682 C139 682 131 673 133 660 L148 544 L55 615 C45 622 33 621 27 611 C21 601 26 590 38 585 L147 540 L147 540 Z " />
<glyph glyph-name="plus" unicode="&#x2b;" horiz-adv-x="435" d="M201 390 L201 262 L75 262 L75 238 L201 238 L201 110 L229 110 L229 238 L355 238 L355 262 L229 262 L229 390 L201 390 L201 390 Z " />
<glyph glyph-name="comma" unicode="&#x2c;" horiz-adv-x="197" d="M100 -5 C105 -5 109 -4 113 -3 C114 -8 114 -13 114 -18 C114 -52 96 -86 71 -98 L75 -106 C116 -86 147 -36 147 10 C147 24 143 39 137 51 C131 65 117 74 100 74 C77 74 60 57 60 34 C60 11 77 -6 100 -6 L100 -5 L100 -5 Z " />
<glyph glyph-name="hyphen" unicode="&#x2d;" horiz-adv-x="124" d="M20 213 L104 213 L104 257 L20 257 L20 213 L20 213 Z " />
<glyph glyph-name="period" unicode="&#x2e;" horiz-adv-x="225" d="M125 -5 C148 -5 165 12 165 35 C165 58 148 75 125 75 C102 75 85 58 85 35 C85 12 102 -5 125 -5 L125 -5 Z " />
<glyph glyph-name="slash" unicode="&#x2f;" horiz-adv-x="334" d="M0 -145 L25 -145 L335 710 L310 710 L0 -145 L0 -145 Z " />
<glyph glyph-name="zero" unicode="0" horiz-adv-x="480" d="M240 7 C167 7 112 111 112 250 C112 389 167 493 240 493 C314 493 369 389 369 250 C369 111 314 7 240 7 L240 7 Z M50 250 C50 105 132 -5 240 -5 C348 -5 430 105 430 250 C430 395 348 505 240 505 C132 505 50 395 50 250 L50 250 Z " />
<glyph glyph-name="one" unicode="1" horiz-adv-x="217" d="M109 0 L137 0 L163 0 C170 0 169 -2 170 16 C169 38 170 35 163 36 L137 39 L137 461 L163 464 C170 465 169 462 170 484 C169 502 170 500 163 500 L137 500 L109 500 L81 500 L55 500 C47 500 48 502 48 484 C48 462 47 465 55 464 L81 461 L81 39 L55 36 C47 35 48 38 48 16 C48 -2 47 0 55 0 L81 0 L109 0 L109 0 Z " />
<glyph glyph-name="two" unicode="2" horiz-adv-x="361" d="M330 55 C331 65 332 75 332 83 C333 91 335 90 316 89 C295 89 298 90 296 83 L291 56 L95 56 C219 152 305 220 305 351 C305 439 260 506 200 506 C161 506 105 443 71 359 L78 355 C104 418 144 465 173 465 C213 465 244 408 244 332 C244 154 150 114 25 13 L25 1 L325 1 L330 56 L330 55 L330 55 Z " />
<glyph glyph-name="three" unicode="3" horiz-adv-x="337" d="M25 -215 C174 -202 287 -93 287 41 C287 133 203 204 89 209 C182 256 244 319 244 374 C244 448 206 504 155 504 C99 504 37 448 11 375 L19 372 C37 423 83 462 126 462 C161 462 188 416 188 356 C188 297 121 231 27 192 C15 188 1 183 -14 178 L-14 168 C-11 169 -8 170 -5 171 C14 176 40 179 61 179 C156 179 228 118 228 37 C228 -94 140 -200 24 -210 L25 -215 L25 -215 Z " />
<glyph glyph-name="four" unicode="4" horiz-adv-x="309" d="M43 25 L200 369 L199 367 L199 25 L43 25 L43 25 Z M199 0 L199 -150 L254 -150 L254 0 L298 0 L298 25 L254 25 L254 367 L254 488 L254 505 L245 505 L22 6 L22 0 L31 0 L199 0 L199 0 Z " />
<glyph glyph-name="five" unicode="5" horiz-adv-x="321" d="M266 500 L266 500 C269 509 272 518 274 525 C277 533 279 532 260 532 C239 532 242 533 239 525 L227 499 L92 499 L75 499 L67 216 L82 216 C158 216 216 146 216 53 C216 -71 136 -169 31 -176 L31 -183 C168 -174 272 -65 272 71 C272 185 202 271 110 271 L84 271 L82 216 L92 499 L90 440 L247 440 L266 500 L266 500 Z " />
<glyph glyph-name="six" unicode="6" horiz-adv-x="450" d="M386 715 C206 709 70 530 70 298 C70 125 141 -5 235 -5 C336 -5 407 90 400 216 C400 337 340 428 261 428 C221 428 173 383 134 313 C134 314 134 315 134 316 C134 533 242 700 386 705 L386 715 L386 715 Z M133 288 C170 362 216 411 252 411 C303 411 342 325 342 211 C348 95 305 8 241 8 C179 8 132 110 132 244 C132 257 133 273 134 288 L133 288 L133 288 Z " />
<glyph glyph-name="seven" unicode="7" horiz-adv-x="319" d="M25 443 C24 434 23 425 23 418 C22 410 20 411 39 411 C60 411 57 410 58 418 L64 444 L286 444 L76 -139 L137 -139 L295 444 L309 496 L305 501 L30 501 L25 444 L25 443 L25 443 Z " />
<glyph glyph-name="eight" unicode="8" horiz-adv-x="419" d="M248 355 C239 358 230 361 221 363 C172 373 135 439 135 516 C135 594 167 653 210 653 C256 653 291 591 291 508 C291 430 272 367 247 355 L248 355 L248 355 Z M253 353 C302 367 337 435 337 517 C337 601 284 665 213 665 C142 665 88 592 88 495 C88 419 122 352 172 322 C109 318 62 251 62 163 C62 67 128 -5 215 -5 C303 -5 369 72 369 175 C369 251 321 322 253 352 L253 353 L253 353 Z M176 319 C186 313 197 309 209 306 C270 292 317 227 317 155 C317 70 275 6 218 6 C159 6 114 77 114 171 C114 252 140 314 176 318 L176 319 L176 319 Z " />
<glyph glyph-name="nine" unicode="9" horiz-adv-x="450" d="M65 -215 C245 -209 381 -30 381 202 C381 375 310 505 216 505 C115 505 43 410 50 284 C50 163 110 72 189 72 C229 72 276 117 315 186 C315 185 315 184 315 183 C315 -34 207 -201 63 -206 L65 -215 L65 -215 Z M316 211 C279 137 234 87 197 87 C146 87 107 173 107 287 C101 403 145 490 208 490 C271 490 318 388 318 254 C318 242 317 226 316 211 L316 211 Z " />
<glyph glyph-name="colon" unicode="&#x3a;" horiz-adv-x="225" d="M125 368 C148 368 165 385 165 408 C165 431 148 448 125 448 C102 448 85 431 85 408 C85 385 102 368 125 368 L125 368 Z M125 -5 C148 -5 165 12 165 35 C165 58 148 75 125 75 C102 75 85 58 85 35 C85 12 102 -5 125 -5 L125 -5 Z " />
<glyph glyph-name="semicolon" unicode="&#x3b;" horiz-adv-x="197" d="M100 368 C123 368 140 385 140 408 C140 431 123 448 100 448 C77 448 60 431 60 408 C60 385 77 368 100 368 L100 368 Z M100 -5 C105 -5 109 -4 113 -3 C114 -8 114 -13 114 -18 C114 -52 96 -86 71 -98 L75 -106 C116 -86 147 -36 147 10 C147 24 143 39 137 51 C131 65 117 74 100 74 C77 74 60 57 60 34 C60 11 77 -6 100 -6 L100 -5 L100 -5 Z " />
<glyph glyph-name="less" unicode="&#x3c;" horiz-adv-x="416" d="M341 500 L46 291 L40 287 L40 263 L46 259 L341 50 L341 78 L58 275 L341 472 L341 500 L341 500 Z " />
<glyph glyph-name="equal" unicode="&#x3d;" horiz-adv-x="408" d="M79 212 L79 188 L339 188 L339 212 L79 212 L79 212 Z M79 312 L79 288 L339 288 L339 312 L79 312 L79 312 Z " />
<glyph glyph-name="greater" unicode="&#x3e;" horiz-adv-x="410" d="M349 275 L75 78 L75 50 L360 259 L370 266 L370 284 L360 291 L75 500 L75 472 L349 275 L349 275 Z " />
<glyph glyph-name="question" unicode="&#x3f;" horiz-adv-x="247" d="M104 -5 C127 -5 144 12 144 35 C144 58 127 75 104 75 C81 75 64 58 64 35 C64 12 81 -5 104 -5 L104 -5 Z M99 368 C92 368 87 365 88 360 L100 155 L107 155 L120 360 L118 326 L153 326 C200 326 212 402 212 442 C212 569 159 665 88 665 C61 665 41 637 41 599 C41 590 54 583 70 583 C86 583 86 605 94 616 C99 620 103 622 106 622 C159 622 199 547 199 448 C199 421 186 368 134 368 L99 368 L99 368 Z " />
<glyph glyph-name="at" unicode="&#x40;" horiz-adv-x="962" d="M864 0 C801 -136 640 -238 490 -238 C267 -238 98 -24 98 259 C98 542 263 756 481 756 C700 756 865 578 865 343 C865 150 791 5 692 5 C594 5 540 89 568 200 L638 480 L585 480 L563 393 C554 450 523 490 483 490 C351 490 251 364 251 196 C251 91 305 12 376 12 C426 12 478 61 509 132 C516 46 582 -13 682 -13 C811 -13 908 141 908 344 C908 589 725 773 481 773 C238 773 55 552 55 260 C55 -32 242 -253 490 -253 C646 -253 815 -144 882 1 L864 0 L864 0 Z M554 357 L515 201 C493 112 445 44 405 44 C352 44 312 114 312 208 C312 361 385 476 482 476 C523 476 554 425 554 357 L554 357 Z " />
<glyph glyph-name="A" unicode="A" horiz-adv-x="443" d="M400 39 L400 39 L217 675 L201 675 L40 39 L13 36 C5 35 6 38 6 17 C6 -2 5 0 13 0 L30 0 L40 0 L51 0 L89 0 C97 0 96 -2 96 16 C96 38 97 35 89 36 L61 39 L88 148 L306 148 L335 39 L316 36 C308 35 309 38 309 17 C309 -2 308 0 316 0 L345 0 L378 0 L412 0 L433 0 C441 0 440 -2 440 16 C440 38 441 35 433 36 L400 39 L400 39 Z M302 164 L93 164 L194 575 L302 164 L302 164 Z " />
<glyph glyph-name="B" unicode="B" horiz-adv-x="430" d="M188 358 L176 357 L137 357 L137 645 L187 645 C249 645 296 587 296 510 C296 428 250 365 188 358 L188 358 Z M233 356 C306 376 356 436 356 510 C356 596 283 660 186 660 L136 660 L106 660 L75 660 L48 660 C41 660 42 662 42 644 C42 622 41 625 49 624 L75 621 L75 39 L49 36 C41 35 42 38 42 16 C42 -2 41 0 48 0 L75 0 L106 0 L136 0 L202 0 C321 0 410 78 410 181 C410 271 336 341 233 355 L233 356 L233 356 Z M136 345 L176 345 C272 345 345 274 345 180 C345 85 281 14 196 14 L136 14 L136 345 L136 345 Z " />
<glyph glyph-name="C" unicode="C" horiz-adv-x="597" d="M537 56 L533 64 L533 64 L537 56 L537 56 Z M537 56 L537 114 C537 123 536 129 534 129 C534 129 528 123 521 114 C500 91 469 57 448 34 C405 19 361 10 328 10 C214 10 127 148 127 330 C127 512 214 650 328 650 C361 650 405 641 448 626 C469 603 500 569 521 546 C528 537 534 531 534 531 C536 531 537 537 537 546 L537 604 L533 596 L533 596 L537 604 C477 639 387 665 329 665 C176 665 60 521 60 330 C60 139 176 -5 329 -5 C387 -5 477 21 537 56 L537 56 Z " />
<glyph glyph-name="D" unicode="D" horiz-adv-x="527" d="M107 0 L137 0 L208 0 C361 0 477 142 477 330 C477 518 354 660 190 660 L137 660 L107 660 L76 660 L49 660 C42 660 43 662 43 644 C43 622 42 625 50 624 L76 621 L76 39 L50 36 C42 35 43 38 43 16 C43 -2 42 0 49 0 L76 0 L107 0 L107 0 Z M137 15 L137 645 L190 645 C319 645 416 510 416 330 C416 150 326 15 208 15 L137 15 L137 15 Z " />
<glyph glyph-name="E" unicode="E" horiz-adv-x="398" d="M336 8 C339 23 343 47 346 63 C347 68 348 71 348 73 C345 71 340 67 331 61 L259 14 L128 14 L128 343 L179 343 L239 314 C257 305 265 301 268 299 C268 301 268 305 268 314 L268 343 L268 351 L268 359 L268 385 C268 392 268 396 268 398 C263 396 254 392 239 385 L179 359 L128 359 L128 644 L251 644 L316 597 C323 592 327 589 330 587 C330 589 330 592 330 597 L330 652 L330 660 L323 660 L291 660 L128 660 L97 660 L66 660 L40 660 C32 660 33 662 33 644 C33 622 32 625 40 624 L66 621 L66 39 L40 36 C32 35 33 38 33 16 C33 -2 32 0 40 0 L66 0 L97 0 L128 0 L296 0 L333 0 L335 0 L336 8 L336 8 Z M348 76 C352 77 353 77 348 73 C348 74 348 75 348 75 L348 76 L348 76 Z M348 75 C348 76 348 75 347 75 L347 75 L348 75 L348 75 Z M265 298 C266 298 267 298 267 299 C269 298 268 298 265 298 L265 298 Z M265 298 C264 298 263 298 262 298 C263 298 264 298 265 298 L265 298 Z M266 400 C272 400 274 400 267 397 C267 399 267 400 266 400 L266 400 Z M266 400 C265 400 264 400 262 400 C263 400 264 400 265 400 L266 400 L266 400 Z M328 583 C328 583 328 584 328 586 C333 582 332 582 329 582 L328 583 L328 583 Z M329 582 L329 582 C330 582 330 582 330 582 L329 582 L329 582 Z " />
<glyph glyph-name="F" unicode="F" horiz-adv-x="362" d="M256 294 C257 294 258 294 258 295 C260 294 259 294 256 294 L256 294 Z M256 294 C255 294 254 294 253 294 C254 294 255 294 256 294 L256 294 Z M258 295 C258 297 258 301 258 310 L258 339 L258 347 L258 355 L258 381 C258 388 258 392 258 394 C253 392 244 388 229 381 L169 355 L128 355 L128 645 L281 645 L346 598 C353 593 357 590 360 588 C360 590 360 593 360 598 L360 653 L360 661 L353 661 L321 661 L128 661 L97 661 L66 661 L40 661 C32 661 33 663 33 645 C33 623 32 626 40 625 L66 622 L66 40 L40 37 C32 36 33 39 33 17 C33 -1 32 1 40 1 L66 1 L97 1 L128 1 L164 1 C171 1 170 -1 171 17 C170 39 171 36 164 37 L128 40 L128 340 L169 340 L229 311 C247 302 255 298 258 296 L258 295 L258 295 Z M257 397 C263 397 265 397 258 394 C258 396 258 397 257 397 L257 397 Z M257 397 C256 397 255 397 253 397 C254 397 255 397 256 397 L257 397 L257 397 Z M359 585 C359 585 359 586 359 588 C364 584 363 584 360 584 L359 585 L359 585 Z M360 584 L360 584 C361 584 361 584 361 584 L360 584 L360 584 Z " />
<glyph glyph-name="G" unicode="G" horiz-adv-x="640" d="M467 271 L467 47 C416 25 358 10 318 10 C210 10 128 148 128 330 C128 512 210 650 318 650 C347 650 387 641 427 626 L427 626 C448 603 479 569 500 546 C507 537 513 531 513 531 C515 531 516 537 516 546 L516 604 L512 596 L512 596 L516 604 C456 639 370 665 317 665 C170 665 59 521 59 330 C59 139 170 -5 317 -5 C373 -5 461 22 521 57 L521 271 L548 274 C555 275 554 272 554 294 C555 312 556 310 548 310 L521 310 L494 310 L466 310 L440 310 C432 310 433 312 433 294 C433 272 432 275 440 274 L467 271 L467 271 Z " />
<glyph glyph-name="H" unicode="H" horiz-adv-x="552" d="M456 0 L487 0 L513 0 C520 0 519 -2 519 16 C519 38 520 35 513 36 L487 39 L487 621 L513 624 C520 625 519 622 519 644 C519 662 520 660 513 660 L487 660 L456 660 L425 660 L399 660 C391 660 392 662 392 644 C392 622 391 625 399 624 L425 621 L425 247 L128 247 L128 621 L154 624 C161 625 160 622 161 644 C160 662 161 660 154 660 L128 660 L97 660 L66 660 L40 660 C32 660 33 662 33 644 C33 622 32 625 40 624 L66 621 L66 39 L40 36 C32 35 33 38 33 16 C33 -2 32 0 40 0 L66 0 L97 0 L128 0 L154 0 C161 0 160 -2 161 16 C160 38 161 35 154 36 L128 39 L128 231 L425 231 L425 39 L399 36 C391 35 392 38 392 16 C392 -2 391 0 399 0 L425 0 L456 0 L456 0 Z " />
<glyph glyph-name="I" unicode="I" horiz-adv-x="193" d="M97 0 L128 0 L154 0 C161 0 160 -2 161 16 C160 38 161 35 154 36 L128 39 L128 621 L154 624 C161 625 160 622 161 644 C160 662 161 660 154 660 L128 660 L97 660 L66 660 L40 660 C32 660 33 662 33 644 C33 622 32 625 40 624 L66 621 L66 39 L40 36 C32 35 33 38 33 16 C33 -2 32 0 40 0 L66 0 L97 0 L97 0 Z " />
<glyph glyph-name="J" unicode="J" horiz-adv-x="229" d="M102 621 L102 200 C102 65 94 2 77 2 C67 2 56 23 52 50 C50 64 38 75 24 75 C8 75 -2 64 0 50 C5 16 32 -10 61 -10 C132 -10 164 73 164 252 L163 621 L190 624 C197 625 196 622 196 644 C197 662 198 660 190 660 L163 660 L133 660 L102 660 L76 660 C68 660 69 662 69 644 C69 622 68 625 76 624 L102 621 L102 621 Z " />
<glyph glyph-name="K" unicode="K" horiz-adv-x="473" d="M463 -5 L463 7 L458 7 C432 7 380 71 294 210 L181 392 L313 590 C313 574 314 576 316 594 L334 621 L334 621 L362 624 C369 625 368 623 369 642 C368 662 369 660 362 660 L360 660 L353 660 L346 660 L319 660 C311 660 312 662 313 644 C313 631 313 620 313 611 L137 354 L137 620 L164 623 C172 624 171 621 170 643 C171 661 172 659 164 659 L137 659 L107 659 L76 659 L49 659 C42 659 43 661 43 643 C43 621 42 624 50 623 L76 620 L76 38 L50 35 C42 34 43 37 43 15 C43 -3 42 -1 49 -1 L76 -1 L107 -1 L137 -1 L164 -1 C172 -1 171 -3 170 15 C171 37 172 34 164 35 L137 38 L137 354 L259 158 C329 46 386 -6 440 -6 L463 -5 L463 -5 Z M319 620 L319 620 L319 620 L319 619 C319 620 319 621 319 622 L319 620 L319 620 Z " />
<glyph glyph-name="L" unicode="L" horiz-adv-x="398" d="M336 8 C339 24 344 49 346 65 C349 81 350 79 345 79 C335 80 338 81 321 68 L259 15 L128 15 L128 621 L154 624 C161 625 160 622 161 644 C160 662 161 660 154 660 L128 660 L97 660 L66 660 L40 660 C32 660 33 662 33 644 C33 622 32 625 40 624 L66 621 L66 39 L40 36 C32 35 33 38 33 16 C33 -2 32 0 40 0 L66 0 L97 0 L128 0 L296 0 L333 0 L335 0 L336 8 L336 8 Z " />
<glyph glyph-name="M" unicode="M" horiz-adv-x="604" d="M314 85 L133 660 L104 660 L95 660 L85 660 L59 660 C52 660 53 662 52 644 C53 622 52 625 59 624 L84 621 L62 39 L36 36 C29 35 30 38 30 17 C30 -2 29 0 36 0 L61 0 L71 0 L80 0 L118 0 C126 0 125 -2 125 16 C125 38 126 35 118 36 L81 39 L101 574 L277 25 L287 -5 L305 55 L314 85 L314 84 L305 55 L287 -6 L302 -6 L492 599 L512 38 L487 35 C479 34 480 37 480 15 C480 -3 479 -1 487 -1 L513 -1 L544 -1 L575 -1 L600 -1 C607 -1 606 -3 606 16 C606 37 607 34 599 35 L573 38 L547 620 L547 620 L569 623 C577 624 576 621 576 642 C576 661 577 659 570 659 L545 659 L517 659 L511 659 L490 659 L314 85 L314 85 Z " />
<glyph glyph-name="N" unicode="N" horiz-adv-x="479" d="M401 621 L401 98 L124 660 L87 635 L87 635 L124 660 L87 660 L78 660 L69 660 L42 660 C35 660 36 662 36 644 C36 622 35 625 42 624 L69 621 L69 39 L42 36 C35 35 36 38 36 16 C36 -2 35 0 42 0 L69 0 L78 0 L87 0 L113 0 C121 0 120 -2 120 16 C120 38 121 35 113 36 L87 39 L87 597 L373 25 L391 -12 L420 -12 L420 47 L420 621 L446 624 C453 625 452 622 453 644 C452 662 453 660 446 660 L420 660 L410 660 L401 660 L375 660 C367 660 368 662 368 644 C368 622 367 625 375 624 L401 621 L401 621 Z " />
<glyph glyph-name="O" unicode="O" horiz-adv-x="639" d="M325 10 C201 10 128 166 128 330 C128 494 201 650 325 650 C448 650 521 494 521 330 C521 166 448 10 325 10 L325 10 Z M60 330 C60 158 159 -5 325 -5 C490 -5 589 158 589 330 C589 502 490 665 325 665 C159 665 60 502 60 330 L60 330 Z " />
<glyph glyph-name="P" unicode="P" horiz-adv-x="404" d="M107 0 L137 0 L164 0 C172 0 171 -2 170 16 C171 38 172 35 164 36 L137 39 L137 297 L183 297 C298 297 384 375 384 478 C384 582 303 660 195 660 L137 660 L107 660 L76 660 L49 660 C42 660 43 662 43 644 C43 622 42 625 50 624 L76 621 L76 39 L50 36 C42 35 43 38 43 16 C43 -2 42 0 49 0 L76 0 L107 0 L107 0 Z M137 313 L137 645 L195 645 C266 645 320 573 320 478 C320 384 261 313 183 313 L137 313 L137 313 Z " />
<glyph glyph-name="Q" unicode="Q" horiz-adv-x="639" d="M626 -51 L621 -46 C600 -71 552 -89 508 -89 C447 -89 382 -54 331 -5 C492 -1 589 160 589 330 C589 502 490 665 325 665 C159 665 60 502 60 330 C60 164 152 6 308 -4 C381 -75 456 -128 500 -128 C534 -128 588 -95 625 -50 L626 -51 L626 -51 Z M324 11 C200 11 127 167 127 331 C127 495 200 651 324 651 C447 651 520 495 520 331 C520 167 447 11 324 11 L324 11 Z " />
<glyph glyph-name="R" unicode="R" horiz-adv-x="447" d="M447 0 L447 12 L442 12 C424 12 418 19 371 94 L229 322 C307 342 361 407 361 489 C361 586 286 659 188 659 L137 659 L107 659 L76 659 L49 659 C42 659 43 661 43 643 C43 621 42 624 50 623 L76 620 L76 38 L50 35 C42 34 43 37 43 15 C43 -3 42 -1 49 -1 L76 -1 L107 -1 L137 -1 L164 -1 C172 -1 171 -3 170 15 C171 37 172 34 164 35 L137 38 L137 315 L159 315 L287 105 C345 8 357 -1 423 -1 L447 0 L447 0 Z M177 331 L149 331 L137 331 L137 644 L188 644 C249 644 296 577 296 489 C296 399 245 331 177 331 L177 331 Z " />
<glyph glyph-name="S" unicode="S" horiz-adv-x="385" d="M216 638 L216 638 C237 613 268 577 289 552 C296 544 301 538 302 538 C304 538 305 544 305 552 L305 615 L300 605 L300 605 L306 615 C256 643 206 665 189 665 C110 665 51 586 51 481 C51 418 101 344 166 309 C241 268 297 197 297 144 C297 67 254 10 197 10 C182 10 158 16 131 26 L131 27 C111 50 79 84 59 108 C51 116 46 122 45 122 C43 122 42 116 42 108 L42 45 C92 17 158 -5 196 -5 C278 -5 340 70 340 169 C340 233 283 311 208 351 C142 386 93 453 93 505 C93 588 133 650 185 650 C189 650 200 646 216 638 L216 638 Z " />
<glyph glyph-name="T" unicode="T" horiz-adv-x="500" d="M482 578 C482 578 482 579 482 581 C487 577 485 578 482 578 L482 578 Z M482 578 L482 578 L482 578 L482 578 Z M482 581 C482 583 482 586 482 592 C480 609 478 635 477 652 L476 660 L461 660 L437 660 L65 660 L41 660 L26 660 L25 652 C24 635 22 609 20 592 C20 586 20 583 20 581 C23 583 28 586 36 592 L109 645 L220 645 L220 39 L194 36 C186 35 187 38 187 16 C187 -2 186 0 194 0 L220 0 L251 0 L282 0 L308 0 C316 0 315 -2 315 16 C315 38 316 35 308 36 L282 39 L282 645 L393 645 L466 592 C474 586 479 583 482 581 L482 581 Z M19 578 C16 578 14 577 19 581 C19 579 19 578 19 578 L19 578 Z M19 578 L19 578 L19 578 L19 578 Z " />
<glyph glyph-name="U" unicode="U" horiz-adv-x="462" d="M66 621 L66 204 C66 85 122 -5 243 -5 C358 -5 412 72 412 174 L412 621 L442 624 C450 625 449 622 449 644 C449 662 450 660 442 660 L412 660 L403 660 L394 660 L362 660 C355 660 356 662 356 644 C356 622 355 625 363 624 L394 621 L394 180 C394 87 349 17 252 17 C166 17 127 92 127 192 L127 621 L154 624 C162 625 161 622 160 644 C161 662 162 660 154 660 L127 660 L97 660 L66 660 L39 660 C32 660 33 662 33 644 C33 622 32 625 40 624 L66 621 L66 621 Z " />
<glyph glyph-name="V" unicode="V" horiz-adv-x="441" d="M386 621 L386 621 L261 75 L111 621 L111 621 L135 624 C142 625 141 622 142 644 C141 662 142 660 135 660 L100 660 L66 660 L32 660 L22 660 C15 660 16 662 16 643 C16 623 15 625 23 624 L44 621 L44 621 L240 -15 L256 -15 L405 621 L405 621 L432 624 C440 625 439 622 438 643 C439 662 440 660 432 660 L414 660 L405 660 L395 660 L353 660 C346 660 347 662 347 644 C347 622 346 625 354 624 L386 621 L386 621 Z " />
<glyph glyph-name="W" unicode="W" horiz-adv-x="613" d="M558 621 L558 621 L453 86 L332 670 L316 670 L184 -15 L199 -15 L311 562 L433 -15 L449 -15 L576 621 L577 621 L603 624 C611 625 610 622 610 643 C610 662 611 660 603 660 L584 660 L575 660 L566 660 L529 660 C522 660 523 662 522 644 C523 622 522 625 529 624 L558 621 L558 621 Z M31 621 L31 621 L184 -15 L202 80 L98 621 L121 624 C129 625 128 622 128 644 C128 662 129 660 121 660 L90 660 L56 660 L22 660 L10 660 C2 660 3 662 3 643 C3 622 2 625 10 624 L31 621 L31 621 Z " />
<glyph glyph-name="X" unicode="X" horiz-adv-x="494" d="M436 39 L436 39 L271 375 L395 621 L396 621 L423 624 C431 625 430 623 430 643 C430 662 431 660 423 660 L415 660 L408 660 L400 660 L361 660 C354 660 355 662 355 644 C355 622 354 625 362 624 L381 621 L266 386 L150 621 L165 624 C173 626 172 624 172 644 C172 662 173 660 166 660 L131 660 L96 660 L60 660 L59 660 C51 660 52 662 52 642 C52 623 51 625 59 624 L79 621 L228 320 L103 39 L103 39 L76 36 C68 35 69 37 69 17 C69 -2 68 0 75 0 L86 0 L93 0 L100 0 L139 0 C146 0 145 -2 145 16 C145 38 146 35 139 36 L117 39 L235 309 L368 39 L352 36 C344 34 345 36 345 16 C345 -2 344 0 352 0 L387 0 L422 0 L457 0 L459 0 C466 0 465 -2 465 18 C465 37 466 35 459 36 L436 39 L436 39 Z " />
<glyph glyph-name="Y" unicode="Y" horiz-adv-x="425" d="M368 621 L236 307 L234 307 L126 621 L127 621 L145 624 C152 625 151 622 151 644 C151 662 152 660 145 660 L113 660 L76 660 L39 660 L34 660 C26 660 27 662 27 643 C27 623 26 625 34 624 L54 621 L191 275 L191 39 L165 36 C157 35 158 38 158 16 C158 -2 157 0 165 0 L191 0 L222 0 L253 0 L279 0 C286 0 286 -2 286 16 C286 38 287 35 279 36 L253 39 L253 307 L388 621 L412 624 C419 625 418 623 419 643 C418 662 419 660 412 660 L405 660 L396 660 L386 660 L348 660 C340 660 340 662 341 644 C342 622 341 625 348 624 L368 621 L368 621 Z " />
<glyph glyph-name="Z" unicode="Z" horiz-adv-x="457" d="M395 8 C398 25 403 49 405 66 C409 82 409 80 404 80 C394 81 397 83 380 68 L318 16 L127 16 L409 660 L374 660 L339 660 L155 660 L131 660 L116 660 L114 652 C110 638 104 617 101 603 C100 599 99 596 98 594 C102 596 108 599 116 603 L196 645 L332 645 L51 0 L85 0 L120 0 L355 0 L392 0 L394 0 L395 8 L395 8 Z M97 588 C90 588 87 587 99 593 C98 589 98 588 98 588 L97 588 L97 588 Z M98 588 C98 588 98 588 99 588 L99 588 L98 588 L98 588 Z " />
<glyph glyph-name="bracketleft" unicode="&#x5b;" horiz-adv-x="234" d="M119 648 L224 648 L224 660 L119 660 L76 660 L76 -120 L119 -120 L224 -120 L224 -108 L119 -108 L119 648 L119 648 Z " />
<glyph glyph-name="backslash" unicode="&#x5c;" horiz-adv-x="228" d="M209 -145 L229 -145 L-41 710 L-60 710 L209 -145 L209 -145 Z " />
<glyph glyph-name="bracketright" unicode="&#x5d;" horiz-adv-x="222" d="M110 648 L110 -108 L5 -108 L5 -120 L110 -120 L153 -120 L153 660 L110 660 L5 660 L5 648 L110 648 L110 648 Z " />
<glyph glyph-name="underscore" unicode="&#x5f;" horiz-adv-x="185" d="M5 -50 L5 -81 L180 -81 L180 -50 L5 -50 L5 -50 Z " />
<glyph glyph-name="a" unicode="a" horiz-adv-x="365" d="M343 38 C331 26 314 17 292 17 C263 17 253 42 253 76 L253 359 C253 442 220 505 177 505 C123 505 75 462 64 405 L119 405 C129 453 149 489 166 489 C182 489 194 438 194 371 L194 248 L142 235 C82 220 36 163 36 102 C36 41 64 -5 101 -5 C121 -5 157 21 193 60 C195 19 211 -10 253 -10 C294 -10 325 7 348 30 L343 38 L343 38 Z M193 233 L193 71 C168 48 142 33 125 33 C105 33 90 69 90 117 C90 165 113 208 143 217 L193 233 L193 233 Z " />
<glyph glyph-name="b" unicode="b" horiz-adv-x="430" d="M54 0 L60 0 L60 0 C65 14 77 25 87 25 C122 25 155 -5 203 -5 C302 -5 376 104 376 248 C376 395 313 505 230 505 C208 505 156 485 110 459 L110 651 L110 706 L110 720 L99 720 L28 698 C26 697 24 696 22 696 C24 693 26 689 28 684 L54 635 L54 136 L54 0 L54 0 Z M16 694 C16 708 15 711 22 696 C17 695 16 695 16 695 L16 694 L16 694 Z M16 695 L16 695 L16 695 L16 695 Z M110 450 C141 467 174 480 187 480 C261 480 317 370 317 223 C317 102 268 10 203 10 C150 10 110 65 110 137 L110 450 L110 450 Z " />
<glyph glyph-name="c" unicode="c" horiz-adv-x="359" d="M308 44 L303 50 C288 38 255 29 225 29 C159 29 109 127 109 256 C109 389 151 490 206 490 C231 490 253 453 257 404 C258 388 270 376 285 376 C299 376 309 387 309 401 C304 460 262 505 213 505 C120 505 50 389 50 235 C50 98 105 -5 179 -5 C219 -5 274 16 308 44 L308 44 Z " />
<glyph glyph-name="d" unicode="d" horiz-adv-x="476" d="M405 25 C405 13 406 10 399 23 C403 24 404 24 404 24 L405 25 L405 25 Z M404 24 L404 24 L404 24 L404 24 Z M398 22 C396 25 394 29 391 34 L365 83 L365 650 L365 705 L365 719 L353 719 L283 697 C281 696 279 695 277 695 C279 692 281 688 283 683 L309 634 L309 445 C285 478 248 503 214 503 C122 503 53 382 53 223 C53 92 113 -7 192 -7 C226 -7 275 15 309 45 L309 12 L309 -2 L320 -2 L391 20 C394 21 396 21 398 21 L398 22 L398 22 Z M272 692 C272 706 271 709 278 694 C273 693 272 693 272 693 L272 692 L272 692 Z M272 693 L272 693 L272 693 L272 693 Z M310 67 L310 54 C292 38 255 26 223 26 C160 26 112 119 112 243 C112 382 155 487 212 487 C249 487 289 454 310 416 L310 67 L310 67 Z " />
<glyph glyph-name="e" unicode="e" horiz-adv-x="365" d="M314 44 L309 50 C294 38 260 29 229 29 C160 29 109 127 109 256 C109 279 110 301 112 322 L264 322 L316 322 C316 426 265 504 197 504 C113 504 50 388 50 234 C50 97 107 -6 182 -6 C224 -6 281 15 314 43 L314 44 L314 44 Z M113 332 C124 425 155 489 193 489 C233 489 263 437 263 368 C263 354 253 342 239 341 L263 342 L113 332 L113 332 Z M239 341 C238 341 237 341 236 341 L239 341 L239 341 Z " />
<glyph glyph-name="f" unicode="f" horiz-adv-x="171" d="M62 0 L90 0 L116 0 C123 0 122 -2 123 16 C122 38 123 35 116 36 L90 39 L90 478 L144 478 L144 500 L90 500 L90 533 C90 633 110 708 138 708 C150 708 161 688 163 660 C164 647 176 636 190 636 C204 636 215 647 215 660 C212 694 185 720 153 720 C94 720 44 645 37 545 L34 500 L-4 500 L-4 478 L34 478 L34 39 L8 36 C0 35 1 38 1 16 C1 -2 0 0 8 0 L34 0 L62 0 L62 0 Z " />
<glyph glyph-name="g" unicode="g" horiz-adv-x="347" d="M348 500 L229 494 C215 501 200 505 184 505 C117 505 67 438 67 350 C67 279 99 222 146 202 C91 196 51 159 51 111 C51 64 81 28 125 19 C68 -18 27 -72 27 -111 C27 -183 73 -237 133 -237 C245 -237 329 -155 329 -45 C329 23 268 74 187 74 L150 71 C115 69 89 96 89 134 C89 169 121 196 164 196 L186 196 C252 196 302 263 302 352 C302 402 286 446 260 474 L350 471 L348 500 L348 500 Z M122 352 C122 433 150 495 187 495 C223 495 251 433 251 352 C251 270 223 208 187 208 C150 208 122 270 122 352 L122 352 Z M139 18 C144 18 149 18 154 18 L173 21 C240 21 290 -20 290 -73 C290 -157 226 -221 141 -221 C98 -221 65 -171 65 -104 C65 -61 97 -9 140 18 L139 18 L139 18 Z " />
<glyph glyph-name="h" unicode="h" horiz-adv-x="403" d="M33 695 C33 709 32 712 39 697 C34 696 33 696 33 696 L33 695 L33 695 Z M33 696 L33 696 L33 696 L33 696 Z M39 698 C41 695 43 691 45 686 L71 637 L71 40 L45 37 C37 36 38 39 38 17 C38 -1 37 1 45 1 L71 1 L99 1 L126 1 L153 1 C161 1 160 -1 159 17 C160 39 161 36 152 37 L126 40 L126 434 C163 454 200 468 214 468 C261 468 282 409 282 331 L282 39 L256 36 C248 35 249 38 249 16 C249 -2 248 0 256 0 L282 0 L310 0 L338 0 L364 0 C371 0 370 -2 371 16 C370 38 371 35 364 36 L338 39 L338 336 C338 433 312 505 257 505 C250 505 194 478 126 441 L126 652 L126 707 L126 721 L115 721 L45 699 C43 698 41 697 39 697 L39 698 L39 698 Z " />
<glyph glyph-name="i" unicode="i" horiz-adv-x="197" d="M96 570 C117 570 133 586 133 607 C133 628 117 644 96 644 C75 644 59 628 59 607 C59 586 75 570 96 570 L96 570 Z M33 475 C33 489 32 492 39 477 C34 476 33 476 33 476 L33 475 L33 475 Z M33 476 L33 476 L33 476 L33 476 Z M39 478 C41 475 43 471 45 466 L71 417 L71 40 L45 37 C37 36 38 39 38 17 C38 -1 37 1 45 1 L71 1 L99 1 L127 1 L153 1 C160 1 159 -1 160 17 C159 39 160 36 153 37 L127 40 L127 432 L127 487 L127 501 L116 501 L45 479 C43 478 41 477 39 477 L39 478 L39 478 Z " />
<glyph glyph-name="j" unicode="j" horiz-adv-x="173" d="M72 570 C93 570 109 586 109 607 C109 628 93 644 72 644 C51 644 35 628 35 607 C35 586 51 570 72 570 L72 570 Z M9 475 C9 489 8 492 15 477 C10 476 9 476 9 476 L9 475 L9 475 Z M9 476 L9 476 L9 476 L9 476 Z M15 478 C17 475 19 471 21 466 L47 417 L47 8 C47 -155 35 -205 4 -224 L9 -232 C76 -190 103 -133 103 24 L103 432 L103 487 L103 501 L92 501 L21 479 C19 478 17 477 15 477 L15 478 L15 478 Z " />
<glyph glyph-name="k" unicode="k" horiz-adv-x="328" d="M40 695 C40 709 39 712 46 697 C41 696 40 696 40 696 L40 695 L40 695 Z M40 696 L40 696 L40 696 L40 696 Z M46 698 C48 695 50 691 52 686 L78 637 L78 40 L52 37 C44 36 45 39 45 17 C45 -1 44 1 52 1 L78 1 L106 1 L134 1 L160 1 C167 1 166 -1 167 17 C166 39 167 36 160 37 L134 40 L134 276 L254 40 L254 40 L248 37 C240 32 241 35 241 17 C241 -1 240 1 247 1 L274 1 L308 1 L343 1 L349 1 C357 1 356 -1 356 19 C356 38 357 36 349 37 L321 40 L168 314 L267 462 L267 462 L295 465 C303 466 302 464 302 483 C302 503 303 501 295 501 L293 501 L280 501 L268 501 L242 501 C234 501 235 503 235 485 C235 471 234 474 242 465 L245 462 L133 276 L133 652 L133 707 L133 721 L122 721 L51 699 C49 698 47 697 45 697 L46 698 L46 698 Z " />
<glyph glyph-name="l" unicode="l" horiz-adv-x="197" d="M33 695 C33 709 32 712 39 697 C34 696 33 696 33 696 L33 695 L33 695 Z M33 696 L33 696 L33 696 L33 696 Z M39 698 C41 695 43 691 45 686 L71 637 L71 40 L45 37 C37 36 38 39 38 17 C38 -1 37 1 45 1 L71 1 L99 1 L127 1 L153 1 C160 1 159 -1 160 17 C159 39 160 36 153 37 L127 40 L127 652 L127 707 L127 721 L116 721 L45 699 C43 698 41 697 39 697 L39 698 L39 698 Z " />
<glyph glyph-name="m" unicode="m" horiz-adv-x="635" d="M33 475 C33 489 32 492 39 477 C34 476 33 476 33 476 L33 475 L33 475 Z M33 476 L33 476 L33 476 L33 476 Z M39 478 C41 475 43 471 45 466 L71 417 L71 40 L45 37 C37 36 38 39 38 17 C38 -1 37 1 45 1 L71 1 L99 1 L126 1 L153 1 C161 1 160 -1 159 17 C160 39 161 36 152 37 L126 40 L126 432 L126 434 C166 456 205 471 220 471 C259 471 292 411 292 331 L292 39 L266 36 C258 35 259 38 259 16 C259 -2 258 0 266 0 L292 0 L320 0 L348 0 L374 0 C381 0 380 -2 381 16 C380 38 381 35 374 36 L348 39 L348 336 C348 367 344 396 337 421 C387 448 430 468 439 468 C480 468 515 409 515 331 L515 39 L488 36 C481 35 482 38 482 16 C482 -2 481 0 488 0 L515 0 L542 0 L570 0 L596 0 C604 0 603 -2 603 16 C603 38 604 35 596 36 L570 39 L570 336 C570 433 530 505 482 505 C476 505 414 472 336 429 C321 476 295 505 266 505 C253 505 196 478 128 441 L128 448 L128 501 L117 501 L47 479 C45 478 43 477 41 477 L39 478 L39 478 Z " />
<glyph glyph-name="n" unicode="n" horiz-adv-x="403" d="M33 475 C33 489 32 492 39 477 C34 476 33 476 33 476 L33 475 L33 475 Z M33 476 L33 476 L33 476 L33 476 Z M39 478 C41 475 43 471 45 466 L71 417 L71 40 L45 37 C37 36 38 39 38 17 C38 -1 37 1 45 1 L71 1 L99 1 L126 1 L153 1 C161 1 160 -1 159 17 C160 39 161 36 152 37 L126 40 L126 432 L126 434 C163 454 200 468 214 468 C261 468 282 409 282 331 L282 39 L256 36 C248 35 249 38 249 16 C249 -2 248 0 256 0 L282 0 L310 0 L338 0 L364 0 C371 0 370 -2 371 16 C370 38 371 35 364 36 L338 39 L338 336 C338 433 312 505 257 505 C250 505 194 478 126 441 L126 448 L126 501 L115 501 L45 479 C43 478 41 477 39 477 L39 478 L39 478 Z " />
<glyph glyph-name="o" unicode="o" horiz-adv-x="470" d="M235 7 C165 7 112 111 112 250 C112 389 165 493 235 493 C306 493 359 389 359 250 C359 111 306 7 235 7 L235 7 Z M50 250 C50 105 130 -5 235 -5 C341 -5 420 105 420 250 C420 395 341 505 235 505 C130 505 50 395 50 250 L50 250 Z " />
<glyph glyph-name="p" unicode="p" horiz-adv-x="465" d="M33 475 C33 489 32 492 39 477 C34 476 33 476 33 476 L33 475 L33 475 Z M33 476 L33 476 L33 476 L33 476 Z M39 478 C41 475 43 471 45 466 L71 417 L71 -190 L45 -193 C37 -194 38 -191 38 -213 C38 -231 37 -229 45 -229 L71 -229 L99 -229 L126 -229 L153 -229 C161 -229 160 -231 159 -213 C160 -191 161 -194 152 -193 L126 -190 L126 38 C152 12 187 -4 226 -4 C332 -4 411 109 411 260 C411 400 348 506 265 506 C225 506 167 473 126 428 L126 432 L126 448 L124 448 L119 501 L108 501 L45 479 C43 478 41 477 39 477 L39 478 L39 478 Z M126 136 L126 419 C153 448 193 469 223 469 C299 469 356 361 356 217 C356 99 300 11 226 11 C175 11 132 65 126 136 L126 136 Z " />
<glyph glyph-name="q" unicode="q" horiz-adv-x="445" d="M347 -230 L374 -230 L401 -230 C409 -230 408 -232 407 -214 C407 -192 408 -195 401 -194 L374 -191 L374 363 L374 500 L368 500 C363 486 346 475 328 475 C297 475 268 505 226 505 C134 505 64 384 64 225 C64 94 121 -5 196 -5 C229 -5 281 22 319 58 L319 -190 L293 -193 C285 -194 286 -191 286 -213 C286 -231 285 -229 293 -229 L319 -229 L347 -230 L347 -230 Z M319 68 C296 46 257 30 226 30 C166 30 121 123 121 247 C121 386 166 491 226 491 C279 491 319 436 319 364 L319 68 L319 68 Z " />
<glyph glyph-name="r" unicode="r" horiz-adv-x="306" d="M33 475 C33 489 32 492 39 477 C34 476 33 476 33 476 L33 475 L33 475 Z M33 476 L33 476 L33 476 L33 476 Z M39 478 C41 475 43 471 45 466 L71 417 L71 40 L45 37 C37 36 38 39 38 17 C38 -1 37 1 45 1 L71 1 L99 1 L126 1 L153 1 C161 1 160 -1 159 17 C160 39 161 36 152 37 L126 40 L126 422 C147 447 173 464 188 464 C213 464 244 440 269 440 C284 440 295 452 295 467 C295 489 275 505 232 505 C206 505 161 473 125 430 L125 432 L125 448 L123 448 L118 501 L107 501 L44 479 C42 478 40 477 38 477 L39 478 L39 478 Z " />
<glyph glyph-name="s" unicode="s" horiz-adv-x="302" d="M165 480 L165 480 C178 462 198 436 211 418 C216 412 221 408 224 408 C227 408 229 412 229 418 L229 461 C186 486 156 505 161 505 C106 505 64 450 64 377 C64 327 95 264 136 230 C176 198 206 149 206 117 C206 55 181 8 147 8 C144 8 137 11 127 15 L127 15 C109 34 81 62 63 80 C56 88 51 93 51 93 C50 93 49 88 49 81 L49 34 L53 42 L53 42 L49 34 C87 12 128 -5 145 -5 C206 -5 253 56 253 137 C253 178 220 234 177 270 C137 301 108 355 108 396 C108 451 131 493 162 493 C155 493 157 488 166 480 L165 480 L165 480 Z " />
<glyph glyph-name="t" unicode="t" horiz-adv-x="294" d="M264 500 L129 500 L129 640 L119 640 L101 576 C86 528 54 489 25 485 L25 478 L73 478 L73 111 C73 25 93 -5 151 -5 C199 -5 241 16 275 44 L271 49 C251 32 221 20 178 20 C141 20 128 41 128 102 L129 478 L264 478 L264 500 L264 500 Z M102 578 L102 580 C102 579 102 578 102 578 L102 578 Z " />
<glyph glyph-name="u" unicode="u" horiz-adv-x="384" d="M340 23 C338 26 336 30 333 35 L307 84 L307 500 L279 500 L251 500 L225 500 C217 500 218 502 218 484 C218 462 217 465 225 464 L251 461 L251 69 L251 65 C230 45 203 30 179 30 C126 30 94 86 94 160 L94 499 L67 499 L39 499 L13 499 C5 499 6 501 6 483 C6 461 5 464 13 463 L39 460 L39 155 C39 63 75 -6 135 -6 C170 -6 212 20 250 55 L250 13 L250 -1 L261 -1 L332 21 C335 22 337 22 339 22 L340 23 L340 23 Z M339 22 C345 23 344 23 345 25 C345 12 346 9 339 23 L339 22 L339 22 Z " />
<glyph glyph-name="v" unicode="v" horiz-adv-x="390" d="M294 461 L294 461 L199 74 L117 461 L135 464 C142 465 141 462 142 484 C141 502 142 500 135 500 L109 500 L77 500 L45 500 L28 500 C21 500 22 502 22 483 C22 462 21 465 28 464 L55 461 L55 461 L179 -10 L188 -10 L312 461 L312 461 L339 464 C347 465 346 462 346 483 C346 502 347 500 339 500 L322 500 L313 500 L304 500 L278 500 C270 500 271 502 271 484 C271 464 270 466 278 464 L294 461 L294 461 Z " />
<glyph glyph-name="w" unicode="w" horiz-adv-x="516" d="M436 461 L341 74 L259 461 C260 460 263 460 267 461 L283 464 C288 465 287 463 287 482 C287 503 288 500 283 500 L250 500 L230 500 L186 500 L176 500 C171 500 172 503 172 482 C172 463 171 465 176 464 L192 461 C195 460 197 460 196 461 L196 461 L229 337 L191 76 L116 461 C117 460 120 460 123 461 L138 464 C144 465 143 463 143 482 C143 503 144 500 138 500 L108 500 L85 500 L44 500 L33 500 C27 500 28 503 28 482 C28 463 27 465 33 464 L49 461 C52 460 55 460 54 461 L54 461 L178 -10 L187 -10 L236 308 L320 -10 L329 -10 L453 461 L453 461 C453 460 455 460 459 461 L475 464 C480 465 479 463 479 482 C479 503 480 500 475 500 L463 500 L445 500 L441 500 L408 500 C402 500 403 503 404 482 C404 463 403 465 408 464 L425 461 C431 460 435 459 435 461 L436 461 L436 461 Z " />
<glyph glyph-name="x" unicode="x" horiz-adv-x="415" d="M286 461 L286 461 L221 319 L153 461 L153 461 L165 464 C173 466 172 464 172 484 C172 502 173 500 165 500 L134 500 L100 500 L66 500 L62 500 C54 500 55 502 56 482 C55 463 54 465 62 464 L85 461 L185 253 L94 39 L64 36 C56 35 57 37 57 17 C57 -2 56 0 64 0 L78 0 L84 0 L90 0 L132 0 C140 0 139 -2 139 16 C139 38 140 35 132 36 L106 39 L190 243 L288 39 L288 39 L281 36 C273 33 274 35 274 16 C274 -2 273 0 281 0 L307 0 L341 0 L375 0 C383 0 382 -2 382 18 C382 37 383 35 375 36 L356 39 L225 310 L296 461 L296 461 L324 464 C331 465 330 463 330 483 C331 502 332 500 324 500 L314 500 L309 500 L303 500 L268 500 C260 500 260 502 261 484 C262 462 261 465 268 464 L286 461 L286 461 Z " />
<glyph glyph-name="y" unicode="y" horiz-adv-x="360" d="M312 461 L312 461 L217 74 L135 461 L153 464 C160 465 159 462 160 484 C159 502 160 500 153 500 L127 500 L95 500 L63 500 L46 500 C39 500 40 502 40 483 C40 462 39 465 46 464 L73 461 L73 461 L195 -2 L175 -67 C152 -154 133 -194 115 -194 C97 -194 82 -169 64 -169 C48 -169 36 -179 36 -193 C36 -214 55 -230 81 -230 C127 -230 161 -180 190 -72 L206 -10 L330 461 L330 461 L357 464 C365 465 364 462 364 483 C364 502 365 500 357 500 L340 500 L331 500 L322 500 L296 500 C288 500 289 502 289 484 C289 464 288 466 296 464 L312 461 L312 461 Z " />
<glyph glyph-name="z" unicode="z" horiz-adv-x="379" d="M240 13 L240 13 L141 13 L330 501 L298 501 L266 501 L125 501 L101 501 L87 501 L85 495 C82 484 78 468 75 457 C74 454 73 452 73 450 C77 452 83 454 90 457 L167 488 L167 488 L261 488 L71 0 L103 0 L136 0 L278 0 L314 0 L316 0 L317 6 C320 22 325 46 327 62 C330 78 331 76 326 76 C316 77 319 79 302 65 L240 13 L240 13 Z M71 441 C55 441 51 440 74 449 C72 443 72 441 72 441 L71 441 L71 441 Z M72 441 L72 441 L72 441 L72 441 Z " />
<glyph glyph-name="braceleft" unicode="&#x7b;" horiz-adv-x="161" d="M147 -120 L147 -111 L119 -111 C91 -111 70 -81 70 -42 L70 172 C70 224 52 263 27 270 C52 277 70 317 70 369 L70 582 C70 621 91 651 119 651 L147 651 L147 660 L107 660 C61 660 27 626 27 582 L27 338 C27 302 18 275 7 275 L5 275 L5 265 L7 265 C18 265 27 238 27 203 L27 -42 C27 -86 61 -120 107 -120 L147 -120 L147 -120 Z " />
<glyph glyph-name="bar" unicode="&#x7c;" horiz-adv-x="163" d="M60 770 L60 -234 L103 -234 L103 770 L60 770 L60 770 Z " />
<glyph glyph-name="braceright" unicode="&#x7d;" horiz-adv-x="161" d="M5 660 L5 651 L33 651 C61 651 82 621 82 582 L82 368 C82 316 100 277 125 270 C100 263 82 223 82 171 L82 -42 C82 -81 61 -111 33 -111 L5 -111 L5 -120 L45 -120 C91 -120 125 -86 125 -42 L125 202 C125 238 134 265 145 265 L147 265 L147 275 L145 275 C134 275 125 302 125 337 L125 582 C125 626 91 660 45 660 L5 660 L5 660 Z " />
<glyph glyph-name="asciitilde" unicode="&#x7e;" horiz-adv-x="353" d="M122 175 C122 213 127 241 133 241 C169 241 172 178 208 178 C228 178 243 220 243 275 L234 275 C234 241 228 215 220 215 C184 215 181 278 145 278 C127 278 113 234 113 175 L122 175 L122 175 Z " />
<glyph glyph-name="nbspace" unicode="&#xa0;" horiz-adv-x="88" d="" />
<glyph glyph-name="exclamdown" unicode="&#xa1;" horiz-adv-x="190" d="M90 505 C67 505 50 488 50 465 C50 442 67 425 90 425 C113 425 130 442 130 465 C130 488 113 505 90 505 L90 505 Z M60 -120 C58 -146 73 -165 94 -165 C115 -165 130 -146 128 -120 L94 350 L86 350 L60 -120 L60 -120 Z " />
<glyph glyph-name="cent" unicode="&#xa2;" horiz-adv-x="359" d="M188 575 L188 502 C108 483 50 374 50 234 C50 97 105 -6 179 -6 C182 -6 185 -6 188 -6 L188 -76 L207 -76 L207 -3 C242 4 281 22 308 44 L303 50 C288 38 255 29 225 29 C219 29 213 30 207 32 L207 490 C232 489 253 452 257 404 C258 388 270 376 285 376 C299 376 309 387 309 401 C304 460 262 505 213 505 C211 505 209 505 207 505 L207 575 L188 575 L188 575 Z M188 40 C141 69 109 153 109 257 C109 375 142 468 188 487 L188 40 L188 40 Z " />
<glyph glyph-name="guillemotleft" unicode="&#xab;" horiz-adv-x="242" d="M140 250 L196 458 L190 465 L91 253 L91 247 L191 35 L197 42 L140 250 L140 250 Z M70 250 L125 458 L119 465 L20 253 L20 247 L120 35 L127 42 L70 250 L70 250 Z " />
<glyph glyph-name="guillemotright" unicode="&#xbb;" horiz-adv-x="242" d="M102 250 L47 458 L53 465 L152 253 L152 247 L51 35 L45 42 L102 250 L102 250 Z M173 250 L117 458 L123 465 L222 253 L222 247 L122 35 L116 42 L173 250 L173 250 Z " />
<glyph glyph-name="onequarter" unicode="&#xbc;" horiz-adv-x="671" d="M83 -15 L612 655 L588 675 L59 5 L83 -15 L83 -15 Z M412 71 L412 71 L412 70 L405 55 L405 50 L412 50 L479 50 L479 -3 L526 -3 L526 50 L548 50 L548 71 L526 71 L526 189 L526 288 L526 302 L518 302 L412 71 L412 71 Z M422 71 L480 192 L479 189 L479 71 L422 71 L422 71 Z M144 415 L168 415 L181 415 C185 415 184 414 184 423 C184 434 185 432 181 433 L168 434 L168 646 L181 647 C185 648 184 646 184 657 C184 666 185 665 181 665 L168 665 L144 665 L121 665 L107 665 C104 665 104 666 104 657 C104 646 104 648 108 647 L121 646 L121 434 L108 433 C104 432 104 434 104 423 C104 414 104 415 107 415 L121 415 L144 415 L144 415 Z " />
<glyph glyph-name="onehalf" unicode="&#xbd;" horiz-adv-x="671" d="M83 -15 L612 655 L588 675 L59 5 L83 -15 L83 -15 Z M552 30 L554 47 L554 47 C554 52 555 57 555 61 C555 65 556 65 547 65 C536 65 538 65 537 61 L534 48 L459 48 C511 89 546 123 546 178 C546 221 522 254 491 254 C469 254 440 222 423 180 L429 177 C438 201 455 219 467 219 C482 219 494 194 494 161 C493 68 453 55 400 11 L400 1 L550 1 L553 25 L553 25 C553 27 553 29 553 31 L552 30 L552 30 Z M145 416 L169 416 L182 416 C186 416 185 415 185 424 C185 435 186 433 182 434 L169 435 L169 647 L182 648 C186 649 185 647 185 658 C185 667 186 666 182 666 L169 666 L145 666 L122 666 L108 666 C105 666 105 667 105 658 C105 647 105 649 109 648 L122 647 L122 435 L109 434 C105 433 105 435 105 424 C105 415 105 416 108 416 L122 416 L145 416 L145 416 Z " />
<glyph glyph-name="threequarters" unicode="&#xbe;" horiz-adv-x="671" d="M76 340 C154 347 212 397 212 457 C212 494 176 524 125 531 C167 554 194 582 194 605 C194 641 173 668 146 668 C114 668 80 640 68 603 L74 601 C80 618 100 632 121 632 C136 632 147 614 147 590 C147 571 130 550 104 533 C102 533 100 533 98 533 C100 533 101 532 100 531 C94 527 88 524 82 521 C74 518 64 514 52 510 L52 502 C55 503 58 504 61 505 C69 507 79 508 86 508 C127 508 158 485 158 454 C158 396 121 349 72 345 L76 340 L76 340 Z M79 -15 L608 655 L584 675 L55 5 L79 -15 L79 -15 Z M408 71 L408 71 L408 70 L401 55 L401 50 L408 50 L475 50 L475 -3 L522 -3 L522 50 L544 50 L544 71 L522 71 L522 189 L522 288 L522 302 L514 302 L408 71 L408 71 Z M418 71 L476 192 L475 189 L475 71 L418 71 L418 71 Z " />
<glyph glyph-name="questiondown" unicode="&#xbf;" horiz-adv-x="247" d="M143 505 C120 505 103 488 103 465 C103 442 120 425 143 425 C166 425 183 442 183 465 C183 488 166 505 143 505 L143 505 Z M148 132 C155 132 160 135 159 140 L147 345 L140 345 L127 140 L129 174 L94 174 C47 174 35 98 35 58 C35 -69 88 -165 159 -165 C186 -165 206 -137 207 -99 C206 -90 193 -83 177 -83 C161 -83 161 -105 153 -116 C148 -120 144 -122 141 -122 C88 -122 48 -47 48 52 C48 79 61 132 113 132 L148 132 L148 132 Z " />
<glyph glyph-name="Agrave" unicode="&#xc0;" horiz-adv-x="443" d="M400 39 L400 39 L217 675 L201 675 L40 39 L13 36 C5 35 6 38 6 17 C6 -2 5 0 13 0 L30 0 L40 0 L51 0 L89 0 C97 0 96 -2 96 16 C96 38 97 35 89 36 L61 39 L109 236 L282 236 L334 39 L315 36 C307 35 308 38 308 17 C308 -2 307 0 315 0 L344 0 L377 0 L411 0 L432 0 C440 0 439 -2 439 16 C439 38 440 35 432 36 L400 39 L400 39 Z M197 842 C178 873 162 897 158 897 C149 897 127 880 127 873 C127 869 145 847 169 819 L282 691 L289 696 L197 842 L197 842 Z M278 252 L113 252 L192 575 L278 252 L278 252 Z " />
<glyph glyph-name="Aacute" unicode="&#xc1;" horiz-adv-x="443" d="M147 691 L257 819 C281 847 298 870 299 873 C299 880 276 897 267 897 C264 897 249 873 229 842 L141 696 L147 691 L147 691 Z M400 39 L400 39 L217 675 L201 675 L40 39 L13 36 C5 35 6 38 6 17 C6 -2 5 0 13 0 L30 0 L40 0 L51 0 L89 0 C97 0 96 -2 96 16 C96 38 97 35 89 36 L61 39 L109 236 L282 236 L334 39 L315 36 C307 35 308 38 308 17 C308 -2 307 0 315 0 L344 0 L377 0 L411 0 L432 0 C440 0 439 -2 439 16 C439 38 440 35 432 36 L400 39 L400 39 Z M278 252 L113 252 L192 575 L278 252 L278 252 Z " />
<glyph glyph-name="Acircumflex" unicode="&#xc2;" horiz-adv-x="443" d="M400 39 L400 39 L217 675 L201 675 L40 39 L13 36 C5 35 6 38 6 17 C6 -2 5 0 13 0 L30 0 L40 0 L51 0 L89 0 C97 0 96 -2 96 16 C96 38 97 35 89 36 L61 39 L109 236 L282 236 L334 39 L315 36 C307 35 308 38 308 17 C308 -2 307 0 315 0 L344 0 L377 0 L411 0 L432 0 C440 0 439 -2 439 16 C439 38 440 35 432 36 L400 39 L400 39 Z M209 841 L298 693 L303 698 L227 889 C225 894 218 905 209 905 C200 905 193 894 191 889 L115 698 L120 693 L209 841 L209 841 Z M278 252 L113 252 L192 575 L278 252 L278 252 Z " />
<glyph glyph-name="Atilde" unicode="&#xc3;" horiz-adv-x="443" d="M151 755 C151 793 157 821 166 821 C202 821 201 758 237 758 C259 758 276 800 276 855 L267 855 C267 821 259 795 249 795 C213 795 214 858 178 858 C157 858 142 814 142 755 L151 755 L151 755 Z M400 39 L400 39 L217 675 L201 675 L40 39 L13 36 C5 35 6 38 6 17 C6 -2 5 0 13 0 L30 0 L40 0 L51 0 L89 0 C97 0 96 -2 96 16 C96 38 97 35 89 36 L61 39 L109 236 L282 236 L334 39 L315 36 C307 35 308 38 308 17 C308 -2 307 0 315 0 L344 0 L377 0 L411 0 L432 0 C440 0 439 -2 439 16 C439 38 440 35 432 36 L400 39 L400 39 Z M278 252 L113 252 L192 575 L278 252 L278 252 Z " />
<glyph glyph-name="Adieresis" unicode="&#xc4;" horiz-adv-x="443" d="M293 730 C312 730 327 745 327 764 C327 783 312 798 293 798 C274 798 259 783 259 764 C259 745 274 730 293 730 L293 730 Z M125 730 C144 730 159 745 159 764 C159 783 144 798 125 798 C106 798 91 783 91 764 C91 745 106 730 125 730 L125 730 Z M400 39 L400 39 L217 675 L201 675 L40 39 L13 36 C5 35 6 38 6 17 C6 -2 5 0 13 0 L30 0 L40 0 L51 0 L89 0 C97 0 96 -2 96 16 C96 38 97 35 89 36 L61 39 L109 236 L282 236 L334 39 L315 36 C307 35 308 38 308 17 C308 -2 307 0 315 0 L344 0 L377 0 L411 0 L432 0 C440 0 439 -2 439 16 C439 38 440 35 432 36 L400 39 L400 39 Z M278 252 L113 252 L192 575 L278 252 L278 252 Z " />
<glyph glyph-name="Aring" unicode="&#xc5;" horiz-adv-x="443" d="M209 707 C168 707 130 746 130 788 C130 833 164 868 209 868 C254 868 288 833 288 788 C288 746 250 707 209 707 L209 707 Z M115 788 C115 740 161 695 209 695 C257 695 303 740 303 788 C303 840 263 880 209 880 C155 880 115 840 115 788 L115 788 Z M400 39 L400 39 L217 675 L201 675 L40 39 L13 36 C5 35 6 38 6 17 C6 -2 5 0 13 0 L30 0 L40 0 L51 0 L89 0 C97 0 96 -2 96 16 C96 38 97 35 89 36 L61 39 L109 236 L282 236 L334 39 L315 36 C307 35 308 38 308 17 C308 -2 307 0 315 0 L344 0 L377 0 L411 0 L432 0 C440 0 439 -2 439 16 C439 38 440 35 432 36 L400 39 L400 39 Z M278 252 L113 252 L192 575 L278 252 L278 252 Z " />
<glyph glyph-name="Ccedilla" unicode="&#xc7;" horiz-adv-x="597" d="M318 -77 L342 -4 C400 -1 481 24 537 56 L533 64 L533 64 L537 56 L537 114 C537 123 536 129 534 129 C534 129 528 123 521 114 C500 91 469 57 448 34 C405 19 361 10 328 10 C214 10 127 148 127 330 C127 512 214 650 328 650 C361 650 405 641 448 626 C469 603 500 569 521 546 C528 537 534 531 534 531 C536 531 537 537 537 546 L537 604 L533 596 L533 596 L537 604 C477 639 387 665 329 665 C176 665 60 521 60 330 C60 141 174 -2 325 -5 L309 -93 L313 -93 C319 -85 327 -78 330 -78 C340 -78 347 -102 347 -134 C347 -174 335 -204 319 -204 C304 -204 287 -198 279 -190 L278 -197 C291 -210 314 -220 330 -220 C359 -220 381 -183 381 -134 C381 -96 365 -67 343 -67 C335 -67 325 -71 319 -77 L318 -77 L318 -77 Z " />
<glyph glyph-name="Egrave" unicode="&#xc8;" horiz-adv-x="398" d="M167 842 C148 873 132 897 128 897 C119 897 96 880 96 873 C96 869 115 847 139 819 L252 691 L258 696 L167 842 L167 842 Z M336 8 C339 23 343 47 346 63 C347 68 348 71 348 73 C345 71 340 67 331 61 L259 14 L128 14 L128 343 L179 343 L239 314 C257 305 265 301 268 299 C268 301 268 305 268 314 L268 343 L268 351 L268 359 L268 385 C268 392 268 396 268 398 C263 396 254 392 239 385 L179 359 L128 359 L128 644 L251 644 L316 597 C323 592 327 589 330 587 C330 589 330 592 330 597 L330 652 L330 660 L323 660 L291 660 L128 660 L97 660 L66 660 L40 660 C32 660 33 662 33 644 C33 622 32 625 40 624 L66 621 L66 39 L40 36 C32 35 33 38 33 16 C33 -2 32 0 40 0 L66 0 L97 0 L128 0 L296 0 L333 0 L335 0 L336 8 L336 8 Z M348 76 C352 77 353 77 348 73 C348 74 348 75 348 75 L348 76 L348 76 Z M348 75 C348 76 348 75 347 75 L347 75 L348 75 L348 75 Z M265 298 C266 298 267 298 267 299 C269 298 268 298 265 298 L265 298 Z M265 298 C264 298 263 298 262 298 C263 298 264 298 265 298 L265 298 Z M266 400 C272 400 274 400 267 397 C267 399 267 400 266 400 L266 400 Z M266 400 C265 400 264 400 262 400 C263 400 264 400 265 400 L266 400 L266 400 Z M328 583 C328 583 328 584 328 586 C333 582 332 582 329 582 L328 583 L328 583 Z M329 582 L329 582 C330 582 330 582 330 582 L329 582 L329 582 Z " />
<glyph glyph-name="Eacute" unicode="&#xc9;" horiz-adv-x="398" d="M163 691 L273 819 C297 847 315 870 314 873 C314 880 292 897 283 897 C280 897 264 873 245 842 L156 696 L163 691 L163 691 Z M336 8 C339 23 343 47 346 63 C347 68 348 71 348 73 C345 71 340 67 331 61 L259 14 L128 14 L128 343 L179 343 L239 314 C257 305 265 301 268 299 C268 301 268 305 268 314 L268 343 L268 351 L268 359 L268 385 C268 392 268 396 268 398 C263 396 254 392 239 385 L179 359 L128 359 L128 644 L251 644 L316 597 C323 592 327 589 330 587 C330 589 330 592 330 597 L330 652 L330 660 L323 660 L291 660 L128 660 L97 660 L66 660 L40 660 C32 660 33 662 33 644 C33 622 32 625 40 624 L66 621 L66 39 L40 36 C32 35 33 38 33 16 C33 -2 32 0 40 0 L66 0 L97 0 L128 0 L296 0 L333 0 L335 0 L336 8 L336 8 Z M348 76 C352 77 353 77 348 73 C348 74 348 75 348 75 L348 76 L348 76 Z M348 75 C348 76 348 75 347 75 L347 75 L348 75 L348 75 Z M265 298 C266 298 267 298 267 299 C269 298 268 298 265 298 L265 298 Z M265 298 C264 298 263 298 262 298 C263 298 264 298 265 298 L265 298 Z M266 400 C272 400 274 400 267 397 C267 399 267 400 266 400 L266 400 Z M266 400 C265 400 264 400 262 400 C263 400 264 400 265 400 L266 400 L266 400 Z M328 583 C328 583 328 584 328 586 C333 582 332 582 329 582 L328 583 L328 583 Z M329 582 L329 582 C330 582 330 582 330 582 L329 582 L329 582 Z " />
<glyph glyph-name="Ecircumflex" unicode="&#xca;" horiz-adv-x="398" d="M195 842 L283 693 L289 698 L212 889 C210 894 204 905 194 905 C185 905 179 894 177 889 L100 698 L106 693 L195 842 L195 842 Z M336 8 C339 23 343 47 346 63 C347 68 348 71 348 73 C345 71 340 67 331 61 L259 14 L128 14 L128 343 L179 343 L239 314 C257 305 265 301 268 299 C268 301 268 305 268 314 L268 343 L268 351 L268 359 L268 385 C268 392 268 396 268 398 C263 396 254 392 239 385 L179 359 L128 359 L128 644 L251 644 L316 597 C323 592 327 589 330 587 C330 589 330 592 330 597 L330 652 L330 660 L323 660 L291 660 L128 660 L97 660 L66 660 L40 660 C32 660 33 662 33 644 C33 622 32 625 40 624 L66 621 L66 39 L40 36 C32 35 33 38 33 16 C33 -2 32 0 40 0 L66 0 L97 0 L128 0 L296 0 L333 0 L335 0 L336 8 L336 8 Z M348 76 C352 77 353 77 348 73 C348 74 348 75 348 75 L348 76 L348 76 Z M348 75 C348 76 348 75 347 75 L347 75 L348 75 L348 75 Z M265 298 C266 298 267 298 267 299 C269 298 268 298 265 298 L265 298 Z M265 298 C264 298 263 298 262 298 C263 298 264 298 265 298 L265 298 Z M266 400 C272 400 274 400 267 397 C267 399 267 400 266 400 L266 400 Z M266 400 C265 400 264 400 262 400 C263 400 264 400 265 400 L266 400 L266 400 Z M328 583 C328 583 328 584 328 586 C333 582 332 582 329 582 L328 583 L328 583 Z M329 582 L329 582 C330 582 330 582 330 582 L329 582 L329 582 Z " />
<glyph glyph-name="Edieresis" unicode="&#xcb;" horiz-adv-x="398" d="M278 730 C298 730 312 745 312 764 C312 783 298 798 278 798 C259 798 244 783 244 764 C244 745 259 730 278 730 L278 730 Z M111 730 C130 730 144 745 144 764 C144 783 130 798 111 798 C91 798 77 783 77 764 C77 745 91 730 111 730 L111 730 Z M336 8 C339 23 343 47 346 63 C347 68 348 71 348 73 C345 71 340 67 331 61 L259 14 L128 14 L128 343 L179 343 L239 314 C257 305 265 301 268 299 C268 301 268 305 268 314 L268 343 L268 351 L268 359 L268 385 C268 392 268 396 268 398 C263 396 254 392 239 385 L179 359 L128 359 L128 644 L251 644 L316 597 C323 592 327 589 330 587 C330 589 330 592 330 597 L330 652 L330 660 L323 660 L291 660 L128 660 L97 660 L66 660 L40 660 C32 660 33 662 33 644 C33 622 32 625 40 624 L66 621 L66 39 L40 36 C32 35 33 38 33 16 C33 -2 32 0 40 0 L66 0 L97 0 L128 0 L296 0 L333 0 L335 0 L336 8 L336 8 Z M348 76 C352 77 353 77 348 73 C348 74 348 75 348 75 L348 76 L348 76 Z M348 75 C348 76 348 75 347 75 L347 75 L348 75 L348 75 Z M265 298 C266 298 267 298 267 299 C269 298 268 298 265 298 L265 298 Z M265 298 C264 298 263 298 262 298 C263 298 264 298 265 298 L265 298 Z M266 400 C272 400 274 400 267 397 C267 399 267 400 266 400 L266 400 Z M266 400 C265 400 264 400 262 400 C263 400 264 400 265 400 L266 400 L266 400 Z M328 583 C328 583 328 584 328 586 C333 582 332 582 329 582 L328 583 L328 583 Z M329 582 L329 582 C330 582 330 582 330 582 L329 582 L329 582 Z " />
<glyph glyph-name="Igrave" unicode="&#xcc;" horiz-adv-x="193" d="M85 842 C66 873 50 897 46 897 C37 897 15 880 14 873 C15 869 33 847 57 819 L170 691 L177 696 L85 842 L85 842 Z M97 0 L128 0 L154 0 C161 0 160 -2 161 16 C160 38 161 35 154 36 L128 39 L128 621 L154 624 C161 625 160 622 161 644 C160 662 161 660 154 660 L128 660 L97 660 L66 660 L40 660 C32 660 33 662 33 644 C33 622 32 625 40 624 L66 621 L66 39 L40 36 C32 35 33 38 33 16 C33 -2 32 0 40 0 L66 0 L97 0 L97 0 Z " />
<glyph glyph-name="Iacute" unicode="&#xcd;" horiz-adv-x="193" d="M35 691 L145 819 C169 847 186 870 187 873 C186 880 164 897 155 897 C152 897 137 873 117 842 L29 696 L35 691 L35 691 Z M97 0 L128 0 L154 0 C161 0 160 -2 161 16 C160 38 161 35 154 36 L128 39 L128 621 L154 624 C161 625 160 622 161 644 C160 662 161 660 154 660 L128 660 L97 660 L66 660 L40 660 C32 660 33 662 33 644 C33 622 32 625 40 624 L66 621 L66 39 L40 36 C32 35 33 38 33 16 C33 -2 32 0 40 0 L66 0 L97 0 L97 0 Z " />
<glyph glyph-name="Icircumflex" unicode="&#xce;" horiz-adv-x="193" d="M97 841 L186 693 L191 698 L115 889 C113 894 106 905 97 905 C88 905 81 894 79 889 L3 698 L8 693 L97 841 L97 841 Z M97 0 L128 0 L154 0 C161 0 160 -2 161 16 C160 38 161 35 154 36 L128 39 L128 621 L154 624 C161 625 160 622 161 644 C160 662 161 660 154 660 L128 660 L97 660 L66 660 L40 660 C32 660 33 662 33 644 C33 622 32 625 40 624 L66 621 L66 39 L40 36 C32 35 33 38 33 16 C33 -2 32 0 40 0 L66 0 L97 0 L97 0 Z " />
<glyph glyph-name="Idieresis" unicode="&#xcf;" horiz-adv-x="193" d="M181 730 C200 730 215 745 215 764 C215 783 200 798 181 798 C162 798 147 783 147 764 C147 745 162 730 181 730 L181 730 Z M13 730 C32 730 47 745 47 764 C47 783 32 798 13 798 C-6 798 -21 783 -21 764 C-21 745 -6 730 13 730 L13 730 Z M97 0 L128 0 L154 0 C161 0 160 -2 161 16 C160 38 161 35 154 36 L128 39 L128 621 L154 624 C161 625 160 622 161 644 C160 662 161 660 154 660 L128 660 L97 660 L66 660 L40 660 C32 660 33 662 33 644 C33 622 32 625 40 624 L66 621 L66 39 L40 36 C32 35 33 38 33 16 C33 -2 32 0 40 0 L66 0 L97 0 L97 0 Z " />
<glyph glyph-name="Ntilde" unicode="&#xd1;" horiz-adv-x="479" d="M186 755 C186 793 192 821 201 821 C237 821 236 758 272 758 C294 758 311 800 311 855 L302 855 C302 821 294 795 284 795 C248 795 249 858 213 858 C193 858 177 814 177 755 L186 755 L186 755 Z M401 621 L401 98 L124 660 L87 635 L87 635 L124 660 L87 660 L78 660 L69 660 L42 660 C35 660 36 662 36 644 C36 622 35 625 42 624 L69 621 L69 39 L42 36 C35 35 36 38 36 16 C36 -2 35 0 42 0 L69 0 L78 0 L87 0 L113 0 C121 0 120 -2 120 16 C120 38 121 35 113 36 L87 39 L87 597 L373 25 L391 -12 L420 -12 L420 47 L420 621 L446 624 C453 625 452 622 453 644 C452 662 453 660 446 660 L420 660 L410 660 L401 660 L375 660 C367 660 368 662 368 644 C368 622 367 625 375 624 L401 621 L401 621 Z " />
<glyph glyph-name="Ograve" unicode="&#xd2;" horiz-adv-x="639" d="M325 10 C201 10 128 166 128 330 C128 494 201 650 325 650 C448 650 521 494 521 330 C521 166 448 10 325 10 L325 10 Z M60 330 C60 158 159 -5 325 -5 C490 -5 589 158 589 330 C589 502 490 665 325 665 C159 665 60 502 60 330 L60 330 Z M313 842 C293 873 277 897 274 897 C265 897 242 880 242 873 C242 869 260 847 284 819 L398 691 L404 696 L313 842 L313 842 Z " />
<glyph glyph-name="Oacute" unicode="&#xd3;" horiz-adv-x="639" d="M300 691 L411 819 C434 847 452 870 452 873 C452 880 429 897 420 897 C418 897 402 873 383 842 L294 696 L300 691 L300 691 Z M325 10 C201 10 128 166 128 330 C128 494 201 650 325 650 C448 650 521 494 521 330 C521 166 448 10 325 10 L325 10 Z M60 330 C60 158 159 -5 325 -5 C490 -5 589 158 589 330 C589 502 490 665 325 665 C159 665 60 502 60 330 L60 330 Z " />
<glyph glyph-name="Ocircumflex" unicode="&#xd4;" horiz-adv-x="639" d="M325 10 C201 10 128 166 128 330 C128 494 201 650 325 650 C448 650 521 494 521 330 C521 166 448 10 325 10 L325 10 Z M60 330 C60 158 159 -5 325 -5 C490 -5 589 158 589 330 C589 502 490 665 325 665 C159 665 60 502 60 330 L60 330 Z M325 842 L413 693 L419 698 L342 889 C340 894 334 905 325 905 C315 905 309 894 307 889 L230 698 L236 693 L325 842 L325 842 Z " />
<glyph glyph-name="Otilde" unicode="&#xd5;" horiz-adv-x="639" d="M267 755 C267 793 273 821 282 821 C318 821 317 758 353 758 C374 758 391 800 391 855 L382 855 C382 821 374 795 365 795 C329 795 330 858 294 858 C273 858 258 814 258 755 L267 755 L267 755 Z M325 10 C201 10 128 166 128 330 C128 494 201 650 325 650 C448 650 521 494 521 330 C521 166 448 10 325 10 L325 10 Z M60 330 C60 158 159 -5 325 -5 C490 -5 589 158 589 330 C589 502 490 665 325 665 C159 665 60 502 60 330 L60 330 Z " />
<glyph glyph-name="Odieresis" unicode="&#xd6;" horiz-adv-x="639" d="M408 730 C428 730 442 745 442 764 C442 783 428 798 408 798 C389 798 375 783 375 764 C375 745 389 730 408 730 L408 730 Z M241 730 C260 730 274 745 274 764 C274 783 260 798 241 798 C221 798 207 783 207 764 C207 745 221 730 241 730 L241 730 Z M325 10 C201 10 128 166 128 330 C128 494 201 650 325 650 C448 650 521 494 521 330 C521 166 448 10 325 10 L325 10 Z M60 330 C60 158 159 -5 325 -5 C490 -5 589 158 589 330 C589 502 490 665 325 665 C159 665 60 502 60 330 L60 330 Z " />
<glyph glyph-name="Oslash" unicode="&#xd8;" horiz-adv-x="639" d="M71 -14 L145 80 C190 28 251 -5 325 -5 C490 -5 589 158 589 330 C589 414 565 496 522 558 L600 657 L578 675 L504 582 C460 634 399 667 325 667 C159 667 60 504 60 332 C60 248 84 166 127 104 L49 5 L71 -14 L71 -14 Z M325 11 C260 11 209 54 175 119 L487 515 C509 461 521 397 521 331 C521 167 448 11 325 11 L325 11 Z M162 148 C140 202 128 266 128 332 C128 496 201 652 325 652 C390 652 441 609 475 544 L162 148 L162 148 Z " />
<glyph glyph-name="Ugrave" unicode="&#xd9;" horiz-adv-x="462" d="M227 842 C208 873 192 897 188 897 C179 897 157 880 157 873 C157 869 175 847 199 819 L312 691 L319 696 L227 842 L227 842 Z M66 621 L66 204 C66 85 122 -5 243 -5 C358 -5 412 72 412 174 L412 621 L442 624 C450 625 449 622 449 644 C449 662 450 660 442 660 L412 660 L403 660 L394 660 L362 660 C355 660 356 662 356 644 C356 622 355 625 363 624 L394 621 L394 180 C394 87 349 17 252 17 C166 17 127 92 127 192 L127 621 L154 624 C162 625 161 622 160 644 C161 662 162 660 154 660 L127 660 L97 660 L66 660 L39 660 C32 660 33 662 33 644 C33 622 32 625 40 624 L66 621 L66 621 Z " />
<glyph glyph-name="Uacute" unicode="&#xda;" horiz-adv-x="462" d="M238 691 L348 819 C371 847 389 870 389 873 C389 880 367 897 358 897 C355 897 339 873 320 842 L231 696 L238 691 L238 691 Z M66 621 L66 204 C66 85 122 -5 243 -5 C358 -5 412 72 412 174 L412 621 L442 624 C450 625 449 622 449 644 C449 662 450 660 442 660 L412 660 L403 660 L394 660 L362 660 C355 660 356 662 356 644 C356 622 355 625 363 624 L394 621 L394 180 C394 87 349 17 252 17 C166 17 127 92 127 192 L127 621 L154 624 C162 625 161 622 160 644 C161 662 162 660 154 660 L127 660 L97 660 L66 660 L39 660 C32 660 33 662 33 644 C33 622 32 625 40 624 L66 621 L66 621 Z " />
<glyph glyph-name="Ucircumflex" unicode="&#xdb;" horiz-adv-x="462" d="M239 841 L328 693 L333 698 L257 889 C255 894 248 905 239 905 C230 905 223 894 221 889 L145 698 L150 693 L239 841 L239 841 Z M66 621 L66 204 C66 85 122 -5 243 -5 C358 -5 412 72 412 174 L412 621 L442 624 C450 625 449 622 449 644 C449 662 450 660 442 660 L412 660 L403 660 L394 660 L362 660 C355 660 356 662 356 644 C356 622 355 625 363 624 L394 621 L394 180 C394 87 349 17 252 17 C166 17 127 92 127 192 L127 621 L154 624 C162 625 161 622 160 644 C161 662 162 660 154 660 L127 660 L97 660 L66 660 L39 660 C32 660 33 662 33 644 C33 622 32 625 40 624 L66 621 L66 621 Z " />
<glyph glyph-name="Udieresis" unicode="&#xdc;" horiz-adv-x="462" d="M323 730 C342 730 357 745 357 764 C357 783 342 798 323 798 C304 798 289 783 289 764 C289 745 304 730 323 730 L323 730 Z M155 730 C174 730 189 745 189 764 C189 783 174 798 155 798 C136 798 121 783 121 764 C121 745 136 730 155 730 L155 730 Z M66 621 L66 204 C66 85 122 -5 243 -5 C358 -5 412 72 412 174 L412 621 L442 624 C450 625 449 622 449 644 C449 662 450 660 442 660 L412 660 L403 660 L394 660 L362 660 C355 660 356 662 356 644 C356 622 355 625 363 624 L394 621 L394 180 C394 87 349 17 252 17 C166 17 127 92 127 192 L127 621 L154 624 C162 625 161 622 160 644 C161 662 162 660 154 660 L127 660 L97 660 L66 660 L39 660 C32 660 33 662 33 644 C33 622 32 625 40 624 L66 621 L66 621 Z " />
<glyph glyph-name="Yacute" unicode="&#xdd;" horiz-adv-x="425" d="M219 691 L329 819 C352 847 370 870 370 873 C370 880 348 897 339 897 C336 897 320 873 301 842 L212 696 L219 691 L219 691 Z M368 621 L236 307 L234 307 L126 621 L127 621 L145 624 C152 625 151 622 151 644 C151 662 152 660 145 660 L113 660 L76 660 L39 660 L34 660 C26 660 27 662 27 643 C27 623 26 625 34 624 L54 621 L191 275 L191 39 L165 36 C157 35 158 38 158 16 C158 -2 157 0 165 0 L191 0 L222 0 L253 0 L279 0 C286 0 286 -2 286 16 C286 38 287 35 279 36 L253 39 L253 307 L388 621 L412 624 C419 625 418 623 419 643 C418 662 419 660 412 660 L405 660 L396 660 L386 660 L348 660 C340 660 340 662 341 644 C342 622 341 625 348 624 L368 621 L368 621 Z " />
<glyph glyph-name="agrave" unicode="&#xe0;" horiz-adv-x="454" d="M167 682 C148 713 132 737 128 737 C119 737 97 720 97 713 C97 709 115 687 139 659 L253 531 L259 536 L167 682 L167 682 Z M383 25 C383 13 384 10 377 23 C381 24 382 24 382 24 L383 25 L383 25 Z M382 24 L382 24 L382 24 L382 24 Z M376 22 C374 25 372 29 369 34 L343 83 L343 405 L343 499 L327 499 L295 425 C274 467 233 504 198 504 C115 504 52 383 52 224 C52 93 105 -6 176 -6 C200 -6 246 41 286 105 L286 68 L286 13 L286 -1 L286 -6 L295 -6 L341 13 L368 21 C371 22 373 22 375 22 L376 22 L376 22 Z M287 117 C257 66 223 28 208 28 C153 28 111 121 111 245 C111 384 148 489 196 489 C231 489 272 448 287 405 L287 117 L287 117 Z " />
<glyph glyph-name="aacute" unicode="&#xe1;" horiz-adv-x="365" d="M126 531 L237 659 C260 687 278 710 278 713 C278 720 255 737 246 737 C244 737 228 713 209 682 L120 536 L126 531 L126 531 Z M343 38 C331 26 314 17 292 17 C263 17 253 42 253 76 L253 359 C253 442 220 505 177 505 C123 505 75 462 64 405 L119 405 C129 453 149 489 166 489 C182 489 194 438 194 371 L194 248 L142 235 C82 220 36 163 36 102 C36 41 64 -5 101 -5 C121 -5 157 21 193 60 C195 19 211 -10 253 -10 C294 -10 325 7 348 30 L343 38 L343 38 Z M193 233 L193 71 C168 48 142 33 125 33 C105 33 90 69 90 117 C90 165 113 208 143 217 L193 233 L193 233 Z " />
<glyph glyph-name="acircumflex" unicode="&#xe2;" horiz-adv-x="454" d="M179 681 L268 533 L274 538 L197 729 C195 734 189 745 179 745 C170 745 163 734 162 729 L85 538 L90 533 L179 681 L179 681 Z M383 25 C383 13 384 10 377 23 C381 24 382 24 382 24 L383 25 L383 25 Z M382 24 L382 24 L382 24 L382 24 Z M376 22 C374 25 372 29 369 34 L343 83 L343 405 L343 499 L327 499 L295 425 C274 467 233 504 198 504 C115 504 52 383 52 224 C52 93 105 -6 176 -6 C200 -6 246 41 286 105 L286 68 L286 13 L286 -1 L286 -6 L295 -6 L341 13 L368 21 C371 22 373 22 375 22 L376 22 L376 22 Z M287 117 C257 66 223 28 208 28 C153 28 111 121 111 245 C111 384 148 489 196 489 C231 489 272 448 287 405 L287 117 L287 117 Z " />
<glyph glyph-name="atilde" unicode="&#xe3;" horiz-adv-x="454" d="M121 595 C121 633 128 661 136 661 C172 661 171 598 207 598 C229 598 246 640 246 695 L237 695 C237 661 229 635 219 635 C183 635 184 698 148 698 C128 698 112 654 112 595 L121 595 L121 595 Z M383 25 C383 13 384 10 377 23 C381 24 382 24 382 24 L383 25 L383 25 Z M382 24 L382 24 L382 24 L382 24 Z M376 22 C374 25 372 29 369 34 L343 83 L343 405 L343 499 L327 499 L295 425 C274 467 233 504 198 504 C115 504 52 383 52 224 C52 93 105 -6 176 -6 C200 -6 246 41 286 105 L286 68 L286 13 L286 -1 L286 -6 L295 -6 L341 13 L368 21 C371 22 373 22 375 22 L376 22 L376 22 Z M287 117 C257 66 223 28 208 28 C153 28 111 121 111 245 C111 384 148 489 196 489 C231 489 272 448 287 405 L287 117 L287 117 Z " />
<glyph glyph-name="adieresis" unicode="&#xe4;" horiz-adv-x="454" d="M263 570 C282 570 297 585 297 604 C297 623 282 638 263 638 C244 638 229 623 229 604 C229 585 244 570 263 570 L263 570 Z M95 570 C114 570 129 585 129 604 C129 623 114 638 95 638 C76 638 61 623 61 604 C61 585 76 570 95 570 L95 570 Z M383 25 C383 13 384 10 377 23 C381 24 382 24 382 24 L383 25 L383 25 Z M382 24 L382 24 L382 24 L382 24 Z M376 22 C374 25 372 29 369 34 L343 83 L343 405 L343 499 L327 499 L295 425 C274 467 233 504 198 504 C115 504 52 383 52 224 C52 93 105 -6 176 -6 C200 -6 246 41 286 105 L286 68 L286 13 L286 -1 L286 -6 L295 -6 L341 13 L368 21 C371 22 373 22 375 22 L376 22 L376 22 Z M287 117 C257 66 223 28 208 28 C153 28 111 121 111 245 C111 384 148 489 196 489 C231 489 272 448 287 405 L287 117 L287 117 Z " />
<glyph glyph-name="aring" unicode="&#xe5;" horiz-adv-x="454" d="M179 547 C139 547 100 586 100 628 C100 673 134 708 179 708 C224 708 258 673 258 628 C258 586 220 547 179 547 L179 547 Z M85 628 C85 580 131 535 179 535 C227 535 273 580 273 628 C273 680 233 720 179 720 C125 720 85 680 85 628 L85 628 Z M383 25 C383 13 384 10 377 23 C381 24 382 24 382 24 L383 25 L383 25 Z M382 24 L382 24 L382 24 L382 24 Z M376 22 C374 25 372 29 369 34 L343 83 L343 405 L343 499 L327 499 L295 425 C274 467 233 504 198 504 C115 504 52 383 52 224 C52 93 105 -6 176 -6 C200 -6 246 41 286 105 L286 68 L286 13 L286 -1 L286 -6 L295 -6 L341 13 L368 21 C371 22 373 22 375 22 L376 22 L376 22 Z M287 117 C257 66 223 28 208 28 C153 28 111 121 111 245 C111 384 148 489 196 489 C231 489 272 448 287 405 L287 117 L287 117 Z " />
<glyph glyph-name="ccedilla" unicode="&#xe7;" horiz-adv-x="359" d="M168 -77 L192 -4 C230 0 277 19 307 44 L302 50 C287 38 254 29 224 29 C158 29 108 127 108 256 C108 389 150 490 205 490 C230 490 252 453 256 404 C257 388 269 376 284 376 C298 376 308 387 308 401 C303 460 261 505 212 505 C119 505 49 389 49 235 C49 101 101 0 172 -5 L156 -93 L161 -93 C167 -85 175 -78 178 -78 C188 -78 195 -102 195 -134 C195 -174 183 -204 167 -204 C152 -204 135 -198 127 -190 L126 -197 C139 -210 161 -220 178 -220 C207 -220 229 -183 229 -134 C229 -96 213 -67 191 -67 C183 -67 173 -71 167 -77 L168 -77 L168 -77 Z " />
<glyph glyph-name="egrave" unicode="&#xe8;" horiz-adv-x="365" d="M314 44 L309 50 C294 38 260 29 229 29 C160 29 109 127 109 256 C109 279 110 301 112 322 L264 322 L316 322 C316 426 265 504 197 504 C113 504 50 388 50 234 C50 97 107 -6 182 -6 C224 -6 281 15 314 43 L314 44 L314 44 Z M185 681 C166 712 150 736 147 736 C138 736 115 719 115 712 C115 708 133 686 157 658 L271 530 L277 535 L185 681 L185 681 Z M113 332 C124 425 155 489 193 489 C233 489 263 437 263 368 C263 354 253 342 239 341 L263 342 L113 332 L113 332 Z M239 341 C238 341 237 341 236 341 L239 341 L239 341 Z " />
<glyph glyph-name="eacute" unicode="&#xe9;" horiz-adv-x="365" d="M166 531 L276 659 C300 687 318 710 317 713 C317 720 295 737 286 737 C283 737 267 713 248 682 L159 536 L166 531 L166 531 Z M314 44 L309 50 C294 38 260 29 229 29 C160 29 109 127 109 256 C109 279 110 301 112 322 L264 322 L316 322 C316 426 265 504 197 504 C113 504 50 388 50 234 C50 97 107 -6 182 -6 C224 -6 281 15 314 43 L314 44 L314 44 Z M113 332 C124 425 155 489 193 489 C233 489 263 437 263 368 C263 354 253 342 239 341 L263 342 L113 332 L113 332 Z M239 341 C238 341 237 341 236 341 L239 341 L239 341 Z " />
<glyph glyph-name="ecircumflex" unicode="&#xea;" horiz-adv-x="365" d="M314 44 L309 50 C294 38 260 29 229 29 C160 29 109 127 109 256 C109 279 110 301 112 322 L264 322 L316 322 C316 426 265 504 197 504 C113 504 50 388 50 234 C50 97 107 -6 182 -6 C224 -6 281 15 314 43 L314 44 L314 44 Z M198 681 L286 532 L292 537 L215 728 C213 733 207 744 197 744 C188 744 182 733 180 728 L103 537 L109 532 L198 681 L198 681 Z M113 332 C124 425 155 489 193 489 C233 489 263 437 263 368 C263 354 253 342 239 341 L263 342 L113 332 L113 332 Z M239 341 C238 341 237 341 236 341 L239 341 L239 341 Z " />
<glyph glyph-name="edieresis" unicode="&#xeb;" horiz-adv-x="365" d="M281 570 C300 570 315 585 315 604 C315 623 300 638 281 638 C262 638 247 623 247 604 C247 585 262 570 281 570 L281 570 Z M113 570 C133 570 147 585 147 604 C147 623 133 638 113 638 C94 638 80 623 80 604 C80 585 94 570 113 570 L113 570 Z M314 44 L309 50 C294 38 260 29 229 29 C160 29 109 127 109 256 C109 279 110 301 112 322 L264 322 L316 322 C316 426 265 504 197 504 C113 504 50 388 50 234 C50 97 107 -6 182 -6 C224 -6 281 15 314 43 L314 44 L314 44 Z M113 332 C124 425 155 489 193 489 C233 489 263 437 263 368 C263 354 253 342 239 341 L263 342 L113 332 L113 332 Z M239 341 C238 341 237 341 236 341 L239 341 L239 341 Z " />
<glyph glyph-name="igrave" unicode="&#xec;" horiz-adv-x="197" d="M87 682 C68 713 51 737 48 737 C39 737 16 720 16 713 C16 709 34 687 59 659 L172 531 L178 536 L87 682 L87 682 Z M33 450 C33 463 32 466 39 453 C35 452 34 452 34 452 L33 450 L33 450 Z M34 452 C34 452 34 452 34 451 L34 451 L34 452 L34 452 Z M40 453 C42 450 44 446 46 441 L72 392 L72 39 L46 36 C38 35 39 38 39 16 C39 -2 38 0 46 0 L72 0 L100 0 L128 0 L154 0 C161 0 160 -2 161 16 C160 38 161 35 154 36 L128 39 L128 407 L128 461 L128 476 L117 476 L46 454 C44 453 42 452 40 452 L40 453 L40 453 Z " />
<glyph glyph-name="iacute" unicode="&#xed;" horiz-adv-x="197" d="M22 531 L132 659 C156 687 173 710 173 713 C173 720 151 737 142 737 C139 737 123 713 104 682 L15 536 L22 531 L22 531 Z M33 450 C33 463 32 466 39 453 C35 452 34 452 34 452 L33 450 L33 450 Z M34 452 C34 452 34 452 34 451 L34 451 L34 452 L34 452 Z M40 453 C42 450 44 446 46 441 L72 392 L72 39 L46 36 C38 35 39 38 39 16 C39 -2 38 0 46 0 L72 0 L100 0 L128 0 L154 0 C161 0 160 -2 161 16 C160 38 161 35 154 36 L128 39 L128 407 L128 461 L128 476 L117 476 L46 454 C44 453 42 452 40 452 L40 453 L40 453 Z " />
<glyph glyph-name="icircumflex" unicode="&#xee;" horiz-adv-x="197" d="M99 682 L188 533 L193 538 L117 729 C115 734 108 745 99 745 C89 745 83 734 81 729 L4 538 L10 533 L99 682 L99 682 Z M33 450 C33 463 32 466 39 453 C35 452 34 452 34 452 L33 450 L33 450 Z M34 452 C34 452 34 452 34 451 L34 451 L34 452 L34 452 Z M40 453 C42 450 44 446 46 441 L72 392 L72 39 L46 36 C38 35 39 38 39 16 C39 -2 38 0 46 0 L72 0 L100 0 L128 0 L154 0 C161 0 160 -2 161 16 C160 38 161 35 154 36 L128 39 L128 407 L128 461 L128 476 L117 476 L46 454 C44 453 42 452 40 452 L40 453 L40 453 Z " />
<glyph glyph-name="idieresis" unicode="&#xef;" horiz-adv-x="197" d="M183 570 C202 570 217 585 217 604 C217 623 202 638 183 638 C164 638 149 623 149 604 C149 585 164 570 183 570 L183 570 Z M15 570 C34 570 49 585 49 604 C49 623 34 638 15 638 C-4 638 -19 623 -19 604 C-19 585 -4 570 15 570 L15 570 Z M33 450 C33 463 32 466 39 453 C35 452 34 452 34 452 L33 450 L33 450 Z M34 452 C34 452 34 452 34 451 L34 451 L34 452 L34 452 Z M40 453 C42 450 44 446 46 441 L72 392 L72 39 L46 36 C38 35 39 38 39 16 C39 -2 38 0 46 0 L72 0 L100 0 L128 0 L154 0 C161 0 160 -2 161 16 C160 38 161 35 154 36 L128 39 L128 407 L128 461 L128 476 L117 476 L46 454 C44 453 42 452 40 452 L40 453 L40 453 Z " />
<glyph glyph-name="ntilde" unicode="&#xf1;" horiz-adv-x="403" d="M147 595 C147 633 153 661 161 661 C197 661 196 598 232 598 C254 598 271 640 271 695 L262 695 C262 661 254 635 244 635 C208 635 209 698 173 698 C153 698 137 654 137 595 L147 595 L147 595 Z M33 475 C33 489 32 492 39 477 C34 476 33 476 33 476 L33 475 L33 475 Z M33 476 L33 476 L33 476 L33 476 Z M39 478 C41 475 43 471 45 466 L71 417 L71 40 L45 37 C37 36 38 39 38 17 C38 -1 37 1 45 1 L71 1 L99 1 L126 1 L153 1 C161 1 160 -1 159 17 C160 39 161 36 152 37 L126 40 L126 432 L126 434 C163 454 200 468 214 468 C261 468 282 409 282 331 L282 39 L256 36 C248 35 249 38 249 16 C249 -2 248 0 256 0 L282 0 L310 0 L338 0 L364 0 C371 0 370 -2 371 16 C370 38 371 35 364 36 L338 39 L338 336 C338 433 312 505 257 505 C250 505 194 478 126 441 L126 448 L126 501 L115 501 L45 479 C43 478 41 477 39 477 L39 478 L39 478 Z " />
<glyph glyph-name="ograve" unicode="&#xf2;" horiz-adv-x="470" d="M235 7 C165 7 112 111 112 250 C112 389 165 493 235 493 C306 493 359 389 359 250 C359 111 306 7 235 7 L235 7 Z M50 250 C50 105 130 -5 235 -5 C341 -5 420 105 420 250 C420 395 341 505 235 505 C130 505 50 395 50 250 L50 250 Z M223 682 C204 713 188 737 184 737 C175 737 153 720 153 713 C153 709 171 687 195 659 L309 531 L315 536 L223 682 L223 682 Z " />
<glyph glyph-name="oacute" unicode="&#xf3;" horiz-adv-x="470" d="M203 531 L314 659 C337 687 355 710 355 713 C355 720 332 737 323 737 C321 737 305 713 286 682 L197 536 L203 531 L203 531 Z M235 7 C165 7 112 111 112 250 C112 389 165 493 235 493 C306 493 359 389 359 250 C359 111 306 7 235 7 L235 7 Z M50 250 C50 105 130 -5 235 -5 C341 -5 420 105 420 250 C420 395 341 505 235 505 C130 505 50 395 50 250 L50 250 Z " />
<glyph glyph-name="ocircumflex" unicode="&#xf4;" horiz-adv-x="470" d="M235 7 C165 7 112 111 112 250 C112 389 165 493 235 493 C306 493 359 389 359 250 C359 111 306 7 235 7 L235 7 Z M50 250 C50 105 130 -5 235 -5 C341 -5 420 105 420 250 C420 395 341 505 235 505 C130 505 50 395 50 250 L50 250 Z M235 681 L324 533 L330 538 L253 729 C251 734 245 745 235 745 C226 745 219 734 218 729 L141 538 L146 533 L235 681 L235 681 Z " />
<glyph glyph-name="otilde" unicode="&#xf5;" horiz-adv-x="470" d="M178 595 C178 633 184 661 192 661 C228 661 227 598 263 598 C285 598 302 640 302 695 L293 695 C293 661 285 635 275 635 C239 635 240 698 204 698 C184 698 168 654 168 595 L178 595 L178 595 Z M235 7 C165 7 112 111 112 250 C112 389 165 493 235 493 C306 493 359 389 359 250 C359 111 306 7 235 7 L235 7 Z M50 250 C50 105 130 -5 235 -5 C341 -5 420 105 420 250 C420 395 341 505 235 505 C130 505 50 395 50 250 L50 250 Z " />
<glyph glyph-name="odieresis" unicode="&#xf6;" horiz-adv-x="470" d="M319 570 C338 570 353 585 353 604 C353 623 338 638 319 638 C300 638 285 623 285 604 C285 585 300 570 319 570 L319 570 Z M151 570 C171 570 185 585 185 604 C185 623 171 638 151 638 C132 638 117 623 117 604 C117 585 132 570 151 570 L151 570 Z M235 7 C165 7 112 111 112 250 C112 389 165 493 235 493 C306 493 359 389 359 250 C359 111 306 7 235 7 L235 7 Z M50 250 C50 105 130 -5 235 -5 C341 -5 420 105 420 250 C420 395 341 505 235 505 C130 505 50 395 50 250 L50 250 Z " />
<glyph glyph-name="oslash" unicode="&#xf8;" horiz-adv-x="470" d="M57 -10 L109 61 C142 20 186 -5 236 -5 C342 -5 421 105 421 250 C421 318 403 379 373 424 L428 500 L413 510 L362 439 C329 480 285 505 235 505 C130 505 50 395 50 250 C50 181 68 120 98 75 L43 -1 L57 -10 L57 -10 Z M235 6 C194 6 159 42 137 99 L341 380 C353 343 360 299 360 250 C360 111 307 7 236 7 L235 6 L235 6 Z M131 120 C120 157 114 201 114 250 C114 389 167 493 237 493 C278 493 313 458 335 401 L131 120 L131 120 Z " />
<glyph glyph-name="ugrave" unicode="&#xf9;" horiz-adv-x="368" d="M162 682 C143 713 127 737 123 737 C114 737 92 720 92 713 C92 709 110 687 134 659 L248 531 L254 536 L162 682 L162 682 Z M340 23 C338 26 336 30 333 35 L307 84 L307 500 L279 500 L251 500 L225 500 C217 500 218 502 218 484 C218 462 217 465 225 464 L251 461 L251 69 L251 65 C230 45 203 30 179 30 C126 30 94 86 94 160 L94 499 L67 499 L39 499 L13 499 C5 499 6 501 6 483 C6 461 5 464 13 463 L39 460 L39 155 C39 63 75 -6 135 -6 C170 -6 212 20 250 55 L250 13 L250 -1 L261 -1 L332 21 C335 22 337 22 339 22 L340 23 L340 23 Z M339 22 C345 23 344 23 345 25 C345 12 346 9 339 23 L339 22 L339 22 Z " />
<glyph glyph-name="uacute" unicode="&#xfa;" horiz-adv-x="368" d="M142 531 L253 659 C277 687 295 710 294 713 C294 720 272 737 263 737 C260 737 244 713 225 682 L136 536 L142 531 L142 531 Z M340 23 C338 26 336 30 333 35 L307 84 L307 500 L279 500 L251 500 L225 500 C217 500 218 502 218 484 C218 462 217 465 225 464 L251 461 L251 69 L251 65 C230 45 203 30 179 30 C126 30 94 86 94 160 L94 499 L67 499 L39 499 L13 499 C5 499 6 501 6 483 C6 461 5 464 13 463 L39 460 L39 155 C39 63 75 -6 135 -6 C170 -6 212 20 250 55 L250 13 L250 -1 L261 -1 L332 21 C335 22 337 22 339 22 L340 23 L340 23 Z M339 22 C345 23 344 23 345 25 C345 12 346 9 339 23 L339 22 L339 22 Z " />
<glyph glyph-name="ucircumflex" unicode="&#xfb;" horiz-adv-x="368" d="M175 682 L263 533 L269 538 L192 729 C190 734 184 745 174 745 C165 745 159 734 157 729 L80 538 L86 533 L175 682 L175 682 Z M340 23 C338 26 336 30 333 35 L307 84 L307 500 L279 500 L251 500 L225 500 C217 500 218 502 218 484 C218 462 217 465 225 464 L251 461 L251 69 L251 65 C230 45 203 30 179 30 C126 30 94 86 94 160 L94 499 L67 499 L39 499 L13 499 C5 499 6 501 6 483 C6 461 5 464 13 463 L39 460 L39 155 C39 63 75 -6 135 -6 C170 -6 212 20 250 55 L250 13 L250 -1 L261 -1 L332 21 C335 22 337 22 339 22 L340 23 L340 23 Z M339 22 C345 23 344 23 345 25 C345 12 346 9 339 23 L339 22 L339 22 Z " />
<glyph glyph-name="udieresis" unicode="&#xfc;" horiz-adv-x="368" d="M258 570 C277 570 292 585 292 604 C292 623 277 638 258 638 C239 638 224 623 224 604 C224 585 239 570 258 570 L258 570 Z M90 570 C110 570 124 585 124 604 C124 623 110 638 90 638 C71 638 56 623 56 604 C56 585 71 570 90 570 L90 570 Z M340 23 C338 26 336 30 333 35 L307 84 L307 500 L279 500 L251 500 L225 500 C217 500 218 502 218 484 C218 462 217 465 225 464 L251 461 L251 69 L251 65 C230 45 203 30 179 30 C126 30 94 86 94 160 L94 499 L67 499 L39 499 L13 499 C5 499 6 501 6 483 C6 461 5 464 13 463 L39 460 L39 155 C39 63 75 -6 135 -6 C170 -6 212 20 250 55 L250 13 L250 -1 L261 -1 L332 21 C335 22 337 22 339 22 L340 23 L340 23 Z M339 22 C345 23 344 23 345 25 C345 12 346 9 339 23 L339 22 L339 22 Z " />
<glyph glyph-name="ydieresis" unicode="&#xff;" horiz-adv-x="262" d="M244 570 C263 570 278 585 278 604 C278 623 263 638 244 638 C225 638 210 623 210 604 C210 585 225 570 244 570 L244 570 Z M76 570 C95 570 110 585 110 604 C110 623 95 638 76 638 C57 638 42 623 42 604 C42 585 57 570 76 570 L76 570 Z M270 461 L270 461 L175 74 L93 461 L111 464 C118 465 117 462 118 484 C117 502 118 500 111 500 L85 500 L53 500 L21 500 L4 500 C-3 500 -2 502 -2 483 C-2 462 -3 465 4 464 L31 461 L31 461 L153 -2 L133 -67 C110 -154 91 -194 73 -194 C55 -194 40 -169 22 -169 C6 -169 -6 -179 -6 -193 C-6 -214 13 -230 39 -230 C85 -230 119 -180 148 -72 L164 -10 L288 461 L288 461 L315 464 C323 465 322 462 322 483 C322 502 323 500 315 500 L298 500 L289 500 L280 500 L254 500 C246 500 247 502 247 484 C247 464 246 466 254 464 L270 461 L270 461 Z " />
<glyph glyph-name="Amacron" unicode="&#x100;" horiz-adv-x="443" d="M119 769 L299 769 L299 800 L119 800 L119 769 L119 769 Z M400 39 L400 39 L217 675 L201 675 L40 39 L13 36 C5 35 6 38 6 17 C6 -2 5 0 13 0 L30 0 L40 0 L51 0 L89 0 C97 0 96 -2 96 16 C96 38 97 35 89 36 L61 39 L109 236 L282 236 L334 39 L315 36 C307 35 308 38 308 17 C308 -2 307 0 315 0 L344 0 L377 0 L411 0 L432 0 C440 0 439 -2 439 16 C439 38 440 35 432 36 L400 39 L400 39 Z M278 252 L113 252 L192 575 L278 252 L278 252 Z " />
<glyph glyph-name="amacron" unicode="&#x101;" horiz-adv-x="454" d="M89 609 L269 609 L269 640 L89 640 L89 609 L89 609 Z M383 25 C383 13 384 10 377 23 C381 24 382 24 382 24 L383 25 L383 25 Z M382 24 L382 24 L382 24 L382 24 Z M376 22 C374 25 372 29 369 34 L343 83 L343 405 L343 499 L327 499 L295 425 C274 467 233 504 198 504 C115 504 52 383 52 224 C52 93 105 -6 176 -6 C200 -6 246 41 286 105 L286 68 L286 13 L286 -1 L286 -6 L295 -6 L341 13 L368 21 C371 22 373 22 375 22 L376 22 L376 22 Z M287 117 C257 66 223 28 208 28 C153 28 111 121 111 245 C111 384 148 489 196 489 C231 489 272 448 287 405 L287 117 L287 117 Z " />
<glyph glyph-name="Abreve" unicode="&#x102;" horiz-adv-x="443" d="M153 872 C165 811 189 765 209 765 C229 765 253 811 265 872 L255 873 C247 833 227 802 209 802 C191 802 171 833 163 873 L153 872 L153 872 Z M400 39 L400 39 L217 675 L201 675 L40 39 L13 36 C5 35 6 38 6 17 C6 -2 5 0 13 0 L30 0 L40 0 L51 0 L89 0 C97 0 96 -2 96 16 C96 38 97 35 89 36 L61 39 L109 236 L282 236 L334 39 L315 36 C307 35 308 38 308 17 C308 -2 307 0 315 0 L344 0 L377 0 L411 0 L432 0 C440 0 439 -2 439 16 C439 38 440 35 432 36 L400 39 L400 39 Z M278 252 L113 252 L192 575 L278 252 L278 252 Z " />
<glyph glyph-name="abreve" unicode="&#x103;" horiz-adv-x="454" d="M124 682 C135 621 159 575 179 575 C199 575 223 621 235 682 L225 683 C217 643 197 612 179 612 C161 612 141 643 133 683 L124 682 L124 682 Z M383 25 C383 13 384 10 377 23 C381 24 382 24 382 24 L383 25 L383 25 Z M382 24 L382 24 L382 24 L382 24 Z M376 22 C374 25 372 29 369 34 L343 83 L343 405 L343 499 L327 499 L295 425 C274 467 233 504 198 504 C115 504 52 383 52 224 C52 93 105 -6 176 -6 C200 -6 246 41 286 105 L286 68 L286 13 L286 -1 L286 -6 L295 -6 L341 13 L368 21 C371 22 373 22 375 22 L376 22 L376 22 Z M287 117 C257 66 223 28 208 28 C153 28 111 121 111 245 C111 384 148 489 196 489 C231 489 272 448 287 405 L287 117 L287 117 Z " />
<glyph glyph-name="Aogonek" unicode="&#x104;" horiz-adv-x="443" d="M400 39 L400 39 L217 675 L201 675 L40 39 L13 36 C5 35 6 38 6 17 C6 -2 5 0 13 0 L30 0 L40 0 L51 0 L89 0 C97 0 96 -2 96 16 C96 38 97 35 89 36 L61 39 L109 236 L282 236 L334 39 L315 36 C307 35 308 38 308 17 C308 -2 307 0 315 0 L320 0 C272 -30 198 -101 198 -157 C198 -201 244 -234 304 -234 C335 -234 370 -220 385 -201 L381 -196 C371 -209 343 -219 316 -219 C268 -219 232 -190 232 -151 C232 -89 312 -13 344 -1 L377 -1 L411 -1 L432 -1 C440 -1 439 -3 439 15 C439 37 440 34 432 35 L400 39 L400 39 Z M278 251 L113 251 L192 574 L278 251 L278 251 Z " />
<glyph glyph-name="aogonek" unicode="&#x105;" horiz-adv-x="365" d="M343 38 C331 26 314 17 292 17 C263 17 253 42 253 76 L253 359 C253 442 220 505 177 505 C123 505 75 462 64 405 L119 405 C129 453 149 489 166 489 C182 489 194 438 194 371 L194 248 L142 235 C82 220 36 163 36 102 C36 41 64 -5 101 -5 C121 -5 157 21 193 60 C195 19 211 -10 253 -10 C261 -10 268 -9 275 -8 C231 -44 183 -100 183 -147 C183 -196 229 -233 289 -233 C320 -233 355 -219 370 -200 L366 -195 C356 -208 328 -218 301 -218 C253 -218 217 -185 217 -141 C217 -88 271 -26 308 1 C323 8 336 18 347 29 L343 38 L343 38 Z M192 232 L192 70 C167 47 141 32 124 32 C104 32 89 68 89 116 C89 164 112 207 142 216 L192 232 L192 232 Z " />
<glyph glyph-name="Cacute" unicode="&#x106;" horiz-adv-x="597" d="M282 691 L393 819 C416 847 434 870 434 873 C434 880 411 897 402 897 C400 897 384 873 364 842 L276 696 L282 691 L282 691 Z M537 56 L533 64 L533 64 L537 56 L537 56 Z M537 56 L537 114 C537 123 536 129 534 129 C534 129 528 123 521 114 C500 91 469 57 448 34 C405 19 361 10 328 10 C214 10 127 148 127 330 C127 512 214 650 328 650 C361 650 405 641 448 626 C469 603 500 569 521 546 C528 537 534 531 534 531 C536 531 537 537 537 546 L537 604 L533 596 L533 596 L537 604 C477 639 387 665 329 665 C176 665 60 521 60 330 C60 139 176 -5 329 -5 C387 -5 477 21 537 56 L537 56 Z " />
<glyph glyph-name="cacute" unicode="&#x107;" horiz-adv-x="359" d="M135 531 L246 659 C269 687 287 710 287 713 C287 720 264 737 255 737 C252 737 237 713 218 682 L129 536 L135 531 L135 531 Z M308 44 L303 50 C288 38 255 29 225 29 C159 29 109 127 109 256 C109 389 151 490 206 490 C231 490 253 453 257 404 C258 388 270 376 285 376 C299 376 309 387 309 401 C304 460 262 505 213 505 C120 505 50 389 50 235 C50 98 105 -5 179 -5 C219 -5 274 16 308 44 L308 44 Z " />
<glyph glyph-name="Ccircumflex" unicode="&#x108;" horiz-adv-x="597" d="M329 841 L418 693 L424 698 L347 889 C345 894 339 905 329 905 C320 905 313 894 312 889 L235 698 L240 693 L329 841 L329 841 Z M537 56 L533 64 L533 64 L537 56 L537 56 Z M537 56 L537 114 C537 123 536 129 534 129 C534 129 528 123 521 114 C500 91 469 57 448 34 C405 19 361 10 328 10 C214 10 127 148 127 330 C127 512 214 650 328 650 C361 650 405 641 448 626 C469 603 500 569 521 546 C528 537 534 531 534 531 C536 531 537 537 537 546 L537 604 L533 596 L533 596 L537 604 C477 639 387 665 329 665 C176 665 60 521 60 330 C60 139 176 -5 329 -5 C387 -5 477 21 537 56 L537 56 Z " />
<glyph glyph-name="Cdot" unicode="&#x10a;" horiz-adv-x="597" d="M329 730 C348 730 363 745 363 764 C363 783 348 798 329 798 C310 798 295 783 295 764 C295 745 310 730 329 730 L329 730 Z M537 56 L533 64 L533 64 L537 56 L537 56 Z M537 56 L537 114 C537 123 536 129 534 129 C534 129 528 123 521 114 C500 91 469 57 448 34 C405 19 361 10 328 10 C214 10 127 148 127 330 C127 512 214 650 328 650 C361 650 405 641 448 626 C469 603 500 569 521 546 C528 537 534 531 534 531 C536 531 537 537 537 546 L537 604 L533 596 L533 596 L537 604 C477 639 387 665 329 665 C176 665 60 521 60 330 C60 139 176 -5 329 -5 C387 -5 477 21 537 56 L537 56 Z " />
<glyph glyph-name="cdot" unicode="&#x10b;" horiz-adv-x="359" d="M213 570 C232 570 246 585 246 604 C246 623 232 638 213 638 C193 638 179 623 179 604 C179 585 193 570 213 570 L213 570 Z M308 44 L303 50 C288 38 255 29 225 29 C159 29 109 127 109 256 C109 389 151 490 206 490 C231 490 253 453 257 404 C258 388 270 376 285 376 C299 376 309 387 309 401 C304 460 262 505 213 505 C120 505 50 389 50 235 C50 98 105 -5 179 -5 C219 -5 274 16 308 44 L308 44 Z " />
<glyph glyph-name="Ccaron" unicode="&#x10c;" horiz-adv-x="597" d="M329 779 L418 927 L424 922 L347 731 C345 726 339 715 329 715 C320 715 313 726 312 731 L235 922 L240 927 L329 779 L329 779 Z M537 56 L533 64 L533 64 L537 56 L537 56 Z M537 56 L537 114 C537 123 536 129 534 129 C534 129 528 123 521 114 C500 91 469 57 448 34 C405 19 361 10 328 10 C214 10 127 148 127 330 C127 512 214 650 328 650 C361 650 405 641 448 626 C469 603 500 569 521 546 C528 537 534 531 534 531 C536 531 537 537 537 546 L537 604 L533 596 L533 596 L537 604 C477 639 387 665 329 665 C176 665 60 521 60 330 C60 139 176 -5 329 -5 C387 -5 477 21 537 56 L537 56 Z " />
<glyph glyph-name="ccaron" unicode="&#x10d;" horiz-adv-x="359" d="M308 44 L303 50 C288 38 255 29 225 29 C159 29 109 127 109 256 C109 389 151 490 206 490 C231 490 253 453 257 404 C258 388 270 376 285 376 C299 376 309 387 309 401 C304 460 262 505 213 505 C120 505 50 389 50 235 C50 98 105 -5 179 -5 C219 -5 274 16 308 44 L308 44 Z M213 618 L301 767 L307 762 L230 571 C228 566 222 555 213 555 C203 555 197 566 195 571 L118 762 L124 767 L213 618 L213 618 Z " />
<glyph glyph-name="Dcaron" unicode="&#x10e;" horiz-adv-x="527" d="M246 778 L334 927 L340 922 L263 731 C262 726 255 715 246 715 C236 715 230 726 228 731 L151 922 L157 927 L246 778 L246 778 Z M107 0 L137 0 L208 0 C361 0 477 142 477 330 C477 518 354 660 190 660 L137 660 L107 660 L76 660 L49 660 C42 660 43 662 43 644 C43 622 42 625 50 624 L76 621 L76 39 L50 36 C42 35 43 38 43 16 C43 -2 42 0 49 0 L76 0 L107 0 L107 0 Z M137 15 L137 645 L190 645 C319 645 416 510 416 330 C416 150 326 15 208 15 L137 15 L137 15 Z " />
<glyph glyph-name="dcaron" unicode="&#x10f;" horiz-adv-x="476" d="M463 634 C475 679 485 733 485 741 C485 749 460 753 450 753 C440 753 431 689 428 646 L415 484 L422 482 L463 634 L463 634 Z M405 25 C405 13 406 10 399 23 C403 24 404 24 404 24 L405 25 L405 25 Z M404 24 L404 24 L404 24 L404 24 Z M398 22 C396 25 394 29 391 34 L365 83 L365 650 L365 705 L365 719 L353 719 L283 697 C281 696 279 695 277 695 C279 692 281 688 283 683 L309 634 L309 445 C285 478 248 503 214 503 C122 503 53 382 53 223 C53 92 113 -7 192 -7 C226 -7 275 15 309 45 L309 12 L309 -2 L320 -2 L391 20 C394 21 396 21 398 21 L398 22 L398 22 Z M272 692 C272 706 271 709 278 694 C273 693 272 693 272 693 L272 692 L272 692 Z M272 693 L272 693 L272 693 L272 693 Z M310 67 L310 54 C292 38 255 26 223 26 C160 26 112 119 112 243 C112 382 155 487 212 487 C249 487 289 454 310 416 L310 67 L310 67 Z " />
<glyph glyph-name="Emacron" unicode="&#x112;" horiz-adv-x="398" d="M104 769 L284 769 L284 800 L104 800 L104 769 L104 769 Z M336 8 C339 23 343 47 346 63 C347 68 348 71 348 73 C345 71 340 67 331 61 L259 14 L128 14 L128 343 L179 343 L239 314 C257 305 265 301 268 299 C268 301 268 305 268 314 L268 343 L268 351 L268 359 L268 385 C268 392 268 396 268 398 C263 396 254 392 239 385 L179 359 L128 359 L128 644 L251 644 L316 597 C323 592 327 589 330 587 C330 589 330 592 330 597 L330 652 L330 660 L323 660 L291 660 L128 660 L97 660 L66 660 L40 660 C32 660 33 662 33 644 C33 622 32 625 40 624 L66 621 L66 39 L40 36 C32 35 33 38 33 16 C33 -2 32 0 40 0 L66 0 L97 0 L128 0 L296 0 L333 0 L335 0 L336 8 L336 8 Z M348 76 C352 77 353 77 348 73 C348 74 348 75 348 75 L348 76 L348 76 Z M348 75 C348 76 348 75 347 75 L347 75 L348 75 L348 75 Z M265 298 C266 298 267 298 267 299 C269 298 268 298 265 298 L265 298 Z M265 298 C264 298 263 298 262 298 C263 298 264 298 265 298 L265 298 Z M266 400 C272 400 274 400 267 397 C267 399 267 400 266 400 L266 400 Z M266 400 C265 400 264 400 262 400 C263 400 264 400 265 400 L266 400 L266 400 Z M328 583 C328 583 328 584 328 586 C333 582 332 582 329 582 L328 583 L328 583 Z M329 582 L329 582 C330 582 330 582 330 582 L329 582 L329 582 Z " />
<glyph glyph-name="emacron" unicode="&#x113;" horiz-adv-x="365" d="M107 609 L287 609 L287 640 L107 640 L107 609 L107 609 Z M314 44 L309 50 C294 38 260 29 229 29 C160 29 109 127 109 256 C109 279 110 301 112 322 L264 322 L316 322 C316 426 265 504 197 504 C113 504 50 388 50 234 C50 97 107 -6 182 -6 C224 -6 281 15 314 43 L314 44 L314 44 Z M113 332 C124 425 155 489 193 489 C233 489 263 437 263 368 C263 354 253 342 239 341 L263 342 L113 332 L113 332 Z M239 341 C238 341 237 341 236 341 L239 341 L239 341 Z " />
<glyph glyph-name="Ebreve" unicode="&#x114;" horiz-adv-x="398" d="M139 872 C151 811 175 765 194 765 C214 765 238 811 250 872 L240 873 C232 833 212 802 194 802 C177 802 157 833 149 873 L139 872 L139 872 Z M336 8 C339 23 343 47 346 63 C347 68 348 71 348 73 C345 71 340 67 331 61 L259 14 L128 14 L128 343 L179 343 L239 314 C257 305 265 301 268 299 C268 301 268 305 268 314 L268 343 L268 351 L268 359 L268 385 C268 392 268 396 268 398 C263 396 254 392 239 385 L179 359 L128 359 L128 644 L251 644 L316 597 C323 592 327 589 330 587 C330 589 330 592 330 597 L330 652 L330 660 L323 660 L291 660 L128 660 L97 660 L66 660 L40 660 C32 660 33 662 33 644 C33 622 32 625 40 624 L66 621 L66 39 L40 36 C32 35 33 38 33 16 C33 -2 32 0 40 0 L66 0 L97 0 L128 0 L296 0 L333 0 L335 0 L336 8 L336 8 Z M348 76 C352 77 353 77 348 73 C348 74 348 75 348 75 L348 76 L348 76 Z M348 75 C348 76 348 75 347 75 L347 75 L348 75 L348 75 Z M265 298 C266 298 267 298 267 299 C269 298 268 298 265 298 L265 298 Z M265 298 C264 298 263 298 262 298 C263 298 264 298 265 298 L265 298 Z M266 400 C272 400 274 400 267 397 C267 399 267 400 266 400 L266 400 Z M266 400 C265 400 264 400 262 400 C263 400 264 400 265 400 L266 400 L266 400 Z M328 583 C328 583 328 584 328 586 C333 582 332 582 329 582 L328 583 L328 583 Z M329 582 L329 582 C330 582 330 582 330 582 L329 582 L329 582 Z " />
<glyph glyph-name="ebreve" unicode="&#x115;" horiz-adv-x="365" d="M142 712 C154 651 178 605 197 605 C217 605 241 651 253 712 L243 713 C235 673 215 642 197 642 C179 642 159 673 151 713 L142 712 L142 712 Z M314 44 L309 50 C294 38 260 29 229 29 C160 29 109 127 109 256 C109 279 110 301 112 322 L264 322 L316 322 C316 426 265 504 197 504 C113 504 50 388 50 234 C50 97 107 -6 182 -6 C224 -6 281 15 314 43 L314 44 L314 44 Z M113 332 C124 425 155 489 193 489 C233 489 263 437 263 368 C263 354 253 342 239 341 L263 342 L113 332 L113 332 Z M239 341 C238 341 237 341 236 341 L239 341 L239 341 Z " />
<glyph glyph-name="Edot" unicode="&#x116;" horiz-adv-x="398" d="M194 730 C214 730 228 745 228 764 C228 783 214 798 194 798 C175 798 161 783 161 764 C161 745 175 730 194 730 L194 730 Z M336 8 C339 23 343 47 346 63 C347 68 348 71 348 73 C345 71 340 67 331 61 L259 14 L128 14 L128 343 L179 343 L239 314 C257 305 265 301 268 299 C268 301 268 305 268 314 L268 343 L268 351 L268 359 L268 385 C268 392 268 396 268 398 C263 396 254 392 239 385 L179 359 L128 359 L128 644 L251 644 L316 597 C323 592 327 589 330 587 C330 589 330 592 330 597 L330 652 L330 660 L323 660 L291 660 L128 660 L97 660 L66 660 L40 660 C32 660 33 662 33 644 C33 622 32 625 40 624 L66 621 L66 39 L40 36 C32 35 33 38 33 16 C33 -2 32 0 40 0 L66 0 L97 0 L128 0 L296 0 L333 0 L335 0 L336 8 L336 8 Z M348 76 C352 77 353 77 348 73 C348 74 348 75 348 75 L348 76 L348 76 Z M348 75 C348 76 348 75 347 75 L347 75 L348 75 L348 75 Z M265 298 C266 298 267 298 267 299 C269 298 268 298 265 298 L265 298 Z M265 298 C264 298 263 298 262 298 C263 298 264 298 265 298 L265 298 Z M266 400 C272 400 274 400 267 397 C267 399 267 400 266 400 L266 400 Z M266 400 C265 400 264 400 262 400 C263 400 264 400 265 400 L266 400 L266 400 Z M328 583 C328 583 328 584 328 586 C333 582 332 582 329 582 L328 583 L328 583 Z M329 582 L329 582 C330 582 330 582 330 582 L329 582 L329 582 Z " />
<glyph glyph-name="edot" unicode="&#x117;" horiz-adv-x="365" d="M197 570 C217 570 231 585 231 604 C231 623 217 638 197 638 C178 638 163 623 163 604 C163 585 178 570 197 570 L197 570 Z M314 44 L309 50 C294 38 260 29 229 29 C160 29 109 127 109 256 C109 279 110 301 112 322 L264 322 L316 322 C316 426 265 504 197 504 C113 504 50 388 50 234 C50 97 107 -6 182 -6 C224 -6 281 15 314 43 L314 44 L314 44 Z M113 332 C124 425 155 489 193 489 C233 489 263 437 263 368 C263 354 253 342 239 341 L263 342 L113 332 L113 332 Z M239 341 C238 341 237 341 236 341 L239 341 L239 341 Z " />
<glyph glyph-name="Eogonek" unicode="&#x118;" horiz-adv-x="398" d="M336 8 C339 23 343 47 346 63 C347 68 348 71 348 73 C345 71 340 67 331 61 L259 14 L128 14 L128 343 L179 343 L239 314 C257 305 265 301 268 299 C268 301 268 305 268 314 L268 343 L268 351 L268 359 L268 385 C268 392 268 396 268 398 C263 396 254 392 239 385 L179 359 L128 359 L128 644 L251 644 L316 597 C323 592 327 589 330 587 C330 589 330 592 330 597 L330 652 L330 660 L323 660 L291 660 L128 660 L97 660 L66 660 L40 660 C32 660 33 662 33 644 C33 622 32 625 40 624 L66 621 L66 39 L40 36 C32 35 33 38 33 16 C33 -2 32 0 40 0 L66 0 L97 0 L128 0 L296 0 L309 0 C261 -30 187 -101 187 -157 C187 -201 233 -234 293 -234 C324 -234 359 -220 374 -201 L370 -196 C360 -209 332 -219 305 -219 C257 -219 221 -190 221 -151 C221 -89 301 -13 333 -1 L335 -1 L336 8 L336 8 Z M348 75 C352 76 353 76 348 72 C348 73 348 74 348 74 L348 75 L348 75 Z M348 74 C348 75 348 74 347 74 L347 74 L348 74 L348 74 Z M265 297 C266 297 267 297 267 298 C269 297 268 297 265 297 L265 297 Z M265 297 C264 297 263 297 262 297 C263 297 264 297 265 297 L265 297 Z M266 399 C272 399 274 399 267 396 C267 398 267 399 266 399 L266 399 Z M266 399 C265 399 264 399 262 399 C263 399 264 399 265 399 L266 399 L266 399 Z M328 582 C328 582 328 583 328 585 C333 581 332 581 329 581 L328 582 L328 582 Z M329 581 L329 581 C330 581 330 581 330 581 L329 581 L329 581 Z " />
<glyph glyph-name="eogonek" unicode="&#x119;" horiz-adv-x="365" d="M113 333 C124 426 155 490 193 490 C233 490 263 438 263 369 C263 355 253 343 239 342 L263 343 L113 333 L113 333 Z M111 323 L263 323 L315 323 C315 427 264 505 196 505 C112 505 49 389 49 235 C49 98 106 -5 181 -5 C189 -5 197 -4 205 -3 C158 -37 98 -100 98 -151 C98 -198 144 -233 204 -233 C234 -233 269 -219 285 -200 L281 -195 C270 -208 242 -218 216 -218 C168 -218 132 -187 132 -145 C132 -85 205 -12 239 5 C267 14 295 28 314 44 L309 50 C294 38 260 29 229 29 C160 29 109 127 109 256 C109 279 110 301 112 322 L111 323 L111 323 Z M240 341 C239 341 238 341 237 341 L240 341 L240 341 Z " />
<glyph glyph-name="Ecaron" unicode="&#x11a;" horiz-adv-x="398" d="M195 778 L283 927 L289 922 L212 731 C210 726 204 715 194 715 C185 715 179 726 177 731 L100 922 L106 927 L195 778 L195 778 Z M336 8 C339 23 343 47 346 63 C347 68 348 71 348 73 C345 71 340 67 331 61 L259 14 L128 14 L128 343 L179 343 L239 314 C257 305 265 301 268 299 C268 301 268 305 268 314 L268 343 L268 351 L268 359 L268 385 C268 392 268 396 268 398 C263 396 254 392 239 385 L179 359 L128 359 L128 644 L251 644 L316 597 C323 592 327 589 330 587 C330 589 330 592 330 597 L330 652 L330 660 L323 660 L291 660 L128 660 L97 660 L66 660 L40 660 C32 660 33 662 33 644 C33 622 32 625 40 624 L66 621 L66 39 L40 36 C32 35 33 38 33 16 C33 -2 32 0 40 0 L66 0 L97 0 L128 0 L296 0 L333 0 L335 0 L336 8 L336 8 Z M348 76 C352 77 353 77 348 73 C348 74 348 75 348 75 L348 76 L348 76 Z M348 75 C348 76 348 75 347 75 L347 75 L348 75 L348 75 Z M265 298 C266 298 267 298 267 299 C269 298 268 298 265 298 L265 298 Z M265 298 C264 298 263 298 262 298 C263 298 264 298 265 298 L265 298 Z M266 400 C272 400 274 400 267 397 C267 399 267 400 266 400 L266 400 Z M266 400 C265 400 264 400 262 400 C263 400 264 400 265 400 L266 400 L266 400 Z M328 583 C328 583 328 584 328 586 C333 582 332 582 329 582 L328 583 L328 583 Z M329 582 L329 582 C330 582 330 582 330 582 L329 582 L329 582 Z " />
<glyph glyph-name="ecaron" unicode="&#x11b;" horiz-adv-x="365" d="M314 44 L309 50 C294 38 260 29 229 29 C160 29 109 127 109 256 C109 279 110 301 112 322 L264 322 L316 322 C316 426 265 504 197 504 C113 504 50 388 50 234 C50 97 107 -6 182 -6 C224 -6 281 15 314 43 L314 44 L314 44 Z M198 617 L286 766 L292 761 L215 570 C213 565 207 554 197 554 C188 554 182 565 180 570 L103 761 L109 766 L198 617 L198 617 Z M113 332 C124 425 155 489 193 489 C233 489 263 437 263 368 C263 354 253 342 239 341 L263 342 L113 332 L113 332 Z M239 341 C238 341 237 341 236 341 L239 341 L239 341 Z " />
<glyph glyph-name="Gcircumflex" unicode="&#x11c;" horiz-adv-x="640" d="M319 842 L407 693 L413 698 L336 889 C334 894 328 905 318 905 C309 905 303 894 301 889 L224 698 L230 693 L319 842 L319 842 Z M467 271 L467 47 C416 25 358 10 318 10 C210 10 128 148 128 330 C128 512 210 650 318 650 C347 650 387 641 427 626 L427 626 C448 603 479 569 500 546 C507 537 513 531 513 531 C515 531 516 537 516 546 L516 604 L512 596 L512 596 L516 604 C456 639 370 665 317 665 C170 665 59 521 59 330 C59 139 170 -5 317 -5 C373 -5 461 22 521 57 L521 271 L548 274 C555 275 554 272 554 294 C555 312 556 310 548 310 L521 310 L494 310 L466 310 L440 310 C432 310 433 312 433 294 C433 272 432 275 440 274 L467 271 L467 271 Z " />
<glyph glyph-name="Gbreve" unicode="&#x11e;" horiz-adv-x="640" d="M263 872 C275 811 299 765 318 765 C338 765 362 811 374 872 L364 873 C356 833 336 802 318 802 C300 802 280 833 273 873 L263 872 L263 872 Z M467 271 L467 47 C416 25 358 10 318 10 C210 10 128 148 128 330 C128 512 210 650 318 650 C347 650 387 641 427 626 L427 626 C448 603 479 569 500 546 C507 537 513 531 513 531 C515 531 516 537 516 546 L516 604 L512 596 L512 596 L516 604 C456 639 370 665 317 665 C170 665 59 521 59 330 C59 139 170 -5 317 -5 C373 -5 461 22 521 57 L521 271 L548 274 C555 275 554 272 554 294 C555 312 556 310 548 310 L521 310 L494 310 L466 310 L440 310 C432 310 433 312 433 294 C433 272 432 275 440 274 L467 271 L467 271 Z " />
<glyph glyph-name="gbreve" unicode="&#x11f;" horiz-adv-x="347" d="M129 712 C141 651 165 605 185 605 C204 605 228 651 240 712 L230 713 C222 673 202 642 185 642 C167 642 147 673 139 713 L129 712 L129 712 Z M348 500 L229 494 C215 501 200 505 184 505 C117 505 67 438 67 350 C67 279 99 222 146 202 C91 196 51 159 51 111 C51 64 81 28 125 19 C68 -18 27 -72 27 -111 C27 -183 73 -237 133 -237 C245 -237 329 -155 329 -45 C329 23 268 74 187 74 L150 71 C115 69 89 96 89 134 C89 169 121 196 164 196 L186 196 C252 196 302 263 302 352 C302 402 286 446 260 474 L350 471 L348 500 L348 500 Z M122 352 C122 433 150 495 187 495 C223 495 251 433 251 352 C251 270 223 208 187 208 C150 208 122 270 122 352 L122 352 Z M139 18 C144 18 149 18 154 18 L173 21 C240 21 290 -20 290 -73 C290 -157 226 -221 141 -221 C98 -221 65 -171 65 -104 C65 -61 97 -9 140 18 L139 18 L139 18 Z " />
<glyph glyph-name="Gdot" unicode="&#x120;" horiz-adv-x="640" d="M318 730 C338 730 352 745 352 764 C352 783 338 798 318 798 C299 798 285 783 285 764 C285 745 299 730 318 730 L318 730 Z M467 271 L467 47 C416 25 358 10 318 10 C210 10 128 148 128 330 C128 512 210 650 318 650 C347 650 387 641 427 626 L427 626 C448 603 479 569 500 546 C507 537 513 531 513 531 C515 531 516 537 516 546 L516 604 L512 596 L512 596 L516 604 C456 639 370 665 317 665 C170 665 59 521 59 330 C59 139 170 -5 317 -5 C373 -5 461 22 521 57 L521 271 L548 274 C555 275 554 272 554 294 C555 312 556 310 548 310 L521 310 L494 310 L466 310 L440 310 C432 310 433 312 433 294 C433 272 432 275 440 274 L467 271 L467 271 Z " />
<glyph glyph-name="gdot" unicode="&#x121;" horiz-adv-x="347" d="M185 570 C204 570 218 585 218 604 C218 623 204 638 185 638 C165 638 151 623 151 604 C151 585 165 570 185 570 L185 570 Z M348 500 L229 494 C215 501 200 505 184 505 C117 505 67 438 67 350 C67 279 99 222 146 202 C91 196 51 159 51 111 C51 64 81 28 125 19 C68 -18 27 -72 27 -111 C27 -183 73 -237 133 -237 C245 -237 329 -155 329 -45 C329 23 268 74 187 74 L150 71 C115 69 89 96 89 134 C89 169 121 196 164 196 L186 196 C252 196 302 263 302 352 C302 402 286 446 260 474 L350 471 L348 500 L348 500 Z M122 352 C122 433 150 495 187 495 C223 495 251 433 251 352 C251 270 223 208 187 208 C150 208 122 270 122 352 L122 352 Z M139 18 C144 18 149 18 154 18 L173 21 C240 21 290 -20 290 -73 C290 -157 226 -221 141 -221 C98 -221 65 -171 65 -104 C65 -61 97 -9 140 18 L139 18 L139 18 Z " />
<glyph glyph-name="Hcircumflex" unicode="&#x124;" horiz-adv-x="552" d="M277 842 L365 693 L371 698 L294 889 C292 894 286 905 276 905 C267 905 261 894 259 889 L182 698 L188 693 L277 842 L277 842 Z M456 0 L487 0 L513 0 C520 0 519 -2 519 16 C519 38 520 35 513 36 L487 39 L487 621 L513 624 C520 625 519 622 519 644 C519 662 520 660 513 660 L487 660 L456 660 L425 660 L399 660 C391 660 392 662 392 644 C392 622 391 625 399 624 L425 621 L425 355 L128 355 L128 621 L154 624 C161 625 160 622 161 644 C160 662 161 660 154 660 L128 660 L97 660 L66 660 L40 660 C32 660 33 662 33 644 C33 622 32 625 40 624 L66 621 L66 39 L40 36 C32 35 33 38 33 16 C33 -2 32 0 40 0 L66 0 L97 0 L128 0 L154 0 C161 0 160 -2 161 16 C160 38 161 35 154 36 L128 39 L128 339 L425 339 L425 39 L399 36 C391 35 392 38 392 16 C392 -2 391 0 399 0 L425 0 L456 0 L456 0 Z " />
<glyph glyph-name="Itilde" unicode="&#x128;" horiz-adv-x="193" d="M39 755 C39 793 45 821 54 821 C90 821 89 758 125 758 C147 758 164 800 164 855 L155 855 C155 821 147 795 137 795 C101 795 102 858 66 858 C45 858 30 814 30 755 L39 755 L39 755 Z M97 0 L128 0 L154 0 C161 0 160 -2 161 16 C160 38 161 35 154 36 L128 39 L128 621 L154 624 C161 625 160 622 161 644 C160 662 161 660 154 660 L128 660 L97 660 L66 660 L40 660 C32 660 33 662 33 644 C33 622 32 625 40 624 L66 621 L66 39 L40 36 C32 35 33 38 33 16 C33 -2 32 0 40 0 L66 0 L97 0 L97 0 Z " />
<glyph glyph-name="itilde" unicode="&#x129;" horiz-adv-x="197" d="M41 595 C41 633 47 661 56 661 C92 661 91 598 127 598 C149 598 166 640 166 695 L157 695 C157 661 149 635 139 635 C103 635 104 698 68 698 C47 698 32 654 32 595 L41 595 L41 595 Z M33 450 C33 463 32 466 39 453 C35 452 34 452 34 452 L33 450 L33 450 Z M34 452 C34 452 34 452 34 451 L34 451 L34 452 L34 452 Z M40 453 C42 450 44 446 46 441 L72 392 L72 39 L46 36 C38 35 39 38 39 16 C39 -2 38 0 46 0 L72 0 L100 0 L128 0 L154 0 C161 0 160 -2 161 16 C160 38 161 35 154 36 L128 39 L128 407 L128 461 L128 476 L117 476 L46 454 C44 453 42 452 40 452 L40 453 L40 453 Z " />
<glyph glyph-name="Imacron" unicode="&#x12a;" horiz-adv-x="193" d="M7 769 L187 769 L187 800 L7 800 L7 769 L7 769 Z M97 0 L128 0 L154 0 C161 0 160 -2 161 16 C160 38 161 35 154 36 L128 39 L128 621 L154 624 C161 625 160 622 161 644 C160 662 161 660 154 660 L128 660 L97 660 L66 660 L40 660 C32 660 33 662 33 644 C33 622 32 625 40 624 L66 621 L66 39 L40 36 C32 35 33 38 33 16 C33 -2 32 0 40 0 L66 0 L97 0 L97 0 Z " />
<glyph glyph-name="imacron" unicode="&#x12b;" horiz-adv-x="197" d="M9 609 L189 609 L189 640 L9 640 L9 609 L9 609 Z M33 450 C33 463 32 466 39 453 C35 452 34 452 34 452 L33 450 L33 450 Z M34 452 C34 452 34 452 34 451 L34 451 L34 452 L34 452 Z M40 453 C42 450 44 446 46 441 L72 392 L72 39 L46 36 C38 35 39 38 39 16 C39 -2 38 0 46 0 L72 0 L100 0 L128 0 L154 0 C161 0 160 -2 161 16 C160 38 161 35 154 36 L128 39 L128 407 L128 461 L128 476 L117 476 L46 454 C44 453 42 452 40 452 L40 453 L40 453 Z " />
<glyph glyph-name="Ibreve" unicode="&#x12c;" horiz-adv-x="193" d="M41 872 C53 811 77 765 97 765 C117 765 141 811 152 872 L143 873 C135 833 115 802 97 802 C79 802 59 833 51 873 L41 872 L41 872 Z M97 0 L128 0 L154 0 C161 0 160 -2 161 16 C160 38 161 35 154 36 L128 39 L128 621 L154 624 C161 625 160 622 161 644 C160 662 161 660 154 660 L128 660 L97 660 L66 660 L40 660 C32 660 33 662 33 644 C33 622 32 625 40 624 L66 621 L66 39 L40 36 C32 35 33 38 33 16 C33 -2 32 0 40 0 L66 0 L97 0 L97 0 Z " />
<glyph glyph-name="ibreve" unicode="&#x12d;" horiz-adv-x="197" d="M43 712 C55 651 79 605 99 605 C119 605 143 651 154 712 L145 713 C137 673 117 642 99 642 C81 642 61 673 53 713 L43 712 L43 712 Z M33 450 C33 463 32 466 39 453 C35 452 34 452 34 452 L33 450 L33 450 Z M34 452 C34 452 34 452 34 451 L34 451 L34 452 L34 452 Z M40 453 C42 450 44 446 46 441 L72 392 L72 39 L46 36 C38 35 39 38 39 16 C39 -2 38 0 46 0 L72 0 L100 0 L128 0 L154 0 C161 0 160 -2 161 16 C160 38 161 35 154 36 L128 39 L128 407 L128 461 L128 476 L117 476 L46 454 C44 453 42 452 40 452 L40 453 L40 453 Z " />
<glyph glyph-name="Idot" unicode="&#x130;" horiz-adv-x="193" d="M97 730 C116 730 131 745 131 764 C131 783 116 798 97 798 C78 798 63 783 63 764 C63 745 78 730 97 730 L97 730 Z M97 0 L128 0 L154 0 C161 0 160 -2 161 16 C160 38 161 35 154 36 L128 39 L128 621 L154 624 C161 625 160 622 161 644 C160 662 161 660 154 660 L128 660 L97 660 L66 660 L40 660 C32 660 33 662 33 644 C33 622 32 625 40 624 L66 621 L66 39 L40 36 C32 35 33 38 33 16 C33 -2 32 0 40 0 L66 0 L97 0 L97 0 Z " />
<glyph glyph-name="dotlessi" unicode="&#x131;" horiz-adv-x="197" d="M33 450 C33 463 32 466 39 453 C35 452 34 452 34 452 L33 450 L33 450 Z M34 452 C34 452 34 452 34 451 L34 451 L34 452 L34 452 Z M40 453 C42 450 44 446 46 441 L72 392 L72 39 L46 36 C38 35 39 38 39 16 C39 -2 38 0 46 0 L72 0 L100 0 L128 0 L154 0 C161 0 160 -2 161 16 C160 38 161 35 154 36 L128 39 L128 407 L128 461 L128 476 L117 476 L46 454 C44 453 42 452 40 452 L40 453 L40 453 Z " />
<glyph glyph-name="Jcircumflex" unicode="&#x134;" horiz-adv-x="229" d="M133 842 L221 693 L227 698 L150 889 C149 894 142 905 133 905 C123 905 117 894 115 889 L38 698 L44 693 L133 842 L133 842 Z M102 621 L102 200 C102 65 94 2 77 2 C67 2 56 23 52 50 C50 64 38 75 24 75 C8 75 -2 64 0 50 C5 16 32 -10 61 -10 C132 -10 164 73 164 252 L163 621 L190 624 C197 625 196 622 196 644 C197 662 198 660 190 660 L163 660 L133 660 L102 660 L76 660 C68 660 69 662 69 644 C69 622 68 625 76 624 L102 621 L102 621 Z " />
<glyph glyph-name="Lacute" unicode="&#x139;" horiz-adv-x="398" d="M73 691 L183 819 C207 847 224 870 224 873 C224 880 202 897 193 897 C190 897 175 873 155 842 L67 696 L73 691 L73 691 Z M336 8 C339 24 344 49 346 65 C349 81 350 79 345 79 C335 80 338 81 321 68 L259 15 L128 15 L128 621 L154 624 C161 625 160 622 161 644 C160 662 161 660 154 660 L128 660 L97 660 L66 660 L40 660 C32 660 33 662 33 644 C33 622 32 625 40 624 L66 621 L66 39 L40 36 C32 35 33 38 33 16 C33 -2 32 0 40 0 L66 0 L97 0 L128 0 L296 0 L333 0 L335 0 L336 8 L336 8 Z " />
<glyph glyph-name="Lcaron" unicode="&#x13d;" horiz-adv-x="398" d="M250 574 C263 619 272 673 272 681 C272 689 247 693 238 693 C227 693 218 629 215 586 L202 424 L209 422 L250 574 L250 574 Z M336 8 C339 24 344 49 346 65 C349 81 350 79 345 79 C335 80 338 81 321 68 L259 15 L128 15 L128 621 L154 624 C161 625 160 622 161 644 C160 662 161 660 154 660 L128 660 L97 660 L66 660 L40 660 C32 660 33 662 33 644 C33 622 32 625 40 624 L66 621 L66 39 L40 36 C32 35 33 38 33 16 C33 -2 32 0 40 0 L66 0 L97 0 L128 0 L296 0 L333 0 L335 0 L336 8 L336 8 Z " />
<glyph glyph-name="lcaron" unicode="&#x13e;" horiz-adv-x="197" d="M223 604 C235 649 245 703 245 711 C245 719 220 723 210 723 C200 723 191 659 188 616 L175 454 L182 452 L223 604 L223 604 Z M33 695 C33 709 32 712 39 697 C34 696 33 696 33 696 L33 695 L33 695 Z M33 696 L33 696 L33 696 L33 696 Z M39 698 C41 695 43 691 45 686 L71 637 L71 40 L45 37 C37 36 38 39 38 17 C38 -1 37 1 45 1 L71 1 L99 1 L127 1 L153 1 C160 1 159 -1 160 17 C159 39 160 36 153 37 L127 40 L127 652 L127 707 L127 721 L116 721 L45 699 C43 698 41 697 39 697 L39 698 L39 698 Z " />
<glyph glyph-name="Lslash" unicode="&#x141;" horiz-adv-x="398" d="M16 271 L66 294 L66 39 L40 36 C32 35 33 38 33 16 C33 -2 32 0 40 0 L66 0 L97 0 L128 0 L296 0 L333 0 L335 0 L336 8 C339 24 344 49 346 65 C349 81 350 79 345 79 C335 80 338 81 321 68 L259 15 L128 15 L128 323 L230 371 L230 389 L128 341 L128 621 L154 624 C161 625 160 622 161 644 C160 662 161 660 154 660 L128 660 L97 660 L66 660 L40 660 C32 660 33 662 33 644 C33 622 32 625 40 624 L66 621 L66 312 L16 289 L16 271 L16 271 Z " />
<glyph glyph-name="lslash" unicode="&#x142;" horiz-adv-x="197" d="M-29 301 L71 340 L71 39 L45 36 C37 35 38 38 38 16 C38 -2 37 0 45 0 L71 0 L99 0 L127 0 L153 0 C160 0 159 -2 160 16 C159 38 160 35 153 36 L127 39 L127 362 L227 401 L227 419 L127 380 L127 651 L127 706 L127 720 L116 720 L45 698 C43 697 41 696 39 696 C41 693 43 689 45 684 L71 635 L71 357 L-29 318 L-29 301 L-29 301 Z M33 694 C33 708 32 711 39 696 C34 695 33 695 33 695 L33 694 L33 694 Z M33 695 L33 695 L33 695 L33 695 Z " />
<glyph glyph-name="Nacute" unicode="&#x143;" horiz-adv-x="479" d="M212 691 L323 819 C346 847 364 870 364 873 C364 880 341 897 332 897 C330 897 314 873 295 842 L206 696 L212 691 L212 691 Z M401 621 L401 98 L124 660 L87 635 L87 635 L124 660 L87 660 L78 660 L69 660 L42 660 C35 660 36 662 36 644 C36 622 35 625 42 624 L69 621 L69 39 L42 36 C35 35 36 38 36 16 C36 -2 35 0 42 0 L69 0 L78 0 L87 0 L113 0 C121 0 120 -2 120 16 C120 38 121 35 113 36 L87 39 L87 597 L373 25 L391 -12 L420 -12 L420 47 L420 621 L446 624 C453 625 452 622 453 644 C452 662 453 660 446 660 L420 660 L410 660 L401 660 L375 660 C367 660 368 662 368 644 C368 622 367 625 375 624 L401 621 L401 621 Z " />
<glyph glyph-name="nacute" unicode="&#x144;" horiz-adv-x="403" d="M127 531 L238 659 C261 687 279 710 279 713 C279 720 256 737 247 737 C244 737 229 713 209 682 L121 536 L127 531 L127 531 Z M33 475 C33 489 32 492 39 477 C34 476 33 476 33 476 L33 475 L33 475 Z M33 476 L33 476 L33 476 L33 476 Z M39 478 C41 475 43 471 45 466 L71 417 L71 40 L45 37 C37 36 38 39 38 17 C38 -1 37 1 45 1 L71 1 L99 1 L126 1 L153 1 C161 1 160 -1 159 17 C160 39 161 36 152 37 L126 40 L126 432 L126 434 C163 454 200 468 214 468 C261 468 282 409 282 331 L282 39 L256 36 C248 35 249 38 249 16 C249 -2 248 0 256 0 L282 0 L310 0 L338 0 L364 0 C371 0 370 -2 371 16 C370 38 371 35 364 36 L338 39 L338 336 C338 433 312 505 257 505 C250 505 194 478 126 441 L126 448 L126 501 L115 501 L45 479 C43 478 41 477 39 477 L39 478 L39 478 Z " />
<glyph glyph-name="Ncaron" unicode="&#x147;" horiz-adv-x="479" d="M244 779 L333 927 L338 922 L262 731 C260 726 254 715 244 715 C235 715 228 726 227 731 L150 922 L155 927 L244 779 L244 779 Z M401 621 L401 98 L124 660 L87 635 L87 635 L124 660 L87 660 L78 660 L69 660 L42 660 C35 660 36 662 36 644 C36 622 35 625 42 624 L69 621 L69 39 L42 36 C35 35 36 38 36 16 C36 -2 35 0 42 0 L69 0 L78 0 L87 0 L113 0 C121 0 120 -2 120 16 C120 38 121 35 113 36 L87 39 L87 597 L373 25 L391 -12 L420 -12 L420 47 L420 621 L446 624 C453 625 452 622 453 644 C452 662 453 660 446 660 L420 660 L410 660 L401 660 L375 660 C367 660 368 662 368 644 C368 622 367 625 375 624 L401 621 L401 621 Z " />
<glyph glyph-name="ncaron" unicode="&#x148;" horiz-adv-x="403" d="M205 618 L293 767 L299 762 L222 571 C220 566 214 555 204 555 C195 555 189 566 187 571 L110 762 L116 767 L205 618 L205 618 Z M33 475 C33 489 32 492 39 477 C34 476 33 476 33 476 L33 475 L33 475 Z M33 476 L33 476 L33 476 L33 476 Z M39 478 C41 475 43 471 45 466 L71 417 L71 40 L45 37 C37 36 38 39 38 17 C38 -1 37 1 45 1 L71 1 L99 1 L126 1 L153 1 C161 1 160 -1 159 17 C160 39 161 36 152 37 L126 40 L126 432 L126 434 C163 454 200 468 214 468 C261 468 282 409 282 331 L282 39 L256 36 C248 35 249 38 249 16 C249 -2 248 0 256 0 L282 0 L310 0 L338 0 L364 0 C371 0 370 -2 371 16 C370 38 371 35 364 36 L338 39 L338 336 C338 433 312 505 257 505 C250 505 194 478 126 441 L126 448 L126 501 L115 501 L45 479 C43 478 41 477 39 477 L39 478 L39 478 Z " />
<glyph glyph-name="Omacron" unicode="&#x14c;" horiz-adv-x="639" d="M235 769 L415 769 L415 800 L235 800 L235 769 L235 769 Z M325 10 C201 10 128 166 128 330 C128 494 201 650 325 650 C448 650 521 494 521 330 C521 166 448 10 325 10 L325 10 Z M60 330 C60 158 159 -5 325 -5 C490 -5 589 158 589 330 C589 502 490 665 325 665 C159 665 60 502 60 330 L60 330 Z " />
<glyph glyph-name="omacron" unicode="&#x14d;" horiz-adv-x="470" d="M145 609 L325 609 L325 640 L145 640 L145 609 L145 609 Z M235 7 C165 7 112 111 112 250 C112 389 165 493 235 493 C306 493 359 389 359 250 C359 111 306 7 235 7 L235 7 Z M50 250 C50 105 130 -5 235 -5 C341 -5 420 105 420 250 C420 395 341 505 235 505 C130 505 50 395 50 250 L50 250 Z " />
<glyph glyph-name="Obreve" unicode="&#x14e;" horiz-adv-x="639" d="M269 872 C281 811 305 765 325 765 C344 765 368 811 380 872 L370 873 C362 833 342 802 325 802 C307 802 287 833 279 873 L269 872 L269 872 Z M325 10 C201 10 128 166 128 330 C128 494 201 650 325 650 C448 650 521 494 521 330 C521 166 448 10 325 10 L325 10 Z M60 330 C60 158 159 -5 325 -5 C490 -5 589 158 589 330 C589 502 490 665 325 665 C159 665 60 502 60 330 L60 330 Z " />
<glyph glyph-name="obreve" unicode="&#x14f;" horiz-adv-x="470" d="M180 712 C191 651 215 605 235 605 C255 605 279 651 291 712 L281 713 C273 673 253 642 235 642 C217 642 197 673 189 713 L180 712 L180 712 Z M235 7 C165 7 112 111 112 250 C112 389 165 493 235 493 C306 493 359 389 359 250 C359 111 306 7 235 7 L235 7 Z M50 250 C50 105 130 -5 235 -5 C341 -5 420 105 420 250 C420 395 341 505 235 505 C130 505 50 395 50 250 L50 250 Z " />
<glyph glyph-name="Racute" unicode="&#x154;" horiz-adv-x="447" d="M141 691 L251 819 C275 847 292 870 293 873 C292 880 270 897 261 897 C258 897 243 873 223 842 L135 696 L141 691 L141 691 Z M447 0 L447 12 L442 12 C424 12 418 19 371 94 L229 322 C307 342 361 407 361 489 C361 586 286 659 188 659 L137 659 L107 659 L76 659 L49 659 C42 659 43 661 43 643 C43 621 42 624 50 623 L76 620 L76 38 L50 35 C42 34 43 37 43 15 C43 -3 42 -1 49 -1 L76 -1 L107 -1 L137 -1 L164 -1 C172 -1 171 -3 170 15 C171 37 172 34 164 35 L137 38 L137 315 L159 315 L287 105 C345 8 357 -1 423 -1 L447 0 L447 0 Z M177 331 L149 331 L137 331 L137 644 L188 644 C249 644 296 577 296 489 C296 399 245 331 177 331 L177 331 Z " />
<glyph glyph-name="Rcaron" unicode="&#x158;" horiz-adv-x="397" d="M218 779 L307 927 L313 922 L236 731 C234 726 228 715 218 715 C209 715 202 726 201 731 L124 922 L129 927 L218 779 L218 779 Z M230 323 C308 343 362 408 362 490 C362 587 287 660 189 660 L138 660 L108 660 L77 660 L50 660 C43 660 44 662 44 644 C44 622 43 625 51 624 L77 621 L77 39 L51 36 C43 35 44 38 44 16 C44 -2 43 0 50 0 L77 0 L108 0 L138 0 L165 0 C173 0 172 -2 171 16 C172 38 173 35 165 36 L138 39 L138 316 L178 316 C237 154 332 0 398 -43 L404 -34 C374 -15 300 139 233 323 L230 323 L230 323 Z M138 332 L138 645 L189 645 C250 645 297 578 297 490 C297 400 246 332 178 332 L138 332 L138 332 Z " />
<glyph glyph-name="rcaron" unicode="&#x159;" horiz-adv-x="306" d="M152 619 L241 767 L246 762 L170 571 C168 566 162 555 152 555 C143 555 136 566 135 571 L58 762 L63 767 L152 619 L152 619 Z M33 475 C33 489 32 492 39 477 C34 476 33 476 33 476 L33 475 L33 475 Z M33 476 L33 476 L33 476 L33 476 Z M39 478 C41 475 43 471 45 466 L71 417 L71 40 L45 37 C37 36 38 39 38 17 C38 -1 37 1 45 1 L71 1 L99 1 L126 1 L153 1 C161 1 160 -1 159 17 C160 39 161 36 152 37 L126 40 L126 422 C147 447 173 464 188 464 C213 464 244 440 269 440 C284 440 295 452 295 467 C295 489 275 505 232 505 C206 505 161 473 125 430 L125 432 L125 448 L123 448 L118 501 L107 501 L44 479 C42 478 40 477 38 477 L39 478 L39 478 Z " />
<glyph glyph-name="Sacute" unicode="&#x15a;" horiz-adv-x="385" d="M138 691 L249 819 C272 847 290 870 290 873 C290 880 267 897 258 897 C256 897 240 873 220 842 L132 696 L138 691 L138 691 Z M216 638 L216 638 C237 613 268 577 289 552 C296 544 301 538 302 538 C304 538 305 544 305 552 L305 615 L300 605 L300 605 L306 615 C256 643 206 665 189 665 C110 665 51 586 51 481 C51 418 101 344 166 309 C241 268 297 197 297 144 C297 67 254 10 197 10 C182 10 158 16 131 26 L131 27 C111 50 79 84 59 108 C51 116 46 122 45 122 C43 122 42 116 42 108 L42 45 C92 17 158 -5 196 -5 C278 -5 340 70 340 169 C340 233 283 311 208 351 C142 386 93 453 93 505 C93 588 133 650 185 650 C189 650 200 646 216 638 L216 638 Z " />
<glyph glyph-name="sacute" unicode="&#x15b;" horiz-adv-x="302" d="M83 531 L194 659 C217 687 235 710 235 713 C235 720 212 737 203 737 C201 737 185 713 166 682 L77 536 L83 531 L83 531 Z M165 480 L165 480 C178 462 198 436 211 418 C216 412 221 408 224 408 C227 408 229 412 229 418 L229 461 C186 486 156 505 161 505 C106 505 64 450 64 377 C64 327 95 264 136 230 C176 198 206 149 206 117 C206 55 181 8 147 8 C144 8 137 11 127 15 L127 15 C109 34 81 62 63 80 C56 88 51 93 51 93 C50 93 49 88 49 81 L49 34 L53 42 L53 42 L49 34 C87 12 128 -5 145 -5 C206 -5 253 56 253 137 C253 178 220 234 177 270 C137 301 108 355 108 396 C108 451 131 493 162 493 C155 493 157 488 166 480 L165 480 L165 480 Z " />
<glyph glyph-name="Scircumflex" unicode="&#x15c;" horiz-adv-x="385" d="M185 841 L274 693 L280 698 L203 889 C201 894 195 905 185 905 C176 905 169 894 168 889 L91 698 L96 693 L185 841 L185 841 Z M216 638 L216 638 C237 613 268 577 289 552 C296 544 301 538 302 538 C304 538 305 544 305 552 L305 615 L300 605 L300 605 L306 615 C256 643 206 665 189 665 C110 665 51 586 51 481 C51 418 101 344 166 309 C241 268 297 197 297 144 C297 67 254 10 197 10 C182 10 158 16 131 26 L131 27 C111 50 79 84 59 108 C51 116 46 122 45 122 C43 122 42 116 42 108 L42 45 C92 17 158 -5 196 -5 C278 -5 340 70 340 169 C340 233 283 311 208 351 C142 386 93 453 93 505 C93 588 133 650 185 650 C189 650 200 646 216 638 L216 638 Z " />
<glyph glyph-name="Scedilla" unicode="&#x15e;" horiz-adv-x="385" d="M185 -77 L209 -4 C284 4 339 76 339 169 C339 233 282 311 207 351 C141 386 92 453 92 505 C92 588 132 650 184 650 C188 650 199 646 215 638 L215 638 C236 613 267 577 288 552 C295 544 300 538 301 538 C303 538 304 544 304 552 L304 615 L299 605 L299 605 L305 615 C255 643 205 665 188 665 C109 665 50 586 50 481 C50 418 100 344 165 309 C240 268 296 197 296 144 C296 67 253 10 196 10 C181 10 157 16 130 26 L130 27 C110 50 78 84 58 108 C50 116 45 122 44 122 C42 122 41 116 41 108 L41 45 C89 18 151 -3 190 -5 L174 -93 L179 -93 C185 -85 193 -78 196 -78 C206 -78 213 -102 213 -134 C213 -174 201 -204 185 -204 C170 -204 153 -198 145 -190 L144 -197 C157 -210 179 -220 196 -220 C225 -220 247 -183 247 -134 C247 -96 231 -67 209 -67 C201 -67 191 -71 185 -77 L185 -77 Z " />
<glyph glyph-name="scedilla" unicode="&#x15f;" horiz-adv-x="302" d="M132 -78 L158 -4 C212 4 252 62 252 137 C252 178 219 234 176 270 C136 301 107 355 107 396 C107 451 130 493 161 493 C154 493 156 488 165 480 L165 480 C178 462 198 436 211 418 C216 412 221 408 224 408 C227 408 229 412 229 418 L229 461 C186 486 156 505 161 505 C106 505 64 450 64 377 C64 327 95 264 136 230 C176 198 206 149 206 117 C206 55 181 8 147 8 C144 8 137 11 127 15 L127 15 C109 34 81 62 63 80 C56 88 51 93 51 93 C50 93 49 88 49 81 L49 34 L53 42 L53 42 L49 34 C84 14 121 -2 140 -5 L124 -93 L128 -93 C135 -85 142 -78 146 -78 C156 -78 163 -102 163 -134 C163 -174 151 -204 134 -204 C119 -204 102 -198 95 -190 L94 -197 C106 -210 129 -220 146 -220 C175 -220 197 -183 197 -134 C197 -96 181 -67 159 -67 C150 -67 139 -72 133 -79 L132 -78 L132 -78 Z " />
<glyph glyph-name="Scaron" unicode="&#x160;" horiz-adv-x="385" d="M185 779 L274 927 L280 922 L203 731 C201 726 195 715 185 715 C176 715 169 726 168 731 L91 922 L96 927 L185 779 L185 779 Z M216 638 L216 638 C237 613 268 577 289 552 C296 544 301 538 302 538 C304 538 305 544 305 552 L305 615 L300 605 L300 605 L306 615 C256 643 206 665 189 665 C110 665 51 586 51 481 C51 418 101 344 166 309 C241 268 297 197 297 144 C297 67 254 10 197 10 C182 10 158 16 131 26 L131 27 C111 50 79 84 59 108 C51 116 46 122 45 122 C43 122 42 116 42 108 L42 45 C92 17 158 -5 196 -5 C278 -5 340 70 340 169 C340 233 283 311 208 351 C142 386 93 453 93 505 C93 588 133 650 185 650 C189 650 200 646 216 638 L216 638 Z " />
<glyph glyph-name="scaron" unicode="&#x161;" horiz-adv-x="302" d="M161 618 L249 767 L255 762 L178 571 C177 566 170 555 161 555 C151 555 145 566 143 571 L66 762 L72 767 L161 618 L161 618 Z M165 480 L165 480 C178 462 198 436 211 418 C216 412 221 408 224 408 C227 408 229 412 229 418 L229 461 C186 486 156 505 161 505 C106 505 64 450 64 377 C64 327 95 264 136 230 C176 198 206 149 206 117 C206 55 181 8 147 8 C144 8 137 11 127 15 L127 15 C109 34 81 62 63 80 C56 88 51 93 51 93 C50 93 49 88 49 81 L49 34 L53 42 L53 42 L49 34 C87 12 128 -5 145 -5 C206 -5 253 56 253 137 C253 178 220 234 177 270 C137 301 108 355 108 396 C108 451 131 493 162 493 C155 493 157 488 166 480 L165 480 L165 480 Z " />
<glyph glyph-name="Tcaron" unicode="&#x164;" horiz-adv-x="500" d="M250 779 L339 927 L344 922 L268 731 C266 726 259 715 250 715 C241 715 234 726 232 731 L156 922 L161 927 L250 779 L250 779 Z M482 578 C482 578 482 579 482 581 C487 577 485 578 482 578 L482 578 Z M482 578 L482 578 L482 578 L482 578 Z M482 581 C482 583 482 586 482 592 C480 609 478 635 477 652 L476 660 L461 660 L437 660 L65 660 L41 660 L26 660 L25 652 C24 635 22 609 20 592 C20 586 20 583 20 581 C23 583 28 586 36 592 L109 645 L220 645 L220 39 L194 36 C186 35 187 38 187 16 C187 -2 186 0 194 0 L220 0 L251 0 L282 0 L308 0 C316 0 315 -2 315 16 C315 38 316 35 308 36 L282 39 L282 645 L393 645 L466 592 C474 586 479 583 482 581 L482 581 Z M19 578 C16 578 14 577 19 581 C19 579 19 578 19 578 L19 578 Z M19 578 L19 578 L19 578 L19 578 Z " />
<glyph glyph-name="tcaron" unicode="&#x165;" horiz-adv-x="294" d="M264 500 L129 500 L129 640 L119 640 L101 576 C86 528 54 489 25 485 L25 478 L73 478 L73 111 C73 25 93 -5 151 -5 C199 -5 241 16 275 44 L271 49 C251 32 221 20 178 20 C141 20 128 41 128 102 L129 478 L264 478 L264 500 L264 500 Z M360 604 C372 649 382 703 382 711 C382 719 357 723 347 723 C337 723 328 659 325 616 L312 454 L319 452 L360 604 L360 604 Z M102 578 L102 580 C102 579 102 578 102 578 L102 578 Z " />
<glyph glyph-name="Utilde" unicode="&#x168;" horiz-adv-x="462" d="M181 755 C181 793 187 821 196 821 C232 821 231 758 267 758 C289 758 306 800 306 855 L297 855 C297 821 289 795 279 795 C243 795 244 858 208 858 C188 858 172 814 172 755 L181 755 L181 755 Z M66 621 L66 204 C66 85 122 -5 243 -5 C358 -5 412 72 412 174 L412 621 L442 624 C450 625 449 622 449 644 C449 662 450 660 442 660 L412 660 L403 660 L394 660 L362 660 C355 660 356 662 356 644 C356 622 355 625 363 624 L394 621 L394 180 C394 87 349 17 252 17 C166 17 127 92 127 192 L127 621 L154 624 C162 625 161 622 160 644 C161 662 162 660 154 660 L127 660 L97 660 L66 660 L39 660 C32 660 33 662 33 644 C33 622 32 625 40 624 L66 621 L66 621 Z " />
<glyph glyph-name="utilde" unicode="&#x169;" horiz-adv-x="368" d="M117 595 C117 633 123 661 131 661 C167 661 166 598 202 598 C224 598 241 640 241 695 L232 695 C232 661 224 635 214 635 C178 635 179 698 143 698 C123 698 107 654 107 595 L117 595 L117 595 Z M340 23 C338 26 336 30 333 35 L307 84 L307 500 L279 500 L251 500 L225 500 C217 500 218 502 218 484 C218 462 217 465 225 464 L251 461 L251 69 L251 65 C230 45 203 30 179 30 C126 30 94 86 94 160 L94 499 L67 499 L39 499 L13 499 C5 499 6 501 6 483 C6 461 5 464 13 463 L39 460 L39 155 C39 63 75 -6 135 -6 C170 -6 212 20 250 55 L250 13 L250 -1 L261 -1 L332 21 C335 22 337 22 339 22 L340 23 L340 23 Z M339 22 C345 23 344 23 345 25 C345 12 346 9 339 23 L339 22 L339 22 Z " />
<glyph glyph-name="Umacron" unicode="&#x16a;" horiz-adv-x="462" d="M149 769 L329 769 L329 800 L149 800 L149 769 L149 769 Z M66 621 L66 204 C66 85 122 -5 243 -5 C358 -5 412 72 412 174 L412 621 L442 624 C450 625 449 622 449 644 C449 662 450 660 442 660 L412 660 L403 660 L394 660 L362 660 C355 660 356 662 356 644 C356 622 355 625 363 624 L394 621 L394 180 C394 87 349 17 252 17 C166 17 127 92 127 192 L127 621 L154 624 C162 625 161 622 160 644 C161 662 162 660 154 660 L127 660 L97 660 L66 660 L39 660 C32 660 33 662 33 644 C33 622 32 625 40 624 L66 621 L66 621 Z " />
<glyph glyph-name="umacron" unicode="&#x16b;" horiz-adv-x="368" d="M84 609 L264 609 L264 640 L84 640 L84 609 L84 609 Z M340 23 C338 26 336 30 333 35 L307 84 L307 500 L279 500 L251 500 L225 500 C217 500 218 502 218 484 C218 462 217 465 225 464 L251 461 L251 69 L251 65 C230 45 203 30 179 30 C126 30 94 86 94 160 L94 499 L67 499 L39 499 L13 499 C5 499 6 501 6 483 C6 461 5 464 13 463 L39 460 L39 155 C39 63 75 -6 135 -6 C170 -6 212 20 250 55 L250 13 L250 -1 L261 -1 L332 21 C335 22 337 22 339 22 L340 23 L340 23 Z M339 22 C345 23 344 23 345 25 C345 12 346 9 339 23 L339 22 L339 22 Z " />
<glyph glyph-name="Ubreve" unicode="&#x16c;" horiz-adv-x="462" d="M184 872 C195 811 219 765 239 765 C259 765 283 811 295 872 L285 873 C277 833 257 802 239 802 C221 802 201 833 193 873 L184 872 L184 872 Z M66 621 L66 204 C66 85 122 -5 243 -5 C358 -5 412 72 412 174 L412 621 L442 624 C450 625 449 622 449 644 C449 662 450 660 442 660 L412 660 L403 660 L394 660 L362 660 C355 660 356 662 356 644 C356 622 355 625 363 624 L394 621 L394 180 C394 87 349 17 252 17 C166 17 127 92 127 192 L127 621 L154 624 C162 625 161 622 160 644 C161 662 162 660 154 660 L127 660 L97 660 L66 660 L39 660 C32 660 33 662 33 644 C33 622 32 625 40 624 L66 621 L66 621 Z " />
<glyph glyph-name="ubreve" unicode="&#x16d;" horiz-adv-x="368" d="M119 712 C131 651 155 605 174 605 C194 605 218 651 230 712 L220 713 C212 673 192 642 174 642 C156 642 136 673 128 713 L119 712 L119 712 Z M340 23 C338 26 336 30 333 35 L307 84 L307 500 L279 500 L251 500 L225 500 C217 500 218 502 218 484 C218 462 217 465 225 464 L251 461 L251 69 L251 65 C230 45 203 30 179 30 C126 30 94 86 94 160 L94 499 L67 499 L39 499 L13 499 C5 499 6 501 6 483 C6 461 5 464 13 463 L39 460 L39 155 C39 63 75 -6 135 -6 C170 -6 212 20 250 55 L250 13 L250 -1 L261 -1 L332 21 C335 22 337 22 339 22 L340 23 L340 23 Z M339 22 C345 23 344 23 345 25 C345 12 346 9 339 23 L339 22 L339 22 Z " />
<glyph glyph-name="Uring" unicode="&#x16e;" horiz-adv-x="462" d="M239 707 C199 707 160 746 160 788 C160 833 194 868 239 868 C284 868 318 833 318 788 C318 746 280 707 239 707 L239 707 Z M145 788 C145 740 191 695 239 695 C287 695 333 740 333 788 C333 840 293 880 239 880 C185 880 145 840 145 788 L145 788 Z M66 621 L66 204 C66 85 122 -5 243 -5 C358 -5 412 72 412 174 L412 621 L442 624 C450 625 449 622 449 644 C449 662 450 660 442 660 L412 660 L403 660 L394 660 L362 660 C355 660 356 662 356 644 C356 622 355 625 363 624 L394 621 L394 180 C394 87 349 17 252 17 C166 17 127 92 127 192 L127 621 L154 624 C162 625 161 622 160 644 C161 662 162 660 154 660 L127 660 L97 660 L66 660 L39 660 C32 660 33 662 33 644 C33 622 32 625 40 624 L66 621 L66 621 Z " />
<glyph glyph-name="uring" unicode="&#x16f;" horiz-adv-x="368" d="M174 547 C134 547 96 586 96 628 C96 673 130 708 174 708 C219 708 253 673 253 628 C253 586 215 547 174 547 L174 547 Z M80 628 C80 580 126 535 174 535 C222 535 268 580 268 628 C268 680 228 720 174 720 C121 720 80 680 80 628 L80 628 Z M340 23 C338 26 336 30 333 35 L307 84 L307 500 L279 500 L251 500 L225 500 C217 500 218 502 218 484 C218 462 217 465 225 464 L251 461 L251 69 L251 65 C230 45 203 30 179 30 C126 30 94 86 94 160 L94 499 L67 499 L39 499 L13 499 C5 499 6 501 6 483 C6 461 5 464 13 463 L39 460 L39 155 C39 63 75 -6 135 -6 C170 -6 212 20 250 55 L250 13 L250 -1 L261 -1 L332 21 C335 22 337 22 339 22 L340 23 L340 23 Z M339 22 C345 23 344 23 345 25 C345 12 346 9 339 23 L339 22 L339 22 Z " />
<glyph glyph-name="Wcircumflex" unicode="&#x174;" horiz-adv-x="613" d="M558 621 L558 621 L453 86 L332 670 L316 670 L184 -15 L199 -15 L311 562 L433 -15 L449 -15 L576 621 L577 621 L603 624 C611 625 610 622 610 643 C610 662 611 660 603 660 L584 660 L575 660 L566 660 L529 660 C522 660 523 662 522 644 C523 622 522 625 529 624 L558 621 L558 621 Z M31 621 L31 621 L184 -15 L202 80 L98 621 L121 624 C129 625 128 622 128 644 C128 662 129 660 121 660 L90 660 L56 660 L22 660 L10 660 C2 660 3 662 3 643 C3 622 2 625 10 624 L31 621 L31 621 Z M324 841 L413 693 L418 698 L342 889 C340 894 333 905 324 905 C315 905 308 894 306 889 L230 698 L235 693 L324 841 L324 841 Z " />
<glyph glyph-name="Ycircumflex" unicode="&#x176;" horiz-adv-x="425" d="M220 841 L309 693 L314 698 L238 889 C236 894 229 905 220 905 C211 905 204 894 202 889 L126 698 L131 693 L220 841 L220 841 Z M368 621 L236 307 L234 307 L126 621 L127 621 L145 624 C152 625 151 622 151 644 C151 662 152 660 145 660 L113 660 L76 660 L39 660 L34 660 C26 660 27 662 27 643 C27 623 26 625 34 624 L54 621 L191 275 L191 39 L165 36 C157 35 158 38 158 16 C158 -2 157 0 165 0 L191 0 L222 0 L253 0 L279 0 C286 0 286 -2 286 16 C286 38 287 35 279 36 L253 39 L253 307 L388 621 L412 624 C419 625 418 623 419 643 C418 662 419 660 412 660 L405 660 L396 660 L386 660 L348 660 C340 660 340 662 341 644 C342 622 341 625 348 624 L368 621 L368 621 Z " />
<glyph glyph-name="Ydieresis" unicode="&#x178;" horiz-adv-x="425" d="M304 730 C323 730 338 745 338 764 C338 783 323 798 304 798 C285 798 270 783 270 764 C270 745 285 730 304 730 L304 730 Z M136 730 C155 730 170 745 170 764 C170 783 155 798 136 798 C117 798 102 783 102 764 C102 745 117 730 136 730 L136 730 Z M368 621 L236 307 L234 307 L126 621 L127 621 L145 624 C152 625 151 622 151 644 C151 662 152 660 145 660 L113 660 L76 660 L39 660 L34 660 C26 660 27 662 27 643 C27 623 26 625 34 624 L54 621 L191 275 L191 39 L165 36 C157 35 158 38 158 16 C158 -2 157 0 165 0 L191 0 L222 0 L253 0 L279 0 C286 0 286 -2 286 16 C286 38 287 35 279 36 L253 39 L253 307 L388 621 L412 624 C419 625 418 623 419 643 C418 662 419 660 412 660 L405 660 L396 660 L386 660 L348 660 C340 660 340 662 341 644 C342 622 341 625 348 624 L368 621 L368 621 Z " />
<glyph glyph-name="Zacute" unicode="&#x179;" horiz-adv-x="457" d="M269 691 L379 819 C402 847 420 870 420 873 C420 880 398 897 389 897 C386 897 370 873 351 842 L262 696 L269 691 L269 691 Z M395 8 C398 25 403 49 405 66 C409 82 409 80 404 80 C394 81 397 83 380 68 L318 16 L127 16 L409 660 L374 660 L339 660 L155 660 L131 660 L116 660 L114 652 C110 638 104 617 101 603 C100 599 99 596 98 594 C102 596 108 599 116 603 L196 645 L332 645 L51 0 L85 0 L120 0 L355 0 L392 0 L394 0 L395 8 L395 8 Z M97 588 C90 588 87 587 99 593 C98 589 98 588 98 588 L97 588 L97 588 Z M98 588 C98 588 98 588 99 588 L99 588 L98 588 L98 588 Z " />
<glyph glyph-name="zacute" unicode="&#x17a;" horiz-adv-x="363" d="M122 531 L233 659 C256 687 274 710 274 713 C274 720 251 737 242 737 C239 737 224 713 205 682 L116 536 L122 531 L122 531 Z M224 13 L224 13 L125 13 L314 501 L282 501 L250 501 L109 501 L85 501 L71 501 L69 495 C66 484 62 468 59 457 C58 454 57 452 57 450 C61 452 67 454 74 457 L151 488 L151 488 L245 488 L55 0 L87 0 L120 0 L262 0 L298 0 L300 0 L301 6 C304 22 309 46 311 62 C314 78 315 76 310 76 C300 77 303 79 286 65 L224 13 L224 13 Z M55 441 C39 441 35 440 58 449 C56 443 56 441 56 441 L55 441 L55 441 Z M56 441 L56 441 L56 441 L56 441 Z " />
<glyph glyph-name="Zdot" unicode="&#x17b;" horiz-adv-x="457" d="M270 730 C289 730 304 745 304 764 C304 783 289 798 270 798 C251 798 236 783 236 764 C236 745 251 730 270 730 L270 730 Z M395 8 C398 25 403 49 405 66 C409 82 409 80 404 80 C394 81 397 83 380 68 L318 16 L127 16 L409 660 L374 660 L339 660 L155 660 L131 660 L116 660 L114 652 C110 638 104 617 101 603 C100 599 99 596 98 594 C102 596 108 599 116 603 L196 645 L332 645 L51 0 L85 0 L120 0 L355 0 L392 0 L394 0 L395 8 L395 8 Z M97 588 C90 588 87 587 99 593 C98 589 98 588 98 588 L97 588 L97 588 Z M98 588 C98 588 98 588 99 588 L99 588 L98 588 L98 588 Z " />
<glyph glyph-name="zdot" unicode="&#x17c;" horiz-adv-x="363" d="M200 570 C219 570 233 585 233 604 C233 623 219 638 200 638 C180 638 166 623 166 604 C166 585 180 570 200 570 L200 570 Z M224 13 L224 13 L125 13 L314 501 L282 501 L250 501 L109 501 L85 501 L71 501 L69 495 C66 484 62 468 59 457 C58 454 57 452 57 450 C61 452 67 454 74 457 L151 488 L151 488 L245 488 L55 0 L87 0 L120 0 L262 0 L298 0 L300 0 L301 6 C304 22 309 46 311 62 C314 78 315 76 310 76 C300 77 303 79 286 65 L224 13 L224 13 Z M55 441 C39 441 35 440 58 449 C56 443 56 441 56 441 L55 441 L55 441 Z M56 441 L56 441 L56 441 L56 441 Z " />
<glyph glyph-name="Zcaron" unicode="&#x17d;" horiz-adv-x="457" d="M270 779 L359 927 L364 922 L288 731 C286 726 279 715 270 715 C261 715 254 726 252 731 L176 922 L181 927 L270 779 L270 779 Z M395 8 C398 25 403 49 405 66 C409 82 409 80 404 80 C394 81 397 83 380 68 L318 16 L127 16 L409 660 L374 660 L339 660 L155 660 L131 660 L116 660 L114 652 C110 638 104 617 101 603 C100 599 99 596 98 594 C102 596 108 599 116 603 L196 645 L332 645 L51 0 L85 0 L120 0 L355 0 L392 0 L394 0 L395 8 L395 8 Z M97 588 C90 588 87 587 99 593 C98 589 98 588 98 588 L97 588 L97 588 Z M98 588 C98 588 98 588 99 588 L99 588 L98 588 L98 588 Z " />
<glyph glyph-name="zcaron" unicode="&#x17e;" horiz-adv-x="363" d="M224 13 L224 13 L125 13 L314 501 L282 501 L250 501 L109 501 L85 501 L71 501 L69 495 C66 484 62 468 59 457 C58 454 57 452 57 450 C61 452 67 454 74 457 L151 488 L151 488 L245 488 L55 0 L87 0 L120 0 L262 0 L298 0 L300 0 L301 6 C304 22 309 46 311 62 C314 78 315 76 310 76 C300 77 303 79 286 65 L224 13 L224 13 Z M200 618 L288 767 L294 762 L217 571 C216 566 209 555 200 555 C190 555 184 566 182 571 L105 762 L111 767 L200 618 L200 618 Z M55 441 C39 441 35 440 58 449 C56 443 56 441 56 441 L55 441 L55 441 Z M56 441 L56 441 L56 441 L56 441 Z " />
<glyph glyph-name="oogonek" unicode="&#x1eb;" horiz-adv-x="615" d="M591 -51 L586 -47 C564 -73 520 -92 482 -92 C432 -92 371 -55 319 -5 C473 -2 565 133 565 276 C565 420 471 557 313 557 C156 557 62 420 62 276 C62 135 151 2 300 -5 C372 -76 442 -129 477 -129 C506 -129 555 -96 592 -52 L591 -51 L591 -51 Z M314 8 C195 8 124 138 124 276 C124 413 195 543 314 543 C434 543 505 413 505 276 C505 138 434 8 314 8 L314 8 Z " />
<glyph glyph-name="Adotabove" unicode="&#x226;" horiz-adv-x="443" d="M209 730 C228 730 243 745 243 764 C243 783 228 798 209 798 C190 798 175 783 175 764 C175 745 190 730 209 730 L209 730 Z M400 39 L400 39 L217 675 L201 675 L40 39 L13 36 C5 35 6 38 6 17 C6 -2 5 0 13 0 L30 0 L40 0 L51 0 L89 0 C97 0 96 -2 96 16 C96 38 97 35 89 36 L61 39 L109 236 L282 236 L334 39 L315 36 C307 35 308 38 308 17 C308 -2 307 0 315 0 L344 0 L377 0 L411 0 L432 0 C440 0 439 -2 439 16 C439 38 440 35 432 36 L400 39 L400 39 Z M278 252 L113 252 L192 575 L278 252 L278 252 Z " />
<glyph glyph-name="G_sc" unicode="&#x262;" horiz-adv-x="617" d="M450 221 L450 48 C399 25 342 9 306 9 C202 9 123 124 123 277 C123 429 202 544 306 544 C331 544 368 535 407 521 C427 497 458 463 478 440 C486 432 491 426 492 426 C494 426 495 432 495 440 L495 497 L491 490 L491 490 L495 497 C433 532 352 558 306 558 C167 558 62 437 62 277 C62 116 167 -5 306 -5 C355 -5 438 22 500 57 L500 221 L526 224 C534 225 533 222 533 243 C533 262 534 260 526 260 L500 260 L475 260 L450 260 L424 260 C416 260 417 262 417 243 C417 222 416 225 424 224 L450 221 L450 221 Z " />
<glyph glyph-name="I_sc" unicode="&#x26a;" horiz-adv-x="190" d="M97 0 L125 0 L151 0 C158 0 157 -2 158 16 C157 38 158 35 151 36 L125 39 L125 514 L151 518 C158 519 157 516 158 537 C157 556 158 554 151 553 C136 554 113 554 97 553 C82 554 58 554 43 553 C35 554 36 556 36 537 C36 516 35 519 43 518 L69 514 L69 39 L43 36 C35 35 36 38 36 16 C36 -2 35 0 43 0 L69 0 L97 0 L97 0 Z " />
<glyph glyph-name="N_sc" unicode="&#x274;" horiz-adv-x="453" d="M377 514 L377 87 L119 553 L86 553 L77 553 C67 554 53 554 43 553 C35 554 36 556 36 537 C36 516 35 519 43 518 L69 514 L69 39 L43 36 C35 35 36 38 36 16 C36 -2 35 0 43 0 L69 0 L77 0 L86 0 L112 0 C120 0 119 -2 119 16 C119 38 120 35 112 36 L86 39 L86 499 L352 22 L370 -11 L394 -11 L394 42 L394 514 L420 518 C428 519 427 516 427 537 C427 556 427 554 420 553 C410 554 395 554 385 553 C376 554 361 554 351 553 C343 554 344 556 344 537 C344 516 343 519 351 518 L377 514 L377 514 Z " />
<glyph glyph-name="R_sc" unicode="&#x280;" horiz-adv-x="429" d="M429 0 L429 11 L424 11 C407 11 399 18 341 95 L209 270 C281 287 332 342 332 412 C332 493 262 553 170 553 L133 553 L105 553 C90 554 66 554 51 553 C43 554 44 556 44 537 C44 516 43 519 51 518 L77 514 L77 39 L51 36 C43 35 44 38 44 16 C44 -2 43 0 51 0 L77 0 L105 0 L133 0 L159 0 C166 0 165 -2 166 16 C165 38 166 35 159 36 L133 39 L133 265 L146 265 L265 106 C338 9 351 0 408 0 L429 0 L429 0 Z M163 279 L136 279 L133 279 L133 539 L170 539 C229 539 274 485 274 412 C274 336 226 279 163 279 L163 279 Z " />
<glyph glyph-name="Y_sc" unicode="&#x28f;" horiz-adv-x="395" d="M338 514 L338 514 L219 256 L216 256 L120 514 L137 518 C145 519 144 516 144 537 C144 556 145 554 137 553 C119 554 91 554 72 553 C62 554 46 554 35 553 C27 554 28 556 28 536 C28 516 27 519 35 518 L56 514 L178 230 L178 39 L152 36 C144 35 145 38 145 16 C145 -2 144 0 152 0 L178 0 L206 0 L234 0 L260 0 C267 0 266 -2 267 16 C266 38 267 35 260 36 L234 39 L234 256 L234 256 L355 514 L355 514 L379 518 C386 519 386 516 385 536 C386 556 386 554 379 553 C375 554 368 554 364 553 C351 554 331 554 318 553 C310 554 311 556 311 537 C311 516 310 519 318 518 L338 514 L338 514 Z " />
<glyph glyph-name="B_sc" unicode="&#x299;" horiz-adv-x="401" d="M165 300 C164 300 163 300 162 300 L133 300 L133 539 L170 539 C229 539 273 491 273 427 C273 358 230 306 172 300 L165 300 L165 300 Z M218 298 C283 316 328 365 328 426 C328 498 260 552 169 552 L132 552 L104 552 C89 553 65 553 50 552 C42 553 43 555 43 536 C43 515 42 518 50 517 L76 513 L76 38 L50 35 C42 34 43 37 43 15 C43 -3 42 -1 50 -1 L76 -1 L104 -1 L132 -1 L182 -1 C296 -1 381 64 381 151 C381 226 313 285 218 298 L218 298 Z M132 290 L162 290 C254 290 323 231 323 152 C323 73 260 14 177 14 L132 14 L132 290 L132 290 Z " />
<glyph glyph-name="H_sc" unicode="&#x29c;" horiz-adv-x="528" d="M435 0 L463 0 L489 0 C496 0 495 -2 495 16 C495 38 496 35 489 36 L463 39 L463 514 L489 518 C496 519 495 516 495 537 C495 556 496 554 489 553 C474 554 450 554 435 553 C420 554 396 554 381 553 C373 554 374 556 374 537 C374 516 373 519 381 518 L407 514 L407 300 L123 300 L123 514 L149 518 C157 519 156 516 156 537 C156 556 157 554 149 553 C134 554 111 554 95 553 C80 554 57 554 41 553 C34 554 35 556 35 537 C35 516 34 519 42 518 L68 514 L68 39 L42 36 C34 35 35 38 35 16 C35 -2 34 0 41 0 L68 0 L95 0 L123 0 L149 0 C157 0 156 -2 156 16 C156 38 157 35 149 36 L123 39 L123 286 L407 286 L407 39 L381 36 C373 35 374 38 374 16 C374 -2 373 0 381 0 L407 0 L435 0 L435 0 Z " />
<glyph glyph-name="L_sc" unicode="&#x29f;" horiz-adv-x="376" d="M313 7 C316 23 320 48 323 64 C326 80 326 78 322 78 C312 79 315 80 298 66 L236 14 L123 14 L123 514 L149 518 C157 519 156 516 156 537 C156 556 157 554 149 553 C134 554 111 554 95 553 C80 554 57 554 41 553 C34 554 35 556 35 537 C35 516 34 519 42 518 L68 514 L68 39 L42 36 C34 35 35 38 35 16 C35 -2 34 0 41 0 L68 0 L95 0 L123 0 L273 0 L310 0 L312 0 L313 7 L313 7 Z " />
<glyph glyph-name="A_sc" unicode="&#x1d00;" horiz-adv-x="412" d="M368 39 L368 39 L202 566 L188 566 L42 39 L15 36 C7 35 8 38 8 17 C8 -2 7 0 14 0 L31 0 L40 0 L49 0 L88 0 C95 0 94 -2 94 16 C94 38 95 35 87 36 L60 39 L60 39 L103 198 L262 198 L309 39 L292 36 C284 34 285 36 285 17 C285 -2 284 0 292 0 L320 0 L350 0 L380 0 L401 0 C409 0 408 -2 408 16 C408 38 409 35 401 36 L368 39 L368 39 Z M258 212 L106 212 L179 481 L258 212 L258 212 Z " />
<glyph glyph-name="C_sc" unicode="&#x1d04;" horiz-adv-x="574" d="M515 57 L515 113 C515 122 514 128 512 128 C511 128 506 122 498 113 C478 90 446 57 426 33 C386 18 346 9 317 9 C207 9 123 124 123 277 C123 429 207 544 317 544 C346 544 386 535 426 521 C446 498 478 463 498 440 C506 432 511 426 512 426 C514 426 515 432 515 440 L515 497 L511 490 L511 490 L515 497 C453 532 368 558 317 558 C172 558 62 437 62 277 C62 116 172 -5 317 -5 C368 -5 453 22 515 57 L515 57 Z " />
<glyph glyph-name="D_sc" unicode="&#x1d05;" horiz-adv-x="498" d="M105 0 L133 0 L188 0 C337 0 449 119 449 277 C449 434 331 553 174 553 L133 553 L105 553 C90 554 66 554 51 553 C43 554 44 556 44 537 C44 516 43 519 51 518 L77 514 L77 39 L51 36 C43 35 44 38 44 16 C44 -2 43 0 51 0 L77 0 L105 0 L105 0 Z M133 14 L133 539 L174 539 C299 539 393 426 393 277 C393 127 305 14 188 14 L133 14 L133 14 Z " />
<glyph glyph-name="E_sc" unicode="&#x1d07;" horiz-adv-x="376" d="M313 7 C316 22 320 46 323 61 C324 66 324 69 324 71 C321 69 316 66 308 61 L236 14 L123 14 L123 288 L156 288 L217 259 C234 250 242 246 245 244 C245 246 245 250 245 258 L245 288 L245 295 L245 302 L245 328 C245 334 245 338 245 340 C240 338 231 334 217 328 L156 302 L123 302 L123 539 L228 539 L292 492 C299 487 304 484 307 482 C307 484 307 487 307 492 L307 546 L307 553 L300 553 L268 553 L123 553 L95 553 C80 554 57 554 41 553 C34 554 35 556 35 537 C35 516 34 519 42 518 L68 514 L68 39 L42 36 C34 35 35 38 35 16 C35 -2 34 0 41 0 L68 0 L95 0 L123 0 L273 0 L310 0 L312 0 L313 7 L313 7 Z M325 75 C329 75 331 76 324 72 C324 75 324 76 324 76 L325 75 L325 75 Z M324 76 L324 76 L324 76 L324 76 Z M243 244 C244 244 244 244 244 245 C246 244 245 244 243 244 L243 244 Z M243 244 C242 244 241 244 240 244 C241 244 242 244 243 244 L243 244 Z M243 345 C249 345 251 345 244 341 C244 343 244 344 243 344 L243 345 L243 345 Z M243 344 C242 344 241 344 240 344 C241 344 242 344 243 344 L243 344 Z M306 479 C306 479 306 480 306 482 C311 478 309 479 305 479 L306 479 L306 479 Z M305 479 L305 479 L305 479 L305 479 Z " />
<glyph glyph-name="J_sc" unicode="&#x1d0a;" horiz-adv-x="207" d="M86 514 L86 168 C86 54 80 1 66 1 C58 1 50 22 47 50 C46 63 35 72 22 72 C8 72 -1 63 0 50 C3 16 25 -10 53 -10 C114 -10 142 61 142 214 L142 514 L168 518 C175 519 174 516 175 537 C174 556 175 554 168 553 C153 554 129 554 114 553 C99 554 75 554 60 553 C52 554 53 556 53 537 C53 516 52 519 60 518 L86 514 L86 514 Z " />
<glyph glyph-name="K_sc" unicode="&#x1d0b;" horiz-adv-x="444" d="M435 -5 L435 6 L430 6 C403 6 347 70 254 210 L174 330 L306 514 L335 518 C342 519 341 516 341 535 C341 556 342 554 335 553 C333 554 331 554 329 553 C320 554 306 554 297 553 C290 554 291 556 290 537 C290 505 289 507 297 518 L293 512 C295 515 296 516 295 514 L167 342 L166 343 L134 298 L134 514 L160 518 C167 519 166 516 167 537 C166 556 167 554 160 553 C145 554 122 554 106 553 C91 554 67 554 52 553 C44 554 45 556 45 537 C45 516 44 519 52 518 L78 514 L78 39 L52 36 C44 35 45 38 45 16 C45 -2 44 0 52 0 L78 0 L106 0 L134 0 L160 0 C167 0 166 -2 167 16 C166 38 167 35 160 36 L134 39 L134 298 L222 165 C300 49 361 -5 414 -5 L435 -5 L435 -5 Z " />
<glyph glyph-name="M_sc" unicode="&#x1d0d;" horiz-adv-x="574" d="M543 39 L543 39 L517 514 L539 518 C547 519 546 516 546 537 C546 556 547 554 539 553 C525 554 504 554 490 553 L484 553 L465 553 L301 70 L129 553 L102 553 L94 553 C84 554 69 554 59 553 C51 554 52 556 53 537 C52 516 51 519 60 518 L84 514 L84 514 L63 39 L62 39 L36 36 C28 35 29 38 29 17 C29 -2 28 0 36 0 L61 0 L69 0 L77 0 L116 0 C124 0 123 -2 123 16 C122 38 123 35 116 36 L79 39 L79 39 L99 482 L266 22 L276 -5 L290 -5 L467 505 L488 39 L488 39 L463 36 C456 35 457 38 457 16 C457 -2 456 0 463 0 L490 0 L517 0 L545 0 L569 0 C577 0 576 -2 576 17 C576 38 577 35 569 36 L543 39 L543 39 Z M302 69 L302 70 L304 63 L302 69 L302 69 Z " />
<glyph glyph-name="O_sc" unicode="&#x1d0f;" horiz-adv-x="615" d="M313 9 C194 9 123 139 123 277 C123 414 194 544 313 544 C433 544 504 414 504 277 C504 139 433 9 313 9 L313 9 Z M62 277 C62 132 156 -5 313 -5 C471 -5 565 132 565 277 C565 421 471 558 313 558 C156 558 62 421 62 277 L62 277 Z " />
<glyph glyph-name="P_sc" unicode="&#x1d18;" horiz-adv-x="376" d="M105 0 L133 0 L159 0 C166 0 165 -2 166 16 C165 38 166 35 159 36 L133 39 L133 250 L168 250 C276 250 357 315 357 400 C357 487 279 553 177 553 L133 553 L105 553 C90 554 66 554 51 553 C43 554 44 556 44 537 C44 516 43 519 51 518 L77 514 L77 39 L51 36 C43 35 44 38 44 16 C44 -2 43 0 51 0 L77 0 L105 0 L105 0 Z M133 264 L133 539 L177 539 C246 539 299 479 299 400 C299 323 243 264 168 264 L133 264 L133 264 Z " />
<glyph glyph-name="T_sc" unicode="&#x1d1b;" horiz-adv-x="476" d="M456 472 C456 472 456 473 456 475 C460 472 459 472 456 472 L456 472 Z M456 472 L456 472 C457 472 457 472 457 472 L456 472 L456 472 Z M457 475 C457 477 457 481 456 487 C455 504 452 530 451 546 L450 553 L437 553 L412 553 L66 553 L41 553 L28 553 L27 546 C26 530 23 504 22 487 C21 481 21 477 21 475 C24 477 29 481 38 487 L111 539 L212 539 L212 39 L186 36 C178 35 179 38 179 16 C179 -2 178 0 186 0 L212 0 L240 0 L268 0 L294 0 C301 0 300 -2 301 16 C300 38 301 35 294 36 L268 39 L268 539 L369 539 L442 487 C451 481 456 477 459 475 L457 475 L457 475 Z M22 472 C19 472 18 472 22 475 C22 473 22 472 22 472 L22 472 Z M22 472 C22 472 22 472 23 472 L23 472 L22 472 L22 472 Z " />
<glyph glyph-name="U_sc" unicode="&#x1d1c;" horiz-adv-x="439" d="M67 514 L67 170 C67 70 119 -5 232 -5 C339 -5 389 59 389 144 L389 514 L419 518 C427 519 426 516 426 537 C426 556 427 554 419 553 C408 554 392 554 381 553 C370 554 353 554 341 553 C334 554 335 556 335 537 C335 516 334 519 341 518 L373 514 L373 150 C373 72 331 14 240 14 C160 14 123 76 123 159 L123 514 L149 518 C156 519 155 516 156 537 C155 556 156 554 149 553 C134 554 111 554 95 553 C80 554 56 554 41 553 C33 554 34 556 34 537 C34 516 33 519 41 518 L67 514 L67 514 Z " />
<glyph glyph-name="V_sc" unicode="&#x1d20;" horiz-adv-x="412" d="M358 514 L358 514 L244 59 L106 514 L106 514 L129 518 C136 519 135 516 136 537 C136 556 137 554 129 553 C110 554 82 554 64 553 C53 554 36 554 24 553 C16 554 17 556 18 536 C17 516 16 519 24 518 L46 514 L46 514 L225 -15 L239 -15 L373 514 L400 518 C408 519 407 516 407 536 C408 556 409 554 401 553 C393 554 382 554 375 553 C360 554 339 554 325 553 C318 554 318 556 318 537 C318 516 318 519 325 518 L358 514 L358 514 Z " />
<glyph glyph-name="W_sc" unicode="&#x1d21;" horiz-adv-x="558" d="M32 514 L32 514 L169 -15 L182 -15 L301 563 L287 563 L185 63 L91 514 L115 518 C122 519 121 516 121 537 C121 556 122 554 115 553 C97 554 70 554 53 553 C40 554 22 554 10 553 C2 554 3 556 4 536 C3 516 2 519 10 518 L32 514 L32 514 Z M504 514 L393 -15 L406 -15 L521 514 L547 518 C554 519 553 516 554 536 C555 556 556 554 547 553 C539 554 528 554 520 553 C508 554 488 554 475 553 C467 554 468 556 469 537 C469 516 468 519 476 518 L504 514 L504 514 Z M393 -15 L410 68 L301 563 L283 475 L393 -15 L393 -15 Z " />
<glyph glyph-name="Z_sc" unicode="&#x1d22;" horiz-adv-x="433" d="M373 7 C375 24 380 48 383 64 C385 80 385 78 381 78 C372 79 375 81 358 67 L295 14 L122 14 L385 553 L354 553 L322 553 L158 553 L132 553 L119 553 L117 546 C114 532 108 511 104 497 C103 493 102 490 102 488 C106 490 112 493 120 497 L199 538 L315 538 L52 -1 L84 -1 L115 -1 L332 -1 L369 -1 L371 -1 L373 7 L373 7 Z M101 482 C93 482 90 481 102 487 C101 483 101 482 101 482 L101 482 Z M101 482 L101 482 L101 482 L101 482 Z " />
<glyph glyph-name="Wgrave" unicode="&#x1e80;" horiz-adv-x="613" d="M558 621 L558 621 L453 86 L332 670 L316 670 L184 -15 L199 -15 L311 562 L433 -15 L449 -15 L576 621 L577 621 L603 624 C611 625 610 622 610 643 C610 662 611 660 603 660 L584 660 L575 660 L566 660 L529 660 C522 660 523 662 522 644 C523 622 522 625 529 624 L558 621 L558 621 Z M31 621 L31 621 L184 -15 L202 80 L98 621 L121 624 C129 625 128 622 128 644 C128 662 129 660 121 660 L90 660 L56 660 L22 660 L10 660 C2 660 3 662 3 643 C3 622 2 625 10 624 L31 621 L31 621 Z M312 842 C293 873 277 897 273 897 C264 897 242 880 242 873 C242 869 260 847 284 819 L397 691 L404 696 L312 842 L312 842 Z " />
<glyph glyph-name="Wacute" unicode="&#x1e82;" horiz-adv-x="613" d="M262 691 L372 819 C396 847 413 870 414 873 C414 880 391 897 382 897 C379 897 364 873 344 842 L256 696 L262 691 L262 691 Z M558 621 L558 621 L453 86 L332 670 L316 670 L184 -15 L199 -15 L311 562 L433 -15 L449 -15 L576 621 L577 621 L603 624 C611 625 610 622 610 643 C610 662 611 660 603 660 L584 660 L575 660 L566 660 L529 660 C522 660 523 662 522 644 C523 622 522 625 529 624 L558 621 L558 621 Z M31 621 L31 621 L184 -15 L202 80 L98 621 L121 624 C129 625 128 622 128 644 C128 662 129 660 121 660 L90 660 L56 660 L22 660 L10 660 C2 660 3 662 3 643 C3 622 2 625 10 624 L31 621 L31 621 Z " />
<glyph glyph-name="Wdieresis" unicode="&#x1e84;" horiz-adv-x="613" d="M408 730 C427 730 442 745 442 764 C442 783 427 798 408 798 C389 798 374 783 374 764 C374 745 389 730 408 730 L408 730 Z M240 730 C259 730 274 745 274 764 C274 783 259 798 240 798 C221 798 206 783 206 764 C206 745 221 730 240 730 L240 730 Z M558 621 L558 621 L453 86 L332 670 L316 670 L184 -15 L199 -15 L311 562 L433 -15 L449 -15 L576 621 L577 621 L603 624 C611 625 610 622 610 643 C610 662 611 660 603 660 L584 660 L575 660 L566 660 L529 660 C522 660 523 662 522 644 C523 622 522 625 529 624 L558 621 L558 621 Z M31 621 L31 621 L184 -15 L202 80 L98 621 L121 624 C129 625 128 622 128 644 C128 662 129 660 121 660 L90 660 L56 660 L22 660 L10 660 C2 660 3 662 3 643 C3 622 2 625 10 624 L31 621 L31 621 Z " />
<glyph glyph-name="Etilde" unicode="&#x1ebc;" horiz-adv-x="398" d="M137 755 C137 793 143 821 151 821 C187 821 186 758 222 758 C244 758 261 800 261 855 L252 855 C252 821 244 795 234 795 C198 795 199 858 163 858 C143 858 128 814 128 755 L137 755 L137 755 Z M336 8 C339 23 343 47 346 63 C347 68 348 71 348 73 C345 71 340 67 331 61 L259 14 L128 14 L128 343 L179 343 L239 314 C257 305 265 301 268 299 C268 301 268 305 268 314 L268 343 L268 351 L268 359 L268 385 C268 392 268 396 268 398 C263 396 254 392 239 385 L179 359 L128 359 L128 644 L251 644 L316 597 C323 592 327 589 330 587 C330 589 330 592 330 597 L330 652 L330 660 L323 660 L291 660 L128 660 L97 660 L66 660 L40 660 C32 660 33 662 33 644 C33 622 32 625 40 624 L66 621 L66 39 L40 36 C32 35 33 38 33 16 C33 -2 32 0 40 0 L66 0 L97 0 L128 0 L296 0 L333 0 L335 0 L336 8 L336 8 Z M348 76 C352 77 353 77 348 73 C348 74 348 75 348 75 L348 76 L348 76 Z M348 75 C348 76 348 75 347 75 L347 75 L348 75 L348 75 Z M265 298 C266 298 267 298 267 299 C269 298 268 298 265 298 L265 298 Z M265 298 C264 298 263 298 262 298 C263 298 264 298 265 298 L265 298 Z M266 400 C272 400 274 400 267 397 C267 399 267 400 266 400 L266 400 Z M266 400 C265 400 264 400 262 400 C263 400 264 400 265 400 L266 400 L266 400 Z M328 583 C328 583 328 584 328 586 C333 582 332 582 329 582 L328 583 L328 583 Z M329 582 L329 582 C330 582 330 582 330 582 L329 582 L329 582 Z " />
<glyph glyph-name="Ygrave" unicode="&#x1ef2;" horiz-adv-x="425" d="M208 842 C189 873 173 897 169 897 C160 897 138 880 138 873 C138 869 156 847 180 819 L293 691 L300 696 L208 842 L208 842 Z M368 621 L236 307 L234 307 L126 621 L127 621 L145 624 C152 625 151 622 151 644 C151 662 152 660 145 660 L113 660 L76 660 L39 660 L34 660 C26 660 27 662 27 643 C27 623 26 625 34 624 L54 621 L191 275 L191 39 L165 36 C157 35 158 38 158 16 C158 -2 157 0 165 0 L191 0 L222 0 L253 0 L279 0 C286 0 286 -2 286 16 C286 38 287 35 279 36 L253 39 L253 307 L388 621 L412 624 C419 625 418 623 419 643 C418 662 419 660 412 660 L405 660 L396 660 L386 660 L348 660 C340 660 340 662 341 644 C342 622 341 625 348 624 L368 621 L368 621 Z " />
<glyph glyph-name="quoteleft" unicode="&#x2018;" horiz-adv-x="197" d="M100 567 C95 567 91 566 87 565 C86 570 86 575 86 580 C86 614 105 648 129 660 L125 668 C84 648 53 598 53 552 C53 538 57 523 63 511 C69 497 83 488 100 488 C123 488 140 505 140 528 C140 551 123 568 100 568 L100 567 L100 567 Z " />
<glyph glyph-name="quoteright" unicode="&#x2019;" horiz-adv-x="197" d="M100 585 C105 585 109 586 113 587 C114 582 114 577 114 572 C114 538 96 504 71 492 L75 484 C116 504 147 554 147 600 C147 614 143 629 137 641 C131 655 117 664 100 664 C77 664 60 647 60 624 C60 601 77 584 100 584 L100 585 L100 585 Z " />
<glyph glyph-name="quotedblleft" unicode="&#x201c;" horiz-adv-x="314" d="M218 567 C213 567 209 566 205 565 C204 570 204 575 204 580 C204 614 222 648 247 660 L243 668 C202 648 171 598 171 552 C171 538 175 523 181 511 C187 497 201 488 218 488 C241 488 258 505 258 528 C258 551 241 568 218 568 L218 567 L218 567 Z M100 568 C95 568 91 567 87 566 C86 571 86 576 86 581 C86 615 105 649 129 661 L125 669 C84 649 53 599 53 553 C53 539 57 524 63 512 C69 498 83 489 100 489 C123 489 140 506 140 529 C140 552 123 569 100 569 L100 568 L100 568 Z " />
<glyph glyph-name="quotedblright" unicode="&#x201d;" horiz-adv-x="314" d="M218 585 C223 585 227 586 231 587 C232 582 232 577 232 572 C232 538 213 504 189 492 L193 484 C234 504 265 554 265 600 C265 614 261 629 255 641 C249 655 235 664 218 664 C195 664 178 647 178 624 C178 601 195 584 218 584 L218 585 L218 585 Z M100 584 C105 584 109 585 113 586 C114 581 114 576 114 571 C114 537 96 503 71 491 L75 483 C116 503 147 553 147 599 C147 613 143 628 137 640 C131 654 117 663 100 663 C77 663 60 646 60 623 C60 600 77 583 100 583 L100 584 L100 584 Z " />
<glyph glyph-name="ellipsis" unicode="&#x2026;" horiz-adv-x="466" d="M389 0 C412 0 429 17 429 40 C429 63 412 80 389 80 C366 80 349 63 349 40 C349 17 366 0 389 0 L389 0 Z M233 0 C256 0 273 17 273 40 C273 63 256 80 233 80 C210 80 193 63 193 40 C193 17 210 0 233 0 L233 0 Z M78 0 C101 0 118 17 118 40 C118 63 101 80 78 80 C55 80 38 63 38 40 C38 17 55 0 78 0 L78 0 Z " />
<glyph glyph-name="guilsinglleft" unicode="&#x2039;" horiz-adv-x="173" d="M70 251 L127 458 L120 465 L20 254 L20 248 L122 37 L128 43 L70 251 L70 251 Z " />
<glyph glyph-name="guilsinglright" unicode="&#x203a;" horiz-adv-x="173" d="M103 251 L47 458 L53 465 L153 254 L153 248 L51 37 L45 43 L103 251 L103 251 Z " />
<glyph glyph-name="Euro" unicode="&#x20ac;" horiz-adv-x="597" d="M44 268 L104 268 C125 108 222 -5 348 -5 C383 -5 464 27 537 69 L537 126 C537 134 536 140 534 140 C534 140 528 134 521 126 C500 101 469 65 448 41 C405 22 367 10 347 10 C257 10 186 117 170 268 L380 268 L385 308 L167 308 C167 316 167 324 167 332 C167 340 167 348 167 356 L384 356 L390 395 L169 395 C185 542 256 648 346 648 C368 648 405 637 446 620 L446 620 C467 597 498 561 519 537 C526 529 532 523 532 523 C534 523 535 529 535 537 L535 594 C467 633 386 663 346 663 C221 663 124 551 103 395 L55 395 L49 356 L100 356 C100 348 100 340 100 332 C100 324 100 316 100 308 L49 308 L44 268 L44 268 Z " />
<glyph glyph-name="F_sc" unicode="&#xa730;" horiz-adv-x="340" d="M234 239 C235 239 235 239 235 240 C237 239 236 239 234 239 L234 239 Z M234 239 C233 239 232 239 231 239 C232 239 233 239 234 239 L234 239 Z M235 240 C235 242 235 246 235 254 L235 284 L235 291 L235 298 L235 324 C235 330 235 334 235 336 C230 334 221 330 207 324 L146 298 L123 298 L123 539 L258 539 L322 492 C329 487 334 484 337 482 C337 484 337 487 337 492 L337 546 L337 553 L330 553 L298 553 L123 553 L95 553 C80 554 57 554 41 553 C34 554 35 556 35 537 C35 516 34 519 42 518 L68 514 L68 39 L42 36 C34 35 35 38 35 16 C35 -2 34 0 41 0 L68 0 L95 0 L123 0 L159 0 C167 0 166 -2 166 16 C166 38 167 35 159 36 L123 39 L123 284 L146 284 L207 254 C224 246 232 242 235 240 L235 240 Z M235 339 C241 340 243 340 236 337 C236 338 236 339 236 339 L235 339 L235 339 Z M236 339 C235 340 234 339 232 339 C233 339 234 339 235 339 L236 339 L236 339 Z M337 479 C337 479 337 480 337 482 C342 478 340 479 336 479 L337 479 L337 479 Z M336 479 L336 479 L336 479 L336 479 Z " />
<glyph glyph-name="S_sc" unicode="&#xa731;" horiz-adv-x="360" d="M192 536 L192 535 C213 510 244 472 265 447 C272 439 277 433 278 433 C280 433 281 439 281 447 L281 508 L276 499 L276 499 L281 508 C231 536 185 558 175 558 C104 558 51 491 51 403 C51 349 96 286 155 258 C224 224 276 165 276 119 C276 56 236 9 184 9 C173 9 154 15 131 24 L131 24 C111 47 79 83 59 106 C52 115 46 121 45 121 C44 121 43 115 43 106 L43 46 L47 54 L47 54 L43 46 C93 17 154 -5 184 -5 C259 -5 315 58 315 142 C315 196 262 262 192 295 C134 324 90 379 90 425 C90 493 126 545 173 545 C174 545 181 542 192 536 L192 536 Z " />
<glyph glyph-name="X_sc" unicode="&#xf078;" horiz-adv-x="466" d="M355 514 L356 514 L249 327 L146 514 L147 514 L160 518 C168 519 167 516 167 537 C167 556 168 554 160 553 C141 554 113 554 94 553 C85 554 71 554 62 553 C54 554 55 556 56 535 C56 516 55 519 63 518 L83 514 L83 514 L218 268 L218 268 L106 39 L106 39 L79 36 C71 35 72 37 72 17 C72 -2 71 0 79 0 L87 0 L93 0 L98 0 L137 0 C145 0 144 -2 143 16 C143 38 144 35 137 36 L117 39 L117 39 L223 259 L344 39 L331 36 C323 34 324 36 324 16 C324 -2 323 0 330 0 L365 0 L397 0 L429 0 C436 0 435 -3 435 18 C435 37 436 35 428 36 L408 39 L253 320 L367 514 L395 518 C403 519 402 516 402 536 C402 556 403 554 395 553 C392 554 388 554 384 553 C372 554 353 554 340 553 C332 554 333 556 333 537 C333 516 332 519 340 518 L355 514 L355 514 Z " />
</font>
</svg>
