<?xml version="1.0" encoding="UTF-8"?>
<svg xmlns="http://www.w3.org/2000/svg" xmlns:xlink="http://www.w3.org/1999/xlink" version="1.2" >
<font id="Earwyn Thin">
<font-face  font-family="Earwyn" units-per-em="1024" ascent="936" descent="-280" font-style="normal" font-weight="100" font-stretch="normal" cap-height="662" x-height="502" underline-position="-125" underline-thickness="50" />
<missing-glyph  horiz-adv-x="650" d="" />
<glyph glyph-name="NULL" d="" />
<glyph glyph-name="CR" unicode="&#xd;" horiz-adv-x="256" d="" />
<glyph glyph-name="space" unicode="&#x20;" horiz-adv-x="220" d="" />
<glyph glyph-name="exclam" unicode="&#x21;" horiz-adv-x="153" d="M74 -5 C86 -5 94 4 94 15 C94 26 86 35 74 35 C63 35 54 26 54 15 C54 4 63 -5 74 -5 L74 -5 Z M93 620 C94 646 86 665 73 665 C61 665 52 646 53 620 L73 110 L76 110 L93 620 L93 620 Z " />
<glyph glyph-name="quotedbl" unicode="&#x22;" horiz-adv-x="212" d="M121 660 L143 489 L150 489 L172 660 L121 660 L121 660 Z M40 660 L62 489 L69 489 L91 660 L40 660 L40 660 Z " />
<glyph glyph-name="numbersign" unicode="&#x23;" horiz-adv-x="369" d="M282 692 L251 468 L169 468 L200 692 L192 692 L161 468 L61 468 L59 452 L159 452 L126 208 L23 208 L21 192 L123 192 L97 0 L105 0 L131 192 L213 192 L187 0 L195 0 L221 192 L304 192 L306 208 L224 208 L257 452 L347 452 L349 468 L259 468 L290 692 L282 692 L282 692 Z M167 452 L249 452 L216 208 L134 208 L167 452 L167 452 Z " />
<glyph glyph-name="dollar" unicode="&#x24;" horiz-adv-x="379" d="M209 735 L209 658 C195 663 184 666 177 666 C165 666 154 664 143 660 L143 737 L129 737 L129 653 C86 627 57 566 57 492 C57 447 86 396 129 358 L129 23 C108 46 79 78 59 101 C52 109 46 115 46 115 C44 115 43 109 43 101 L43 50 L45 54 L45 54 L43 50 C68 35 98 22 127 13 L127 -73 L141 -73 L141 9 C166 2 189 -2 207 -2 L207 -72 L221 -72 L221 -1 C285 7 333 74 333 161 C333 216 287 282 221 325 L221 643 C241 619 268 587 287 565 C294 557 299 551 300 551 C302 551 303 557 303 565 L303 616 L301 612 L301 612 L303 616 C275 632 246 646 222 656 L222 739 L209 735 L209 735 Z M208 334 C203 337 198 340 193 342 C174 352 156 364 140 378 L140 657 C150 662 161 665 173 665 C180 665 192 662 207 656 L208 334 L208 334 Z M127 392 C93 427 71 469 71 506 C71 571 93 624 127 650 L127 392 L127 392 Z M141 351 C153 342 165 334 178 328 C188 323 198 317 207 311 L207 7 C190 7 167 12 142 20 L141 351 L141 351 Z M222 302 C279 261 318 203 318 155 C318 77 277 16 222 8 L222 302 L222 302 Z " />
<glyph glyph-name="ampersand" unicode="&#x26;" horiz-adv-x="632" d="M242 373 C325 387 388 463 388 548 C388 615 342 665 281 665 C220 665 174 597 174 508 C174 490 193 433 225 367 C125 333 50 246 50 161 C50 67 130 -5 236 -5 C319 -5 390 29 436 84 C526 1 582 -9 633 0 L633 3 C589 -5 538 8 446 98 C474 138 490 187 490 241 L490 271 C490 322 500 338 514 342 L525 345 C531 347 530 345 530 363 C530 384 531 381 525 381 L490 381 L454 381 C449 381 450 384 450 363 C450 345 449 347 454 345 L464 342 C477 339 486 323 486 271 L486 241 C486 188 470 140 442 102 C413 130 381 166 344 211 C304 259 268 320 241 375 L242 373 L242 373 Z M239 378 C207 443 188 500 188 518 C188 600 227 662 278 662 C330 662 370 613 370 548 C370 464 314 390 240 376 L239 378 L239 378 Z M433 87 C390 36 324 4 247 4 C145 4 69 75 69 169 C69 250 135 332 225 364 C252 308 288 246 329 197 C368 151 402 115 432 87 L433 87 L433 87 Z " />
<glyph glyph-name="quotesingle" unicode="&#x27;" horiz-adv-x="130" d="M40 660 L62 489 L69 489 L91 660 L40 660 L40 660 Z " />
<glyph glyph-name="parenleft" unicode="&#x28;" horiz-adv-x="122" d="M110 690 C82 656 60 537 60 270 C60 3 82 -116 110 -150 L113 -148 C91 -123 75 -7 75 270 C75 547 91 663 113 688 L110 690 L110 690 Z " />
<glyph glyph-name="parenright" unicode="&#x29;" horiz-adv-x="122" d="M10 -150 C39 -116 60 3 60 270 C60 537 39 656 10 690 L7 688 C29 663 45 547 45 270 C45 -7 29 -123 7 -148 L10 -150 L10 -150 Z " />
<glyph glyph-name="asterisk" unicode="&#x2a;" horiz-adv-x="245" d="M149 541 L49 605 C45 608 41 607 39 604 C38 601 39 597 43 595 L149 541 L149 540 L149 539 L43 485 C39 483 38 479 39 476 C41 473 45 472 49 475 L149 539 L144 420 C144 415 147 412 150 412 C153 412 156 415 156 420 L151 539 L251 475 C255 472 259 473 261 476 C262 479 261 483 257 485 L151 539 L151 540 L151 541 L257 595 C261 597 262 601 261 604 C259 607 255 608 251 605 L151 541 L156 660 C156 665 153 668 150 668 C147 668 144 665 144 660 L149 541 L149 541 Z " />
<glyph glyph-name="plus" unicode="&#x2b;" horiz-adv-x="435" d="M210 390 L210 254 L75 254 L75 246 L210 246 L210 110 L220 110 L220 246 L355 246 L355 254 L220 254 L220 390 L210 390 L210 390 Z " />
<glyph glyph-name="comma" unicode="&#x2c;" horiz-adv-x="150" d="M129 63 L115 49 C112 52 109 54 106 55 C111 69 119 73 129 63 L129 63 Z M79 -5 C81 -5 83 -5 85 -4 C84 -33 75 -58 64 -64 L66 -68 C85 -58 100 -24 100 13 C100 31 102 45 105 55 C97 57 90 48 87 31 C84 32 81 33 78 33 C67 33 59 25 59 14 C59 3 67 -5 78 -5 L79 -5 L79 -5 Z " />
<glyph glyph-name="hyphen" unicode="&#x2d;" horiz-adv-x="124" d="M20 227 L104 227 L104 243 L20 243 L20 227 L20 227 Z " />
<glyph glyph-name="period" unicode="&#x2e;" horiz-adv-x="205" d="M125 -5 C136 -5 145 4 145 15 C145 26 136 35 125 35 C114 35 105 26 105 15 C105 4 114 -5 125 -5 L125 -5 Z " />
<glyph glyph-name="slash" unicode="&#x2f;" horiz-adv-x="318" d="M0 -145 L9 -145 L319 710 L310 710 L0 -145 L0 -145 Z " />
<glyph glyph-name="zero" unicode="0" horiz-adv-x="470" d="M235 -1 C142 -1 72 107 72 250 C72 393 142 501 235 501 C328 501 398 393 398 250 C398 107 328 -1 235 -1 L235 -1 Z M50 250 C50 105 130 -5 235 -5 C341 -5 421 105 421 250 C421 395 341 505 235 505 C130 505 50 395 50 250 L50 250 Z " />
<glyph glyph-name="one" unicode="1" horiz-adv-x="182" d="M91 0 L101 0 L127 0 C135 0 134 -2 134 16 C134 38 135 35 127 36 L101 39 L101 461 L127 464 C135 465 134 462 134 484 C134 502 135 500 127 500 L101 500 L91 500 L81 500 L55 500 C47 500 48 502 48 484 C48 462 47 465 55 464 L81 461 L81 39 L55 36 C47 35 48 38 48 16 C48 -2 47 0 55 0 L81 0 L91 0 L91 0 Z " />
<glyph glyph-name="two" unicode="2" horiz-adv-x="358" d="M326 10 L327 20 L327 20 C328 29 329 39 330 46 C331 54 333 53 314 53 C293 53 296 54 294 46 L289 20 L51 20 C193 132 298 196 298 347 C298 437 255 505 197 505 C161 505 108 442 74 357 L77 356 C108 432 155 490 187 490 C237 490 275 425 275 340 C275 179 178 124 47 20 L44 20 L38 13 C34 10 30 7 26 4 L26 0 L326 0 L326 10 L326 10 Z " />
<glyph glyph-name="three" unicode="3" horiz-adv-x="329" d="M26 -215 C170 -203 279 -93 279 40 C279 137 192 210 76 210 C66 210 52 208 37 205 C148 250 226 321 226 379 C226 451 191 505 144 505 C94 505 37 449 11 375 L14 374 C37 440 88 490 134 490 C175 490 206 440 206 373 C206 312 124 240 12 199 C3 196 -6 193 -14 190 L-14 187 C-11 188 -8 189 -5 190 C15 196 46 200 72 200 C178 200 258 131 258 40 C258 -92 158 -201 26 -212 L26 -215 L26 -215 Z " />
<glyph glyph-name="four" unicode="4" horiz-adv-x="305" d="M32 9 L32 9 L32 9 L29 2 L29 0 L32 0 L232 0 L232 -150 L252 -150 L252 0 L296 0 L296 9 L252 9 L252 454 L252 499 L252 505 L249 505 L32 9 L32 9 Z M36 9 L232 454 L232 9 L36 9 L36 9 Z " />
<glyph glyph-name="five" unicode="5" horiz-adv-x="313" d="M261 500 L261 500 C264 509 267 519 269 526 C272 534 274 533 255 533 C234 533 237 534 234 526 L222 500 L84 500 L78 500 L70 243 L75 243 L95 243 C180 243 243 163 243 58 C243 -70 152 -172 31 -180 L31 -182 C163 -173 263 -68 263 64 C263 178 195 263 106 263 L76 263 L75 243 L83 479 L254 479 L261 500 L261 500 Z " />
<glyph glyph-name="six" unicode="6" horiz-adv-x="451" d="M396 715 C216 709 80 531 80 301 C80 127 148 -5 238 -5 C338 -5 408 90 401 215 C401 335 342 425 264 425 C153 425 96 321 131 183 L135 183 C101 318 155 420 261 420 C329 420 380 331 380 214 C387 93 327 1 241 1 C162 1 102 122 102 283 C102 290 103 301 103 308 C103 532 229 706 396 712 L396 715 L396 715 Z " />
<glyph glyph-name="seven" unicode="7" horiz-adv-x="316" d="M29 490 L28 480 L28 480 C27 471 26 461 25 453 C25 446 22 447 41 447 C62 447 59 446 61 453 L66 480 L296 480 L84 -140 L107 -140 L300 480 L306 498 L304 500 L29 500 L29 490 L29 490 Z " />
<glyph glyph-name="eight" unicode="8" horiz-adv-x="419" d="M177 321 C117 321 71 254 71 164 C71 68 135 -5 221 -5 C306 -5 370 71 370 172 C370 264 306 339 221 345 C160 350 114 419 114 506 C114 594 158 661 217 661 C277 661 323 597 323 513 C323 424 289 357 244 355 L244 354 C298 356 339 425 339 516 C339 601 287 665 218 665 C149 665 97 593 97 498 C97 405 149 330 219 325 C294 319 351 250 351 165 C351 70 295 -1 222 -1 C147 -1 90 71 90 167 C90 254 128 320 178 320 L177 321 L177 321 Z " />
<glyph glyph-name="nine" unicode="9" horiz-adv-x="451" d="M55 -215 C235 -209 371 -31 371 199 C371 373 303 505 213 505 C113 505 43 410 50 285 C50 165 109 75 187 75 C299 75 356 179 320 317 L316 317 C350 182 297 80 191 80 C123 80 71 169 71 286 C64 407 124 499 211 499 C290 499 349 378 349 217 C349 210 348 199 348 192 C348 -32 222 -206 55 -212 L55 -215 L55 -215 Z " />
<glyph glyph-name="colon" unicode="&#x3a;" horiz-adv-x="205" d="M125 352 C136 352 145 360 145 372 C145 383 136 392 125 392 C114 392 105 383 105 372 C105 360 114 352 125 352 L125 352 Z M125 -5 C136 -5 145 4 145 15 C145 26 136 35 125 35 C114 35 105 26 105 15 C105 4 114 -5 125 -5 L125 -5 Z " />
<glyph glyph-name="semicolon" unicode="&#x3b;" horiz-adv-x="150" d="M79 345 C90 345 99 354 99 365 C99 376 90 385 79 385 C68 385 59 376 59 365 C59 354 68 345 79 345 L79 345 Z M129 63 L115 49 C112 52 109 54 106 55 C111 69 119 73 129 63 L129 63 Z M79 -5 C81 -5 83 -5 85 -4 C84 -33 75 -58 64 -64 L66 -68 C85 -58 100 -24 100 13 C100 31 102 45 105 55 C97 57 90 48 87 31 C84 32 81 33 78 33 C67 33 59 25 59 14 C59 3 67 -5 78 -5 L79 -5 L79 -5 Z " />
<glyph glyph-name="less" unicode="&#x3c;" horiz-adv-x="412" d="M337 500 L42 281 L40 279 L40 271 L42 269 L337 50 L337 60 L46 275 L337 490 L337 500 L337 500 Z " />
<glyph glyph-name="equal" unicode="&#x3d;" horiz-adv-x="403" d="M73 204 L73 196 L333 196 L333 204 L73 204 L73 204 Z M73 304 L73 296 L333 296 L333 304 L73 304 L73 304 Z " />
<glyph glyph-name="greater" unicode="&#x3e;" horiz-adv-x="410" d="M356 275 L75 60 L75 50 L360 269 L370 275 L360 281 L75 500 L75 490 L356 275 L356 275 Z " />
<glyph glyph-name="question" unicode="&#x3f;" horiz-adv-x="245" d="M106 -5 C117 -5 126 4 126 15 C126 26 117 35 106 35 C95 35 86 26 86 15 C86 4 95 -5 106 -5 L106 -5 Z M112 348 L146 348 C197 348 210 420 210 458 C210 576 160 665 93 665 C66 665 45 635 45 596 C45 594 50 593 57 593 C87 593 71 639 93 647 C96 648 99 648 102 648 C162 648 208 567 208 459 C208 426 195 362 142 362 L107 362 C104 362 102 361 102 359 L107 103 L109 103 L112 348 L112 348 Z " />
<glyph glyph-name="at" unicode="&#x40;" horiz-adv-x="941" d="M866 0 C802 -137 633 -241 472 -241 C243 -241 71 -26 71 259 C71 544 243 759 471 759 C699 759 871 580 871 343 C871 149 793 2 689 2 C566 2 495 87 524 200 L594 480 L575 480 L548 370 C544 439 513 490 473 490 C352 490 260 366 260 201 C260 96 312 17 380 17 C422 17 471 77 499 161 C494 64 568 -5 685 -5 C800 -5 887 145 887 343 C887 583 708 764 471 764 C234 764 55 547 55 259 C55 -29 234 -246 472 -246 C635 -246 807 -140 873 0 L866 0 L866 0 Z M544 356 L505 200 C480 102 431 28 390 28 C329 28 282 104 282 205 C282 364 364 484 472 484 C513 484 544 429 544 356 L544 356 Z " />
<glyph glyph-name="A" unicode="A" horiz-adv-x="401" d="M309 151 L336 39 L335 39 L315 36 C307 35 308 38 308 17 C308 -2 307 0 315 0 L345 0 L357 0 L369 0 L390 0 C398 0 397 -2 397 16 C397 38 398 35 390 36 L359 39 L200 675 L194 675 L188 650 L188 650 L188 650 L70 156 L68 156 L66 151 L69 151 L42 39 L16 36 C8 35 9 38 9 17 C9 -2 8 0 16 0 L33 0 L37 0 L41 0 L79 0 C87 0 86 -2 86 16 C86 38 87 35 79 36 L50 39 L76 151 L309 151 L309 151 Z M307 156 L77 156 L190 637 L307 156 L307 156 Z " />
<glyph glyph-name="B" unicode="B" horiz-adv-x="399" d="M184 355 C177 356 170 356 163 356 L109 355 L109 654 L171 654 C249 654 307 594 307 515 C307 433 256 368 185 355 L184 355 L184 355 Z M184 350 C285 339 358 268 358 178 C358 79 284 5 186 5 L110 5 L110 348 L160 348 C168 348 176 349 184 350 L184 350 Z M201 353 C276 370 329 433 329 514 C329 597 261 659 171 659 L109 659 L98 659 L87 659 L60 659 C53 659 54 661 54 643 C54 621 53 624 60 623 L87 620 L87 38 L60 35 C53 34 54 37 54 15 C54 -3 53 -1 60 -1 L87 -1 L98 -1 L109 -1 L187 -1 C298 -1 381 76 381 178 C381 268 306 338 201 352 L201 353 L201 353 Z " />
<glyph glyph-name="C" unicode="C" horiz-adv-x="606" d="M547 59 L547 108 C547 116 546 122 544 122 C543 122 538 116 530 108 C510 84 478 49 458 25 C414 10 370 1 338 1 C199 1 94 142 94 330 C94 518 199 659 338 659 C370 659 414 650 458 635 C478 611 510 576 530 552 C538 544 543 538 544 538 C546 538 547 544 547 552 L547 601 C484 638 394 665 339 665 C186 665 71 521 71 330 C71 139 186 -5 339 -5 C394 -5 484 22 547 59 L547 59 Z " />
<glyph glyph-name="D" unicode="D" horiz-adv-x="497" d="M97 0 L108 0 L188 0 C336 0 448 142 448 330 C448 518 328 660 168 660 L108 660 L97 660 L86 660 L59 660 C52 660 53 662 53 644 C53 622 52 625 59 624 L86 621 L86 39 L59 36 C52 35 53 38 53 16 C53 -2 52 0 59 0 L86 0 L97 0 L97 0 Z M108 6 L108 654 L168 654 C315 654 426 515 426 330 C426 145 324 6 188 6 L108 6 L108 6 Z " />
<glyph glyph-name="E" unicode="E" horiz-adv-x="359" d="M295 3 C297 17 301 39 303 53 C304 58 305 61 305 63 C302 61 297 58 289 53 L216 6 L88 6 L88 349 L140 349 L200 320 C217 311 225 307 228 305 C228 307 228 311 228 319 L228 349 L228 352 L228 355 L228 381 C228 387 228 391 228 393 C223 391 214 387 200 381 L140 355 L88 355 L88 654 L207 654 L272 607 C279 602 283 599 286 597 C286 599 286 602 286 607 L286 657 L286 660 L283 660 L247 660 L88 660 L77 660 L66 660 L40 660 C32 660 33 662 33 644 C33 622 32 625 40 624 L66 621 L66 39 L40 36 C32 35 33 38 33 16 C33 -2 32 0 40 0 L66 0 L77 0 L88 0 L255 0 L293 0 L294 0 L295 3 L295 3 Z M306 66 C310 66 312 67 306 63 C306 65 306 66 306 66 L306 66 Z M306 66 L306 66 L306 66 L306 66 Z M227 304 C228 304 228 304 228 305 C230 304 229 304 227 304 L227 304 Z M227 304 C226 304 225 304 224 304 C225 304 226 304 227 304 L227 304 Z M228 396 C234 397 236 397 229 394 C229 395 229 396 229 396 L228 396 L228 396 Z M229 396 C228 397 227 396 225 396 C226 396 227 396 228 396 L229 396 L229 396 Z M286 594 L286 594 L286 594 L286 594 Z M286 594 L286 594 L286 594 L286 594 Z M286 594 C286 594 286 594 286 596 C292 592 290 593 286 594 L286 594 Z " />
<glyph glyph-name="F" unicode="F" horiz-adv-x="323" d="M217 299 C218 299 218 299 218 300 C220 299 219 299 217 299 L217 299 Z M217 299 C216 299 215 299 214 299 C215 299 216 299 217 299 L217 299 Z M218 300 C218 302 218 306 218 314 L218 344 L218 347 L218 350 L218 376 C218 382 218 386 218 388 C213 386 204 382 190 376 L130 350 L88 350 L88 654 L237 654 L302 607 C309 602 313 599 316 597 C316 599 316 602 316 607 L316 657 L316 660 L313 660 L277 660 L88 660 L77 660 L66 660 L40 660 C32 660 33 662 33 644 C33 622 32 625 40 624 L66 621 L66 39 L40 36 C32 35 33 38 33 16 C33 -2 32 0 40 0 L66 0 L77 0 L88 0 L125 0 C133 0 132 -2 131 16 C132 38 133 35 125 36 L88 39 L88 344 L130 344 L190 315 C207 306 215 302 218 300 L218 300 Z M218 391 C224 392 226 392 219 389 C219 390 219 391 219 391 L218 391 L218 391 Z M219 391 C218 392 217 391 215 391 C216 391 217 391 218 391 L219 391 L219 391 Z M316 594 L316 594 L316 594 L316 594 Z M316 594 L316 594 L316 594 L316 594 Z M316 594 C316 594 316 594 316 596 C322 592 320 593 316 594 L316 594 Z " />
<glyph glyph-name="G" unicode="G" horiz-adv-x="649" d="M512 271 L512 55 C452 23 376 0 328 0 C195 0 95 141 95 329 C95 517 195 658 328 658 C357 658 397 649 438 634 L438 634 C458 611 490 575 510 551 C518 543 523 537 524 537 C526 537 527 543 527 551 L527 600 C464 637 378 664 328 664 C182 664 71 520 71 329 C71 138 182 -6 328 -6 C381 -6 469 21 532 58 L532 270 L558 273 C565 274 564 271 565 293 C564 311 565 309 558 309 L532 309 L522 309 L512 309 L486 309 C478 309 479 311 479 293 C479 271 478 274 486 273 L512 271 L512 271 Z " />
<glyph glyph-name="H" unicode="H" horiz-adv-x="542" d="M466 0 L477 0 L503 0 C510 0 509 -2 510 16 C509 38 510 35 503 36 L477 39 L477 621 L503 624 C510 625 509 622 510 644 C509 662 510 660 503 660 L477 660 L466 660 L454 660 L428 660 C421 660 422 662 422 644 C422 622 421 625 428 624 L454 621 L454 242 L88 242 L88 621 L115 624 C123 625 122 622 121 644 C122 662 123 660 115 660 L88 660 L77 660 L66 660 L40 660 C32 660 33 662 33 644 C33 622 32 625 40 624 L66 621 L66 39 L40 36 C32 35 33 38 33 16 C33 -2 32 0 40 0 L66 0 L77 0 L88 0 L115 0 C123 0 122 -2 121 16 C122 38 123 35 115 36 L88 39 L88 236 L454 236 L454 39 L428 36 C421 35 422 38 422 16 C422 -2 421 0 428 0 L454 0 L466 0 L466 0 Z " />
<glyph glyph-name="I" unicode="I" horiz-adv-x="154" d="M77 0 L88 0 L115 0 C123 0 122 -2 121 16 C122 38 123 35 115 36 L88 39 L88 621 L115 624 C123 625 122 622 121 644 C122 662 123 660 115 660 L88 660 L77 660 L66 660 L40 660 C32 660 33 662 33 644 C33 622 32 625 40 624 L66 621 L66 39 L40 36 C32 35 33 38 33 16 C33 -2 32 0 40 0 L66 0 L77 0 L77 0 Z " />
<glyph glyph-name="J" unicode="J" horiz-adv-x="181" d="M93 621 L93 200 C93 59 79 -6 48 -6 C39 -6 27 18 19 50 C18 55 13 59 9 59 C3 59 -1 55 0 50 C9 16 27 -10 42 -10 C93 -10 116 62 116 219 L116 621 L142 624 C149 625 148 622 149 644 C148 662 149 660 142 660 L116 660 L105 660 L93 660 L67 660 C59 660 60 662 61 644 C61 622 60 625 67 624 L93 621 L93 621 Z " />
<glyph glyph-name="K" unicode="K" horiz-adv-x="454" d="M445 -5 L445 -1 L440 -1 C423 -1 363 66 250 210 L125 368 L323 621 L323 621 L351 624 C359 625 358 623 359 642 C360 663 361 660 353 660 L350 660 L348 660 L322 660 C314 660 315 662 314 644 C313 617 312 615 317 620 L317 620 L121 371 L120 372 L107 354 L107 620 L133 623 C141 624 140 621 140 643 C140 661 141 659 133 659 L107 659 L96 659 L85 659 L58 659 C51 659 52 661 52 643 C52 621 51 624 58 623 L85 620 L85 38 L58 35 C51 34 52 37 52 15 C52 -3 51 -1 58 -1 L85 -1 L96 -1 L107 -1 L133 -1 C141 -1 140 -3 140 15 C140 37 141 34 133 35 L107 38 L107 354 L110 349 L110 350 L235 191 C342 56 404 -6 432 -6 L445 -5 L445 -5 Z " />
<glyph glyph-name="L" unicode="L" horiz-adv-x="359" d="M295 3 C297 18 301 40 304 55 C306 71 307 69 302 70 C293 70 296 72 279 58 L216 6 L88 6 L88 621 L115 624 C123 625 122 622 121 644 C122 662 123 660 115 660 L88 660 L77 660 L66 660 L40 660 C32 660 33 662 33 644 C33 622 32 625 40 624 L66 621 L66 39 L40 36 C32 35 33 38 33 16 C33 -2 32 0 40 0 L66 0 L77 0 L88 0 L255 0 L293 0 L294 0 L295 3 L295 3 Z " />
<glyph glyph-name="M" unicode="M" horiz-adv-x="566" d="M299 27 L105 660 L95 660 L92 660 L88 660 L62 660 C55 660 55 662 55 644 C55 622 55 625 62 624 L87 621 L65 39 L39 36 C32 35 33 38 33 17 C33 -2 32 0 39 0 L64 0 L68 0 L71 0 L109 0 C117 0 116 -2 116 16 C116 38 117 35 109 36 L72 39 L94 629 L285 9 L290 -5 L297 22 L299 28 L299 27 L298 23 L290 -5 L295 -5 L488 639 L513 39 L489 36 C481 35 482 38 482 16 C482 -2 481 0 489 0 L515 0 L526 0 L538 0 L562 0 C570 0 569 -2 569 17 C569 38 570 35 562 36 L536 39 L510 621 L532 624 C540 625 539 622 539 643 C539 662 540 660 532 660 L508 660 L498 660 L495 660 L488 660 L299 27 L299 27 Z " />
<glyph glyph-name="N" unicode="N" horiz-adv-x="467" d="M401 621 L401 35 L91 660 L78 651 L78 651 L91 660 L78 660 L75 660 L71 660 L45 660 C38 660 39 662 39 644 C39 622 38 625 45 624 L71 621 L71 39 L45 36 C38 35 39 38 39 16 C39 -2 38 0 45 0 L71 0 L75 0 L78 0 L104 0 C112 0 111 -2 111 16 C111 38 112 35 104 36 L78 39 L78 637 L391 9 L398 -4 L408 -4 L408 17 L408 621 L434 624 C442 625 441 622 441 644 C441 662 442 660 434 660 L408 660 L404 660 L401 660 L375 660 C367 660 368 662 368 644 C368 622 367 625 375 624 L401 621 L401 621 Z " />
<glyph glyph-name="O" unicode="O" horiz-adv-x="639" d="M330 1 C183 1 95 161 95 330 C95 499 183 659 330 659 C477 659 565 499 565 330 C565 161 477 1 330 1 L330 1 Z M71 330 C71 158 168 -5 330 -5 C492 -5 589 158 589 330 C589 502 492 665 330 665 C168 665 71 502 71 330 L71 330 Z " />
<glyph glyph-name="P" unicode="P" horiz-adv-x="383" d="M97 0 L108 0 L134 0 C142 0 141 -2 141 16 C141 38 142 35 134 36 L108 39 L108 300 L166 300 C279 300 363 376 363 478 C363 582 285 660 181 660 L108 660 L97 660 L86 660 L59 660 C52 660 53 662 53 644 C53 622 52 625 59 624 L86 621 L86 39 L59 36 C52 35 53 38 53 16 C53 -2 52 0 59 0 L86 0 L97 0 L97 0 Z M108 305 L108 654 L181 654 C272 654 340 578 340 478 C340 379 265 305 166 305 L108 305 L108 305 Z " />
<glyph glyph-name="Q" unicode="Q" horiz-adv-x="639" d="M625 -50 L623 -49 C595 -83 547 -108 512 -108 C460 -108 392 -64 332 -5 C493 -4 589 158 589 329 C589 501 492 664 330 664 C168 664 71 501 71 329 C71 159 166 -2 325 -5 C392 -73 464 -124 509 -124 C541 -124 591 -93 625 -51 L625 -50 L625 -50 Z M330 0 C183 0 95 160 95 329 C95 498 183 658 330 658 C477 658 565 498 565 329 C565 160 477 0 330 0 L330 0 Z " />
<glyph glyph-name="R" unicode="R" horiz-adv-x="418" d="M418 0 L418 4 L413 4 C407 4 400 13 333 102 L171 319 C262 325 329 396 329 489 C329 586 260 659 170 659 L107 659 L96 659 L85 659 L58 659 C51 659 52 661 52 643 C52 621 51 624 58 623 L85 620 L85 38 L58 35 C51 34 52 37 52 15 C52 -3 51 -1 58 -1 L85 -1 L96 -1 L107 -1 L133 -1 C141 -1 140 -3 140 15 C140 37 141 34 133 35 L107 38 L107 318 L144 318 L302 105 C374 8 383 -1 406 -1 L418 0 L418 0 Z M157 323 L140 323 L107 323 L107 653 L170 653 C247 653 305 582 305 489 C305 394 241 323 157 323 L157 323 Z " />
<glyph glyph-name="S" unicode="S" horiz-adv-x="379" d="M216 648 L216 648 C237 623 268 586 289 561 C296 553 301 547 302 547 C304 547 305 553 305 561 L305 612 L303 608 L303 608 L305 612 C253 642 198 665 177 665 C109 665 57 590 57 491 C57 430 110 357 180 322 C259 282 319 208 319 149 C319 65 272 1 210 1 C190 1 162 7 133 17 L133 17 C112 40 81 75 60 99 C53 107 47 113 47 113 C45 113 44 107 44 99 L44 48 L46 52 L46 52 L44 48 C96 18 168 -5 210 -5 C281 -5 335 65 335 158 C335 220 275 297 195 338 C126 373 73 443 73 500 C73 591 117 660 176 660 C184 660 198 656 216 648 L216 648 Z " />
<glyph glyph-name="T" unicode="T" horiz-adv-x="500" d="M471 587 C471 587 471 588 471 590 C476 586 474 586 470 586 L471 587 L471 587 Z M470 586 L470 586 C471 586 471 586 471 586 L470 586 L470 586 Z M471 589 C471 591 471 595 470 601 C469 617 467 641 466 656 L465 659 L460 659 L427 659 L73 659 L40 659 L35 659 L34 656 C33 641 31 617 30 601 C29 595 29 591 29 589 C32 591 37 595 45 601 L118 653 L239 653 L239 38 L213 35 C205 34 206 37 206 15 C206 -3 205 -1 213 -1 L239 -1 L250 -1 L261 -1 L287 -1 C295 -1 294 -3 294 15 C294 37 295 34 287 35 L261 38 L261 653 L382 653 L455 601 C463 595 468 591 471 589 L471 589 Z M28 586 C24 586 22 586 27 590 C27 588 27 587 27 587 L28 586 L28 586 Z M27 587 C27 587 27 587 28 587 L28 587 L27 587 L27 587 Z " />
<glyph glyph-name="U" unicode="U" horiz-adv-x="468" d="M76 621 L76 201 C76 84 131 -5 251 -5 C366 -5 419 71 419 171 L419 621 L449 624 C456 625 456 622 456 644 C456 662 456 660 449 660 L419 660 L416 660 L413 660 L381 660 C373 660 374 662 374 644 C374 622 373 625 381 624 L413 621 L413 174 C413 76 363 3 254 3 C147 3 98 86 98 197 L98 621 L124 624 C132 625 131 622 131 644 C131 662 132 660 124 660 L98 660 L87 660 L76 660 L49 660 C42 660 43 662 43 644 C43 622 42 625 49 624 L76 621 L76 621 Z " />
<glyph glyph-name="V" unicode="V" horiz-adv-x="406" d="M364 621 L237 18 L78 621 L103 624 C111 625 110 622 109 644 C110 662 110 660 103 660 L68 660 L56 660 L43 660 L32 660 C25 660 26 662 26 643 C26 622 25 625 32 624 L54 621 L230 -15 L235 -15 L370 621 L370 621 L397 624 C405 625 404 622 404 643 C404 662 405 660 397 660 L378 660 L375 660 L372 660 L330 660 C322 660 322 662 323 644 C324 622 323 625 330 624 L364 621 L364 621 Z " />
<glyph glyph-name="W" unicode="W" horiz-adv-x="565" d="M30 621 L30 621 L163 -15 L169 -15 L279 630 L402 -15 L408 -15 L529 621 L555 624 C563 625 562 622 562 643 C562 662 563 660 555 660 L536 660 L532 660 L529 660 L492 660 C484 660 485 662 486 644 C485 622 484 625 493 624 L522 621 L409 22 L286 670 L281 670 L163 -15 L169 20 L54 621 L78 624 C85 625 84 622 85 644 C84 662 85 660 78 660 L47 660 L35 660 L22 660 L9 660 C1 660 2 662 2 643 C2 622 1 625 9 624 L30 621 L30 621 Z " />
<glyph glyph-name="X" unicode="X" horiz-adv-x="471" d="M90 621 L91 621 L241 327 L114 39 L114 39 L87 36 C79 35 80 37 80 17 C80 -2 79 0 87 0 L97 0 L100 0 L103 0 L141 0 C149 0 148 -2 148 16 C148 38 149 35 141 36 L120 39 L243 322 L387 39 L372 36 C365 34 366 36 366 16 C366 -2 365 0 372 0 L407 0 L420 0 L433 0 L434 0 C441 0 440 -2 440 18 C440 37 441 35 434 36 L413 39 L256 346 L398 621 L398 621 L426 624 C434 625 433 623 432 643 C433 662 434 660 426 660 L418 660 L415 660 L412 660 L374 660 C366 660 367 662 367 644 C368 622 367 625 374 624 L392 621 L254 350 L116 621 L116 621 L131 624 C139 626 138 624 138 644 C138 662 139 660 131 660 L96 660 L83 660 L71 660 L70 660 C62 660 63 662 63 642 C63 623 62 625 70 624 L90 621 L90 621 Z " />
<glyph glyph-name="Y" unicode="Y" horiz-adv-x="386" d="M343 621 L344 621 L212 265 L210 265 L90 621 L108 624 C115 625 114 622 115 644 C115 662 116 660 108 660 L77 660 L63 660 L50 660 L44 660 C36 660 37 662 37 643 C37 623 36 625 44 624 L64 621 L197 249 L197 39 L170 36 C163 35 164 38 164 16 C164 -2 163 0 170 0 L197 0 L208 0 L219 0 L245 0 C253 0 252 -2 252 16 C252 38 253 35 245 36 L219 39 L219 265 L351 621 L351 621 L375 624 C383 625 382 623 382 643 C382 662 383 660 375 660 L365 660 L362 660 L359 660 L320 660 C312 660 313 662 314 644 C313 622 312 625 320 624 L343 621 L343 621 Z " />
<glyph glyph-name="Z" unicode="Z" horiz-adv-x="457" d="M404 3 C407 18 411 41 413 56 C416 71 417 70 412 70 C402 71 405 72 388 58 L326 6 L90 6 L409 660 L396 660 L384 660 L175 660 L142 660 L136 660 L136 657 C132 645 127 625 124 612 C123 608 122 605 121 603 C125 605 131 608 139 612 L219 653 L381 653 L62 -1 L74 -1 L87 -1 L365 -1 L403 -1 L404 -1 L404 3 L404 3 Z M120 597 C113 597 111 596 122 602 C121 598 121 597 121 597 L120 597 L120 597 Z M121 597 C121 597 121 597 122 597 L122 597 L121 597 L121 597 Z " />
<glyph glyph-name="bracketleft" unicode="&#x5b;" horiz-adv-x="213" d="M99 656 L204 656 L204 660 L99 660 L83 660 L83 -120 L99 -120 L204 -120 L204 -116 L99 -116 L99 656 L99 656 Z " />
<glyph glyph-name="backslash" unicode="&#x5c;" horiz-adv-x="203" d="M197 -145 L204 -145 L-53 710 L-60 710 L197 -145 L197 -145 Z " />
<glyph glyph-name="bracketright" unicode="&#x5d;" horiz-adv-x="195" d="M110 656 L110 -116 L5 -116 L5 -120 L110 -120 L125 -120 L125 660 L110 660 L5 660 L5 656 L110 656 L110 656 Z " />
<glyph glyph-name="underscore" unicode="&#x5f;" horiz-adv-x="185" d="M5 -50 L5 -61 L180 -61 L180 -50 L5 -50 L5 -50 Z " />
<glyph glyph-name="a" unicode="a" horiz-adv-x="349" d="M327 34 C308 15 288 0 272 0 C244 0 234 23 234 54 L234 363 C234 444 206 505 169 505 C124 505 82 466 72 414 L92 414 C102 463 133 499 165 499 C192 499 213 442 213 367 L213 244 L134 226 C78 213 35 159 35 100 C35 40 63 -5 101 -5 C125 -5 171 32 213 82 L213 52 C213 17 225 -10 258 -10 C280 -10 306 8 329 31 L327 34 L327 34 Z M213 238 L213 85 C176 40 133 8 110 8 C79 8 55 50 55 105 C55 158 89 207 135 218 L213 238 L213 238 Z " />
<glyph glyph-name="b" unicode="b" horiz-adv-x="430" d="M63 0 L65 0 C67 11 71 20 75 20 C113 20 153 -5 205 -5 C302 -5 375 103 375 246 C375 394 306 505 215 505 C195 505 138 483 83 453 L83 651 L83 715 L83 720 L79 720 L37 708 C35 707 33 706 31 706 C33 703 35 699 37 694 L63 645 L63 112 L63 0 L63 0 Z M25 703 C25 716 24 719 31 705 C27 704 26 703 26 703 L25 703 L25 703 Z M26 703 L26 703 L26 703 L26 703 Z M84 449 C134 475 184 495 200 495 C288 495 355 384 355 236 C355 102 291 0 206 0 C137 0 84 48 84 112 L84 449 L84 449 Z " />
<glyph glyph-name="c" unicode="c" horiz-adv-x="334" d="M282 24 L280 26 C267 15 226 7 183 7 C119 7 71 110 71 246 C71 390 129 499 205 499 C235 499 261 458 265 403 C266 397 270 393 275 393 C280 393 284 397 284 402 C279 461 246 505 207 505 C118 505 50 390 50 238 C50 100 100 -5 166 -5 C213 -5 262 7 282 24 L282 24 Z " />
<glyph glyph-name="d" unicode="d" horiz-adv-x="467" d="M396 16 C396 3 396 0 389 14 C394 16 395 16 395 17 L396 16 L396 16 Z M395 17 L395 17 L395 17 L395 17 Z M389 15 C387 18 385 22 383 27 L357 76 L357 653 L357 717 L357 722 L353 722 L311 710 C309 709 307 708 305 708 C307 705 309 701 311 696 L337 647 L337 424 C312 468 258 506 207 506 C120 506 54 387 54 229 C54 96 117 -4 199 -4 C243 -4 301 22 337 56 L337 7 L337 2 L341 2 L383 14 C385 15 387 16 389 16 L389 15 L389 15 Z M299 706 C299 719 298 722 305 708 C300 707 299 706 299 706 L299 706 Z M299 706 L299 706 L299 706 L299 706 Z M337 71 L337 60 C307 31 253 9 210 9 C133 9 75 107 75 238 C75 388 131 502 206 502 C260 502 316 460 337 414 L337 71 L337 71 Z " />
<glyph glyph-name="e" unicode="e" horiz-adv-x="341" d="M289 24 L287 26 C274 15 230 7 186 7 C120 7 71 110 71 246 C71 276 73 305 77 331 L272 331 L291 331 C291 430 246 505 186 505 C108 505 50 390 50 238 C50 100 101 -5 169 -5 C218 -5 269 7 289 24 L289 24 Z M78 334 C93 432 134 499 185 499 C234 499 272 434 272 347 C272 342 268 338 263 338 L272 338 L78 334 L78 334 Z " />
<glyph glyph-name="f" unicode="f" horiz-adv-x="119" d="M53 0 L63 0 L89 0 C97 0 96 -2 96 16 C96 38 97 35 89 36 L63 39 L63 492 L117 492 L117 500 L63 500 L63 533 C63 637 86 716 116 716 C130 716 142 692 144 660 C145 656 149 652 154 652 C159 652 163 656 163 660 C160 694 142 720 122 720 C81 720 48 641 44 537 L43 500 L-4 500 L-4 492 L43 492 L43 39 L17 36 C9 35 10 38 10 16 C10 -2 9 0 17 0 L43 0 L53 0 L53 0 Z " />
<glyph glyph-name="g" unicode="g" horiz-adv-x="341" d="M342 500 L222 501 L222 501 C213 504 204 505 194 505 C127 505 76 439 76 352 C76 276 115 216 170 202 C105 201 57 167 57 122 C57 75 90 40 137 36 C77 -2 32 -60 32 -101 C32 -179 76 -237 133 -237 C241 -237 322 -161 322 -60 C322 7 261 58 181 58 L150 55 C104 53 70 85 70 129 C70 168 114 198 172 198 L194 198 C261 198 312 264 312 351 C312 415 284 468 242 491 L341 488 L342 500 L342 500 Z M94 351 C94 436 137 500 193 500 C203 500 212 498 221 494 L221 492 L227 492 C266 472 293 418 293 351 C293 266 250 202 194 202 C138 202 95 266 95 351 L94 351 L94 351 Z M142 36 C145 36 148 36 151 36 L176 39 C250 39 307 -8 307 -70 C307 -162 233 -232 136 -232 C84 -232 45 -175 45 -99 C45 -55 86 2 141 36 L142 36 L142 36 Z " />
<glyph glyph-name="h" unicode="h" horiz-adv-x="395" d="M33 704 C33 717 32 720 39 706 C34 705 33 704 33 704 L33 704 Z M33 704 L33 704 L33 704 L33 704 Z M39 706 C41 703 43 699 45 694 L71 645 L71 38 L45 35 C37 34 38 37 38 15 C38 -3 37 -1 45 -1 L71 -1 L81 -1 L91 -1 L117 -1 C125 -1 124 -3 124 15 C124 37 125 34 117 35 L91 38 L91 433 C152 466 209 490 225 490 C282 490 309 422 309 331 L309 37 L283 34 C275 33 276 36 276 14 C276 -4 275 -2 283 -2 L309 -2 L319 -2 L329 -2 L355 -2 C363 -2 362 -4 362 14 C362 36 363 33 355 34 L329 37 L329 334 C329 430 301 503 240 503 C228 503 164 474 91 436 L91 650 L91 714 L91 719 L87 719 L45 707 C43 706 41 705 39 705 L39 706 L39 706 Z " />
<glyph glyph-name="i" unicode="i" horiz-adv-x="162" d="M80 570 C91 570 100 579 100 590 C100 601 91 610 80 610 C69 610 60 601 60 590 C60 579 69 570 80 570 L80 570 Z M33 484 C33 497 32 500 39 486 C35 485 34 484 34 484 L33 484 L33 484 Z M34 484 L34 484 L34 484 L34 484 Z M40 486 C42 483 44 479 46 474 L72 425 L72 38 L46 35 C38 34 39 37 39 15 C39 -3 38 -1 46 -1 L72 -1 L82 -1 L92 -1 L118 -1 C126 -1 125 -3 125 15 C125 37 126 34 118 35 L92 38 L92 430 L92 494 L92 499 L88 499 L46 487 C44 486 42 485 40 485 L40 486 L40 486 Z " />
<glyph glyph-name="j" unicode="j" horiz-adv-x="138" d="M56 570 C67 570 76 579 76 590 C76 601 67 610 56 610 C45 610 36 601 36 590 C36 579 45 570 56 570 L56 570 Z M9 484 C9 497 8 500 15 486 C11 485 10 484 10 484 L9 484 L9 484 Z M10 484 L10 484 L10 484 L10 484 Z M16 486 C18 483 20 479 22 474 L48 425 L48 11 C48 -158 36 -209 6 -227 L8 -230 C51 -203 68 -150 68 17 L68 430 L68 494 L68 499 L64 499 L22 487 C20 486 18 485 16 485 L16 486 L16 486 Z " />
<glyph glyph-name="k" unicode="k" horiz-adv-x="306" d="M294 39 L294 39 L121 288 L252 461 L281 464 C289 465 288 463 288 482 C289 503 290 500 282 500 L277 500 L273 500 L247 500 C239 500 240 502 240 484 C240 462 240 456 242 457 L107 275 L107 651 L107 715 L107 720 L103 720 L61 708 C59 707 57 706 55 706 C57 703 59 699 61 694 L87 645 L87 38 L61 35 C53 34 54 37 54 15 C54 -3 53 -1 61 -1 L87 -1 L97 -1 L107 -1 L133 -1 C141 -1 140 -3 140 15 C140 37 141 34 133 35 L107 38 L107 274 L109 271 L109 271 L263 47 C263 39 263 28 263 15 C263 -3 262 -1 269 -1 L296 -1 L308 -1 L321 -1 L322 -1 C330 -1 329 -3 329 17 C329 36 330 34 322 35 L294 39 L294 39 Z M49 703 C49 716 48 719 55 705 C51 704 50 703 50 703 L49 703 L49 703 Z M50 703 L50 703 L50 703 L50 703 Z M270 38 L270 38 L270 38 L270 38 Z " />
<glyph glyph-name="l" unicode="l" horiz-adv-x="162" d="M33 704 C33 717 32 720 39 706 C35 705 34 704 34 704 L33 704 L33 704 Z M34 704 L34 704 L34 704 L34 704 Z M40 706 C42 703 44 699 46 694 L72 645 L72 38 L46 35 C38 34 39 37 39 15 C39 -3 38 -1 46 -1 L72 -1 L82 -1 L92 -1 L118 -1 C126 -1 125 -3 125 15 C125 37 126 34 118 35 L92 38 L92 650 L92 714 L92 719 L88 719 L46 707 C44 706 42 705 40 705 L40 706 L40 706 Z " />
<glyph glyph-name="m" unicode="m" horiz-adv-x="653" d="M33 484 C33 496 32 499 39 486 C35 485 34 485 34 485 L33 484 L33 484 Z M34 485 C34 485 34 485 34 484 L34 484 L34 485 L34 485 Z M40 486 C42 483 44 479 46 474 L72 425 L72 38 L46 35 C38 34 39 37 39 15 C39 -3 38 -1 46 -1 L72 -1 L82 -1 L92 -1 L118 -1 C126 -1 125 -3 125 15 C125 37 126 34 118 35 L92 38 L92 430 L92 433 C155 466 213 491 232 491 C280 491 320 422 320 331 L320 37 L294 34 C286 33 287 36 287 14 C287 -4 286 -2 294 -2 L320 -2 L330 -2 L340 -2 L366 -2 C374 -2 373 -4 373 14 C373 36 374 33 366 34 L340 37 L340 334 C340 365 336 394 328 419 C404 460 467 491 476 491 C527 491 569 423 569 332 L569 38 L543 35 C535 34 536 37 536 15 C536 -3 535 -1 543 -1 L569 -1 L579 -1 L589 -1 L615 -1 C623 -1 622 -3 622 15 C622 37 623 34 615 35 L589 38 L589 335 C589 431 544 504 492 504 C485 504 415 469 327 422 C311 472 281 504 247 504 C230 504 165 475 92 437 L92 456 L92 500 L88 500 L46 488 C44 487 42 486 40 486 L40 486 Z " />
<glyph glyph-name="n" unicode="n" horiz-adv-x="395" d="M33 484 C33 496 32 499 39 486 C35 485 34 485 34 485 L33 484 L33 484 Z M34 485 C34 485 34 485 34 484 L34 484 L34 485 L34 485 Z M40 486 C42 483 44 479 46 474 L72 425 L72 38 L46 35 C38 34 39 37 39 15 C39 -3 38 -1 46 -1 L72 -1 L82 -1 L92 -1 L118 -1 C126 -1 125 -3 125 15 C125 37 126 34 118 35 L92 38 L92 430 L92 433 C153 466 210 490 226 490 C283 490 310 422 310 331 L310 37 L284 34 C276 33 277 36 277 14 C277 -4 276 -2 284 -2 L310 -2 L320 -2 L330 -2 L356 -2 C364 -2 363 -4 363 14 C363 36 364 33 356 34 L330 37 L330 334 C330 430 302 503 241 503 C229 503 165 474 92 436 L92 455 L92 499 L88 499 L46 487 C44 486 42 485 40 485 L40 486 L40 486 Z " />
<glyph glyph-name="o" unicode="o" horiz-adv-x="460" d="M230 -1 C140 -1 72 107 72 250 C72 393 140 501 230 501 C320 501 388 393 388 250 C388 107 320 -1 230 -1 L230 -1 Z M50 250 C50 105 128 -5 230 -5 C333 -5 411 105 411 250 C411 395 333 505 230 505 C128 505 50 395 50 250 L50 250 Z " />
<glyph glyph-name="p" unicode="p" horiz-adv-x="456" d="M33 484 C33 496 32 499 39 486 C35 485 34 485 34 485 L33 484 L33 484 Z M34 485 C34 485 34 485 34 484 L34 484 L34 485 L34 485 Z M40 486 C42 483 44 479 46 474 L72 425 L72 -192 L46 -195 C38 -196 39 -193 39 -215 C39 -233 38 -231 46 -231 L72 -231 L82 -231 L92 -231 L118 -231 C126 -231 125 -233 125 -215 C125 -193 126 -196 118 -195 L92 -192 L92 78 C116 28 165 -6 222 -6 C325 -6 403 104 403 251 C403 395 336 504 246 504 C199 504 133 468 92 420 L92 430 L92 455 L91 455 L89 499 L85 499 L46 487 C44 486 42 485 40 485 L40 486 L40 486 Z M92 134 L92 417 C128 459 188 491 231 491 C318 491 383 381 383 235 C383 101 314 0 222 0 C155 0 99 58 92 134 L92 134 Z " />
<glyph glyph-name="q" unicode="q" horiz-adv-x="445" d="M365 -230 L375 -230 L401 -230 C408 -230 408 -232 408 -214 C408 -192 408 -195 401 -194 L375 -191 L375 387 L375 500 L373 500 C371 489 364 480 358 480 C321 480 283 505 232 505 C141 505 73 386 73 228 C73 95 134 -5 215 -5 C256 -5 316 24 355 63 L355 -191 L329 -194 C321 -195 322 -192 322 -214 C322 -232 321 -230 329 -230 L355 -230 L365 -230 L365 -230 Z M355 65 C321 32 266 7 226 7 C151 7 94 105 94 236 C94 386 153 499 232 499 C302 499 355 451 355 387 L355 65 L355 65 Z " />
<glyph glyph-name="r" unicode="r" horiz-adv-x="258" d="M33 484 C33 496 32 499 39 486 C35 485 34 485 34 485 L33 484 L33 484 Z M34 485 C34 485 34 485 34 484 L34 484 L34 485 L34 485 Z M40 486 C42 483 44 479 46 474 L72 425 L72 38 L46 35 C38 34 39 37 39 15 C39 -3 38 -1 46 -1 L72 -1 L82 -1 L92 -1 L118 -1 C126 -1 125 -3 125 15 C125 37 126 34 118 35 L92 38 L92 420 C124 460 160 490 176 490 C198 490 218 460 241 460 C246 460 250 464 250 470 C250 490 232 505 192 505 C172 505 130 470 93 423 L93 430 L93 455 L92 455 L90 499 L86 499 L47 487 C45 486 43 485 41 485 L40 486 L40 486 Z " />
<glyph glyph-name="s" unicode="s" horiz-adv-x="303" d="M165 489 L165 489 C178 471 198 444 211 426 C216 420 221 416 224 416 C227 416 229 420 229 426 L229 459 L227 455 L227 455 L229 459 C183 485 150 505 151 505 C106 505 72 454 72 385 C72 336 105 275 150 243 C200 208 237 155 237 120 C237 52 205 0 163 0 C155 0 143 3 128 8 L128 8 L64 72 L51 85 C50 85 49 80 49 72 L49 36 L51 40 L51 40 L49 36 C90 13 139 -5 162 -5 C214 -5 253 52 253 128 C253 165 215 221 164 257 C121 288 88 346 88 392 C88 454 115 501 151 501 C149 501 154 497 165 490 L165 489 L165 489 Z " />
<glyph glyph-name="t" unicode="t" horiz-adv-x="267" d="M237 500 L102 500 L102 640 L99 640 L86 523 C82 509 57 497 26 494 L26 492 L83 492 L83 110 C83 25 98 -5 143 -5 C177 -5 215 16 248 45 L247 46 C218 22 185 4 153 4 C116 4 103 31 103 106 L103 492 L238 492 L237 500 L237 500 Z " />
<glyph glyph-name="u" unicode="u" horiz-adv-x="376" d="M337 16 C337 3 338 0 331 13 C335 14 336 14 336 14 L337 16 L337 16 Z M336 14 C336 14 336 14 336 15 L336 15 L336 14 L336 14 Z M330 13 C328 16 326 20 324 25 L298 74 L298 500 L288 500 L278 500 L252 500 C244 500 245 502 245 484 C245 462 244 465 252 464 L278 461 L278 69 L278 65 C245 32 202 8 162 8 C98 8 59 73 59 159 L59 500 L49 500 L39 500 L13 500 C5 500 6 502 6 484 C6 462 5 465 13 464 L39 461 L39 156 C39 64 79 -5 147 -5 C189 -5 238 24 277 63 L277 6 L277 1 L281 1 L323 13 C325 14 327 15 329 15 L330 13 L330 13 Z " />
<glyph glyph-name="v" unicode="v" horiz-adv-x="357" d="M273 461 L174 20 L86 460 L86 460 L104 463 C113 464 112 461 111 483 C112 501 113 499 105 499 L78 499 L67 499 L55 499 L37 499 C29 499 30 501 30 482 C31 461 30 464 37 463 L64 460 L167 -11 L171 -11 L280 460 L280 460 L307 463 C315 464 314 461 314 482 C314 501 315 499 307 499 L289 499 L286 499 L282 499 L256 499 C249 499 250 501 249 483 C250 461 249 464 256 463 L273 461 L273 461 Z " />
<glyph glyph-name="w" unicode="w" horiz-adv-x="442" d="M375 461 L275 20 L188 460 C190 459 193 460 197 461 L213 464 C218 465 217 463 217 482 C217 503 218 500 213 500 L180 500 L179 500 L157 500 L145 500 C140 500 141 503 141 482 C141 463 140 465 145 464 L161 461 C163 460 165 460 165 461 L165 461 L197 312 L169 21 L85 461 L86 461 C86 460 89 460 93 461 L109 464 C114 465 113 463 113 482 C113 503 114 500 109 500 L78 500 L76 500 L55 500 L42 500 C37 500 38 503 38 482 C38 463 37 465 42 464 L58 461 C61 460 63 460 64 460 L167 -10 L171 -10 L201 299 L268 -10 L272 -10 L381 461 L381 461 C381 460 383 460 387 461 L403 464 C408 465 407 463 407 482 C408 503 409 500 403 500 L390 500 L384 500 L375 500 L347 500 C341 500 342 503 342 482 C342 463 341 465 347 464 L364 461 C370 460 374 459 375 461 L375 461 Z " />
<glyph glyph-name="x" unicode="x" horiz-adv-x="414" d="M288 461 L288 461 L215 292 L123 461 L124 461 L134 464 C142 466 141 464 141 484 C141 502 142 500 134 500 L102 500 L90 500 L78 500 L76 500 C69 500 70 502 70 482 C70 463 69 465 77 464 L99 461 L99 461 L205 267 L202 260 L200 260 L108 39 L108 39 L77 36 C69 35 70 37 70 17 C70 -2 69 0 77 0 L92 0 L94 0 L96 0 L138 0 C146 0 145 -2 145 16 C145 38 146 35 138 36 L112 39 L203 260 L205 260 L207 264 L329 39 L324 36 C316 31 317 34 317 16 C317 -2 316 0 324 0 L350 0 L362 0 L375 0 C382 0 381 -3 380 18 C379 37 380 35 373 36 L354 39 L354 39 L218 289 L293 461 L293 461 L320 464 C328 465 327 463 327 483 C328 502 329 500 321 500 L310 500 L308 500 L306 500 L271 500 C263 500 264 502 264 484 C264 462 263 465 271 464 L288 461 L288 461 Z " />
<glyph glyph-name="y" unicode="y" horiz-adv-x="327" d="M291 461 L192 20 L104 460 L104 460 L122 463 C131 464 130 461 129 483 C130 501 131 499 123 499 L96 499 L85 499 L73 499 L55 499 C47 499 48 501 48 482 C49 461 48 464 55 463 L82 460 L185 -8 L170 -71 C147 -172 126 -218 105 -218 C90 -218 82 -194 66 -194 C60 -194 56 -198 56 -203 C56 -219 72 -231 93 -231 C124 -231 150 -181 175 -73 L190 -11 L299 460 L299 460 L326 463 C334 464 333 461 333 482 C333 501 334 499 326 499 L308 499 L305 499 L301 499 L275 499 C268 499 269 501 268 483 C269 461 268 464 275 463 L291 461 L291 461 Z " />
<glyph glyph-name="z" unicode="z" horiz-adv-x="379" d="M247 5 L247 5 L107 4 L330 500 L318 500 L307 500 L126 500 L92 500 L87 500 L86 498 C84 488 80 474 77 464 C76 461 75 459 75 457 C80 459 86 461 93 464 L169 495 L169 495 L305 496 L81 0 L93 0 L105 0 L286 0 L324 0 L325 0 L325 2 C328 17 332 39 335 54 C337 70 338 68 333 68 C323 69 326 71 310 57 L247 5 L247 5 Z M74 449 C58 449 54 448 76 457 C75 451 75 450 75 450 L74 449 L74 449 Z M75 450 C75 450 75 450 76 450 L76 450 L75 450 L75 450 Z " />
<glyph glyph-name="braceleft" unicode="&#x7b;" horiz-adv-x="154" d="M140 -120 L140 -117 L104 -117 C69 -117 43 -87 43 -48 L43 192 C43 236 29 270 11 270 C29 270 43 304 43 349 L43 588 C43 627 69 657 104 657 L140 657 L140 660 L100 660 C58 660 27 629 27 588 L27 338 C27 300 18 272 7 272 L5 272 L5 268 L7 268 C18 268 27 240 27 203 L27 -48 C27 -89 58 -120 100 -120 L140 -120 L140 -120 Z " />
<glyph glyph-name="bar" unicode="&#x7c;" horiz-adv-x="135" d="M60 770 L60 -234 L76 -234 L76 770 L60 770 L60 770 Z " />
<glyph glyph-name="braceright" unicode="&#x7d;" horiz-adv-x="154" d="M5 660 L5 657 L41 657 C76 657 102 627 102 588 L102 348 C102 304 116 270 133 270 C116 270 102 236 102 191 L102 -48 C102 -87 76 -117 41 -117 L5 -117 L5 -120 L45 -120 C87 -120 118 -89 118 -48 L118 202 C118 240 127 268 138 268 L140 268 L140 272 L138 272 C127 272 118 300 118 337 L118 588 C118 629 87 660 45 660 L5 660 L5 660 Z " />
<glyph glyph-name="asciitilde" unicode="&#x7e;" horiz-adv-x="355" d="M121 175 C121 216 127 247 135 247 C171 247 179 184 216 184 C229 184 239 216 239 257 L235 257 C235 223 229 197 220 197 C183 197 176 260 139 260 C127 260 118 223 118 175 L121 175 L121 175 Z " />
<glyph glyph-name="nbspace" unicode="&#xa0;" horiz-adv-x="88" d="" />
<glyph glyph-name="exclamdown" unicode="&#xa1;" horiz-adv-x="153" d="M79 505 C68 505 59 496 59 485 C59 474 68 465 79 465 C90 465 99 474 99 485 C99 496 90 505 79 505 L79 505 Z M60 -120 C59 -146 68 -165 80 -165 C93 -165 101 -146 100 -120 L80 390 L77 390 L60 -120 L60 -120 Z " />
<glyph glyph-name="cent" unicode="&#xa2;" horiz-adv-x="334" d="M185 575 L185 503 C107 486 50 378 50 239 C50 101 100 -4 166 -4 C172 -4 178 -4 184 -4 L184 -75 L198 -75 L198 -3 C233 1 265 11 280 24 L278 26 C267 16 234 9 197 7 L197 498 C199 498 201 498 203 498 C233 498 259 457 263 402 C264 396 268 392 273 392 C278 392 282 396 282 401 C277 460 244 504 205 504 C202 504 199 504 196 504 L196 574 L185 575 L185 575 Z M182 6 C181 6 180 6 179 6 C115 6 67 109 67 245 C67 376 115 478 181 495 L182 6 L182 6 Z " />
<glyph glyph-name="guillemotleft" unicode="&#xab;" horiz-adv-x="240" d="M110 250 L195 461 L193 464 L92 251 L92 249 L193 36 L195 39 L110 250 L110 250 Z M38 250 L123 461 L121 464 L20 251 L20 249 L121 36 L124 39 L38 250 L38 250 Z " />
<glyph glyph-name="guillemotright" unicode="&#xbb;" horiz-adv-x="240" d="M130 250 L46 461 L48 464 L149 251 L149 249 L47 36 L45 39 L130 250 L130 250 Z M202 250 L117 461 L119 464 L220 251 L220 249 L119 36 L117 39 L202 250 L202 250 Z " />
<glyph glyph-name="onequarter" unicode="&#xbc;" horiz-adv-x="671" d="M76 -9 L604 661 L596 669 L67 -1 L76 -9 L76 -9 Z M407 57 L497 259 L497 57 L407 57 L407 57 Z M497 50 L497 -3 L514 -3 L514 50 L536 50 L536 57 L514 57 L514 259 L514 297 L514 302 L511 302 L401 52 L401 50 L404 50 L497 50 L497 50 Z M120 415 L129 415 L142 415 C146 415 145 414 145 423 C145 434 146 432 142 433 L129 434 L129 646 L142 647 C146 648 145 646 145 657 C145 666 146 665 142 665 L129 665 L120 665 L112 665 L99 665 C95 665 95 666 95 657 C95 646 95 648 99 647 L112 646 L112 434 L99 433 C95 432 95 434 95 423 C95 414 95 415 99 415 L112 415 L120 415 L120 415 Z " />
<glyph glyph-name="onehalf" unicode="&#xbd;" horiz-adv-x="671" d="M76 -9 L604 661 L596 669 L67 -1 L76 -9 L76 -9 Z M542 15 C543 20 543 26 543 30 C543 34 545 34 535 33 C525 34 526 34 525 30 L523 17 L412 17 C479 69 527 102 527 174 C527 219 505 253 476 253 C457 253 430 221 413 179 L415 178 C430 213 452 240 467 240 C490 240 508 209 508 168 C508 89 465 62 406 17 L405 17 L402 13 C398 10 394 7 390 4 L390 0 L540 0 L542 15 L542 15 Z M119 415 L128 415 L141 415 C145 415 144 414 144 423 C144 434 145 432 141 433 L128 434 L128 646 L141 647 C145 648 144 646 144 657 C144 666 145 665 141 665 L128 665 L119 665 L111 665 L98 665 C94 665 94 666 94 657 C94 646 94 648 98 647 L111 646 L111 434 L98 433 C94 432 94 434 94 423 C94 414 94 415 98 415 L111 415 L119 415 L119 415 Z " />
<glyph glyph-name="threequarters" unicode="&#xbe;" horiz-adv-x="671" d="M65 340 C138 346 193 396 193 456 C193 500 149 533 90 533 C88 533 85 533 82 532 C133 554 168 584 168 608 C168 641 150 667 126 667 C100 667 70 639 57 602 L60 601 C70 631 95 654 117 654 C136 654 151 632 151 603 C151 576 112 544 59 524 C54 523 49 521 44 519 L44 516 C47 517 50 518 52 519 C62 521 75 522 86 522 C137 522 175 493 175 453 C175 394 128 345 65 340 L65 340 Z M76 -11 L604 659 L596 667 L67 -3 L76 -11 L76 -11 Z M407 55 L497 257 L497 55 L407 55 L407 55 Z M497 48 L497 -5 L514 -5 L514 48 L536 48 L536 55 L514 55 L514 257 L514 295 L514 300 L511 300 L401 50 L401 48 L404 48 L497 48 L497 48 Z " />
<glyph glyph-name="questiondown" unicode="&#xbf;" horiz-adv-x="245" d="M140 505 C128 505 119 496 120 485 C119 474 128 465 140 465 C151 465 159 474 160 485 C159 496 151 505 140 505 L140 505 Z M145 140 L141 396 L138 396 L134 140 L134 152 L99 152 C48 152 35 80 35 42 C35 -76 86 -165 152 -165 C180 -165 200 -135 200 -96 C200 -94 195 -93 188 -93 C159 -93 174 -137 155 -147 C152 -148 149 -149 146 -149 C85 -149 40 -68 40 40 C40 73 53 137 106 137 L141 137 C143 137 145 138 145 140 L145 140 Z " />
<glyph glyph-name="Agrave" unicode="&#xc0;" horiz-adv-x="401" d="M172 831 C148 864 129 889 127 889 C123 889 115 883 115 881 C115 878 135 854 162 823 L272 692 L274 693 L172 831 L172 831 Z M287 239 L335 39 L334 39 L314 36 C306 35 307 38 307 17 C307 -2 306 0 314 0 L344 0 L356 0 L368 0 L389 0 C397 0 396 -2 396 16 C396 38 397 35 389 36 L358 39 L199 675 L193 675 L187 650 L187 650 L187 650 L41 39 L15 36 C7 35 8 38 8 17 C8 -2 7 0 15 0 L32 0 L36 0 L40 0 L78 0 C86 0 85 -2 85 16 C85 38 86 35 78 36 L49 39 L96 239 L287 239 L287 239 Z M285 244 L97 244 L190 637 L285 244 L285 244 Z " />
<glyph glyph-name="Aacute" unicode="&#xc1;" horiz-adv-x="401" d="M134 692 L241 823 C267 855 286 880 286 881 C286 883 278 889 274 889 C274 889 255 864 231 831 L132 693 L134 692 L134 692 Z M287 239 L335 39 L334 39 L314 36 C306 35 307 38 307 17 C307 -2 306 0 314 0 L344 0 L356 0 L368 0 L389 0 C397 0 396 -2 396 16 C396 38 397 35 389 36 L358 39 L199 675 L193 675 L187 650 L187 650 L187 650 L41 39 L15 36 C7 35 8 38 8 17 C8 -2 7 0 15 0 L32 0 L36 0 L40 0 L78 0 C86 0 85 -2 85 16 C85 38 86 35 78 36 L49 39 L96 239 L287 239 L287 239 Z M285 244 L97 244 L190 637 L285 244 L285 244 Z " />
<glyph glyph-name="Acircumflex" unicode="&#xc2;" horiz-adv-x="401" d="M197 881 L287 694 L289 696 L203 899 C203 901 200 905 197 905 C194 905 191 901 191 899 L105 696 L107 694 L197 881 L197 881 Z M287 239 L335 39 L334 39 L314 36 C306 35 307 38 307 17 C307 -2 306 0 314 0 L344 0 L356 0 L368 0 L389 0 C397 0 396 -2 396 16 C396 38 397 35 389 36 L358 39 L199 675 L193 675 L187 650 L187 650 L187 650 L41 39 L15 36 C7 35 8 38 8 17 C8 -2 7 0 15 0 L32 0 L36 0 L40 0 L78 0 C86 0 85 -2 85 16 C85 38 86 35 78 36 L49 39 L96 239 L287 239 L287 239 Z M285 244 L97 244 L190 637 L285 244 L285 244 Z " />
<glyph glyph-name="Atilde" unicode="&#xc3;" horiz-adv-x="401" d="M138 755 C138 796 146 827 156 827 C192 827 196 764 233 764 C248 764 260 796 260 837 L256 837 C256 803 248 777 237 777 C201 777 197 840 160 840 C146 840 135 803 135 755 L138 755 L138 755 Z M287 239 L335 39 L334 39 L314 36 C306 35 307 38 307 17 C307 -2 306 0 314 0 L344 0 L356 0 L368 0 L389 0 C397 0 396 -2 396 16 C396 38 397 35 389 36 L358 39 L199 675 L193 675 L187 650 L187 650 L187 650 L41 39 L15 36 C7 35 8 38 8 17 C8 -2 7 0 15 0 L32 0 L36 0 L40 0 L78 0 C86 0 85 -2 85 16 C85 38 86 35 78 36 L49 39 L96 239 L287 239 L287 239 Z M285 244 L97 244 L190 637 L285 244 L285 244 Z " />
<glyph glyph-name="Adieresis" unicode="&#xc4;" horiz-adv-x="401" d="M278 730 C290 730 298 739 298 750 C298 761 290 770 278 770 C267 770 258 761 258 750 C258 739 267 730 278 730 L278 730 Z M116 730 C127 730 136 739 136 750 C136 761 127 770 116 770 C104 770 96 761 96 750 C96 739 104 730 116 730 L116 730 Z M287 239 L335 39 L334 39 L314 36 C306 35 307 38 307 17 C307 -2 306 0 314 0 L344 0 L356 0 L368 0 L389 0 C397 0 396 -2 396 16 C396 38 397 35 389 36 L358 39 L199 675 L193 675 L187 650 L187 650 L187 650 L41 39 L15 36 C7 35 8 38 8 17 C8 -2 7 0 15 0 L32 0 L36 0 L40 0 L78 0 C86 0 85 -2 85 16 C85 38 86 35 78 36 L49 39 L96 239 L287 239 L287 239 Z M285 244 L97 244 L190 637 L285 244 L285 244 Z " />
<glyph glyph-name="Aring" unicode="&#xc5;" horiz-adv-x="401" d="M197 699 C152 699 110 742 110 788 C110 838 147 876 197 876 C247 876 285 838 285 788 C285 742 242 699 197 699 L197 699 Z M104 788 C104 740 149 695 197 695 C245 695 290 740 290 788 C290 840 250 880 197 880 C144 880 104 840 104 788 L104 788 Z M287 239 L335 39 L334 39 L314 36 C306 35 307 38 307 17 C307 -2 306 0 314 0 L344 0 L356 0 L368 0 L389 0 C397 0 396 -2 396 16 C396 38 397 35 389 36 L358 39 L199 675 L193 675 L187 650 L187 650 L187 650 L41 39 L15 36 C7 35 8 38 8 17 C8 -2 7 0 15 0 L32 0 L36 0 L40 0 L78 0 C86 0 85 -2 85 16 C85 38 86 35 78 36 L49 39 L96 239 L287 239 L287 239 Z M285 244 L97 244 L190 637 L285 244 L285 244 Z " />
<glyph glyph-name="Ccedilla" unicode="&#xc7;" horiz-adv-x="606" d="M323 -94 C333 -86 344 -79 349 -79 C363 -79 374 -103 374 -135 C374 -180 361 -214 345 -214 C327 -214 305 -205 292 -193 L292 -196 C306 -210 331 -220 349 -220 C370 -220 386 -183 386 -135 C386 -101 372 -75 353 -75 C346 -75 333 -81 324 -90 L323 -94 L323 -94 Z M323 -94 L344 -5 C399 -4 486 23 547 59 L547 108 C547 116 546 122 544 122 C543 122 538 116 530 108 C510 84 478 49 458 25 C414 10 370 1 338 1 C199 1 94 142 94 330 C94 518 199 659 338 659 C370 659 414 650 458 635 C478 611 510 576 530 552 C538 544 543 538 544 538 C546 538 547 544 547 552 L547 601 C484 638 394 665 339 665 C186 665 71 521 71 330 C71 139 185 -5 337 -6 L321 -95 L323 -94 L323 -94 Z " />
<glyph glyph-name="Egrave" unicode="&#xc8;" horiz-adv-x="359" d="M134 831 C110 864 91 889 89 889 C86 889 77 883 77 881 C77 878 97 854 124 823 L234 692 L236 693 L134 831 L134 831 Z M295 3 C297 17 301 39 303 53 C304 58 305 61 305 63 C302 61 297 58 289 53 L216 6 L88 6 L88 349 L140 349 L200 320 C217 311 225 307 228 305 C228 307 228 311 228 319 L228 349 L228 352 L228 355 L228 381 C228 387 228 391 228 393 C223 391 214 387 200 381 L140 355 L88 355 L88 654 L207 654 L272 607 C279 602 283 599 286 597 C286 599 286 602 286 607 L286 657 L286 660 L283 660 L247 660 L88 660 L77 660 L66 660 L40 660 C32 660 33 662 33 644 C33 622 32 625 40 624 L66 621 L66 39 L40 36 C32 35 33 38 33 16 C33 -2 32 0 40 0 L66 0 L77 0 L88 0 L255 0 L293 0 L294 0 L295 3 L295 3 Z M306 66 C310 66 312 67 306 63 C306 65 306 66 306 66 L306 66 Z M306 66 L306 66 L306 66 L306 66 Z M227 304 C228 304 228 304 228 305 C230 304 229 304 227 304 L227 304 Z M227 304 C226 304 225 304 224 304 C225 304 226 304 227 304 L227 304 Z M228 396 C234 397 236 397 229 394 C229 395 229 396 229 396 L228 396 L228 396 Z M229 396 C228 397 227 396 225 396 C226 396 227 396 228 396 L229 396 L229 396 Z M286 594 L286 594 L286 594 L286 594 Z M286 594 L286 594 L286 594 L286 594 Z M286 594 C286 594 286 594 286 596 C292 592 290 593 286 594 L286 594 Z " />
<glyph glyph-name="Eacute" unicode="&#xc9;" horiz-adv-x="359" d="M142 692 L249 823 C274 855 294 880 294 881 C294 883 286 889 283 889 C282 889 263 864 239 831 L140 693 L142 692 L142 692 Z M295 3 C297 17 301 39 303 53 C304 58 305 61 305 63 C302 61 297 58 289 53 L216 6 L88 6 L88 349 L140 349 L200 320 C217 311 225 307 228 305 C228 307 228 311 228 319 L228 349 L228 352 L228 355 L228 381 C228 387 228 391 228 393 C223 391 214 387 200 381 L140 355 L88 355 L88 654 L207 654 L272 607 C279 602 283 599 286 597 C286 599 286 602 286 607 L286 657 L286 660 L283 660 L247 660 L88 660 L77 660 L66 660 L40 660 C32 660 33 662 33 644 C33 622 32 625 40 624 L66 621 L66 39 L40 36 C32 35 33 38 33 16 C33 -2 32 0 40 0 L66 0 L77 0 L88 0 L255 0 L293 0 L294 0 L295 3 L295 3 Z M306 66 C310 66 312 67 306 63 C306 65 306 66 306 66 L306 66 Z M306 66 L306 66 L306 66 L306 66 Z M227 304 C228 304 228 304 228 305 C230 304 229 304 227 304 L227 304 Z M227 304 C226 304 225 304 224 304 C225 304 226 304 227 304 L227 304 Z M228 396 C234 397 236 397 229 394 C229 395 229 396 229 396 L228 396 L228 396 Z M229 396 C228 397 227 396 225 396 C226 396 227 396 228 396 L229 396 L229 396 Z M286 594 L286 594 L286 594 L286 594 Z M286 594 L286 594 L286 594 L286 594 Z M286 594 C286 594 286 594 286 596 C292 592 290 593 286 594 L286 594 Z " />
<glyph glyph-name="Ecircumflex" unicode="&#xca;" horiz-adv-x="359" d="M175 880 L265 694 L267 696 L181 899 C181 901 178 905 175 905 C172 905 169 901 168 899 L83 696 L85 694 L175 880 L175 880 Z M295 3 C297 17 301 39 303 53 C304 58 305 61 305 63 C302 61 297 58 289 53 L216 6 L88 6 L88 349 L140 349 L200 320 C217 311 225 307 228 305 C228 307 228 311 228 319 L228 349 L228 352 L228 355 L228 381 C228 387 228 391 228 393 C223 391 214 387 200 381 L140 355 L88 355 L88 654 L207 654 L272 607 C279 602 283 599 286 597 C286 599 286 602 286 607 L286 657 L286 660 L283 660 L247 660 L88 660 L77 660 L66 660 L40 660 C32 660 33 662 33 644 C33 622 32 625 40 624 L66 621 L66 39 L40 36 C32 35 33 38 33 16 C33 -2 32 0 40 0 L66 0 L77 0 L88 0 L255 0 L293 0 L294 0 L295 3 L295 3 Z M306 66 C310 66 312 67 306 63 C306 65 306 66 306 66 L306 66 Z M306 66 L306 66 L306 66 L306 66 Z M227 304 C228 304 228 304 228 305 C230 304 229 304 227 304 L227 304 Z M227 304 C226 304 225 304 224 304 C225 304 226 304 227 304 L227 304 Z M228 396 C234 397 236 397 229 394 C229 395 229 396 229 396 L228 396 L228 396 Z M229 396 C228 397 227 396 225 396 C226 396 227 396 228 396 L229 396 L229 396 Z M286 594 L286 594 L286 594 L286 594 Z M286 594 L286 594 L286 594 L286 594 Z M286 594 C286 594 286 594 286 596 C292 592 290 593 286 594 L286 594 Z " />
<glyph glyph-name="Edieresis" unicode="&#xcb;" horiz-adv-x="359" d="M256 730 C267 730 276 739 276 750 C276 761 267 770 256 770 C245 770 236 761 236 750 C236 739 245 730 256 730 L256 730 Z M93 730 C105 730 113 739 113 750 C113 761 105 770 93 770 C82 770 73 761 73 750 C73 739 82 730 93 730 L93 730 Z M295 3 C297 17 301 39 303 53 C304 58 305 61 305 63 C302 61 297 58 289 53 L216 6 L88 6 L88 349 L140 349 L200 320 C217 311 225 307 228 305 C228 307 228 311 228 319 L228 349 L228 352 L228 355 L228 381 C228 387 228 391 228 393 C223 391 214 387 200 381 L140 355 L88 355 L88 654 L207 654 L272 607 C279 602 283 599 286 597 C286 599 286 602 286 607 L286 657 L286 660 L283 660 L247 660 L88 660 L77 660 L66 660 L40 660 C32 660 33 662 33 644 C33 622 32 625 40 624 L66 621 L66 39 L40 36 C32 35 33 38 33 16 C33 -2 32 0 40 0 L66 0 L77 0 L88 0 L255 0 L293 0 L294 0 L295 3 L295 3 Z M306 66 C310 66 312 67 306 63 C306 65 306 66 306 66 L306 66 Z M306 66 L306 66 L306 66 L306 66 Z M227 304 C228 304 228 304 228 305 C230 304 229 304 227 304 L227 304 Z M227 304 C226 304 225 304 224 304 C225 304 226 304 227 304 L227 304 Z M228 396 C234 397 236 397 229 394 C229 395 229 396 229 396 L228 396 L228 396 Z M229 396 C228 397 227 396 225 396 C226 396 227 396 228 396 L229 396 L229 396 Z M286 594 L286 594 L286 594 L286 594 Z M286 594 L286 594 L286 594 L286 594 Z M286 594 C286 594 286 594 286 596 C292 592 290 593 286 594 L286 594 Z " />
<glyph glyph-name="Igrave" unicode="&#xcc;" horiz-adv-x="154" d="M52 831 C28 864 9 889 7 889 C4 889 -5 883 -4 881 C-5 878 15 854 42 823 L152 692 L154 693 L52 831 L52 831 Z M77 0 L88 0 L115 0 C123 0 122 -2 121 16 C122 38 123 35 115 36 L88 39 L88 621 L115 624 C123 625 122 622 121 644 C122 662 123 660 115 660 L88 660 L77 660 L66 660 L40 660 C32 660 33 662 33 644 C33 622 32 625 40 624 L66 621 L66 39 L40 36 C32 35 33 38 33 16 C33 -2 32 0 40 0 L66 0 L77 0 L77 0 Z " />
<glyph glyph-name="Iacute" unicode="&#xcd;" horiz-adv-x="154" d="M14 692 L121 823 C147 855 166 880 166 881 C166 883 158 889 155 889 C154 889 135 864 111 831 L12 693 L14 692 L14 692 Z M77 0 L88 0 L115 0 C123 0 122 -2 121 16 C122 38 123 35 115 36 L88 39 L88 621 L115 624 C123 625 122 622 121 644 C122 662 123 660 115 660 L88 660 L77 660 L66 660 L40 660 C32 660 33 662 33 644 C33 622 32 625 40 624 L66 621 L66 39 L40 36 C32 35 33 38 33 16 C33 -2 32 0 40 0 L66 0 L77 0 L77 0 Z " />
<glyph glyph-name="Icircumflex" unicode="&#xce;" horiz-adv-x="154" d="M77 880 L167 694 L169 696 L84 899 C83 901 80 905 77 905 C74 905 72 901 71 899 L-15 696 L-13 694 L77 880 L77 880 Z M77 0 L88 0 L115 0 C123 0 122 -2 121 16 C122 38 123 35 115 36 L88 39 L88 621 L115 624 C123 625 122 622 121 644 C122 662 123 660 115 660 L88 660 L77 660 L66 660 L40 660 C32 660 33 662 33 644 C33 622 32 625 40 624 L66 621 L66 39 L40 36 C32 35 33 38 33 16 C33 -2 32 0 40 0 L66 0 L77 0 L77 0 Z " />
<glyph glyph-name="Idieresis" unicode="&#xcf;" horiz-adv-x="154" d="M159 730 C170 730 179 739 179 750 C179 761 170 770 159 770 C147 770 139 761 139 750 C139 739 147 730 159 730 L159 730 Z M-4 730 C7 730 16 739 16 750 C16 761 7 770 -4 770 C-15 770 -24 761 -24 750 C-24 739 -15 730 -4 730 L-4 730 Z M77 0 L88 0 L115 0 C123 0 122 -2 121 16 C122 38 123 35 115 36 L88 39 L88 621 L115 624 C123 625 122 622 121 644 C122 662 123 660 115 660 L88 660 L77 660 L66 660 L40 660 C32 660 33 662 33 644 C33 622 32 625 40 624 L66 621 L66 39 L40 36 C32 35 33 38 33 16 C33 -2 32 0 40 0 L66 0 L77 0 L77 0 Z " />
<glyph glyph-name="Ntilde" unicode="&#xd1;" horiz-adv-x="467" d="M180 755 C180 796 188 827 199 827 C235 827 239 764 275 764 C291 764 302 796 302 837 L299 837 C299 803 291 777 280 777 C243 777 239 840 203 840 C188 840 177 803 177 755 L180 755 L180 755 Z M401 621 L401 35 L91 660 L78 651 L78 651 L91 660 L78 660 L75 660 L71 660 L45 660 C38 660 39 662 39 644 C39 622 38 625 45 624 L71 621 L71 39 L45 36 C38 35 39 38 39 16 C39 -2 38 0 45 0 L71 0 L75 0 L78 0 L104 0 C112 0 111 -2 111 16 C111 38 112 35 104 36 L78 39 L78 637 L391 9 L398 -4 L408 -4 L408 17 L408 621 L434 624 C442 625 441 622 441 644 C441 662 442 660 434 660 L408 660 L404 660 L401 660 L375 660 C367 660 368 662 368 644 C368 622 367 625 375 624 L401 621 L401 621 Z " />
<glyph glyph-name="Ograve" unicode="&#xd2;" horiz-adv-x="639" d="M330 1 C183 1 95 161 95 330 C95 499 183 659 330 659 C477 659 565 499 565 330 C565 161 477 1 330 1 L330 1 Z M71 330 C71 158 168 -5 330 -5 C492 -5 589 158 589 330 C589 502 492 665 330 665 C168 665 71 502 71 330 L71 330 Z M305 831 C280 864 261 889 260 889 C256 889 248 883 248 881 C248 878 268 854 295 823 L405 692 L407 693 L305 831 L305 831 Z " />
<glyph glyph-name="Oacute" unicode="&#xd3;" horiz-adv-x="639" d="M305 692 L412 823 C438 855 457 880 457 881 C457 883 449 889 445 889 C445 889 426 864 401 831 L302 693 L305 692 L305 692 Z M330 1 C183 1 95 161 95 330 C95 499 183 659 330 659 C477 659 565 499 565 330 C565 161 477 1 330 1 L330 1 Z M71 330 C71 158 168 -5 330 -5 C492 -5 589 158 589 330 C589 502 492 665 330 665 C168 665 71 502 71 330 L71 330 Z " />
<glyph glyph-name="Ocircumflex" unicode="&#xd4;" horiz-adv-x="639" d="M330 1 C183 1 95 161 95 330 C95 499 183 659 330 659 C477 659 565 499 565 330 C565 161 477 1 330 1 L330 1 Z M71 330 C71 158 168 -5 330 -5 C492 -5 589 158 589 330 C589 502 492 665 330 665 C168 665 71 502 71 330 L71 330 Z M330 881 L420 694 L422 696 L336 899 C336 901 333 905 330 905 C327 905 324 901 324 899 L238 696 L240 694 L330 881 L330 881 Z " />
<glyph glyph-name="Otilde" unicode="&#xd5;" horiz-adv-x="639" d="M271 755 C271 796 279 827 289 827 C325 827 329 764 366 764 C381 764 392 796 392 837 L389 837 C389 803 381 777 370 777 C333 777 330 840 293 840 C278 840 267 803 267 755 L271 755 L271 755 Z M330 1 C183 1 95 161 95 330 C95 499 183 659 330 659 C477 659 565 499 565 330 C565 161 477 1 330 1 L330 1 Z M71 330 C71 158 168 -5 330 -5 C492 -5 589 158 589 330 C589 502 492 665 330 665 C168 665 71 502 71 330 L71 330 Z " />
<glyph glyph-name="Odieresis" unicode="&#xd6;" horiz-adv-x="639" d="M411 730 C423 730 431 739 431 750 C431 761 423 770 411 770 C400 770 391 761 391 750 C391 739 400 730 411 730 L411 730 Z M249 730 C260 730 269 739 269 750 C269 761 260 770 249 770 C237 770 229 761 229 750 C229 739 237 730 249 730 L249 730 Z M330 1 C183 1 95 161 95 330 C95 499 183 659 330 659 C477 659 565 499 565 330 C565 161 477 1 330 1 L330 1 Z M71 330 C71 158 168 -5 330 -5 C492 -5 589 158 589 330 C589 502 492 665 330 665 C168 665 71 502 71 330 L71 330 Z " />
<glyph glyph-name="Oslash" unicode="&#xd8;" horiz-adv-x="639" d="M75 -8 L148 87 C192 31 254 -5 330 -5 C492 -5 589 158 589 330 C589 417 564 502 518 565 L593 662 L585 668 L512 573 C468 629 406 665 330 665 C168 665 71 502 71 330 C71 243 96 158 142 95 L67 -2 L75 -8 L75 -8 Z M330 1 C257 1 199 40 159 100 L507 551 C545 491 565 412 565 331 C565 162 477 2 330 2 L330 1 L330 1 Z M153 110 C115 170 95 249 95 330 C95 499 183 659 330 659 C403 659 461 620 501 560 L153 110 L153 110 Z " />
<glyph glyph-name="Ugrave" unicode="&#xd9;" horiz-adv-x="468" d="M222 831 C198 864 179 889 177 889 C174 889 166 883 166 881 C166 878 186 854 212 823 L322 692 L324 693 L222 831 L222 831 Z M76 621 L76 201 C76 84 131 -5 251 -5 C366 -5 419 71 419 171 L419 621 L449 624 C456 625 456 622 456 644 C456 662 456 660 449 660 L419 660 L416 660 L413 660 L381 660 C373 660 374 662 374 644 C374 622 373 625 381 624 L413 621 L413 174 C413 76 363 3 254 3 C147 3 98 86 98 197 L98 621 L124 624 C132 625 131 622 131 644 C131 662 132 660 124 660 L98 660 L87 660 L76 660 L49 660 C42 660 43 662 43 644 C43 622 42 625 49 624 L76 621 L76 621 Z " />
<glyph glyph-name="Uacute" unicode="&#xda;" horiz-adv-x="468" d="M245 692 L352 823 C378 855 397 880 397 881 C397 883 389 889 386 889 C385 889 366 864 342 831 L243 693 L245 692 L245 692 Z M76 621 L76 201 C76 84 131 -5 251 -5 C366 -5 419 71 419 171 L419 621 L449 624 C456 625 456 622 456 644 C456 662 456 660 449 660 L419 660 L416 660 L413 660 L381 660 C373 660 374 662 374 644 C374 622 373 625 381 624 L413 621 L413 174 C413 76 363 3 254 3 C147 3 98 86 98 197 L98 621 L124 624 C132 625 131 622 131 644 C131 662 132 660 124 660 L98 660 L87 660 L76 660 L49 660 C42 660 43 662 43 644 C43 622 42 625 49 624 L76 621 L76 621 Z " />
<glyph glyph-name="Ucircumflex" unicode="&#xdb;" horiz-adv-x="468" d="M248 880 L339 694 L341 696 L255 899 C254 901 251 905 248 905 C245 905 243 901 242 899 L156 696 L158 694 L248 880 L248 880 Z M77 621 L77 201 C77 84 132 -5 252 -5 C367 -5 420 71 420 171 L420 621 L450 624 C457 625 457 622 457 644 C457 662 457 660 450 660 L420 660 L417 660 L414 660 L382 660 C374 660 375 662 375 644 C375 622 374 625 382 624 L414 621 L414 174 C414 76 364 3 255 3 C148 3 99 86 99 197 L99 621 L125 624 C133 625 132 622 132 644 C132 662 133 660 125 660 L99 660 L88 660 L77 660 L50 660 C43 660 44 662 44 644 C44 622 43 625 50 624 L77 621 L77 621 Z " />
<glyph glyph-name="Udieresis" unicode="&#xdc;" horiz-adv-x="468" d="M329 730 C340 730 349 739 349 750 C349 761 340 770 329 770 C318 770 309 761 309 750 C309 739 318 730 329 730 L329 730 Z M166 730 C177 730 186 739 186 750 C186 761 177 770 166 770 C155 770 146 761 146 750 C146 739 155 730 166 730 L166 730 Z M76 621 L76 201 C76 84 131 -5 251 -5 C366 -5 419 71 419 171 L419 621 L449 624 C456 625 456 622 456 644 C456 662 456 660 449 660 L419 660 L416 660 L413 660 L381 660 C373 660 374 662 374 644 C374 622 373 625 381 624 L413 621 L413 174 C413 76 363 3 254 3 C147 3 98 86 98 197 L98 621 L124 624 C132 625 131 622 131 644 C131 662 132 660 124 660 L98 660 L87 660 L76 660 L49 660 C42 660 43 662 43 644 C43 622 42 625 49 624 L76 621 L76 621 Z " />
<glyph glyph-name="Yacute" unicode="&#xdd;" horiz-adv-x="386" d="M204 692 L311 823 C337 855 356 880 356 881 C356 883 348 889 345 889 C344 889 326 864 301 831 L202 693 L204 692 L204 692 Z M343 621 L344 621 L212 265 L210 265 L90 621 L108 624 C115 625 114 622 115 644 C115 662 116 660 108 660 L77 660 L63 660 L50 660 L44 660 C36 660 37 662 37 643 C37 623 36 625 44 624 L64 621 L197 249 L197 39 L170 36 C163 35 164 38 164 16 C164 -2 163 0 170 0 L197 0 L208 0 L219 0 L245 0 C253 0 252 -2 252 16 C252 38 253 35 245 36 L219 39 L219 265 L351 621 L351 621 L375 624 C383 625 382 623 382 643 C382 662 383 660 375 660 L365 660 L362 660 L359 660 L320 660 C312 660 313 662 314 644 C313 622 312 625 320 624 L343 621 L343 621 Z " />
<glyph glyph-name="agrave" unicode="&#xe0;" horiz-adv-x="445" d="M163 671 C138 704 119 729 118 729 C114 729 106 723 106 721 C106 718 126 694 153 663 L263 532 L265 533 L163 671 L163 671 Z M374 16 C374 3 374 0 367 14 C372 16 373 16 373 17 L374 16 L374 16 Z M373 17 L373 17 L373 17 L373 17 Z M367 15 C365 18 363 22 361 27 L335 76 L335 408 L335 502 L329 502 L317 419 C296 466 243 508 195 508 C115 508 54 389 54 231 C54 98 111 -2 187 -2 C218 -2 273 50 315 120 L315 71 L315 7 L315 2 L315 -3 L318 -3 L334 6 L361 14 C363 15 365 16 367 16 L367 15 L367 15 Z M315 125 C277 59 227 10 198 10 C128 10 75 108 75 239 C75 389 126 503 194 503 C244 503 298 457 315 409 L315 125 L315 125 Z " />
<glyph glyph-name="aacute" unicode="&#xe1;" horiz-adv-x="349" d="M120 532 L227 663 C253 695 272 720 272 721 C272 723 264 729 261 729 C260 729 241 704 217 671 L118 533 L120 532 L120 532 Z M327 34 C308 15 288 0 272 0 C244 0 234 23 234 54 L234 363 C234 444 206 505 169 505 C124 505 82 466 72 414 L92 414 C102 463 133 499 165 499 C192 499 213 442 213 367 L213 244 L134 226 C78 213 35 159 35 100 C35 40 63 -5 101 -5 C125 -5 171 32 213 82 L213 52 C213 17 225 -10 258 -10 C280 -10 306 8 329 31 L327 34 L327 34 Z M213 238 L213 85 C176 40 133 8 110 8 C79 8 55 50 55 105 C55 158 89 207 135 218 L213 238 L213 238 Z " />
<glyph glyph-name="acircumflex" unicode="&#xe2;" horiz-adv-x="445" d="M188 721 L278 534 L280 536 L194 739 C194 741 191 745 188 745 C185 745 182 741 182 739 L96 536 L98 534 L188 721 L188 721 Z M374 16 C374 3 374 0 367 14 C372 16 373 16 373 17 L374 16 L374 16 Z M373 17 L373 17 L373 17 L373 17 Z M367 15 C365 18 363 22 361 27 L335 76 L335 408 L335 502 L329 502 L317 419 C296 466 243 508 195 508 C115 508 54 389 54 231 C54 98 111 -2 187 -2 C218 -2 273 50 315 120 L315 71 L315 7 L315 2 L315 -3 L318 -3 L334 6 L361 14 C363 15 365 16 367 16 L367 15 L367 15 Z M315 125 C277 59 227 10 198 10 C128 10 75 108 75 239 C75 389 126 503 194 503 C244 503 298 457 315 409 L315 125 L315 125 Z " />
<glyph glyph-name="atilde" unicode="&#xe3;" horiz-adv-x="445" d="M129 595 C129 636 137 667 147 667 C183 667 187 604 224 604 C239 604 251 636 251 677 L247 677 C247 643 239 617 228 617 C192 617 188 680 151 680 C137 680 126 643 126 595 L129 595 L129 595 Z M374 16 C374 3 374 0 367 14 C372 16 373 16 373 17 L374 16 L374 16 Z M373 17 L373 17 L373 17 L373 17 Z M367 15 C365 18 363 22 361 27 L335 76 L335 408 L335 502 L329 502 L317 419 C296 466 243 508 195 508 C115 508 54 389 54 231 C54 98 111 -2 187 -2 C218 -2 273 50 315 120 L315 71 L315 7 L315 2 L315 -3 L318 -3 L334 6 L361 14 C363 15 365 16 367 16 L367 15 L367 15 Z M315 125 C277 59 227 10 198 10 C128 10 75 108 75 239 C75 389 126 503 194 503 C244 503 298 457 315 409 L315 125 L315 125 Z " />
<glyph glyph-name="adieresis" unicode="&#xe4;" horiz-adv-x="445" d="M269 570 C281 570 289 579 289 590 C289 601 281 610 269 610 C258 610 249 601 249 590 C249 579 258 570 269 570 L269 570 Z M107 570 C118 570 127 579 127 590 C127 601 118 610 107 610 C95 610 87 601 87 590 C87 579 95 570 107 570 L107 570 Z M374 16 C374 3 374 0 367 14 C372 16 373 16 373 17 L374 16 L374 16 Z M373 17 L373 17 L373 17 L373 17 Z M367 15 C365 18 363 22 361 27 L335 76 L335 408 L335 502 L329 502 L317 419 C296 466 243 508 195 508 C115 508 54 389 54 231 C54 98 111 -2 187 -2 C218 -2 273 50 315 120 L315 71 L315 7 L315 2 L315 -3 L318 -3 L334 6 L361 14 C363 15 365 16 367 16 L367 15 L367 15 Z M315 125 C277 59 227 10 198 10 C128 10 75 108 75 239 C75 389 126 503 194 503 C244 503 298 457 315 409 L315 125 L315 125 Z " />
<glyph glyph-name="aring" unicode="&#xe5;" horiz-adv-x="445" d="M188 539 C143 539 100 582 100 628 C100 678 138 716 188 716 C238 716 276 678 276 628 C276 582 233 539 188 539 L188 539 Z M95 628 C95 580 140 535 188 535 C236 535 281 580 281 628 C281 680 241 720 188 720 C135 720 95 680 95 628 L95 628 Z M374 16 C374 3 374 0 367 14 C372 16 373 16 373 17 L374 16 L374 16 Z M373 17 L373 17 L373 17 L373 17 Z M367 15 C365 18 363 22 361 27 L335 76 L335 408 L335 502 L329 502 L317 419 C296 466 243 508 195 508 C115 508 54 389 54 231 C54 98 111 -2 187 -2 C218 -2 273 50 315 120 L315 71 L315 7 L315 2 L315 -3 L318 -3 L334 6 L361 14 C363 15 365 16 367 16 L367 15 L367 15 Z M315 125 C277 59 227 10 198 10 C128 10 75 108 75 239 C75 389 126 503 194 503 C244 503 298 457 315 409 L315 125 L315 125 Z " />
<glyph glyph-name="ccedilla" unicode="&#xe7;" horiz-adv-x="334" d="M150 -94 C159 -86 170 -79 175 -79 C190 -79 201 -103 201 -135 C201 -180 188 -214 171 -214 C153 -214 131 -205 119 -193 L118 -196 C133 -210 157 -220 175 -220 C197 -220 213 -183 213 -135 C213 -101 199 -75 180 -75 C172 -75 159 -81 151 -90 L150 -94 L150 -94 Z M150 -94 L171 -5 C217 -4 263 8 282 24 L280 26 C267 15 226 7 183 7 C119 7 71 110 71 246 C71 390 129 499 205 499 C235 499 261 458 265 403 C266 397 270 393 275 393 C280 393 284 397 284 402 C279 461 246 505 207 505 C118 505 50 390 50 238 C50 102 99 -2 164 -4 L148 -93 L150 -94 L150 -94 Z " />
<glyph glyph-name="egrave" unicode="&#xe8;" horiz-adv-x="341" d="M289 24 L287 26 C274 15 230 7 186 7 C120 7 71 110 71 246 C71 276 73 305 77 331 L272 331 L291 331 C291 430 246 505 186 505 C108 505 50 390 50 238 C50 100 101 -5 169 -5 C218 -5 269 7 289 24 L289 24 Z M161 671 C136 704 117 729 116 729 C112 729 104 723 104 721 C104 718 124 694 150 663 L260 532 L263 533 L161 671 L161 671 Z M78 334 C93 432 134 499 185 499 C234 499 272 434 272 347 C272 342 268 338 263 338 L272 338 L78 334 L78 334 Z " />
<glyph glyph-name="eacute" unicode="&#xe9;" horiz-adv-x="341" d="M153 532 L260 663 C285 695 305 720 305 721 C305 723 297 729 294 729 C293 729 274 704 250 671 L151 533 L153 532 L153 532 Z M289 24 L287 26 C274 15 230 7 186 7 C120 7 71 110 71 246 C71 276 73 305 77 331 L272 331 L291 331 C291 430 246 505 186 505 C108 505 50 390 50 238 C50 100 101 -5 169 -5 C218 -5 269 7 289 24 L289 24 Z M78 334 C93 432 134 499 185 499 C234 499 272 434 272 347 C272 342 268 338 263 338 L272 338 L78 334 L78 334 Z " />
<glyph glyph-name="ecircumflex" unicode="&#xea;" horiz-adv-x="341" d="M289 24 L287 26 C274 15 230 7 186 7 C120 7 71 110 71 246 C71 276 73 305 77 331 L272 331 L291 331 C291 430 246 505 186 505 C108 505 50 390 50 238 C50 100 101 -5 169 -5 C218 -5 269 7 289 24 L289 24 Z M186 720 L276 534 L278 536 L192 739 C192 741 189 745 186 745 C183 745 180 741 180 739 L94 536 L96 534 L186 720 L186 720 Z M78 334 C93 432 134 499 185 499 C234 499 272 434 272 347 C272 342 268 338 263 338 L272 338 L78 334 L78 334 Z " />
<glyph glyph-name="edieresis" unicode="&#xeb;" horiz-adv-x="341" d="M267 570 C279 570 287 579 287 590 C287 601 279 610 267 610 C256 610 247 601 247 590 C247 579 256 570 267 570 L267 570 Z M104 570 C116 570 124 579 124 590 C124 601 116 610 104 610 C93 610 84 601 84 590 C84 579 93 570 104 570 L104 570 Z M289 24 L287 26 C274 15 230 7 186 7 C120 7 71 110 71 246 C71 276 73 305 77 331 L272 331 L291 331 C291 430 246 505 186 505 C108 505 50 390 50 238 C50 100 101 -5 169 -5 C218 -5 269 7 289 24 L289 24 Z M78 334 C93 432 134 499 185 499 C234 499 272 434 272 347 C272 342 268 338 263 338 L272 338 L78 334 L78 334 Z " />
<glyph glyph-name="igrave" unicode="&#xec;" horiz-adv-x="162" d="M56 671 C32 704 13 729 11 729 C8 729 -1 723 -1 721 C-1 718 19 694 46 663 L156 532 L158 533 L56 671 L56 671 Z M33 451 C33 464 32 467 39 453 C35 452 34 452 34 452 L33 451 L33 451 Z M34 452 L34 452 L34 452 L34 452 Z M40 454 C42 451 44 447 46 442 L72 393 L72 40 L46 37 C38 36 39 39 39 17 C39 -1 38 1 46 1 L72 1 L82 1 L92 1 L118 1 C126 1 125 -1 125 17 C125 39 126 36 118 37 L92 40 L92 398 L92 462 L92 467 L88 467 L46 455 C44 454 42 453 40 453 L40 454 L40 454 Z " />
<glyph glyph-name="iacute" unicode="&#xed;" horiz-adv-x="162" d="M3 532 L110 663 C136 695 155 720 155 721 C155 723 147 729 143 729 C142 729 124 704 100 671 L0 533 L3 532 L3 532 Z M33 451 C33 464 32 467 39 453 C35 452 34 452 34 452 L33 451 L33 451 Z M34 452 L34 452 L34 452 L34 452 Z M40 454 C42 451 44 447 46 442 L72 393 L72 40 L46 37 C38 36 39 39 39 17 C39 -1 38 1 46 1 L72 1 L82 1 L92 1 L118 1 C126 1 125 -1 125 17 C125 39 126 36 118 37 L92 40 L92 398 L92 462 L92 467 L88 467 L46 455 C44 454 42 453 40 453 L40 454 L40 454 Z " />
<glyph glyph-name="icircumflex" unicode="&#xee;" horiz-adv-x="162" d="M81 721 L171 534 L173 536 L88 739 C87 741 84 745 81 745 C78 745 75 741 75 739 L-11 536 L-9 534 L81 721 L81 721 Z M33 451 C33 464 32 467 39 453 C35 452 34 452 34 452 L33 451 L33 451 Z M34 452 L34 452 L34 452 L34 452 Z M40 454 C42 451 44 447 46 442 L72 393 L72 40 L46 37 C38 36 39 39 39 17 C39 -1 38 1 46 1 L72 1 L82 1 L92 1 L118 1 C126 1 125 -1 125 17 C125 39 126 36 118 37 L92 40 L92 398 L92 462 L92 467 L88 467 L46 455 C44 454 42 453 40 453 L40 454 L40 454 Z " />
<glyph glyph-name="idieresis" unicode="&#xef;" horiz-adv-x="162" d="M163 570 C174 570 183 579 183 590 C183 601 174 610 163 610 C151 610 143 601 143 590 C143 579 151 570 163 570 L163 570 Z M0 570 C11 570 20 579 20 590 C20 601 11 610 0 610 C-12 610 -20 601 -20 590 C-20 579 -12 570 0 570 L0 570 Z M33 451 C33 464 32 467 39 453 C35 452 34 452 34 452 L33 451 L33 451 Z M34 452 L34 452 L34 452 L34 452 Z M40 454 C42 451 44 447 46 442 L72 393 L72 40 L46 37 C38 36 39 39 39 17 C39 -1 38 1 46 1 L72 1 L82 1 L92 1 L118 1 C126 1 125 -1 125 17 C125 39 126 36 118 37 L92 40 L92 398 L92 462 L92 467 L88 467 L46 455 C44 454 42 453 40 453 L40 454 L40 454 Z " />
<glyph glyph-name="ntilde" unicode="&#xf1;" horiz-adv-x="395" d="M141 595 C141 636 149 667 159 667 C195 667 199 604 236 604 C251 604 263 636 263 677 L259 677 C259 643 251 617 240 617 C204 617 200 680 163 680 C149 680 138 643 138 595 L141 595 L141 595 Z M33 484 C33 496 32 499 39 486 C35 485 34 485 34 485 L33 484 L33 484 Z M34 485 C34 485 34 485 34 484 L34 484 L34 485 L34 485 Z M40 486 C42 483 44 479 46 474 L72 425 L72 38 L46 35 C38 34 39 37 39 15 C39 -3 38 -1 46 -1 L72 -1 L82 -1 L92 -1 L118 -1 C126 -1 125 -3 125 15 C125 37 126 34 118 35 L92 38 L92 430 L92 433 C153 466 210 490 226 490 C283 490 310 422 310 331 L310 37 L284 34 C276 33 277 36 277 14 C277 -4 276 -2 284 -2 L310 -2 L320 -2 L330 -2 L356 -2 C364 -2 363 -4 363 14 C363 36 364 33 356 34 L330 37 L330 334 C330 430 302 503 241 503 C229 503 165 474 92 436 L92 455 L92 499 L88 499 L46 487 C44 486 42 485 40 485 L40 486 L40 486 Z " />
<glyph glyph-name="ograve" unicode="&#xf2;" horiz-adv-x="460" d="M230 -1 C140 -1 72 107 72 250 C72 393 140 501 230 501 C320 501 388 393 388 250 C388 107 320 -1 230 -1 L230 -1 Z M50 250 C50 105 128 -5 230 -5 C333 -5 411 105 411 250 C411 395 333 505 230 505 C128 505 50 395 50 250 L50 250 Z M205 671 C181 704 162 729 160 729 C157 729 148 723 149 721 C148 718 168 694 195 663 L305 532 L307 533 L205 671 L205 671 Z " />
<glyph glyph-name="oacute" unicode="&#xf3;" horiz-adv-x="460" d="M197 532 L304 663 C330 695 350 720 349 721 C349 723 341 729 338 729 C337 729 318 704 294 671 L195 533 L197 532 L197 532 Z M230 -1 C140 -1 72 107 72 250 C72 393 140 501 230 501 C320 501 388 393 388 250 C388 107 320 -1 230 -1 L230 -1 Z M50 250 C50 105 128 -5 230 -5 C333 -5 411 105 411 250 C411 395 333 505 230 505 C128 505 50 395 50 250 L50 250 Z " />
<glyph glyph-name="ocircumflex" unicode="&#xf4;" horiz-adv-x="460" d="M230 -1 C140 -1 72 107 72 250 C72 393 140 501 230 501 C320 501 388 393 388 250 C388 107 320 -1 230 -1 L230 -1 Z M50 250 C50 105 128 -5 230 -5 C333 -5 411 105 411 250 C411 395 333 505 230 505 C128 505 50 395 50 250 L50 250 Z M230 720 L320 534 L323 536 L237 739 C236 741 233 745 230 745 C227 745 225 741 224 739 L138 536 L140 534 L230 720 L230 720 Z " />
<glyph glyph-name="otilde" unicode="&#xf5;" horiz-adv-x="460" d="M171 595 C171 636 179 667 189 667 C226 667 229 604 266 604 C281 604 293 636 293 677 L289 677 C289 643 281 617 270 617 C234 617 230 680 194 680 C179 680 168 643 168 595 L171 595 L171 595 Z M230 -1 C140 -1 72 107 72 250 C72 393 140 501 230 501 C320 501 388 393 388 250 C388 107 320 -1 230 -1 L230 -1 Z M50 250 C50 105 128 -5 230 -5 C333 -5 411 105 411 250 C411 395 333 505 230 505 C128 505 50 395 50 250 L50 250 Z " />
<glyph glyph-name="odieresis" unicode="&#xf6;" horiz-adv-x="460" d="M312 570 C323 570 332 579 332 590 C332 601 323 610 312 610 C300 610 292 601 292 590 C292 579 300 570 312 570 L312 570 Z M149 570 C160 570 169 579 169 590 C169 601 160 610 149 610 C138 610 129 601 129 590 C129 579 138 570 149 570 L149 570 Z M230 -1 C140 -1 72 107 72 250 C72 393 140 501 230 501 C320 501 388 393 388 250 C388 107 320 -1 230 -1 L230 -1 Z M50 250 C50 105 128 -5 230 -5 C333 -5 411 105 411 250 C411 395 333 505 230 505 C128 505 50 395 50 250 L50 250 Z " />
<glyph glyph-name="oslash" unicode="&#xf8;" horiz-adv-x="460" d="M53 -7 L104 65 C136 21 180 -5 230 -5 C333 -5 411 105 411 250 C411 321 392 384 361 429 L413 503 L408 507 L357 435 C325 479 281 505 231 505 C129 505 51 395 51 250 C51 179 70 117 101 72 L48 -2 L53 -7 L53 -7 Z M231 0 C184 0 143 30 115 79 L353 416 C376 372 390 315 390 251 C390 108 322 0 232 0 L231 0 L231 0 Z M111 86 C88 130 74 187 74 251 C74 394 142 502 232 502 C280 502 321 472 349 423 L111 86 L111 86 Z " />
<glyph glyph-name="ugrave" unicode="&#xf9;" horiz-adv-x="360" d="M145 671 C121 704 101 729 100 729 C96 729 88 723 88 721 C88 718 108 694 135 663 L245 532 L247 533 L145 671 L145 671 Z M337 16 C337 3 338 0 331 13 C335 14 336 14 336 14 L337 16 L337 16 Z M336 14 C336 14 336 14 336 15 L336 15 L336 14 L336 14 Z M330 13 C328 16 326 20 324 25 L298 74 L298 500 L288 500 L278 500 L252 500 C244 500 245 502 245 484 C245 462 244 465 252 464 L278 461 L278 69 L278 65 C245 32 202 8 162 8 C98 8 59 73 59 159 L59 500 L49 500 L39 500 L13 500 C5 500 6 502 6 484 C6 462 5 465 13 464 L39 461 L39 156 C39 64 79 -5 147 -5 C189 -5 238 24 277 63 L277 6 L277 1 L281 1 L323 13 C325 14 327 15 329 15 L330 13 L330 13 Z " />
<glyph glyph-name="uacute" unicode="&#xfa;" horiz-adv-x="360" d="M137 532 L244 663 C270 695 289 720 289 721 C289 723 281 729 278 729 C277 729 258 704 234 671 L135 533 L137 532 L137 532 Z M337 16 C337 3 338 0 331 13 C335 14 336 14 336 14 L337 16 L337 16 Z M336 14 C336 14 336 14 336 15 L336 15 L336 14 L336 14 Z M330 13 C328 16 326 20 324 25 L298 74 L298 500 L288 500 L278 500 L252 500 C244 500 245 502 245 484 C245 462 244 465 252 464 L278 461 L278 69 L278 65 C245 32 202 8 162 8 C98 8 59 73 59 159 L59 500 L49 500 L39 500 L13 500 C5 500 6 502 6 484 C6 462 5 465 13 464 L39 461 L39 156 C39 64 79 -5 147 -5 C189 -5 238 24 277 63 L277 6 L277 1 L281 1 L323 13 C325 14 327 15 329 15 L330 13 L330 13 Z " />
<glyph glyph-name="ucircumflex" unicode="&#xfb;" horiz-adv-x="360" d="M170 721 L260 534 L262 536 L176 739 C176 741 173 745 170 745 C167 745 164 741 164 739 L78 536 L80 534 L170 721 L170 721 Z M337 16 C337 3 338 0 331 13 C335 14 336 14 336 14 L337 16 L337 16 Z M336 14 C336 14 336 14 336 15 L336 15 L336 14 L336 14 Z M330 13 C328 16 326 20 324 25 L298 74 L298 500 L288 500 L278 500 L252 500 C244 500 245 502 245 484 C245 462 244 465 252 464 L278 461 L278 69 L278 65 C245 32 202 8 162 8 C98 8 59 73 59 159 L59 500 L49 500 L39 500 L13 500 C5 500 6 502 6 484 C6 462 5 465 13 464 L39 461 L39 156 C39 64 79 -5 147 -5 C189 -5 238 24 277 63 L277 6 L277 1 L281 1 L323 13 C325 14 327 15 329 15 L330 13 L330 13 Z " />
<glyph glyph-name="udieresis" unicode="&#xfc;" horiz-adv-x="360" d="M251 570 C263 570 271 579 271 590 C271 601 263 610 251 610 C240 610 231 601 231 590 C231 579 240 570 251 570 L251 570 Z M89 570 C100 570 109 579 109 590 C109 601 100 610 89 610 C77 610 69 601 69 590 C69 579 77 570 89 570 L89 570 Z M337 16 C337 3 338 0 331 13 C335 14 336 14 336 14 L337 16 L337 16 Z M336 14 C336 14 336 14 336 15 L336 15 L336 14 L336 14 Z M330 13 C328 16 326 20 324 25 L298 74 L298 500 L288 500 L278 500 L252 500 C244 500 245 502 245 484 C245 462 244 465 252 464 L278 461 L278 69 L278 65 C245 32 202 8 162 8 C98 8 59 73 59 159 L59 500 L49 500 L39 500 L13 500 C5 500 6 502 6 484 C6 462 5 465 13 464 L39 461 L39 156 C39 64 79 -5 147 -5 C189 -5 238 24 277 63 L277 6 L277 1 L281 1 L323 13 C325 14 327 15 329 15 L330 13 L330 13 Z " />
<glyph glyph-name="ydieresis" unicode="&#xff;" horiz-adv-x="229" d="M230 570 C241 570 250 579 250 590 C250 601 241 610 230 610 C218 610 210 601 210 590 C210 579 218 570 230 570 L230 570 Z M67 570 C78 570 87 579 87 590 C87 601 78 610 67 610 C56 610 47 601 47 590 C47 579 56 570 67 570 L67 570 Z M249 461 L150 20 L62 460 L62 460 L80 463 C89 464 88 461 87 483 C88 501 89 499 81 499 L54 499 L43 499 L31 499 L13 499 C5 499 6 501 6 482 C7 461 6 464 13 463 L40 460 L143 -8 L128 -71 C105 -172 84 -218 63 -218 C48 -218 40 -194 24 -194 C18 -194 14 -198 14 -203 C14 -219 30 -231 51 -231 C82 -231 108 -181 133 -73 L148 -11 L257 460 L257 460 L284 463 C292 464 291 461 291 482 C291 501 292 499 284 499 L266 499 L263 499 L259 499 L233 499 C226 499 227 501 226 483 C227 461 226 464 233 463 L249 461 L249 461 Z " />
<glyph glyph-name="Amacron" unicode="&#x100;" horiz-adv-x="401" d="M107 774 L287 774 L287 785 L107 785 L107 774 L107 774 Z M287 239 L335 39 L334 39 L314 36 C306 35 307 38 307 17 C307 -2 306 0 314 0 L344 0 L356 0 L368 0 L389 0 C397 0 396 -2 396 16 C396 38 397 35 389 36 L358 39 L199 675 L193 675 L187 650 L187 650 L187 650 L41 39 L15 36 C7 35 8 38 8 17 C8 -2 7 0 15 0 L32 0 L36 0 L40 0 L78 0 C86 0 85 -2 85 16 C85 38 86 35 78 36 L49 39 L96 239 L287 239 L287 239 Z M285 244 L97 244 L190 637 L285 244 L285 244 Z " />
<glyph glyph-name="amacron" unicode="&#x101;" horiz-adv-x="445" d="M98 614 L278 614 L278 625 L98 625 L98 614 L98 614 Z M374 16 C374 3 374 0 367 14 C372 16 373 16 373 17 L374 16 L374 16 Z M373 17 L373 17 L373 17 L373 17 Z M367 15 C365 18 363 22 361 27 L335 76 L335 408 L335 502 L329 502 L317 419 C296 466 243 508 195 508 C115 508 54 389 54 231 C54 98 111 -2 187 -2 C218 -2 273 50 315 120 L315 71 L315 7 L315 2 L315 -3 L318 -3 L334 6 L361 14 C363 15 365 16 367 16 L367 15 L367 15 Z M315 125 C277 59 227 10 198 10 C128 10 75 108 75 239 C75 389 126 503 194 503 C244 503 298 457 315 409 L315 125 L315 125 Z " />
<glyph glyph-name="Abreve" unicode="&#x102;" horiz-adv-x="401" d="M151 872 C154 821 174 783 197 783 C220 783 240 821 243 872 L240 872 C236 829 218 796 197 796 C176 796 158 829 154 872 L151 872 L151 872 Z M287 239 L335 39 L334 39 L314 36 C306 35 307 38 307 17 C307 -2 306 0 314 0 L344 0 L356 0 L368 0 L389 0 C397 0 396 -2 396 16 C396 38 397 35 389 36 L358 39 L199 675 L193 675 L187 650 L187 650 L187 650 L41 39 L15 36 C7 35 8 38 8 17 C8 -2 7 0 15 0 L32 0 L36 0 L40 0 L78 0 C86 0 85 -2 85 16 C85 38 86 35 78 36 L49 39 L96 239 L287 239 L287 239 Z M285 244 L97 244 L190 637 L285 244 L285 244 Z " />
<glyph glyph-name="abreve" unicode="&#x103;" horiz-adv-x="445" d="M142 682 C145 631 165 593 188 593 C211 593 231 631 234 682 L231 682 C227 639 209 606 188 606 C167 606 149 639 145 682 L142 682 L142 682 Z M374 16 C374 3 374 0 367 14 C372 16 373 16 373 17 L374 16 L374 16 Z M373 17 L373 17 L373 17 L373 17 Z M367 15 C365 18 363 22 361 27 L335 76 L335 408 L335 502 L329 502 L317 419 C296 466 243 508 195 508 C115 508 54 389 54 231 C54 98 111 -2 187 -2 C218 -2 273 50 315 120 L315 71 L315 7 L315 2 L315 -3 L318 -3 L334 6 L361 14 C363 15 365 16 367 16 L367 15 L367 15 Z M315 125 C277 59 227 10 198 10 C128 10 75 108 75 239 C75 389 126 503 194 503 C244 503 298 457 315 409 L315 125 L315 125 Z " />
<glyph glyph-name="Aogonek" unicode="&#x104;" horiz-adv-x="401" d="M336 0 C295 -21 216 -98 216 -158 C216 -200 253 -231 302 -231 C332 -231 365 -217 380 -199 L379 -198 C365 -214 334 -226 307 -226 C262 -226 228 -196 228 -156 C228 -92 311 -12 345 0 L357 0 L369 0 L390 0 C398 0 397 -2 397 16 C397 38 398 35 390 36 L359 39 L200 675 L194 675 L188 650 L188 650 L188 650 L42 39 L16 36 C8 35 9 38 9 17 C9 -2 8 0 16 0 L33 0 L37 0 L41 0 L79 0 C87 0 86 -2 86 16 C86 38 87 35 79 36 L50 39 L97 239 L287 239 L335 39 L334 39 L314 36 C306 35 307 38 307 17 C307 -2 306 0 314 0 L336 0 L336 0 Z M285 244 L97 244 L190 637 L285 244 L285 244 Z " />
<glyph glyph-name="aogonek" unicode="&#x105;" horiz-adv-x="349" d="M330 14 L330 18 C293 5 201 -81 201 -149 C201 -196 238 -231 287 -231 C317 -231 350 -217 365 -199 L364 -198 C350 -214 319 -226 292 -226 C247 -226 213 -192 213 -147 C213 -80 296 2 330 14 L330 14 Z M327 34 C308 15 288 0 272 0 C244 0 234 23 234 54 L234 363 C234 444 206 505 169 505 C124 505 82 466 72 414 L92 414 C102 463 133 499 165 499 C192 499 213 442 213 367 L213 244 L134 226 C78 213 35 159 35 100 C35 40 63 -5 101 -5 C125 -5 171 32 213 82 L213 52 C213 17 225 -10 258 -10 C280 -10 306 8 329 31 L327 34 L327 34 Z M213 238 L213 85 C176 40 133 8 110 8 C79 8 55 50 55 105 C55 158 89 207 135 218 L213 238 L213 238 Z " />
<glyph glyph-name="Cacute" unicode="&#x106;" horiz-adv-x="606" d="M291 692 L398 823 C424 855 443 880 443 881 C443 883 435 889 432 889 C431 889 412 864 388 831 L289 693 L291 692 L291 692 Z M547 59 L547 108 C547 116 546 122 544 122 C543 122 538 116 530 108 C510 84 478 49 458 25 C414 10 370 1 338 1 C199 1 94 142 94 330 C94 518 199 659 338 659 C370 659 414 650 458 635 C478 611 510 576 530 552 C538 544 543 538 544 538 C546 538 547 544 547 552 L547 601 C484 638 394 665 339 665 C186 665 71 521 71 330 C71 139 186 -5 339 -5 C394 -5 484 22 547 59 L547 59 Z " />
<glyph glyph-name="cacute" unicode="&#x107;" horiz-adv-x="334" d="M129 532 L236 663 C261 695 281 720 281 721 C281 723 273 729 269 729 C268 729 250 704 225 671 L126 533 L129 532 L129 532 Z M282 24 L280 26 C267 15 226 7 183 7 C119 7 71 110 71 246 C71 390 129 499 205 499 C235 499 261 458 265 403 C266 397 270 393 275 393 C280 393 284 397 284 402 C279 461 246 505 207 505 C118 505 50 390 50 238 C50 100 100 -5 166 -5 C213 -5 262 7 282 24 L282 24 Z " />
<glyph glyph-name="Ccircumflex" unicode="&#x108;" horiz-adv-x="606" d="M339 880 L429 694 L432 696 L346 899 C345 901 342 905 339 905 C336 905 334 901 333 899 L247 696 L249 694 L339 880 L339 880 Z M547 59 L547 108 C547 116 546 122 544 122 C543 122 538 116 530 108 C510 84 478 49 458 25 C414 10 370 1 338 1 C199 1 94 142 94 330 C94 518 199 659 338 659 C370 659 414 650 458 635 C478 611 510 576 530 552 C538 544 543 538 544 538 C546 538 547 544 547 552 L547 601 C484 638 394 665 339 665 C186 665 71 521 71 330 C71 139 186 -5 339 -5 C394 -5 484 22 547 59 L547 59 Z " />
<glyph glyph-name="Cdot" unicode="&#x10a;" horiz-adv-x="606" d="M339 730 C351 730 359 739 359 750 C359 761 351 770 339 770 C328 770 319 761 319 750 C319 739 328 730 339 730 L339 730 Z M547 59 L547 108 C547 116 546 122 544 122 C543 122 538 116 530 108 C510 84 478 49 458 25 C414 10 370 1 338 1 C199 1 94 142 94 330 C94 518 199 659 338 659 C370 659 414 650 458 635 C478 611 510 576 530 552 C538 544 543 538 544 538 C546 538 547 544 547 552 L547 601 C484 638 394 665 339 665 C186 665 71 521 71 330 C71 139 186 -5 339 -5 C394 -5 484 22 547 59 L547 59 Z " />
<glyph glyph-name="cdot" unicode="&#x10b;" horiz-adv-x="334" d="M207 570 C218 570 227 579 227 590 C227 601 218 610 207 610 C196 610 187 601 187 590 C187 579 196 570 207 570 L207 570 Z M282 24 L280 26 C267 15 226 7 183 7 C119 7 71 110 71 246 C71 390 129 499 205 499 C235 499 261 458 265 403 C266 397 270 393 275 393 C280 393 284 397 284 402 C279 461 246 505 207 505 C118 505 50 390 50 238 C50 100 100 -5 166 -5 C213 -5 262 7 282 24 L282 24 Z " />
<glyph glyph-name="Ccaron" unicode="&#x10c;" horiz-adv-x="606" d="M339 740 L429 926 L432 924 L346 721 C345 719 342 715 339 715 C336 715 334 719 333 721 L247 924 L249 926 L339 740 L339 740 Z M547 59 L547 108 C547 116 546 122 544 122 C543 122 538 116 530 108 C510 84 478 49 458 25 C414 10 370 1 338 1 C199 1 94 142 94 330 C94 518 199 659 338 659 C370 659 414 650 458 635 C478 611 510 576 530 552 C538 544 543 538 544 538 C546 538 547 544 547 552 L547 601 C484 638 394 665 339 665 C186 665 71 521 71 330 C71 139 186 -5 339 -5 C394 -5 484 22 547 59 L547 59 Z " />
<glyph glyph-name="ccaron" unicode="&#x10d;" horiz-adv-x="334" d="M282 24 L280 26 C267 15 226 7 183 7 C119 7 71 110 71 246 C71 390 129 499 205 499 C235 499 261 458 265 403 C266 397 270 393 275 393 C280 393 284 397 284 402 C279 461 246 505 207 505 C118 505 50 390 50 238 C50 100 100 -5 166 -5 C213 -5 262 7 282 24 L282 24 Z M207 579 L297 766 L299 764 L213 561 C213 559 210 555 207 555 C204 555 201 559 201 561 L115 764 L117 766 L207 579 L207 579 Z " />
<glyph glyph-name="Dcaron" unicode="&#x10e;" horiz-adv-x="497" d="M256 740 L347 926 L349 924 L263 721 C262 719 260 715 257 715 C254 715 251 719 250 721 L164 924 L166 926 L256 740 L256 740 Z M98 0 L109 0 L189 0 C337 0 449 142 449 330 C449 518 329 660 169 660 L109 660 L98 660 L87 660 L60 660 C53 660 54 662 54 644 C54 622 53 625 60 624 L87 621 L87 39 L60 36 C53 35 54 38 54 16 C54 -2 53 0 60 0 L87 0 L98 0 L98 0 Z M109 6 L109 654 L169 654 C316 654 427 515 427 330 C427 145 325 6 189 6 L109 6 L109 6 Z " />
<glyph glyph-name="dcaron" unicode="&#x10f;" horiz-adv-x="467" d="M437 644 C447 695 454 745 454 750 C454 753 445 754 441 754 C437 755 429 691 425 649 L407 488 L410 487 L437 644 L437 644 Z M396 16 C396 3 396 0 389 14 C394 16 395 16 395 17 L396 16 L396 16 Z M395 17 L395 17 L395 17 L395 17 Z M389 15 C387 18 385 22 383 27 L357 76 L357 653 L357 717 L357 722 L353 722 L311 710 C309 709 307 708 305 708 C307 705 309 701 311 696 L337 647 L337 424 C312 468 258 506 207 506 C120 506 54 387 54 229 C54 96 117 -4 199 -4 C243 -4 301 22 337 56 L337 7 L337 2 L341 2 L383 14 C385 15 387 16 389 16 L389 15 L389 15 Z M299 706 C299 719 298 722 305 708 C300 707 299 706 299 706 L299 706 Z M299 706 L299 706 L299 706 L299 706 Z M337 71 L337 60 C307 31 253 9 210 9 C133 9 75 107 75 238 C75 388 131 502 206 502 C260 502 316 460 337 414 L337 71 L337 71 Z " />
<glyph glyph-name="Emacron" unicode="&#x112;" horiz-adv-x="359" d="M85 774 L265 774 L265 785 L85 785 L85 774 L85 774 Z M295 3 C297 17 301 39 303 53 C304 58 305 61 305 63 C302 61 297 58 289 53 L216 6 L88 6 L88 349 L140 349 L200 320 C217 311 225 307 228 305 C228 307 228 311 228 319 L228 349 L228 352 L228 355 L228 381 C228 387 228 391 228 393 C223 391 214 387 200 381 L140 355 L88 355 L88 654 L207 654 L272 607 C279 602 283 599 286 597 C286 599 286 602 286 607 L286 657 L286 660 L283 660 L247 660 L88 660 L77 660 L66 660 L40 660 C32 660 33 662 33 644 C33 622 32 625 40 624 L66 621 L66 39 L40 36 C32 35 33 38 33 16 C33 -2 32 0 40 0 L66 0 L77 0 L88 0 L255 0 L293 0 L294 0 L295 3 L295 3 Z M306 66 C310 66 312 67 306 63 C306 65 306 66 306 66 L306 66 Z M306 66 L306 66 L306 66 L306 66 Z M227 304 C228 304 228 304 228 305 C230 304 229 304 227 304 L227 304 Z M227 304 C226 304 225 304 224 304 C225 304 226 304 227 304 L227 304 Z M228 396 C234 397 236 397 229 394 C229 395 229 396 229 396 L228 396 L228 396 Z M229 396 C228 397 227 396 225 396 C226 396 227 396 228 396 L229 396 L229 396 Z M286 594 L286 594 L286 594 L286 594 Z M286 594 L286 594 L286 594 L286 594 Z M286 594 C286 594 286 594 286 596 C292 592 290 593 286 594 L286 594 Z " />
<glyph glyph-name="emacron" unicode="&#x113;" horiz-adv-x="341" d="M96 614 L276 614 L276 625 L96 625 L96 614 L96 614 Z M289 24 L287 26 C274 15 230 7 186 7 C120 7 71 110 71 246 C71 276 73 305 77 331 L272 331 L291 331 C291 430 246 505 186 505 C108 505 50 390 50 238 C50 100 101 -5 169 -5 C218 -5 269 7 289 24 L289 24 Z M78 334 C93 432 134 499 185 499 C234 499 272 434 272 347 C272 342 268 338 263 338 L272 338 L78 334 L78 334 Z " />
<glyph glyph-name="Ebreve" unicode="&#x114;" horiz-adv-x="359" d="M129 872 C132 821 152 783 175 783 C198 783 218 821 221 872 L217 872 C214 829 196 796 175 796 C153 796 135 829 132 872 L129 872 L129 872 Z M295 3 C297 17 301 39 303 53 C304 58 305 61 305 63 C302 61 297 58 289 53 L216 6 L88 6 L88 349 L140 349 L200 320 C217 311 225 307 228 305 C228 307 228 311 228 319 L228 349 L228 352 L228 355 L228 381 C228 387 228 391 228 393 C223 391 214 387 200 381 L140 355 L88 355 L88 654 L207 654 L272 607 C279 602 283 599 286 597 C286 599 286 602 286 607 L286 657 L286 660 L283 660 L247 660 L88 660 L77 660 L66 660 L40 660 C32 660 33 662 33 644 C33 622 32 625 40 624 L66 621 L66 39 L40 36 C32 35 33 38 33 16 C33 -2 32 0 40 0 L66 0 L77 0 L88 0 L255 0 L293 0 L294 0 L295 3 L295 3 Z M306 66 C310 66 312 67 306 63 C306 65 306 66 306 66 L306 66 Z M306 66 L306 66 L306 66 L306 66 Z M227 304 C228 304 228 304 228 305 C230 304 229 304 227 304 L227 304 Z M227 304 C226 304 225 304 224 304 C225 304 226 304 227 304 L227 304 Z M228 396 C234 397 236 397 229 394 C229 395 229 396 229 396 L228 396 L228 396 Z M229 396 C228 397 227 396 225 396 C226 396 227 396 228 396 L229 396 L229 396 Z M286 594 L286 594 L286 594 L286 594 Z M286 594 L286 594 L286 594 L286 594 Z M286 594 C286 594 286 594 286 596 C292 592 290 593 286 594 L286 594 Z " />
<glyph glyph-name="ebreve" unicode="&#x115;" horiz-adv-x="341" d="M140 712 C143 661 163 623 186 623 C209 623 229 661 232 712 L228 712 C225 669 207 636 186 636 C165 636 147 669 143 712 L140 712 L140 712 Z M289 24 L287 26 C274 15 230 7 186 7 C120 7 71 110 71 246 C71 276 73 305 77 331 L272 331 L291 331 C291 430 246 505 186 505 C108 505 50 390 50 238 C50 100 101 -5 169 -5 C218 -5 269 7 289 24 L289 24 Z M78 334 C93 432 134 499 185 499 C234 499 272 434 272 347 C272 342 268 338 263 338 L272 338 L78 334 L78 334 Z " />
<glyph glyph-name="Edot" unicode="&#x116;" horiz-adv-x="359" d="M175 730 C186 730 195 739 195 750 C195 761 186 770 175 770 C163 770 155 761 155 750 C155 739 163 730 175 730 L175 730 Z M295 3 C297 17 301 39 303 53 C304 58 305 61 305 63 C302 61 297 58 289 53 L216 6 L88 6 L88 349 L140 349 L200 320 C217 311 225 307 228 305 C228 307 228 311 228 319 L228 349 L228 352 L228 355 L228 381 C228 387 228 391 228 393 C223 391 214 387 200 381 L140 355 L88 355 L88 654 L207 654 L272 607 C279 602 283 599 286 597 C286 599 286 602 286 607 L286 657 L286 660 L283 660 L247 660 L88 660 L77 660 L66 660 L40 660 C32 660 33 662 33 644 C33 622 32 625 40 624 L66 621 L66 39 L40 36 C32 35 33 38 33 16 C33 -2 32 0 40 0 L66 0 L77 0 L88 0 L255 0 L293 0 L294 0 L295 3 L295 3 Z M306 66 C310 66 312 67 306 63 C306 65 306 66 306 66 L306 66 Z M306 66 L306 66 L306 66 L306 66 Z M227 304 C228 304 228 304 228 305 C230 304 229 304 227 304 L227 304 Z M227 304 C226 304 225 304 224 304 C225 304 226 304 227 304 L227 304 Z M228 396 C234 397 236 397 229 394 C229 395 229 396 229 396 L228 396 L228 396 Z M229 396 C228 397 227 396 225 396 C226 396 227 396 228 396 L229 396 L229 396 Z M286 594 L286 594 L286 594 L286 594 Z M286 594 L286 594 L286 594 L286 594 Z M286 594 C286 594 286 594 286 596 C292 592 290 593 286 594 L286 594 Z " />
<glyph glyph-name="edot" unicode="&#x117;" horiz-adv-x="341" d="M186 570 C197 570 206 579 206 590 C206 601 197 610 186 610 C175 610 166 601 166 590 C166 579 175 570 186 570 L186 570 Z M289 24 L287 26 C274 15 230 7 186 7 C120 7 71 110 71 246 C71 276 73 305 77 331 L272 331 L291 331 C291 430 246 505 186 505 C108 505 50 390 50 238 C50 100 101 -5 169 -5 C218 -5 269 7 289 24 L289 24 Z M78 334 C93 432 134 499 185 499 C234 499 272 434 272 347 C272 342 268 338 263 338 L272 338 L78 334 L78 334 Z " />
<glyph glyph-name="Eogonek" unicode="&#x118;" horiz-adv-x="359" d="M295 3 C297 17 301 39 303 53 C304 58 305 61 305 63 C302 61 297 58 289 53 L216 6 L88 6 L88 349 L140 349 L200 320 C217 311 225 307 228 305 C228 307 228 311 228 319 L228 349 L228 352 L228 355 L228 381 C228 387 228 391 228 393 C223 391 214 387 200 381 L140 355 L88 355 L88 654 L207 654 L272 607 C279 602 283 599 286 597 C286 599 286 602 286 607 L286 657 L286 660 L283 660 L247 660 L88 660 L77 660 L66 660 L40 660 C32 660 33 662 33 644 C33 622 32 625 40 624 L66 621 L66 39 L40 36 C32 35 33 38 33 16 C33 -2 32 0 40 0 L66 0 L77 0 L88 0 L255 0 L284 0 C244 -21 164 -98 164 -158 C164 -200 201 -231 251 -231 C280 -231 314 -217 329 -199 L327 -198 C314 -214 283 -226 255 -226 C210 -226 176 -196 176 -156 C176 -92 260 -12 293 0 L294 0 L295 3 L295 3 Z M306 66 C310 66 312 67 306 63 C306 65 306 66 306 66 L306 66 Z M306 66 L306 66 L306 66 L306 66 Z M227 304 C228 304 228 304 228 305 C230 304 229 304 227 304 L227 304 Z M227 304 C226 304 225 304 224 304 C225 304 226 304 227 304 L227 304 Z M228 396 C234 397 236 397 229 394 C229 395 229 396 229 396 L228 396 L228 396 Z M229 396 C228 397 227 396 225 396 C226 396 227 396 228 396 L229 396 L229 396 Z M286 594 L286 594 L286 594 L286 594 Z M286 594 L286 594 L286 594 L286 594 Z M286 594 C286 594 286 594 286 596 C292 592 290 593 286 594 L286 594 Z " />
<glyph glyph-name="eogonek" unicode="&#x119;" horiz-adv-x="341" d="M78 334 C93 432 134 499 185 499 C234 499 272 434 272 347 C272 342 268 338 263 338 L272 338 L78 334 L78 334 Z M77 331 L272 331 L291 331 C291 430 246 505 186 505 C108 505 50 390 50 238 C50 100 101 -5 169 -5 C187 -5 206 -3 223 0 C181 -28 115 -97 115 -153 C115 -197 152 -230 202 -230 C231 -230 265 -216 280 -198 L278 -197 C265 -213 234 -225 206 -225 C161 -225 127 -193 127 -151 C127 -91 196 -20 233 2 C257 7 277 15 288 24 L286 26 C273 15 229 7 185 7 C119 7 70 110 70 246 C70 276 72 305 76 331 L77 331 L77 331 Z " />
<glyph glyph-name="Ecaron" unicode="&#x11a;" horiz-adv-x="359" d="M175 740 L265 926 L267 924 L181 721 C181 719 178 715 175 715 C172 715 169 719 168 721 L83 924 L85 926 L175 740 L175 740 Z M295 3 C297 17 301 39 303 53 C304 58 305 61 305 63 C302 61 297 58 289 53 L216 6 L88 6 L88 349 L140 349 L200 320 C217 311 225 307 228 305 C228 307 228 311 228 319 L228 349 L228 352 L228 355 L228 381 C228 387 228 391 228 393 C223 391 214 387 200 381 L140 355 L88 355 L88 654 L207 654 L272 607 C279 602 283 599 286 597 C286 599 286 602 286 607 L286 657 L286 660 L283 660 L247 660 L88 660 L77 660 L66 660 L40 660 C32 660 33 662 33 644 C33 622 32 625 40 624 L66 621 L66 39 L40 36 C32 35 33 38 33 16 C33 -2 32 0 40 0 L66 0 L77 0 L88 0 L255 0 L293 0 L294 0 L295 3 L295 3 Z M306 66 C310 66 312 67 306 63 C306 65 306 66 306 66 L306 66 Z M306 66 L306 66 L306 66 L306 66 Z M227 304 C228 304 228 304 228 305 C230 304 229 304 227 304 L227 304 Z M227 304 C226 304 225 304 224 304 C225 304 226 304 227 304 L227 304 Z M228 396 C234 397 236 397 229 394 C229 395 229 396 229 396 L228 396 L228 396 Z M229 396 C228 397 227 396 225 396 C226 396 227 396 228 396 L229 396 L229 396 Z M286 594 L286 594 L286 594 L286 594 Z M286 594 L286 594 L286 594 L286 594 Z M286 594 C286 594 286 594 286 596 C292 592 290 593 286 594 L286 594 Z " />
<glyph glyph-name="ecaron" unicode="&#x11b;" horiz-adv-x="341" d="M289 24 L287 26 C274 15 230 7 186 7 C120 7 71 110 71 246 C71 276 73 305 77 331 L272 331 L291 331 C291 430 246 505 186 505 C108 505 50 390 50 238 C50 100 101 -5 169 -5 C218 -5 269 7 289 24 L289 24 Z M186 580 L276 766 L278 764 L192 561 C192 559 189 555 186 555 C183 555 180 559 180 561 L94 764 L96 766 L186 580 L186 580 Z M78 334 C93 432 134 499 185 499 C234 499 272 434 272 347 C272 342 268 338 263 338 L272 338 L78 334 L78 334 Z " />
<glyph glyph-name="Gcircumflex" unicode="&#x11c;" horiz-adv-x="649" d="M328 881 L418 694 L420 696 L335 899 C334 901 331 905 328 905 C325 905 322 901 322 899 L236 696 L238 694 L328 881 L328 881 Z M512 271 L512 55 C452 23 376 0 328 0 C195 0 95 141 95 329 C95 517 195 658 328 658 C357 658 397 649 438 634 L438 634 C458 611 490 575 510 551 C518 543 523 537 524 537 C526 537 527 543 527 551 L527 600 C464 637 378 664 328 664 C182 664 71 520 71 329 C71 138 182 -6 328 -6 C381 -6 469 21 532 58 L532 270 L558 273 C565 274 564 271 565 293 C564 311 565 309 558 309 L532 309 L522 309 L512 309 L486 309 C478 309 479 311 479 293 C479 271 478 274 486 273 L512 271 L512 271 Z " />
<glyph glyph-name="Gbreve" unicode="&#x11e;" horiz-adv-x="649" d="M282 872 C285 821 305 783 328 783 C351 783 371 821 374 872 L371 872 C367 829 349 796 328 796 C307 796 289 829 286 872 L282 872 L282 872 Z M512 271 L512 55 C452 23 376 0 328 0 C195 0 95 141 95 329 C95 517 195 658 328 658 C357 658 397 649 438 634 L438 634 C458 611 490 575 510 551 C518 543 523 537 524 537 C526 537 527 543 527 551 L527 600 C464 637 378 664 328 664 C182 664 71 520 71 329 C71 138 182 -6 328 -6 C381 -6 469 21 532 58 L532 270 L558 273 C565 274 564 271 565 293 C564 311 565 309 558 309 L532 309 L522 309 L512 309 L486 309 C478 309 479 311 479 293 C479 271 478 274 486 273 L512 271 L512 271 Z " />
<glyph glyph-name="gbreve" unicode="&#x11f;" horiz-adv-x="341" d="M148 712 C151 661 171 623 194 623 C217 623 237 661 240 712 L237 712 C233 669 215 636 194 636 C173 636 155 669 152 712 L148 712 L148 712 Z M342 500 L222 501 L222 501 C213 504 204 505 194 505 C127 505 76 439 76 352 C76 276 115 216 170 202 C105 201 57 167 57 122 C57 71 97 34 151 37 L176 40 C250 40 307 -7 307 -69 C307 -161 233 -231 136 -231 C84 -231 45 -174 45 -98 C45 -63 87 -12 142 19 L139 21 C78 -14 32 -67 32 -100 C32 -178 76 -236 133 -236 C241 -236 322 -160 322 -59 C322 8 261 59 181 59 L150 56 C104 54 70 86 70 130 C70 169 114 199 172 199 L194 199 C261 199 312 265 312 352 C312 416 284 469 242 492 L341 489 L342 500 L342 500 Z M94 352 C94 437 137 501 193 501 C203 501 212 499 221 495 L221 493 L227 493 C266 473 293 419 293 352 C293 267 250 203 194 203 C138 203 95 267 95 352 L94 352 L94 352 Z " />
<glyph glyph-name="Gdot" unicode="&#x120;" horiz-adv-x="649" d="M328 730 C339 730 348 739 348 750 C348 761 339 770 328 770 C317 770 308 761 308 750 C308 739 317 730 328 730 L328 730 Z M512 271 L512 55 C452 23 376 0 328 0 C195 0 95 141 95 329 C95 517 195 658 328 658 C357 658 397 649 438 634 L438 634 C458 611 490 575 510 551 C518 543 523 537 524 537 C526 537 527 543 527 551 L527 600 C464 637 378 664 328 664 C182 664 71 520 71 329 C71 138 182 -6 328 -6 C381 -6 469 21 532 58 L532 270 L558 273 C565 274 564 271 565 293 C564 311 565 309 558 309 L532 309 L522 309 L512 309 L486 309 C478 309 479 311 479 293 C479 271 478 274 486 273 L512 271 L512 271 Z " />
<glyph glyph-name="gdot" unicode="&#x121;" horiz-adv-x="341" d="M194 570 C205 570 214 579 214 590 C214 601 205 610 194 610 C183 610 174 601 174 590 C174 579 183 570 194 570 L194 570 Z M342 500 L222 501 L222 501 C213 504 204 505 194 505 C127 505 76 439 76 352 C76 276 115 216 170 202 C105 201 57 167 57 122 C57 71 97 34 151 37 L176 40 C250 40 307 -7 307 -69 C307 -161 233 -231 136 -231 C84 -231 45 -174 45 -98 C45 -63 87 -12 142 19 L139 21 C78 -14 32 -67 32 -100 C32 -178 76 -236 133 -236 C241 -236 322 -160 322 -59 C322 8 261 59 181 59 L150 56 C104 54 70 86 70 130 C70 169 114 199 172 199 L194 199 C261 199 312 265 312 352 C312 416 284 469 242 492 L341 489 L342 500 L342 500 Z M94 352 C94 437 137 501 193 501 C203 501 212 499 221 495 L221 493 L227 493 C266 473 293 419 293 352 C293 267 250 203 194 203 C138 203 95 267 95 352 L94 352 L94 352 Z " />
<glyph glyph-name="Hcircumflex" unicode="&#x124;" horiz-adv-x="542" d="M272 880 L363 694 L365 696 L279 899 C278 901 275 905 272 905 C269 905 267 901 266 899 L180 696 L182 694 L272 880 L272 880 Z M467 0 L478 0 L504 0 C511 0 510 -2 511 16 C510 38 511 35 504 36 L478 39 L478 621 L504 624 C511 625 510 622 511 644 C510 662 511 660 504 660 L478 660 L467 660 L455 660 L429 660 C422 660 423 662 423 644 C423 622 422 625 429 624 L455 621 L455 350 L89 350 L89 621 L116 624 C124 625 123 622 122 644 C123 662 124 660 116 660 L89 660 L78 660 L67 660 L41 660 C33 660 34 662 34 644 C34 622 33 625 41 624 L67 621 L67 39 L41 36 C33 35 34 38 34 16 C34 -2 33 0 41 0 L67 0 L78 0 L89 0 L116 0 C124 0 123 -2 122 16 C123 38 124 35 116 36 L89 39 L89 344 L455 344 L455 39 L429 36 C422 35 423 38 423 16 C423 -2 422 0 429 0 L455 0 L467 0 L467 0 Z " />
<glyph glyph-name="Itilde" unicode="&#x128;" horiz-adv-x="154" d="M18 755 C18 796 26 827 36 827 C73 827 76 764 113 764 C128 764 140 796 140 837 L136 837 C136 803 128 777 117 777 C81 777 77 840 41 840 C26 840 15 803 15 755 L18 755 L18 755 Z M77 0 L88 0 L115 0 C123 0 122 -2 121 16 C122 38 123 35 115 36 L88 39 L88 621 L115 624 C123 625 122 622 121 644 C122 662 123 660 115 660 L88 660 L77 660 L66 660 L40 660 C32 660 33 662 33 644 C33 622 32 625 40 624 L66 621 L66 39 L40 36 C32 35 33 38 33 16 C33 -2 32 0 40 0 L66 0 L77 0 L77 0 Z " />
<glyph glyph-name="itilde" unicode="&#x129;" horiz-adv-x="162" d="M22 595 C22 636 30 667 40 667 C77 667 80 604 117 604 C132 604 144 636 144 677 L140 677 C140 643 132 617 121 617 C85 617 81 680 44 680 C30 680 19 643 19 595 L22 595 L22 595 Z M33 451 C33 464 32 467 39 453 C35 452 34 452 34 452 L33 451 L33 451 Z M34 452 L34 452 L34 452 L34 452 Z M40 454 C42 451 44 447 46 442 L72 393 L72 40 L46 37 C38 36 39 39 39 17 C39 -1 38 1 46 1 L72 1 L82 1 L92 1 L118 1 C126 1 125 -1 125 17 C125 39 126 36 118 37 L92 40 L92 398 L92 462 L92 467 L88 467 L46 455 C44 454 42 453 40 453 L40 454 L40 454 Z " />
<glyph glyph-name="Imacron" unicode="&#x12a;" horiz-adv-x="154" d="M-13 774 L167 774 L167 785 L-13 785 L-13 774 L-13 774 Z M77 0 L88 0 L115 0 C123 0 122 -2 121 16 C122 38 123 35 115 36 L88 39 L88 621 L115 624 C123 625 122 622 121 644 C122 662 123 660 115 660 L88 660 L77 660 L66 660 L40 660 C32 660 33 662 33 644 C33 622 32 625 40 624 L66 621 L66 39 L40 36 C32 35 33 38 33 16 C33 -2 32 0 40 0 L66 0 L77 0 L77 0 Z " />
<glyph glyph-name="imacron" unicode="&#x12b;" horiz-adv-x="162" d="M-9 614 L171 614 L171 625 L-9 625 L-9 614 L-9 614 Z M33 451 C33 464 32 467 39 453 C35 452 34 452 34 452 L33 451 L33 451 Z M34 452 L34 452 L34 452 L34 452 Z M40 454 C42 451 44 447 46 442 L72 393 L72 40 L46 37 C38 36 39 39 39 17 C39 -1 38 1 46 1 L72 1 L82 1 L92 1 L118 1 C126 1 125 -1 125 17 C125 39 126 36 118 37 L92 40 L92 398 L92 462 L92 467 L88 467 L46 455 C44 454 42 453 40 453 L40 454 L40 454 Z " />
<glyph glyph-name="Ibreve" unicode="&#x12c;" horiz-adv-x="154" d="M31 872 C34 821 54 783 77 783 C100 783 120 821 123 872 L120 872 C117 829 99 796 77 796 C56 796 38 829 35 872 L31 872 L31 872 Z M77 0 L88 0 L115 0 C123 0 122 -2 121 16 C122 38 123 35 115 36 L88 39 L88 621 L115 624 C123 625 122 622 121 644 C122 662 123 660 115 660 L88 660 L77 660 L66 660 L40 660 C32 660 33 662 33 644 C33 622 32 625 40 624 L66 621 L66 39 L40 36 C32 35 33 38 33 16 C33 -2 32 0 40 0 L66 0 L77 0 L77 0 Z " />
<glyph glyph-name="ibreve" unicode="&#x12d;" horiz-adv-x="162" d="M35 712 C38 661 58 623 81 623 C104 623 124 661 127 712 L124 712 C120 669 102 636 81 636 C60 636 42 669 39 712 L35 712 L35 712 Z M33 451 C33 464 32 467 39 453 C35 452 34 452 34 452 L33 451 L33 451 Z M34 452 L34 452 L34 452 L34 452 Z M40 454 C42 451 44 447 46 442 L72 393 L72 40 L46 37 C38 36 39 39 39 17 C39 -1 38 1 46 1 L72 1 L82 1 L92 1 L118 1 C126 1 125 -1 125 17 C125 39 126 36 118 37 L92 40 L92 398 L92 462 L92 467 L88 467 L46 455 C44 454 42 453 40 453 L40 454 L40 454 Z " />
<glyph glyph-name="Idot" unicode="&#x130;" horiz-adv-x="154" d="M77 730 C89 730 97 739 97 750 C97 761 89 770 77 770 C66 770 57 761 57 750 C57 739 66 730 77 730 L77 730 Z M77 0 L88 0 L115 0 C123 0 122 -2 121 16 C122 38 123 35 115 36 L88 39 L88 621 L115 624 C123 625 122 622 121 644 C122 662 123 660 115 660 L88 660 L77 660 L66 660 L40 660 C32 660 33 662 33 644 C33 622 32 625 40 624 L66 621 L66 39 L40 36 C32 35 33 38 33 16 C33 -2 32 0 40 0 L66 0 L77 0 L77 0 Z " />
<glyph glyph-name="dotlessi" unicode="&#x131;" horiz-adv-x="162" d="M33 451 C33 464 32 467 39 453 C35 452 34 452 34 452 L33 451 L33 451 Z M34 452 L34 452 L34 452 L34 452 Z M40 454 C42 451 44 447 46 442 L72 393 L72 40 L46 37 C38 36 39 39 39 17 C39 -1 38 1 46 1 L72 1 L82 1 L92 1 L118 1 C126 1 125 -1 125 17 C125 39 126 36 118 37 L92 40 L92 398 L92 462 L92 467 L88 467 L46 455 C44 454 42 453 40 453 L40 454 L40 454 Z " />
<glyph glyph-name="Jcircumflex" unicode="&#x134;" horiz-adv-x="181" d="M105 880 L196 694 L198 696 L112 899 C111 901 109 905 106 905 C103 905 100 901 99 899 L13 696 L15 694 L105 880 L105 880 Z M94 621 L94 200 C94 59 80 -6 49 -6 C40 -6 28 18 20 50 C19 55 14 59 10 59 C4 59 0 55 1 50 C10 16 28 -10 43 -10 C94 -10 117 62 117 219 L117 621 L143 624 C150 625 149 622 150 644 C149 662 150 660 143 660 L117 660 L106 660 L94 660 L68 660 C60 660 61 662 62 644 C62 622 61 625 68 624 L94 621 L94 621 Z " />
<glyph glyph-name="Lacute" unicode="&#x139;" horiz-adv-x="359" d="M52 692 L159 823 C185 855 204 880 204 881 C204 883 196 889 193 889 C192 889 173 864 149 831 L50 693 L52 692 L52 692 Z M295 3 C297 18 301 40 304 55 C306 71 307 69 302 70 C293 70 296 72 279 58 L216 6 L88 6 L88 621 L115 624 C123 625 122 622 121 644 C122 662 123 660 115 660 L88 660 L77 660 L66 660 L40 660 C32 660 33 662 33 644 C33 622 32 625 40 624 L66 621 L66 39 L40 36 C32 35 33 38 33 16 C33 -2 32 0 40 0 L66 0 L77 0 L88 0 L255 0 L293 0 L294 0 L295 3 L295 3 Z " />
<glyph glyph-name="Lcaron" unicode="&#x13d;" horiz-adv-x="359" d="M194 584 C204 635 211 685 211 690 C211 693 202 694 198 694 C194 695 186 631 182 589 L164 428 L166 427 L194 584 L194 584 Z M295 3 C297 18 301 40 304 55 C306 71 307 69 302 70 C293 70 296 72 279 58 L216 6 L88 6 L88 621 L115 624 C123 625 122 622 121 644 C122 662 123 660 115 660 L88 660 L77 660 L66 660 L40 660 C32 660 33 662 33 644 C33 622 32 625 40 624 L66 621 L66 39 L40 36 C32 35 33 38 33 16 C33 -2 32 0 40 0 L66 0 L77 0 L88 0 L255 0 L293 0 L294 0 L295 3 L295 3 Z " />
<glyph glyph-name="lcaron" unicode="&#x13e;" horiz-adv-x="162" d="M171 614 C180 665 187 715 187 720 C187 723 178 724 175 724 C170 725 163 661 158 619 L141 458 L143 457 L171 614 L171 614 Z M33 704 C33 717 32 720 39 706 C35 705 34 704 34 704 L33 704 L33 704 Z M34 704 L34 704 L34 704 L34 704 Z M40 706 C42 703 44 699 46 694 L72 645 L72 38 L46 35 C38 34 39 37 39 15 C39 -3 38 -1 46 -1 L72 -1 L82 -1 L92 -1 L118 -1 C126 -1 125 -3 125 15 C125 37 126 34 118 35 L92 38 L92 650 L92 714 L92 719 L88 719 L46 707 C44 706 42 705 40 705 L40 706 L40 706 Z " />
<glyph glyph-name="Lslash" unicode="&#x141;" horiz-adv-x="359" d="M16 277 L66 306 L66 39 L40 36 C32 35 33 38 33 16 C33 -2 32 0 40 0 L66 0 L77 0 L88 0 L255 0 L293 0 L294 0 L295 3 C297 18 301 40 304 55 C306 71 307 69 302 70 C293 70 296 72 279 58 L216 6 L88 6 L88 318 L191 377 L191 383 L88 324 L88 621 L115 624 C123 625 122 622 121 644 C122 662 123 660 115 660 L88 660 L77 660 L66 660 L40 660 C32 660 33 662 33 644 C33 622 32 625 40 624 L66 621 L66 312 L16 283 L16 277 L16 277 Z " />
<glyph glyph-name="lslash" unicode="&#x142;" horiz-adv-x="162" d="M-29 307 L71 352 L71 39 L45 36 C37 35 38 38 38 16 C38 -2 37 0 45 0 L71 0 L81 0 L91 0 L117 0 C125 0 124 -2 124 16 C124 38 125 35 117 36 L91 39 L91 362 L191 407 L191 413 L91 368 L91 651 L91 715 L91 720 L87 720 L45 708 C43 707 41 706 39 706 C41 703 43 699 45 694 L71 645 L71 357 L-29 312 L-29 307 L-29 307 Z M33 703 C33 716 32 719 39 705 C35 704 34 703 34 703 L33 703 L33 703 Z M34 703 L34 703 L34 703 L34 703 Z " />
<glyph glyph-name="Nacute" unicode="&#x143;" horiz-adv-x="467" d="M207 692 L314 823 C339 855 359 880 359 881 C359 883 351 889 347 889 C347 889 328 864 304 831 L205 693 L207 692 L207 692 Z M401 621 L401 35 L91 660 L78 651 L78 651 L91 660 L78 660 L75 660 L71 660 L45 660 C38 660 39 662 39 644 C39 622 38 625 45 624 L71 621 L71 39 L45 36 C38 35 39 38 39 16 C39 -2 38 0 45 0 L71 0 L75 0 L78 0 L104 0 C112 0 111 -2 111 16 C111 38 112 35 104 36 L78 39 L78 637 L391 9 L398 -4 L408 -4 L408 17 L408 621 L434 624 C442 625 441 622 441 644 C441 662 442 660 434 660 L408 660 L404 660 L401 660 L375 660 C367 660 368 662 368 644 C368 622 367 625 375 624 L401 621 L401 621 Z " />
<glyph glyph-name="nacute" unicode="&#x144;" horiz-adv-x="395" d="M122 532 L229 663 C254 695 274 720 274 721 C274 723 266 729 262 729 C261 729 243 704 218 671 L119 533 L122 532 L122 532 Z M33 484 C33 496 32 499 39 486 C35 485 34 485 34 485 L33 484 L33 484 Z M34 485 C34 485 34 485 34 484 L34 484 L34 485 L34 485 Z M40 486 C42 483 44 479 46 474 L72 425 L72 38 L46 35 C38 34 39 37 39 15 C39 -3 38 -1 46 -1 L72 -1 L82 -1 L92 -1 L118 -1 C126 -1 125 -3 125 15 C125 37 126 34 118 35 L92 38 L92 430 L92 433 C153 466 210 490 226 490 C283 490 310 422 310 331 L310 37 L284 34 C276 33 277 36 277 14 C277 -4 276 -2 284 -2 L310 -2 L320 -2 L330 -2 L356 -2 C364 -2 363 -4 363 14 C363 36 364 33 356 34 L330 37 L330 334 C330 430 302 503 241 503 C229 503 165 474 92 436 L92 455 L92 499 L88 499 L46 487 C44 486 42 485 40 485 L40 486 L40 486 Z " />
<glyph glyph-name="Ncaron" unicode="&#x147;" horiz-adv-x="467" d="M240 740 L331 926 L333 924 L247 721 C246 719 244 715 241 715 C238 715 235 719 234 721 L148 924 L150 926 L240 740 L240 740 Z M402 621 L402 35 L92 660 L79 651 L79 651 L92 660 L79 660 L76 660 L72 660 L46 660 C39 660 40 662 40 644 C40 622 39 625 46 624 L72 621 L72 39 L46 36 C39 35 40 38 40 16 C40 -2 39 0 46 0 L72 0 L76 0 L79 0 L105 0 C113 0 112 -2 112 16 C112 38 113 35 105 36 L79 39 L79 637 L392 9 L399 -4 L409 -4 L409 17 L409 621 L435 624 C443 625 442 622 442 644 C442 662 443 660 435 660 L409 660 L405 660 L402 660 L376 660 C368 660 369 662 369 644 C369 622 368 625 376 624 L402 621 L402 621 Z " />
<glyph glyph-name="ncaron" unicode="&#x148;" horiz-adv-x="395" d="M200 579 L290 766 L292 764 L206 561 C206 559 203 555 200 555 C197 555 194 559 194 561 L108 764 L110 766 L200 579 L200 579 Z M33 484 C33 496 32 499 39 486 C35 485 34 485 34 485 L33 484 L33 484 Z M34 485 C34 485 34 485 34 484 L34 484 L34 485 L34 485 Z M40 486 C42 483 44 479 46 474 L72 425 L72 38 L46 35 C38 34 39 37 39 15 C39 -3 38 -1 46 -1 L72 -1 L82 -1 L92 -1 L118 -1 C126 -1 125 -3 125 15 C125 37 126 34 118 35 L92 38 L92 430 L92 433 C153 466 210 490 226 490 C283 490 310 422 310 331 L310 37 L284 34 C276 33 277 36 277 14 C277 -4 276 -2 284 -2 L310 -2 L320 -2 L330 -2 L356 -2 C364 -2 363 -4 363 14 C363 36 364 33 356 34 L330 37 L330 334 C330 430 302 503 241 503 C229 503 165 474 92 436 L92 455 L92 499 L88 499 L46 487 C44 486 42 485 40 485 L40 486 L40 486 Z " />
<glyph glyph-name="Omacron" unicode="&#x14c;" horiz-adv-x="639" d="M240 774 L420 774 L420 785 L240 785 L240 774 L240 774 Z M330 1 C183 1 95 161 95 330 C95 499 183 659 330 659 C477 659 565 499 565 330 C565 161 477 1 330 1 L330 1 Z M71 330 C71 158 168 -5 330 -5 C492 -5 589 158 589 330 C589 502 492 665 330 665 C168 665 71 502 71 330 L71 330 Z " />
<glyph glyph-name="omacron" unicode="&#x14d;" horiz-adv-x="460" d="M140 614 L320 614 L320 625 L140 625 L140 614 L140 614 Z M230 -1 C140 -1 72 107 72 250 C72 393 140 501 230 501 C320 501 388 393 388 250 C388 107 320 -1 230 -1 L230 -1 Z M50 250 C50 105 128 -5 230 -5 C333 -5 411 105 411 250 C411 395 333 505 230 505 C128 505 50 395 50 250 L50 250 Z " />
<glyph glyph-name="Obreve" unicode="&#x14e;" horiz-adv-x="639" d="M284 872 C287 821 307 783 330 783 C353 783 373 821 376 872 L373 872 C369 829 351 796 330 796 C309 796 291 829 287 872 L284 872 L284 872 Z M330 1 C183 1 95 161 95 330 C95 499 183 659 330 659 C477 659 565 499 565 330 C565 161 477 1 330 1 L330 1 Z M71 330 C71 158 168 -5 330 -5 C492 -5 589 158 589 330 C589 502 492 665 330 665 C168 665 71 502 71 330 L71 330 Z " />
<glyph glyph-name="obreve" unicode="&#x14f;" horiz-adv-x="460" d="M184 712 C187 661 207 623 230 623 C253 623 273 661 276 712 L273 712 C270 669 252 636 230 636 C209 636 191 669 188 712 L184 712 L184 712 Z M230 -1 C140 -1 72 107 72 250 C72 393 140 501 230 501 C320 501 388 393 388 250 C388 107 320 -1 230 -1 L230 -1 Z M50 250 C50 105 128 -5 230 -5 C333 -5 411 105 411 250 C411 395 333 505 230 505 C128 505 50 395 50 250 L50 250 Z " />
<glyph glyph-name="Racute" unicode="&#x154;" horiz-adv-x="418" d="M129 692 L236 823 C262 855 281 880 281 881 C281 883 273 889 270 889 C269 889 250 864 226 831 L127 693 L129 692 L129 692 Z M418 0 L418 4 L413 4 C407 4 400 13 333 102 L171 319 C262 325 329 396 329 489 C329 586 260 659 170 659 L107 659 L96 659 L85 659 L58 659 C51 659 52 661 52 643 C52 621 51 624 58 623 L85 620 L85 38 L58 35 C51 34 52 37 52 15 C52 -3 51 -1 58 -1 L85 -1 L96 -1 L107 -1 L133 -1 C141 -1 140 -3 140 15 C140 37 141 34 133 35 L107 38 L107 318 L144 318 L302 105 C374 8 383 -1 406 -1 L418 0 L418 0 Z M157 323 L140 323 L107 323 L107 653 L170 653 C247 653 305 582 305 489 C305 394 241 323 157 323 L157 323 Z " />
<glyph glyph-name="Rcaron" unicode="&#x158;" horiz-adv-x="367" d="M208 740 L299 926 L301 924 L215 721 C214 719 212 715 209 715 C206 715 203 719 202 721 L116 924 L118 926 L208 740 L208 740 Z M178 320 C266 329 330 399 330 490 C330 587 261 660 171 660 L108 660 L97 660 L86 660 L59 660 C52 660 53 662 53 644 C53 622 52 625 59 624 L86 621 L86 39 L59 36 C52 35 53 38 53 16 C53 -2 52 0 59 0 L86 0 L97 0 L108 0 L134 0 C142 0 141 -2 141 16 C141 38 142 35 134 36 L108 39 L108 319 L158 319 C219 151 309 -4 367 -42 L369 -39 C324 -9 242 145 178 320 L178 320 Z M108 324 L108 654 L171 654 C248 654 306 583 306 490 C306 395 242 324 158 324 L108 324 L108 324 Z " />
<glyph glyph-name="rcaron" unicode="&#x159;" horiz-adv-x="258" d="M131 580 L222 766 L224 764 L138 561 C137 559 135 555 132 555 C129 555 126 559 125 561 L39 764 L41 766 L131 580 L131 580 Z M34 484 C34 496 33 499 40 486 C36 485 35 485 35 485 L34 484 L34 484 Z M35 485 C35 485 35 485 35 484 L35 484 L35 485 L35 485 Z M41 486 C43 483 45 479 47 474 L73 425 L73 38 L47 35 C39 34 40 37 40 15 C40 -3 39 -1 47 -1 L73 -1 L83 -1 L93 -1 L119 -1 C127 -1 126 -3 126 15 C126 37 127 34 119 35 L93 38 L93 420 C125 460 161 490 177 490 C199 490 219 460 242 460 C247 460 251 464 251 470 C251 490 233 505 193 505 C173 505 131 470 94 423 L94 430 L94 455 L93 455 L91 499 L87 499 L48 487 C46 486 44 485 42 485 L41 486 L41 486 Z " />
<glyph glyph-name="Sacute" unicode="&#x15a;" horiz-adv-x="379" d="M128 692 L235 823 C261 855 280 880 280 881 C280 883 272 889 269 889 C268 889 249 864 225 831 L126 693 L128 692 L128 692 Z M216 648 L216 648 C237 623 268 586 289 561 C296 553 301 547 302 547 C304 547 305 553 305 561 L305 612 L303 608 L303 608 L305 612 C253 642 198 665 177 665 C109 665 57 590 57 491 C57 430 110 357 180 322 C259 282 319 208 319 149 C319 65 272 1 210 1 C190 1 162 7 133 17 L133 17 C112 40 81 75 60 99 C53 107 47 113 47 113 C45 113 44 107 44 99 L44 48 L46 52 L46 52 L44 48 C96 18 168 -5 210 -5 C281 -5 335 65 335 158 C335 220 275 297 195 338 C126 373 73 443 73 500 C73 591 117 660 176 660 C184 660 198 656 216 648 L216 648 Z " />
<glyph glyph-name="sacute" unicode="&#x15b;" horiz-adv-x="303" d="M72 532 L179 663 C205 695 224 720 224 721 C224 723 216 729 213 729 C212 729 194 704 169 671 L70 533 L72 532 L72 532 Z M165 489 L165 489 C178 471 198 444 211 426 C216 420 221 416 224 416 C227 416 229 420 229 426 L229 459 L227 455 L227 455 L229 459 C183 485 150 505 151 505 C106 505 72 454 72 385 C72 336 105 275 150 243 C200 208 237 155 237 120 C237 52 205 0 163 0 C155 0 143 3 128 8 L128 8 L64 72 L51 85 C50 85 49 80 49 72 L49 36 L51 40 L51 40 L49 36 C90 13 139 -5 162 -5 C214 -5 253 52 253 128 C253 165 215 221 164 257 C121 288 88 346 88 392 C88 454 115 501 151 501 C149 501 154 497 165 490 L165 489 L165 489 Z " />
<glyph glyph-name="Scircumflex" unicode="&#x15c;" horiz-adv-x="379" d="M176 881 L266 694 L268 696 L182 899 C182 901 179 905 176 905 C173 905 170 901 170 899 L84 696 L86 694 L176 881 L176 881 Z M216 648 L216 648 C237 623 268 586 289 561 C296 553 301 547 302 547 C304 547 305 553 305 561 L305 612 L303 608 L303 608 L305 612 C253 642 198 665 177 665 C109 665 57 590 57 491 C57 430 110 357 180 322 C259 282 319 208 319 149 C319 65 272 1 210 1 C190 1 162 7 133 17 L133 17 C112 40 81 75 60 99 C53 107 47 113 47 113 C45 113 44 107 44 99 L44 48 L46 52 L46 52 L44 48 C96 18 168 -5 210 -5 C281 -5 335 65 335 158 C335 220 275 297 195 338 C126 373 73 443 73 500 C73 591 117 660 176 660 C184 660 198 656 216 648 L216 648 Z " />
<glyph glyph-name="Scedilla" unicode="&#x15e;" horiz-adv-x="379" d="M193 -94 C203 -86 214 -79 219 -79 C233 -79 244 -103 244 -135 C244 -180 231 -214 215 -214 C197 -214 175 -205 162 -193 L162 -196 C176 -210 201 -220 219 -220 C240 -220 256 -183 256 -135 C256 -101 242 -75 224 -75 C216 -75 203 -81 194 -90 L193 -94 L193 -94 Z M193 -94 L215 -5 C284 -2 336 67 336 158 C336 220 276 297 196 338 C127 373 74 443 74 500 C74 591 118 660 177 660 C185 660 199 656 217 648 L217 648 C238 623 269 586 290 561 C297 553 302 547 303 547 C305 547 306 553 306 561 L306 612 L304 608 L304 608 L306 612 C254 642 199 665 178 665 C110 665 58 590 58 491 C58 430 111 357 181 322 C260 282 320 208 320 149 C320 65 273 1 211 1 C191 1 163 7 134 17 L134 17 C113 40 82 75 61 99 C54 107 48 113 48 113 C46 113 45 107 45 99 L45 48 L47 52 L47 52 L45 48 C96 19 166 -4 208 -5 L192 -94 L193 -94 L193 -94 Z " />
<glyph glyph-name="scedilla" unicode="&#x15f;" horiz-adv-x="303" d="M146 -94 C155 -86 166 -79 171 -79 C186 -79 197 -103 197 -135 C197 -180 184 -214 167 -214 C150 -214 127 -205 115 -193 L114 -196 C129 -210 153 -220 171 -220 C193 -220 209 -183 209 -135 C209 -101 195 -75 176 -75 C169 -75 156 -81 147 -90 L146 -94 L146 -94 Z M146 -94 L167 -5 C217 -2 254 54 254 128 C254 165 216 221 165 257 C122 288 89 346 89 392 C89 454 116 501 152 501 C150 501 155 497 166 490 L166 490 C179 472 199 445 212 427 C217 421 222 417 225 417 C228 417 230 421 230 427 L230 460 L228 456 L228 456 L230 460 C184 486 151 506 152 506 C107 506 73 455 73 386 C73 337 106 276 151 244 C201 209 238 156 238 121 C238 53 206 1 164 1 C156 1 144 4 129 9 L129 9 L65 73 L52 86 C51 86 50 81 50 73 L50 37 L52 41 L52 41 L50 37 C90 15 137 -3 161 -4 L145 -93 L146 -94 L146 -94 Z " />
<glyph glyph-name="Scaron" unicode="&#x160;" horiz-adv-x="379" d="M176 739 L266 926 L268 924 L182 721 C182 719 179 715 176 715 C173 715 170 719 170 721 L84 924 L86 926 L176 739 L176 739 Z M216 648 L216 648 C237 623 268 586 289 561 C296 553 301 547 302 547 C304 547 305 553 305 561 L305 612 L303 608 L303 608 L305 612 C253 642 198 665 177 665 C109 665 57 590 57 491 C57 430 110 357 180 322 C259 282 319 208 319 149 C319 65 272 1 210 1 C190 1 162 7 133 17 L133 17 C112 40 81 75 60 99 C53 107 47 113 47 113 C45 113 44 107 44 99 L44 48 L46 52 L46 52 L44 48 C96 18 168 -5 210 -5 C281 -5 335 65 335 158 C335 220 275 297 195 338 C126 373 73 443 73 500 C73 591 117 660 176 660 C184 660 198 656 216 648 L216 648 Z " />
<glyph glyph-name="scaron" unicode="&#x161;" horiz-adv-x="303" d="M151 579 L241 766 L243 764 L157 561 C157 559 154 555 151 555 C148 555 145 559 145 561 L59 764 L61 766 L151 579 L151 579 Z M165 489 L165 489 C178 471 198 444 211 426 C216 420 221 416 224 416 C227 416 229 420 229 426 L229 459 L227 455 L227 455 L229 459 C183 485 150 505 151 505 C106 505 72 454 72 385 C72 336 105 275 150 243 C200 208 237 155 237 120 C237 52 205 0 163 0 C155 0 143 3 128 8 L128 8 L64 72 L51 85 C50 85 49 80 49 72 L49 36 L51 40 L51 40 L49 36 C90 13 139 -5 162 -5 C214 -5 253 52 253 128 C253 165 215 221 164 257 C121 288 88 346 88 392 C88 454 115 501 151 501 C149 501 154 497 165 490 L165 489 L165 489 Z " />
<glyph glyph-name="Tcaron" unicode="&#x164;" horiz-adv-x="500" d="M250 739 L340 926 L342 924 L256 721 C256 719 253 715 250 715 C247 715 244 719 244 721 L158 924 L160 926 L250 739 L250 739 Z M471 587 C471 587 471 588 471 590 C476 586 474 586 470 586 L471 587 L471 587 Z M470 586 L470 586 C471 586 471 586 471 586 L470 586 L470 586 Z M471 589 C471 591 471 595 470 601 C469 617 467 641 466 656 L465 659 L460 659 L427 659 L73 659 L40 659 L35 659 L34 656 C33 641 31 617 30 601 C29 595 29 591 29 589 C32 591 37 595 45 601 L118 653 L239 653 L239 38 L213 35 C205 34 206 37 206 15 C206 -3 205 -1 213 -1 L239 -1 L250 -1 L261 -1 L287 -1 C295 -1 294 -3 294 15 C294 37 295 34 287 35 L261 38 L261 653 L382 653 L455 601 C463 595 468 591 471 589 L471 589 Z M28 586 C24 586 22 586 27 590 C27 588 27 587 27 587 L28 586 L28 586 Z M27 587 C27 587 27 587 28 587 L28 587 L27 587 L27 587 Z " />
<glyph glyph-name="tcaron" unicode="&#x165;" horiz-adv-x="267" d="M237 500 L102 500 L102 640 L99 640 L86 523 C82 509 57 497 26 494 L26 492 L83 492 L83 110 C83 25 98 -5 143 -5 C177 -5 215 16 248 45 L247 46 C218 22 185 4 153 4 C116 4 103 31 103 106 L103 492 L238 492 L237 500 L237 500 Z M318 614 C327 665 334 715 334 720 C334 723 325 724 321 724 C317 725 309 661 305 619 L287 458 L290 457 L318 614 L318 614 Z " />
<glyph glyph-name="Utilde" unicode="&#x168;" horiz-adv-x="468" d="M188 755 C188 796 196 827 206 827 C243 827 247 764 283 764 C298 764 310 796 310 837 L307 837 C307 803 299 777 287 777 C251 777 247 840 211 840 C196 840 185 803 185 755 L188 755 L188 755 Z M76 621 L76 201 C76 84 131 -5 251 -5 C366 -5 419 71 419 171 L419 621 L449 624 C456 625 456 622 456 644 C456 662 456 660 449 660 L419 660 L416 660 L413 660 L381 660 C373 660 374 662 374 644 C374 622 373 625 381 624 L413 621 L413 174 C413 76 363 3 254 3 C147 3 98 86 98 197 L98 621 L124 624 C132 625 131 622 131 644 C131 662 132 660 124 660 L98 660 L87 660 L76 660 L49 660 C42 660 43 662 43 644 C43 622 42 625 49 624 L76 621 L76 621 Z " />
<glyph glyph-name="utilde" unicode="&#x169;" horiz-adv-x="360" d="M111 595 C111 636 119 667 129 667 C165 667 169 604 206 604 C221 604 233 636 233 677 L229 677 C229 643 221 617 210 617 C174 617 170 680 133 680 C119 680 108 643 108 595 L111 595 L111 595 Z M337 16 C337 3 338 0 331 13 C335 14 336 14 336 14 L337 16 L337 16 Z M336 14 C336 14 336 14 336 15 L336 15 L336 14 L336 14 Z M330 13 C328 16 326 20 324 25 L298 74 L298 500 L288 500 L278 500 L252 500 C244 500 245 502 245 484 C245 462 244 465 252 464 L278 461 L278 69 L278 65 C245 32 202 8 162 8 C98 8 59 73 59 159 L59 500 L49 500 L39 500 L13 500 C5 500 6 502 6 484 C6 462 5 465 13 464 L39 461 L39 156 C39 64 79 -5 147 -5 C189 -5 238 24 277 63 L277 6 L277 1 L281 1 L323 13 C325 14 327 15 329 15 L330 13 L330 13 Z " />
<glyph glyph-name="Umacron" unicode="&#x16a;" horiz-adv-x="468" d="M157 774 L337 774 L337 785 L157 785 L157 774 L157 774 Z M76 621 L76 201 C76 84 131 -5 251 -5 C366 -5 419 71 419 171 L419 621 L449 624 C456 625 456 622 456 644 C456 662 456 660 449 660 L419 660 L416 660 L413 660 L381 660 C373 660 374 662 374 644 C374 622 373 625 381 624 L413 621 L413 174 C413 76 363 3 254 3 C147 3 98 86 98 197 L98 621 L124 624 C132 625 131 622 131 644 C131 662 132 660 124 660 L98 660 L87 660 L76 660 L49 660 C42 660 43 662 43 644 C43 622 42 625 49 624 L76 621 L76 621 Z " />
<glyph glyph-name="umacron" unicode="&#x16b;" horiz-adv-x="360" d="M80 614 L260 614 L260 625 L80 625 L80 614 L80 614 Z M337 16 C337 3 338 0 331 13 C335 14 336 14 336 14 L337 16 L337 16 Z M336 14 C336 14 336 14 336 15 L336 15 L336 14 L336 14 Z M330 13 C328 16 326 20 324 25 L298 74 L298 500 L288 500 L278 500 L252 500 C244 500 245 502 245 484 C245 462 244 465 252 464 L278 461 L278 69 L278 65 C245 32 202 8 162 8 C98 8 59 73 59 159 L59 500 L49 500 L39 500 L13 500 C5 500 6 502 6 484 C6 462 5 465 13 464 L39 461 L39 156 C39 64 79 -5 147 -5 C189 -5 238 24 277 63 L277 6 L277 1 L281 1 L323 13 C325 14 327 15 329 15 L330 13 L330 13 Z " />
<glyph glyph-name="Ubreve" unicode="&#x16c;" horiz-adv-x="468" d="M201 872 C205 821 225 783 247 783 C270 783 290 821 294 872 L290 872 C287 829 269 796 247 796 C226 796 208 829 205 872 L201 872 L201 872 Z M76 621 L76 201 C76 84 131 -5 251 -5 C366 -5 419 71 419 171 L419 621 L449 624 C456 625 456 622 456 644 C456 662 456 660 449 660 L419 660 L416 660 L413 660 L381 660 C373 660 374 662 374 644 C374 622 373 625 381 624 L413 621 L413 174 C413 76 363 3 254 3 C147 3 98 86 98 197 L98 621 L124 624 C132 625 131 622 131 644 C131 662 132 660 124 660 L98 660 L87 660 L76 660 L49 660 C42 660 43 662 43 644 C43 622 42 625 49 624 L76 621 L76 621 Z " />
<glyph glyph-name="ubreve" unicode="&#x16d;" horiz-adv-x="360" d="M124 712 C127 661 147 623 170 623 C193 623 213 661 216 712 L213 712 C209 669 191 636 170 636 C149 636 131 669 127 712 L124 712 L124 712 Z M337 16 C337 3 338 0 331 13 C335 14 336 14 336 14 L337 16 L337 16 Z M336 14 C336 14 336 14 336 15 L336 15 L336 14 L336 14 Z M330 13 C328 16 326 20 324 25 L298 74 L298 500 L288 500 L278 500 L252 500 C244 500 245 502 245 484 C245 462 244 465 252 464 L278 461 L278 69 L278 65 C245 32 202 8 162 8 C98 8 59 73 59 159 L59 500 L49 500 L39 500 L13 500 C5 500 6 502 6 484 C6 462 5 465 13 464 L39 461 L39 156 C39 64 79 -5 147 -5 C189 -5 238 24 277 63 L277 6 L277 1 L281 1 L323 13 C325 14 327 15 329 15 L330 13 L330 13 Z " />
<glyph glyph-name="Uring" unicode="&#x16e;" horiz-adv-x="468" d="M247 699 C203 699 160 742 160 788 C160 838 198 876 247 876 C297 876 335 838 335 788 C335 742 292 699 247 699 L247 699 Z M154 788 C154 740 200 695 247 695 C295 695 341 740 341 788 C341 840 301 880 247 880 C194 880 154 840 154 788 L154 788 Z M76 621 L76 201 C76 84 131 -5 251 -5 C366 -5 419 71 419 171 L419 621 L449 624 C456 625 456 622 456 644 C456 662 456 660 449 660 L419 660 L416 660 L413 660 L381 660 C373 660 374 662 374 644 C374 622 373 625 381 624 L413 621 L413 174 C413 76 363 3 254 3 C147 3 98 86 98 197 L98 621 L124 624 C132 625 131 622 131 644 C131 662 132 660 124 660 L98 660 L87 660 L76 660 L49 660 C42 660 43 662 43 644 C43 622 42 625 49 624 L76 621 L76 621 Z " />
<glyph glyph-name="uring" unicode="&#x16f;" horiz-adv-x="360" d="M170 539 C125 539 82 582 82 628 C82 678 120 716 170 716 C220 716 258 678 258 628 C258 582 215 539 170 539 L170 539 Z M77 628 C77 580 122 535 170 535 C218 535 263 580 263 628 C263 680 223 720 170 720 C117 720 77 680 77 628 L77 628 Z M337 16 C337 3 338 0 331 13 C335 14 336 14 336 14 L337 16 L337 16 Z M336 14 C336 14 336 14 336 15 L336 15 L336 14 L336 14 Z M330 13 C328 16 326 20 324 25 L298 74 L298 500 L288 500 L278 500 L252 500 C244 500 245 502 245 484 C245 462 244 465 252 464 L278 461 L278 69 L278 65 C245 32 202 8 162 8 C98 8 59 73 59 159 L59 500 L49 500 L39 500 L13 500 C5 500 6 502 6 484 C6 462 5 465 13 464 L39 461 L39 156 C39 64 79 -5 147 -5 C189 -5 238 24 277 63 L277 6 L277 1 L281 1 L323 13 C325 14 327 15 329 15 L330 13 L330 13 Z " />
<glyph glyph-name="Wcircumflex" unicode="&#x174;" horiz-adv-x="565" d="M30 621 L30 621 L163 -15 L169 -15 L279 630 L402 -15 L408 -15 L529 621 L555 624 C563 625 562 622 562 643 C562 662 563 660 555 660 L536 660 L532 660 L529 660 L492 660 C484 660 485 662 486 644 C485 622 484 625 493 624 L522 621 L409 22 L286 670 L281 670 L163 -15 L169 20 L54 621 L78 624 C85 625 84 622 85 644 C84 662 85 660 78 660 L47 660 L35 660 L22 660 L9 660 C1 660 2 662 2 643 C2 622 1 625 9 624 L30 621 L30 621 Z M284 880 L375 694 L377 696 L291 899 C290 901 287 905 284 905 C281 905 279 901 278 899 L192 696 L194 694 L284 880 L284 880 Z " />
<glyph glyph-name="Ycircumflex" unicode="&#x176;" horiz-adv-x="386" d="M343 621 L344 621 L212 265 L210 265 L90 621 L108 624 C115 625 114 622 115 644 C115 662 116 660 108 660 L77 660 L63 660 L50 660 L44 660 C36 660 37 662 37 643 C37 623 36 625 44 624 L64 621 L197 249 L197 39 L170 36 C163 35 164 38 164 16 C164 -2 163 0 170 0 L197 0 L208 0 L219 0 L245 0 C253 0 252 -2 252 16 C252 38 253 35 245 36 L219 39 L219 265 L351 621 L351 621 L375 624 C383 625 382 623 382 643 C382 662 383 660 375 660 L365 660 L362 660 L359 660 L320 660 C312 660 313 662 314 644 C313 622 312 625 320 624 L343 621 L343 621 Z M208 880 L298 694 L300 696 L214 899 C213 901 211 905 208 905 C205 905 202 901 201 899 L115 696 L118 694 L208 880 L208 880 Z " />
<glyph glyph-name="Ydieresis" unicode="&#x178;" horiz-adv-x="386" d="M288 730 C299 730 308 739 308 750 C308 761 299 770 288 770 C277 770 268 761 268 750 C268 739 277 730 288 730 L288 730 Z M125 730 C137 730 145 739 145 750 C145 761 137 770 125 770 C114 770 105 761 105 750 C105 739 114 730 125 730 L125 730 Z M343 621 L344 621 L212 265 L210 265 L90 621 L108 624 C115 625 114 622 115 644 C115 662 116 660 108 660 L77 660 L63 660 L50 660 L44 660 C36 660 37 662 37 643 C37 623 36 625 44 624 L64 621 L197 249 L197 39 L170 36 C163 35 164 38 164 16 C164 -2 163 0 170 0 L197 0 L208 0 L219 0 L245 0 C253 0 252 -2 252 16 C252 38 253 35 245 36 L219 39 L219 265 L351 621 L351 621 L375 624 C383 625 382 623 382 643 C382 662 383 660 375 660 L365 660 L362 660 L359 660 L320 660 C312 660 313 662 314 644 C313 622 312 625 320 624 L343 621 L343 621 Z " />
<glyph glyph-name="Zacute" unicode="&#x179;" horiz-adv-x="457" d="M273 692 L380 823 C406 855 425 880 425 881 C425 883 417 889 414 889 C413 889 394 864 370 831 L271 693 L273 692 L273 692 Z M404 3 C407 18 411 41 413 56 C416 71 417 70 412 70 C402 71 405 72 388 58 L326 6 L90 6 L409 660 L396 660 L384 660 L175 660 L142 660 L136 660 L136 657 C132 645 127 625 124 612 C123 608 122 605 121 603 C125 605 131 608 139 612 L219 653 L381 653 L62 -1 L74 -1 L87 -1 L365 -1 L403 -1 L404 -1 L404 3 L404 3 Z M120 597 C113 597 111 596 122 602 C121 598 121 597 121 597 L120 597 L120 597 Z M121 597 C121 597 121 597 122 597 L122 597 L121 597 L121 597 Z " />
<glyph glyph-name="zacute" unicode="&#x17a;" horiz-adv-x="363" d="M117 532 L224 663 C249 695 269 720 269 721 C269 723 261 729 257 729 C256 729 238 704 213 671 L114 533 L117 532 L117 532 Z M231 5 L231 5 L91 4 L314 500 L302 500 L291 500 L110 500 L76 500 L71 500 L70 498 C68 488 64 474 61 464 C60 461 59 459 59 457 C64 459 70 461 77 464 L153 495 L153 495 L289 496 L65 0 L77 0 L89 0 L270 0 L308 0 L309 0 L309 2 C312 17 316 39 319 54 C321 70 322 68 317 68 C307 69 310 71 294 57 L231 5 L231 5 Z M58 449 C42 449 38 448 60 457 C59 451 59 450 59 450 L58 449 L58 449 Z M59 450 C59 450 59 450 60 450 L60 450 L59 450 L59 450 Z " />
<glyph glyph-name="Zdot" unicode="&#x17b;" horiz-adv-x="457" d="M275 730 C287 730 295 739 295 750 C295 761 287 770 275 770 C264 770 255 761 255 750 C255 739 264 730 275 730 L275 730 Z M404 3 C407 18 411 41 413 56 C416 71 417 70 412 70 C402 71 405 72 388 58 L326 6 L90 6 L409 660 L396 660 L384 660 L175 660 L142 660 L136 660 L136 657 C132 645 127 625 124 612 C123 608 122 605 121 603 C125 605 131 608 139 612 L219 653 L381 653 L62 -1 L74 -1 L87 -1 L365 -1 L403 -1 L404 -1 L404 3 L404 3 Z M120 597 C113 597 111 596 122 602 C121 598 121 597 121 597 L120 597 L120 597 Z M121 597 C121 597 121 597 122 597 L122 597 L121 597 L121 597 Z " />
<glyph glyph-name="zdot" unicode="&#x17c;" horiz-adv-x="363" d="M195 570 C206 570 215 579 215 590 C215 601 206 610 195 610 C184 610 175 601 175 590 C175 579 184 570 195 570 L195 570 Z M231 5 L231 5 L91 4 L314 500 L302 500 L291 500 L110 500 L76 500 L71 500 L70 498 C68 488 64 474 61 464 C60 461 59 459 59 457 C64 459 70 461 77 464 L153 495 L153 495 L289 496 L65 0 L77 0 L89 0 L270 0 L308 0 L309 0 L309 2 C312 17 316 39 319 54 C321 70 322 68 317 68 C307 69 310 71 294 57 L231 5 L231 5 Z M58 449 C42 449 38 448 60 457 C59 451 59 450 59 450 L58 449 L58 449 Z M59 450 C59 450 59 450 60 450 L60 450 L59 450 L59 450 Z " />
<glyph glyph-name="Zcaron" unicode="&#x17d;" horiz-adv-x="457" d="M276 740 L367 926 L369 924 L283 721 C282 719 279 715 276 715 C273 715 271 719 270 721 L184 924 L186 926 L276 740 L276 740 Z M405 3 C408 18 412 41 414 56 C417 71 418 70 413 70 C403 71 406 72 389 58 L327 6 L91 6 L410 660 L397 660 L385 660 L176 660 L143 660 L137 660 L137 657 C133 645 128 625 125 612 C124 608 123 605 122 603 C126 605 132 608 140 612 L220 653 L382 653 L63 -1 L75 -1 L88 -1 L366 -1 L404 -1 L405 -1 L405 3 L405 3 Z M121 597 C114 597 112 596 123 602 C122 598 122 597 122 597 L121 597 L121 597 Z M122 597 C122 597 122 597 123 597 L123 597 L122 597 L122 597 Z " />
<glyph glyph-name="zcaron" unicode="&#x17e;" horiz-adv-x="363" d="M231 5 L231 5 L91 4 L314 500 L302 500 L291 500 L110 500 L76 500 L71 500 L70 498 C68 488 64 474 61 464 C60 461 59 459 59 457 C64 459 70 461 77 464 L153 495 L153 495 L289 496 L65 0 L77 0 L89 0 L270 0 L308 0 L309 0 L309 2 C312 17 316 39 319 54 C321 70 322 68 317 68 C307 69 310 71 294 57 L231 5 L231 5 Z M195 579 L285 766 L287 764 L201 561 C201 559 198 555 195 555 C192 555 189 559 189 561 L103 764 L105 766 L195 579 L195 579 Z M58 449 C42 449 38 448 60 457 C59 451 59 450 59 450 L58 449 L58 449 Z M59 450 C59 450 59 450 60 450 L60 450 L59 450 L59 450 Z " />
<glyph glyph-name="oogonek" unicode="&#x1eb;" horiz-adv-x="615" d="M590 -50 L588 -49 C560 -83 515 -109 486 -109 C444 -109 380 -64 321 -4 C474 -2 565 134 565 278 C565 422 473 559 318 559 C164 559 72 422 72 278 C72 134 162 -2 314 -4 C381 -71 449 -121 484 -121 C510 -121 556 -90 590 -49 L590 -50 L590 -50 Z M318 1 C178 1 94 136 94 278 C94 419 178 554 318 554 C459 554 543 419 543 278 C543 136 459 1 318 1 L318 1 Z " />
<glyph glyph-name="Adotabove" unicode="&#x226;" horiz-adv-x="401" d="M197 730 C208 730 217 739 217 750 C217 761 208 770 197 770 C186 770 177 761 177 750 C177 739 186 730 197 730 L197 730 Z M287 239 L335 39 L334 39 L314 36 C306 35 307 38 307 17 C307 -2 306 0 314 0 L344 0 L356 0 L368 0 L389 0 C397 0 396 -2 396 16 C396 38 397 35 389 36 L358 39 L199 675 L193 675 L187 650 L187 650 L187 650 L41 39 L15 36 C7 35 8 38 8 17 C8 -2 7 0 15 0 L32 0 L36 0 L40 0 L78 0 C86 0 85 -2 85 16 C85 38 86 35 78 36 L49 39 L96 239 L287 239 L287 239 Z M285 244 L97 244 L190 637 L285 244 L285 244 Z " />
<glyph glyph-name="G_sc" unicode="&#x262;" horiz-adv-x="626" d="M490 221 L490 55 C430 23 358 0 316 0 C190 0 95 119 95 277 C95 434 190 553 316 553 C341 553 377 544 415 530 L415 530 C436 506 467 470 488 446 C495 438 501 432 501 432 C503 432 504 438 504 446 L504 495 L503 492 L503 492 L505 495 C442 531 362 558 317 558 C179 558 74 437 74 277 C74 116 179 -5 317 -5 C364 -5 447 22 510 59 L510 221 L536 224 C545 225 544 222 543 243 C544 262 545 260 537 260 L510 260 L501 260 L492 260 L466 260 C458 260 459 262 459 243 C459 222 458 225 466 224 L490 221 L490 221 Z " />
<glyph glyph-name="I_sc" unicode="&#x26a;" horiz-adv-x="153" d="M77 0 L87 0 L114 0 C122 0 121 -2 120 16 C121 38 122 35 113 36 L87 39 L87 514 L113 518 C122 519 121 516 120 537 C121 556 122 554 114 553 C103 554 88 554 77 553 C67 554 51 554 41 553 C33 554 34 556 34 537 C34 516 33 519 41 518 L67 514 L67 39 L41 36 C33 35 34 38 34 16 C34 -2 33 0 41 0 L67 0 L77 0 L77 0 Z " />
<glyph glyph-name="N_sc" unicode="&#x274;" horiz-adv-x="442" d="M377 514 L377 32 L90 553 L78 553 L75 553 C66 554 54 554 45 553 C38 554 39 556 39 537 C39 516 38 519 46 518 L72 514 L72 39 L46 36 C38 35 39 38 39 16 C39 -2 38 0 45 0 L72 0 L75 0 L78 0 L104 0 C112 0 111 -2 111 16 C111 38 112 35 104 36 L78 39 L78 533 L368 8 L375 -4 L383 -4 L383 15 L383 514 L409 518 C417 519 416 516 416 537 C416 556 417 554 409 553 C401 554 388 554 380 553 C372 554 360 554 351 553 C343 554 344 556 344 537 C344 516 343 519 351 518 L377 514 L377 514 Z " />
<glyph glyph-name="R_sc" unicode="&#x280;" horiz-adv-x="409" d="M410 0 L410 4 L405 4 C398 4 389 13 307 102 L156 267 C241 272 304 332 304 411 C304 492 239 552 153 552 L106 552 L96 552 C86 553 70 553 60 552 C52 553 53 555 53 536 C53 515 52 518 60 517 L86 513 L86 38 L60 35 C52 34 53 37 53 15 C53 -3 52 -1 60 -1 L86 -1 L96 -1 L106 -1 L132 -1 C140 -1 139 -3 139 15 C139 37 140 34 132 35 L106 38 L106 266 L133 266 L280 105 C368 8 379 -1 399 -1 L410 0 L410 0 Z M144 271 L128 271 L106 271 L106 547 L153 547 C227 547 283 489 283 411 C283 331 223 271 144 271 L144 271 Z " />
<glyph glyph-name="Y_sc" unicode="&#x28f;" horiz-adv-x="360" d="M65 514 L65 514 L184 210 L184 39 L158 36 C150 35 151 38 151 16 C151 -2 150 0 158 0 L184 0 L194 0 L204 0 L230 0 C238 0 237 -2 237 16 C237 38 238 35 230 36 L204 39 L204 222 L322 514 L346 518 C354 519 353 516 353 536 C353 556 354 554 346 553 C343 554 338 554 335 553 C323 554 305 554 294 553 C287 554 287 556 287 537 C287 516 286 519 294 518 L316 514 L199 222 L195 222 L88 514 L105 518 C112 519 111 516 112 537 C112 556 113 554 105 553 C93 554 74 554 62 553 C57 554 50 554 44 553 C36 554 37 556 38 536 C37 516 36 519 44 518 L65 514 L65 514 Z " />
<glyph glyph-name="B_sc" unicode="&#x299;" horiz-adv-x="373" d="M170 298 C163 298 156 298 149 298 L107 297 L107 547 L154 547 C227 547 283 497 283 430 C283 362 236 309 171 298 L170 298 L170 298 Z M166 294 C264 286 335 227 335 150 C335 67 262 5 166 5 L108 5 L108 293 L145 293 C152 293 159 293 166 294 L166 294 Z M185 297 C255 312 304 365 304 432 C304 502 240 554 155 554 L108 554 L98 554 C88 555 72 555 62 554 C54 555 55 557 55 538 C55 517 54 520 62 519 L88 515 L88 40 L62 37 C54 36 55 39 55 17 C55 -1 54 1 62 1 L88 1 L98 1 L108 1 L168 1 C275 1 356 66 356 151 C356 227 285 286 185 297 L185 297 Z " />
<glyph glyph-name="H_sc" unicode="&#x29c;" horiz-adv-x="518" d="M443 0 L453 0 L479 0 C486 0 485 -2 486 16 C485 38 486 35 479 36 L453 39 L453 514 L479 518 C486 519 485 516 486 537 C485 556 486 554 479 553 C468 554 453 554 443 553 C433 554 417 554 406 553 C399 554 400 556 400 537 C400 516 399 519 407 518 L433 514 L433 295 L87 295 L87 514 L113 518 C120 519 119 516 120 537 C119 556 120 554 113 553 C102 554 87 554 77 553 C67 554 51 554 40 553 C33 554 34 556 34 537 C34 516 33 519 41 518 L67 514 L67 39 L41 36 C33 35 34 38 34 16 C34 -2 33 0 40 0 L67 0 L77 0 L87 0 L113 0 C120 0 119 -2 120 16 C119 38 120 35 113 36 L87 39 L87 290 L433 290 L433 39 L407 36 C399 35 400 38 400 16 C400 -2 399 0 406 0 L433 0 L443 0 L443 0 Z " />
<glyph glyph-name="L_sc" unicode="&#x29f;" horiz-adv-x="339" d="M275 3 C278 18 282 40 284 55 C287 71 288 69 282 69 C273 70 276 72 259 57 L196 5 L87 5 L87 514 L113 518 C120 519 119 516 120 537 C119 556 120 554 113 553 C102 554 87 554 77 553 C67 554 51 554 40 553 C33 554 34 556 34 537 C34 516 33 519 41 518 L67 514 L67 39 L41 36 C33 35 34 38 34 16 C34 -2 33 0 40 0 L67 0 L77 0 L87 0 L236 0 L274 0 L275 3 L275 3 Z " />
<glyph glyph-name="A_sc" unicode="&#x1d00;" horiz-adv-x="375" d="M268 200 L311 39 L310 39 L292 36 C284 35 285 38 285 17 C285 -2 284 0 292 0 L321 0 L332 0 L343 0 L364 0 C371 0 370 -2 370 16 C370 38 371 35 364 36 L332 39 L187 566 L182 566 L177 545 L176 544 L176 544 L44 39 L44 39 L17 36 C9 35 10 38 10 17 C10 -2 9 0 17 0 L34 0 L37 0 L40 0 L79 0 C86 0 85 -2 85 16 C85 38 86 35 79 36 L50 39 L92 200 L268 200 L268 200 Z M266 205 L93 205 L178 534 L266 205 L266 205 Z " />
<glyph glyph-name="C_sc" unicode="&#x1d04;" horiz-adv-x="583" d="M434 24 L434 24 C393 9 353 0 325 0 C193 0 93 119 93 277 C93 434 193 553 325 553 C353 553 393 544 434 529 L434 529 C455 506 486 470 507 446 C514 438 520 432 520 432 C522 432 523 438 523 446 L523 495 L522 492 L522 492 L524 495 C461 531 377 558 327 558 C182 558 73 437 73 277 C73 116 182 -5 327 -5 C377 -5 461 22 524 59 L523 61 L523 61 L524 59 L524 107 C524 116 523 122 521 122 C521 122 515 116 508 107 C487 84 456 48 435 24 L434 24 L434 24 Z " />
<glyph glyph-name="D_sc" unicode="&#x1d05;" horiz-adv-x="472" d="M96 0 L106 0 L169 0 C313 0 422 119 422 277 C422 434 306 553 153 553 L106 553 L96 553 C86 554 70 554 60 553 C52 554 53 556 53 537 C53 516 52 519 60 518 L86 514 L86 39 L60 36 C52 35 53 38 53 16 C53 -2 52 0 60 0 L86 0 L96 0 L96 0 Z M106 5 L106 548 L153 548 C295 548 402 431 402 277 C402 122 302 5 169 5 L106 5 L106 5 Z " />
<glyph glyph-name="E_sc" unicode="&#x1d07;" horiz-adv-x="339" d="M275 3 C277 16 281 38 284 52 C285 58 286 61 286 63 C283 61 278 58 269 52 L196 5 L87 5 L87 293 L120 293 L180 263 C198 254 206 250 209 248 C209 250 209 254 209 263 L209 293 L209 295 L209 298 L209 324 C209 330 209 334 209 336 C204 334 195 330 180 324 L120 298 L87 298 L87 548 L187 548 L252 501 C259 496 263 493 266 491 C266 493 266 496 266 501 L266 551 L266 553 L264 553 L227 553 L87 553 L77 553 C67 554 51 554 40 553 C33 554 34 556 34 537 C34 516 33 519 41 518 L67 514 L67 39 L41 36 C33 35 34 38 34 16 C34 -2 33 0 40 0 L67 0 L77 0 L87 0 L236 0 L274 0 L275 3 L275 3 Z M286 66 C289 66 290 66 286 63 C286 65 286 66 286 66 L286 66 Z M286 66 C286 66 286 66 285 66 L285 66 L286 66 L286 66 Z M206 247 C207 247 208 247 208 248 C210 247 209 247 206 247 L206 247 Z M206 247 C205 247 204 247 203 247 C204 247 205 247 206 247 L206 247 Z M206 339 C212 339 214 339 207 336 C207 338 207 339 206 339 L206 339 Z M206 339 C205 339 204 339 202 339 C203 339 204 339 205 339 L206 339 L206 339 Z M264 487 C264 487 264 488 264 490 C269 486 268 486 265 486 L264 487 L264 487 Z M265 486 L265 486 C266 486 266 486 266 486 L265 486 L265 486 Z " />
<glyph glyph-name="J_sc" unicode="&#x1d0a;" horiz-adv-x="157" d="M72 514 L72 168 C72 49 61 -6 38 -6 C34 -6 25 18 17 50 C16 55 12 58 8 58 C2 58 -1 55 0 50 C9 16 23 -10 33 -10 C73 -10 92 51 92 185 L92 514 L118 518 C126 519 125 516 125 537 C125 556 126 554 118 553 C108 554 92 554 82 553 C72 554 56 554 46 553 C38 554 39 556 39 537 C39 516 38 519 46 518 L72 514 L72 514 Z " />
<glyph glyph-name="K_sc" unicode="&#x1d0b;" horiz-adv-x="429" d="M419 -5 L419 -1 L414 -1 C395 -1 329 66 207 210 L122 309 L295 514 L324 518 C332 519 331 516 333 535 C335 556 336 554 328 553 C327 554 327 554 326 553 C318 554 306 554 298 553 C290 554 292 556 289 537 C286 508 285 511 294 518 L291 515 L291 515 L106 298 L106 514 L132 518 C140 519 139 516 139 537 C139 556 140 554 132 553 C122 554 107 554 96 553 C86 554 70 554 60 553 C52 554 53 556 53 537 C53 516 52 519 60 518 L86 514 L86 39 L60 36 C52 35 53 38 53 16 C53 -2 52 0 60 0 L86 0 L96 0 L106 0 L132 0 C140 0 139 -2 139 16 C139 38 140 35 132 36 L106 39 L106 298 L109 294 L109 294 L194 195 C310 58 378 -5 408 -5 L419 -5 L419 -5 Z M291 515 L289 513 C290 515 291 516 291 516 L291 515 L291 515 Z " />
<glyph glyph-name="M_sc" unicode="&#x1d0d;" horiz-adv-x="540" d="M508 39 L508 39 L482 514 L483 514 L505 518 C513 519 512 516 511 537 C512 556 513 554 505 553 C495 554 481 554 471 553 L469 553 L462 553 L278 -5 L283 -5 L463 535 L488 39 L488 39 L464 36 C457 35 458 38 457 16 C457 -2 456 0 464 0 L490 0 L500 0 L510 0 L535 0 C542 0 541 -2 541 17 C541 38 542 35 535 36 L508 39 L508 39 Z M71 39 L71 39 L93 528 L274 8 L278 -5 L287 23 L104 553 L94 553 L91 553 C83 554 70 554 62 553 C55 554 56 556 55 537 C56 516 55 519 62 518 L86 514 L65 39 L39 36 C31 35 32 38 32 17 C32 -2 31 0 39 0 L63 0 L66 0 L69 0 L108 0 C116 0 115 -2 115 16 C114 38 115 35 108 36 L71 39 L71 39 Z " />
<glyph glyph-name="O_sc" unicode="&#x1d0f;" horiz-adv-x="615" d="M318 0 C178 0 94 135 94 277 C94 418 178 553 318 553 C459 553 543 418 543 277 C543 135 459 0 318 0 L318 0 Z M72 277 C72 132 164 -5 318 -5 C473 -5 565 132 565 277 C565 421 473 558 318 558 C164 558 72 421 72 277 L72 277 Z " />
<glyph glyph-name="P_sc" unicode="&#x1d18;" horiz-adv-x="357" d="M96 0 L106 0 L132 0 C140 0 139 -2 139 16 C139 38 140 35 132 36 L106 39 L106 252 L151 252 C257 252 338 316 338 400 C338 487 262 553 162 553 L106 553 L96 553 C86 554 70 554 60 553 C52 554 53 556 53 537 C53 516 52 519 60 518 L86 514 L86 39 L60 36 C52 35 53 38 53 16 C53 -2 52 0 60 0 L86 0 L96 0 L96 0 Z M106 257 L106 548 L162 548 C250 548 317 485 317 400 C317 319 246 257 151 257 L106 257 L106 257 Z " />
<glyph glyph-name="T_sc" unicode="&#x1d1b;" horiz-adv-x="476" d="M447 481 C447 481 447 482 447 484 C452 480 450 481 447 481 L447 481 Z M447 481 L447 481 L447 481 L447 481 Z M447 484 C447 486 447 490 447 496 C445 511 443 535 442 551 L442 553 L437 553 L403 553 L75 553 L41 553 L36 553 L36 551 C35 535 33 511 31 496 C31 490 31 486 31 484 C34 486 39 490 47 496 L120 548 L229 548 L229 39 L203 36 C195 35 196 38 196 16 C196 -2 195 0 203 0 L229 0 L239 0 L249 0 L275 0 C283 0 282 -2 282 16 C282 38 283 35 275 36 L249 39 L249 548 L358 548 L431 496 C439 490 444 486 447 484 L447 484 Z M30 481 C27 481 25 480 30 484 C30 482 30 481 30 481 L30 481 Z M30 481 L30 481 L30 481 L30 481 Z " />
<glyph glyph-name="U_sc" unicode="&#x1d1c;" horiz-adv-x="445" d="M76 514 L76 168 C76 70 128 -5 239 -5 C346 -5 396 59 396 143 L396 514 L425 518 C433 519 432 516 432 537 C432 556 433 554 425 553 C416 554 402 554 393 553 C383 554 368 554 358 553 C350 554 351 556 351 537 C352 516 351 519 358 518 L390 514 L390 145 C390 64 343 2 242 2 C142 2 96 72 96 164 L96 514 L122 518 C130 519 129 516 129 537 C129 556 130 554 122 553 C112 554 97 554 86 553 C76 554 60 554 50 553 C42 554 43 556 43 537 C43 516 42 519 50 518 L76 514 L76 514 Z " />
<glyph glyph-name="V_sc" unicode="&#x1d20;" horiz-adv-x="380" d="M337 514 L223 11 L77 514 L101 518 C109 519 108 516 108 537 C108 556 109 554 101 553 C88 554 68 554 55 553 C49 554 40 554 34 553 C26 554 27 556 27 536 C27 516 26 519 34 518 L56 514 L217 -15 L222 -15 L343 514 L344 514 L370 518 C378 519 377 516 377 536 C377 556 378 554 371 553 C364 554 355 554 349 553 C337 554 317 554 304 553 C297 554 298 556 298 537 C298 516 297 519 305 518 L337 514 L337 514 Z " />
<glyph glyph-name="W_sc" unicode="&#x1d21;" horiz-adv-x="514" d="M471 514 L471 514 L364 -15 L369 -15 L477 514 L504 518 C512 519 511 516 511 536 C511 556 512 554 504 553 C498 554 488 554 482 553 C471 554 454 554 442 553 C434 554 435 556 436 537 C436 516 435 519 442 518 L471 514 L471 514 Z M364 -15 L370 15 L260 563 L255 563 L150 -15 L155 -15 L254 531 L364 -15 L364 -15 Z M31 515 L150 -14 L155 15 L52 515 L76 519 C84 520 83 517 83 538 C83 557 84 555 76 554 C64 555 45 555 33 554 C27 555 16 555 9 554 C2 555 3 557 3 537 C3 517 2 520 9 519 L31 515 L31 515 Z " />
<glyph glyph-name="Z_sc" unicode="&#x1d22;" horiz-adv-x="433" d="M381 3 C383 17 387 40 390 55 C392 70 392 68 388 69 C379 71 382 72 365 58 L302 5 L88 5 L385 553 L374 553 L362 553 L176 553 L142 553 L138 553 L137 551 C134 538 129 519 125 506 C124 502 123 499 122 497 C126 499 132 502 140 506 L220 548 L359 548 L62 0 L74 0 L85 0 L341 0 L379 0 L380 0 L381 3 L381 3 Z M122 492 C114 492 111 491 123 497 C122 493 122 492 122 492 L122 492 Z M122 492 C122 492 122 492 123 492 L123 492 L122 492 L122 492 Z " />
<glyph glyph-name="Wgrave" unicode="&#x1e80;" horiz-adv-x="565" d="M30 621 L30 621 L163 -15 L169 -15 L279 630 L402 -15 L408 -15 L529 621 L555 624 C563 625 562 622 562 643 C562 662 563 660 555 660 L536 660 L532 660 L529 660 L492 660 C484 660 485 662 486 644 C485 622 484 625 493 624 L522 621 L409 22 L286 670 L281 670 L163 -15 L169 20 L54 621 L78 624 C85 625 84 622 85 644 C84 662 85 660 78 660 L47 660 L35 660 L22 660 L9 660 C1 660 2 662 2 643 C2 622 1 625 9 624 L30 621 L30 621 Z M258 831 C234 864 215 889 213 889 C210 889 202 883 202 881 C202 878 222 854 248 823 L358 692 L360 693 L258 831 L258 831 Z " />
<glyph glyph-name="Wacute" unicode="&#x1e82;" horiz-adv-x="565" d="M220 692 L327 823 C353 855 372 880 372 881 C372 883 364 889 361 889 C360 889 341 864 317 831 L218 693 L220 692 L220 692 Z M30 621 L30 621 L163 -15 L169 -15 L279 630 L402 -15 L408 -15 L529 621 L555 624 C563 625 562 622 562 643 C562 662 563 660 555 660 L536 660 L532 660 L529 660 L492 660 C484 660 485 662 486 644 C485 622 484 625 493 624 L522 621 L409 22 L286 670 L281 670 L163 -15 L169 20 L54 621 L78 624 C85 625 84 622 85 644 C84 662 85 660 78 660 L47 660 L35 660 L22 660 L9 660 C1 660 2 662 2 643 C2 622 1 625 9 624 L30 621 L30 621 Z " />
<glyph glyph-name="Wdieresis" unicode="&#x1e84;" horiz-adv-x="565" d="M365 730 C376 730 385 739 385 750 C385 761 376 770 365 770 C354 770 345 761 345 750 C345 739 354 730 365 730 L365 730 Z M202 730 C213 730 222 739 222 750 C222 761 213 770 202 770 C191 770 182 761 182 750 C182 739 191 730 202 730 L202 730 Z M30 621 L30 621 L163 -15 L169 -15 L279 630 L402 -15 L408 -15 L529 621 L555 624 C563 625 562 622 562 643 C562 662 563 660 555 660 L536 660 L532 660 L529 660 L492 660 C484 660 485 662 486 644 C485 622 484 625 493 624 L522 621 L409 22 L286 670 L281 670 L163 -15 L169 20 L54 621 L78 624 C85 625 84 622 85 644 C84 662 85 660 78 660 L47 660 L35 660 L22 660 L9 660 C1 660 2 662 2 643 C2 622 1 625 9 624 L30 621 L30 621 Z " />
<glyph glyph-name="Etilde" unicode="&#x1ebc;" horiz-adv-x="359" d="M116 755 C116 796 124 827 134 827 C170 827 174 764 210 764 C226 764 237 796 237 837 L234 837 C234 803 226 777 215 777 C178 777 174 840 138 840 C123 840 112 803 112 755 L116 755 L116 755 Z M295 3 C297 17 301 39 303 53 C304 58 305 61 305 63 C302 61 297 58 289 53 L216 6 L88 6 L88 349 L140 349 L200 320 C217 311 225 307 228 305 C228 307 228 311 228 319 L228 349 L228 352 L228 355 L228 381 C228 387 228 391 228 393 C223 391 214 387 200 381 L140 355 L88 355 L88 654 L207 654 L272 607 C279 602 283 599 286 597 C286 599 286 602 286 607 L286 657 L286 660 L283 660 L247 660 L88 660 L77 660 L66 660 L40 660 C32 660 33 662 33 644 C33 622 32 625 40 624 L66 621 L66 39 L40 36 C32 35 33 38 33 16 C33 -2 32 0 40 0 L66 0 L77 0 L88 0 L255 0 L293 0 L294 0 L295 3 L295 3 Z M306 66 C310 66 312 67 306 63 C306 65 306 66 306 66 L306 66 Z M306 66 L306 66 L306 66 L306 66 Z M227 304 C228 304 228 304 228 305 C230 304 229 304 227 304 L227 304 Z M227 304 C226 304 225 304 224 304 C225 304 226 304 227 304 L227 304 Z M228 396 C234 397 236 397 229 394 C229 395 229 396 229 396 L228 396 L228 396 Z M229 396 C228 397 227 396 225 396 C226 396 227 396 228 396 L229 396 L229 396 Z M286 594 L286 594 L286 594 L286 594 Z M286 594 L286 594 L286 594 L286 594 Z M286 594 C286 594 286 594 286 596 C292 592 290 593 286 594 L286 594 Z " />
<glyph glyph-name="Ygrave" unicode="&#x1ef2;" horiz-adv-x="386" d="M343 621 L344 621 L212 265 L210 265 L90 621 L108 624 C115 625 114 622 115 644 C115 662 116 660 108 660 L77 660 L63 660 L50 660 L44 660 C36 660 37 662 37 643 C37 623 36 625 44 624 L64 621 L197 249 L197 39 L170 36 C163 35 164 38 164 16 C164 -2 163 0 170 0 L197 0 L208 0 L219 0 L245 0 C253 0 252 -2 252 16 C252 38 253 35 245 36 L219 39 L219 265 L351 621 L351 621 L375 624 C383 625 382 623 382 643 C382 662 383 660 375 660 L365 660 L362 660 L359 660 L320 660 C312 660 313 662 314 644 C313 622 312 625 320 624 L343 621 L343 621 Z M182 831 C158 864 139 889 137 889 C134 889 126 883 126 881 C126 878 146 854 172 823 L282 692 L285 693 L182 831 L182 831 Z " />
<glyph glyph-name="quoteleft" unicode="&#x2018;" horiz-adv-x="150" d="M28 578 L43 592 C47 588 51 585 54 584 C49 568 39 565 27 577 L28 578 L28 578 Z M78 602 C75 602 72 601 69 600 C70 605 71 611 71 618 C71 637 80 655 91 660 L90 664 C70 655 56 629 56 605 C56 596 55 588 53 582 C55 582 57 581 59 582 L59 582 C59 572 67 564 78 564 C88 564 97 572 97 582 C97 593 88 601 78 601 L78 602 L78 602 Z " />
<glyph glyph-name="quoteright" unicode="&#x2019;" horiz-adv-x="150" d="M129 653 L115 639 C111 643 107 646 103 647 C107 663 117 666 129 654 L129 653 L129 653 Z M79 628 C82 628 84 628 86 629 C85 624 85 618 85 611 C85 592 76 574 65 569 L67 565 C86 574 101 599 101 624 C101 633 102 641 104 647 C102 648 100 648 98 648 C98 658 90 666 79 666 C68 666 60 658 60 647 C60 636 68 628 79 628 L79 628 Z " />
<glyph glyph-name="quotedblleft" unicode="&#x201c;" horiz-adv-x="206" d="M21 578 L36 592 C37 591 38 590 39 589 L43 592 C47 588 51 585 54 584 C53 581 52 579 51 577 C71 560 88 554 101 559 C86 535 56 540 20 578 L21 578 L21 578 Z M133 603 C130 603 127 602 125 601 C126 607 126 613 126 620 C126 639 135 657 147 662 L145 666 C126 657 111 631 111 607 C111 586 107 570 101 560 C108 562 113 567 117 574 C120 569 126 566 133 566 C144 566 152 574 152 584 C152 595 144 603 133 603 L133 603 Z M78 603 C75 603 72 602 69 601 C70 606 71 612 71 619 C71 638 80 656 91 661 L90 665 C70 656 56 630 56 606 C56 597 55 589 53 583 C55 583 57 582 59 583 L59 583 C59 573 67 565 78 565 C88 565 97 573 97 583 C97 594 88 602 78 602 L78 603 L78 603 Z " />
<glyph glyph-name="quotedblright" unicode="&#x201d;" horiz-adv-x="206" d="M247 653 L232 639 C205 667 182 678 166 672 C181 696 211 691 247 653 L247 653 Z M79 627 C82 627 84 627 86 628 C85 623 85 617 85 610 C85 591 76 573 65 568 L67 564 C86 573 101 598 101 623 C101 632 102 640 104 646 C102 647 100 647 98 647 C98 657 90 665 79 665 C68 665 60 657 60 646 C60 635 68 627 79 627 L79 627 Z M166 672 C159 670 154 665 150 657 C147 662 141 665 134 665 C128 665 123 663 120 660 C123 659 126 657 129 654 L116 641 C118 633 125 628 134 628 C137 628 140 629 142 630 C141 625 141 619 141 613 C141 594 132 576 120 571 L122 567 C142 576 156 601 156 626 C156 647 160 663 166 673 L166 672 L166 672 Z M104 648 C107 659 113 664 121 661 C118 658 116 653 116 648 C116 646 116 644 117 642 L116 641 C112 645 108 648 104 649 L104 648 L104 648 Z " />
<glyph glyph-name="ellipsis" unicode="&#x2026;" horiz-adv-x="420" d="M350 0 C361 0 370 9 370 20 C370 31 361 40 350 40 C339 40 330 31 330 20 C330 9 339 0 350 0 L350 0 Z M210 0 C221 0 230 9 230 20 C230 31 221 40 210 40 C199 40 190 31 190 20 C190 9 199 0 210 0 L210 0 Z M70 0 C81 0 90 9 90 20 C90 31 81 40 70 40 C59 40 50 31 50 20 C50 9 59 0 70 0 L70 0 Z " />
<glyph glyph-name="guilsinglleft" unicode="&#x2039;" horiz-adv-x="169" d="M38 250 L124 461 L121 464 L20 251 L20 249 L122 37 L124 39 L38 250 L38 250 Z " />
<glyph glyph-name="guilsinglright" unicode="&#x203a;" horiz-adv-x="169" d="M131 251 L46 461 L48 464 L149 251 L149 249 L47 37 L45 39 L131 251 L131 251 Z " />
<glyph glyph-name="Euro" unicode="&#x20ac;" horiz-adv-x="595" d="M48 293 L102 293 C116 120 217 -5 347 -5 C381 -5 462 28 537 71 L537 119 C537 128 536 134 534 134 C533 134 528 128 520 119 C500 95 468 57 448 32 C404 13 366 1 346 1 C228 1 138 124 126 293 L383 293 L385 308 L126 308 C126 316 126 324 126 332 C126 340 126 348 126 356 L385 356 L387 370 L126 370 C138 536 228 657 346 657 C368 657 406 646 447 629 L447 629 C467 605 499 568 519 544 C527 535 532 529 533 529 C535 529 536 535 536 544 L536 592 C466 633 384 663 346 663 C216 663 115 539 102 370 L52 370 L50 356 L101 356 C101 348 101 340 101 332 C101 324 101 316 101 308 L50 308 L48 293 L48 293 Z " />
<glyph glyph-name="F_sc" unicode="&#xa730;" horiz-adv-x="303" d="M197 243 C198 243 199 243 199 244 C201 243 200 243 197 243 L197 243 Z M197 243 C196 243 195 243 194 243 C195 243 196 243 197 243 L197 243 Z M199 244 C199 246 199 250 199 259 L199 288 L199 291 L199 293 L199 320 C199 326 199 330 199 332 C194 330 185 326 170 320 L110 293 L87 293 L87 548 L217 548 L282 501 C289 496 293 493 296 491 C296 493 296 496 296 501 L296 551 L296 553 L294 553 L257 553 L87 553 L77 553 C67 554 51 554 40 553 C33 554 34 556 34 537 C34 516 33 519 41 518 L67 514 L67 39 L41 36 C33 35 34 38 34 16 C34 -2 33 0 40 0 L67 0 L77 0 L87 0 L123 0 C130 0 129 -2 130 16 C129 38 130 35 123 36 L87 39 L87 288 L110 288 L170 259 C188 250 196 246 199 244 L199 244 Z M198 335 C204 335 206 335 199 332 C199 334 199 335 198 335 L198 335 Z M198 335 C197 335 196 335 194 335 C195 335 196 335 197 335 L198 335 L198 335 Z M296 487 C296 487 296 488 296 490 C301 486 300 486 297 486 L296 487 L296 487 Z M297 486 L297 486 C298 486 298 486 298 486 L297 486 L297 486 Z " />
<glyph glyph-name="S_sc" unicode="&#xa731;" horiz-adv-x="355" d="M192 543 C213 517 244 479 265 454 C272 446 277 440 278 440 C280 440 281 446 281 454 L281 504 C228 534 178 557 166 557 C104 557 58 494 58 411 C58 359 105 297 168 269 C241 235 296 173 296 123 C296 52 253 -1 196 -1 C181 -1 158 4 133 13 L133 13 C112 36 81 72 60 96 C53 105 48 111 47 111 C45 111 44 105 44 96 L44 46 L46 50 L46 50 L44 46 C97 16 162 -7 196 -7 C262 -7 311 52 311 131 C311 183 255 248 181 281 C118 310 71 369 71 418 C71 494 111 551 165 551 C169 551 179 547 193 541 L192 543 L192 543 Z " />
<glyph glyph-name="X_sc" unicode="&#xf078;" horiz-adv-x="446" d="M121 39 L121 39 L232 271 L364 39 L351 36 C343 34 344 36 344 16 C344 -2 343 0 351 0 L386 0 L397 0 L408 0 C416 0 415 -3 415 18 C414 37 415 35 407 36 L386 39 L386 39 L243 292 L243 292 L371 514 L372 514 L400 518 C408 519 407 516 407 536 C407 556 408 554 400 553 C398 554 394 554 392 553 C381 554 363 554 352 553 C344 554 345 556 345 537 C346 516 345 519 352 518 L368 514 L242 294 L118 514 L131 518 C139 520 138 517 138 537 C138 556 139 554 131 553 C118 554 98 554 85 553 C81 554 76 554 73 553 C66 554 66 556 67 535 C68 516 67 519 74 518 L95 514 L95 514 L232 273 L119 39 L91 36 C84 35 85 37 84 17 C84 -2 83 0 91 0 L100 0 L102 0 L104 0 L143 0 C150 0 149 -2 149 16 C149 38 150 35 143 36 L121 39 L121 39 Z " />
</font>
</svg>
