<?xml version="1.0" encoding="UTF-8"?>
<svg xmlns="http://www.w3.org/2000/svg" xmlns:xlink="http://www.w3.org/1999/xlink" version="1.2" >
<font id="Ethan Black">
<font-face  font-family="Ethan" units-per-em="1024" ascent="975" descent="-300" font-style="normal" font-weight="900" font-stretch="normal" cap-height="924" x-height="488" underline-position="-125" underline-thickness="50" />
<missing-glyph  horiz-adv-x="100" d="" />
<glyph glyph-name="NULL" d="" />
<glyph glyph-name="CR" unicode="&#xd;" horiz-adv-x="256" d="" />
<glyph glyph-name="space" unicode="&#x20;" horiz-adv-x="248" d="" />
<glyph glyph-name="exclam" unicode="&#x21;" horiz-adv-x="307" d="M173 -10 C221 -10 253 22 253 70 C253 118 221 150 173 150 C125 150 93 118 93 70 C93 22 125 -10 173 -10 L173 -10 Z M104 660 L154 230 L192 230 L242 660 L104 660 L104 660 Z " />
<glyph glyph-name="quotedbl" unicode="&#x22;" horiz-adv-x="540" d="M325 740 L378 490 L408 490 L460 740 L325 740 L325 740 Z M80 740 L133 490 L163 490 L215 740 L80 740 L80 740 Z " />
<glyph glyph-name="numbersign" unicode="&#x23;" horiz-adv-x="498" d="M133 362 L106 269 L0 269 L0 181 L81 181 L28 0 L121 0 L174 181 L237 181 L184 0 L278 0 L331 181 L440 181 L440 269 L356 269 L383 362 L498 362 L498 450 L409 450 L470 660 L376 660 L315 450 L253 450 L314 660 L220 660 L159 450 L58 450 L58 362 L133 362 L133 362 Z M227 362 L289 362 L262 269 L199 269 L227 362 L227 362 Z " />
<glyph glyph-name="dollar" unicode="&#x24;" horiz-adv-x="517" d="M279 740 L279 670 C272 670 265 670 258 670 L258 740 L182 740 L182 657 C99 631 48 566 48 479 C48 391 94 329 182 276 L182 166 C181 166 177 170 177 170 L86 170 C63 170 47 158 47 139 C47 66 99 13 182 -5 L182 -81 L258 -81 L258 -11 C265 -11 272 -11 279 -10 L279 -82 L355 -82 L355 9 C426 40 469 104 469 187 C469 254 430 324 355 380 L355 508 L415 508 C438 508 454 520 454 538 C454 593 416 635 355 654 L355 736 L279 740 L279 740 Z M259 445 L259 576 C266 576 273 575 279 574 L279 429 C272 434 265 439 259 445 L259 445 Z M259 223 C266 217 273 211 279 205 L279 79 C273 77 266 76 259 75 L259 223 L259 223 Z " />
<glyph glyph-name="percent" unicode="&#x25;" horiz-adv-x="810" d="M178 579 C178 661 175 716 170 716 C193 716 208 637 208 519 C208 450 206 404 204 404 C188 404 178 474 178 579 L178 579 Z M31 550 C31 433 95 355 191 355 C286 355 349 441 349 570 C349 684 286 760 191 760 C95 760 31 676 31 550 L31 550 Z M595 218 C595 298 597 351 601 351 C635 351 657 274 657 158 C657 87 648 39 635 39 C611 39 595 111 595 218 L595 218 Z M448 189 C448 70 518 -10 622 -10 C728 -10 798 78 798 209 C798 321 728 395 622 395 C518 395 448 313 448 189 L448 189 Z M224 -21 L689 729 L622 771 L157 21 L224 -21 L224 -21 Z " />
<glyph glyph-name="ampersand" unicode="&#x26;" horiz-adv-x="701" d="M478 452 L508 420 C511 420 517 418 523 419 C502 366 482 318 463 276 L329 406 C404 448 450 498 450 543 C450 619 380 669 276 669 C157 669 77 603 77 505 C77 443 103 392 146 343 C42 296 20 243 20 178 C20 65 96 -11 211 -11 C305 -11 375 22 433 82 L526 -1 L797 -1 L797 17 L698 49 L525 216 C558 277 588 349 620 429 L686 452 L686 470 L478 470 L478 452 L478 452 Z M202 288 C204 286 206 284 208 282 L380 129 C358 103 336 89 312 89 C240 89 192 143 192 223 C192 248 194 269 202 286 L202 288 L202 288 Z M269 464 C252 485 242 507 242 535 C242 569 251 591 264 591 C281 591 292 568 292 533 C292 509 284 485 270 464 L269 464 Z " />
<glyph glyph-name="quotesingle" unicode="&#x27;" horiz-adv-x="295" d="M80 740 L133 490 L163 490 L215 740 L80 740 L80 740 Z " />
<glyph glyph-name="parenleft" unicode="&#x28;" horiz-adv-x="356" d="M304 740 C153 653 52 529 52 295 C52 61 153 -63 304 -150 L351 -150 C247 -90 178 26 178 295 C178 564 247 680 351 740 L304 740 L304 740 Z " />
<glyph glyph-name="parenright" unicode="&#x29;" horiz-adv-x="356" d="M55 -150 C206 -63 307 61 307 295 C307 529 206 653 55 740 L8 740 C112 680 181 564 181 295 C181 26 112 -90 8 -150 L55 -150 L55 -150 Z " />
<glyph glyph-name="asterisk" unicode="&#x2a;" horiz-adv-x="451" d="M265 580 L379 589 L344 697 L246 638 L272 750 L159 750 L185 638 L86 698 L51 590 L165 580 L78 505 L170 438 L215 544 L259 438 L351 504 L265 580 L265 580 Z " />
<glyph glyph-name="plus" unicode="&#x2b;" horiz-adv-x="510" d="M206 482 L206 319 L40 319 L40 225 L206 225 L206 52 L304 52 L304 225 L470 225 L470 319 L304 319 L304 482 L206 482 L206 482 Z " />
<glyph glyph-name="comma" unicode="&#x2c;" horiz-adv-x="269" d="M90 0 C124 -16 147 -52 147 -90 C147 -122 112 -155 60 -172 L60 -210 C155 -178 219 -106 219 -30 C219 35 189 92 143 113 C110 130 101 129 81 97 L44 35 L48 22 L90 0 L90 0 Z " />
<glyph glyph-name="hyphen" unicode="&#x2d;" horiz-adv-x="375" d="M50 186 L325 186 L325 318 L50 318 L50 186 L50 186 Z " />
<glyph glyph-name="period" unicode="&#x2e;" horiz-adv-x="290" d="M145 -10 C193 -10 225 22 225 70 C225 118 193 150 145 150 C97 150 65 118 65 70 C65 22 97 -10 145 -10 L145 -10 Z " />
<glyph glyph-name="slash" unicode="&#x2f;" horiz-adv-x="294" d="M0 -120 L94 -120 L294 750 L200 750 L0 -120 L0 -120 Z " />
<glyph glyph-name="zero" unicode="0" horiz-adv-x="546" d="M212 381 C212 502 224 582 241 582 C303 582 345 460 345 278 C345 160 328 81 303 81 C248 81 212 201 212 381 L212 381 Z M33 324 C33 124 129 -10 273 -10 C417 -10 513 130 513 339 C513 538 417 670 273 670 C129 670 33 532 33 324 L33 324 Z " />
<glyph glyph-name="one" unicode="1" horiz-adv-x="573" d="M468 0 L468 18 L403 50 L403 660 L366 660 L70 526 L70 460 L244 506 L244 50 L179 18 L179 0 L468 0 L468 0 Z " />
<glyph glyph-name="two" unicode="2" horiz-adv-x="480" d="M458 77 C462 120 467 176 470 219 L453 219 L415 154 L282 154 C415 291 470 361 470 480 C470 594 396 670 284 670 C139 670 42 600 42 496 C42 449 72 417 118 417 L207 417 C207 417 211 422 212 422 L212 525 C212 525 93 496 42 496 C212 559 218 582 227 582 C264 582 289 540 289 477 C289 256 222 224 51 47 L51 0 L459 0 L458 77 L458 77 Z " />
<glyph glyph-name="three" unicode="3" horiz-adv-x="522" d="M201 120 L201 171 L186 186 L98 186 C98 186 32 160 32 120 C32 42 120 -10 252 -10 C400 -10 499 64 499 175 C499 275 445 339 340 365 C422 393 464 443 464 506 C464 604 388 670 274 670 C141 670 52 611 52 522 C52 482 127 456 127 456 L205 456 L220 471 L220 542 C220 568 226 585 234 585 C263 585 283 547 283 490 C283 429 247 386 178 378 C170 378 162 378 153 377 L153 295 C263 303 319 262 319 176 C319 115 292 75 252 75 C221 75 201 93 201 121 L201 120 L201 120 Z " />
<glyph glyph-name="four" unicode="4" horiz-adv-x="501" d="M453 18 L388 50 L388 179 L488 179 L488 304 L387 304 L387 501 L388 660 L351 660 L228 501 C154 407 80 313 7 218 L7 180 L227 180 L227 51 L162 19 L162 1 L452 1 L453 18 L453 18 Z M227 368 L227 306 L186 306 L227 368 L227 368 Z " />
<glyph glyph-name="five" unicode="5" horiz-adv-x="506" d="M411 660 L86 660 L86 310 C105 316 137 320 165 320 C263 320 328 258 328 166 C328 116 304 82 267 82 C235 82 199 102 178 132 C172 132 159 164 159 164 L141 164 C121 164 73 114 73 114 C53 99 39 94 39 64 C39 53 45 39 54 28 C70 5 124 -10 190 -10 C353 -10 461 91 461 242 C461 381 346 476 176 468 L176 516 L411 516 L411 660 L411 660 Z " />
<glyph glyph-name="six" unicode="6" horiz-adv-x="523" d="M443 670 C201 605 39 429 39 230 C39 86 131 -10 269 -10 C403 -10 493 76 493 206 C493 315 431 388 339 388 C296 388 257 375 226 351 C253 485 333 585 443 614 L443 670 Z M217 235 C221 251 240 261 265 261 C299 261 321 223 321 166 C321 112 300 76 269 76 C239 76 219 139 217 235 L217 235 Z " />
<glyph glyph-name="seven" unicode="7" horiz-adv-x="500" d="M50 660 L50 516 L325 516 C179 229 86 28 86 0 L296 0 C296 183 362 433 460 623 L460 660 L401 660 L399 661 L50 660 L50 660 Z " />
<glyph glyph-name="eight" unicode="8" horiz-adv-x="512" d="M283 419 C225 449 202 496 202 551 C202 571 215 584 235 584 C276 584 304 547 304 491 C304 463 296 438 282 419 L283 419 Z M370 366 C430 393 466 441 466 502 C466 602 381 669 253 669 C122 669 34 599 34 493 C34 426 61 363 126 310 C72 276 40 216 40 139 C40 49 126 -11 256 -11 C385 -11 471 64 471 176 C471 244 437 311 370 364 L370 366 Z M222 251 C284 220 316 170 316 119 C316 88 296 68 267 68 C233 68 210 114 210 183 C210 209 214 232 221 251 L222 251 Z " />
<glyph glyph-name="nine" unicode="9" horiz-adv-x="519" d="M80 -10 C322 -10 484 89 484 430 C484 574 392 670 254 670 C120 670 30 600 30 465 C30 346 93 266 188 266 C231 266 271 283 303 312 C282 122 198 45 81 45 L80 -10 Z M308 424 C302 404 283 391 261 391 C230 391 210 420 210 464 C210 543 228 583 255 583 C286 583 307 520 309 424 L308 424 Z " />
<glyph glyph-name="colon" unicode="&#x3a;" horiz-adv-x="290" d="M145 290 C193 290 225 322 225 370 C225 418 193 450 145 450 C97 450 65 418 65 370 C65 322 97 290 145 290 L145 290 Z M145 -10 C193 -10 225 22 225 70 C225 118 193 150 145 150 C97 150 65 118 65 70 C65 22 97 -10 145 -10 L145 -10 Z " />
<glyph glyph-name="semicolon" unicode="&#x3b;" horiz-adv-x="269" d="M133 290 C181 290 213 322 213 370 C213 418 181 450 133 450 C85 450 53 418 53 370 C53 322 85 290 133 290 L133 290 Z M90 0 C124 -16 147 -52 147 -90 C147 -122 112 -155 60 -172 L60 -210 C155 -178 219 -106 219 -30 C219 35 189 92 143 113 C110 130 101 129 81 97 L44 35 L48 22 L90 0 L90 0 Z " />
<glyph glyph-name="equal" unicode="&#x3d;" horiz-adv-x="500" d="M40 195 L40 101 L460 101 L460 195 L40 195 L40 195 Z M40 443 L40 349 L460 349 L460 443 L40 443 L40 443 Z " />
<glyph glyph-name="question" unicode="&#x3f;" horiz-adv-x="498" d="M251 -5 C299 -5 331 27 331 75 C331 123 299 155 251 155 C203 155 171 123 171 75 C171 27 203 -5 251 -5 L251 -5 Z M204 523 C204 523 89 506 40 506 C40 461 69 431 112 431 L189 431 C189 431 200 450 204 450 L204 523 L204 523 Z M204 523 C204 561 202 587 199 587 C242 587 271 542 271 475 C271 436 236 384 183 345 C183 311 232 230 232 230 L268 230 L278 217 C377 291 443 394 443 475 C443 592 369 670 257 670 C127 670 40 604 40 506 L204 523 L204 523 Z " />
<glyph glyph-name="A" unicode="A" horiz-adv-x="768" d="M413 259 L298 259 L355 413 L413 259 L413 259 Z M404 0 L734 0 L734 16 L670 45 C588 252 506 459 424 666 L338 666 L95 51 L17 19 L17 1 L303 1 L303 19 L221 51 L260 157 L451 157 L451 161 L493 51 L404 19 L404 0 L404 0 Z " />
<glyph glyph-name="B" unicode="B" horiz-adv-x="652" d="M455 370 C512 403 544 449 544 504 C544 598 474 660 338 660 L39 660 L39 641 L119 605 L119 55 L39 19 L39 0 L335 0 C495 0 601 83 601 208 C601 282 552 340 455 370 L455 370 Z M289 395 L289 557 L298 557 C345 557 369 517 369 457 C369 426 338 403 289 395 L289 395 Z M289 103 L289 288 L343 288 C398 288 426 250 426 193 C426 139 390 103 336 103 L289 103 L289 103 Z " />
<glyph glyph-name="C" unicode="C" horiz-adv-x="724" d="M545 131 C509 102 455 84 404 84 C307 84 243 195 243 361 C243 490 311 576 414 576 C452 576 491 560 518 534 C518 534 537 512 541 506 C562 476 591 435 612 405 C617 405 623 406 629 406 L620 629 C601 654 518 670 414 670 C206 670 68 524 68 304 C68 116 202 -10 404 -10 C515 -10 606 8 633 34 L645 242 C639 242 634 243 629 243 C611 217 586 183 568 157 C561 147 552 137 544 131 L545 131 L545 131 Z " />
<glyph glyph-name="D" unicode="D" horiz-adv-x="795" d="M407 0 C598 0 725 132 725 367 C725 560 584 660 373 660 L64 660 L64 641 L144 605 L144 55 L64 19 L64 0 L407 0 L407 0 Z M313 103 L313 556 C317 556 321 556 325 556 C459 556 549 470 549 303 C549 174 491 103 403 103 L313 103 L313 103 Z " />
<glyph glyph-name="E" unicode="E" horiz-adv-x="667" d="M597 228 L580 228 L522 103 L313 103 L313 288 L422 288 L464 208 L487 208 L487 472 L464 472 L422 392 L313 392 L313 557 L497 557 L555 442 L572 442 L572 660 L64 660 L64 641 L144 605 L144 55 L64 19 L64 0 L597 0 L597 228 L597 228 Z " />
<glyph glyph-name="F" unicode="F" horiz-adv-x="632" d="M422 288 L464 208 L487 208 L487 472 L464 472 L422 392 L313 392 L313 557 L487 557 L545 442 L562 442 L562 660 L64 660 L64 641 L144 605 L144 55 L64 19 L64 0 L408 0 L408 19 L313 55 L313 288 L422 288 L422 288 Z " />
<glyph glyph-name="G" unicode="G" horiz-adv-x="782" d="M662 235 L737 271 L737 290 L408 290 L408 271 L493 235 L493 110 C480 104 468 100 458 100 C330 100 244 204 244 361 C244 490 316 576 425 576 C469 576 515 557 544 528 C549 522 556 514 563 505 C584 475 613 434 634 404 C639 404 645 405 651 405 L642 628 C621 653 535 669 426 669 C212 669 70 523 70 303 C70 115 205 -11 407 -11 C487 -11 589 47 663 135 L662 235 L662 235 Z " />
<glyph glyph-name="H" unicode="H" horiz-adv-x="829" d="M764 0 L764 19 L684 55 L684 605 L764 641 L764 660 L435 660 L435 641 L515 605 L515 392 L313 392 L313 605 L393 641 L393 660 L64 660 L64 641 L144 605 L144 55 L64 19 L64 0 L393 0 L393 19 L313 55 L313 288 L515 288 L515 55 L435 19 L435 0 L764 0 L764 0 Z " />
<glyph glyph-name="I" unicode="I" horiz-adv-x="469" d="M399 0 L399 19 L319 55 L319 605 L399 641 L399 660 L70 660 L70 641 L150 605 L150 55 L70 19 L70 0 L399 0 L399 0 Z " />
<glyph glyph-name="J" unicode="J" horiz-adv-x="469" d="M150 605 L150 50 C150 -2 135 -37 113 -37 C113 -37 51 -30 13 -20 L7 -20 C7 -20 -12 -119 -12 -125 C-12 -154 13 -173 50 -173 C211 -173 319 -21 319 208 L319 605 L399 641 L399 660 L70 660 L70 641 L150 605 L150 605 Z " />
<glyph glyph-name="K" unicode="K" horiz-adv-x="813" d="M787 14 L727 40 L471 374 L703 620 L767 646 L767 660 L451 660 L451 642 L531 610 L315 338 L552 0 L786 0 L787 14 L787 14 Z M394 0 L394 19 L314 55 L314 605 L394 641 L394 660 L65 660 L65 641 L145 605 L145 55 L65 19 L65 0 L394 0 L394 0 Z " />
<glyph glyph-name="L" unicode="L" horiz-adv-x="655" d="M585 268 L567 268 L505 103 L313 103 L313 605 L398 641 L398 660 L64 660 L64 641 L144 605 L144 55 L64 19 L64 0 L585 0 L585 268 L585 268 Z " />
<glyph glyph-name="M" unicode="M" horiz-adv-x="982" d="M81 641 L168 605 L142 55 L60 19 L60 0 L337 0 L337 19 L254 55 L265 408 L421 -5 L505 -5 C498 16 490 37 483 57 L506 -5 L676 411 L689 55 L611 19 L611 0 L920 0 L920 19 L849 55 L828 605 L915 641 L915 660 L666 660 L504 235 L348 660 L80 660 L81 641 L81 641 Z " />
<glyph glyph-name="N" unicode="N" horiz-adv-x="818" d="M65 641 L140 605 L140 55 L60 19 L60 0 L372 0 L372 19 L272 55 L272 394 C386 261 500 128 613 -5 L678 -5 L678 605 L753 641 L753 660 L447 660 L447 641 L547 605 L547 334 L272 660 L65 660 L65 641 L65 641 Z " />
<glyph glyph-name="O" unicode="O" horiz-adv-x="828" d="M250 386 C250 501 302 578 381 578 C499 578 578 452 578 263 C578 156 528 84 452 84 C331 84 250 205 250 386 L250 386 Z M70 321 C70 122 208 -10 414 -10 C620 -10 758 125 758 328 C758 533 620 670 414 670 C208 670 70 530 70 321 L70 321 Z " />
<glyph glyph-name="P" unicode="P" horiz-adv-x="665" d="M408 0 L408 19 L313 55 L313 265 L348 265 C496 265 595 347 595 471 C595 584 506 660 373 660 L64 660 L64 641 L144 605 L144 55 L64 19 L64 0 L408 0 L408 0 Z M313 368 L313 557 L332 557 C381 557 413 516 413 455 C413 402 402 367 385 367 L313 368 L313 368 Z " />
<glyph glyph-name="Q" unicode="Q" horiz-adv-x="828" d="M885 -116 L885 -88 C867 -98 827 -105 784 -105 C732 -105 649 -9 580 25 C691 78 758 187 758 329 C758 534 620 671 414 671 C208 671 70 531 70 322 C70 117 217 -20 437 -9 C522 -69 613 -166 668 -166 C745 -166 832 -146 885 -115 L885 -116 L885 -116 Z M250 387 C250 502 302 579 381 579 C499 579 578 453 578 264 C578 157 528 85 452 85 C331 85 250 206 250 387 L250 387 Z " />
<glyph glyph-name="R" unicode="R" horiz-adv-x="738" d="M725 18 C700 29 675 40 650 50 L472 288 C549 321 596 386 596 471 C596 584 507 660 374 660 L64 660 L64 641 L144 605 L144 55 L64 19 L64 0 L388 0 L388 19 L313 55 L313 219 L477 0 L725 0 L725 18 L725 18 Z M313 368 L313 557 L332 557 C380 557 412 516 412 455 C412 402 402 367 386 367 L313 368 L313 368 Z " />
<glyph glyph-name="S" unicode="S" horiz-adv-x="565" d="M114 80 C114 79 114 79 113 79 L114 80 Z M467 437 C474 437 481 438 488 438 L477 631 C461 654 389 669 298 669 C167 669 80 593 80 478 C80 395 131 332 230 272 C307 225 347 187 347 153 C347 107 325 77 291 77 C248 77 197 98 160 131 L160 131 C151 139 141 150 135 159 C117 185 94 219 76 245 C69 245 62 244 55 244 L65 28 C87 4 178 -12 291 -12 C422 -12 509 71 509 196 C509 282 453 350 344 416 C280 455 247 493 247 538 C247 609 347 570 377 547 L377 547 C398 531 446 465 468 436 L467 437 L467 437 Z " />
<glyph glyph-name="T" unicode="T" horiz-adv-x="693" d="M531 0 L531 19 L431 55 L431 557 L568 557 L630 412 L648 412 L648 660 L45 660 L45 412 L63 412 L125 557 L262 557 L262 55 L162 19 L162 0 L531 0 L531 0 Z " />
<glyph glyph-name="U" unicode="U" horiz-adv-x="806" d="M125 605 L125 234 C125 88 232 -10 393 -10 C554 -10 661 88 661 234 L661 605 L741 641 L741 660 L430 660 L430 641 L530 605 L530 194 C530 137 496 99 444 99 C353 99 293 165 293 264 L294 605 L374 641 L374 660 L45 660 L45 641 L125 605 L125 605 Z " />
<glyph glyph-name="V" unicode="V" horiz-adv-x="749" d="M452 641 L530 605 L299 31 L371 212 L268 605 L364 641 L364 660 L31 660 L31 642 L97 610 C168 405 238 199 312 -5 L395 -5 L660 620 L716 646 L716 660 L452 660 L452 641 L452 641 Z " />
<glyph glyph-name="W" unicode="W" horiz-adv-x="994" d="M352 660 L17 660 L17 642 L80 610 C129 405 177 199 227 -5 L305 -5 C365 129 427 262 488 396 C532 262 576 128 620 -6 L696 -6 C769 202 839 411 910 619 L974 645 L974 659 L696 659 L696 640 L779 604 L667 244 C633 384 599 524 565 664 L478 664 C417 524 359 382 300 241 C284 362 266 484 251 604 L353 640 L352 660 L352 660 Z " />
<glyph glyph-name="X" unicode="X" horiz-adv-x="768" d="M369 660 L24 660 L24 642 L85 610 L272 326 C204 234 136 142 67 50 L-2 18 L-2 0 L291 0 L291 19 L200 55 L330 238 L450 55 L376 19 L376 0 L731 0 L731 16 L671 45 L471 336 C543 429 615 522 688 615 L751 644 L751 660 L482 660 L482 641 L558 605 L412 422 C370 483 328 544 287 605 L369 641 L369 660 L369 660 Z " />
<glyph glyph-name="Y" unicode="Y" horiz-adv-x="732" d="M427 641 L509 605 L399 424 C357 484 314 545 272 605 L343 641 L343 660 L31 660 L31 642 L93 610 L292 316 L292 54 L202 18 L202 -1 L551 -1 L551 18 L461 54 L461 325 L643 619 L699 645 L699 659 L428 659 L427 641 L427 641 Z " />
<glyph glyph-name="Z" unicode="Z" horiz-adv-x="646" d="M89 432 L107 432 L169 557 L359 557 C265 387 171 217 77 47 L77 0 L556 0 L556 238 L538 238 L476 103 L275 103 C364 263 453 423 542 583 L542 659 L90 659 L89 432 L89 432 Z " />
<glyph glyph-name="bracketleft" unicode="&#x5b;" horiz-adv-x="305" d="M184 697 L300 697 L300 740 L68 740 L68 -150 L300 -150 L300 -107 L184 -107 L184 697 L184 697 Z " />
<glyph glyph-name="backslash" unicode="&#x5c;" horiz-adv-x="338" d="M244 -120 L338 -120 L94 750 L0 750 L244 -120 L244 -120 Z " />
<glyph glyph-name="bracketright" unicode="&#x5d;" horiz-adv-x="300" d="M119 697 L119 -107 L5 -107 L5 -150 L235 -150 L235 740 L5 740 L5 697 L119 697 L119 697 Z " />
<glyph glyph-name="asciicircum" unicode="&#x5e;" horiz-adv-x="340" d="M338 530 L185 705 L155 705 L7 530 L29 530 L170 601 L316 530 L338 530 L338 530 Z " />
<glyph glyph-name="underscore" unicode="&#x5f;" horiz-adv-x="500" d="M25 -81 L25 -175 L475 -175 L475 -81 L25 -81 L25 -81 Z " />
<glyph glyph-name="grave" unicode="&#x60;" horiz-adv-x="340" d="M179 530 L92 707 L-58 707 C-58 707 -36 605 -4 592 L156 530 L179 530 L179 530 Z " />
<glyph glyph-name="a" unicode="a" horiz-adv-x="515" d="M170 339 C170 358 182 373 199 373 C238 373 258 350 258 315 L258 260 C108 222 31 162 31 97 C31 33 73 -10 136 -10 C190 -10 241 10 276 48 C297 11 334 -11 381 -11 C439 -11 490 30 510 91 L504 101 C502 94 495 90 486 90 C438 90 406 99 406 112 C406 259 407 354 407 354 C407 417 352 459 246 459 C134 459 49 404 49 330 C49 298 61 277 79 278 L164 278 L169 283 L170 339 L170 339 Z M257 190 L257 125 C257 116 258 107 259 99 C221 91 175 98 175 132 C175 152 203 172 257 189 L257 190 L257 190 Z " />
<glyph glyph-name="b" unicode="b" horiz-adv-x="579" d="M100 -10 L111 -10 L152 29 C170 5 228 -10 304 -10 C439 -10 529 97 529 257 C529 379 465 460 369 460 C326 460 283 449 250 430 L250 750 L220 750 L35 674 L35 668 L47 658 C79 631 100 612 100 612 L100 -10 L100 -10 Z M250 150 L250 336 C253 334 257 333 262 333 C332 333 378 286 378 216 C378 134 368 79 354 79 C300 79 258 107 250 149 L250 150 L250 150 Z " />
<glyph glyph-name="c" unicode="c" horiz-adv-x="478" d="M429 176 C401 148 366 130 343 130 C256 130 198 190 198 280 C198 333 214 368 239 368 C253 368 272 354 285 334 L322 277 L329 277 L425 317 C432 323 438 397 425 415 C407 442 350 460 282 460 C143 460 51 354 51 195 C51 72 135 -10 262 -10 C337 -10 406 57 435 158 L435 176 L429 176 L429 176 Z " />
<glyph glyph-name="d" unicode="d" horiz-adv-x="592" d="M544 0 L544 18 L474 50 L474 749 L444 749 L259 691 L259 686 L284 666 C308 647 324 634 324 634 L324 459 C312 460 300 460 287 460 C144 460 48 351 48 188 C48 69 109 -10 200 -10 C248 -10 297 12 328 46 L343 0 L544 0 L544 0 Z M324 316 L324 118 C319 116 313 115 306 115 C241 115 197 163 197 235 C197 315 223 368 263 368 C263 368 286 348 324 315 L324 316 L324 316 Z " />
<glyph glyph-name="e" unicode="e" horiz-adv-x="485" d="M199 295 C202 343 222 373 250 373 C273 373 290 343 297 295 L199 295 Z M368 242 L435 247 C435 375 366 460 262 460 C135 460 51 354 51 195 C51 72 135 -10 262 -10 C337 -10 406 57 435 158 L435 176 L429 176 C401 148 366 130 343 130 C269 130 216 174 202 242 L368 242 L368 242 Z " />
<glyph glyph-name="f" unicode="f" horiz-adv-x="420" d="M318 0 L318 18 L253 50 L254 362 L385 362 L385 450 L254 450 L255 575 C255 585 263 595 275 595 C313 595 346 591 359 585 C373 578 386 574 386 574 L393 574 L439 694 C446 716 441 727 415 739 C415 739 386 749 374 749 C244 749 103 614 103 489 L103 449 L40 449 L40 361 L103 361 L103 49 L38 17 L38 -1 L318 0 L318 0 Z " />
<glyph glyph-name="g" unicode="g" horiz-adv-x="563" d="M233 305 C233 354 240 386 253 386 C281 386 300 350 300 297 C300 244 296 209 288 209 C255 209 233 247 233 305 L233 305 Z M79 300 C79 243 103 197 144 168 C89 143 55 104 55 64 C55 18 82 -17 127 -32 C77 -52 46 -100 46 -126 C46 -194 126 -240 245 -240 C382 -240 474 -158 474 -34 C474 40 442 90 358 90 L229 90 C204 90 187 104 187 126 C187 138 187 147 188 147 C211 139 237 135 265 135 C390 135 454 202 454 302 C454 320 451 337 446 353 L514 349 L514 450 L393 424 C361 447 318 460 267 460 C144 460 80 396 80 300 L79 300 L79 300 Z M182 -40 L283 -40 C323 -40 338 -53 338 -73 C338 -141 309 -187 265 -187 C214 -187 180 -154 180 -105 C180 -66 181 -40 182 -40 L182 -40 Z " />
<glyph glyph-name="h" unicode="h" horiz-adv-x="608" d="M568 0 L568 18 L503 50 L503 343 C503 413 457 460 387 460 C348 460 307 433 265 392 L265 751 L235 751 L50 675 L50 669 L62 659 C94 632 115 613 115 613 L115 51 L50 19 L50 1 L568 0 L568 0 Z M309 29 L265 51 L265 326 C274 328 287 329 305 329 C335 329 355 301 355 258 C354 259 354 126 354 51 L309 29 L309 29 Z " />
<glyph glyph-name="i" unicode="i" horiz-adv-x="387" d="M186 610 C234 610 266 642 266 690 C266 738 234 770 186 770 C138 770 106 738 106 690 C106 642 138 610 186 610 L186 610 Z M339 0 L339 18 L269 50 L269 460 L239 460 L54 384 L54 378 L66 368 C98 341 119 322 119 322 L119 50 L54 18 L54 0 L339 0 L339 0 Z " />
<glyph glyph-name="j" unicode="j" horiz-adv-x="387" d="M194 610 C242 610 274 642 274 690 C274 738 242 770 194 770 C146 770 114 738 114 690 C114 642 146 610 194 610 L194 610 Z M56 -205 L56 -238 C247 -119 269 -61 269 5 L269 460 L239 460 L54 384 L54 378 L66 368 C98 341 119 322 119 322 L119 -17 C119 -106 125 -162 56 -205 L56 -205 Z " />
<glyph glyph-name="k" unicode="k" horiz-adv-x="623" d="M571 450 L332 450 L332 429 L398 390 L265 255 L265 760 L235 760 L50 684 L50 678 L62 668 C94 641 115 622 115 622 L115 50 L50 18 L50 0 L335 0 L335 18 L265 50 L265 227 L380 0 L599 0 L599 18 L543 50 L386 293 L509 400 L571 431 L571 450 L571 450 Z " />
<glyph glyph-name="l" unicode="l" horiz-adv-x="368" d="M324 0 L324 18 L259 50 L259 760 L229 760 L44 684 L44 678 L56 668 C88 641 109 622 109 622 L109 50 L44 18 L44 0 L324 0 L324 0 Z " />
<glyph glyph-name="m" unicode="m" horiz-adv-x="829" d="M789 0 L789 18 L724 50 L724 343 C724 413 679 460 612 460 C573 460 529 429 483 382 C470 430 430 460 376 460 C339 460 299 431 256 387 C254 423 252 460 252 460 L222 460 L45 384 L45 378 L57 368 C89 341 110 322 110 322 L110 50 L45 18 L45 0 L789 0 L789 0 Z M531 30 L488 50 L488 323 C497 326 510 328 528 328 C556 328 574 300 574 257 C573 258 573 125 573 50 L531 30 L531 30 Z M297 32 L259 50 L259 325 C267 327 278 328 293 328 C320 328 338 300 338 257 C337 258 337 125 337 50 L297 32 L297 32 Z " />
<glyph glyph-name="n" unicode="n" horiz-adv-x="608" d="M568 0 L568 18 L503 50 L503 343 C503 413 457 460 387 460 C346 460 304 431 261 387 C259 423 257 460 257 460 L227 460 L50 384 L50 378 L62 368 C94 341 115 322 115 322 L115 50 L50 18 L50 0 L568 0 L568 0 Z M309 30 L265 50 L265 325 C274 327 287 328 305 328 C335 328 355 300 355 257 C354 258 354 125 354 50 L309 30 L309 30 Z " />
<glyph glyph-name="o" unicode="o" horiz-adv-x="558" d="M223 225 C223 319 234 382 254 382 C303 382 336 319 336 225 C336 131 325 68 304 68 C255 68 223 131 223 225 L223 225 Z M50 225 C50 84 142 -10 279 -10 C430 -10 508 84 508 225 C508 366 416 460 279 460 C128 460 50 366 50 225 L50 225 Z " />
<glyph glyph-name="p" unicode="p" horiz-adv-x="590" d="M260 401 C258 432 257 460 257 460 L227 460 L50 384 L50 378 L62 368 C94 341 115 322 115 322 L115 -180 L50 -212 L50 -230 L335 -230 L335 -212 L265 -180 L265 -10 C275 -10 285 -10 296 -10 C442 -10 540 97 540 258 C540 379 481 460 393 460 C354 460 303 437 260 401 L260 401 Z M265 122 L265 333 C271 334 279 334 287 334 C351 334 393 276 393 190 C393 124 374 80 346 80 C327 80 295 97 265 122 L265 122 Z " />
<glyph glyph-name="q" unicode="q" horiz-adv-x="616" d="M576 -230 L576 -212 L511 -180 L511 460 L500 460 L457 440 C427 453 372 461 311 461 C154 461 50 352 50 189 C50 70 118 -9 220 -9 C257 -9 311 14 360 51 L360 -179 L290 -211 L290 -229 L576 -230 L576 -230 Z M360 332 L360 123 C350 120 338 118 325 118 C249 118 198 166 198 238 C198 318 233 371 286 371 C299 371 326 357 361 333 L360 332 L360 332 Z " />
<glyph glyph-name="r" unicode="r" horiz-adv-x="460" d="M374 460 C345 460 307 428 264 377 L264 379 L260 379 C258 417 256 460 256 460 L226 460 L49 384 L49 378 L61 368 C93 341 114 322 114 322 L114 50 L49 18 L49 0 L334 0 L334 18 L264 50 L264 308 C269 310 275 311 281 311 C309 311 340 305 360 297 C372 291 398 271 398 271 L405 271 C437 337 459 387 459 396 C459 415 451 434 438 446 C428 456 394 458 373 458 L374 460 L374 460 Z " />
<glyph glyph-name="s" unicode="s" horiz-adv-x="458" d="M373 281 L373 429 L370 383 L373 429 C341 448 280 460 221 460 C134 460 76 405 76 322 C76 227 111 181 178 166 C229 154 256 131 256 87 C256 69 240 57 215 57 C215 57 178 61 179 64 C146 73 114 98 99 127 C92 141 81 160 74 174 L60 174 L60 16 C93 0 159 -10 224 -10 C322 -10 388 48 388 135 C388 235 350 283 275 300 C231 310 208 333 208 379 C208 393 251 385 251 385 C291 376 329 342 347 300 C349 294 354 287 356 281 L373 281 L373 281 Z " />
<glyph glyph-name="t" unicode="t" horiz-adv-x="433" d="M404 111 L398 129 C397 125 369 123 330 123 C287 123 259 146 259 181 L259 362 L391 362 L391 450 L259 450 L259 586 L248 586 L109 450 L18 373 L18 362 L109 362 L109 149 C109 54 167 -10 253 -10 C315 -10 376 38 404 111 L404 111 Z " />
<glyph glyph-name="u" unicode="u" horiz-adv-x="570" d="M329 400 L329 126 C320 127 307 127 291 127 C261 127 241 155 241 197 C242 196 242 450 242 450 L27 450 L27 432 L92 400 L92 107 C92 37 138 -10 206 -10 C242 -10 287 9 330 48 L330 0 L550 0 L550 18 L480 50 L480 450 L260 450 L260 432 L329 400 L329 400 Z " />
<glyph glyph-name="v" unicode="v" horiz-adv-x="560" d="M281 426 L350 395 L286 222 C260 281 234 341 209 400 L281 426 L281 426 Z M-24 450 L-24 432 L45 400 C103 267 160 133 220 0 L260 0 L439 395 L515 431 L515 450 L-24 450 L-24 450 Z " />
<glyph glyph-name="w" unicode="w" horiz-adv-x="855" d="M340 450 L23 450 L23 432 L89 400 C134 267 180 134 225 0 L272 0 L405 246 C450 164 496 83 540 0 L579 0 L752 395 L828 431 L828 450 L583 450 L583 431 L663 395 L598 213 C552 292 506 372 459 451 L427 451 L423 439 L308 203 C287 269 266 335 246 401 L340 433 L340 450 L340 450 Z " />
<glyph glyph-name="x" unicode="x" horiz-adv-x="600" d="M262 0 L552 0 L552 18 L499 50 L347 265 L459 400 L520 432 L520 450 L33 450 L33 432 L85 400 L209 217 C168 161 128 105 87 50 L29 18 L29 0 L247 0 L247 18 L173 50 L244 165 C270 127 296 89 322 51 L261 19 L262 0 L262 0 Z M319 430 L373 401 L312 314 L251 401 L319 430 L319 430 Z " />
<glyph glyph-name="y" unicode="y" horiz-adv-x="547" d="M5 432 C28 421 51 410 74 399 L228 18 L311 214 L236 399 L316 427 L387 394 L204 -37 C191 -71 173 -84 141 -84 L53 -84 L49 -88 L49 -186 C49 -226 67 -241 113 -241 C180 -241 225 -191 274 -63 C338 89 402 242 467 394 L542 430 L542 449 L5 449 L5 432 L5 432 Z " />
<glyph glyph-name="z" unicode="z" horiz-adv-x="498" d="M57 266 L74 266 L115 366 L231 366 C175 255 119 145 63 34 L63 0 L423 0 L423 189 L406 189 L373 84 L254 84 C307 190 360 296 414 401 L414 450 L122 450 L83 460 L73 460 C65 399 60 329 56 266 L57 266 L57 266 Z " />
<glyph glyph-name="braceleft" unicode="&#x7b;" horiz-adv-x="268" d="M149 298 C204 327 237 382 237 452 C237 509 154 586 154 643 C154 697 185 712 232 709 L264 707 L264 750 L245 750 C114 750 26 724 26 584 C26 533 126 465 126 414 C126 357 98 319 49 319 L24 319 L24 275 L49 275 C95 275 126 244 126 198 C126 148 27 80 27 30 C27 -129 114 -156 245 -156 L264 -156 L264 -113 L230 -116 C184 -120 154 -98 154 -29 C154 28 238 103 238 160 C238 223 205 272 150 298 L149 298 L149 298 Z " />
<glyph glyph-name="bar" unicode="&#x7c;" horiz-adv-x="247" d="M53 -260 L147 -260 L147 760 L53 760 L53 -260 L53 -260 Z " />
<glyph glyph-name="braceright" unicode="&#x7d;" horiz-adv-x="260" d="M255 319 L230 319 C181 319 153 357 153 414 C153 465 252 533 252 584 C252 724 165 750 34 750 L15 750 L15 707 L47 709 C94 712 125 697 125 643 C125 586 41 509 41 452 C41 382 74 327 129 298 C74 272 41 223 41 160 C41 103 125 28 125 -29 C125 -98 95 -120 49 -116 L15 -113 L15 -156 L34 -156 C165 -156 252 -129 252 30 C252 80 153 148 153 198 C153 244 184 275 230 275 L255 275 L255 319 L255 319 Z " />
<glyph glyph-name="asciitilde" unicode="&#x7e;" horiz-adv-x="340" d="M39 225 C46 245 52 259 68 259 C116 259 180 204 228 204 C273 204 297 262 325 350 L301 350 C294 328 288 314 272 314 C224 314 160 369 112 369 C67 369 43 311 15 225 L39 225 L39 225 Z " />
<glyph glyph-name="exclamdown" unicode="&#xa1;" horiz-adv-x="307" d="M173 460 C125 460 93 428 93 380 C93 332 125 300 173 300 C221 300 253 332 253 380 C253 428 221 460 173 460 L173 460 Z M104 -210 L242 -210 L192 220 L154 220 L104 -210 L104 -210 Z " />
<glyph glyph-name="cent" unicode="&#xa2;" horiz-adv-x="478" d="M200 520 L200 446 C108 412 51 320 51 195 C51 93 108 19 200 -3 L200 -80 L276 -80 L276 -9 C345 -1 407 64 434 159 L434 177 L428 177 C382 131 335 118 275 146 L275 348 C278 344 281 340 284 336 L321 279 L328 279 L424 319 C431 325 437 399 424 417 C406 445 345 464 275 462 L275 522 L200 520 L200 520 Z M199 254 C196 272 196 295 199 313 L199 254 Z " />
<glyph glyph-name="guillemotleft" unicode="&#xab;" horiz-adv-x="433" d="M396 425 L196 248 L396 70 L413 70 L346 248 L413 425 L396 425 L396 425 Z M213 425 L13 248 L213 70 L230 70 L163 248 L230 425 L213 425 L213 425 Z " />
<glyph glyph-name="acute" unicode="&#xb4;" horiz-adv-x="340" d="M167 530 L190 530 L350 592 C382 605 404 707 404 707 L254 707 L167 530 L167 530 Z " />
<glyph glyph-name="periodcentered" unicode="&#xb7;" horiz-adv-x="290" d="M145 210 C193 210 225 242 225 290 C225 338 193 370 145 370 C97 370 65 338 65 290 C65 242 97 210 145 210 L145 210 Z " />
<glyph glyph-name="guillemotright" unicode="&#xbb;" horiz-adv-x="456" d="M213 425 L286 248 L213 70 L230 70 L436 248 L230 425 L213 425 L213 425 Z M20 425 L93 248 L20 70 L37 70 L243 248 L37 425 L20 425 L20 425 Z " />
<glyph glyph-name="questiondown" unicode="&#xbf;" horiz-adv-x="498" d="M247 455 C199 455 167 423 167 375 C167 327 199 295 247 295 C295 295 327 327 327 375 C327 423 295 455 247 455 L247 455 Z M294 -73 C294 -73 409 -56 458 -56 C458 -11 429 19 386 19 L309 19 C309 19 298 0 294 0 L294 -73 L294 -73 Z M294 -73 C294 -111 296 -137 299 -137 C256 -137 227 -92 227 -25 C227 14 262 66 315 105 C315 139 266 220 266 220 L230 220 L220 233 C121 159 55 56 55 -25 C55 -142 129 -220 241 -220 C371 -220 458 -154 458 -56 L294 -73 L294 -73 Z " />
<glyph glyph-name="Agrave" unicode="&#xc0;" horiz-adv-x="768" d="M389 705 L302 864 L152 864 C152 864 174 772 206 761 L367 705 L389 705 L389 705 Z M413 259 L298 259 L355 413 L413 259 L413 259 Z M404 0 L734 0 L734 16 L670 45 C588 252 506 459 424 666 L338 666 L95 51 L17 19 L17 1 L303 1 L303 19 L221 51 L260 157 L451 157 L451 161 L493 51 L404 19 L404 0 L404 0 Z " />
<glyph glyph-name="Aacute" unicode="&#xc1;" horiz-adv-x="768" d="M378 705 L400 705 L561 761 C593 772 615 864 615 864 L465 864 L378 705 L378 705 Z M413 259 L298 259 L355 413 L413 259 L413 259 Z M404 0 L734 0 L734 16 L670 45 C588 252 506 459 424 666 L338 666 L95 51 L17 19 L17 1 L303 1 L303 19 L221 51 L260 157 L451 157 L451 161 L493 51 L404 19 L404 0 L404 0 Z " />
<glyph glyph-name="Acircumflex" unicode="&#xc2;" horiz-adv-x="768" d="M554 705 L401 863 L371 863 L222 705 L245 705 L386 769 L531 705 L554 705 L554 705 Z M413 259 L298 259 L355 413 L413 259 L413 259 Z M404 0 L734 0 L734 16 L670 45 C588 252 506 459 424 666 L338 666 L95 51 L17 19 L17 1 L303 1 L303 19 L221 51 L260 157 L451 157 L451 161 L493 51 L404 19 L404 0 L404 0 Z " />
<glyph glyph-name="Atilde" unicode="&#xc3;" horiz-adv-x="768" d="M260 728 C267 746 273 758 288 758 C336 758 400 709 448 709 C494 709 518 761 546 840 L521 840 C514 820 508 808 493 808 C445 808 381 857 333 857 C287 857 263 805 235 728 L260 728 L260 728 Z M413 259 L298 259 L355 413 L413 259 L413 259 Z M404 0 L734 0 L734 16 L670 45 C588 252 506 459 424 666 L338 666 L95 51 L17 19 L17 1 L303 1 L303 19 L221 51 L260 157 L451 157 L451 161 L493 51 L404 19 L404 0 L404 0 Z " />
<glyph glyph-name="Adieresis" unicode="&#xc4;" horiz-adv-x="768" d="M511 735 C559 735 591 767 591 815 C591 863 559 895 511 895 C463 895 431 863 431 815 C431 767 463 735 511 735 L511 735 Z M261 735 C309 735 341 767 341 815 C341 863 309 895 261 895 C213 895 181 863 181 815 C181 767 213 735 261 735 L261 735 Z M413 259 L298 259 L355 413 L413 259 L413 259 Z M404 0 L734 0 L734 16 L670 45 C588 252 506 459 424 666 L338 666 L95 51 L17 19 L17 1 L303 1 L303 19 L221 51 L260 157 L451 157 L451 161 L493 51 L404 19 L404 0 L404 0 Z " />
<glyph glyph-name="Aring" unicode="&#xc5;" horiz-adv-x="768" d="M382 818 L382 854 C390 854 387 754 393 754 C387 754 382 783 382 818 L382 818 Z M289 805 C289 754 334 710 386 710 C438 710 482 756 482 809 C482 863 444 899 386 899 C328 899 289 861 289 805 L289 805 Z M413 259 L298 259 L355 413 L413 259 L413 259 Z M404 0 L734 0 L734 16 L670 45 C588 252 506 459 424 666 L338 666 L95 51 L17 19 L17 1 L303 1 L303 19 L221 51 L260 157 L451 157 L451 161 L493 51 L404 19 L404 0 L404 0 Z " />
<glyph glyph-name="Ccedilla" unicode="&#xc7;" horiz-adv-x="724" d="M545 131 C509 102 455 84 404 84 C307 84 243 195 243 361 C243 490 311 576 414 576 C452 576 491 560 518 534 C518 534 537 512 541 506 C562 476 591 435 612 405 C617 405 623 406 629 406 L620 629 C601 654 518 670 414 670 C206 670 68 524 68 304 C68 122 193 -2 384 -10 C376 -26 356 -68 330 -125 L384 -150 C396 -149 404 -156 404 -167 C404 -180 390 -188 368 -188 C344 -188 321 -178 310 -163 L310 -183 C335 -217 368 -240 394 -240 C467 -240 516 -199 516 -137 C516 -82 487 -43 440 -30 C444 -21 447 -14 449 -9 C539 -5 609 11 632 33 L644 241 C638 241 633 242 628 242 C610 216 585 182 567 156 C560 146 551 136 543 130 L545 131 L545 131 Z " />
<glyph glyph-name="Egrave" unicode="&#xc8;" horiz-adv-x="667" d="M352 705 L265 864 L115 864 C115 864 137 773 169 761 L329 705 L352 705 L352 705 Z M597 228 L580 228 L522 103 L313 103 L313 288 L422 288 L464 208 L487 208 L487 472 L464 472 L422 392 L313 392 L313 557 L497 557 L555 442 L572 442 L572 660 L64 660 L64 641 L144 605 L144 55 L64 19 L64 0 L597 0 L597 228 L597 228 Z " />
<glyph glyph-name="Eacute" unicode="&#xc9;" horiz-adv-x="667" d="M340 705 L363 705 L523 761 C555 773 577 864 577 864 L427 864 L340 705 L340 705 Z M597 228 L580 228 L522 103 L313 103 L313 288 L422 288 L464 208 L487 208 L487 472 L464 472 L422 392 L313 392 L313 557 L497 557 L555 442 L572 442 L572 660 L64 660 L64 641 L144 605 L144 55 L64 19 L64 0 L597 0 L597 228 L597 228 Z " />
<glyph glyph-name="Ecircumflex" unicode="&#xca;" horiz-adv-x="667" d="M511 705 L358 863 L328 863 L180 705 L202 705 L343 769 L489 705 L511 705 L511 705 Z M597 228 L580 228 L522 103 L313 103 L313 288 L422 288 L464 208 L487 208 L487 472 L464 472 L422 392 L313 392 L313 557 L497 557 L555 442 L572 442 L572 660 L64 660 L64 641 L144 605 L144 55 L64 19 L64 0 L597 0 L597 228 L597 228 Z " />
<glyph glyph-name="Edieresis" unicode="&#xcb;" horiz-adv-x="667" d="M468 735 C516 735 548 767 548 815 C548 863 516 895 468 895 C420 895 388 863 388 815 C388 767 420 735 468 735 L468 735 Z M218 735 C266 735 298 767 298 815 C298 863 266 895 218 895 C170 895 138 863 138 815 C138 767 170 735 218 735 L218 735 Z M597 228 L580 228 L522 103 L313 103 L313 288 L422 288 L464 208 L487 208 L487 472 L464 472 L422 392 L313 392 L313 557 L497 557 L555 442 L572 442 L572 660 L64 660 L64 641 L144 605 L144 55 L64 19 L64 0 L597 0 L597 228 L597 228 Z " />
<glyph glyph-name="Igrave" unicode="&#xcc;" horiz-adv-x="469" d="M243 705 L156 864 L6 864 C6 864 28 773 60 761 L220 705 L243 705 L243 705 Z M399 0 L399 19 L319 55 L319 605 L399 641 L399 660 L70 660 L70 641 L150 605 L150 55 L70 19 L70 0 L399 0 L399 0 Z " />
<glyph glyph-name="Iacute" unicode="&#xcd;" horiz-adv-x="469" d="M231 705 L254 705 L414 761 C446 773 468 864 468 864 L318 864 L231 705 L231 705 Z M399 0 L399 19 L319 55 L319 605 L399 641 L399 660 L70 660 L70 641 L150 605 L150 55 L70 19 L70 0 L399 0 L399 0 Z " />
<glyph glyph-name="Icircumflex" unicode="&#xce;" horiz-adv-x="469" d="M402 705 L249 863 L219 863 L71 705 L93 705 L234 769 L380 705 L402 705 L402 705 Z M399 0 L399 19 L319 55 L319 605 L399 641 L399 660 L70 660 L70 641 L150 605 L150 55 L70 19 L70 0 L399 0 L399 0 Z " />
<glyph glyph-name="Idieresis" unicode="&#xcf;" horiz-adv-x="469" d="M359 735 C407 735 439 767 439 815 C439 863 407 895 359 895 C311 895 279 863 279 815 C279 767 311 735 359 735 L359 735 Z M109 735 C157 735 189 767 189 815 C189 863 157 895 109 895 C61 895 29 863 29 815 C29 767 61 735 109 735 L109 735 Z M399 0 L399 19 L319 55 L319 605 L399 641 L399 660 L70 660 L70 641 L150 605 L150 55 L70 19 L70 0 L399 0 L399 0 Z " />
<glyph glyph-name="Ntilde" unicode="&#xd1;" horiz-adv-x="818" d="M293 728 C300 746 306 758 322 758 C370 758 434 709 482 709 C527 709 551 761 579 840 L555 840 C548 820 542 808 526 808 C478 808 414 857 366 857 C321 857 297 805 269 728 L293 728 L293 728 Z M65 641 L140 605 L140 55 L60 19 L60 0 L372 0 L372 19 L272 55 L272 394 C386 261 500 128 613 -5 L678 -5 L678 605 L753 641 L753 660 L447 660 L447 641 L547 605 L547 334 L272 660 L65 660 L65 641 L65 641 Z " />
<glyph glyph-name="Ograve" unicode="&#xd2;" horiz-adv-x="828" d="M408 705 L321 864 L171 864 C171 864 193 773 225 761 L385 705 L408 705 L408 705 Z M250 386 C250 501 302 578 381 578 C499 578 578 452 578 263 C578 156 528 84 452 84 C331 84 250 205 250 386 L250 386 Z M70 321 C70 122 208 -10 414 -10 C620 -10 758 125 758 328 C758 533 620 670 414 670 C208 670 70 530 70 321 L70 321 Z " />
<glyph glyph-name="Oacute" unicode="&#xd3;" horiz-adv-x="828" d="M396 705 L419 705 L579 761 C611 773 633 864 633 864 L483 864 L396 705 L396 705 Z M250 386 C250 501 302 578 381 578 C499 578 578 452 578 263 C578 156 528 84 452 84 C331 84 250 205 250 386 L250 386 Z M70 321 C70 122 208 -10 414 -10 C620 -10 758 125 758 328 C758 533 620 670 414 670 C208 670 70 530 70 321 L70 321 Z " />
<glyph glyph-name="Ocircumflex" unicode="&#xd4;" horiz-adv-x="828" d="M567 705 L414 863 L384 863 L236 705 L258 705 L399 769 L545 705 L567 705 L567 705 Z M250 386 C250 501 302 578 381 578 C499 578 578 452 578 263 C578 156 528 84 452 84 C331 84 250 205 250 386 L250 386 Z M70 321 C70 122 208 -10 414 -10 C620 -10 758 125 758 328 C758 533 620 670 414 670 C208 670 70 530 70 321 L70 321 Z " />
<glyph glyph-name="Otilde" unicode="&#xd5;" horiz-adv-x="828" d="M268 728 C275 746 281 758 297 758 C345 758 409 709 457 709 C502 709 526 761 554 840 L530 840 C523 820 517 808 501 808 C453 808 389 857 341 857 C296 857 272 805 244 728 L268 728 L268 728 Z M250 386 C250 501 302 578 381 578 C499 578 578 452 578 263 C578 156 528 84 452 84 C331 84 250 205 250 386 L250 386 Z M70 321 C70 122 208 -10 414 -10 C620 -10 758 125 758 328 C758 533 620 670 414 670 C208 670 70 530 70 321 L70 321 Z " />
<glyph glyph-name="Odieresis" unicode="&#xd6;" horiz-adv-x="828" d="M524 735 C572 735 604 767 604 815 C604 863 572 895 524 895 C476 895 444 863 444 815 C444 767 476 735 524 735 L524 735 Z M274 735 C322 735 354 767 354 815 C354 863 322 895 274 895 C226 895 194 863 194 815 C194 767 226 735 274 735 L274 735 Z M250 386 C250 501 302 578 381 578 C499 578 578 452 578 263 C578 156 528 84 452 84 C331 84 250 205 250 386 L250 386 Z M70 321 C70 122 208 -10 414 -10 C620 -10 758 125 758 328 C758 533 620 670 414 670 C208 670 70 530 70 321 L70 321 Z " />
<glyph glyph-name="Oslash" unicode="&#xd8;" horiz-adv-x="828" d="M70 321 C70 228 100 149 153 92 L69 -10 L198 -10 L232 32 C283 5 344 -10 413 -10 C619 -10 757 125 757 328 C757 425 726 507 672 566 L757 670 L628 670 L593 627 C542 655 481 670 413 670 C207 670 69 530 69 321 L70 321 L70 321 Z M503 518 L271 236 C257 279 249 330 249 386 C249 501 301 578 380 578 C429 578 471 557 504 519 L503 518 L503 518 Z M555 424 C570 378 578 324 578 263 C578 156 528 84 452 84 C402 84 359 105 325 143 L555 424 Z " />
<glyph glyph-name="Ugrave" unicode="&#xd9;" horiz-adv-x="806" d="M412 705 L325 864 L175 864 C175 864 197 773 229 761 L389 705 L412 705 L412 705 Z M125 605 L125 234 C125 88 232 -10 393 -10 C554 -10 661 88 661 234 L661 605 L741 641 L741 660 L430 660 L430 641 L530 605 L530 194 C530 137 496 99 444 99 C353 99 293 165 293 264 L294 605 L374 641 L374 660 L45 660 L45 641 L125 605 L125 605 Z " />
<glyph glyph-name="Uacute" unicode="&#xda;" horiz-adv-x="806" d="M390 705 L413 705 L573 761 C605 773 627 864 627 864 L477 864 L390 705 L390 705 Z M125 605 L125 234 C125 88 232 -10 393 -10 C554 -10 661 88 661 234 L661 605 L741 641 L741 660 L430 660 L430 641 L530 605 L530 194 C530 137 496 99 444 99 C353 99 293 165 293 264 L294 605 L374 641 L374 660 L45 660 L45 641 L125 605 L125 605 Z " />
<glyph glyph-name="Ucircumflex" unicode="&#xdb;" horiz-adv-x="806" d="M571 705 L418 863 L388 863 L240 705 L262 705 L403 769 L549 705 L571 705 L571 705 Z M125 605 L125 234 C125 88 232 -10 393 -10 C554 -10 661 88 661 234 L661 605 L741 641 L741 660 L430 660 L430 641 L530 605 L530 194 C530 137 496 99 444 99 C353 99 293 165 293 264 L294 605 L374 641 L374 660 L45 660 L45 641 L125 605 L125 605 Z " />
<glyph glyph-name="Udieresis" unicode="&#xdc;" horiz-adv-x="806" d="M528 735 C576 735 608 767 608 815 C608 863 576 895 528 895 C480 895 448 863 448 815 C448 767 480 735 528 735 L528 735 Z M278 735 C326 735 358 767 358 815 C358 863 326 895 278 895 C230 895 198 863 198 815 C198 767 230 735 278 735 L278 735 Z M125 605 L125 234 C125 88 232 -10 393 -10 C554 -10 661 88 661 234 L661 605 L741 641 L741 660 L430 660 L430 641 L530 605 L530 194 C530 137 496 99 444 99 C353 99 293 165 293 264 L294 605 L374 641 L374 660 L45 660 L45 641 L125 605 L125 605 Z " />
<glyph glyph-name="Yacute" unicode="&#xdd;" horiz-adv-x="732" d="M360 705 L382 705 L543 761 C575 772 597 864 597 864 L447 864 L360 705 L360 705 Z M427 641 L509 605 L399 424 C357 484 314 545 272 605 L343 641 L343 660 L31 660 L31 642 L93 610 L292 316 L292 54 L202 18 L202 -1 L551 -1 L551 18 L461 54 L461 325 L643 619 L699 645 L699 659 L428 659 L427 641 L427 641 Z " />
<glyph glyph-name="agrave" unicode="&#xe0;" horiz-adv-x="515" d="M256 530 L169 707 L19 707 C19 707 41 605 73 592 L233 530 L256 530 L256 530 Z M170 339 C170 358 182 373 199 373 C238 373 258 350 258 315 L258 260 C108 222 31 162 31 97 C31 33 73 -10 136 -10 C190 -10 241 10 276 48 C297 11 334 -11 381 -11 C439 -11 490 30 510 91 L504 101 C502 94 495 90 486 90 C438 90 406 99 406 112 C406 259 407 354 407 354 C407 417 352 459 246 459 C134 459 49 404 49 330 C49 298 61 277 79 278 L164 278 L169 283 L170 339 L170 339 Z M257 190 L257 125 C257 116 258 107 259 99 C221 91 175 98 175 132 C175 152 203 172 257 189 L257 190 L257 190 Z " />
<glyph glyph-name="aacute" unicode="&#xe1;" horiz-adv-x="515" d="M244 530 L267 530 L427 592 C459 605 481 707 481 707 L331 707 L244 530 L244 530 Z M170 339 C170 358 182 373 199 373 C238 373 258 350 258 315 L258 260 C108 222 31 162 31 97 C31 33 73 -10 136 -10 C190 -10 241 10 276 48 C297 11 334 -11 381 -11 C439 -11 490 30 510 91 L504 101 C502 94 495 90 486 90 C438 90 406 99 406 112 C406 259 407 354 407 354 C407 417 352 459 246 459 C134 459 49 404 49 330 C49 298 61 277 79 278 L164 278 L169 283 L170 339 L170 339 Z M257 190 L257 125 C257 116 258 107 259 99 C221 91 175 98 175 132 C175 152 203 172 257 189 L257 190 L257 190 Z " />
<glyph glyph-name="acircumflex" unicode="&#xe2;" horiz-adv-x="515" d="M415 530 L262 705 L232 705 L84 530 L106 530 L247 601 L393 530 L415 530 L415 530 Z M170 339 C170 358 182 373 199 373 C238 373 258 350 258 315 L258 260 C108 222 31 162 31 97 C31 33 73 -10 136 -10 C190 -10 241 10 276 48 C297 11 334 -11 381 -11 C439 -11 490 30 510 91 L504 101 C502 94 495 90 486 90 C438 90 406 99 406 112 C406 259 407 354 407 354 C407 417 352 459 246 459 C134 459 49 404 49 330 C49 298 61 277 79 278 L164 278 L169 283 L170 339 L170 339 Z M257 190 L257 125 C257 116 258 107 259 99 C221 91 175 98 175 132 C175 152 203 172 257 189 L257 190 L257 190 Z " />
<glyph glyph-name="atilde" unicode="&#xe3;" horiz-adv-x="515" d="M101 555 C108 575 114 589 130 589 C178 589 242 534 290 534 C335 534 359 592 387 680 L363 680 C356 658 350 644 334 644 C286 644 222 699 174 699 C129 699 105 641 77 555 L101 555 L101 555 Z M170 339 C170 358 182 373 199 373 C238 373 258 350 258 315 L258 260 C108 222 31 162 31 97 C31 33 73 -10 136 -10 C190 -10 241 10 276 48 C297 11 334 -11 381 -11 C439 -11 490 30 510 91 L504 101 C502 94 495 90 486 90 C438 90 406 99 406 112 C406 259 407 354 407 354 C407 417 352 459 246 459 C134 459 49 404 49 330 C49 298 61 277 79 278 L164 278 L169 283 L170 339 L170 339 Z M257 190 L257 125 C257 116 258 107 259 99 C221 91 175 98 175 132 C175 152 203 172 257 189 L257 190 L257 190 Z " />
<glyph glyph-name="adieresis" unicode="&#xe4;" horiz-adv-x="515" d="M357 570 C405 570 437 602 437 650 C437 698 405 730 357 730 C309 730 277 698 277 650 C277 602 309 570 357 570 L357 570 Z M107 570 C155 570 187 602 187 650 C187 698 155 730 107 730 C59 730 27 698 27 650 C27 602 59 570 107 570 L107 570 Z M170 339 C170 358 182 373 199 373 C238 373 258 350 258 315 L258 260 C108 222 31 162 31 97 C31 33 73 -10 136 -10 C190 -10 241 10 276 48 C297 11 334 -11 381 -11 C439 -11 490 30 510 91 L504 101 C502 94 495 90 486 90 C438 90 406 99 406 112 C406 259 407 354 407 354 C407 417 352 459 246 459 C134 459 49 404 49 330 C49 298 61 277 79 278 L164 278 L169 283 L170 339 L170 339 Z M257 190 L257 125 C257 116 258 107 259 99 C221 91 175 98 175 132 C175 152 203 172 257 189 L257 190 L257 190 Z " />
<glyph glyph-name="aring" unicode="&#xe5;" horiz-adv-x="515" d="M234 643 C234 665 234 679 233 679 C243 679 239 579 245 579 C239 579 234 608 234 643 L234 643 Z M141 630 C141 579 185 535 237 535 C289 535 333 581 333 634 C333 688 295 724 237 724 C179 724 141 686 141 630 L141 630 Z M170 339 C170 358 182 373 199 373 C238 373 258 350 258 315 L258 260 C108 222 31 162 31 97 C31 33 73 -10 136 -10 C190 -10 241 10 276 48 C297 11 334 -11 381 -11 C439 -11 490 30 510 91 L504 101 C502 94 495 90 486 90 C438 90 406 99 406 112 C406 259 407 354 407 354 C407 417 352 459 246 459 C134 459 49 404 49 330 C49 298 61 277 79 278 L164 278 L169 283 L170 339 L170 339 Z M257 190 L257 125 C257 116 258 107 259 99 C221 91 175 98 175 132 C175 152 203 172 257 189 L257 190 L257 190 Z " />
<glyph glyph-name="ccedilla" unicode="&#xe7;" horiz-adv-x="478" d="M298 -30 C306 -12 311 -2 311 -2 L307 -2 C364 19 413 78 436 159 L436 177 L430 177 C402 149 367 131 344 131 C257 131 199 191 199 281 C199 334 215 369 240 369 C254 369 273 355 286 335 L323 278 L330 278 L426 318 C433 324 439 398 426 416 C408 443 351 461 283 461 C144 461 52 355 52 196 C52 79 127 -1 243 -9 C235 -25 215 -67 189 -124 L243 -149 C255 -148 263 -155 263 -166 C263 -179 249 -187 227 -187 C203 -187 180 -177 169 -162 L169 -182 C194 -216 227 -239 253 -239 C326 -239 375 -198 375 -136 C375 -81 346 -42 299 -29 L298 -30 L298 -30 Z " />
<glyph glyph-name="egrave" unicode="&#xe8;" horiz-adv-x="485" d="M262 530 L175 707 L25 707 C25 707 47 605 79 592 L239 530 L262 530 L262 530 Z M199 295 C202 343 222 373 250 373 C273 373 290 343 297 295 L199 295 Z M368 242 L435 247 C435 375 366 460 262 460 C135 460 51 354 51 195 C51 72 135 -10 262 -10 C337 -10 406 57 435 158 L435 176 L429 176 C401 148 366 130 343 130 C269 130 216 174 202 242 L368 242 L368 242 Z " />
<glyph glyph-name="eacute" unicode="&#xe9;" horiz-adv-x="485" d="M250 530 L273 530 L433 592 C465 605 487 707 487 707 L337 707 L250 530 L250 530 Z M199 295 C202 343 222 373 250 373 C273 373 290 343 297 295 L199 295 Z M368 242 L435 247 C435 375 366 460 262 460 C135 460 51 354 51 195 C51 72 135 -10 262 -10 C337 -10 406 57 435 158 L435 176 L429 176 C401 148 366 130 343 130 C269 130 216 174 202 242 L368 242 L368 242 Z " />
<glyph glyph-name="ecircumflex" unicode="&#xea;" horiz-adv-x="485" d="M421 530 L268 705 L238 705 L90 530 L112 530 L253 601 L399 530 L421 530 L421 530 Z M199 295 C202 343 222 373 250 373 C273 373 290 343 297 295 L199 295 Z M368 242 L435 247 C435 375 366 460 262 460 C135 460 51 354 51 195 C51 72 135 -10 262 -10 C337 -10 406 57 435 158 L435 176 L429 176 C401 148 366 130 343 130 C269 130 216 174 202 242 L368 242 L368 242 Z " />
<glyph glyph-name="edieresis" unicode="&#xeb;" horiz-adv-x="485" d="M378 570 C426 570 458 602 458 650 C458 698 426 730 378 730 C330 730 298 698 298 650 C298 602 330 570 378 570 L378 570 Z M128 570 C176 570 208 602 208 650 C208 698 176 730 128 730 C80 730 48 698 48 650 C48 602 80 570 128 570 L128 570 Z M199 295 C202 343 222 373 250 373 C273 373 290 343 297 295 L199 295 Z M368 242 L435 247 C435 375 366 460 262 460 C135 460 51 354 51 195 C51 72 135 -10 262 -10 C337 -10 406 57 435 158 L435 176 L429 176 C401 148 366 130 343 130 C269 130 216 174 202 242 L368 242 L368 242 Z " />
<glyph glyph-name="igrave" unicode="&#xec;" horiz-adv-x="387" d="M198 530 L111 707 L-39 707 C-39 707 -17 605 15 592 L175 530 L198 530 L198 530 Z M334 0 L334 18 L269 50 L269 460 L239 460 L54 384 L54 378 L66 368 C98 341 119 322 119 322 L119 50 L54 18 L54 0 L334 0 L334 0 Z " />
<glyph glyph-name="iacute" unicode="&#xed;" horiz-adv-x="387" d="M186 530 L209 530 L369 592 C401 605 423 707 423 707 L273 707 L186 530 L186 530 Z M334 0 L334 18 L269 50 L269 460 L239 460 L54 384 L54 378 L66 368 C98 341 119 322 119 322 L119 50 L54 18 L54 0 L334 0 L334 0 Z " />
<glyph glyph-name="icircumflex" unicode="&#xee;" horiz-adv-x="387" d="M357 530 L204 705 L174 705 L26 530 L48 530 L189 601 L335 530 L357 530 L357 530 Z M334 0 L334 18 L269 50 L269 460 L239 460 L54 384 L54 378 L66 368 C98 341 119 322 119 322 L119 50 L54 18 L54 0 L334 0 L334 0 Z " />
<glyph glyph-name="idieresis" unicode="&#xef;" horiz-adv-x="387" d="M314 570 C362 570 394 602 394 650 C394 698 362 730 314 730 C266 730 234 698 234 650 C234 602 266 570 314 570 L314 570 Z M64 570 C112 570 144 602 144 650 C144 698 112 730 64 730 C16 730 -16 698 -16 650 C-16 602 16 570 64 570 L64 570 Z M334 0 L334 18 L269 50 L269 460 L239 460 L54 384 L54 378 L66 368 C98 341 119 322 119 322 L119 50 L54 18 L54 0 L334 0 L334 0 Z " />
<glyph glyph-name="ntilde" unicode="&#xf1;" horiz-adv-x="608" d="M178 555 C185 575 191 589 207 589 C255 589 319 534 367 534 C412 534 436 592 464 680 L440 680 C433 658 427 644 411 644 C363 644 299 699 251 699 C206 699 182 641 154 555 L178 555 L178 555 Z M568 0 L568 18 L503 50 L503 343 C503 413 457 460 387 460 C346 460 304 431 261 387 C259 423 257 460 257 460 L227 460 L50 384 L50 378 L62 368 C94 341 115 322 115 322 L115 50 L50 18 L50 0 L568 0 L568 0 Z M309 30 L265 50 L265 325 C274 327 287 328 305 328 C335 328 355 300 355 257 C354 258 354 125 354 50 L309 30 L309 30 Z " />
<glyph glyph-name="ograve" unicode="&#xf2;" horiz-adv-x="558" d="M288 530 L201 707 L51 707 C51 707 73 605 105 592 L265 530 L288 530 L288 530 Z M223 225 C223 319 234 382 254 382 C303 382 336 319 336 225 C336 131 325 68 304 68 C255 68 223 131 223 225 L223 225 Z M50 225 C50 84 142 -10 279 -10 C430 -10 508 84 508 225 C508 366 416 460 279 460 C128 460 50 366 50 225 L50 225 Z " />
<glyph glyph-name="oacute" unicode="&#xf3;" horiz-adv-x="558" d="M276 530 L299 530 L459 592 C491 605 513 707 513 707 L363 707 L276 530 L276 530 Z M223 225 C223 319 234 382 254 382 C303 382 336 319 336 225 C336 131 325 68 304 68 C255 68 223 131 223 225 L223 225 Z M50 225 C50 84 142 -10 279 -10 C430 -10 508 84 508 225 C508 366 416 460 279 460 C128 460 50 366 50 225 L50 225 Z " />
<glyph glyph-name="ocircumflex" unicode="&#xf4;" horiz-adv-x="558" d="M447 530 L294 705 L264 705 L116 530 L138 530 L279 601 L425 530 L447 530 L447 530 Z M223 225 C223 319 234 382 254 382 C303 382 336 319 336 225 C336 131 325 68 304 68 C255 68 223 131 223 225 L223 225 Z M50 225 C50 84 142 -10 279 -10 C430 -10 508 84 508 225 C508 366 416 460 279 460 C128 460 50 366 50 225 L50 225 Z " />
<glyph glyph-name="otilde" unicode="&#xf5;" horiz-adv-x="558" d="M148 555 C155 575 161 589 177 589 C225 589 289 534 337 534 C382 534 406 592 434 680 L410 680 C403 658 397 644 381 644 C333 644 269 699 221 699 C176 699 152 641 124 555 L148 555 L148 555 Z M223 225 C223 319 234 382 254 382 C303 382 336 319 336 225 C336 131 325 68 304 68 C255 68 223 131 223 225 L223 225 Z M50 225 C50 84 142 -10 279 -10 C430 -10 508 84 508 225 C508 366 416 460 279 460 C128 460 50 366 50 225 L50 225 Z " />
<glyph glyph-name="odieresis" unicode="&#xf6;" horiz-adv-x="558" d="M404 570 C452 570 484 602 484 650 C484 698 452 730 404 730 C356 730 324 698 324 650 C324 602 356 570 404 570 L404 570 Z M154 570 C202 570 234 602 234 650 C234 698 202 730 154 730 C106 730 74 698 74 650 C74 602 106 570 154 570 L154 570 Z M223 225 C223 319 234 382 254 382 C303 382 336 319 336 225 C336 131 325 68 304 68 C255 68 223 131 223 225 L223 225 Z M50 225 C50 84 142 -10 279 -10 C430 -10 508 84 508 225 C508 366 416 460 279 460 C128 460 50 366 50 225 L50 225 Z " />
<glyph glyph-name="oslash" unicode="&#xf8;" horiz-adv-x="558" d="M50 225 C50 160 69 105 103 65 L50 -10 L174 -10 L186 7 C214 -4 245 -10 279 -10 C430 -10 508 84 508 225 C508 290 489 345 455 385 L508 460 L384 460 L372 443 C344 454 313 460 279 460 C128 460 50 366 50 225 L50 225 Z M223 233 C224 322 235 381 254 381 C275 381 293 370 307 350 L223 233 Z M337 217 C336 127 325 67 305 67 C284 67 266 78 252 98 L337 217 Z " />
<glyph glyph-name="ugrave" unicode="&#xf9;" horiz-adv-x="570" d="M289 530 L202 707 L52 707 C52 707 74 605 106 592 L266 530 L289 530 L289 530 Z M329 400 L329 126 C320 127 307 127 291 127 C261 127 241 155 241 197 C242 196 242 450 242 450 L27 450 L27 432 L92 400 L92 107 C92 37 138 -10 206 -10 C242 -10 287 9 330 48 L330 0 L550 0 L550 18 L480 50 L480 450 L260 450 L260 432 L329 400 L329 400 Z " />
<glyph glyph-name="uacute" unicode="&#xfa;" horiz-adv-x="570" d="M277 530 L300 530 L460 592 C492 605 514 707 514 707 L364 707 L277 530 L277 530 Z M329 400 L329 126 C320 127 307 127 291 127 C261 127 241 155 241 197 C242 196 242 450 242 450 L27 450 L27 432 L92 400 L92 107 C92 37 138 -10 206 -10 C242 -10 287 9 330 48 L330 0 L550 0 L550 18 L480 50 L480 450 L260 450 L260 432 L329 400 L329 400 Z " />
<glyph glyph-name="ucircumflex" unicode="&#xfb;" horiz-adv-x="570" d="M448 530 L295 705 L265 705 L117 530 L139 530 L280 601 L426 530 L448 530 L448 530 Z M329 400 L329 126 C320 127 307 127 291 127 C261 127 241 155 241 197 C242 196 242 450 242 450 L27 450 L27 432 L92 400 L92 107 C92 37 138 -10 206 -10 C242 -10 287 9 330 48 L330 0 L550 0 L550 18 L480 50 L480 450 L260 450 L260 432 L329 400 L329 400 Z " />
<glyph glyph-name="udieresis" unicode="&#xfc;" horiz-adv-x="570" d="M405 570 C453 570 485 602 485 650 C485 698 453 730 405 730 C357 730 325 698 325 650 C325 602 357 570 405 570 L405 570 Z M155 570 C203 570 235 602 235 650 C235 698 203 730 155 730 C107 730 75 698 75 650 C75 602 107 570 155 570 L155 570 Z M329 400 L329 126 C320 127 307 127 291 127 C261 127 241 155 241 197 C242 196 242 450 242 450 L27 450 L27 432 L92 400 L92 107 C92 37 138 -10 206 -10 C242 -10 287 9 330 48 L330 0 L550 0 L550 18 L480 50 L480 450 L260 450 L260 432 L329 400 L329 400 Z " />
<glyph glyph-name="yacute" unicode="&#xfd;" horiz-adv-x="487" d="M305 530 L327 530 L488 592 C520 604 542 707 542 707 L392 707 L305 530 L305 530 Z M-25 432 C-2 421 21 410 44 399 L198 18 L281 214 L206 399 L286 427 L357 394 L174 -37 C161 -71 143 -84 111 -84 L23 -84 L19 -88 L19 -186 C19 -226 37 -241 83 -241 C150 -241 195 -191 244 -63 C308 89 372 242 437 394 L512 430 L512 449 L-25 449 L-25 432 L-25 432 Z " />
<glyph glyph-name="ydieresis" unicode="&#xff;" horiz-adv-x="487" d="M433 570 C481 570 513 602 513 650 C513 698 481 730 433 730 C385 730 353 698 353 650 C353 602 385 570 433 570 L433 570 Z M183 570 C231 570 263 602 263 650 C263 698 231 730 183 730 C135 730 103 698 103 650 C103 602 135 570 183 570 L183 570 Z M-25 432 C-2 421 21 410 44 399 L198 18 L281 214 L206 399 L286 427 L357 394 L174 -37 C161 -71 143 -84 111 -84 L23 -84 L19 -88 L19 -186 C19 -226 37 -241 83 -241 C150 -241 195 -191 244 -63 C308 89 372 242 437 394 L512 430 L512 449 L-25 449 L-25 432 L-25 432 Z " />
<glyph glyph-name="Amacron" unicode="&#x100;" horiz-adv-x="768" d="M253 761 L519 761 L519 854 L253 854 L253 761 L253 761 Z M413 259 L298 259 L355 413 L413 259 L413 259 Z M404 0 L734 0 L734 16 L670 45 C588 252 506 459 424 666 L338 666 L95 51 L17 19 L17 1 L303 1 L303 19 L221 51 L260 157 L451 157 L451 161 L493 51 L404 19 L404 0 L404 0 Z " />
<glyph glyph-name="amacron" unicode="&#x101;" horiz-adv-x="515" d="M104 591 L370 591 L370 684 L104 684 L104 591 L104 591 Z M170 339 C170 358 182 373 199 373 C238 373 258 350 258 315 L258 260 C108 222 31 162 31 97 C31 33 73 -10 136 -10 C190 -10 241 10 276 48 C297 11 334 -11 381 -11 C439 -11 490 30 510 91 L504 101 C502 94 495 90 486 90 C438 90 406 99 406 112 C406 259 407 354 407 354 C407 417 352 459 246 459 C134 459 49 404 49 330 C49 298 61 277 79 278 L164 278 L169 283 L170 339 L170 339 Z M257 190 L257 125 C257 116 258 107 259 99 C221 91 175 98 175 132 C175 152 203 172 257 189 L257 190 L257 190 Z " />
<glyph glyph-name="Abreve" unicode="&#x102;" horiz-adv-x="768" d="M242 872 L215 872 C256 758 304 714 386 714 C467 714 515 758 556 872 L530 872 C518 840 478 827 386 827 C294 827 254 840 242 872 L242 872 Z M413 259 L298 259 L355 413 L413 259 L413 259 Z M404 0 L734 0 L734 16 L670 45 C588 252 506 459 424 666 L338 666 L95 51 L17 19 L17 1 L303 1 L303 19 L221 51 L260 157 L451 157 L451 161 L493 51 L404 19 L404 0 L404 0 Z " />
<glyph glyph-name="abreve" unicode="&#x103;" horiz-adv-x="515" d="M93 716 L67 716 C108 589 156 540 237 540 C318 540 366 589 407 716 L381 716 C369 680 329 666 237 666 C145 666 105 680 93 716 L93 716 Z M170 339 C170 358 182 373 199 373 C238 373 258 350 258 315 L258 260 C108 222 31 162 31 97 C31 33 73 -10 136 -10 C190 -10 241 10 276 48 C297 11 334 -11 381 -11 C439 -11 490 30 510 91 L504 101 C502 94 495 90 486 90 C438 90 406 99 406 112 C406 259 407 354 407 354 C407 417 352 459 246 459 C134 459 49 404 49 330 C49 298 61 277 79 278 L164 278 L169 283 L170 339 L170 339 Z M257 190 L257 125 C257 116 258 107 259 99 C221 91 175 98 175 132 C175 152 203 172 257 189 L257 190 L257 190 Z " />
<glyph glyph-name="Cacute" unicode="&#x106;" horiz-adv-x="724" d="M367 705 L390 705 L550 761 C582 773 604 864 604 864 L454 864 L367 705 L367 705 Z M545 131 C509 102 455 84 404 84 C307 84 243 195 243 361 C243 490 311 576 414 576 C452 576 491 560 518 534 C518 534 537 512 541 506 C562 476 591 435 612 405 C617 405 623 406 629 406 L620 629 C601 654 518 670 414 670 C206 670 68 524 68 304 C68 116 202 -10 404 -10 C515 -10 606 8 633 34 L645 242 C639 242 634 243 629 243 C611 217 586 183 568 157 C561 147 552 137 544 131 L545 131 L545 131 Z " />
<glyph glyph-name="cacute" unicode="&#x107;" horiz-adv-x="478" d="M260 530 L283 530 L443 592 C475 605 497 707 497 707 L347 707 L260 530 L260 530 Z M429 176 C401 148 366 130 343 130 C256 130 198 190 198 280 C198 333 214 368 239 368 C253 368 272 354 285 334 L322 277 L329 277 L425 317 C432 323 438 397 425 415 C407 442 350 460 282 460 C143 460 51 354 51 195 C51 72 135 -10 262 -10 C337 -10 406 57 435 158 L435 176 L429 176 L429 176 Z " />
<glyph glyph-name="Ccaron" unicode="&#x10c;" horiz-adv-x="724" d="M545 131 C509 102 455 84 404 84 C307 84 243 195 243 361 C243 490 311 576 414 576 C452 576 491 560 518 534 C518 534 537 512 541 506 C562 476 591 435 612 405 C617 405 623 406 629 406 L620 629 C601 654 518 670 414 670 C206 670 68 524 68 304 C68 116 202 -10 404 -10 C515 -10 606 8 633 34 L645 242 C639 242 634 243 629 243 C611 217 586 183 568 157 C561 147 552 137 544 131 L545 131 L545 131 Z M404 710 L557 867 L535 867 L389 803 L248 867 L226 867 L374 710 L404 710 L404 710 Z " />
<glyph glyph-name="ccaron" unicode="&#x10d;" horiz-adv-x="478" d="M278 535 L431 710 L409 710 L263 639 L122 710 L100 710 L248 535 L278 535 L278 535 Z M429 176 C401 148 366 130 343 130 C256 130 198 190 198 280 C198 333 214 368 239 368 C253 368 272 354 285 334 L322 277 L329 277 L425 317 C432 323 438 397 425 415 C407 442 350 460 282 460 C143 460 51 354 51 195 C51 72 135 -10 262 -10 C337 -10 406 57 435 158 L435 176 L429 176 L429 176 Z " />
<glyph glyph-name="Dcaron" unicode="&#x10e;" horiz-adv-x="795" d="M460 710 L613 867 L590 867 L445 803 L304 867 L281 867 L430 710 L460 710 L460 710 Z M407 0 C598 0 725 132 725 367 C725 560 584 660 373 660 L64 660 L64 641 L144 605 L144 55 L64 19 L64 0 L407 0 L407 0 Z M313 103 L313 556 C317 556 321 556 325 556 C459 556 549 470 549 303 C549 174 491 103 403 103 L313 103 L313 103 Z " />
<glyph glyph-name="dcaron" unicode="&#x10f;" horiz-adv-x="592" d="M709 751 C707 750 704 750 698 750 L558 750 L531 563 L554 563 L709 751 L709 751 Z M709 751 L727 772 C715 757 715 752 709 750 L709 751 L709 751 Z M544 -1 L544 17 L474 49 L474 748 L444 748 L259 690 L259 685 L284 665 C308 646 324 633 324 633 L324 458 C312 459 300 459 287 459 C144 459 48 350 48 187 C48 68 109 -11 200 -11 C248 -11 297 11 328 45 L343 -1 L544 -1 L544 -1 Z M324 315 L324 117 C319 115 313 114 306 114 C241 114 197 162 197 234 C197 314 223 367 263 367 C263 367 286 347 324 314 L324 315 L324 315 Z " />
<glyph glyph-name="Emacron" unicode="&#x112;" horiz-adv-x="667" d="M210 761 L476 761 L476 854 L210 854 L210 761 L210 761 Z M597 228 L580 228 L522 103 L313 103 L313 288 L422 288 L464 208 L487 208 L487 472 L464 472 L422 392 L313 392 L313 557 L497 557 L555 442 L572 442 L572 660 L64 660 L64 641 L144 605 L144 55 L64 19 L64 0 L597 0 L597 228 L597 228 Z " />
<glyph glyph-name="emacron" unicode="&#x113;" horiz-adv-x="485" d="M125 591 L391 591 L391 684 L125 684 L125 591 L125 591 Z M199 295 C202 343 222 373 250 373 C273 373 290 343 297 295 L199 295 Z M368 242 L435 247 C435 375 366 460 262 460 C135 460 51 354 51 195 C51 72 135 -10 262 -10 C337 -10 406 57 435 158 L435 176 L429 176 C401 148 366 130 343 130 C269 130 216 174 202 242 L368 242 L368 242 Z " />
<glyph glyph-name="Edot" unicode="&#x116;" horiz-adv-x="667" d="M348 725 C396 725 428 757 428 805 C428 853 396 885 348 885 C300 885 268 853 268 805 C268 757 300 725 348 725 L348 725 Z M597 228 L580 228 L522 103 L313 103 L313 288 L422 288 L464 208 L487 208 L487 472 L464 472 L422 392 L313 392 L313 557 L497 557 L555 442 L572 442 L572 660 L64 660 L64 641 L144 605 L144 55 L64 19 L64 0 L597 0 L597 228 L597 228 Z " />
<glyph glyph-name="edot" unicode="&#x117;" horiz-adv-x="485" d="M263 583 C311 583 343 615 343 663 C343 711 311 743 263 743 C215 743 183 711 183 663 C183 615 215 583 263 583 L263 583 Z M199 295 C202 343 222 373 250 373 C273 373 290 343 297 295 L199 295 Z M368 242 L435 247 C435 375 366 460 262 460 C135 460 51 354 51 195 C51 72 135 -10 262 -10 C337 -10 406 57 435 158 L435 176 L429 176 C401 148 366 130 343 130 C269 130 216 174 202 242 L368 242 L368 242 Z " />
<glyph glyph-name="Ecaron" unicode="&#x11a;" horiz-adv-x="667" d="M358 710 L511 867 L489 867 L343 803 L202 867 L180 867 L328 710 L358 710 L358 710 Z M597 228 L580 228 L522 103 L313 103 L313 288 L422 288 L464 208 L487 208 L487 472 L464 472 L422 392 L313 392 L313 557 L497 557 L555 442 L572 442 L572 660 L64 660 L64 641 L144 605 L144 55 L64 19 L64 0 L597 0 L597 228 L597 228 Z " />
<glyph glyph-name="ecaron" unicode="&#x11b;" horiz-adv-x="485" d="M268 535 L421 710 L399 710 L253 639 L112 710 L90 710 L238 535 L268 535 L268 535 Z M199 295 C202 343 222 373 250 373 C273 373 290 343 297 295 L199 295 Z M368 242 L435 247 C435 375 366 460 262 460 C135 460 51 354 51 195 C51 72 135 -10 262 -10 C337 -10 406 57 435 158 L435 176 L429 176 C401 148 366 130 343 130 C269 130 216 174 202 242 L368 242 L368 242 Z " />
<glyph glyph-name="Gbreve" unicode="&#x11e;" horiz-adv-x="782" d="M256 872 L230 872 C271 758 319 714 400 714 C481 714 529 758 570 872 L544 872 C532 840 492 827 400 827 C308 827 268 840 256 872 L256 872 Z M662 235 L737 271 L737 290 L408 290 L408 271 L493 235 L493 110 C480 104 468 100 458 100 C330 100 244 204 244 361 C244 490 316 576 425 576 C469 576 515 557 544 528 C549 522 556 514 563 505 C584 475 613 434 634 404 C639 404 645 405 651 405 L642 628 C621 653 535 669 426 669 C212 669 70 523 70 303 C70 115 205 -11 407 -11 C487 -11 589 47 663 135 L662 235 L662 235 Z " />
<glyph glyph-name="gbreve" unicode="&#x11f;" horiz-adv-x="563" d="M127 716 L101 716 C142 589 190 540 271 540 C352 540 400 589 441 716 L415 716 C403 680 363 666 271 666 C179 666 139 680 127 716 L127 716 Z M233 305 C233 354 240 386 253 386 C281 386 300 350 300 297 C300 244 296 209 288 209 C255 209 233 247 233 305 L233 305 Z M79 300 C79 243 103 197 144 168 C89 143 55 104 55 64 C55 18 82 -17 127 -32 C77 -52 46 -100 46 -126 C46 -194 126 -240 245 -240 C382 -240 474 -158 474 -34 C474 40 442 90 358 90 L229 90 C204 90 187 104 187 126 C187 138 187 147 188 147 C211 139 237 135 265 135 C390 135 454 202 454 302 C454 320 451 337 446 353 L514 349 L514 450 L393 424 C361 447 318 460 267 460 C144 460 80 396 80 300 L79 300 L79 300 Z M182 -40 L283 -40 C323 -40 338 -53 338 -73 C338 -141 309 -187 265 -187 C214 -187 180 -154 180 -105 C180 -66 181 -40 182 -40 L182 -40 Z " />
<glyph glyph-name="Itilde" unicode="&#x128;" horiz-adv-x="469" d="M103 705 C110 725 116 739 132 739 C180 739 244 684 292 684 C337 684 361 742 389 830 L365 830 C358 808 352 794 336 794 C288 794 224 849 176 849 C131 849 107 791 79 705 L103 705 L103 705 Z M399 0 L399 19 L319 55 L319 605 L399 641 L399 660 L70 660 L70 641 L150 605 L150 55 L70 19 L70 0 L399 0 L399 0 Z " />
<glyph glyph-name="itilde" unicode="&#x129;" horiz-adv-x="387" d="M63 530 C70 550 76 564 92 564 C140 564 204 509 252 509 C297 509 321 567 349 655 L325 655 C318 633 312 619 296 619 C248 619 184 674 136 674 C91 674 67 616 39 530 L63 530 L63 530 Z M334 0 L334 18 L269 50 L269 460 L239 460 L54 384 L54 378 L66 368 C98 341 119 322 119 322 L119 50 L54 18 L54 0 L334 0 L334 0 Z " />
<glyph glyph-name="Imacron" unicode="&#x12a;" horiz-adv-x="469" d="M101 761 L367 761 L367 854 L101 854 L101 761 L101 761 Z M399 0 L399 19 L319 55 L319 605 L399 641 L399 660 L70 660 L70 641 L150 605 L150 55 L70 19 L70 0 L399 0 L399 0 Z " />
<glyph glyph-name="imacron" unicode="&#x12b;" horiz-adv-x="387" d="M56 591 L322 591 L322 684 L56 684 L56 591 L56 591 Z M334 0 L334 18 L269 50 L269 460 L239 460 L54 384 L54 378 L66 368 C98 341 119 322 119 322 L119 50 L54 18 L54 0 L334 0 L334 0 Z " />
<glyph glyph-name="Idot" unicode="&#x130;" horiz-adv-x="469" d="M234 725 C282 725 314 757 314 805 C314 853 282 885 234 885 C186 885 154 853 154 805 C154 757 186 725 234 725 L234 725 Z M399 0 L399 19 L319 55 L319 605 L399 641 L399 660 L70 660 L70 641 L150 605 L150 55 L70 19 L70 0 L399 0 L399 0 Z " />
<glyph glyph-name="dotlessi" unicode="&#x131;" horiz-adv-x="387" d="M334 0 L334 18 L269 50 L269 460 L239 460 L54 384 L54 378 L66 368 C98 341 119 322 119 322 L119 50 L54 18 L54 0 L334 0 L334 0 Z " />
<glyph glyph-name="Lacute" unicode="&#x139;" horiz-adv-x="655" d="M211 705 L233 705 L394 761 C426 772 448 864 448 864 L298 864 L211 705 L211 705 Z M585 268 L567 268 L505 103 L313 103 L313 605 L398 641 L398 660 L64 660 L64 641 L144 605 L144 55 L64 19 L64 0 L585 0 L585 268 L585 268 Z " />
<glyph glyph-name="lacute" unicode="&#x13a;" horiz-adv-x="368" d="M165 765 L189 765 L357 821 C391 833 414 924 414 924 L256 924 L165 765 L165 765 Z M324 0 L324 18 L259 50 L259 760 L229 760 L44 684 L44 678 L56 668 C88 641 109 622 109 622 L109 50 L44 18 L44 0 L324 0 L324 0 Z " />
<glyph glyph-name="Lcaron" unicode="&#x13d;" horiz-adv-x="655" d="M588 661 C586 660 583 660 577 660 L437 660 L410 473 L433 473 L588 661 L588 661 Z M588 661 L606 682 C594 667 594 662 588 660 L588 661 L588 661 Z M585 267 L567 267 L505 102 L313 102 L313 604 L398 640 L398 659 L64 659 L64 640 L144 604 L144 54 L64 18 L64 -1 L585 -1 L585 267 L585 267 Z " />
<glyph glyph-name="lcaron" unicode="&#x13e;" horiz-adv-x="368" d="M494 751 C492 750 489 750 483 750 L343 750 L316 563 L339 563 L494 751 L494 751 Z M494 751 L512 772 C500 757 500 752 494 750 L494 751 L494 751 Z M324 -1 L324 17 L259 49 L259 759 L229 759 L44 683 L44 677 L56 667 C88 640 109 621 109 621 L109 49 L44 17 L44 -1 L324 -1 L324 -1 Z " />
<glyph glyph-name="Nacute" unicode="&#x143;" horiz-adv-x="818" d="M416 705 L439 705 L599 761 C631 773 653 864 653 864 L503 864 L416 705 L416 705 Z M65 641 L140 605 L140 55 L60 19 L60 0 L372 0 L372 19 L272 55 L272 394 C386 261 500 128 613 -5 L678 -5 L678 605 L753 641 L753 660 L447 660 L447 641 L547 605 L547 334 L272 660 L65 660 L65 641 L65 641 Z " />
<glyph glyph-name="nacute" unicode="&#x144;" horiz-adv-x="608" d="M306 530 L329 530 L489 592 C521 605 543 707 543 707 L393 707 L306 530 L306 530 Z M568 0 L568 18 L503 50 L503 343 C503 413 457 460 387 460 C346 460 304 431 261 387 C259 423 257 460 257 460 L227 460 L50 384 L50 378 L62 368 C94 341 115 322 115 322 L115 50 L50 18 L50 0 L568 0 L568 0 Z M309 30 L265 50 L265 325 C274 327 287 328 305 328 C335 328 355 300 355 257 C354 258 354 125 354 50 L309 30 L309 30 Z " />
<glyph glyph-name="Ncaron" unicode="&#x147;" horiz-adv-x="818" d="M434 710 L587 867 L565 867 L419 803 L278 867 L256 867 L404 710 L434 710 L434 710 Z M65 641 L140 605 L140 55 L60 19 L60 0 L372 0 L372 19 L272 55 L272 394 C386 261 500 128 613 -5 L678 -5 L678 605 L753 641 L753 660 L447 660 L447 641 L547 605 L547 334 L272 660 L65 660 L65 641 L65 641 Z " />
<glyph glyph-name="ncaron" unicode="&#x148;" horiz-adv-x="608" d="M324 535 L477 710 L455 710 L309 639 L168 710 L146 710 L294 535 L324 535 L324 535 Z M568 0 L568 18 L503 50 L503 343 C503 413 457 460 387 460 C346 460 304 431 261 387 C259 423 257 460 257 460 L227 460 L50 384 L50 378 L62 368 C94 341 115 322 115 322 L115 50 L50 18 L50 0 L568 0 L568 0 Z M309 30 L265 50 L265 325 C274 327 287 328 305 328 C335 328 355 300 355 257 C354 258 354 125 354 50 L309 30 L309 30 Z " />
<glyph glyph-name="Omacron" unicode="&#x14c;" horiz-adv-x="828" d="M266 761 L532 761 L532 854 L266 854 L266 761 L266 761 Z M250 386 C250 501 302 578 381 578 C499 578 578 452 578 263 C578 156 528 84 452 84 C331 84 250 205 250 386 L250 386 Z M70 321 C70 122 208 -10 414 -10 C620 -10 758 125 758 328 C758 533 620 670 414 670 C208 670 70 530 70 321 L70 321 Z " />
<glyph glyph-name="omacron" unicode="&#x14d;" horiz-adv-x="558" d="M146 591 L412 591 L412 684 L146 684 L146 591 L146 591 Z M223 225 C223 319 234 382 254 382 C303 382 336 319 336 225 C336 131 325 68 304 68 C255 68 223 131 223 225 L223 225 Z M50 225 C50 84 142 -10 279 -10 C430 -10 508 84 508 225 C508 366 416 460 279 460 C128 460 50 366 50 225 L50 225 Z " />
<glyph glyph-name="Racute" unicode="&#x154;" horiz-adv-x="738" d="M280 705 L303 705 L463 761 C495 773 517 864 517 864 L367 864 L280 705 L280 705 Z M725 18 C700 29 675 40 650 50 L472 288 C549 321 596 386 596 471 C596 584 507 660 374 660 L64 660 L64 641 L144 605 L144 55 L64 19 L64 0 L388 0 L388 19 L313 55 L313 219 L477 0 L725 0 L725 18 L725 18 Z M313 368 L313 557 L332 557 C380 557 412 516 412 455 C412 402 402 367 386 367 L313 368 L313 368 Z " />
<glyph glyph-name="racute" unicode="&#x155;" horiz-adv-x="460" d="M280 530 L302 530 L463 592 C495 604 517 707 517 707 L367 707 L280 530 L280 530 Z M374 460 C345 460 307 428 264 377 L264 379 L260 379 C258 417 256 460 256 460 L226 460 L49 384 L49 378 L61 368 C93 341 114 322 114 322 L114 50 L49 18 L49 0 L334 0 L334 18 L264 50 L264 308 C269 310 275 311 281 311 C309 311 340 305 360 297 C372 291 398 271 398 271 L405 271 C437 337 459 387 459 396 C459 415 451 434 438 446 C428 456 394 458 373 458 L374 460 L374 460 Z " />
<glyph glyph-name="Rcaron" unicode="&#x158;" horiz-adv-x="738" d="M725 18 C700 29 675 40 650 50 L472 288 C549 321 596 386 596 471 C596 584 507 660 374 660 L64 660 L64 641 L144 605 L144 55 L64 19 L64 0 L388 0 L388 19 L313 55 L313 219 L477 0 L725 0 L725 18 L725 18 Z M308 710 L461 867 L439 867 L293 803 L152 867 L130 867 L278 710 L308 710 L308 710 Z M313 368 L313 557 L332 557 C380 557 412 516 412 455 C412 402 402 367 386 367 L313 368 L313 368 Z " />
<glyph glyph-name="rcaron" unicode="&#x159;" horiz-adv-x="460" d="M298 535 L451 710 L428 710 L283 639 L142 710 L119 710 L268 535 L298 535 L298 535 Z M374 460 C345 460 307 428 264 377 L264 379 L260 379 C258 417 256 460 256 460 L226 460 L49 384 L49 378 L61 368 C93 341 114 322 114 322 L114 50 L49 18 L49 0 L334 0 L334 18 L264 50 L264 308 C269 310 275 311 281 311 C309 311 340 305 360 297 C372 291 398 271 398 271 L405 271 C437 337 459 387 459 396 C459 415 451 434 438 446 C428 456 394 458 373 458 L374 460 L374 460 Z " />
<glyph glyph-name="Sacute" unicode="&#x15a;" horiz-adv-x="565" d="M231 705 L254 705 L414 761 C446 773 468 864 468 864 L318 864 L231 705 L231 705 Z M114 80 C114 79 114 79 113 79 L114 80 Z M467 437 C474 437 481 438 488 438 L477 631 C461 654 389 669 298 669 C167 669 80 593 80 478 C80 395 131 332 230 272 C307 225 347 187 347 153 C347 107 325 77 291 77 C248 77 197 98 160 131 L160 131 C151 139 141 150 135 159 C117 185 94 219 76 245 C69 245 62 244 55 244 L65 28 C87 4 178 -12 291 -12 C422 -12 509 71 509 196 C509 282 453 350 344 416 C280 455 247 493 247 538 C247 609 347 570 377 547 L377 547 C398 531 446 465 468 436 L467 437 L467 437 Z " />
<glyph glyph-name="sacute" unicode="&#x15b;" horiz-adv-x="458" d="M223 530 L246 530 L406 592 C438 605 460 707 460 707 L310 707 L223 530 L223 530 Z M373 281 L373 429 L370 383 L373 429 C341 448 280 460 221 460 C134 460 76 405 76 322 C76 227 111 181 178 166 C229 154 256 131 256 87 C256 69 240 57 215 57 C215 57 178 61 179 64 C146 73 114 98 99 127 C92 141 81 160 74 174 L60 174 L60 16 C93 0 159 -10 224 -10 C322 -10 388 48 388 135 C388 235 350 283 275 300 C231 310 208 333 208 379 C208 393 251 385 251 385 C291 376 329 342 347 300 C349 294 354 287 356 281 L373 281 L373 281 Z " />
<glyph glyph-name="Scedilla" unicode="&#x15e;" horiz-adv-x="565" d="M468 438 C475 438 482 439 489 439 L478 632 C462 655 390 670 299 670 C168 670 81 594 81 479 C81 396 132 333 231 273 C308 226 348 188 348 154 C348 108 326 78 292 78 C249 78 198 99 161 132 L161 132 C152 140 142 151 136 160 C118 186 95 220 77 246 C70 246 63 245 56 245 L66 29 C87 6 169 -10 273 -12 C265 -29 245 -71 219 -128 L273 -153 C285 -152 293 -159 293 -170 C293 -183 279 -191 257 -191 C233 -191 210 -181 199 -166 L199 -186 C224 -220 257 -243 283 -243 C356 -243 405 -202 405 -140 C405 -85 376 -46 329 -33 C334 -22 338 -14 340 -9 C444 9 511 86 511 195 C511 281 455 349 346 415 C282 454 249 492 249 537 C249 608 349 569 379 546 L379 546 C400 530 448 464 470 435 L468 438 L468 438 Z M116 77 C116 76 116 76 115 76 L116 77 Z " />
<glyph glyph-name="scedilla" unicode="&#x15f;" horiz-adv-x="458" d="M373 281 L373 429 L370 383 L373 429 C341 448 280 460 221 460 C134 460 76 405 76 322 C76 227 111 181 178 166 C229 154 256 131 256 87 C256 69 240 57 215 57 C215 57 178 61 179 64 C146 73 114 98 99 127 C92 141 81 160 74 174 L60 174 L60 16 C90 2 146 -8 204 -10 C196 -27 176 -69 150 -126 L204 -151 C216 -150 224 -157 224 -168 C224 -181 210 -189 188 -189 C164 -189 141 -179 130 -164 L130 -184 C155 -218 188 -241 214 -241 C287 -241 336 -200 336 -138 C336 -83 307 -44 260 -31 C266 -19 270 -10 272 -6 C343 10 388 62 388 134 C388 234 350 282 275 299 C231 309 208 332 208 378 C208 392 251 384 251 384 C291 375 329 341 347 299 C349 293 354 286 356 280 L373 281 L373 281 Z " />
<glyph glyph-name="Scaron" unicode="&#x160;" horiz-adv-x="565" d="M264 710 L417 867 L395 867 L249 803 L108 867 L86 867 L234 710 L264 710 L264 710 Z M114 80 C114 79 114 79 113 79 L114 80 Z M467 437 C474 437 481 438 488 438 L477 631 C461 654 389 669 298 669 C167 669 80 593 80 478 C80 395 131 332 230 272 C307 225 347 187 347 153 C347 107 325 77 291 77 C248 77 197 98 160 131 L160 131 C151 139 141 150 135 159 C117 185 94 219 76 245 C69 245 62 244 55 244 L65 28 C87 4 178 -12 291 -12 C422 -12 509 71 509 196 C509 282 453 350 344 416 C280 455 247 493 247 538 C247 609 347 570 377 547 L377 547 C398 531 446 465 468 436 L467 437 L467 437 Z " />
<glyph glyph-name="scaron" unicode="&#x161;" horiz-adv-x="458" d="M241 535 L394 710 L372 710 L226 639 L85 710 L63 710 L211 535 L241 535 L241 535 Z M373 281 L373 429 L370 383 L373 429 C341 448 280 460 221 460 C134 460 76 405 76 322 C76 227 111 181 178 166 C229 154 256 131 256 87 C256 69 240 57 215 57 C215 57 178 61 179 64 C146 73 114 98 99 127 C92 141 81 160 74 174 L60 174 L60 16 C93 0 159 -10 224 -10 C322 -10 388 48 388 135 C388 235 350 283 275 300 C231 310 208 333 208 379 C208 393 251 385 251 385 C291 376 329 342 347 300 C349 294 354 287 356 281 L373 281 L373 281 Z " />
<glyph glyph-name="Tcaron" unicode="&#x164;" horiz-adv-x="693" d="M362 710 L515 867 L492 867 L347 803 L206 867 L183 867 L332 710 L362 710 L362 710 Z M531 0 L531 19 L431 55 L431 557 L568 557 L630 412 L648 412 L648 660 L45 660 L45 412 L63 412 L125 557 L262 557 L262 55 L162 19 L162 0 L531 0 L531 0 Z " />
<glyph glyph-name="tcaron" unicode="&#x165;" horiz-adv-x="433" d="M404 111 L398 129 C397 125 369 123 330 123 C287 123 259 146 259 181 L259 362 L391 362 L391 450 L259 450 L259 586 L248 586 L109 450 L18 373 L18 362 L109 362 L109 149 C109 54 167 -10 253 -10 C315 -10 376 38 404 111 L404 111 Z M494 751 C492 750 489 750 483 750 L343 750 L316 563 L339 563 L494 751 L494 751 Z M494 751 L512 772 C500 757 500 752 494 750 L494 751 L494 751 Z " />
<glyph glyph-name="Utilde" unicode="&#x168;" horiz-adv-x="806" d="M262 705 C269 725 275 739 291 739 C339 739 403 684 451 684 C496 684 520 742 548 830 L524 830 C517 808 511 794 495 794 C447 794 383 849 335 849 C290 849 266 791 238 705 L262 705 L262 705 Z M125 605 L125 234 C125 88 232 -10 393 -10 C554 -10 661 88 661 234 L661 605 L741 641 L741 660 L430 660 L430 641 L530 605 L530 194 C530 137 496 99 444 99 C353 99 293 165 293 264 L294 605 L374 641 L374 660 L45 660 L45 641 L125 605 L125 605 Z " />
<glyph glyph-name="utilde" unicode="&#x169;" horiz-adv-x="570" d="M149 535 C156 555 162 569 178 569 C226 569 290 514 338 514 C383 514 407 572 435 660 L411 660 C404 638 398 624 382 624 C334 624 270 679 222 679 C177 679 153 621 125 535 L149 535 L149 535 Z M329 400 L329 126 C320 127 307 127 291 127 C261 127 241 155 241 197 C242 196 242 450 242 450 L27 450 L27 432 L92 400 L92 107 C92 37 138 -10 206 -10 C242 -10 287 9 330 48 L330 0 L550 0 L550 18 L480 50 L480 450 L260 450 L260 432 L329 400 L329 400 Z " />
<glyph glyph-name="Umacron" unicode="&#x16a;" horiz-adv-x="806" d="M270 761 L536 761 L536 854 L270 854 L270 761 L270 761 Z M125 605 L125 234 C125 88 232 -10 393 -10 C554 -10 661 88 661 234 L661 605 L741 641 L741 660 L430 660 L430 641 L530 605 L530 194 C530 137 496 99 444 99 C353 99 293 165 293 264 L294 605 L374 641 L374 660 L45 660 L45 641 L125 605 L125 605 Z " />
<glyph glyph-name="umacron" unicode="&#x16b;" horiz-adv-x="570" d="M147 591 L413 591 L413 684 L147 684 L147 591 L147 591 Z M329 400 L329 126 C320 127 307 127 291 127 C261 127 241 155 241 197 C242 196 242 450 242 450 L27 450 L27 432 L92 400 L92 107 C92 37 138 -10 206 -10 C242 -10 287 9 330 48 L330 0 L550 0 L550 18 L480 50 L480 450 L260 450 L260 432 L329 400 L329 400 Z " />
<glyph glyph-name="Uring" unicode="&#x16e;" horiz-adv-x="806" d="M395 818 C395 840 395 854 394 854 C404 854 400 754 406 754 C400 754 395 783 395 818 L395 818 Z M302 805 C302 754 346 710 398 710 C450 710 494 756 494 809 C494 863 456 899 398 899 C340 899 302 861 302 805 L302 805 Z M125 605 L125 234 C125 88 232 -10 393 -10 C554 -10 661 88 661 234 L661 605 L741 641 L741 660 L430 660 L430 641 L530 605 L530 194 C530 137 496 99 444 99 C353 99 293 165 293 264 L294 605 L374 641 L374 660 L45 660 L45 641 L125 605 L125 605 Z " />
<glyph glyph-name="uring" unicode="&#x16f;" horiz-adv-x="570" d="M277 643 C277 665 277 679 276 679 C286 679 282 579 288 579 C282 579 277 608 277 643 L277 643 Z M184 630 C184 579 228 535 280 535 C332 535 376 581 376 634 C376 688 338 724 280 724 C222 724 184 686 184 630 L184 630 Z M329 400 L329 126 C320 127 307 127 291 127 C261 127 241 155 241 197 C242 196 242 450 242 450 L27 450 L27 432 L92 400 L92 107 C92 37 138 -10 206 -10 C242 -10 287 9 330 48 L330 0 L550 0 L550 18 L480 50 L480 450 L260 450 L260 432 L329 400 L329 400 Z " />
<glyph glyph-name="Ydieresis" unicode="&#x178;" horiz-adv-x="732" d="M498 735 C546 735 578 767 578 815 C578 863 546 895 498 895 C450 895 418 863 418 815 C418 767 450 735 498 735 L498 735 Z M248 735 C296 735 328 767 328 815 C328 863 296 895 248 895 C200 895 168 863 168 815 C168 767 200 735 248 735 L248 735 Z M427 641 L509 605 L399 424 C357 484 314 545 272 605 L343 641 L343 660 L31 660 L31 642 L93 610 L292 316 L292 54 L202 18 L202 -1 L551 -1 L551 18 L461 54 L461 325 L643 619 L699 645 L699 659 L428 659 L427 641 L427 641 Z " />
<glyph glyph-name="Zacute" unicode="&#x179;" horiz-adv-x="646" d="M314 705 L336 705 L497 761 C529 772 551 864 551 864 L401 864 L314 705 L314 705 Z M89 432 L107 432 L169 557 L359 557 C265 387 171 217 77 47 L77 0 L556 0 L556 238 L538 238 L476 103 L275 103 C364 263 453 423 542 583 L542 659 L90 659 L89 432 L89 432 Z " />
<glyph glyph-name="zacute" unicode="&#x17a;" horiz-adv-x="498" d="M241 530 L264 530 L424 592 C456 605 478 707 478 707 L328 707 L241 530 L241 530 Z M57 266 L74 266 L115 366 L231 366 C175 255 119 145 63 34 L63 0 L423 0 L423 189 L406 189 L373 84 L254 84 C307 190 360 296 414 401 L414 450 L122 450 L83 460 L73 460 C65 399 60 329 56 266 L57 266 L57 266 Z " />
<glyph glyph-name="Zdot" unicode="&#x17b;" horiz-adv-x="646" d="M327 725 C375 725 407 757 407 805 C407 853 375 885 327 885 C279 885 247 853 247 805 C247 757 279 725 327 725 L327 725 Z M89 432 L107 432 L169 557 L359 557 C265 387 171 217 77 47 L77 0 L556 0 L556 238 L538 238 L476 103 L275 103 C364 263 453 423 542 583 L542 659 L90 659 L89 432 L89 432 Z " />
<glyph glyph-name="zdot" unicode="&#x17c;" horiz-adv-x="498" d="M249 583 C297 583 329 615 329 663 C329 711 297 743 249 743 C201 743 169 711 169 663 C169 615 201 583 249 583 L249 583 Z M57 266 L74 266 L115 366 L231 366 C175 255 119 145 63 34 L63 0 L423 0 L423 189 L406 189 L373 84 L254 84 C307 190 360 296 414 401 L414 450 L122 450 L83 460 L73 460 C65 399 60 329 56 266 L57 266 L57 266 Z " />
<glyph glyph-name="Zcaron" unicode="&#x17d;" horiz-adv-x="646" d="M347 710 L500 867 L477 867 L332 803 L191 867 L168 867 L317 710 L347 710 L347 710 Z M89 432 L107 432 L169 557 L359 557 C265 387 171 217 77 47 L77 0 L556 0 L556 238 L538 238 L476 103 L275 103 C364 263 453 423 542 583 L542 659 L90 659 L89 432 L89 432 Z " />
<glyph glyph-name="zcaron" unicode="&#x17e;" horiz-adv-x="498" d="M259 535 L412 710 L390 710 L244 639 L103 710 L81 710 L229 535 L259 535 L259 535 Z M57 266 L74 266 L115 366 L231 366 C175 255 119 145 63 34 L63 0 L423 0 L423 189 L406 189 L373 84 L254 84 C307 190 360 296 414 401 L414 450 L122 450 L83 460 L73 460 C65 399 60 329 56 266 L57 266 L57 266 Z " />
<glyph glyph-name="oogonek" unicode="&#x1eb;" horiz-adv-x="763" d="M806 -118 L806 -93 C790 -102 753 -108 713 -108 C675 -108 596 -13 533 20 C633 65 693 158 693 280 C693 456 569 574 382 574 C195 574 70 454 70 274 C70 99 202 -18 399 -11 C478 -68 564 -164 610 -164 C681 -164 760 -146 807 -119 L806 -118 L806 -118 Z M233 333 C233 428 281 492 352 492 C461 492 533 384 533 221 C533 132 487 73 417 73 C307 73 233 177 233 333 L233 333 Z " />
<glyph glyph-name="G_sc" unicode="&#x262;" horiz-adv-x="720" d="M600 193 L675 229 L675 248 L363 248 L363 229 L448 193 L448 99 C437 93 426 89 417 89 C303 89 227 178 227 312 C227 419 291 491 387 491 C434 491 484 461 508 422 C527 391 552 351 571 320 C576 320 581 321 587 321 L579 533 L539 485 L579 533 C559 558 481 575 386 575 C195 575 68 449 68 261 C68 98 189 -10 370 -10 C441 -10 532 43 599 123 L600 193 L600 193 Z " />
<glyph glyph-name="I_sc" unicode="&#x26a;" horiz-adv-x="452" d="M382 0 L382 19 L302 55 L302 510 L382 546 L382 565 L70 565 L70 546 L150 510 L150 55 L70 19 L70 0 L382 0 L382 0 Z " />
<glyph glyph-name="N_sc" unicode="&#x274;" horiz-adv-x="756" d="M66 546 L141 510 L141 55 L61 19 L61 0 L359 0 L359 19 L259 55 L259 332 C359 220 459 108 559 -4 L615 -4 L615 511 L690 547 L690 566 L396 566 L396 547 L496 511 L496 296 L258 566 L65 566 L66 546 L66 546 Z " />
<glyph glyph-name="R_sc" unicode="&#x280;" horiz-adv-x="665" d="M652 18 C628 29 604 40 579 50 L431 253 C491 282 527 335 527 403 C527 500 453 564 342 564 L65 564 L65 545 L145 509 L145 54 L65 18 L65 -1 L372 -1 L372 18 L297 54 L297 180 L428 -1 L653 -1 L652 18 L652 18 Z M297 321 L297 472 C302 472 305 472 305 472 C340 472 363 438 363 388 C363 347 358 320 350 320 L297 321 L297 321 Z " />
<glyph glyph-name="Y_sc" unicode="&#x28f;" horiz-adv-x="669" d="M326 565 L31 565 L31 547 L94 515 L267 275 L267 55 L177 19 L177 0 L509 0 L509 19 L419 55 L419 284 C472 364 525 445 578 525 L635 551 L635 565 L376 565 L376 546 L455 510 L366 373 C330 419 294 465 259 511 L326 547 L326 565 L326 565 Z " />
<glyph glyph-name="B_sc" unicode="&#x299;" horiz-adv-x="612" d="M436 323 C480 350 505 387 505 431 C505 511 447 564 333 564 L64 564 L64 545 L144 509 L144 54 L64 18 L64 -1 L333 -1 C470 -1 562 71 562 180 C562 245 519 296 436 322 L436 323 L436 323 Z M296 345 L296 472 C329 471 346 438 346 388 C346 368 327 352 296 344 L296 345 L296 345 Z M296 91 L296 247 L340 247 C382 247 403 215 403 166 C403 121 375 91 333 91 L296 91 L296 91 Z " />
<glyph glyph-name="H_sc" unicode="&#x29c;" horiz-adv-x="765" d="M700 0 L700 19 L620 55 L620 510 L700 546 L700 565 L388 565 L388 546 L468 510 L468 337 L296 337 L296 510 L376 546 L376 565 L64 565 L64 546 L144 510 L144 55 L64 19 L64 0 L376 0 L376 19 L296 55 L296 245 L468 245 L468 55 L388 19 L388 0 L700 0 L700 0 Z " />
<glyph glyph-name="L_sc" unicode="&#x29f;" horiz-adv-x="590" d="M520 258 L502 258 L440 93 L296 93 L296 510 L381 546 L381 565 L64 565 L64 546 L144 510 L144 55 L64 19 L64 0 L520 0 L520 258 L520 258 Z " />
<glyph glyph-name="circumflex" unicode="&#x2c6;" horiz-adv-x="340" d="M338 530 L185 705 L155 705 L7 530 L29 530 L170 601 L316 530 L338 530 L338 530 Z " />
<glyph glyph-name="caron" unicode="&#x2c7;" horiz-adv-x="340" d="M185 535 L338 710 L316 710 L170 639 L29 710 L7 710 L155 535 L185 535 L185 535 Z " />
<glyph glyph-name="firsttonechinese" unicode="&#x2c9;" horiz-adv-x="340" d="M37 526 L303 526 L303 619 L37 619 L37 526 L37 526 Z " />
<glyph glyph-name="breve" unicode="&#x2d8;" horiz-adv-x="340" d="M26 736 L0 736 C41 609 89 560 170 560 C251 560 299 609 340 736 L314 736 C302 700 262 686 170 686 C78 686 38 700 26 736 L26 736 Z " />
<glyph glyph-name="dotaccent" unicode="&#x2d9;" horiz-adv-x="340" d="M170 610 C218 610 250 642 250 690 C250 738 218 770 170 770 C122 770 90 738 90 690 C90 642 122 610 170 610 L170 610 Z " />
<glyph glyph-name="ring" unicode="&#x2da;" horiz-adv-x="340" d="M167 638 C167 660 167 674 166 674 C176 674 172 574 178 574 C172 574 167 603 167 638 L167 638 Z M74 625 C74 574 118 530 170 530 C222 530 266 576 266 629 C266 683 228 719 170 719 C112 719 74 681 74 625 L74 625 Z " />
<glyph glyph-name="A_sc" unicode="&#x1d00;" horiz-adv-x="704" d="M376 220 L274 220 L324 349 L376 220 L376 220 Z M357 0 L669 0 L669 16 L605 45 C532 220 459 396 385 571 L310 571 L96 51 L17 19 L17 1 L290 1 L290 19 L209 51 L239 129 L412 129 L412 133 L445 51 L357 19 L357 0 L357 0 Z " />
<glyph glyph-name="C_sc" unicode="&#x1d04;" horiz-adv-x="662" d="M492 121 C459 92 411 74 368 74 C283 74 227 169 227 312 C227 419 287 491 377 491 C409 491 444 475 468 449 C468 449 484 427 488 422 C507 391 532 351 551 320 C556 320 561 321 567 321 L559 533 C541 558 467 575 376 575 C191 575 68 449 68 261 C68 98 188 -10 367 -10 C464 -10 545 8 571 35 L537 84 L571 35 L582 232 C576 232 571 233 566 233 C550 207 528 172 512 146 C510 142 492 120 492 120 L492 121 L492 121 Z " />
<glyph glyph-name="D_sc" unicode="&#x1d05;" horiz-adv-x="731" d="M379 0 C548 0 661 113 661 314 C661 480 536 565 349 565 L64 565 L64 546 L144 510 L144 55 L64 19 L64 0 L379 0 L379 0 Z M296 93 L296 472 C421 472 502 404 502 256 C502 151 451 93 375 93 L296 93 L296 93 Z " />
<glyph glyph-name="E_sc" unicode="&#x1d07;" horiz-adv-x="603" d="M533 218 L516 218 L458 93 L296 93 L296 245 L358 245 L400 165 L423 165 L423 417 L400 417 L358 337 L296 337 L296 472 L433 472 L491 357 L508 357 L508 565 L64 565 L64 546 L144 510 L144 55 L64 19 L64 0 L533 0 L533 218 L533 218 Z " />
<glyph glyph-name="J_sc" unicode="&#x1d0a;" horiz-adv-x="452" d="M150 510 L150 50 C150 -11 139 -51 122 -51 C122 -51 66 -45 32 -36 L26 -36 C26 -36 9 -124 9 -130 C9 -156 31 -173 65 -173 C207 -173 302 -17 302 218 L302 510 L382 546 L382 565 L70 565 L70 546 L150 510 L150 510 Z " />
<glyph glyph-name="K_sc" unicode="&#x1d0b;" horiz-adv-x="752" d="M726 14 L665 40 L432 331 L620 525 L685 551 L685 565 L390 565 L390 547 L472 515 L299 289 L509 0 L726 0 L726 14 L726 14 Z M378 0 L378 19 L298 55 L298 510 L378 546 L378 565 L66 565 L66 546 L146 510 L146 55 L66 19 L66 0 L378 0 L378 0 Z " />
<glyph glyph-name="M_sc" unicode="&#x1d0d;" horiz-adv-x="918" d="M77 546 L164 510 L142 55 L60 19 L60 0 L325 0 L325 19 L242 55 L252 352 L396 -5 L472 -5 L627 354 L640 55 L562 19 L562 0 L855 0 L855 19 L784 55 L764 510 L851 546 L851 565 L618 565 L470 205 L326 565 L76 565 L77 546 L77 546 Z " />
<glyph glyph-name="O_sc" unicode="&#x1d0f;" horiz-adv-x="763" d="M232 334 C232 429 280 493 351 493 C460 493 532 385 532 222 C532 133 486 74 416 74 C306 74 232 178 232 334 L232 334 Z M70 275 C70 104 195 -10 382 -10 C569 -10 693 106 693 281 C693 457 569 575 382 575 C195 575 70 455 70 275 L70 275 Z " />
<glyph glyph-name="P_sc" unicode="&#x1d18;" horiz-adv-x="596" d="M391 0 L391 19 L296 55 L296 229 L316 229 C442 229 526 299 526 404 C526 501 452 565 341 565 L64 565 L64 546 L144 510 L144 55 L64 19 L64 0 L391 0 L391 0 Z M296 322 L296 473 C301 473 304 473 304 473 C339 473 362 439 362 389 C362 348 357 321 349 321 L296 322 L296 322 Z " />
<glyph glyph-name="T_sc" unicode="&#x1d1b;" horiz-adv-x="629" d="M490 0 L490 19 L390 55 L390 472 L504 472 L566 327 L584 327 L584 565 L45 565 L45 327 L63 327 L125 472 L239 472 L239 55 L139 19 L139 0 L490 0 L490 0 Z " />
<glyph glyph-name="U_sc" unicode="&#x1d1c;" horiz-adv-x="747" d="M383 546 C416 534 449 522 482 510 L483 164 C483 118 454 88 410 88 C331 88 279 144 279 227 L280 510 L360 546 L360 565 L48 565 L48 546 L128 510 L128 200 C128 74 223 -10 365 -10 C507 -10 601 74 601 200 L601 510 L681 546 L681 565 L382 565 L383 546 L383 546 Z " />
<glyph glyph-name="V_sc" unicode="&#x1d20;" horiz-adv-x="686" d="M401 546 L478 510 L276 29 L345 195 L253 510 L347 546 L347 565 L31 565 L31 547 L98 515 C161 342 226 170 288 -4 L362 -4 L596 526 L653 552 L653 566 L401 566 L401 546 L401 546 Z " />
<glyph glyph-name="W_sc" unicode="&#x1d21;" horiz-adv-x="931" d="M646 546 L727 510 L568 41 L585 -5 L650 -5 L657 13 L846 525 L911 551 L911 565 L646 565 L646 546 L646 546 Z M335 565 L18 565 L18 547 L81 515 C127 342 173 169 218 -5 L286 -5 C343 110 399 225 456 340 L567 41 L629 226 C593 341 557 456 521 570 L447 570 C394 454 341 338 288 222 L234 509 L334 545 L335 565 L335 565 Z " />
<glyph glyph-name="Z_sc" unicode="&#x1d22;" horiz-adv-x="586" d="M92 347 L110 347 L172 472 L317 472 C238 329 159 186 80 43 L80 1 L496 1 L496 229 L478 229 L416 94 L257 94 C332 229 406 365 481 500 L481 566 L92 566 L92 347 L92 347 Z " />
<glyph glyph-name="Etilde" unicode="&#x1ebc;" horiz-adv-x="667" d="M227 705 C234 725 240 739 256 739 C304 739 368 684 416 684 C461 684 485 742 513 830 L489 830 C482 808 476 794 460 794 C412 794 348 849 300 849 C255 849 231 791 203 705 L227 705 L227 705 Z M597 228 L580 228 L522 103 L313 103 L313 288 L422 288 L464 208 L487 208 L487 472 L464 472 L422 392 L313 392 L313 557 L497 557 L555 442 L572 442 L572 660 L64 660 L64 641 L144 605 L144 55 L64 19 L64 0 L597 0 L597 228 L597 228 Z " />
<glyph glyph-name="endash" unicode="&#x2013;" horiz-adv-x="500" d="M50 220 L450 220 L450 314 L50 314 L50 220 L50 220 Z " />
<glyph glyph-name="emdash" unicode="&#x2014;" horiz-adv-x="1000" d="M50 220 L950 220 L950 314 L50 314 L50 220 L50 220 Z " />
<glyph glyph-name="quoteleft" unicode="&#x2018;" horiz-adv-x="263" d="M174 607 C143 618 122 645 122 673 C122 698 158 713 211 712 L211 750 C113 752 47 699 47 617 C47 559 81 508 131 490 C165 479 183 475 197 509 L220 568 L220 583 L174 607 L174 607 Z " />
<glyph glyph-name="quoteright" unicode="&#x2019;" horiz-adv-x="263" d="M84 633 C115 622 136 595 136 567 C136 542 100 527 47 528 L47 490 C145 488 211 541 211 623 C211 681 177 732 127 750 C93 761 75 765 61 731 L38 672 L38 657 L84 633 L84 633 Z " />
<glyph glyph-name="quotedblleft" unicode="&#x201c;" horiz-adv-x="472" d="M174 607 C143 618 122 645 122 673 C122 698 158 712 211 712 L211 750 C113 750 47 699 47 617 C47 559 81 508 131 490 C165 479 183 475 197 509 L220 568 L220 583 L174 607 L174 607 Z M383 607 C352 618 331 645 331 673 C331 698 367 712 420 712 L420 750 C322 750 256 699 256 617 C256 559 290 508 340 490 C374 479 392 475 406 509 L429 568 L429 583 L383 607 L383 607 Z " />
<glyph glyph-name="quotedblright" unicode="&#x201d;" horiz-adv-x="472" d="M293 633 C324 622 345 595 345 567 C345 542 309 527 256 528 L256 490 C354 488 420 541 420 623 C420 681 386 732 336 750 C302 761 284 765 270 731 L247 672 L247 657 L293 633 L293 633 Z M84 633 C115 622 136 595 136 567 C136 542 100 527 47 528 L47 490 C145 488 211 541 211 623 C211 681 177 732 127 750 C93 761 75 765 61 731 L38 672 L38 657 L84 633 L84 633 Z " />
<glyph glyph-name="bullet" unicode="&#x2022;" horiz-adv-x="580" d="M290 106 C386 106 450 170 450 266 C450 362 386 426 290 426 C194 426 130 362 130 266 C130 170 194 106 290 106 L290 106 Z " />
<glyph glyph-name="ellipsis" unicode="&#x2026;" horiz-adv-x="730" d="M585 -10 C633 -10 665 22 665 70 C665 118 633 150 585 150 C537 150 505 118 505 70 C505 22 537 -10 585 -10 L585 -10 Z M365 -10 C413 -10 445 22 445 70 C445 118 413 150 365 150 C317 150 285 118 285 70 C285 22 317 -10 365 -10 L365 -10 Z M145 -10 C193 -10 225 22 225 70 C225 118 193 150 145 150 C97 150 65 118 65 70 C65 22 97 -10 145 -10 L145 -10 Z " />
<glyph glyph-name="perthousand" unicode="&#x2030;" horiz-adv-x="1164" d="M981 218 C981 298 978 351 973 351 C996 351 1011 274 1011 159 C1011 87 1009 39 1007 39 C991 39 981 111 981 218 L981 218 Z M834 190 C834 70 898 -10 994 -10 C1089 -10 1152 78 1152 210 C1152 321 1089 395 994 395 C898 395 834 313 834 190 L834 190 Z M178 579 C178 661 175 716 170 716 C193 716 208 637 208 519 C208 450 206 404 204 404 C188 404 178 474 178 579 L178 579 Z M31 550 C31 433 95 355 191 355 C286 355 349 441 349 570 C349 684 286 760 191 760 C95 760 31 676 31 550 L31 550 Z M595 218 C595 298 597 351 601 351 C635 351 657 274 657 158 C657 87 648 39 635 39 C611 39 595 111 595 218 L595 218 Z M448 189 C448 70 518 -10 622 -10 C728 -10 798 78 798 209 C798 321 728 395 622 395 C518 395 448 313 448 189 L448 189 Z M224 -21 L689 729 L622 771 L157 21 L224 -21 L224 -21 Z " />
<glyph glyph-name="guilsinglleft" unicode="&#x2039;" horiz-adv-x="250" d="M213 425 L13 248 L213 70 L230 70 L163 248 L230 425 L213 425 L213 425 Z " />
<glyph glyph-name="guilsinglright" unicode="&#x203a;" horiz-adv-x="263" d="M20 425 L93 248 L20 70 L37 70 L243 248 L37 425 L20 425 L20 425 Z " />
<glyph glyph-name="fraction" unicode="&#x2044;" horiz-adv-x="474" d="M63 -21 L528 729 L462 771 L-3 21 L63 -21 L63 -21 Z " />
<glyph glyph-name="Euro" unicode="&#x20ac;" horiz-adv-x="543" d="M520 118 C516 113 478 109 427 109 C358 109 314 147 289 212 L392 212 L392 295 L270 295 C267 319 265 345 265 373 L392 373 L392 456 L269 456 C277 537 299 588 329 588 C339 588 355 573 371 551 C380 551 402 506 402 506 L409 506 C441 506 517 545 517 545 C522 547 526 559 526 575 C526 587 521 602 514 612 C490 647 429 670 362 670 C236 670 142 589 104 456 L11 456 L11 373 L88 373 C85 348 84 322 85 295 L11 295 L11 212 L93 212 C116 76 190 -10 337 -10 C409 -10 483 22 523 71 L523 118 L520 118 L520 118 Z " />
<glyph glyph-name="F_sc" unicode="&#xa730;" horiz-adv-x="568" d="M358 245 L400 165 L423 165 L423 417 L400 417 L358 337 L296 337 L296 472 L423 472 L481 357 L498 357 L498 565 L64 565 L64 546 L144 510 L144 55 L64 19 L64 0 L391 0 L391 19 L296 55 L296 245 L358 245 L358 245 Z " />
<glyph glyph-name="S_sc" unicode="&#xa731;" horiz-adv-x="497" d="M107 78 C115 68 115 67 106 76 L107 78 Z M399 352 C405 352 412 353 419 353 L409 535 C395 558 337 574 262 574 C154 574 82 508 82 409 C82 338 123 284 204 231 C265 191 296 160 296 131 C296 93 281 68 258 68 C214 68 157 104 130 148 C114 174 94 209 78 235 C75 235 71 234 68 234 L57 234 L67 31 L103 83 L67 31 C88 6 164 -11 258 -11 C368 -11 442 62 442 171 C442 244 396 303 307 361 C258 393 232 425 232 464 C232 481 238 493 247 493 C275 493 303 481 323 461 C343 439 377 383 398 353 L399 352 L399 352 Z " />
<glyph glyph-name="X_sc" unicode="&#xf078;" horiz-adv-x="702" d="M424 546 L499 510 L378 363 L273 510 L354 546 L354 565 L29 565 L29 547 L91 515 L257 272 C199 198 141 124 82 50 L12 18 L12 0 L272 0 L272 19 L184 55 L301 208 C335 157 371 106 404 56 L332 20 L332 1 L665 1 L665 17 L604 46 L422 300 C481 374 540 448 599 521 L662 550 L662 566 L423 566 L424 546 L424 546 Z " />
</font>
</svg>
