<?xml version="1.0" encoding="UTF-8"?>
<svg xmlns="http://www.w3.org/2000/svg" xmlns:xlink="http://www.w3.org/1999/xlink" version="1.2" >
<font id="Ethan Bold">
<font-face  font-family="Ethan" units-per-em="1024" ascent="975" descent="-300" font-style="normal" font-weight="700" font-stretch="normal" cap-height="924" x-height="488" underline-position="-125" underline-thickness="50" />
<missing-glyph  horiz-adv-x="100" d="" />
<glyph glyph-name="NULL" d="" />
<glyph glyph-name="CR" unicode="&#xd;" horiz-adv-x="256" d="" />
<glyph glyph-name="space" unicode="&#x20;" horiz-adv-x="248" d="" />
<glyph glyph-name="exclam" unicode="&#x21;" horiz-adv-x="283" d="M149 -10 C197 -10 229 22 229 70 C229 118 197 150 149 150 C101 150 69 118 69 70 C69 22 101 -10 149 -10 L149 -10 Z M80 660 L135 230 L163 230 L218 660 L80 660 L80 660 Z " />
<glyph glyph-name="quotedbl" unicode="&#x22;" horiz-adv-x="528" d="M319 740 L369 490 L398 490 L448 740 L319 740 L319 740 Z M80 740 L130 490 L159 490 L209 740 L80 740 L80 740 Z " />
<glyph glyph-name="numbersign" unicode="&#x23;" horiz-adv-x="498" d="M144 382 L108 259 L0 259 L0 191 L89 191 L33 0 L105 0 L161 191 L257 191 L201 0 L273 0 L329 191 L440 191 L440 259 L348 259 L384 382 L498 382 L498 450 L404 450 L465 660 L393 660 L332 450 L236 450 L297 660 L225 660 L164 450 L58 450 L58 382 L144 382 L144 382 Z M216 382 L312 382 L276 259 L180 259 L216 382 L216 382 Z " />
<glyph glyph-name="dollar" unicode="&#x24;" horiz-adv-x="508" d="M284 740 L284 670 C271 671 258 671 246 670 L246 741 L188 741 L188 660 C104 636 51 572 51 485 C51 398 97 341 188 296 L188 72 C165 86 152 110 152 140 L152 167 C151 167 147 171 147 171 L87 171 C64 171 48 159 48 140 C48 65 102 11 188 -5 L188 -80 L246 -80 L246 -10 C259 -10 272 -9 284 -7 L284 -80 L342 -80 L342 8 C415 38 460 102 460 186 C460 254 420 321 342 370 L342 515 C342 515 346 511 347 511 L406 511 C429 511 445 523 445 541 C445 598 406 641 342 659 L342 739 L284 740 L284 740 Z M246 421 L246 599 C259 600 273 599 284 597 L284 400 C270 407 257 414 246 421 L246 421 Z M188 484 C177 508 175 542 188 565 L188 484 Z M246 264 C260 256 273 248 284 239 L284 62 C273 59 260 57 246 57 L246 264 L246 264 Z M342 170 C349 152 349 132 343 114 L342 170 Z " />
<glyph glyph-name="percent" unicode="&#x25;" horiz-adv-x="806" d="M143 574 C143 665 154 726 171 726 C208 726 233 647 233 528 C233 446 219 392 197 392 C165 392 143 465 143 574 L143 574 Z M31 552 C31 434 93 355 187 355 C279 355 341 440 341 567 C341 683 279 760 187 760 C93 760 31 677 31 552 L31 552 Z M574 213 C574 302 588 361 610 361 C656 361 686 283 686 167 C686 83 666 27 636 27 C599 27 574 101 574 213 L574 213 Z M461 191 C461 70 527 -10 626 -10 C727 -10 794 76 794 206 C794 319 727 395 626 395 C527 395 461 313 461 191 L461 191 Z M212 -16 L677 734 L626 766 L161 16 L212 -16 L212 -16 Z " />
<glyph glyph-name="ampersand" unicode="&#x26;" horiz-adv-x="696" d="M494 452 L523 420 C527 420 533 418 539 419 C511 349 485 287 459 236 L296 393 C380 440 432 496 432 545 C432 621 366 671 267 671 C153 671 77 606 77 509 C77 447 106 398 154 347 C43 295 20 239 20 171 C20 62 96 -10 210 -10 C306 -10 376 25 434 87 L528 0 L752 0 L752 18 L653 50 L507 190 C545 257 579 338 615 430 L681 452 L681 470 L494 470 L494 452 L494 452 Z M190 310 C196 305 202 300 208 294 L390 127 C358 91 323 72 282 72 C204 72 152 126 152 206 C152 249 159 284 190 310 L190 310 Z M256 431 C223 464 202 492 202 532 C202 580 224 612 256 612 C287 612 308 582 308 537 C308 499 289 461 256 431 L256 431 Z " />
<glyph glyph-name="quotesingle" unicode="&#x27;" horiz-adv-x="289" d="M80 740 L130 490 L159 490 L209 740 L80 740 L80 740 Z " />
<glyph glyph-name="parenleft" unicode="&#x28;" horiz-adv-x="303" d="M262 740 C137 625 53 493 53 295 C53 97 137 -35 262 -150 L298 -150 C209 -68 149 54 149 295 C149 536 209 658 298 740 L262 740 L262 740 Z " />
<glyph glyph-name="parenright" unicode="&#x29;" horiz-adv-x="303" d="M55 -150 C180 -35 264 97 264 295 C264 493 180 625 55 740 L19 740 C108 658 168 536 168 295 C168 54 108 -68 19 -150 L55 -150 L55 -150 Z " />
<glyph glyph-name="asterisk" unicode="&#x2a;" horiz-adv-x="420" d="M236 585 L362 603 L335 684 L223 625 L245 750 L159 750 L181 625 L69 684 L42 603 L168 585 L77 497 L146 446 L202 560 L258 446 L327 497 L236 585 L236 585 Z " />
<glyph glyph-name="plus" unicode="&#x2b;" horiz-adv-x="510" d="M218 482 L218 308 L40 308 L40 236 L218 236 L218 52 L292 52 L292 236 L470 236 L470 308 L292 308 L292 482 L218 482 L218 482 Z " />
<glyph glyph-name="comma" unicode="&#x2c;" horiz-adv-x="269" d="M90 0 C124 -16 147 -52 147 -90 C147 -124 112 -161 60 -181 L60 -210 C155 -173 219 -101 219 -30 C219 35 189 92 143 113 C110 130 101 129 81 97 L44 35 L48 22 L90 0 L90 0 Z " />
<glyph glyph-name="hyphen" unicode="&#x2d;" horiz-adv-x="375" d="M50 202 L325 202 L325 302 L50 302 L50 202 L50 202 Z " />
<glyph glyph-name="period" unicode="&#x2e;" horiz-adv-x="290" d="M145 -10 C193 -10 225 22 225 70 C225 118 193 150 145 150 C97 150 65 118 65 70 C65 22 97 -10 145 -10 L145 -10 Z " />
<glyph glyph-name="slash" unicode="&#x2f;" horiz-adv-x="272" d="M0 -120 L72 -120 L272 750 L200 750 L0 -120 L0 -120 Z " />
<glyph glyph-name="zero" unicode="0" horiz-adv-x="536" d="M170 371 C170 510 199 602 243 602 C322 602 375 478 375 292 C375 153 341 60 291 60 C218 60 170 184 170 371 L170 371 Z M33 327 C33 125 127 -10 268 -10 C409 -10 503 130 503 339 C503 538 409 670 268 670 C127 670 33 533 33 327 L33 327 Z " />
<glyph glyph-name="one" unicode="1" horiz-adv-x="536" d="M431 0 L431 18 L366 50 L366 660 L337 660 L70 518 L70 468 L244 533 L244 50 L179 18 L179 0 L431 0 L431 0 Z " />
<glyph glyph-name="two" unicode="2" horiz-adv-x="480" d="M456 59 C459 96 464 146 467 183 L450 183 L411 118 L220 118 C390 304 459 382 459 487 C459 597 387 670 278 670 C136 670 41 601 41 497 C41 461 64 437 99 437 L166 437 C166 437 170 442 171 442 L171 520 C171 520 80 497 41 497 C171 569 196 602 234 602 C285 602 319 555 319 484 C319 302 244 250 50 36 L50 0 L456 0 L456 59 L456 59 Z " />
<glyph glyph-name="three" unicode="3" horiz-adv-x="509" d="M162 120 L162 159 L151 170 L83 170 C83 170 32 150 32 120 C32 42 118 -10 246 -10 C390 -10 486 64 486 175 C486 277 429 340 318 363 C409 391 455 445 455 515 C455 609 381 671 269 671 C139 671 53 612 53 524 C53 494 110 474 110 474 L170 474 L181 485 L181 540 C181 580 204 606 239 606 C285 606 316 565 316 503 C316 432 271 382 183 373 C173 373 162 372 151 371 L151 308 C281 317 348 272 348 176 C348 104 307 56 246 56 C196 56 162 82 162 121 L162 120 L162 120 Z " />
<glyph glyph-name="four" unicode="4" horiz-adv-x="501" d="M444 18 L379 50 L379 186 L488 186 L488 282 L378 282 L378 538 L379 660 L350 660 L256 538 C173 431 89 324 8 215 L8 186 L256 186 L256 50 L191 18 L191 0 L444 0 L444 18 L444 18 Z M256 438 L256 282 L146 282 L256 438 L256 438 Z " />
<glyph glyph-name="five" unicode="5" horiz-adv-x="504" d="M409 660 L86 660 L86 327 C106 333 141 337 174 337 C283 337 356 274 356 180 C356 108 314 60 251 60 C204 60 157 94 139 136 L124 136 C109 136 73 98 73 98 C58 87 48 83 48 60 C48 51 52 40 59 32 C77 7 130 -10 192 -10 C352 -10 459 90 459 239 C459 366 353 451 194 451 C178 451 163 450 155 449 L155 549 L409 549 L409 660 L409 660 Z " />
<glyph glyph-name="six" unicode="6" horiz-adv-x="512" d="M432 670 C196 607 38 431 38 231 C38 86 128 -10 263 -10 C394 -10 482 76 482 204 C482 314 417 388 319 388 C265 388 217 368 182 334 C209 479 302 592 432 626 L432 670 Z M174 234 C182 268 217 290 263 290 C315 290 350 243 350 172 C350 102 315 55 263 55 C212 55 177 126 175 234 L174 234 Z " />
<glyph glyph-name="seven" unicode="7" horiz-adv-x="500" d="M50 660 L50 549 L354 549 C190 243 84 28 84 -1 L245 -1 C245 141 331 393 460 630 L460 659 L50 660 L50 660 Z " />
<glyph glyph-name="eight" unicode="8" horiz-adv-x="502" d="M287 393 C285 394 283 395 281 396 C203 433 172 484 172 541 C172 579 198 604 238 604 C293 604 329 560 329 493 C329 451 314 416 287 393 L287 393 Z M348 358 C414 384 454 436 454 503 C454 604 373 671 252 671 C127 671 44 602 44 498 C44 434 74 373 147 321 C81 290 41 226 41 142 C41 51 125 -10 252 -10 C379 -10 463 64 463 174 C463 240 424 306 349 358 L348 358 Z M208 284 C214 281 220 278 226 275 C304 239 344 184 344 131 C344 83 311 51 261 51 C208 51 172 101 172 177 C172 222 185 259 208 284 L208 284 Z " />
<glyph glyph-name="nine" unicode="9" horiz-adv-x="509" d="M80 -10 C316 -10 474 91 474 429 C474 574 384 670 249 670 C118 670 30 600 30 465 C30 347 98 269 199 269 C251 269 299 292 334 331 C315 115 218 33 79 33 L80 -10 Z M337 425 C326 389 292 365 253 365 C201 365 166 405 166 465 C166 557 199 604 248 604 C299 604 334 533 336 425 L337 425 Z " />
<glyph glyph-name="colon" unicode="&#x3a;" horiz-adv-x="290" d="M145 290 C193 290 225 322 225 370 C225 418 193 450 145 450 C97 450 65 418 65 370 C65 322 97 290 145 290 L145 290 Z M145 -10 C193 -10 225 22 225 70 C225 118 193 150 145 150 C97 150 65 118 65 70 C65 22 97 -10 145 -10 L145 -10 Z " />
<glyph glyph-name="semicolon" unicode="&#x3b;" horiz-adv-x="269" d="M133 290 C181 290 213 322 213 370 C213 418 181 450 133 450 C85 450 53 418 53 370 C53 322 85 290 133 290 L133 290 Z M90 0 C124 -16 147 -52 147 -90 C147 -124 112 -161 60 -181 L60 -210 C155 -173 219 -101 219 -30 C219 35 189 92 143 113 C110 130 101 129 81 97 L44 35 L48 22 L90 0 L90 0 Z " />
<glyph glyph-name="equal" unicode="&#x3d;" horiz-adv-x="500" d="M40 195 L40 123 L460 123 L460 195 L40 195 L40 195 Z M40 421 L40 349 L460 349 L460 421 L40 421 L40 421 Z " />
<glyph glyph-name="question" unicode="&#x3f;" horiz-adv-x="488" d="M232 -5 C280 -5 312 27 312 75 C312 123 280 155 232 155 C184 155 152 123 152 75 C152 27 184 -5 232 -5 L232 -5 Z M166 520 C166 520 78 507 40 507 C40 473 62 450 95 450 L155 450 C155 450 163 464 166 464 L166 520 L166 520 Z M166 520 C166 572 182 606 207 606 C263 606 301 558 301 485 C301 443 253 387 180 345 C180 311 217 230 217 230 L246 230 C246 230 248 235 250 244 C360 310 433 406 433 485 C433 596 361 670 252 670 C125 670 40 605 40 507 L166 520 L166 520 Z " />
<glyph glyph-name="A" unicode="A" horiz-adv-x="758" d="M273 18 L192 50 L245 187 L468 187 L468 190 C486 143 505 96 523 50 L435 18 L435 0 L724 0 L724 16 L660 45 C576 252 491 458 408 665 L343 665 C260 460 178 255 95 50 L17 18 L17 0 L273 0 L273 18 L273 18 Z M438 266 L275 266 L355 476 L438 266 L438 266 Z " />
<glyph glyph-name="B" unicode="B" horiz-adv-x="642" d="M431 364 C497 396 535 445 535 505 C535 599 463 661 323 661 L40 661 L40 642 L120 606 L120 56 L40 20 L40 1 L320 1 C483 1 592 81 592 202 C592 279 537 338 430 365 L431 364 L431 364 Z M249 381 L249 582 L291 582 C362 582 399 537 399 469 C399 417 339 382 249 381 L249 381 Z M249 80 L249 301 L326 301 C412 301 456 257 456 190 C456 124 401 80 319 80 L249 80 L249 80 Z " />
<glyph glyph-name="C" unicode="C" horiz-adv-x="721" d="M631 37 L641 219 C635 219 630 220 625 220 C609 192 588 154 572 126 C567 118 560 110 554 106 C510 79 453 61 403 61 C283 61 203 177 203 350 C203 498 287 597 414 597 C455 597 502 580 536 554 L536 554 C543 549 550 540 554 533 C571 501 592 459 609 427 C615 427 621 428 628 428 L620 625 C592 651 510 669 415 669 C208 669 70 524 70 306 C70 116 204 -11 404 -11 C503 -11 594 8 631 36 L631 37 L631 37 Z " />
<glyph glyph-name="D" unicode="D" horiz-adv-x="785" d="M381 0 C581 0 715 131 715 363 C715 559 572 660 357 660 L64 660 L64 641 L144 605 L144 55 L64 19 L64 0 L381 0 L381 0 Z M274 79 L274 581 L320 581 C476 581 580 490 580 314 C580 164 499 79 378 79 L274 79 L274 79 Z " />
<glyph glyph-name="E" unicode="E" horiz-adv-x="658" d="M588 204 L571 204 L513 79 L274 79 L274 300 L413 300 L455 220 L478 220 L478 460 L455 460 L413 380 L274 380 L274 581 L488 581 L546 466 L563 466 L563 660 L64 660 L64 641 L144 605 L144 55 L64 19 L64 0 L588 0 L588 204 L588 204 Z " />
<glyph glyph-name="F" unicode="F" horiz-adv-x="623" d="M413 300 L455 220 L478 220 L478 460 L455 460 L413 380 L274 380 L274 581 L478 581 L536 466 L553 466 L553 660 L64 660 L64 641 L144 605 L144 55 L64 19 L64 0 L369 0 L369 19 L274 55 L274 300 L413 300 L413 300 Z " />
<glyph glyph-name="G" unicode="G" horiz-adv-x="779" d="M659 235 L734 271 L734 290 L445 290 L445 271 L530 235 L530 92 C506 82 476 76 445 76 C300 76 204 186 204 352 C204 500 292 599 425 599 C471 599 523 581 561 553 C567 548 572 541 575 534 C592 502 613 460 630 428 C636 428 642 429 649 429 L641 626 L607 585 L641 626 C610 652 524 670 426 670 C213 670 71 525 71 307 C71 117 205 -10 406 -10 C501 -10 603 36 660 104 L659 235 L659 235 Z " />
<glyph glyph-name="H" unicode="H" horiz-adv-x="819" d="M754 0 L754 19 L674 55 L674 605 L754 641 L754 660 L465 660 L465 641 L545 605 L545 380 L274 380 L274 605 L354 641 L354 660 L64 660 L64 641 L144 605 L144 55 L64 19 L64 0 L354 0 L354 19 L274 55 L274 300 L545 300 L545 55 L465 19 L465 0 L754 0 L754 0 Z " />
<glyph glyph-name="I" unicode="I" horiz-adv-x="429" d="M359 0 L359 19 L279 55 L279 605 L359 641 L359 660 L70 660 L70 641 L150 605 L150 55 L70 19 L70 0 L359 0 L359 0 Z " />
<glyph glyph-name="J" unicode="J" horiz-adv-x="429" d="M150 605 L150 50 C150 -21 130 -69 99 -69 C99 -69 52 -64 23 -56 L17 -56 C17 -56 3 -132 3 -137 C3 -159 22 -173 50 -173 C187 -173 279 -13 279 228 L279 605 L359 641 L359 660 L70 660 L70 641 L150 605 L150 605 Z " />
<glyph glyph-name="K" unicode="K" horiz-adv-x="779" d="M719 660 L438 660 L438 642 L514 610 C461 549 406 487 352 426 L276 339 L556 1 L752 1 L752 15 L689 41 L402 369 L653 621 L719 647 L719 660 L719 660 Z M355 1 L355 20 L275 56 L275 606 L355 642 L355 661 L66 661 L66 642 L146 606 L146 56 L66 20 L66 1 L355 1 L355 1 Z " />
<glyph glyph-name="L" unicode="L" horiz-adv-x="642" d="M572 244 L554 244 L492 79 L274 79 L274 605 L359 641 L359 660 L64 660 L64 641 L144 605 L144 55 L64 19 L64 0 L572 0 L572 244 L572 244 Z " />
<glyph glyph-name="M" unicode="M" horiz-adv-x="973" d="M73 641 L161 605 L142 55 L61 19 L61 0 L311 0 L311 19 L227 55 L237 478 L435 -5 C451 10 467 27 482 41 L435 -6 L500 -6 L701 471 L717 54 L639 18 L639 -1 L911 -1 L911 18 L840 54 L819 604 L906 640 L906 659 L694 659 L497 173 L299 659 L72 659 L73 641 L73 641 Z " />
<glyph glyph-name="N" unicode="N" horiz-adv-x="811" d="M66 641 L141 605 L141 55 L61 19 L61 0 L342 0 L342 19 L242 55 L242 452 C368 300 494 148 620 -5 L670 -5 L670 605 L745 641 L745 660 L470 660 L470 641 L570 605 L570 259 L241 660 L65 660 L66 641 L66 641 Z " />
<glyph glyph-name="O" unicode="O" horiz-adv-x="817" d="M208 375 C208 510 278 600 383 600 C519 600 610 471 610 277 C610 148 541 62 438 62 C300 62 208 187 208 375 L208 375 Z M70 324 C70 124 206 -10 409 -10 C612 -10 747 125 747 328 C747 533 612 670 409 670 C206 670 70 532 70 324 L70 324 Z " />
<glyph glyph-name="P" unicode="P" horiz-adv-x="643" d="M369 0 L369 19 L274 55 L274 277 L328 277 C475 277 573 356 573 475 C573 586 485 660 353 660 L64 660 L64 641 L144 605 L144 55 L64 19 L64 0 L369 0 L369 0 Z M274 356 L274 581 L321 581 C389 581 435 534 435 463 C435 398 404 355 357 355 L274 356 L274 356 Z " />
<glyph glyph-name="Q" unicode="Q" horiz-adv-x="817" d="M845 -119 L845 -97 C831 -105 799 -110 763 -110 C705 -110 622 -16 552 16 C673 64 747 177 747 328 C747 533 612 670 409 670 C206 670 70 532 70 324 C70 118 215 -21 433 -9 C517 -62 609 -157 673 -157 C735 -157 803 -141 844 -118 L845 -119 L845 -119 Z M207 376 C207 511 277 601 382 601 C518 601 609 472 609 278 C609 149 540 63 437 63 C299 63 207 188 207 376 L207 376 Z " />
<glyph glyph-name="R" unicode="R" horiz-adv-x="710" d="M697 18 C672 29 647 40 622 51 L440 296 C523 326 573 391 573 476 C573 587 485 661 352 661 L63 661 L63 642 L143 606 L143 56 L63 20 L63 1 L348 1 L348 20 L273 56 L273 278 L292 278 L498 1 L696 1 L697 18 L697 18 Z M273 357 L273 582 L321 582 C388 582 433 535 433 464 C433 399 402 356 356 356 L273 357 L273 357 Z " />
<glyph glyph-name="S" unicode="S" horiz-adv-x="546" d="M446 461 C449 461 453 462 456 462 L467 462 L457 629 C435 654 368 670 289 670 C165 670 83 596 83 484 C83 402 134 343 234 292 C322 247 367 206 367 159 C367 98 333 58 282 58 C239 58 184 79 141 112 L141 112 C134 117 127 126 123 134 L79 222 C76 222 72 221 69 221 L58 221 L67 33 C97 7 183 -10 281 -10 C406 -10 490 71 490 192 C490 280 434 343 325 399 C249 438 210 478 210 531 C210 573 236 601 275 601 C311 601 350 587 379 564 C406 542 426 495 445 462 L446 461 L446 461 Z " />
<glyph glyph-name="T" unicode="T" horiz-adv-x="684" d="M507 0 L507 19 L407 55 L407 581 L559 581 L621 436 L639 436 L639 660 L45 660 L45 436 L63 436 L125 581 L277 581 L277 55 L177 19 L177 0 L507 0 L507 0 Z " />
<glyph glyph-name="U" unicode="U" horiz-adv-x="808" d="M135 605 L135 234 C135 88 241 -10 399 -10 C557 -10 663 88 663 234 L663 605 L743 641 L743 660 L463 660 L463 641 L563 605 L563 203 C563 125 513 73 438 73 C334 73 264 147 264 257 L264 605 L344 641 L344 660 L55 660 L55 641 L135 605 L135 605 Z " />
<glyph glyph-name="V" unicode="V" horiz-adv-x="742" d="M324 660 L32 660 L32 642 L99 610 L317 23 L327 -5 L390 -5 L653 620 L709 646 L709 660 L474 660 L474 641 L552 605 L377 171 L232 605 L324 641 L324 660 L324 660 Z " />
<glyph glyph-name="W" unicode="W" horiz-adv-x="986" d="M312 660 L18 660 L18 642 L81 610 C136 405 192 201 246 -5 L303 -5 C364 146 428 296 490 446 C541 296 593 146 643 -5 L698 -5 L705 15 L902 620 L965 646 L965 660 L718 660 L718 641 L801 605 L680 206 C633 359 585 511 539 665 L478 665 C417 512 359 358 299 204 L212 605 L310 641 L312 660 L312 660 Z " />
<glyph glyph-name="X" unicode="X" horiz-adv-x="754" d="M413 0 L718 0 L718 16 L657 45 L443 343 L655 616 L718 645 L718 661 L477 661 L477 642 L554 606 L398 408 C351 474 302 541 256 607 L336 643 L336 662 L37 662 L37 644 L100 612 L298 328 L89 52 L19 20 L19 2 L281 2 L281 21 L192 57 L344 262 L487 57 L415 21 L413 0 L413 0 Z " />
<glyph glyph-name="Y" unicode="Y" horiz-adv-x="725" d="M303 660 L30 660 L30 642 L93 610 L306 311 L306 55 L216 19 L216 0 L525 0 L525 19 L435 55 L435 316 C501 417 567 519 634 620 L691 646 L691 660 L449 660 L449 641 L528 605 L391 393 C339 464 286 535 234 605 L303 641 L303 660 L303 660 Z " />
<glyph glyph-name="Z" unicode="Z" horiz-adv-x="646" d="M95 456 L113 456 L175 581 L396 581 C292 399 189 217 84 36 L84 0 L557 0 L557 214 L539 214 L477 79 L239 79 C340 255 440 431 541 607 L541 660 L95 660 L95 456 L95 456 Z " />
<glyph glyph-name="bracketleft" unicode="&#x5b;" horiz-adv-x="277" d="M156 707 L272 707 L272 740 L67 740 L67 -150 L272 -150 L272 -117 L156 -117 L156 707 L156 707 Z " />
<glyph glyph-name="backslash" unicode="&#x5c;" horiz-adv-x="294" d="M222 -120 L294 -120 L72 750 L0 750 L222 -120 L222 -120 Z " />
<glyph glyph-name="bracketright" unicode="&#x5d;" horiz-adv-x="272" d="M118 707 L118 -117 L5 -117 L5 -150 L207 -150 L207 740 L5 740 L5 707 L118 707 L118 707 Z " />
<glyph glyph-name="asciicircum" unicode="&#x5e;" horiz-adv-x="340" d="M328 530 L185 705 L155 705 L17 530 L34 530 L170 610 L311 530 L328 530 L328 530 Z " />
<glyph glyph-name="underscore" unicode="&#x5f;" horiz-adv-x="500" d="M25 -86 L25 -157 L475 -157 L475 -86 L25 -86 L25 -86 Z " />
<glyph glyph-name="grave" unicode="&#x60;" horiz-adv-x="340" d="M177 530 L90 707 L-25 707 C-25 707 -9 634 16 619 L160 530 L177 530 L177 530 Z " />
<glyph glyph-name="a" unicode="a" horiz-adv-x="497" d="M169 339 C169 370 183 393 201 393 C250 393 275 365 275 322 L275 259 C119 220 39 158 39 93 C39 31 81 -10 144 -10 C198 -10 250 10 285 49 C301 13 335 -9 380 -9 C428 -9 473 22 491 69 L486 77 C485 74 474 72 458 72 C417 72 389 80 389 91 C389 251 390 354 390 354 C390 418 338 461 237 461 C130 461 49 406 49 332 C49 307 61 291 79 292 L163 292 L168 297 L169 339 L169 339 Z M274 207 L274 101 C274 97 274 93 274 89 C257 81 234 77 209 77 C174 77 150 95 150 123 C150 155 192 186 274 209 L274 207 L274 207 Z " />
<glyph glyph-name="b" unicode="b" horiz-adv-x="570" d="M100 -10 L109 -10 L143 23 C166 3 224 -10 294 -10 C430 -10 521 96 521 255 C521 378 453 460 352 460 C301 460 251 444 215 418 L215 750 L192 750 L35 686 L35 680 L59 659 C84 638 100 624 100 624 L100 -10 L100 -10 Z M215 115 L215 353 C219 359 241 363 270 363 C351 363 405 307 405 224 C405 125 375 59 331 59 C281 59 234 81 215 115 L215 115 Z " />
<glyph glyph-name="c" unicode="c" horiz-adv-x="477" d="M429 139 C397 114 354 97 322 97 C227 97 164 164 164 265 C164 342 195 393 241 393 C267 393 296 376 313 351 L347 302 L354 302 L420 336 C427 343 432 361 432 381 C432 390 427 403 420 413 C400 441 345 460 281 460 C142 460 50 356 50 200 C50 74 134 -10 261 -10 C332 -10 401 44 433 126 L433 139 L429 139 L429 139 Z " />
<glyph glyph-name="d" unicode="d" horiz-adv-x="583" d="M535 0 L535 18 L465 50 L465 752 L442 752 L285 704 L285 699 L319 671 C338 656 350 646 350 646 L350 456 C330 459 309 460 287 460 C144 460 48 352 48 191 C48 70 113 -10 211 -10 C266 -10 320 13 353 50 L365 0 L535 0 L535 0 Z M351 338 L351 102 C337 93 316 88 293 88 C215 88 163 144 163 229 C163 327 205 392 269 392 C269 392 301 371 351 338 L351 338 Z " />
<glyph glyph-name="e" unicode="e" horiz-adv-x="483" d="M167 307 C176 361 204 395 243 395 C282 395 311 362 323 307 L167 307 Z M381 240 L432 247 C432 375 363 460 260 460 C133 460 49 356 49 200 C49 74 133 -10 260 -10 C331 -10 400 44 432 126 L432 139 L428 139 C396 114 353 97 321 97 C234 97 174 153 164 240 L381 240 L381 240 Z " />
<glyph glyph-name="f" unicode="f" horiz-adv-x="393" d="M291 0 L291 18 L226 50 L227 382 L358 382 L358 450 L227 450 L227 611 C227 621 243 631 268 631 C294 631 320 627 333 621 C347 614 360 610 360 610 L367 610 L400 694 C407 716 402 727 376 739 C376 739 352 749 341 749 C231 749 111 614 111 489 L111 449 L40 449 L40 381 L111 381 L111 49 L46 17 L46 -1 L291 0 L291 0 Z " />
<glyph glyph-name="g" unicode="g" horiz-adv-x="554" d="M504 450 C460 444 416 438 373 432 C343 450 305 460 261 460 C140 460 78 396 78 300 C78 241 104 194 148 166 C95 144 62 107 62 70 C62 27 90 -5 135 -18 C84 -38 52 -91 52 -124 C52 -193 127 -239 240 -239 C379 -239 472 -163 472 -48 C472 26 436 76 344 76 L218 76 C185 76 163 92 163 117 C163 133 171 146 183 149 L183 149 C206 141 232 137 260 137 C381 137 444 203 444 303 C444 331 438 356 426 378 L504 373 L504 450 L504 450 Z M197 305 C197 364 216 404 252 404 C297 404 327 362 327 299 C327 237 310 195 278 195 C229 195 197 239 197 305 L197 305 Z M183 -24 L287 -24 C345 -24 368 -46 368 -79 C368 -150 323 -198 256 -198 C196 -198 156 -162 156 -108 C156 -63 167 -24 183 -24 L183 -24 Z " />
<glyph glyph-name="h" unicode="h" horiz-adv-x="599" d="M559 0 L559 18 L494 50 L494 343 C494 413 443 460 367 460 C320 460 275 431 231 386 L231 750 L208 750 L51 686 L51 680 L75 659 C100 638 116 624 116 624 L116 50 L51 18 L51 0 L296 0 L296 18 L231 50 L231 341 C247 352 270 359 305 359 C350 359 380 326 380 277 L380 50 L315 18 L315 0 L559 0 L559 0 Z " />
<glyph glyph-name="i" unicode="i" horiz-adv-x="352" d="M170 610 C218 610 250 642 250 690 C250 738 218 770 170 770 C122 770 90 738 90 690 C90 642 122 610 170 610 L170 610 Z M304 0 L304 18 L234 50 L234 460 L211 460 L54 396 L54 390 L78 369 C103 348 119 334 119 334 L119 50 L54 18 L54 0 L304 0 L304 0 Z " />
<glyph glyph-name="j" unicode="j" horiz-adv-x="352" d="M177 610 C225 610 257 642 257 690 C257 738 225 770 177 770 C129 770 97 738 97 690 C97 642 129 610 177 610 L177 610 Z M56 -211 L56 -236 C219 -134 234 -74 234 2 L234 460 L211 460 L54 396 L54 390 L78 369 C103 348 119 334 119 334 L119 -14 C119 -109 126 -167 56 -211 L56 -211 Z " />
<glyph glyph-name="k" unicode="k" horiz-adv-x="582" d="M537 450 L321 450 L321 429 L380 390 L230 255 L230 760 L207 760 L50 696 L50 690 L74 669 C99 648 115 634 115 634 L115 50 L50 18 L50 0 L300 0 L300 18 L230 50 L230 233 L388 0 L556 0 L556 18 L498 50 L327 284 C376 323 424 362 473 401 L538 433 L537 450 L537 450 Z " />
<glyph glyph-name="l" unicode="l" horiz-adv-x="333" d="M289 0 L289 18 L224 50 L224 760 L201 760 L44 696 L44 690 L68 669 C93 648 109 634 109 634 L109 50 L44 18 L44 0 L289 0 L289 0 Z " />
<glyph glyph-name="m" unicode="m" horiz-adv-x="846" d="M806 0 L806 18 L741 50 L741 343 C741 413 692 460 618 460 C571 460 523 427 474 376 C461 427 417 459 356 459 C312 459 267 429 222 383 L220 383 C219 418 218 459 218 459 L195 459 L44 395 L44 389 L68 368 C93 347 109 333 109 333 L109 49 L44 17 L44 -1 L289 -1 L289 17 L224 49 L224 340 C240 351 262 358 294 358 C336 358 364 325 364 276 L364 49 L294 17 L294 -1 L549 -1 L549 17 L479 49 L479 335 C497 349 521 358 555 358 C598 358 626 325 626 276 L626 49 L556 17 L556 -1 L806 0 L806 0 Z " />
<glyph glyph-name="n" unicode="n" horiz-adv-x="599" d="M559 0 L559 18 L494 50 L494 343 C494 413 443 460 367 460 C319 460 273 430 228 384 L226 384 C225 419 224 460 224 460 L201 460 L50 396 L50 390 L74 369 C99 348 115 334 115 334 L115 50 L50 18 L50 0 L300 0 L300 18 L230 50 L230 341 C246 352 269 359 304 359 C349 359 379 326 379 277 L379 50 L309 18 L309 0 L559 0 L559 0 Z " />
<glyph glyph-name="o" unicode="o" horiz-adv-x="548" d="M182 225 C182 330 206 400 254 400 C321 400 366 330 366 225 C366 120 342 50 294 50 C227 50 182 120 182 225 L182 225 Z M50 225 C50 84 140 -10 274 -10 C422 -10 498 84 498 225 C498 366 408 460 274 460 C126 460 50 366 50 225 L50 225 Z " />
<glyph glyph-name="p" unicode="p" horiz-adv-x="581" d="M226 397 C225 428 224 459 224 459 L201 459 L50 395 L50 389 L74 368 C99 347 115 333 115 333 L115 -181 L50 -213 L50 -231 L300 -231 L300 -213 L230 -181 L230 -9 C248 -10 269 -11 293 -11 C436 -11 531 95 531 253 C531 377 468 459 374 459 C329 459 271 434 226 396 L226 397 L226 397 Z M230 100 L230 350 C246 358 269 362 293 362 C369 362 420 298 420 201 C420 115 385 58 332 58 C301 58 261 75 231 100 L230 100 L230 100 Z " />
<glyph glyph-name="q" unicode="q" horiz-adv-x="589" d="M549 -230 L549 -212 L484 -180 L484 460 L475 460 L435 441 C405 453 355 460 299 460 C150 460 50 352 50 191 C50 70 118 -10 221 -10 C261 -10 318 15 369 54 L369 -180 L299 -212 L299 -230 L549 -230 L549 -230 Z M369 345 L369 105 C350 94 325 87 303 87 C220 87 164 143 164 228 C164 326 211 391 281 391 C297 391 330 374 369 346 L369 345 L369 345 Z " />
<glyph glyph-name="r" unicode="r" horiz-adv-x="419" d="M335 460 C307 460 271 425 230 372 L230 378 L227 378 C225 414 224 460 224 460 L201 460 L50 396 L50 390 L74 369 C99 348 115 334 115 334 L115 50 L50 18 L50 0 L300 0 L300 18 L230 50 L230 323 C243 338 254 347 264 347 C288 347 316 342 334 334 C346 328 372 313 372 313 L379 313 C403 362 419 400 419 409 C419 422 409 438 393 448 C381 456 353 459 335 459 L335 460 L335 460 Z " />
<glyph glyph-name="s" unicode="s" horiz-adv-x="443" d="M358 300 L358 427 C324 447 266 460 214 460 C131 460 75 407 75 327 C75 244 110 202 179 183 C240 166 271 139 271 91 C271 61 246 41 209 41 C159 41 119 72 99 109 C92 123 81 141 74 155 L60 155 L60 18 C96 1 159 -10 217 -10 C311 -10 373 45 373 128 C373 216 334 261 258 282 C205 297 177 323 177 370 C177 390 195 404 221 404 C222 404 238 403 238 402 C277 395 315 362 333 319 C335 313 340 306 342 300 L358 300 L358 300 Z " />
<glyph glyph-name="t" unicode="t" horiz-adv-x="393" d="M363 82 L359 96 C357 92 330 90 292 90 C248 90 219 112 219 144 L219 382 L351 382 L351 450 L219 450 L219 573 L210 573 L104 450 L18 391 L18 382 L104 382 L104 120 C104 42 154 -10 230 -10 C284 -10 337 27 363 82 L363 82 Z " />
<glyph glyph-name="u" unicode="u" horiz-adv-x="561" d="M355 400 L355 107 C338 99 311 95 280 95 C235 95 205 127 205 176 L205 450 L25 450 L25 432 L90 400 L90 107 C90 37 140 -10 214 -10 C255 -10 306 13 354 57 L354 -1 L539 -1 L539 17 L469 49 L469 449 L284 449 L284 431 L355 400 L355 400 Z " />
<glyph glyph-name="v" unicode="v" horiz-adv-x="555" d="M287 431 L366 395 L277 165 L172 400 L260 432 L260 450 L-23 450 L-23 432 L46 400 C106 267 164 133 226 1 L257 1 L435 396 L511 432 L511 451 L288 451 L287 431 L287 431 Z " />
<glyph glyph-name="w" unicode="w" horiz-adv-x="849" d="M597 431 L677 395 L591 166 C542 261 493 356 444 451 L420 451 L416 439 L288 161 C262 241 234 322 209 401 L302 433 L302 451 L21 451 L21 433 L87 401 C133 268 178 134 225 1 L261 1 L400 282 C447 189 492 94 541 2 L570 2 L743 397 L819 433 L819 452 L595 452 L597 431 L597 431 Z " />
<glyph glyph-name="x" unicode="x" horiz-adv-x="568" d="M272 0 L519 0 L519 18 L466 50 L317 258 C355 305 393 353 431 400 L492 432 L492 450 L306 450 L306 432 L366 400 L291 294 C266 329 240 364 215 399 L289 431 L289 449 L35 449 L35 431 L88 399 L212 221 L89 49 L31 17 L31 -1 L229 -1 L229 17 L156 49 L240 181 C271 137 302 93 332 49 L272 17 L272 0 L272 0 Z " />
<glyph glyph-name="y" unicode="y" horiz-adv-x="543" d="M288 450 L5 450 L5 432 L74 400 L243 14 L216 -51 C197 -101 174 -120 133 -120 L67 -120 L63 -124 L63 -198 C63 -228 77 -240 112 -240 C178 -240 222 -193 269 -71 L463 395 L538 431 L538 450 L324 450 L324 431 L401 395 L304 161 C269 241 234 321 200 400 L288 432 L288 450 L288 450 Z " />
<glyph glyph-name="z" unicode="z" horiz-adv-x="489" d="M62 285 L79 285 L121 385 L258 385 C194 265 131 145 67 26 L67 0 L414 0 L414 170 L397 170 L364 65 L218 65 C281 183 343 301 407 418 L407 450 L128 450 L89 460 L79 460 C79 459 78 450 78 450 L78 449 C73 398 68 337 63 285 L62 285 L62 285 Z " />
<glyph glyph-name="braceleft" unicode="&#x7b;" horiz-adv-x="259" d="M122 298 C176 324 209 376 209 443 C209 503 145 583 145 643 C145 703 177 721 226 719 L255 718 L255 751 L236 751 C123 751 47 724 47 597 C47 542 123 468 123 413 C123 355 93 315 40 315 L15 315 L15 281 L40 281 C90 281 124 245 124 191 C124 136 47 64 47 9 C47 -131 123 -155 236 -155 L255 -155 L255 -122 L225 -124 C177 -127 145 -107 145 -37 C145 23 209 102 209 162 C209 226 176 275 122 299 L122 298 L122 298 Z " />
<glyph glyph-name="bar" unicode="&#x7c;" horiz-adv-x="236" d="M64 -260 L136 -260 L136 760 L64 760 L64 -260 L64 -260 Z " />
<glyph glyph-name="braceright" unicode="&#x7d;" horiz-adv-x="260" d="M255 314 L230 314 C177 314 146 354 146 412 C146 467 223 541 223 596 C223 723 147 750 34 750 L15 750 L15 717 L44 718 C93 720 125 702 125 642 C125 582 61 502 61 442 C61 375 94 323 148 297 C94 273 61 224 61 160 C61 100 125 21 125 -39 C125 -109 93 -129 45 -126 L15 -124 L15 -157 L34 -157 C147 -157 223 -133 223 7 C223 62 146 134 146 189 C146 243 180 279 230 279 L255 279 L255 314 L255 314 Z " />
<glyph glyph-name="asciitilde" unicode="&#x7e;" horiz-adv-x="340" d="M35 225 C45 255 54 275 79 275 C123 275 183 214 227 214 C275 214 297 268 324 350 L305 350 C295 319 285 298 261 298 C217 298 157 359 113 359 C65 359 42 305 16 225 L35 225 L35 225 Z " />
<glyph glyph-name="exclamdown" unicode="&#xa1;" horiz-adv-x="283" d="M149 460 C101 460 69 428 69 380 C69 332 101 300 149 300 C197 300 229 332 229 380 C229 428 197 460 149 460 L149 460 Z M80 -210 L218 -210 L163 220 L135 220 L80 -210 L80 -210 Z " />
<glyph glyph-name="cent" unicode="&#xa2;" horiz-adv-x="477" d="M206 520 L206 449 C110 418 50 326 50 200 C50 93 110 16 206 -5 L206 -81 L264 -81 L264 -11 C334 -10 402 44 434 125 L434 138 L430 138 C381 100 326 84 265 106 L265 388 C284 382 302 368 314 350 L348 301 L355 301 L421 335 C428 342 433 360 433 380 C433 389 428 402 421 412 C399 442 334 463 265 459 L265 520 L206 520 L206 520 Z M207 145 C180 174 165 215 165 265 C165 320 181 362 207 381 L207 145 Z " />
<glyph glyph-name="guillemotleft" unicode="&#xab;" horiz-adv-x="432" d="M396 425 L196 248 L396 70 L412 70 L340 248 L412 425 L396 425 L396 425 Z M213 425 L13 248 L213 70 L229 70 L157 248 L229 425 L213 425 L213 425 Z " />
<glyph glyph-name="acute" unicode="&#xb4;" horiz-adv-x="340" d="M169 530 L186 530 L330 619 C355 634 371 707 371 707 L256 707 L169 530 L169 530 Z " />
<glyph glyph-name="periodcentered" unicode="&#xb7;" horiz-adv-x="290" d="M145 210 C193 210 225 242 225 290 C225 338 193 370 145 370 C97 370 65 338 65 290 C65 242 97 210 145 210 L145 210 Z " />
<glyph glyph-name="guillemotright" unicode="&#xbb;" horiz-adv-x="452" d="M211 425 L288 248 L211 70 L227 70 L432 248 L227 425 L211 425 L211 425 Z M20 425 L97 248 L20 70 L36 70 L241 248 L36 425 L20 425 L20 425 Z " />
<glyph glyph-name="questiondown" unicode="&#xbf;" horiz-adv-x="488" d="M256 455 C208 455 176 423 176 375 C176 327 208 295 256 295 C304 295 336 327 336 375 C336 423 304 455 256 455 L256 455 Z M322 -70 C322 -70 410 -57 448 -57 C448 -23 426 0 393 0 L333 0 C333 0 325 -14 322 -14 L322 -70 L322 -70 Z M322 -70 C322 -122 306 -156 281 -156 C225 -156 187 -108 187 -35 C187 7 235 63 308 105 C308 139 271 220 271 220 L242 220 C242 220 240 215 238 206 C128 140 55 44 55 -35 C55 -146 127 -220 236 -220 C363 -220 448 -155 448 -57 L322 -70 L322 -70 Z " />
<glyph glyph-name="Agrave" unicode="&#xc0;" horiz-adv-x="758" d="M380 705 L293 864 L178 864 C178 864 194 799 219 785 L363 705 L380 705 L380 705 Z M273 18 L192 50 L245 187 L468 187 L468 190 C486 143 505 96 523 50 L435 18 L435 0 L724 0 L724 16 L660 45 C576 252 491 458 408 665 L343 665 C260 460 178 255 95 50 L17 18 L17 0 L273 0 L273 18 L273 18 Z M438 266 L275 266 L355 476 L438 266 L438 266 Z " />
<glyph glyph-name="Aacute" unicode="&#xc1;" horiz-adv-x="758" d="M371 705 L388 705 L532 785 C557 799 573 864 573 864 L458 864 L371 705 L371 705 Z M273 18 L192 50 L245 187 L468 187 L468 190 C486 143 505 96 523 50 L435 18 L435 0 L724 0 L724 16 L660 45 C576 252 491 458 408 665 L343 665 C260 460 178 255 95 50 L17 18 L17 0 L273 0 L273 18 L273 18 Z M438 266 L275 266 L355 476 L438 266 L438 266 Z " />
<glyph glyph-name="Acircumflex" unicode="&#xc2;" horiz-adv-x="758" d="M536 705 L393 863 L363 863 L224 705 L242 705 L377 777 L518 705 L536 705 L536 705 Z M273 18 L192 50 L245 187 L468 187 L468 190 C486 143 505 96 523 50 L435 18 L435 0 L724 0 L724 16 L660 45 C576 252 491 458 408 665 L343 665 C260 460 178 255 95 50 L17 18 L17 0 L273 0 L273 18 L273 18 Z M438 266 L275 266 L355 476 L438 266 L438 266 Z " />
<glyph glyph-name="Atilde" unicode="&#xc3;" horiz-adv-x="758" d="M248 728 C258 755 267 773 291 773 C336 773 395 718 440 718 C487 718 509 766 536 840 L517 840 C507 812 497 793 474 793 C429 793 370 848 325 848 C278 848 255 800 229 728 L248 728 L248 728 Z M273 18 L192 50 L245 187 L468 187 L468 190 C486 143 505 96 523 50 L435 18 L435 0 L724 0 L724 16 L660 45 C576 252 491 458 408 665 L343 665 C260 460 178 255 95 50 L17 18 L17 0 L273 0 L273 18 L273 18 Z M438 266 L275 266 L355 476 L438 266 L438 266 Z " />
<glyph glyph-name="Adieresis" unicode="&#xc4;" horiz-adv-x="758" d="M485 735 C528 735 557 764 557 807 C557 850 528 879 485 879 C442 879 413 850 413 807 C413 764 442 735 485 735 L485 735 Z M270 735 C313 735 342 764 342 807 C342 850 313 879 270 879 C227 879 198 850 198 807 C198 764 227 735 270 735 L270 735 Z M273 18 L192 50 L245 187 L468 187 L468 190 C486 143 505 96 523 50 L435 18 L435 0 L724 0 L724 16 L660 45 C576 252 491 458 408 665 L343 665 C260 460 178 255 95 50 L17 18 L17 0 L273 0 L273 18 L273 18 Z M438 266 L275 266 L355 476 L438 266 L438 266 Z " />
<glyph glyph-name="Aring" unicode="&#xc5;" horiz-adv-x="758" d="M358 809 C358 835 364 853 374 853 C388 853 397 828 397 790 C397 765 391 744 383 744 C370 744 358 774 358 809 L358 809 Z M287 799 C287 751 329 710 378 710 C427 710 468 752 468 802 C468 853 432 887 378 887 C323 887 287 852 287 799 L287 799 Z M273 18 L192 50 L245 187 L468 187 L468 190 C486 143 505 96 523 50 L435 18 L435 0 L724 0 L724 16 L660 45 C576 252 491 458 408 665 L343 665 C260 460 178 255 95 50 L17 18 L17 0 L273 0 L273 18 L273 18 Z M438 266 L275 266 L355 476 L438 266 L438 266 Z " />
<glyph glyph-name="Ccedilla" unicode="&#xc7;" horiz-adv-x="721" d="M418 -57 C429 -34 437 -18 441 -10 C526 -6 600 12 633 37 L643 219 C637 219 632 220 627 220 C611 192 590 154 574 126 C569 118 562 110 556 106 C512 79 455 61 405 61 C285 61 205 177 205 350 C205 498 289 597 416 597 C457 597 504 580 538 554 L538 554 C545 549 552 540 556 533 C573 501 594 459 611 427 C617 427 623 428 630 428 L622 625 C594 651 512 669 417 669 C210 669 72 524 72 306 C72 121 199 -4 390 -10 C383 -25 363 -68 336 -127 L378 -146 C401 -148 417 -159 417 -174 C417 -190 402 -200 380 -200 C352 -200 327 -192 316 -180 L316 -195 C340 -222 374 -240 400 -240 C462 -240 504 -204 504 -151 C504 -105 472 -69 420 -56 L418 -57 L418 -57 Z " />
<glyph glyph-name="Egrave" unicode="&#xc8;" horiz-adv-x="658" d="M346 705 L259 864 L144 864 C144 864 160 799 185 785 L329 705 L346 705 L346 705 Z M588 204 L571 204 L513 79 L274 79 L274 300 L413 300 L455 220 L478 220 L478 460 L455 460 L413 380 L274 380 L274 581 L488 581 L546 466 L563 466 L563 660 L64 660 L64 641 L144 605 L144 55 L64 19 L64 0 L588 0 L588 204 L588 204 Z " />
<glyph glyph-name="Eacute" unicode="&#xc9;" horiz-adv-x="658" d="M337 705 L354 705 L498 785 C523 799 539 864 539 864 L424 864 L337 705 L337 705 Z M588 204 L571 204 L513 79 L274 79 L274 300 L413 300 L455 220 L478 220 L478 460 L455 460 L413 380 L274 380 L274 581 L488 581 L546 466 L563 466 L563 660 L64 660 L64 641 L144 605 L144 55 L64 19 L64 0 L588 0 L588 204 L588 204 Z " />
<glyph glyph-name="Ecircumflex" unicode="&#xca;" horiz-adv-x="658" d="M497 705 L354 863 L324 863 L185 705 L203 705 L338 777 L479 705 L497 705 L497 705 Z M588 204 L571 204 L513 79 L274 79 L274 300 L413 300 L455 220 L478 220 L478 460 L455 460 L413 380 L274 380 L274 581 L488 581 L546 466 L563 466 L563 660 L64 660 L64 641 L144 605 L144 55 L64 19 L64 0 L588 0 L588 204 L588 204 Z " />
<glyph glyph-name="Edieresis" unicode="&#xcb;" horiz-adv-x="658" d="M446 735 C489 735 518 764 518 807 C518 850 489 879 446 879 C403 879 374 850 374 807 C374 764 403 735 446 735 L446 735 Z M231 735 C274 735 303 764 303 807 C303 850 274 879 231 879 C188 879 159 850 159 807 C159 764 188 735 231 735 L231 735 Z M588 204 L571 204 L513 79 L274 79 L274 300 L413 300 L455 220 L478 220 L478 460 L455 460 L413 380 L274 380 L274 581 L488 581 L546 466 L563 466 L563 660 L64 660 L64 641 L144 605 L144 55 L64 19 L64 0 L588 0 L588 204 L588 204 Z " />
<glyph glyph-name="Igrave" unicode="&#xcc;" horiz-adv-x="429" d="M222 705 L135 864 L20 864 C20 864 36 799 61 785 L205 705 L222 705 L222 705 Z M359 0 L359 19 L279 55 L279 605 L359 641 L359 660 L70 660 L70 641 L150 605 L150 55 L70 19 L70 0 L359 0 L359 0 Z " />
<glyph glyph-name="Iacute" unicode="&#xcd;" horiz-adv-x="429" d="M214 705 L231 705 L375 785 C400 799 416 864 416 864 L301 864 L214 705 L214 705 Z M359 0 L359 19 L279 55 L279 605 L359 641 L359 660 L70 660 L70 641 L150 605 L150 55 L70 19 L70 0 L359 0 L359 0 Z " />
<glyph glyph-name="Icircumflex" unicode="&#xce;" horiz-adv-x="429" d="M373 705 L230 863 L200 863 L62 705 L79 705 L215 777 L356 705 L373 705 L373 705 Z M359 0 L359 19 L279 55 L279 605 L359 641 L359 660 L70 660 L70 641 L150 605 L150 55 L70 19 L70 0 L359 0 L359 0 Z " />
<glyph glyph-name="Idieresis" unicode="&#xcf;" horiz-adv-x="429" d="M323 735 C366 735 394 764 394 807 C394 850 366 879 323 879 C280 879 251 850 251 807 C251 764 280 735 323 735 L323 735 Z M108 735 C151 735 179 764 179 807 C179 850 151 879 108 879 C65 879 36 850 36 807 C36 764 65 735 108 735 L108 735 Z M359 0 L359 19 L279 55 L279 605 L359 641 L359 660 L70 660 L70 641 L150 605 L150 55 L70 19 L70 0 L359 0 L359 0 Z " />
<glyph glyph-name="Ntilde" unicode="&#xd1;" horiz-adv-x="811" d="M286 728 C296 755 305 773 330 773 C374 773 434 718 478 718 C526 718 548 766 575 840 L556 840 C546 812 536 793 512 793 C468 793 408 848 364 848 C316 848 293 800 267 728 L286 728 L286 728 Z M66 641 L141 605 L141 55 L61 19 L61 0 L342 0 L342 19 L242 55 L242 452 C368 300 494 148 620 -5 L670 -5 L670 605 L745 641 L745 660 L470 660 L470 641 L570 605 L570 259 L241 660 L65 660 L66 641 L66 641 Z " />
<glyph glyph-name="Ograve" unicode="&#xd2;" horiz-adv-x="817" d="M401 705 L314 864 L199 864 C199 864 215 799 240 785 L384 705 L401 705 L401 705 Z M208 375 C208 510 278 600 383 600 C519 600 610 471 610 277 C610 148 541 62 438 62 C300 62 208 187 208 375 L208 375 Z M70 324 C70 124 206 -10 409 -10 C612 -10 747 125 747 328 C747 533 612 670 409 670 C206 670 70 532 70 324 L70 324 Z " />
<glyph glyph-name="Oacute" unicode="&#xd3;" horiz-adv-x="817" d="M392 705 L409 705 L553 785 C578 799 594 864 594 864 L479 864 L392 705 L392 705 Z M208 375 C208 510 278 600 383 600 C519 600 610 471 610 277 C610 148 541 62 438 62 C300 62 208 187 208 375 L208 375 Z M70 324 C70 124 206 -10 409 -10 C612 -10 747 125 747 328 C747 533 612 670 409 670 C206 670 70 532 70 324 L70 324 Z " />
<glyph glyph-name="Ocircumflex" unicode="&#xd4;" horiz-adv-x="817" d="M552 705 L409 863 L379 863 L240 705 L258 705 L393 777 L534 705 L552 705 L552 705 Z M208 375 C208 510 278 600 383 600 C519 600 610 471 610 277 C610 148 541 62 438 62 C300 62 208 187 208 375 L208 375 Z M70 324 C70 124 206 -10 409 -10 C612 -10 747 125 747 328 C747 533 612 670 409 670 C206 670 70 532 70 324 L70 324 Z " />
<glyph glyph-name="Otilde" unicode="&#xd5;" horiz-adv-x="817" d="M259 728 C269 755 278 773 302 773 C347 773 406 718 451 718 C498 718 520 766 547 840 L528 840 C518 812 508 793 485 793 C440 793 381 848 336 848 C289 848 266 800 240 728 L259 728 L259 728 Z M208 375 C208 510 278 600 383 600 C519 600 610 471 610 277 C610 148 541 62 438 62 C300 62 208 187 208 375 L208 375 Z M70 324 C70 124 206 -10 409 -10 C612 -10 747 125 747 328 C747 533 612 670 409 670 C206 670 70 532 70 324 L70 324 Z " />
<glyph glyph-name="Odieresis" unicode="&#xd6;" horiz-adv-x="817" d="M501 735 C544 735 573 764 573 807 C573 850 544 879 501 879 C458 879 429 850 429 807 C429 764 458 735 501 735 L501 735 Z M286 735 C329 735 358 764 358 807 C358 850 329 879 286 879 C243 879 214 850 214 807 C214 764 243 735 286 735 L286 735 Z M208 375 C208 510 278 600 383 600 C519 600 610 471 610 277 C610 148 541 62 438 62 C300 62 208 187 208 375 L208 375 Z M70 324 C70 124 206 -10 409 -10 C612 -10 747 125 747 328 C747 533 612 670 409 670 C206 670 70 532 70 324 L70 324 Z " />
<glyph glyph-name="Oslash" unicode="&#xd8;" horiz-adv-x="817" d="M70 324 C70 229 101 149 155 91 L70 -9 L169 -9 L213 43 C266 9 332 -10 408 -10 C611 -10 746 125 746 328 C746 426 715 509 660 568 L746 669 L647 669 L602 616 C549 650 483 669 408 669 C205 669 69 531 69 323 L70 324 L70 324 Z M530 531 L243 193 C220 242 207 303 207 373 C207 508 277 598 382 598 C441 598 492 574 530 531 L530 531 Z M572 465 C596 414 609 350 609 277 C609 148 540 62 437 62 C377 62 325 86 286 129 L572 465 Z " />
<glyph glyph-name="Ugrave" unicode="&#xd9;" horiz-adv-x="808" d="M416 705 L329 864 L214 864 C214 864 230 799 255 785 L399 705 L416 705 L416 705 Z M135 605 L135 234 C135 88 241 -10 399 -10 C557 -10 663 88 663 234 L663 605 L743 641 L743 660 L463 660 L463 641 L563 605 L563 203 C563 125 513 73 438 73 C334 73 264 147 264 257 L264 605 L344 641 L344 660 L55 660 L55 641 L135 605 L135 605 Z " />
<glyph glyph-name="Uacute" unicode="&#xda;" horiz-adv-x="808" d="M398 705 L415 705 L559 785 C584 799 600 864 600 864 L485 864 L398 705 L398 705 Z M135 605 L135 234 C135 88 241 -10 399 -10 C557 -10 663 88 663 234 L663 605 L743 641 L743 660 L463 660 L463 641 L563 605 L563 203 C563 125 513 73 438 73 C334 73 264 147 264 257 L264 605 L344 641 L344 660 L55 660 L55 641 L135 605 L135 605 Z " />
<glyph glyph-name="Ucircumflex" unicode="&#xdb;" horiz-adv-x="808" d="M567 705 L424 863 L394 863 L256 705 L273 705 L409 777 L550 705 L567 705 L567 705 Z M135 605 L135 234 C135 88 241 -10 399 -10 C557 -10 663 88 663 234 L663 605 L743 641 L743 660 L463 660 L463 641 L563 605 L563 203 C563 125 513 73 438 73 C334 73 264 147 264 257 L264 605 L344 641 L344 660 L55 660 L55 641 L135 605 L135 605 Z " />
<glyph glyph-name="Udieresis" unicode="&#xdc;" horiz-adv-x="808" d="M517 735 C560 735 588 764 588 807 C588 850 560 879 517 879 C474 879 445 850 445 807 C445 764 474 735 517 735 L517 735 Z M302 735 C345 735 373 764 373 807 C373 850 345 879 302 879 C259 879 230 850 230 807 C230 764 259 735 302 735 L302 735 Z M135 605 L135 234 C135 88 241 -10 399 -10 C557 -10 663 88 663 234 L663 605 L743 641 L743 660 L463 660 L463 641 L563 605 L563 203 C563 125 513 73 438 73 C334 73 264 147 264 257 L264 605 L344 641 L344 660 L55 660 L55 641 L135 605 L135 605 Z " />
<glyph glyph-name="Yacute" unicode="&#xdd;" horiz-adv-x="725" d="M358 705 L375 705 L519 785 C544 799 560 864 560 864 L445 864 L358 705 L358 705 Z M303 660 L30 660 L30 642 L93 610 L306 311 L306 55 L216 19 L216 0 L525 0 L525 19 L435 55 L435 316 C501 417 567 519 634 620 L691 646 L691 660 L449 660 L449 641 L528 605 L391 393 C339 464 286 535 234 605 L303 641 L303 660 L303 660 Z " />
<glyph glyph-name="agrave" unicode="&#xe0;" horiz-adv-x="497" d="M245 530 L158 707 L43 707 C43 707 59 634 84 619 L228 530 L245 530 L245 530 Z M169 339 C169 370 183 393 201 393 C250 393 275 365 275 322 L275 259 C119 220 39 158 39 93 C39 31 81 -10 144 -10 C198 -10 250 10 285 49 C301 13 335 -9 380 -9 C428 -9 473 22 491 69 L486 77 C485 74 474 72 458 72 C417 72 389 80 389 91 C389 251 390 354 390 354 C390 418 338 461 237 461 C130 461 49 406 49 332 C49 307 61 291 79 292 L163 292 L168 297 L169 339 L169 339 Z M274 207 L274 101 C274 97 274 93 274 89 C257 81 234 77 209 77 C174 77 150 95 150 123 C150 155 192 186 274 209 L274 207 L274 207 Z " />
<glyph glyph-name="aacute" unicode="&#xe1;" horiz-adv-x="497" d="M237 530 L254 530 L398 619 C423 634 439 707 439 707 L324 707 L237 530 L237 530 Z M169 339 C169 370 183 393 201 393 C250 393 275 365 275 322 L275 259 C119 220 39 158 39 93 C39 31 81 -10 144 -10 C198 -10 250 10 285 49 C301 13 335 -9 380 -9 C428 -9 473 22 491 69 L486 77 C485 74 474 72 458 72 C417 72 389 80 389 91 C389 251 390 354 390 354 C390 418 338 461 237 461 C130 461 49 406 49 332 C49 307 61 291 79 292 L163 292 L168 297 L169 339 L169 339 Z M274 207 L274 101 C274 97 274 93 274 89 C257 81 234 77 209 77 C174 77 150 95 150 123 C150 155 192 186 274 209 L274 207 L274 207 Z " />
<glyph glyph-name="acircumflex" unicode="&#xe2;" horiz-adv-x="497" d="M396 530 L253 705 L223 705 L85 530 L102 530 L238 610 L379 530 L396 530 L396 530 Z M169 339 C169 370 183 393 201 393 C250 393 275 365 275 322 L275 259 C119 220 39 158 39 93 C39 31 81 -10 144 -10 C198 -10 250 10 285 49 C301 13 335 -9 380 -9 C428 -9 473 22 491 69 L486 77 C485 74 474 72 458 72 C417 72 389 80 389 91 C389 251 390 354 390 354 C390 418 338 461 237 461 C130 461 49 406 49 332 C49 307 61 291 79 292 L163 292 L168 297 L169 339 L169 339 Z M274 207 L274 101 C274 97 274 93 274 89 C257 81 234 77 209 77 C174 77 150 95 150 123 C150 155 192 186 274 209 L274 207 L274 207 Z " />
<glyph glyph-name="atilde" unicode="&#xe3;" horiz-adv-x="497" d="M88 555 C98 585 107 605 132 605 C176 605 236 544 280 544 C328 544 350 598 377 680 L358 680 C348 649 338 628 314 628 C270 628 210 689 166 689 C118 689 95 635 69 555 L88 555 L88 555 Z M169 339 C169 370 183 393 201 393 C250 393 275 365 275 322 L275 259 C119 220 39 158 39 93 C39 31 81 -10 144 -10 C198 -10 250 10 285 49 C301 13 335 -9 380 -9 C428 -9 473 22 491 69 L486 77 C485 74 474 72 458 72 C417 72 389 80 389 91 C389 251 390 354 390 354 C390 418 338 461 237 461 C130 461 49 406 49 332 C49 307 61 291 79 292 L163 292 L168 297 L169 339 L169 339 Z M274 207 L274 101 C274 97 274 93 274 89 C257 81 234 77 209 77 C174 77 150 95 150 123 C150 155 192 186 274 209 L274 207 L274 207 Z " />
<glyph glyph-name="adieresis" unicode="&#xe4;" horiz-adv-x="497" d="M331 570 C374 570 402 599 402 642 C402 685 374 714 331 714 C288 714 259 685 259 642 C259 599 288 570 331 570 L331 570 Z M116 570 C159 570 187 599 187 642 C187 685 159 714 116 714 C73 714 44 685 44 642 C44 599 73 570 116 570 L116 570 Z M169 339 C169 370 183 393 201 393 C250 393 275 365 275 322 L275 259 C119 220 39 158 39 93 C39 31 81 -10 144 -10 C198 -10 250 10 285 49 C301 13 335 -9 380 -9 C428 -9 473 22 491 69 L486 77 C485 74 474 72 458 72 C417 72 389 80 389 91 C389 251 390 354 390 354 C390 418 338 461 237 461 C130 461 49 406 49 332 C49 307 61 291 79 292 L163 292 L168 297 L169 339 L169 339 Z M274 207 L274 101 C274 97 274 93 274 89 C257 81 234 77 209 77 C174 77 150 95 150 123 C150 155 192 186 274 209 L274 207 L274 207 Z " />
<glyph glyph-name="aring" unicode="&#xe5;" horiz-adv-x="497" d="M208 634 C208 660 215 678 225 678 C239 678 248 653 248 615 C248 590 242 569 234 569 C220 569 208 599 208 634 L208 634 Z M137 624 C137 576 179 535 228 535 C277 535 319 577 319 627 C319 678 283 712 228 712 C173 712 137 677 137 624 L137 624 Z M169 339 C169 370 183 393 201 393 C250 393 275 365 275 322 L275 259 C119 220 39 158 39 93 C39 31 81 -10 144 -10 C198 -10 250 10 285 49 C301 13 335 -9 380 -9 C428 -9 473 22 491 69 L486 77 C485 74 474 72 458 72 C417 72 389 80 389 91 C389 251 390 354 390 354 C390 418 338 461 237 461 C130 461 49 406 49 332 C49 307 61 291 79 292 L163 292 L168 297 L169 339 L169 339 Z M274 207 L274 101 C274 97 274 93 274 89 C257 81 234 77 209 77 C174 77 150 95 150 123 C150 155 192 186 274 209 L274 207 L274 207 Z " />
<glyph glyph-name="ccedilla" unicode="&#xe7;" horiz-adv-x="477" d="M275 -57 C288 -28 296 -10 298 -6 C355 9 406 57 432 124 L432 137 L428 137 C396 112 353 95 321 95 C226 95 163 162 163 263 C163 340 194 391 240 391 C266 391 295 374 312 349 L346 300 L353 300 L419 334 C426 341 431 359 431 379 C431 388 426 401 419 411 C399 439 344 458 280 458 C141 458 49 354 49 198 C49 77 126 -5 244 -12 C237 -27 217 -70 190 -129 L232 -148 C255 -150 271 -161 271 -176 C271 -192 256 -202 234 -202 C206 -202 181 -194 170 -182 L170 -197 C194 -224 228 -242 254 -242 C316 -242 358 -206 358 -153 C358 -107 326 -71 274 -58 L275 -57 L275 -57 Z " />
<glyph glyph-name="egrave" unicode="&#xe8;" horiz-adv-x="483" d="M259 530 L172 707 L57 707 C57 707 73 634 98 619 L242 530 L259 530 L259 530 Z M167 307 C176 361 204 395 243 395 C282 395 311 362 323 307 L167 307 Z M381 240 L432 247 C432 375 363 460 260 460 C133 460 49 356 49 200 C49 74 133 -10 260 -10 C331 -10 400 44 432 126 L432 139 L428 139 C396 114 353 97 321 97 C234 97 174 153 164 240 L381 240 L381 240 Z " />
<glyph glyph-name="eacute" unicode="&#xe9;" horiz-adv-x="483" d="M250 530 L267 530 L411 619 C436 634 452 707 452 707 L337 707 L250 530 L250 530 Z M167 307 C176 361 204 395 243 395 C282 395 311 362 323 307 L167 307 Z M381 240 L432 247 C432 375 363 460 260 460 C133 460 49 356 49 200 C49 74 133 -10 260 -10 C331 -10 400 44 432 126 L432 139 L428 139 C396 114 353 97 321 97 C234 97 174 153 164 240 L381 240 L381 240 Z " />
<glyph glyph-name="ecircumflex" unicode="&#xea;" horiz-adv-x="483" d="M410 530 L267 705 L237 705 L98 530 L116 530 L252 610 L392 530 L410 530 L410 530 Z M167 307 C176 361 204 395 243 395 C282 395 311 362 323 307 L167 307 Z M381 240 L432 247 C432 375 363 460 260 460 C133 460 49 356 49 200 C49 74 133 -10 260 -10 C331 -10 400 44 432 126 L432 139 L428 139 C396 114 353 97 321 97 C234 97 174 153 164 240 L381 240 L381 240 Z " />
<glyph glyph-name="edieresis" unicode="&#xeb;" horiz-adv-x="483" d="M359 570 C402 570 431 599 431 642 C431 685 402 714 359 714 C316 714 287 685 287 642 C287 599 316 570 359 570 L359 570 Z M144 570 C187 570 216 599 216 642 C216 685 187 714 144 714 C101 714 72 685 72 642 C72 599 101 570 144 570 L144 570 Z M167 307 C176 361 204 395 243 395 C282 395 311 362 323 307 L167 307 Z M381 240 L432 247 C432 375 363 460 260 460 C133 460 49 356 49 200 C49 74 133 -10 260 -10 C331 -10 400 44 432 126 L432 139 L428 139 C396 114 353 97 321 97 C234 97 174 153 164 240 L381 240 L381 240 Z " />
<glyph glyph-name="igrave" unicode="&#xec;" horiz-adv-x="352" d="M179 530 L92 707 L-23 707 C-23 707 -7 634 18 619 L162 530 L179 530 L179 530 Z M299 0 L299 18 L234 50 L234 460 L211 460 L54 396 L54 390 L78 369 C103 348 119 334 119 334 L119 50 L54 18 L54 0 L299 0 L299 0 Z " />
<glyph glyph-name="iacute" unicode="&#xed;" horiz-adv-x="352" d="M171 530 L188 530 L332 619 C357 634 373 707 373 707 L258 707 L171 530 L171 530 Z M299 0 L299 18 L234 50 L234 460 L211 460 L54 396 L54 390 L78 369 C103 348 119 334 119 334 L119 50 L54 18 L54 0 L299 0 L299 0 Z " />
<glyph glyph-name="icircumflex" unicode="&#xee;" horiz-adv-x="352" d="M330 530 L187 705 L157 705 L19 530 L36 530 L172 610 L313 530 L330 530 L330 530 Z M299 0 L299 18 L234 50 L234 460 L211 460 L54 396 L54 390 L78 369 C103 348 119 334 119 334 L119 50 L54 18 L54 0 L299 0 L299 0 Z " />
<glyph glyph-name="idieresis" unicode="&#xef;" horiz-adv-x="352" d="M280 570 C323 570 351 599 351 642 C351 685 323 714 280 714 C237 714 208 685 208 642 C208 599 237 570 280 570 L280 570 Z M65 570 C108 570 136 599 136 642 C136 685 108 714 65 714 C22 714 -7 685 -7 642 C-7 599 22 570 65 570 L65 570 Z M299 0 L299 18 L234 50 L234 460 L211 460 L54 396 L54 390 L78 369 C103 348 119 334 119 334 L119 50 L54 18 L54 0 L299 0 L299 0 Z " />
<glyph glyph-name="ntilde" unicode="&#xf1;" horiz-adv-x="599" d="M170 555 C180 585 189 605 213 605 C258 605 317 544 362 544 C409 544 431 598 458 680 L439 680 C429 649 419 628 396 628 C351 628 292 689 247 689 C200 689 177 635 151 555 L170 555 L170 555 Z M559 0 L559 18 L494 50 L494 343 C494 413 443 460 367 460 C319 460 273 430 228 384 L226 384 C225 419 224 460 224 460 L201 460 L50 396 L50 390 L74 369 C99 348 115 334 115 334 L115 50 L50 18 L50 0 L300 0 L300 18 L230 50 L230 341 C246 352 269 359 304 359 C349 359 379 326 379 277 L379 50 L309 18 L309 0 L559 0 L559 0 Z " />
<glyph glyph-name="ograve" unicode="&#xf2;" horiz-adv-x="548" d="M281 530 L194 707 L79 707 C79 707 95 634 120 619 L264 530 L281 530 L281 530 Z M182 225 C182 330 206 400 254 400 C321 400 366 330 366 225 C366 120 342 50 294 50 C227 50 182 120 182 225 L182 225 Z M50 225 C50 84 140 -10 274 -10 C422 -10 498 84 498 225 C498 366 408 460 274 460 C126 460 50 366 50 225 L50 225 Z " />
<glyph glyph-name="oacute" unicode="&#xf3;" horiz-adv-x="548" d="M273 530 L290 530 L434 619 C459 634 475 707 475 707 L360 707 L273 530 L273 530 Z M182 225 C182 330 206 400 254 400 C321 400 366 330 366 225 C366 120 342 50 294 50 C227 50 182 120 182 225 L182 225 Z M50 225 C50 84 140 -10 274 -10 C422 -10 498 84 498 225 C498 366 408 460 274 460 C126 460 50 366 50 225 L50 225 Z " />
<glyph glyph-name="ocircumflex" unicode="&#xf4;" horiz-adv-x="548" d="M432 530 L289 705 L259 705 L121 530 L138 530 L274 610 L415 530 L432 530 L432 530 Z M182 225 C182 330 206 400 254 400 C321 400 366 330 366 225 C366 120 342 50 294 50 C227 50 182 120 182 225 L182 225 Z M50 225 C50 84 140 -10 274 -10 C422 -10 498 84 498 225 C498 366 408 460 274 460 C126 460 50 366 50 225 L50 225 Z " />
<glyph glyph-name="otilde" unicode="&#xf5;" horiz-adv-x="548" d="M139 555 C149 585 158 605 183 605 C227 605 287 544 331 544 C379 544 401 598 428 680 L409 680 C399 649 389 628 365 628 C321 628 261 689 217 689 C169 689 146 635 120 555 L139 555 L139 555 Z M182 225 C182 330 206 400 254 400 C321 400 366 330 366 225 C366 120 342 50 294 50 C227 50 182 120 182 225 L182 225 Z M50 225 C50 84 140 -10 274 -10 C422 -10 498 84 498 225 C498 366 408 460 274 460 C126 460 50 366 50 225 L50 225 Z " />
<glyph glyph-name="odieresis" unicode="&#xf6;" horiz-adv-x="548" d="M382 570 C425 570 453 599 453 642 C453 685 425 714 382 714 C339 714 310 685 310 642 C310 599 339 570 382 570 L382 570 Z M167 570 C210 570 238 599 238 642 C238 685 210 714 167 714 C124 714 95 685 95 642 C95 599 124 570 167 570 L167 570 Z M182 225 C182 330 206 400 254 400 C321 400 366 330 366 225 C366 120 342 50 294 50 C227 50 182 120 182 225 L182 225 Z M50 225 C50 84 140 -10 274 -10 C422 -10 498 84 498 225 C498 366 408 460 274 460 C126 460 50 366 50 225 L50 225 Z " />
<glyph glyph-name="oslash" unicode="&#xf8;" horiz-adv-x="548" d="M50 225 C50 159 70 103 105 62 L50 -11 L145 -11 L164 14 C196 -2 233 -11 274 -11 C422 -11 498 83 498 224 C498 290 478 346 443 387 L498 460 L403 460 L384 435 C352 451 315 460 274 460 C126 460 50 366 50 225 L50 225 Z M329 361 L187 171 C184 188 183 206 183 225 C183 330 207 400 255 400 C285 400 311 386 330 361 L329 361 L329 361 Z M363 278 C366 261 367 243 367 224 C367 119 343 49 295 49 C265 49 239 63 220 88 L363 278 Z " />
<glyph glyph-name="ugrave" unicode="&#xf9;" horiz-adv-x="561" d="M283 530 L196 707 L81 707 C81 707 97 634 122 619 L266 530 L283 530 L283 530 Z M355 400 L355 107 C338 99 311 95 280 95 C235 95 205 127 205 176 L205 450 L25 450 L25 432 L90 400 L90 107 C90 37 140 -10 214 -10 C255 -10 306 13 354 57 L354 -1 L539 -1 L539 17 L469 49 L469 449 L284 449 L284 431 L355 400 L355 400 Z " />
<glyph glyph-name="uacute" unicode="&#xfa;" horiz-adv-x="561" d="M274 530 L291 530 L435 619 C460 634 476 707 476 707 L361 707 L274 530 L274 530 Z M355 400 L355 107 C338 99 311 95 280 95 C235 95 205 127 205 176 L205 450 L25 450 L25 432 L90 400 L90 107 C90 37 140 -10 214 -10 C255 -10 306 13 354 57 L354 -1 L539 -1 L539 17 L469 49 L469 449 L284 449 L284 431 L355 400 L355 400 Z " />
<glyph glyph-name="ucircumflex" unicode="&#xfb;" horiz-adv-x="561" d="M434 530 L291 705 L261 705 L122 530 L140 530 L276 610 L416 530 L434 530 L434 530 Z M355 400 L355 107 C338 99 311 95 280 95 C235 95 205 127 205 176 L205 450 L25 450 L25 432 L90 400 L90 107 C90 37 140 -10 214 -10 C255 -10 306 13 354 57 L354 -1 L539 -1 L539 17 L469 49 L469 449 L284 449 L284 431 L355 400 L355 400 Z " />
<glyph glyph-name="udieresis" unicode="&#xfc;" horiz-adv-x="561" d="M383 570 C426 570 455 599 455 642 C455 685 426 714 383 714 C340 714 311 685 311 642 C311 599 340 570 383 570 L383 570 Z M168 570 C211 570 240 599 240 642 C240 685 211 714 168 714 C125 714 96 685 96 642 C96 599 125 570 168 570 L168 570 Z M355 400 L355 107 C338 99 311 95 280 95 C235 95 205 127 205 176 L205 450 L25 450 L25 432 L90 400 L90 107 C90 37 140 -10 214 -10 C255 -10 306 13 354 57 L354 -1 L539 -1 L539 17 L469 49 L469 449 L284 449 L284 431 L355 400 L355 400 Z " />
<glyph glyph-name="yacute" unicode="&#xfd;" horiz-adv-x="483" d="M286 530 L303 530 L447 619 C472 634 488 707 488 707 L373 707 L286 530 L286 530 Z M258 450 L-25 450 L-25 432 L44 400 L213 14 L186 -51 C167 -101 144 -120 103 -120 L37 -120 L33 -124 L33 -198 C33 -228 47 -240 82 -240 C148 -240 192 -193 239 -71 L433 395 L508 431 L508 450 L294 450 L294 431 L371 395 L274 161 C239 241 204 321 170 400 L258 432 L258 450 L258 450 Z " />
<glyph glyph-name="ydieresis" unicode="&#xff;" horiz-adv-x="483" d="M395 570 C438 570 466 599 466 642 C466 685 438 714 395 714 C352 714 323 685 323 642 C323 599 352 570 395 570 L395 570 Z M180 570 C223 570 251 599 251 642 C251 685 223 714 180 714 C137 714 108 685 108 642 C108 599 137 570 180 570 L180 570 Z M258 450 L-25 450 L-25 432 L44 400 L213 14 L186 -51 C167 -101 144 -120 103 -120 L37 -120 L33 -124 L33 -198 C33 -228 47 -240 82 -240 C148 -240 192 -193 239 -71 L433 395 L508 431 L508 450 L294 450 L294 431 L371 395 L274 161 C239 241 204 321 170 400 L258 432 L258 450 L258 450 Z " />
<glyph glyph-name="Amacron" unicode="&#x100;" horiz-adv-x="758" d="M245 763 L511 763 L511 835 L245 835 L245 763 L245 763 Z M273 18 L192 50 L245 187 L468 187 L468 190 C486 143 505 96 523 50 L435 18 L435 0 L724 0 L724 16 L660 45 C576 252 491 458 408 665 L343 665 C260 460 178 255 95 50 L17 18 L17 0 L273 0 L273 18 L273 18 Z M438 266 L275 266 L355 476 L438 266 L438 266 Z " />
<glyph glyph-name="amacron" unicode="&#x101;" horiz-adv-x="497" d="M95 593 L361 593 L361 665 L95 665 L95 593 L95 593 Z M169 339 C169 370 183 393 201 393 C250 393 275 365 275 322 L275 259 C119 220 39 158 39 93 C39 31 81 -10 144 -10 C198 -10 250 10 285 49 C301 13 335 -9 380 -9 C428 -9 473 22 491 69 L486 77 C485 74 474 72 458 72 C417 72 389 80 389 91 C389 251 390 354 390 354 C390 418 338 461 237 461 C130 461 49 406 49 332 C49 307 61 291 79 292 L163 292 L168 297 L169 339 L169 339 Z M274 207 L274 101 C274 97 274 93 274 89 C257 81 234 77 209 77 C174 77 150 95 150 123 C150 155 192 186 274 209 L274 207 L274 207 Z " />
<glyph glyph-name="Abreve" unicode="&#x102;" horiz-adv-x="758" d="M238 868 L218 868 C258 757 303 714 378 714 C452 714 497 757 537 868 L517 868 C499 819 461 800 378 800 C295 800 256 819 238 868 L238 868 Z M273 18 L192 50 L245 187 L468 187 L468 190 C486 143 505 96 523 50 L435 18 L435 0 L724 0 L724 16 L660 45 C576 252 491 458 408 665 L343 665 C260 460 178 255 95 50 L17 18 L17 0 L273 0 L273 18 L273 18 Z M438 266 L275 266 L355 476 L438 266 L438 266 Z " />
<glyph glyph-name="abreve" unicode="&#x103;" horiz-adv-x="497" d="M88 711 L68 711 C108 588 153 540 228 540 C303 540 348 588 388 711 L368 711 C350 657 311 636 228 636 C145 636 106 657 88 711 L88 711 Z M169 339 C169 370 183 393 201 393 C250 393 275 365 275 322 L275 259 C119 220 39 158 39 93 C39 31 81 -10 144 -10 C198 -10 250 10 285 49 C301 13 335 -9 380 -9 C428 -9 473 22 491 69 L486 77 C485 74 474 72 458 72 C417 72 389 80 389 91 C389 251 390 354 390 354 C390 418 338 461 237 461 C130 461 49 406 49 332 C49 307 61 291 79 292 L163 292 L168 297 L169 339 L169 339 Z M274 207 L274 101 C274 97 274 93 274 89 C257 81 234 77 209 77 C174 77 150 95 150 123 C150 155 192 186 274 209 L274 207 L274 207 Z " />
<glyph glyph-name="Cacute" unicode="&#x106;" horiz-adv-x="721" d="M369 705 L386 705 L530 785 C555 799 571 864 571 864 L456 864 L369 705 L369 705 Z M631 37 L641 219 C635 219 630 220 625 220 C609 192 588 154 572 126 C567 118 560 110 554 106 C510 79 453 61 403 61 C283 61 203 177 203 350 C203 498 287 597 414 597 C455 597 502 580 536 554 L536 554 C543 549 550 540 554 533 C571 501 592 459 609 427 C615 427 621 428 628 428 L620 625 C592 651 510 669 415 669 C208 669 70 524 70 306 C70 116 204 -11 404 -11 C503 -11 594 8 631 36 L631 37 L631 37 Z " />
<glyph glyph-name="cacute" unicode="&#x107;" horiz-adv-x="477" d="M259 530 L276 530 L420 619 C445 634 461 707 461 707 L346 707 L259 530 L259 530 Z M429 139 C397 114 354 97 322 97 C227 97 164 164 164 265 C164 342 195 393 241 393 C267 393 296 376 313 351 L347 302 L354 302 L420 336 C427 343 432 361 432 381 C432 390 427 403 420 413 C400 441 345 460 281 460 C142 460 50 356 50 200 C50 74 134 -10 261 -10 C332 -10 401 44 433 126 L433 139 L429 139 L429 139 Z " />
<glyph glyph-name="Ccaron" unicode="&#x10c;" horiz-adv-x="721" d="M405 710 L548 867 L531 867 L390 795 L254 867 L237 867 L375 710 L405 710 L405 710 Z M631 37 L641 219 C635 219 630 220 625 220 C609 192 588 154 572 126 C567 118 560 110 554 106 C510 79 453 61 403 61 C283 61 203 177 203 350 C203 498 287 597 414 597 C455 597 502 580 536 554 L536 554 C543 549 550 540 554 533 C571 501 592 459 609 427 C615 427 621 428 628 428 L620 625 C592 651 510 669 415 669 C208 669 70 524 70 306 C70 116 204 -11 404 -11 C503 -11 594 8 631 36 L631 37 L631 37 Z " />
<glyph glyph-name="ccaron" unicode="&#x10d;" horiz-adv-x="477" d="M275 535 L418 710 L401 710 L260 630 L124 710 L107 710 L245 535 L275 535 L275 535 Z M429 139 C397 114 354 97 322 97 C227 97 164 164 164 265 C164 342 195 393 241 393 C267 393 296 376 313 351 L347 302 L354 302 L420 336 C427 343 432 361 432 381 C432 390 427 403 420 413 C400 441 345 460 281 460 C142 460 50 356 50 200 C50 74 134 -10 261 -10 C332 -10 401 44 433 126 L433 139 L429 139 L429 139 Z " />
<glyph glyph-name="Dcaron" unicode="&#x10e;" horiz-adv-x="785" d="M455 710 L598 867 L580 867 L439 795 L304 867 L286 867 L425 710 L455 710 L455 710 Z M381 0 C581 0 715 131 715 363 C715 559 572 660 357 660 L64 660 L64 641 L144 605 L144 55 L64 19 L64 0 L381 0 L381 0 Z M274 79 L274 581 L320 581 C476 581 580 490 580 314 C580 164 499 79 378 79 L274 79 L274 79 Z " />
<glyph glyph-name="dcaron" unicode="&#x10f;" horiz-adv-x="583" d="M663 750 L555 750 L530 563 L547 563 L675 752 C672 749 670 750 662 750 L663 750 L663 750 Z M674 752 L683 765 C678 758 676 754 674 752 L674 752 Z M683 765 L684 767 C684 766 684 765 684 764 L683 765 L683 765 Z M535 0 L535 18 L465 50 L465 752 L442 752 L285 704 L285 699 L319 671 C338 656 350 646 350 646 L350 456 C330 459 309 460 287 460 C144 460 48 352 48 191 C48 70 113 -10 211 -10 C266 -10 320 13 353 50 L365 0 L535 0 L535 0 Z M351 338 L351 102 C337 93 316 88 293 88 C215 88 163 144 163 229 C163 327 205 392 269 392 C269 392 301 371 351 338 L351 338 Z " />
<glyph glyph-name="Emacron" unicode="&#x112;" horiz-adv-x="658" d="M206 763 L472 763 L472 835 L206 835 L206 763 L206 763 Z M588 204 L571 204 L513 79 L274 79 L274 300 L413 300 L455 220 L478 220 L478 460 L455 460 L413 380 L274 380 L274 581 L488 581 L546 466 L563 466 L563 660 L64 660 L64 641 L144 605 L144 55 L64 19 L64 0 L588 0 L588 204 L588 204 Z " />
<glyph glyph-name="emacron" unicode="&#x113;" horiz-adv-x="483" d="M124 593 L390 593 L390 665 L124 665 L124 593 L124 593 Z M167 307 C176 361 204 395 243 395 C282 395 311 362 323 307 L167 307 Z M381 240 L432 247 C432 375 363 460 260 460 C133 460 49 356 49 200 C49 74 133 -10 260 -10 C331 -10 400 44 432 126 L432 139 L428 139 C396 114 353 97 321 97 C234 97 174 153 164 240 L381 240 L381 240 Z " />
<glyph glyph-name="Edot" unicode="&#x116;" horiz-adv-x="658" d="M344 725 C392 725 424 757 424 805 C424 853 392 885 344 885 C296 885 264 853 264 805 C264 757 296 725 344 725 L344 725 Z M588 204 L571 204 L513 79 L274 79 L274 300 L413 300 L455 220 L478 220 L478 460 L455 460 L413 380 L274 380 L274 581 L488 581 L546 466 L563 466 L563 660 L64 660 L64 641 L144 605 L144 55 L64 19 L64 0 L588 0 L588 204 L588 204 Z " />
<glyph glyph-name="edot" unicode="&#x117;" horiz-adv-x="483" d="M262 583 C310 583 342 615 342 663 C342 711 310 743 262 743 C214 743 182 711 182 663 C182 615 214 583 262 583 L262 583 Z M167 307 C176 361 204 395 243 395 C282 395 311 362 323 307 L167 307 Z M381 240 L432 247 C432 375 363 460 260 460 C133 460 49 356 49 200 C49 74 133 -10 260 -10 C331 -10 400 44 432 126 L432 139 L428 139 C396 114 353 97 321 97 C234 97 174 153 164 240 L381 240 L381 240 Z " />
<glyph glyph-name="Ecaron" unicode="&#x11a;" horiz-adv-x="658" d="M354 710 L497 867 L479 867 L338 795 L203 867 L185 867 L324 710 L354 710 L354 710 Z M588 204 L571 204 L513 79 L274 79 L274 300 L413 300 L455 220 L478 220 L478 460 L455 460 L413 380 L274 380 L274 581 L488 581 L546 466 L563 466 L563 660 L64 660 L64 641 L144 605 L144 55 L64 19 L64 0 L588 0 L588 204 L588 204 Z " />
<glyph glyph-name="ecaron" unicode="&#x11b;" horiz-adv-x="483" d="M267 535 L410 710 L392 710 L252 630 L116 710 L98 710 L237 535 L267 535 L267 535 Z M167 307 C176 361 204 395 243 395 C282 395 311 362 323 307 L167 307 Z M381 240 L432 247 C432 375 363 460 260 460 C133 460 49 356 49 200 C49 74 133 -10 260 -10 C331 -10 400 44 432 126 L432 139 L428 139 C396 114 353 97 321 97 C234 97 174 153 164 240 L381 240 L381 240 Z " />
<glyph glyph-name="Gbreve" unicode="&#x11e;" horiz-adv-x="779" d="M260 868 L240 868 C280 757 325 714 400 714 C475 714 520 757 560 868 L540 868 C522 819 483 800 400 800 C317 800 278 819 260 868 L260 868 Z M659 235 L734 271 L734 290 L445 290 L445 271 L530 235 L530 92 C506 82 476 76 445 76 C300 76 204 186 204 352 C204 500 292 599 425 599 C471 599 523 581 561 553 C567 548 572 541 575 534 C592 502 613 460 630 428 C636 428 642 429 649 429 L641 626 L607 585 L641 626 C610 652 524 670 426 670 C213 670 71 525 71 307 C71 117 205 -10 406 -10 C501 -10 603 36 660 104 L659 235 L659 235 Z " />
<glyph glyph-name="gbreve" unicode="&#x11f;" horiz-adv-x="554" d="M127 711 L107 711 C147 588 192 540 267 540 C342 540 387 588 427 711 L407 711 C389 657 350 636 267 636 C184 636 145 657 127 711 L127 711 Z M504 450 C460 444 416 438 373 432 C343 450 305 460 261 460 C140 460 78 396 78 300 C78 241 104 194 148 166 C95 144 62 107 62 70 C62 27 90 -5 135 -18 C84 -38 52 -91 52 -124 C52 -193 127 -239 240 -239 C379 -239 472 -163 472 -48 C472 26 436 76 344 76 L218 76 C185 76 163 92 163 117 C163 133 171 146 183 149 L183 149 C206 141 232 137 260 137 C381 137 444 203 444 303 C444 331 438 356 426 378 L504 373 L504 450 L504 450 Z M197 305 C197 364 216 404 252 404 C297 404 327 362 327 299 C327 237 310 195 278 195 C229 195 197 239 197 305 L197 305 Z M183 -24 L287 -24 C345 -24 368 -46 368 -79 C368 -150 323 -198 256 -198 C196 -198 156 -162 156 -108 C156 -63 167 -24 183 -24 L183 -24 Z " />
<glyph glyph-name="Itilde" unicode="&#x128;" horiz-adv-x="429" d="M80 705 C90 735 99 755 124 755 C168 755 228 694 272 694 C320 694 342 748 369 830 L350 830 C340 799 330 778 306 778 C262 778 202 839 158 839 C110 839 87 785 61 705 L80 705 L80 705 Z M359 0 L359 19 L279 55 L279 605 L359 641 L359 660 L70 660 L70 641 L150 605 L150 55 L70 19 L70 0 L359 0 L359 0 Z " />
<glyph glyph-name="itilde" unicode="&#x129;" horiz-adv-x="352" d="M42 530 C52 560 61 580 86 580 C130 580 190 519 234 519 C282 519 304 573 331 655 L312 655 C302 624 292 603 268 603 C224 603 164 664 120 664 C72 664 49 610 23 530 L42 530 L42 530 Z M299 0 L299 18 L234 50 L234 460 L211 460 L54 396 L54 390 L78 369 C103 348 119 334 119 334 L119 50 L54 18 L54 0 L299 0 L299 0 Z " />
<glyph glyph-name="Imacron" unicode="&#x12a;" horiz-adv-x="429" d="M82 763 L348 763 L348 835 L82 835 L82 763 L82 763 Z M359 0 L359 19 L279 55 L279 605 L359 641 L359 660 L70 660 L70 641 L150 605 L150 55 L70 19 L70 0 L359 0 L359 0 Z " />
<glyph glyph-name="imacron" unicode="&#x12b;" horiz-adv-x="352" d="M39 593 L305 593 L305 665 L39 665 L39 593 L39 593 Z M299 0 L299 18 L234 50 L234 460 L211 460 L54 396 L54 390 L78 369 C103 348 119 334 119 334 L119 50 L54 18 L54 0 L299 0 L299 0 Z " />
<glyph glyph-name="Idot" unicode="&#x130;" horiz-adv-x="429" d="M215 725 C263 725 295 757 295 805 C295 853 263 885 215 885 C167 885 135 853 135 805 C135 757 167 725 215 725 L215 725 Z M359 0 L359 19 L279 55 L279 605 L359 641 L359 660 L70 660 L70 641 L150 605 L150 55 L70 19 L70 0 L359 0 L359 0 Z " />
<glyph glyph-name="dotlessi" unicode="&#x131;" horiz-adv-x="352" d="M299 0 L299 18 L234 50 L234 460 L211 460 L54 396 L54 390 L78 369 C103 348 119 334 119 334 L119 50 L54 18 L54 0 L299 0 L299 0 Z " />
<glyph glyph-name="Lacute" unicode="&#x139;" horiz-adv-x="642" d="M193 705 L210 705 L354 785 C379 799 395 864 395 864 L280 864 L193 705 L193 705 Z M572 244 L554 244 L492 79 L274 79 L274 605 L359 641 L359 660 L64 660 L64 641 L144 605 L144 55 L64 19 L64 0 L572 0 L572 244 L572 244 Z " />
<glyph glyph-name="lacute" unicode="&#x13a;" horiz-adv-x="333" d="M150 765 L168 765 L319 845 C346 859 362 924 362 924 L242 924 L150 765 L150 765 Z M289 0 L289 18 L224 50 L224 760 L201 760 L44 696 L44 690 L68 669 C93 648 109 634 109 634 L109 50 L44 18 L44 0 L289 0 L289 0 Z " />
<glyph glyph-name="Lcaron" unicode="&#x13d;" horiz-adv-x="642" d="M520 660 L412 660 L387 473 L404 473 L532 662 C529 659 527 660 519 660 L520 660 L520 660 Z M531 662 L540 675 C535 668 533 664 531 662 L531 662 Z M540 675 L541 677 C541 676 541 675 541 674 L540 675 L540 675 Z M572 244 L554 244 L492 79 L274 79 L274 605 L359 641 L359 660 L64 660 L64 641 L144 605 L144 55 L64 19 L64 0 L572 0 L572 244 L572 244 Z " />
<glyph glyph-name="lcaron" unicode="&#x13e;" horiz-adv-x="333" d="M422 750 L314 750 L289 563 L306 563 L434 752 C431 749 429 750 421 750 L422 750 L422 750 Z M433 752 L442 765 C437 758 435 754 433 752 L433 752 Z M442 765 L443 767 C443 766 443 765 443 764 L442 765 L442 765 Z M289 0 L289 18 L224 50 L224 760 L201 760 L44 696 L44 690 L68 669 C93 648 109 634 109 634 L109 50 L44 18 L44 0 L289 0 L289 0 Z " />
<glyph glyph-name="Nacute" unicode="&#x143;" horiz-adv-x="811" d="M415 705 L432 705 L576 785 C601 799 617 864 617 864 L502 864 L415 705 L415 705 Z M66 641 L141 605 L141 55 L61 19 L61 0 L342 0 L342 19 L242 55 L242 452 C368 300 494 148 620 -5 L670 -5 L670 605 L745 641 L745 660 L470 660 L470 641 L570 605 L570 259 L241 660 L65 660 L66 641 L66 641 Z " />
<glyph glyph-name="nacute" unicode="&#x144;" horiz-adv-x="599" d="M303 530 L320 530 L464 619 C489 634 505 707 505 707 L390 707 L303 530 L303 530 Z M559 0 L559 18 L494 50 L494 343 C494 413 443 460 367 460 C319 460 273 430 228 384 L226 384 C225 419 224 460 224 460 L201 460 L50 396 L50 390 L74 369 C99 348 115 334 115 334 L115 50 L50 18 L50 0 L300 0 L300 18 L230 50 L230 341 C246 352 269 359 304 359 C349 359 379 326 379 277 L379 50 L309 18 L309 0 L559 0 L559 0 Z " />
<glyph glyph-name="Ncaron" unicode="&#x147;" horiz-adv-x="811" d="M431 710 L574 867 L557 867 L416 795 L280 867 L263 867 L401 710 L431 710 L431 710 Z M66 641 L141 605 L141 55 L61 19 L61 0 L342 0 L342 19 L242 55 L242 452 C368 300 494 148 620 -5 L670 -5 L670 605 L745 641 L745 660 L470 660 L470 641 L570 605 L570 259 L241 660 L65 660 L66 641 L66 641 Z " />
<glyph glyph-name="ncaron" unicode="&#x148;" horiz-adv-x="599" d="M320 535 L463 710 L445 710 L305 630 L169 710 L151 710 L290 535 L320 535 L320 535 Z M559 0 L559 18 L494 50 L494 343 C494 413 443 460 367 460 C319 460 273 430 228 384 L226 384 C225 419 224 460 224 460 L201 460 L50 396 L50 390 L74 369 C99 348 115 334 115 334 L115 50 L50 18 L50 0 L300 0 L300 18 L230 50 L230 341 C246 352 269 359 304 359 C349 359 379 326 379 277 L379 50 L309 18 L309 0 L559 0 L559 0 Z " />
<glyph glyph-name="Omacron" unicode="&#x14c;" horiz-adv-x="817" d="M261 763 L527 763 L527 835 L261 835 L261 763 L261 763 Z M208 375 C208 510 278 600 383 600 C519 600 610 471 610 277 C610 148 541 62 438 62 C300 62 208 187 208 375 L208 375 Z M70 324 C70 124 206 -10 409 -10 C612 -10 747 125 747 328 C747 533 612 670 409 670 C206 670 70 532 70 324 L70 324 Z " />
<glyph glyph-name="omacron" unicode="&#x14d;" horiz-adv-x="548" d="M141 593 L407 593 L407 665 L141 665 L141 593 L141 593 Z M182 225 C182 330 206 400 254 400 C321 400 366 330 366 225 C366 120 342 50 294 50 C227 50 182 120 182 225 L182 225 Z M50 225 C50 84 140 -10 274 -10 C422 -10 498 84 498 225 C498 366 408 460 274 460 C126 460 50 366 50 225 L50 225 Z " />
<glyph glyph-name="Racute" unicode="&#x154;" horiz-adv-x="710" d="M293 705 L310 705 L454 785 C479 799 495 864 495 864 L380 864 L293 705 L293 705 Z M697 18 C672 29 647 40 622 51 L440 296 C523 326 573 391 573 476 C573 587 485 661 352 661 L63 661 L63 642 L143 606 L143 56 L63 20 L63 1 L348 1 L348 20 L273 56 L273 278 L292 278 L498 1 L696 1 L697 18 L697 18 Z M273 357 L273 582 L321 582 C388 582 433 535 433 464 C433 399 402 356 356 356 L273 357 L273 357 Z " />
<glyph glyph-name="racute" unicode="&#x155;" horiz-adv-x="419" d="M261 530 L278 530 L422 619 C447 634 463 707 463 707 L348 707 L261 530 L261 530 Z M335 460 C307 460 271 425 230 372 L230 378 L227 378 C225 414 224 460 224 460 L201 460 L50 396 L50 390 L74 369 C99 348 115 334 115 334 L115 50 L50 18 L50 0 L300 0 L300 18 L230 50 L230 323 C243 338 254 347 264 347 C288 347 316 342 334 334 C346 328 372 313 372 313 L379 313 C403 362 419 400 419 409 C419 422 409 438 393 448 C381 456 353 459 335 459 L335 460 L335 460 Z " />
<glyph glyph-name="Rcaron" unicode="&#x158;" horiz-adv-x="710" d="M697 18 C672 29 647 40 622 51 L440 296 C523 326 573 391 573 476 C573 587 485 661 352 661 L63 661 L63 642 L143 606 L143 56 L63 20 L63 1 L348 1 L348 20 L273 56 L273 278 L292 278 L498 1 L696 1 L697 18 L697 18 Z M318 711 L461 868 L444 868 L303 796 L167 868 L150 868 L288 711 L318 711 L318 711 Z M273 357 L273 582 L321 582 C388 582 433 535 433 464 C433 399 402 356 356 356 L273 357 L273 357 Z " />
<glyph glyph-name="rcaron" unicode="&#x159;" horiz-adv-x="419" d="M277 535 L420 710 L403 710 L262 630 L126 710 L109 710 L247 535 L277 535 L277 535 Z M335 460 C307 460 271 425 230 372 L230 378 L227 378 C225 414 224 460 224 460 L201 460 L50 396 L50 390 L74 369 C99 348 115 334 115 334 L115 50 L50 18 L50 0 L300 0 L300 18 L230 50 L230 323 C243 338 254 347 264 347 C288 347 316 342 334 334 C346 328 372 313 372 313 L379 313 C403 362 419 400 419 409 C419 422 409 438 393 448 C381 456 353 459 335 459 L335 460 L335 460 Z " />
<glyph glyph-name="Sacute" unicode="&#x15a;" horiz-adv-x="546" d="M232 705 L249 705 L393 785 C418 799 434 864 434 864 L319 864 L232 705 L232 705 Z M446 461 C449 461 453 462 456 462 L467 462 L457 629 C435 654 368 670 289 670 C165 670 83 596 83 484 C83 402 134 343 234 292 C322 247 367 206 367 159 C367 98 333 58 282 58 C239 58 184 79 141 112 L141 112 C134 117 127 126 123 134 L79 222 C76 222 72 221 69 221 L58 221 L67 33 C97 7 183 -10 281 -10 C406 -10 490 71 490 192 C490 280 434 343 325 399 C249 438 210 478 210 531 C210 573 236 601 275 601 C311 601 350 587 379 564 C406 542 426 495 445 462 L446 461 L446 461 Z " />
<glyph glyph-name="sacute" unicode="&#x15b;" horiz-adv-x="443" d="M215 530 L232 530 L376 619 C401 634 417 707 417 707 L302 707 L215 530 L215 530 Z M358 300 L358 427 C324 447 266 460 214 460 C131 460 75 407 75 327 C75 244 110 202 179 183 C240 166 271 139 271 91 C271 61 246 41 209 41 C159 41 119 72 99 109 C92 123 81 141 74 155 L60 155 L60 18 C96 1 159 -10 217 -10 C311 -10 373 45 373 128 C373 216 334 261 258 282 C205 297 177 323 177 370 C177 390 195 404 221 404 C222 404 238 403 238 402 C277 395 315 362 333 319 C335 313 340 306 342 300 L358 300 L358 300 Z " />
<glyph glyph-name="Scedilla" unicode="&#x15e;" horiz-adv-x="546" d="M296 -57 C308 -32 316 -15 319 -8 C424 6 492 82 492 191 C492 279 436 342 327 398 C251 437 212 477 212 530 C212 572 238 600 277 600 C313 600 352 586 381 563 C408 541 428 494 447 461 C450 461 454 462 457 462 L468 462 L458 629 C436 654 369 670 290 670 C166 670 84 596 84 484 C84 402 135 343 235 292 C323 247 368 206 368 159 C368 98 334 58 283 58 C240 58 185 79 142 112 L142 112 C135 117 128 126 124 134 L80 222 C77 222 73 221 70 221 L59 221 L68 33 C96 8 175 -9 266 -11 C259 -26 239 -69 212 -128 L254 -147 C277 -149 293 -160 293 -175 C293 -191 278 -201 256 -201 C228 -201 203 -193 192 -181 L192 -196 C216 -223 250 -241 276 -241 C338 -241 380 -205 380 -152 C380 -106 348 -70 296 -57 L296 -57 Z " />
<glyph glyph-name="scedilla" unicode="&#x15f;" horiz-adv-x="443" d="M358 300 L358 427 C324 447 266 460 214 460 C131 460 75 407 75 327 C75 244 110 202 179 183 C240 166 271 139 271 91 C271 61 246 41 209 41 C159 41 119 72 99 109 C92 123 81 141 74 155 L60 155 L60 18 C93 3 148 -8 201 -10 C194 -25 174 -68 147 -127 L189 -146 C212 -148 228 -159 228 -174 C228 -190 213 -200 191 -200 C163 -200 138 -192 127 -180 L127 -195 C151 -222 185 -240 211 -240 C273 -240 315 -204 315 -151 C315 -105 283 -69 231 -56 C243 -30 251 -13 254 -6 C327 7 373 58 373 130 C373 218 334 263 258 284 C205 299 177 325 177 372 C177 392 195 406 221 406 C222 406 238 405 238 404 C277 397 315 364 333 321 C335 315 340 308 342 302 L358 300 L358 300 Z " />
<glyph glyph-name="Scaron" unicode="&#x160;" horiz-adv-x="546" d="M264 710 L407 867 L389 867 L248 795 L113 867 L95 867 L234 710 L264 710 L264 710 Z M446 461 C449 461 453 462 456 462 L467 462 L457 629 C435 654 368 670 289 670 C165 670 83 596 83 484 C83 402 134 343 234 292 C322 247 367 206 367 159 C367 98 333 58 282 58 C239 58 184 79 141 112 L141 112 C134 117 127 126 123 134 L79 222 C76 222 72 221 69 221 L58 221 L67 33 C97 7 183 -10 281 -10 C406 -10 490 71 490 192 C490 280 434 343 325 399 C249 438 210 478 210 531 C210 573 236 601 275 601 C311 601 350 587 379 564 C406 542 426 495 445 462 L446 461 L446 461 Z " />
<glyph glyph-name="scaron" unicode="&#x161;" horiz-adv-x="443" d="M231 535 L374 710 L357 710 L216 630 L80 710 L63 710 L201 535 L231 535 L231 535 Z M358 300 L358 427 C324 447 266 460 214 460 C131 460 75 407 75 327 C75 244 110 202 179 183 C240 166 271 139 271 91 C271 61 246 41 209 41 C159 41 119 72 99 109 C92 123 81 141 74 155 L60 155 L60 18 C96 1 159 -10 217 -10 C311 -10 373 45 373 128 C373 216 334 261 258 282 C205 297 177 323 177 370 C177 390 195 404 221 404 C222 404 238 403 238 402 C277 395 315 362 333 319 C335 313 340 306 342 300 L358 300 L358 300 Z " />
<glyph glyph-name="Tcaron" unicode="&#x164;" horiz-adv-x="684" d="M357 710 L500 867 L483 867 L342 795 L206 867 L189 867 L327 710 L357 710 L357 710 Z M507 0 L507 19 L407 55 L407 581 L559 581 L621 436 L639 436 L639 660 L45 660 L45 436 L63 436 L125 581 L277 581 L277 55 L177 19 L177 0 L507 0 L507 0 Z " />
<glyph glyph-name="tcaron" unicode="&#x165;" horiz-adv-x="393" d="M417 750 L309 750 L284 563 L301 563 L429 752 C426 749 424 750 416 750 L417 750 L417 750 Z M362 82 L358 96 C356 92 329 90 291 90 C247 90 218 112 218 144 L218 382 L350 382 L350 450 L218 450 L218 573 L209 573 L103 450 L17 391 L17 382 L103 382 L103 120 C103 42 153 -10 229 -10 C283 -10 336 27 362 82 L362 82 Z M428 752 L437 765 C432 758 430 754 428 752 L428 752 Z M437 765 L438 767 C438 766 438 765 438 764 L437 765 L437 765 Z " />
<glyph glyph-name="Utilde" unicode="&#x168;" horiz-adv-x="808" d="M264 705 C274 735 283 755 308 755 C352 755 412 694 456 694 C504 694 526 748 553 830 L534 830 C524 799 514 778 490 778 C446 778 386 839 342 839 C294 839 271 785 245 705 L264 705 L264 705 Z M135 605 L135 234 C135 88 241 -10 399 -10 C557 -10 663 88 663 234 L663 605 L743 641 L743 660 L463 660 L463 641 L563 605 L563 203 C563 125 513 73 438 73 C334 73 264 147 264 257 L264 605 L344 641 L344 660 L55 660 L55 641 L135 605 L135 605 Z " />
<glyph glyph-name="utilde" unicode="&#x169;" horiz-adv-x="561" d="M141 535 C151 565 160 585 184 585 C229 585 288 524 333 524 C380 524 402 578 429 660 L410 660 C400 629 390 608 367 608 C322 608 263 669 218 669 C171 669 148 615 122 535 L141 535 L141 535 Z M355 400 L355 107 C338 99 311 95 280 95 C235 95 205 127 205 176 L205 450 L25 450 L25 432 L90 400 L90 107 C90 37 140 -10 214 -10 C255 -10 306 13 354 57 L354 -1 L539 -1 L539 17 L469 49 L469 449 L284 449 L284 431 L355 400 L355 400 Z " />
<glyph glyph-name="Umacron" unicode="&#x16a;" horiz-adv-x="808" d="M276 763 L542 763 L542 835 L276 835 L276 763 L276 763 Z M135 605 L135 234 C135 88 241 -10 399 -10 C557 -10 663 88 663 234 L663 605 L743 641 L743 660 L463 660 L463 641 L563 605 L563 203 C563 125 513 73 438 73 C334 73 264 147 264 257 L264 605 L344 641 L344 660 L55 660 L55 641 L135 605 L135 605 Z " />
<glyph glyph-name="umacron" unicode="&#x16b;" horiz-adv-x="561" d="M143 593 L409 593 L409 665 L143 665 L143 593 L143 593 Z M355 400 L355 107 C338 99 311 95 280 95 C235 95 205 127 205 176 L205 450 L25 450 L25 432 L90 400 L90 107 C90 37 140 -10 214 -10 C255 -10 306 13 354 57 L354 -1 L539 -1 L539 17 L469 49 L469 449 L284 449 L284 431 L355 400 L355 400 Z " />
<glyph glyph-name="Uring" unicode="&#x16e;" horiz-adv-x="808" d="M384 809 C384 835 391 853 401 853 C415 853 424 828 424 790 C424 765 418 744 410 744 C396 744 384 774 384 809 L384 809 Z M313 799 C313 751 355 710 404 710 C453 710 495 752 495 802 C495 853 459 887 404 887 C349 887 313 852 313 799 L313 799 Z M135 605 L135 234 C135 88 241 -10 399 -10 C557 -10 663 88 663 234 L663 605 L743 641 L743 660 L463 660 L463 641 L563 605 L563 203 C563 125 513 73 438 73 C334 73 264 147 264 257 L264 605 L344 641 L344 660 L55 660 L55 641 L135 605 L135 605 Z " />
<glyph glyph-name="uring" unicode="&#x16f;" horiz-adv-x="561" d="M256 634 C256 660 262 678 272 678 C286 678 295 653 295 615 C295 590 289 569 281 569 C268 569 256 599 256 634 L256 634 Z M185 624 C185 576 227 535 276 535 C325 535 366 577 366 627 C366 678 330 712 276 712 C221 712 185 677 185 624 L185 624 Z M355 400 L355 107 C338 99 311 95 280 95 C235 95 205 127 205 176 L205 450 L25 450 L25 432 L90 400 L90 107 C90 37 140 -10 214 -10 C255 -10 306 13 354 57 L354 -1 L539 -1 L539 17 L469 49 L469 449 L284 449 L284 431 L355 400 L355 400 Z " />
<glyph glyph-name="Ydieresis" unicode="&#x178;" horiz-adv-x="725" d="M477 735 C520 735 548 764 548 807 C548 850 520 879 477 879 C434 879 405 850 405 807 C405 764 434 735 477 735 L477 735 Z M262 735 C305 735 333 764 333 807 C333 850 305 879 262 879 C219 879 190 850 190 807 C190 764 219 735 262 735 L262 735 Z M303 660 L30 660 L30 642 L93 610 L306 311 L306 55 L216 19 L216 0 L525 0 L525 19 L435 55 L435 316 C501 417 567 519 634 620 L691 646 L691 660 L449 660 L449 641 L528 605 L391 393 C339 464 286 535 234 605 L303 641 L303 660 L303 660 Z " />
<glyph glyph-name="Zacute" unicode="&#x179;" horiz-adv-x="646" d="M318 705 L335 705 L479 785 C504 799 520 864 520 864 L405 864 L318 705 L318 705 Z M95 456 L113 456 L175 581 L396 581 C292 399 189 217 84 36 L84 0 L557 0 L557 214 L539 214 L477 79 L239 79 C340 255 440 431 541 607 L541 660 L95 660 L95 456 L95 456 Z " />
<glyph glyph-name="zacute" unicode="&#x17a;" horiz-adv-x="489" d="M240 530 L257 530 L401 619 C426 634 442 707 442 707 L327 707 L240 530 L240 530 Z M62 285 L79 285 L121 385 L258 385 C194 265 131 145 67 26 L67 0 L414 0 L414 170 L397 170 L364 65 L218 65 C281 183 343 301 407 418 L407 450 L128 450 L89 460 L79 460 C79 459 78 450 78 450 L78 449 C73 398 68 337 63 285 L62 285 L62 285 Z " />
<glyph glyph-name="Zdot" unicode="&#x17b;" horiz-adv-x="646" d="M330 725 C378 725 410 757 410 805 C410 853 378 885 330 885 C282 885 250 853 250 805 C250 757 282 725 330 725 L330 725 Z M95 456 L113 456 L175 581 L396 581 C292 399 189 217 84 36 L84 0 L557 0 L557 214 L539 214 L477 79 L239 79 C340 255 440 431 541 607 L541 660 L95 660 L95 456 L95 456 Z " />
<glyph glyph-name="zdot" unicode="&#x17c;" horiz-adv-x="489" d="M247 583 C295 583 327 615 327 663 C327 711 295 743 247 743 C199 743 167 711 167 663 C167 615 199 583 247 583 L247 583 Z M62 285 L79 285 L121 385 L258 385 C194 265 131 145 67 26 L67 0 L414 0 L414 170 L397 170 L364 65 L218 65 C281 183 343 301 407 418 L407 450 L128 450 L89 460 L79 460 C79 459 78 450 78 450 L78 449 C73 398 68 337 63 285 L62 285 L62 285 Z " />
<glyph glyph-name="Zcaron" unicode="&#x17d;" horiz-adv-x="646" d="M350 710 L493 867 L475 867 L334 795 L199 867 L181 867 L320 710 L350 710 L350 710 Z M95 456 L113 456 L175 581 L396 581 C292 399 189 217 84 36 L84 0 L557 0 L557 214 L539 214 L477 79 L239 79 C340 255 440 431 541 607 L541 660 L95 660 L95 456 L95 456 Z " />
<glyph glyph-name="zcaron" unicode="&#x17e;" horiz-adv-x="489" d="M257 535 L400 710 L382 710 L242 630 L106 710 L88 710 L227 535 L257 535 L257 535 Z M62 285 L79 285 L121 385 L258 385 C194 265 131 145 67 26 L67 0 L414 0 L414 170 L397 170 L364 65 L218 65 C281 183 343 301 407 418 L407 450 L128 450 L89 460 L79 460 C79 459 78 450 78 450 L78 449 C73 398 68 337 63 285 L62 285 L62 285 Z " />
<glyph glyph-name="oogonek" unicode="&#x1eb;" horiz-adv-x="754" d="M772 -120 L772 -100 C760 -107 729 -112 695 -112 C651 -112 572 -18 508 13 C617 55 684 152 684 280 C684 457 561 575 377 575 C193 575 70 456 70 278 C70 100 201 -18 397 -9 C476 -60 563 -154 617 -154 C674 -154 737 -140 773 -119 L772 -120 L772 -120 Z M195 324 C195 437 259 513 355 513 C479 513 561 402 561 236 C561 128 498 56 404 56 C279 56 195 163 195 324 L195 324 Z " />
<glyph glyph-name="G_sc" unicode="&#x262;" horiz-adv-x="717" d="M597 193 L672 229 L672 248 L396 248 L396 229 L481 193 L481 82 C459 72 432 66 405 66 C276 66 190 161 190 303 C190 427 269 510 387 510 C423 510 465 495 498 471 C503 467 509 460 512 453 C529 419 552 374 569 340 C574 340 579 341 585 341 L578 530 C549 557 472 575 386 575 C196 575 69 451 69 264 C69 100 189 -10 369 -10 C453 -10 544 32 596 94 L597 193 L597 193 Z " />
<glyph glyph-name="I_sc" unicode="&#x26a;" horiz-adv-x="416" d="M346 0 L346 19 L266 55 L266 510 L346 546 L346 565 L70 565 L70 546 L150 510 L150 55 L70 19 L70 0 L346 0 L346 0 Z " />
<glyph glyph-name="N_sc" unicode="&#x274;" horiz-adv-x="750" d="M67 546 L142 510 L142 55 L62 19 L62 0 L332 0 L332 19 L232 55 L232 383 C344 254 456 125 568 -4 L611 -4 L611 511 L686 547 L686 566 L420 566 L420 547 L520 511 L520 230 L233 566 L68 566 L67 546 L67 546 Z " />
<glyph glyph-name="R_sc" unicode="&#x280;" horiz-adv-x="639" d="M626 0 L626 18 L553 50 L403 259 C467 286 506 339 506 407 C506 502 432 565 322 565 L63 565 L63 546 L143 510 L143 55 L63 19 L63 0 L335 0 L335 19 L260 55 L260 240 L274 240 L445 0 L626 0 L626 0 Z M260 311 L260 494 L293 494 C345 494 380 455 380 396 C380 345 357 311 323 311 L260 311 L260 311 Z " />
<glyph glyph-name="Y_sc" unicode="&#x28f;" horiz-adv-x="663" d="M292 565 L30 565 L30 547 L95 515 L280 269 L280 54 L190 18 L190 -1 L487 -1 L487 18 L397 54 L397 273 L570 524 L628 550 L628 564 L396 564 L396 545 L473 509 L359 343 L226 509 L292 545 L292 565 L292 565 Z " />
<glyph glyph-name="B_sc" unicode="&#x299;" horiz-adv-x="602" d="M412 317 C465 344 495 384 495 432 C495 512 435 565 318 565 L64 565 L64 546 L144 510 L144 55 L64 19 L64 0 L318 0 C458 0 552 70 552 175 C552 243 505 294 412 317 L412 317 Z M261 331 L261 494 L290 494 C345 494 374 456 374 400 C374 362 329 335 261 332 L261 331 L261 331 Z M261 72 L261 260 L325 260 C395 260 431 222 431 166 C431 110 386 72 318 72 L261 72 L261 72 Z " />
<glyph glyph-name="H_sc" unicode="&#x29c;" horiz-adv-x="756" d="M691 0 L691 19 L611 55 L611 510 L691 546 L691 565 L415 565 L415 546 L495 510 L495 327 L261 327 L261 510 L341 546 L341 565 L64 565 L64 546 L144 510 L144 55 L64 19 L64 0 L341 0 L341 19 L261 55 L261 255 L495 255 L495 55 L415 19 L415 0 L691 0 L691 0 Z " />
<glyph glyph-name="L_sc" unicode="&#x29f;" horiz-adv-x="578" d="M508 236 L490 236 L428 71 L261 71 L261 510 L346 546 L346 565 L64 565 L64 546 L144 510 L144 55 L64 19 L64 0 L508 0 L508 236 L508 236 Z " />
<glyph glyph-name="circumflex" unicode="&#x2c6;" horiz-adv-x="340" d="M328 530 L185 705 L155 705 L17 530 L34 530 L170 610 L311 530 L328 530 L328 530 Z " />
<glyph glyph-name="caron" unicode="&#x2c7;" horiz-adv-x="340" d="M185 535 L328 710 L311 710 L170 630 L34 710 L17 710 L155 535 L185 535 L185 535 Z " />
<glyph glyph-name="firsttonechinese" unicode="&#x2c9;" horiz-adv-x="340" d="M37 528 L303 528 L303 600 L37 600 L37 528 L37 528 Z " />
<glyph glyph-name="breve" unicode="&#x2d8;" horiz-adv-x="340" d="M30 731 L10 731 C50 608 95 560 170 560 C245 560 290 608 330 731 L310 731 C292 677 253 656 170 656 C87 656 48 677 30 731 L30 731 Z " />
<glyph glyph-name="dotaccent" unicode="&#x2d9;" horiz-adv-x="340" d="M170 610 C213 610 242 639 242 682 C242 725 213 754 170 754 C127 754 98 725 98 682 C98 639 127 610 170 610 L170 610 Z " />
<glyph glyph-name="ring" unicode="&#x2da;" horiz-adv-x="340" d="M150 629 C150 655 157 673 167 673 C181 673 190 648 190 610 C190 585 184 564 176 564 C162 564 150 594 150 629 L150 629 Z M79 619 C79 571 121 530 170 530 C219 530 261 572 261 622 C261 673 225 707 170 707 C115 707 79 672 79 619 L79 619 Z " />
<glyph glyph-name="A_sc" unicode="&#x1d00;" horiz-adv-x="694" d="M263 18 L183 50 L225 156 L427 156 L427 158 C442 122 457 86 472 50 L385 18 L385 0 L659 0 L659 16 L595 45 C520 220 446 395 370 570 L314 570 L96 50 L17 18 L17 0 L263 0 L263 18 L263 18 Z M398 227 L254 227 L325 404 L398 227 L398 227 Z " />
<glyph glyph-name="C_sc" unicode="&#x1d04;" horiz-adv-x="659" d="M491 94 C452 70 405 55 366 55 C260 55 189 154 189 303 C189 427 264 510 376 510 C409 510 448 494 479 470 C483 466 487 460 490 454 L547 340 C552 340 557 341 563 341 L556 530 C529 557 456 575 374 575 C190 575 67 451 67 264 C67 100 186 -10 364 -10 C450 -10 531 9 566 38 L576 212 C570 212 565 213 560 213 C544 183 522 143 506 113 C502 106 495 98 488 94 L491 94 L491 94 Z " />
<glyph glyph-name="D_sc" unicode="&#x1d05;" horiz-adv-x="721" d="M355 0 C533 0 651 112 651 310 C651 478 524 565 334 565 L64 565 L64 546 L144 510 L144 55 L64 19 L64 0 L355 0 L355 0 Z M261 71 L261 493 C276 493 290 493 300 493 C438 493 530 416 530 266 C530 141 459 71 353 71 L261 71 L261 71 Z " />
<glyph glyph-name="E_sc" unicode="&#x1d07;" horiz-adv-x="595" d="M525 196 L508 196 L450 71 L261 71 L261 255 L350 255 L392 175 L415 175 L415 407 L392 407 L350 327 L261 327 L261 494 L425 494 L483 379 L500 379 L500 565 L64 565 L64 546 L144 510 L144 55 L64 19 L64 0 L525 0 L525 196 L525 196 Z " />
<glyph glyph-name="J_sc" unicode="&#x1d0a;" horiz-adv-x="416" d="M150 510 L150 50 C150 -27 134 -79 109 -79 C109 -79 68 -74 41 -67 L35 -67 C35 -67 22 -136 22 -140 C22 -160 39 -173 65 -173 C186 -173 266 -10 266 234 L266 510 L346 546 L346 565 L70 565 L70 546 L150 510 L150 510 Z " />
<glyph glyph-name="K_sc" unicode="&#x1d0b;" horiz-adv-x="721" d="M693 14 L630 40 L371 323 L576 525 L642 551 L642 565 L377 565 L377 547 L455 515 L263 289 L513 0 L693 0 L693 14 L693 14 Z M342 0 L342 19 L262 55 L262 510 L342 546 L342 565 L66 565 L66 546 L146 510 L146 55 L66 19 L66 0 L342 0 L342 0 Z " />
<glyph glyph-name="M_sc" unicode="&#x1d0d;" horiz-adv-x="909" d="M71 546 L159 510 L142 55 L61 19 L61 0 L303 0 L303 19 L219 55 L228 411 L410 -5 L468 -5 L451 36 L468 -5 L652 406 L668 55 L590 19 L590 0 L848 0 L848 19 L777 55 L757 510 L844 546 L844 565 L646 565 L467 152 L285 565 L72 565 L71 546 L71 546 Z " />
<glyph glyph-name="O_sc" unicode="&#x1d0f;" horiz-adv-x="754" d="M194 323 C194 436 258 512 354 512 C478 512 560 401 560 235 C560 127 497 55 403 55 C278 55 194 162 194 323 L194 323 Z M70 278 C70 105 193 -10 377 -10 C561 -10 684 106 684 280 C684 457 561 575 377 575 C193 575 70 456 70 278 L70 278 Z " />
<glyph glyph-name="P_sc" unicode="&#x1d18;" horiz-adv-x="577" d="M356 0 L356 19 L261 55 L261 240 L298 240 C423 240 507 307 507 407 C507 502 433 565 323 565 L64 565 L64 546 L144 510 L144 55 L64 19 L64 0 L356 0 L356 0 Z M261 311 L261 494 L294 494 C346 494 381 455 381 396 C381 345 358 311 324 311 L261 311 L261 311 Z " />
<glyph glyph-name="T_sc" unicode="&#x1d1b;" horiz-adv-x="621" d="M469 0 L469 19 L369 55 L369 494 L496 494 L558 349 L576 349 L576 565 L45 565 L45 349 L63 349 L125 494 L252 494 L252 55 L152 19 L152 0 L469 0 L469 0 Z " />
<glyph glyph-name="U_sc" unicode="&#x1d1c;" horiz-adv-x="749" d="M413 546 C446 534 479 522 512 510 L513 172 C513 108 470 65 405 65 C314 65 253 127 253 221 L253 510 L333 546 L333 565 L57 565 L57 546 L137 510 L137 200 C137 74 230 -10 370 -10 C510 -10 603 74 603 200 L603 510 L683 546 L683 565 L412 565 L413 546 L413 546 Z " />
<glyph glyph-name="V_sc" unicode="&#x1d20;" horiz-adv-x="680" d="M421 546 L498 510 L350 158 L221 510 L311 546 L311 565 L32 565 L32 547 L99 515 C167 342 235 169 302 -5 L358 -5 L591 525 L647 551 L647 565 L421 565 L421 546 L421 546 Z " />
<glyph glyph-name="W_sc" unicode="&#x1d21;" horiz-adv-x="924" d="M299 565 L18 565 L18 547 L83 515 C135 342 185 168 238 -5 L286 -5 C343 124 401 253 459 382 C508 253 557 124 606 -5 L653 -5 L659 13 C719 184 779 355 840 525 L904 551 L904 565 L666 565 L666 546 L748 510 L643 190 C596 317 549 444 502 571 L451 571 C399 443 345 316 292 189 C263 296 234 403 205 510 L300 546 L299 565 L299 565 Z " />
<glyph glyph-name="Z_sc" unicode="&#x1d22;" horiz-adv-x="586" d="M98 369 L116 369 L178 494 L349 494 C261 340 173 186 86 32 L86 0 L496 0 L496 206 L478 206 L416 71 L225 71 C310 221 395 371 481 520 L481 565 L98 565 L98 369 L98 369 Z " />
<glyph glyph-name="Etilde" unicode="&#x1ebc;" horiz-adv-x="658" d="M219 705 C229 735 238 755 262 755 C307 755 366 694 411 694 C458 694 480 748 507 830 L488 830 C478 799 468 778 445 778 C400 778 341 839 296 839 C249 839 226 785 200 705 L219 705 L219 705 Z M588 204 L571 204 L513 79 L274 79 L274 300 L413 300 L455 220 L478 220 L478 460 L455 460 L413 380 L274 380 L274 581 L488 581 L546 466 L563 466 L563 660 L64 660 L64 641 L144 605 L144 55 L64 19 L64 0 L588 0 L588 204 L588 204 Z " />
<glyph glyph-name="endash" unicode="&#x2013;" horiz-adv-x="500" d="M50 231 L450 231 L450 303 L50 303 L50 231 L50 231 Z " />
<glyph glyph-name="emdash" unicode="&#x2014;" horiz-adv-x="1000" d="M50 231 L950 231 L950 303 L50 303 L50 231 L50 231 Z " />
<glyph glyph-name="quoteleft" unicode="&#x2018;" horiz-adv-x="263" d="M174 607 C143 618 122 646 122 677 C122 702 158 720 211 721 L211 750 C113 748 47 696 47 621 C47 561 81 508 131 490 C165 479 183 475 197 509 L220 568 L220 583 L174 607 L174 607 Z " />
<glyph glyph-name="quoteright" unicode="&#x2019;" horiz-adv-x="263" d="M84 633 C115 622 136 594 136 563 C136 538 100 520 47 519 L47 490 C145 492 211 544 211 619 C211 679 177 732 127 750 C93 761 75 765 61 731 L38 672 L38 657 L84 633 L84 633 Z " />
<glyph glyph-name="quotedblleft" unicode="&#x201c;" horiz-adv-x="472" d="M174 607 C143 618 122 646 122 677 C122 702 158 721 211 721 L211 750 C113 750 47 696 47 621 C47 561 81 508 131 490 C165 479 183 475 197 509 L220 568 L220 583 L174 607 L174 607 Z M383 607 C352 618 331 646 331 677 C331 702 367 721 420 721 L420 750 C322 750 256 696 256 621 C256 561 290 508 340 490 C374 479 392 475 406 509 L429 568 L429 583 L383 607 L383 607 Z " />
<glyph glyph-name="quotedblright" unicode="&#x201d;" horiz-adv-x="472" d="M293 633 C324 622 345 594 345 563 C345 538 309 520 256 519 L256 490 C354 492 420 544 420 619 C420 679 386 732 336 750 C302 761 284 765 270 731 L247 672 L247 657 L293 633 L293 633 Z M84 633 C115 622 136 594 136 563 C136 538 100 520 47 519 L47 490 C145 492 211 544 211 619 C211 679 177 732 127 750 C93 761 75 765 61 731 L38 672 L38 657 L84 633 L84 633 Z " />
<glyph glyph-name="bullet" unicode="&#x2022;" horiz-adv-x="580" d="M290 128 C386 128 450 192 450 288 C450 384 386 448 290 448 C194 448 130 384 130 288 C130 192 194 128 290 128 L290 128 Z " />
<glyph glyph-name="ellipsis" unicode="&#x2026;" horiz-adv-x="730" d="M585 -10 C633 -10 665 22 665 70 C665 118 633 150 585 150 C537 150 505 118 505 70 C505 22 537 -10 585 -10 L585 -10 Z M365 -10 C413 -10 445 22 445 70 C445 118 413 150 365 150 C317 150 285 118 285 70 C285 22 317 -10 365 -10 L365 -10 Z M145 -10 C193 -10 225 22 225 70 C225 118 193 150 145 150 C97 150 65 118 65 70 C65 22 97 -10 145 -10 L145 -10 Z " />
<glyph glyph-name="perthousand" unicode="&#x2030;" horiz-adv-x="1152" d="M942 213 C942 302 953 361 970 361 C1007 361 1032 284 1032 168 C1032 83 1018 27 996 27 C964 27 942 101 942 213 L942 213 Z M830 192 C830 71 892 -10 986 -10 C1078 -10 1140 77 1140 207 C1140 320 1078 395 986 395 C892 395 830 314 830 192 L830 192 Z M143 574 C143 665 154 726 171 726 C208 726 233 647 233 528 C233 446 219 392 197 392 C165 392 143 465 143 574 L143 574 Z M31 552 C31 434 93 355 187 355 C279 355 341 440 341 567 C341 683 279 760 187 760 C93 760 31 677 31 552 L31 552 Z M574 213 C574 302 588 361 610 361 C656 361 686 283 686 167 C686 83 666 27 636 27 C599 27 574 101 574 213 L574 213 Z M461 191 C461 70 527 -10 626 -10 C727 -10 794 76 794 206 C794 319 727 395 626 395 C527 395 461 313 461 191 L461 191 Z M212 -16 L677 734 L626 766 L161 16 L212 -16 L212 -16 Z " />
<glyph glyph-name="guilsinglleft" unicode="&#x2039;" horiz-adv-x="249" d="M213 425 L13 248 L213 70 L229 70 L157 248 L229 425 L213 425 L213 425 Z " />
<glyph glyph-name="guilsinglright" unicode="&#x203a;" horiz-adv-x="261" d="M20 425 L97 248 L20 70 L36 70 L241 248 L36 425 L20 425 L20 425 Z " />
<glyph glyph-name="fraction" unicode="&#x2044;" horiz-adv-x="481" d="M56 -16 L521 734 L469 766 L4 16 L56 -16 L56 -16 Z " />
<glyph glyph-name="Euro" unicode="&#x20ac;" horiz-adv-x="521" d="M498 108 C486 92 443 82 392 82 C308 82 259 136 237 225 L375 225 L375 288 L226 288 C223 316 222 347 222 379 L375 379 L375 442 L226 442 C237 545 270 610 316 610 C335 610 360 592 378 565 C387 565 409 520 409 520 L416 520 C439 520 492 553 492 553 C497 555 501 565 501 578 C501 586 496 598 489 609 C465 645 409 669 349 669 C225 669 133 582 99 442 L11 442 L11 379 L88 379 C85 350 84 318 85 287 L10 287 L10 224 L90 224 C109 80 180 -11 324 -11 C391 -11 462 22 500 71 L500 107 L498 108 L498 108 Z " />
<glyph glyph-name="F_sc" unicode="&#xa730;" horiz-adv-x="560" d="M350 255 L392 175 L415 175 L415 407 L392 407 L350 327 L261 327 L261 494 L415 494 L473 379 L490 379 L490 565 L64 565 L64 546 L144 510 L144 55 L64 19 L64 0 L356 0 L356 19 L261 55 L261 255 L350 255 L350 255 Z " />
<glyph glyph-name="S_sc" unicode="&#xa731;" horiz-adv-x="480" d="M241 513 C266 513 293 502 315 484 C325 476 337 459 345 442 C355 422 368 394 378 374 C385 374 392 375 399 375 L390 534 C371 559 316 576 252 576 C151 576 83 512 83 415 C83 347 125 296 207 249 C277 209 313 174 313 137 C313 86 288 52 250 52 C216 52 171 73 135 105 L135 105 C129 111 122 119 119 127 C107 154 92 189 80 216 C74 216 67 215 60 215 L68 35 C95 9 168 -9 250 -9 C355 -9 425 61 425 167 C425 239 379 294 290 345 C230 379 199 414 199 457 C199 491 216 514 241 514 L241 513 L241 513 Z " />
<glyph glyph-name="X_sc" unicode="&#xf078;" horiz-adv-x="689" d="M323 565 L40 565 L40 547 L103 515 L277 275 L98 50 L27 18 L27 0 L264 0 L264 19 L177 55 L311 226 C352 169 394 112 435 55 L365 19 L365 0 L651 0 L651 16 L590 45 L398 303 L571 520 L634 549 L634 565 L416 565 L416 546 L491 510 L362 351 L243 510 L322 546 L323 565 L323 565 Z " />
</font>
</svg>
