<?xml version="1.0" encoding="UTF-8"?>
<svg xmlns="http://www.w3.org/2000/svg" xmlns:xlink="http://www.w3.org/1999/xlink" version="1.2" >
<font id="Ethan Expanded">
<font-face  font-family="Ethan" units-per-em="1024" ascent="975" descent="-300" font-style="normal" font-weight="400" font-stretch="expanded" cap-height="924" x-height="488" underline-position="-125" underline-thickness="50" />
<missing-glyph  horiz-adv-x="100" d="" />
<glyph glyph-name="NULL" d="" />
<glyph glyph-name="CR" unicode="&#xd;" horiz-adv-x="256" d="" />
<glyph glyph-name="space" unicode="&#x20;" horiz-adv-x="248" d="" />
<glyph glyph-name="exclam" unicode="&#x21;" horiz-adv-x="245" d="M125 -10 C161 -10 185 14 185 50 C185 86 161 110 125 110 C89 110 65 86 65 50 C65 14 89 -10 125 -10 L125 -10 Z M70 660 L115 190 L135 190 L180 660 L70 660 L70 660 Z " />
<glyph glyph-name="quotedbl" unicode="&#x22;" horiz-adv-x="450" d="M280 740 L315 490 L335 490 L370 740 L280 740 L280 740 Z M80 740 L115 490 L135 490 L170 740 L80 740 L80 740 Z " />
<glyph glyph-name="numbersign" unicode="&#x23;" horiz-adv-x="498" d="M156 403 L111 249 L0 249 L0 202 L98 202 L39 0 L89 0 L148 202 L276 202 L217 0 L267 0 L326 202 L440 202 L440 249 L339 249 L384 403 L498 403 L498 450 L398 450 L459 660 L409 660 L348 450 L220 450 L281 660 L231 660 L170 450 L58 450 L58 403 L156 403 L156 403 Z M206 403 L334 403 L289 249 L161 249 L206 403 L206 403 Z " />
<glyph glyph-name="dollar" unicode="&#x24;" horiz-adv-x="500" d="M289 740 L289 669 C271 670 251 670 233 668 L233 739 L192 739 L192 661 C106 639 52 576 52 489 C52 405 99 351 192 314 L192 43 C147 57 119 92 119 140 L119 167 C118 167 114 171 114 171 L86 171 C63 171 47 159 47 140 C47 62 103 7 192 -7 L192 -80 L233 -80 L233 -10 C252 -10 270 -9 287 -6 L287 -80 L328 -80 L328 5 C404 33 450 97 450 182 C450 250 409 314 328 357 L328 604 C350 590 363 569 363 543 L363 517 C363 517 367 513 368 513 L396 513 C419 513 435 525 435 543 C435 602 394 646 328 663 L328 741 L289 740 L289 740 Z M287 376 C268 383 248 390 232 398 L232 621 C250 623 271 622 288 619 L287 376 L287 376 Z M192 423 C158 449 141 481 141 522 C141 561 160 592 192 609 L192 423 Z M233 300 C254 291 272 282 288 272 L288 45 C272 40 254 38 234 38 L233 300 L233 300 Z M330 241 C358 214 373 184 373 154 C373 116 357 85 330 65 L330 241 Z " />
<glyph glyph-name="percent" unicode="&#x25;" horiz-adv-x="801" d="M109 569 C109 669 134 736 171 736 C223 736 257 656 257 537 C257 443 230 381 189 381 C141 381 109 456 109 569 L109 569 Z M30 554 C30 435 91 355 182 355 C272 355 332 439 332 564 C332 682 272 760 182 760 C91 760 30 678 30 554 L30 554 Z M551 208 C551 306 578 371 618 371 C676 371 714 293 714 176 C714 80 683 16 636 16 C585 16 551 93 551 208 L551 208 Z M472 193 C472 71 535 -10 629 -10 C725 -10 789 75 789 203 C789 318 725 395 629 395 C535 395 472 314 472 193 L472 193 Z M199 -11 L664 739 L629 761 L164 11 L199 -11 L199 -11 Z " />
<glyph glyph-name="ampersand" unicode="&#x26;" horiz-adv-x="691" d="M511 452 L538 420 C542 420 549 418 556 419 C522 331 490 255 455 195 L268 375 C363 425 423 488 423 542 C423 618 359 669 263 669 C152 669 78 605 78 509 C78 448 110 402 162 349 C45 294 21 235 21 163 C21 59 96 -11 209 -11 C306 -11 377 25 435 90 L531 -1 L706 -1 L706 17 L607 49 L489 163 C533 234 571 324 612 428 L678 450 L678 468 L513 468 L511 452 L511 452 Z M187 325 C194 318 202 311 210 303 L403 120 C362 75 314 50 253 50 C170 50 114 104 114 185 C114 243 127 289 187 324 L187 325 L187 325 Z M244 398 C197 444 167 477 167 524 C167 586 203 627 257 627 C306 627 339 591 339 536 C339 487 303 436 244 398 L244 398 Z " />
<glyph glyph-name="quotesingle" unicode="&#x27;" horiz-adv-x="250" d="M80 740 L115 490 L135 490 L170 740 L80 740 L80 740 Z " />
<glyph glyph-name="parenleft" unicode="&#x28;" horiz-adv-x="250" d="M220 740 C120 621 53 487 53 295 C53 103 120 -31 220 -150 L245 -150 C170 -61 120 64 120 295 C120 526 170 651 245 740 L220 740 L220 740 Z " />
<glyph glyph-name="parenright" unicode="&#x29;" horiz-adv-x="250" d="M55 -150 C155 -31 222 103 222 295 C222 487 155 621 55 740 L30 740 C105 651 155 526 155 295 C155 64 105 -61 30 -150 L55 -150 L55 -150 Z " />
<glyph glyph-name="asterisk" unicode="&#x2a;" horiz-adv-x="389" d="M210 589 L345 615 L326 672 L202 614 L219 750 L159 750 L176 614 L52 672 L33 615 L168 589 L74 489 L123 454 L189 574 L255 454 L304 489 L210 589 L210 589 Z " />
<glyph glyph-name="plus" unicode="&#x2b;" horiz-adv-x="510" d="M229 482 L229 297 L40 297 L40 247 L229 247 L229 52 L281 52 L281 247 L470 247 L470 297 L281 297 L281 482 L229 482 L229 482 Z " />
<glyph glyph-name="comma" unicode="&#x2c;" horiz-adv-x="247" d="M90 0 C120 -14 140 -49 140 -87 C140 -124 108 -165 60 -190 L60 -210 C142 -168 197 -99 197 -39 C197 21 171 73 132 91 C104 103 98 106 81 79 L52 29 L55 19 L90 0 L90 0 Z " />
<glyph glyph-name="hyphen" unicode="&#x2d;" horiz-adv-x="375" d="M50 217 L325 217 L325 287 L50 287 L50 217 L50 217 Z " />
<glyph glyph-name="period" unicode="&#x2e;" horiz-adv-x="250" d="M125 -10 C161 -10 185 14 185 50 C185 86 161 110 125 110 C89 110 65 86 65 50 C65 14 89 -10 125 -10 L125 -10 Z " />
<glyph glyph-name="slash" unicode="&#x2f;" horiz-adv-x="250" d="M0 -120 L50 -120 L250 750 L200 750 L0 -120 L0 -120 Z " />
<glyph glyph-name="zero" unicode="0" horiz-adv-x="526" d="M128 361 C128 518 175 623 246 623 C341 623 404 496 404 306 C404 146 354 39 279 39 C188 39 128 168 128 361 L128 361 Z M33 330 C33 126 125 -10 263 -10 C401 -10 493 129 493 338 C493 537 401 670 263 670 C125 670 33 534 33 330 L33 330 Z " />
<glyph glyph-name="one" unicode="1" horiz-adv-x="500" d="M395 0 L395 18 L330 50 L330 660 L310 660 L70 511 L70 476 L245 563 L245 50 L180 18 L180 0 L395 0 L395 0 Z " />
<glyph glyph-name="two" unicode="2" horiz-adv-x="480" d="M454 41 C457 73 460 115 463 147 L446 147 L408 82 L163 82 C366 320 447 411 447 493 C447 599 377 670 271 670 C132 670 40 602 40 499 C40 474 56 457 80 457 L126 457 C126 457 130 462 131 462 L131 515 C131 515 67 499 40 499 C131 580 175 623 240 623 C306 623 350 571 350 492 C350 356 266 280 50 25 L50 0 L454 0 L454 41 L454 41 Z " />
<glyph glyph-name="three" unicode="3" horiz-adv-x="498" d="M123 120 L123 147 L115 155 L68 155 C68 155 33 141 33 120 C33 42 117 -10 242 -10 C382 -10 475 64 475 175 C475 279 413 341 292 359 C393 386 445 444 445 521 C445 610 373 670 265 670 C138 670 54 612 54 524 C54 503 94 489 94 489 L135 489 L143 497 L143 535 C143 589 183 625 243 625 C307 625 349 580 349 513 C349 432 294 375 187 364 C174 364 161 363 148 362 L148 318 C300 329 378 280 378 174 C378 90 323 34 241 34 C170 34 122 68 122 119 L123 120 L123 120 Z " />
<glyph glyph-name="four" unicode="4" horiz-adv-x="501" d="M349 660 C247 526 145 393 43 260 L9 213 L9 193 L285 193 L285 50 L220 18 L220 0 L435 0 L435 18 L370 50 L370 193 L489 193 L489 260 L370 260 L370 660 L349 660 L349 660 Z M285 507 L285 260 L105 260 L285 507 L285 507 Z " />
<glyph glyph-name="five" unicode="5" horiz-adv-x="500" d="M405 660 L86 660 L86 345 C107 351 145 355 181 355 C303 355 384 291 384 195 C384 101 324 39 235 39 C187 39 136 67 119 108 L109 108 C98 108 73 81 73 81 C62 73 55 71 55 55 C55 49 58 42 63 36 C82 8 135 -10 194 -10 C351 -10 455 88 455 236 C455 354 351 433 195 433 C168 433 144 431 134 429 L134 582 L405 582 L405 660 L405 660 Z " />
<glyph glyph-name="six" unicode="6" horiz-adv-x="501" d="M421 670 C191 608 37 433 37 233 C37 87 125 -10 256 -10 C385 -10 471 74 471 201 C471 313 402 388 299 388 C232 388 174 361 138 315 C163 474 270 600 421 640 L421 670 Z M132 235 C144 286 195 320 260 320 C331 320 379 264 379 180 C379 94 330 36 256 36 C183 36 133 115 131 235 L132 235 Z " />
<glyph glyph-name="seven" unicode="7" horiz-adv-x="500" d="M50 660 L50 583 L384 583 C201 259 82 30 82 0 L194 0 C194 104 300 360 459 640 L459 660 L50 660 L50 660 Z " />
<glyph glyph-name="eight" unicode="8" horiz-adv-x="493" d="M288 371 C283 373 278 375 273 377 C179 421 143 475 143 530 C143 586 182 623 241 623 C310 623 356 571 356 494 C356 437 331 393 288 370 L288 371 Z M326 349 C398 372 442 428 442 502 C442 603 365 670 250 670 C132 670 53 602 53 500 C53 439 86 379 169 326 C88 301 38 234 38 144 C38 51 121 -11 245 -11 C369 -11 451 61 451 170 C451 232 408 297 324 349 L326 349 Z M203 306 C212 301 221 296 231 291 C321 249 367 192 367 138 C367 74 320 31 249 31 C176 31 128 85 128 167 C128 231 156 280 203 304 L203 306 Z " />
<glyph glyph-name="nine" unicode="9" horiz-adv-x="499" d="M80 -10 C310 -10 464 92 464 427 C464 573 376 670 245 670 C116 670 30 600 30 465 C30 349 102 272 210 272 C273 272 331 303 368 353 C352 108 241 19 81 19 L80 -10 Z M370 424 C354 372 306 338 250 338 C176 338 126 388 126 464 C126 569 174 623 246 623 C319 623 369 544 371 424 L370 424 Z " />
<glyph glyph-name="colon" unicode="&#x3a;" horiz-adv-x="250" d="M125 330 C161 330 185 354 185 390 C185 426 161 450 125 450 C89 450 65 426 65 390 C65 354 89 330 125 330 L125 330 Z M125 -10 C161 -10 185 14 185 50 C185 86 161 110 125 110 C89 110 65 86 65 50 C65 14 89 -10 125 -10 L125 -10 Z " />
<glyph glyph-name="semicolon" unicode="&#x3b;" horiz-adv-x="247" d="M122 330 C158 330 182 354 182 390 C182 426 158 450 122 450 C86 450 62 426 62 390 C62 354 86 330 122 330 L122 330 Z M90 0 C120 -14 140 -49 140 -87 C140 -124 108 -165 60 -190 L60 -210 C142 -168 197 -99 197 -39 C197 21 171 73 132 91 C104 103 98 106 81 79 L52 29 L55 19 L90 0 L90 0 Z " />
<glyph glyph-name="equal" unicode="&#x3d;" horiz-adv-x="500" d="M40 195 L40 145 L460 145 L460 195 L40 195 L40 195 Z M40 399 L40 349 L460 349 L460 399 L40 399 L40 399 Z " />
<glyph glyph-name="question" unicode="&#x3f;" horiz-adv-x="478" d="M212 -5 C248 -5 272 19 272 55 C272 91 248 115 212 115 C176 115 152 91 152 55 C152 19 176 -5 212 -5 L212 -5 Z M128 517 C128 517 66 508 40 508 C40 484 55 468 78 468 L120 468 C120 468 126 478 128 478 L128 517 L128 517 Z M128 517 C128 582 163 626 216 626 C285 626 331 574 331 495 C331 433 269 373 176 345 C176 299 202 190 202 190 L222 190 C222 190 228 232 233 275 C348 319 423 404 423 495 C423 600 353 670 247 670 C123 670 40 605 40 508 L128 517 L128 517 Z " />
<glyph glyph-name="A" unicode="A" horiz-adv-x="748" d="M466 0 L713 0 L713 16 L649 45 C563 252 477 459 391 666 L347 666 L94 51 L16 19 L16 1 L242 1 L242 19 L162 51 L229 220 L483 220 L483 222 L553 51 L465 19 L466 0 L466 0 Z M462 275 L251 275 L355 537 L462 275 L462 275 Z " />
<glyph glyph-name="B" unicode="B" horiz-adv-x="632" d="M243 368 L211 368 L211 605 L286 605 C382 605 432 555 432 479 C432 412 356 368 243 368 L243 368 Z M402 357 C479 387 525 439 525 504 C525 598 451 660 308 660 L41 660 L41 641 L121 605 L121 55 L41 19 L41 0 L304 0 C471 0 582 78 582 194 C582 274 521 334 402 357 L402 357 Z M211 55 L211 313 L311 313 C428 313 489 262 489 186 C489 107 415 55 304 55 L211 55 L211 55 Z " />
<glyph glyph-name="C" unicode="C" horiz-adv-x="717" d="M627 39 L636 197 C630 197 625 198 620 198 C603 165 581 122 564 89 C562 85 558 80 554 77 C508 54 451 40 401 40 C258 40 163 160 163 341 C163 508 263 620 414 620 C455 620 500 608 536 589 L536 589 C542 586 547 581 549 576 C567 539 590 488 608 451 C613 451 619 452 625 452 L618 625 C585 653 504 671 414 671 C208 671 70 527 70 311 C70 119 202 -9 401 -9 C495 -9 585 11 627 40 L627 39 L627 39 Z " />
<glyph glyph-name="D" unicode="D" horiz-adv-x="775" d="M356 0 C565 0 705 130 705 360 C705 558 559 660 340 660 L65 660 L65 641 L145 605 L145 55 L65 19 L65 0 L356 0 L356 0 Z M235 55 L235 605 L314 605 C493 605 612 510 612 325 C612 153 509 55 354 55 L235 55 L235 55 Z " />
<glyph glyph-name="E" unicode="E" horiz-adv-x="650" d="M580 180 L563 180 L505 55 L235 55 L235 313 L405 313 L447 233 L470 233 L470 448 L447 448 L405 368 L235 368 L235 605 L480 605 L538 490 L555 490 L555 660 L65 660 L65 641 L145 605 L145 55 L65 19 L65 0 L580 0 L580 180 L580 180 Z " />
<glyph glyph-name="F" unicode="F" horiz-adv-x="615" d="M405 313 L447 233 L470 233 L470 448 L447 448 L405 368 L235 368 L235 605 L470 605 L528 490 L545 490 L545 660 L65 660 L65 641 L145 605 L145 55 L65 19 L65 0 L330 0 L330 19 L235 55 L235 313 L405 313 L405 313 Z " />
<glyph glyph-name="G" unicode="G" horiz-adv-x="774" d="M654 235 L729 271 L729 290 L479 290 L479 271 L564 235 L564 67 C534 56 486 49 431 49 C271 49 164 166 164 341 C164 508 268 620 425 620 C471 620 519 608 557 588 C562 585 567 580 570 574 C588 537 611 487 629 450 C634 450 640 451 646 451 L639 624 C606 652 521 670 425 670 C213 670 71 526 71 310 C71 118 204 -10 403 -10 C512 -10 613 24 655 74 L654 235 L654 235 Z " />
<glyph glyph-name="H" unicode="H" horiz-adv-x="811" d="M746 0 L746 19 L666 55 L666 605 L746 641 L746 660 L496 660 L496 641 L576 605 L576 368 L235 368 L235 605 L315 641 L315 660 L65 660 L65 641 L145 605 L145 55 L65 19 L65 0 L315 0 L315 19 L235 55 L235 313 L576 313 L576 55 L496 19 L496 0 L746 0 L746 0 Z " />
<glyph glyph-name="I" unicode="I" horiz-adv-x="390" d="M320 0 L320 19 L240 55 L240 605 L320 641 L320 660 L70 660 L70 641 L150 605 L150 55 L70 19 L70 0 L320 0 L320 0 Z " />
<glyph glyph-name="J" unicode="J" horiz-adv-x="390" d="M150 605 L150 50 C150 -40 124 -100 84 -100 C84 -100 53 -96 33 -91 L27 -91 C27 -91 17 -144 17 -147 C17 -163 30 -173 50 -173 C164 -173 240 -7 240 243 L240 605 L320 641 L320 660 L70 660 L70 641 L150 605 L150 605 Z " />
<glyph glyph-name="K" unicode="K" horiz-adv-x="741" d="M712 14 L646 40 L328 359 L601 620 L668 646 L668 660 L426 660 L426 642 L498 610 L292 396 L237 338 C240 335 270 303 270 303 L561 0 L712 0 L712 14 L712 14 Z M316 0 L316 19 L236 55 L236 605 L316 641 L316 660 L66 660 L66 641 L146 605 L146 55 L66 19 L66 0 L316 0 L316 0 Z " />
<glyph glyph-name="L" unicode="L" horiz-adv-x="630" d="M560 220 L542 220 L480 55 L235 55 L235 605 L320 641 L320 660 L65 660 L65 641 L145 605 L145 55 L65 19 L65 0 L560 0 L560 220 L560 220 Z " />
<glyph glyph-name="M" unicode="M" horiz-adv-x="963" d="M71 641 L159 605 L141 55 L60 19 L60 0 L284 0 L284 19 L200 55 L212 540 L449 -5 L494 -5 L727 532 L745 55 L667 19 L667 0 L901 0 L901 19 L830 55 L809 605 L896 641 L896 660 L722 660 L492 118 L255 660 L70 660 L71 641 L71 641 Z " />
<glyph glyph-name="N" unicode="N" horiz-adv-x="806" d="M68 641 L143 605 L143 55 L63 19 L63 0 L313 0 L313 19 L213 55 L213 513 C352 340 491 167 630 -6 L665 -6 L665 604 L740 640 L740 659 L495 659 L495 640 L595 604 L595 181 L212 659 L67 659 L68 641 L68 641 Z " />
<glyph glyph-name="O" unicode="O" horiz-adv-x="807" d="M166 363 C166 518 254 621 386 621 C539 621 641 490 641 293 C641 141 554 40 424 40 C269 40 166 169 166 363 L166 363 Z M70 328 C70 125 204 -10 404 -10 C604 -10 737 125 737 328 C737 533 604 670 404 670 C204 670 70 533 70 328 L70 328 Z " />
<glyph glyph-name="P" unicode="P" horiz-adv-x="623" d="M330 0 L330 19 L235 55 L235 290 L308 290 C455 290 553 366 553 479 C553 588 465 660 333 660 L65 660 L65 641 L145 605 L145 55 L65 19 L65 0 L330 0 L330 0 Z M235 345 L235 605 L311 605 C399 605 457 551 457 471 C457 395 405 345 328 345 L235 345 L235 345 Z " />
<glyph glyph-name="Q" unicode="Q" horiz-adv-x="807" d="M807 -121 L807 -106 C798 -111 772 -115 744 -115 C678 -115 593 -20 521 8 C654 51 737 169 737 329 C737 534 604 671 404 671 C204 671 70 534 70 329 C70 120 213 -20 428 -8 C512 -53 606 -146 682 -146 C729 -146 779 -135 807 -119 L807 -121 L807 -121 Z M166 365 C166 520 254 623 386 623 C539 623 641 492 641 295 C641 143 554 42 424 42 C269 42 166 171 166 365 L166 365 Z " />
<glyph glyph-name="R" unicode="R" horiz-adv-x="682" d="M669 0 L669 18 L596 50 L410 304 C499 331 554 395 554 480 C554 589 466 661 334 661 L65 661 L65 642 L145 606 L145 56 L65 20 L65 1 L310 1 L310 20 L235 56 L235 291 L309 291 L521 1 L669 0 L669 0 Z M235 346 L235 606 L312 606 C398 606 456 552 456 472 C456 396 405 346 329 346 L235 346 L235 346 Z " />
<glyph glyph-name="S" unicode="S" horiz-adv-x="527" d="M360 594 C371 588 382 576 387 564 C398 540 412 507 423 483 C430 483 437 484 444 484 L436 627 C406 653 343 670 278 670 C162 670 85 598 85 489 C85 406 137 352 238 309 C336 267 386 223 386 163 C386 87 341 37 273 37 C237 37 184 55 135 83 C130 86 125 91 123 96 C111 126 94 167 82 197 C79 197 75 196 72 196 L61 196 L69 35 C110 7 191 -11 272 -11 C391 -11 471 67 471 185 C471 274 414 333 304 380 C218 417 173 459 173 520 C173 581 211 621 269 621 C296 621 329 611 359 594 L360 594 L360 594 Z " />
<glyph glyph-name="T" unicode="T" horiz-adv-x="675" d="M483 0 L483 19 L383 55 L383 605 L550 605 L612 460 L630 460 L630 660 L45 660 L45 460 L63 460 L125 605 L293 605 L293 55 L193 19 L193 0 L483 0 L483 0 Z " />
<glyph glyph-name="U" unicode="U" horiz-adv-x="811" d="M145 605 L145 234 C145 88 249 -10 406 -10 C562 -10 666 88 666 234 L666 605 L746 641 L746 660 L496 660 L496 641 L596 605 L596 213 C596 114 531 48 433 48 C314 48 235 129 235 250 L235 605 L315 641 L315 660 L65 660 L65 641 L145 605 L145 605 Z " />
<glyph glyph-name="V" unicode="V" horiz-adv-x="735" d="M284 660 L33 660 L33 642 L101 610 C182 405 262 199 344 -6 L387 -6 L647 619 L703 645 L703 659 L497 659 L497 640 L575 604 L384 131 C322 288 259 446 198 603 L286 639 L284 660 L284 660 Z " />
<glyph glyph-name="W" unicode="W" horiz-adv-x="979" d="M272 660 L19 660 L19 642 L84 610 C145 405 208 201 267 -5 L302 -5 L309 15 L491 500 C550 332 610 164 668 -5 L703 -5 L709 15 C772 217 834 419 898 620 L961 646 L961 660 L742 660 L742 641 L826 605 L696 166 C637 332 579 499 519 665 L484 665 C424 499 365 332 306 165 C264 312 221 459 179 606 L273 642 L272 660 L272 660 Z " />
<glyph glyph-name="X" unicode="X" horiz-adv-x="741" d="M300 660 L48 660 L48 642 L112 610 L320 327 C249 235 178 142 107 50 L37 18 L37 0 L269 0 L269 19 L181 55 L353 282 L521 54 L451 18 L451 -1 L704 -1 L704 15 L642 44 L414 347 L620 614 L682 643 L682 659 L469 659 L469 640 L546 604 L380 391 L220 604 L299 640 L300 660 L300 660 Z " />
<glyph glyph-name="Y" unicode="Y" horiz-adv-x="718" d="M265 660 L31 660 L31 642 L95 610 L321 305 L321 55 L231 19 L231 0 L501 0 L501 19 L411 55 L411 309 L626 621 L683 647 L683 661 L471 661 L471 642 L548 606 L382 365 L197 606 L265 642 L265 660 L265 660 Z " />
<glyph glyph-name="Z" unicode="Z" horiz-adv-x="646" d="M102 480 L120 480 L182 605 L434 605 C320 412 206 218 90 25 L90 0 L556 0 L556 190 L538 190 L476 55 L200 55 C313 247 426 439 541 630 L541 660 L102 660 L102 480 L102 480 Z " />
<glyph glyph-name="bracketleft" unicode="&#x5b;" horiz-adv-x="250" d="M129 717 L245 717 L245 740 L67 740 L67 -150 L245 -150 L245 -127 L129 -127 L129 717 L129 717 Z " />
<glyph glyph-name="backslash" unicode="&#x5c;" horiz-adv-x="250" d="M200 -120 L250 -120 L50 750 L0 750 L200 -120 L200 -120 Z " />
<glyph glyph-name="bracketright" unicode="&#x5d;" horiz-adv-x="245" d="M118 717 L118 -127 L5 -127 L5 -150 L180 -150 L180 740 L5 740 L5 717 L118 717 L118 717 Z " />
<glyph glyph-name="asciicircum" unicode="&#x5e;" horiz-adv-x="340" d="M318 530 L185 705 L155 705 L27 530 L39 530 L170 623 L306 530 L318 530 L318 530 Z " />
<glyph glyph-name="underscore" unicode="&#x5f;" horiz-adv-x="500" d="M25 -90 L25 -140 L475 -140 L475 -90 L25 -90 L25 -90 Z " />
<glyph glyph-name="grave" unicode="&#x60;" horiz-adv-x="340" d="M176 530 L89 707 L9 707 C9 707 21 662 38 646 L164 530 L176 530 L176 530 Z " />
<glyph glyph-name="a" unicode="a" horiz-adv-x="489" d="M142 337 C142 381 172 414 211 414 C271 414 302 380 302 329 L302 258 C134 219 48 156 48 89 C48 30 92 -10 157 -10 C214 -10 268 10 304 50 C314 13 346 -11 390 -11 C429 -11 465 11 481 43 L478 49 C477 47 463 46 442 46 C405 46 381 54 381 66 L381 349 C381 415 332 459 236 459 C135 459 58 404 58 331 C58 313 66 302 79 303 L136 303 L141 308 L142 337 L142 337 Z M301 221 L301 76 C277 58 241 49 201 49 C155 49 124 73 124 108 C124 151 184 193 301 221 L301 221 Z " />
<glyph glyph-name="b" unicode="b" horiz-adv-x="561" d="M35 693 L72 661 C89 647 100 637 100 637 L100 -10 L106 -10 L133 17 C161 1 218 -10 282 -10 C419 -10 511 95 511 252 C511 377 440 460 334 460 C276 460 218 437 180 402 L180 750 L164 750 L35 699 L35 693 L35 693 Z M180 80 L180 353 C197 377 235 393 277 393 C369 393 431 328 431 231 C431 115 382 38 309 38 C260 38 208 55 180 80 L180 80 Z " />
<glyph glyph-name="c" unicode="c" horiz-adv-x="477" d="M429 105 C389 80 339 64 304 64 C199 64 129 138 129 250 C129 350 177 416 250 416 C285 416 322 397 343 368 L373 326 L380 326 L417 355 C439 375 434 386 417 411 C396 440 342 460 281 460 C142 460 50 358 50 205 C50 76 134 -10 261 -10 C330 -10 399 32 433 95 L433 105 L429 105 L429 105 Z " />
<glyph glyph-name="d" unicode="d" horiz-adv-x="574" d="M526 0 L526 18 L456 50 L456 754 L440 754 L311 715 L311 710 L355 675 C368 665 376 658 376 658 L376 450 C347 456 316 460 287 460 C144 460 48 354 48 194 C48 72 118 -10 222 -10 C282 -10 342 15 376 54 L385 0 L526 0 L526 0 Z M375 363 L375 89 C354 70 317 58 278 58 C187 58 126 123 126 220 C126 336 185 413 273 413 C273 413 313 394 375 364 L375 363 L375 363 Z " />
<glyph glyph-name="e" unicode="e" horiz-adv-x="483" d="M131 288 C141 366 184 416 245 416 C305 416 347 366 358 288 L131 288 Z M429 105 C389 80 339 64 304 64 C202 64 133 134 130 242 L398 242 L434 247 C434 375 365 460 262 460 C135 460 51 358 51 205 C51 76 135 -10 262 -10 C331 -10 400 32 434 95 L434 105 L429 105 L429 105 Z " />
<glyph glyph-name="f" unicode="f" horiz-adv-x="367" d="M265 0 L265 18 L200 50 L201 403 L332 403 L332 450 L201 450 L201 587 C201 625 241 667 301 667 C321 667 342 663 355 657 C369 650 382 646 382 646 L389 646 L409 694 C416 716 411 727 385 739 C385 739 361 749 350 749 C240 749 120 614 120 489 L120 449 L40 449 L40 402 L120 402 L120 49 L55 17 L55 -1 L265 0 L265 0 Z " />
<glyph glyph-name="g" unicode="g" horiz-adv-x="546" d="M161 303 C161 374 192 421 251 421 C313 421 355 372 355 299 C355 226 326 178 270 178 C205 178 161 228 161 303 L161 303 Z M80 300 C80 239 108 190 156 163 C103 143 69 109 69 74 C69 33 99 4 147 -6 C93 -24 59 -84 59 -123 C59 -193 130 -239 236 -239 C377 -239 471 -169 471 -65 C471 11 432 61 331 61 L209 61 C167 61 139 79 139 107 C139 127 155 145 180 152 C202 144 227 140 255 140 C373 140 434 206 434 304 C434 343 422 377 400 403 L494 398 L494 452 L350 442 C324 455 292 462 256 462 C139 462 78 398 78 302 L80 300 L80 300 Z M183 -8 L291 -8 C368 -8 398 -39 398 -85 C398 -160 337 -210 246 -210 C176 -210 130 -170 130 -111 C130 -61 151 -8 183 -8 L183 -8 Z " />
<glyph glyph-name="h" unicode="h" horiz-adv-x="590" d="M50 693 L87 661 C104 647 115 637 115 637 L115 50 L50 18 L50 0 L260 0 L260 18 L195 50 L195 351 C220 375 254 390 304 390 C365 390 405 353 405 297 L405 50 L340 18 L340 0 L550 0 L550 18 L485 50 L485 343 C485 413 430 460 348 460 C291 460 241 429 194 382 L194 751 L178 751 L49 700 L50 693 L50 693 Z " />
<glyph glyph-name="i" unicode="i" horiz-adv-x="317" d="M155 610 C191 610 215 634 215 670 C215 706 191 730 155 730 C119 730 95 706 95 670 C95 634 119 610 155 610 L155 610 Z M54 403 L91 371 C108 357 119 347 119 347 L119 50 L54 18 L54 0 L269 0 L269 18 L199 50 L199 460 L183 460 L54 409 L54 403 L54 403 Z " />
<glyph glyph-name="j" unicode="j" horiz-adv-x="317" d="M159 610 C195 610 219 634 219 670 C219 706 195 730 159 730 C123 730 99 706 99 670 C99 634 123 610 159 610 L159 610 Z M54 403 L91 371 C108 357 119 347 119 347 L119 -12 C119 -111 127 -172 56 -216 L56 -234 C192 -149 199 -87 199 0 L199 460 L183 460 L54 409 L54 403 L54 403 Z " />
<glyph glyph-name="k" unicode="k" horiz-adv-x="544" d="M502 450 L311 450 L311 429 L362 390 L195 255 L195 760 L179 760 L50 709 L50 703 L87 671 C104 657 115 647 115 647 L115 50 L50 18 L50 0 L265 0 L265 18 L195 50 L195 240 L396 0 L516 0 L516 18 L454 50 L265 273 L434 400 L502 432 L502 450 L502 450 Z " />
<glyph glyph-name="l" unicode="l" horiz-adv-x="298" d="M44 703 L81 671 C98 657 109 647 109 647 L109 50 L44 18 L44 0 L254 0 L254 18 L189 50 L189 760 L173 760 L44 709 L44 703 L44 703 Z " />
<glyph glyph-name="m" unicode="m" horiz-adv-x="863" d="M45 403 L82 371 C99 357 110 347 110 347 L110 50 L45 18 L45 0 L255 0 L255 18 L190 50 L190 351 C215 375 248 390 294 390 C352 390 390 353 390 297 L390 50 L320 18 L320 0 L540 0 L540 18 L470 50 L470 343 C470 344 470 345 470 346 C498 373 533 390 581 390 C639 390 678 353 678 297 L678 50 L608 18 L608 0 L823 0 L823 18 L758 50 L758 343 C758 413 705 460 625 460 C569 460 516 425 466 373 C453 426 405 460 338 460 C285 460 237 429 190 382 L190 384 L188 384 C187 417 186 461 186 461 L170 461 L45 410 L45 403 L45 403 Z " />
<glyph glyph-name="n" unicode="n" horiz-adv-x="590" d="M50 403 L87 371 C104 357 115 347 115 347 L115 50 L50 18 L50 0 L265 0 L265 18 L195 50 L195 351 C220 375 254 390 304 390 C365 390 405 353 405 297 L405 50 L335 18 L335 0 L550 0 L550 18 L485 50 L485 343 C485 413 430 460 348 460 C291 460 241 429 194 382 L194 384 L192 384 C191 417 190 461 190 461 L174 461 L49 410 L50 403 L50 403 Z " />
<glyph glyph-name="o" unicode="o" horiz-adv-x="538" d="M142 225 C142 341 180 418 255 418 C340 418 396 341 396 225 C396 109 358 32 283 32 C198 32 142 109 142 225 L142 225 Z M50 225 C50 84 138 -10 269 -10 C414 -10 488 84 488 225 C488 366 400 460 269 460 C124 460 50 366 50 225 L50 225 Z " />
<glyph glyph-name="p" unicode="p" horiz-adv-x="572" d="M50 403 L87 371 C104 357 115 347 115 347 L115 -180 L50 -212 L50 -230 L265 -230 L265 -212 L195 -180 L195 -3 C220 -7 253 -10 289 -10 C429 -10 522 94 522 250 C522 376 455 460 354 460 C303 460 240 433 193 393 C192 424 191 460 191 460 L175 460 L50 409 L50 403 L50 403 Z M195 80 L195 362 C221 381 260 393 297 393 C386 393 445 321 445 214 C445 108 393 38 315 38 C273 38 225 55 195 80 L195 80 Z " />
<glyph glyph-name="q" unicode="q" horiz-adv-x="563" d="M523 -230 L523 -212 L458 -180 L458 460 L452 460 L415 442 C386 453 340 460 289 460 C146 460 50 354 50 194 C50 72 120 -10 224 -10 C266 -10 326 16 378 56 L378 -181 L308 -213 L308 -231 L523 -230 L523 -230 Z M378 367 L378 91 C348 69 310 55 280 55 C189 55 128 120 128 217 C128 333 187 410 275 410 C302 410 341 393 377 366 L378 367 L378 367 Z " />
<glyph glyph-name="r" unicode="r" horiz-adv-x="378" d="M295 460 C269 460 234 423 195 367 L195 375 L194 375 C193 408 192 459 192 459 L176 459 L51 408 L51 402 L88 370 C105 356 116 346 116 346 L116 49 L51 17 L51 -1 L266 -1 L266 17 L196 49 L196 332 C217 361 235 380 247 380 C267 380 292 375 309 368 C320 363 347 352 347 352 L354 352 C369 383 379 409 379 418 C379 442 328 459 296 459 L295 460 L295 460 Z " />
<glyph glyph-name="s" unicode="s" horiz-adv-x="427" d="M341 320 L341 425 L340 400 L341 425 C305 446 251 460 207 460 C128 460 75 409 75 332 C75 262 111 223 182 199 C251 176 287 145 287 96 C287 54 253 26 203 26 C129 26 100 83 74 135 L60 135 L60 20 C99 2 158 -10 209 -10 C298 -10 357 43 357 122 C357 196 317 239 240 265 C178 286 146 315 146 362 C146 397 172 421 212 421 C213 421 221 421 221 420 C259 416 297 384 315 340 C318 334 321 326 324 320 L341 320 L341 320 Z " />
<glyph glyph-name="t" unicode="t" horiz-adv-x="354" d="M324 53 L321 63 C319 59 293 57 255 57 C210 57 180 77 180 107 L180 403 L312 403 L312 450 L180 450 L180 560 L174 560 L100 450 L18 409 L18 403 L100 403 L100 90 C100 30 143 -10 208 -10 C259 -10 306 15 324 53 L324 53 Z " />
<glyph glyph-name="u" unicode="u" horiz-adv-x="552" d="M381 400 L381 101 C351 76 311 63 271 63 C211 63 171 100 171 155 L171 450 L26 450 L26 432 L91 400 L91 107 C91 37 145 -10 225 -10 C270 -10 327 16 382 68 L382 0 L532 0 L532 18 L462 50 L462 450 L312 450 L312 432 L381 400 L381 400 Z " />
<glyph glyph-name="v" unicode="v" horiz-adv-x="550" d="M304 431 L382 395 L267 113 L134 400 L221 432 L221 450 L-24 450 L-24 432 L46 400 C107 267 169 134 230 0 L251 0 L429 395 L505 431 L505 450 L304 450 L304 431 L304 431 Z " />
<glyph glyph-name="w" unicode="w" horiz-adv-x="844" d="M614 431 L692 395 L540 11 L545 0 L566 0 C624 132 682 264 740 395 L816 431 L816 450 L614 450 L614 431 L614 431 Z M540 11 L582 118 C533 229 483 339 435 451 L414 451 L410 439 L227 11 L231 1 L255 1 L403 326 L540 11 L540 11 Z M266 451 L22 451 L22 433 L89 401 L227 11 L272 117 L173 401 L266 433 L266 451 L266 451 Z " />
<glyph glyph-name="x" unicode="x" horiz-adv-x="537" d="M283 0 L488 0 L488 18 L435 50 L287 252 C326 301 365 351 405 400 L465 432 L465 450 L298 450 L298 432 L358 400 L270 275 C240 316 209 358 180 399 L253 431 L253 449 L39 449 L39 431 L92 399 L218 224 C176 166 134 108 92 50 L34 18 L34 0 L211 0 L211 18 L139 50 L237 199 L344 50 L285 18 L283 0 L283 0 Z " />
<glyph glyph-name="y" unicode="y" horiz-adv-x="538" d="M250 450 L5 450 L5 432 L75 400 L257 10 L226 -65 C201 -131 173 -156 126 -156 L81 -156 L77 -160 L77 -211 C77 -232 87 -240 111 -240 C176 -240 218 -195 263 -80 L458 395 L532 431 L532 450 L337 450 L337 431 L414 395 L298 111 L162 400 L249 432 L250 450 L250 450 Z " />
<glyph glyph-name="z" unicode="z" horiz-adv-x="480" d="M70 305 L87 305 L129 405 L288 405 L73 18 L73 0 L405 0 L405 150 L388 150 L355 45 L179 45 C252 176 324 307 397 437 L397 450 L133 450 L94 460 L84 460 C84 459 83 450 83 450 L83 449 C79 404 75 349 70 304 L70 305 L70 305 Z " />
<glyph glyph-name="braceleft" unicode="&#x7b;" horiz-adv-x="250" d="M95 297 C148 318 180 366 180 430 C180 493 135 577 135 640 C135 708 169 729 219 727 L245 726 L245 749 L226 749 C131 749 67 722 67 608 C67 549 120 469 120 410 C120 348 87 308 30 308 L5 308 L5 284 L30 284 C87 284 120 242 120 181 C120 122 67 43 67 -16 C67 -135 131 -157 226 -157 L245 -157 L245 -134 L218 -136 C168 -140 135 -119 135 -48 C135 14 180 98 180 160 C180 225 148 274 95 296 L95 297 L95 297 Z " />
<glyph glyph-name="bar" unicode="&#x7c;" horiz-adv-x="225" d="M75 -260 L125 -260 L125 760 L75 760 L75 -260 L75 -260 Z " />
<glyph glyph-name="braceright" unicode="&#x7d;" horiz-adv-x="260" d="M255 285 L255 309 L230 309 C173 309 140 349 140 411 C140 470 193 550 193 609 C193 723 129 750 34 750 L15 750 L15 727 L41 728 C91 730 125 709 125 641 C125 578 80 494 80 431 C80 367 112 319 165 298 C112 276 80 227 80 162 C80 100 125 16 125 -46 C125 -117 92 -138 42 -134 L15 -132 L15 -155 L34 -155 C129 -155 193 -133 193 -14 C193 45 140 124 140 183 C140 244 173 286 230 286 L255 285 L255 285 Z " />
<glyph glyph-name="asciitilde" unicode="&#x7e;" horiz-adv-x="340" d="M31 225 C44 264 56 290 90 290 C131 290 186 225 227 225 C276 225 298 275 322 350 L309 350 C296 310 284 283 250 283 C209 283 154 348 113 348 C63 348 42 299 18 225 L31 225 L31 225 Z " />
<glyph glyph-name="exclamdown" unicode="&#xa1;" horiz-adv-x="245" d="M125 460 C89 460 65 436 65 400 C65 364 89 340 125 340 C161 340 185 364 185 400 C185 436 161 460 125 460 L125 460 Z M70 -210 L180 -210 L135 260 L115 260 L70 -210 L70 -210 Z " />
<glyph glyph-name="cent" unicode="&#xa2;" horiz-adv-x="477" d="M429 105 C389 80 339 64 304 64 C286 64 269 66 253 70 L253 416 C287 415 322 396 342 368 L372 326 L379 326 L416 355 C438 375 433 386 416 411 C392 444 323 465 253 458 L253 519 L212 519 L212 450 C112 422 49 330 49 204 C49 92 112 12 212 -7 L212 -81 L253 -81 L253 -11 C327 -13 397 29 432 94 L432 104 L429 105 L429 105 Z M212 86 C160 116 128 174 128 249 C128 331 160 390 212 409 L212 86 Z " />
<glyph glyph-name="guillemotleft" unicode="&#xab;" horiz-adv-x="431" d="M400 425 L200 248 L400 70 L411 70 L300 248 L411 425 L400 425 L400 425 Z M215 425 L15 248 L215 70 L226 70 L115 248 L226 425 L215 425 L215 425 Z " />
<glyph glyph-name="acute" unicode="&#xb4;" horiz-adv-x="340" d="M170 530 L182 530 L308 646 C325 662 337 707 337 707 L257 707 L170 530 L170 530 Z " />
<glyph glyph-name="periodcentered" unicode="&#xb7;" horiz-adv-x="250" d="M125 210 C161 210 185 234 185 270 C185 306 161 330 125 330 C89 330 65 306 65 270 C65 234 89 210 125 210 L125 210 Z " />
<glyph glyph-name="guillemotright" unicode="&#xbb;" horiz-adv-x="430" d="M200 425 L310 248 L200 70 L211 70 L410 248 L211 425 L200 425 L200 425 Z M20 425 L130 248 L20 70 L31 70 L230 248 L31 425 L20 425 L20 425 Z " />
<glyph glyph-name="questiondown" unicode="&#xbf;" horiz-adv-x="478" d="M266 455 C230 455 206 431 206 395 C206 359 230 335 266 335 C302 335 326 359 326 395 C326 431 302 455 266 455 L266 455 Z M350 -67 C350 -67 412 -58 438 -58 C438 -34 423 -18 400 -18 L358 -18 C358 -18 352 -28 350 -28 L350 -67 L350 -67 Z M350 -67 C350 -132 315 -176 262 -176 C193 -176 147 -124 147 -45 C147 17 209 77 302 105 C302 151 276 260 276 260 L256 260 C256 260 250 218 245 175 C130 131 55 46 55 -45 C55 -150 125 -220 231 -220 C355 -220 438 -155 438 -58 L350 -67 L350 -67 Z " />
<glyph glyph-name="Agrave" unicode="&#xc0;" horiz-adv-x="748" d="M371 705 L284 864 L204 864 C204 864 216 824 233 809 L359 705 L371 705 L371 705 Z M466 0 L713 0 L713 16 L649 45 C563 252 477 459 391 666 L347 666 L94 51 L16 19 L16 1 L242 1 L242 19 L162 51 L229 220 L483 220 L483 222 L553 51 L465 19 L466 0 L466 0 Z M462 275 L251 275 L355 537 L462 275 L462 275 Z " />
<glyph glyph-name="Aacute" unicode="&#xc1;" horiz-adv-x="748" d="M365 705 L377 705 L503 809 C520 824 532 864 532 864 L452 864 L365 705 L365 705 Z M466 0 L713 0 L713 16 L649 45 C563 252 477 459 391 666 L347 666 L94 51 L16 19 L16 1 L242 1 L242 19 L162 51 L229 220 L483 220 L483 222 L553 51 L465 19 L466 0 L466 0 Z M462 275 L251 275 L355 537 L462 275 L462 275 Z " />
<glyph glyph-name="Acircumflex" unicode="&#xc2;" horiz-adv-x="748" d="M518 705 L385 863 L355 863 L227 705 L239 705 L370 788 L506 705 L518 705 L518 705 Z M466 0 L713 0 L713 16 L649 45 C563 252 477 459 391 666 L347 666 L94 51 L16 19 L16 1 L242 1 L242 19 L162 51 L229 220 L483 220 L483 222 L553 51 L465 19 L466 0 L466 0 Z M462 275 L251 275 L355 537 L462 275 L462 275 Z " />
<glyph glyph-name="Atilde" unicode="&#xc3;" horiz-adv-x="748" d="M236 728 C249 763 261 786 295 786 C336 786 391 728 432 728 C481 728 503 773 527 840 L514 840 C501 804 489 780 455 780 C414 780 359 838 318 838 C268 838 247 794 223 728 L236 728 L236 728 Z M466 0 L713 0 L713 16 L649 45 C563 252 477 459 391 666 L347 666 L94 51 L16 19 L16 1 L242 1 L242 19 L162 51 L229 220 L483 220 L483 222 L553 51 L465 19 L466 0 L466 0 Z M462 275 L251 275 L355 537 L462 275 L462 275 Z " />
<glyph glyph-name="Adieresis" unicode="&#xc4;" horiz-adv-x="748" d="M460 735 C490 735 510 755 510 785 C510 815 490 835 460 835 C430 835 410 815 410 785 C410 755 430 735 460 735 L460 735 Z M280 735 C310 735 330 755 330 785 C330 815 310 835 280 835 C250 835 230 815 230 785 C230 755 250 735 280 735 L280 735 Z M466 0 L713 0 L713 16 L649 45 C563 252 477 459 391 666 L347 666 L94 51 L16 19 L16 1 L242 1 L242 19 L162 51 L229 220 L483 220 L483 222 L553 51 L465 19 L466 0 L466 0 Z M462 275 L251 275 L355 537 L462 275 L462 275 Z " />
<glyph glyph-name="Aring" unicode="&#xc5;" horiz-adv-x="748" d="M334 800 C334 831 348 852 368 852 C391 852 406 826 406 786 C406 758 391 734 374 734 C352 734 334 764 334 800 L334 800 Z M285 793 C285 748 324 710 370 710 C416 710 455 749 455 795 C455 844 421 876 370 876 C319 876 285 843 285 793 L285 793 Z M466 0 L713 0 L713 16 L649 45 C563 252 477 459 391 666 L347 666 L94 51 L16 19 L16 1 L242 1 L242 19 L162 51 L229 220 L483 220 L483 222 L553 51 L465 19 L466 0 L466 0 Z M462 275 L251 275 L355 537 L462 275 L462 275 Z " />
<glyph glyph-name="Ccedilla" unicode="&#xc7;" horiz-adv-x="717" d="M392 -81 C409 -44 421 -19 425 -10 C510 -7 588 12 626 38 L635 196 C629 196 624 197 619 197 C602 164 580 121 563 88 C561 84 557 79 553 76 C507 53 450 39 400 39 C257 39 162 159 162 340 C162 507 262 619 413 619 C454 619 499 607 535 588 L535 588 C541 585 546 580 548 575 C566 538 589 487 607 450 C612 450 618 451 624 451 L617 624 C584 652 503 670 413 670 C207 670 69 526 69 310 C69 121 196 -6 389 -11 C383 -24 362 -68 334 -130 L363 -143 C398 -150 422 -165 422 -180 C422 -200 407 -213 384 -213 C353 -213 325 -207 314 -197 L314 -208 C336 -228 370 -241 398 -241 C448 -241 482 -210 482 -164 C482 -129 447 -97 392 -82 L392 -81 L392 -81 Z " />
<glyph glyph-name="Egrave" unicode="&#xc8;" horiz-adv-x="650" d="M341 705 L254 864 L174 864 C174 864 186 824 203 809 L329 705 L341 705 L341 705 Z M580 180 L563 180 L505 55 L235 55 L235 313 L405 313 L447 233 L470 233 L470 448 L447 448 L405 368 L235 368 L235 605 L480 605 L538 490 L555 490 L555 660 L65 660 L65 641 L145 605 L145 55 L65 19 L65 0 L580 0 L580 180 L580 180 Z " />
<glyph glyph-name="Eacute" unicode="&#xc9;" horiz-adv-x="650" d="M335 705 L347 705 L473 809 C490 824 502 864 502 864 L422 864 L335 705 L335 705 Z M580 180 L563 180 L505 55 L235 55 L235 313 L405 313 L447 233 L470 233 L470 448 L447 448 L405 368 L235 368 L235 605 L480 605 L538 490 L555 490 L555 660 L65 660 L65 641 L145 605 L145 55 L65 19 L65 0 L580 0 L580 180 L580 180 Z " />
<glyph glyph-name="Ecircumflex" unicode="&#xca;" horiz-adv-x="650" d="M483 705 L350 863 L320 863 L192 705 L204 705 L335 788 L471 705 L483 705 L483 705 Z M580 180 L563 180 L505 55 L235 55 L235 313 L405 313 L447 233 L470 233 L470 448 L447 448 L405 368 L235 368 L235 605 L480 605 L538 490 L555 490 L555 660 L65 660 L65 641 L145 605 L145 55 L65 19 L65 0 L580 0 L580 180 L580 180 Z " />
<glyph glyph-name="Edieresis" unicode="&#xcb;" horiz-adv-x="650" d="M425 735 C455 735 475 755 475 785 C475 815 455 835 425 835 C395 835 375 815 375 785 C375 755 395 735 425 735 L425 735 Z M245 735 C275 735 295 755 295 785 C295 815 275 835 245 835 C215 835 195 815 195 785 C195 755 215 735 245 735 L245 735 Z M580 180 L563 180 L505 55 L235 55 L235 313 L405 313 L447 233 L470 233 L470 448 L447 448 L405 368 L235 368 L235 605 L480 605 L538 490 L555 490 L555 660 L65 660 L65 641 L145 605 L145 55 L65 19 L65 0 L580 0 L580 180 L580 180 Z " />
<glyph glyph-name="Igrave" unicode="&#xcc;" horiz-adv-x="390" d="M201 705 L114 864 L34 864 C34 864 46 824 63 809 L189 705 L201 705 L201 705 Z M320 0 L320 19 L240 55 L240 605 L320 641 L320 660 L70 660 L70 641 L150 605 L150 55 L70 19 L70 0 L320 0 L320 0 Z " />
<glyph glyph-name="Iacute" unicode="&#xcd;" horiz-adv-x="390" d="M195 705 L207 705 L333 809 C350 824 362 864 362 864 L282 864 L195 705 L195 705 Z M320 0 L320 19 L240 55 L240 605 L320 641 L320 660 L70 660 L70 641 L150 605 L150 55 L70 19 L70 0 L320 0 L320 0 Z " />
<glyph glyph-name="Icircumflex" unicode="&#xce;" horiz-adv-x="390" d="M343 705 L210 863 L180 863 L52 705 L64 705 L195 788 L331 705 L343 705 L343 705 Z M320 0 L320 19 L240 55 L240 605 L320 641 L320 660 L70 660 L70 641 L150 605 L150 55 L70 19 L70 0 L320 0 L320 0 Z " />
<glyph glyph-name="Idieresis" unicode="&#xcf;" horiz-adv-x="390" d="M285 735 C315 735 335 755 335 785 C335 815 315 835 285 835 C255 835 235 815 235 785 C235 755 255 735 285 735 L285 735 Z M105 735 C135 735 155 755 155 785 C155 815 135 835 105 835 C75 835 55 815 55 785 C55 755 75 735 105 735 L105 735 Z M320 0 L320 19 L240 55 L240 605 L320 641 L320 660 L70 660 L70 641 L150 605 L150 55 L70 19 L70 0 L320 0 L320 0 Z " />
<glyph glyph-name="Ntilde" unicode="&#xd1;" horiz-adv-x="806" d="M280 728 C293 763 305 786 339 786 C380 786 436 728 477 728 C526 728 548 773 572 840 L559 840 C546 804 534 780 500 780 C459 780 403 838 362 838 C312 838 291 794 267 728 L280 728 L280 728 Z M68 641 L143 605 L143 55 L63 19 L63 0 L313 0 L313 19 L213 55 L213 513 C352 340 491 167 630 -6 L665 -6 L665 604 L740 640 L740 659 L495 659 L495 640 L595 604 L595 181 L212 659 L67 659 L68 641 L68 641 Z " />
<glyph glyph-name="Ograve" unicode="&#xd2;" horiz-adv-x="807" d="M395 705 L308 864 L228 864 C228 864 240 824 257 809 L383 705 L395 705 L395 705 Z M166 363 C166 518 254 621 386 621 C539 621 641 490 641 293 C641 141 554 40 424 40 C269 40 166 169 166 363 L166 363 Z M70 328 C70 125 204 -10 404 -10 C604 -10 737 125 737 328 C737 533 604 670 404 670 C204 670 70 533 70 328 L70 328 Z " />
<glyph glyph-name="Oacute" unicode="&#xd3;" horiz-adv-x="807" d="M389 705 L401 705 L527 809 C544 824 556 864 556 864 L476 864 L389 705 L389 705 Z M166 363 C166 518 254 621 386 621 C539 621 641 490 641 293 C641 141 554 40 424 40 C269 40 166 169 166 363 L166 363 Z M70 328 C70 125 204 -10 404 -10 C604 -10 737 125 737 328 C737 533 604 670 404 670 C204 670 70 533 70 328 L70 328 Z " />
<glyph glyph-name="Ocircumflex" unicode="&#xd4;" horiz-adv-x="807" d="M537 705 L404 863 L374 863 L246 705 L258 705 L389 788 L525 705 L537 705 L537 705 Z M166 363 C166 518 254 621 386 621 C539 621 641 490 641 293 C641 141 554 40 424 40 C269 40 166 169 166 363 L166 363 Z M70 328 C70 125 204 -10 404 -10 C604 -10 737 125 737 328 C737 533 604 670 404 670 C204 670 70 533 70 328 L70 328 Z " />
<glyph glyph-name="Otilde" unicode="&#xd5;" horiz-adv-x="807" d="M249 728 C262 763 274 786 308 786 C349 786 405 728 446 728 C495 728 517 773 541 840 L528 840 C515 804 503 780 469 780 C428 780 372 838 331 838 C281 838 260 794 236 728 L249 728 L249 728 Z M166 363 C166 518 254 621 386 621 C539 621 641 490 641 293 C641 141 554 40 424 40 C269 40 166 169 166 363 L166 363 Z M70 328 C70 125 204 -10 404 -10 C604 -10 737 125 737 328 C737 533 604 670 404 670 C204 670 70 533 70 328 L70 328 Z " />
<glyph glyph-name="Odieresis" unicode="&#xd6;" horiz-adv-x="807" d="M479 735 C509 735 529 755 529 785 C529 815 509 835 479 835 C449 835 429 815 429 785 C429 755 449 735 479 735 L479 735 Z M299 735 C329 735 349 755 349 785 C349 815 329 835 299 835 C269 835 249 815 249 785 C249 755 269 735 299 735 L299 735 Z M166 363 C166 518 254 621 386 621 C539 621 641 490 641 293 C641 141 554 40 424 40 C269 40 166 169 166 363 L166 363 Z M70 328 C70 125 204 -10 404 -10 C604 -10 737 125 737 328 C737 533 604 670 404 670 C204 670 70 533 70 328 L70 328 Z " />
<glyph glyph-name="Oslash" unicode="&#xd8;" horiz-adv-x="807" d="M70 328 C70 230 101 148 156 89 L69 -9 L138 -9 L194 55 C249 14 320 -9 402 -9 C602 -9 735 126 735 329 C735 429 703 513 648 573 L735 672 L666 672 L610 608 C555 649 484 672 402 672 C202 672 68 535 68 330 L70 328 L70 328 Z M557 548 L215 160 C182 214 164 284 164 366 C164 521 252 624 384 624 C454 624 513 597 557 549 L557 548 L557 548 Z M588 506 C621 451 639 379 639 296 C639 144 552 43 422 43 C351 43 291 70 247 118 L588 506 Z " />
<glyph glyph-name="Ugrave" unicode="&#xd9;" horiz-adv-x="811" d="M422 705 L335 864 L255 864 C255 864 267 824 284 809 L410 705 L422 705 L422 705 Z M145 605 L145 234 C145 88 249 -10 406 -10 C562 -10 666 88 666 234 L666 605 L746 641 L746 660 L496 660 L496 641 L596 605 L596 213 C596 114 531 48 433 48 C314 48 235 129 235 250 L235 605 L315 641 L315 660 L65 660 L65 641 L145 605 L145 605 Z " />
<glyph glyph-name="Uacute" unicode="&#xda;" horiz-adv-x="811" d="M406 705 L418 705 L544 809 C561 824 573 864 573 864 L493 864 L406 705 L406 705 Z M145 605 L145 234 C145 88 249 -10 406 -10 C562 -10 666 88 666 234 L666 605 L746 641 L746 660 L496 660 L496 641 L596 605 L596 213 C596 114 531 48 433 48 C314 48 235 129 235 250 L235 605 L315 641 L315 660 L65 660 L65 641 L145 605 L145 605 Z " />
<glyph glyph-name="Ucircumflex" unicode="&#xdb;" horiz-adv-x="811" d="M564 705 L431 863 L401 863 L273 705 L285 705 L416 788 L552 705 L564 705 L564 705 Z M145 605 L145 234 C145 88 249 -10 406 -10 C562 -10 666 88 666 234 L666 605 L746 641 L746 660 L496 660 L496 641 L596 605 L596 213 C596 114 531 48 433 48 C314 48 235 129 235 250 L235 605 L315 641 L315 660 L65 660 L65 641 L145 605 L145 605 Z " />
<glyph glyph-name="Udieresis" unicode="&#xdc;" horiz-adv-x="811" d="M506 735 C536 735 556 755 556 785 C556 815 536 835 506 835 C476 835 456 815 456 785 C456 755 476 735 506 735 L506 735 Z M326 735 C356 735 376 755 376 785 C376 815 356 835 326 835 C296 835 276 815 276 785 C276 755 296 735 326 735 L326 735 Z M145 605 L145 234 C145 88 249 -10 406 -10 C562 -10 666 88 666 234 L666 605 L746 641 L746 660 L496 660 L496 641 L596 605 L596 213 C596 114 531 48 433 48 C314 48 235 129 235 250 L235 605 L315 641 L315 660 L65 660 L65 641 L145 605 L145 605 Z " />
<glyph glyph-name="Yacute" unicode="&#xdd;" horiz-adv-x="718" d="M356 705 L368 705 L494 809 C511 824 523 864 523 864 L443 864 L356 705 L356 705 Z M265 660 L31 660 L31 642 L95 610 L321 305 L321 55 L231 19 L231 0 L501 0 L501 19 L411 55 L411 309 L626 621 L683 647 L683 661 L471 661 L471 642 L548 606 L382 365 L197 606 L265 642 L265 660 L265 660 Z " />
<glyph glyph-name="agrave" unicode="&#xe0;" horiz-adv-x="489" d="M243 530 L156 707 L76 707 C76 707 88 662 105 646 L231 530 L243 530 L243 530 Z M142 337 C142 381 172 414 211 414 C271 414 302 380 302 329 L302 258 C134 219 48 156 48 89 C48 30 92 -10 157 -10 C214 -10 268 10 304 50 C314 13 346 -11 390 -11 C429 -11 465 11 481 43 L478 49 C477 47 463 46 442 46 C405 46 381 54 381 66 L381 349 C381 415 332 459 236 459 C135 459 58 404 58 331 C58 313 66 302 79 303 L136 303 L141 308 L142 337 L142 337 Z M301 221 L301 76 C277 58 241 49 201 49 C155 49 124 73 124 108 C124 151 184 193 301 221 L301 221 Z " />
<glyph glyph-name="aacute" unicode="&#xe1;" horiz-adv-x="489" d="M237 530 L249 530 L375 646 C392 662 404 707 404 707 L324 707 L237 530 L237 530 Z M142 337 C142 381 172 414 211 414 C271 414 302 380 302 329 L302 258 C134 219 48 156 48 89 C48 30 92 -10 157 -10 C214 -10 268 10 304 50 C314 13 346 -11 390 -11 C429 -11 465 11 481 43 L478 49 C477 47 463 46 442 46 C405 46 381 54 381 66 L381 349 C381 415 332 459 236 459 C135 459 58 404 58 331 C58 313 66 302 79 303 L136 303 L141 308 L142 337 L142 337 Z M301 221 L301 76 C277 58 241 49 201 49 C155 49 124 73 124 108 C124 151 184 193 301 221 L301 221 Z " />
<glyph glyph-name="acircumflex" unicode="&#xe2;" horiz-adv-x="489" d="M385 530 L252 705 L222 705 L94 530 L106 530 L237 623 L373 530 L385 530 L385 530 Z M142 337 C142 381 172 414 211 414 C271 414 302 380 302 329 L302 258 C134 219 48 156 48 89 C48 30 92 -10 157 -10 C214 -10 268 10 304 50 C314 13 346 -11 390 -11 C429 -11 465 11 481 43 L478 49 C477 47 463 46 442 46 C405 46 381 54 381 66 L381 349 C381 415 332 459 236 459 C135 459 58 404 58 331 C58 313 66 302 79 303 L136 303 L141 308 L142 337 L142 337 Z M301 221 L301 76 C277 58 241 49 201 49 C155 49 124 73 124 108 C124 151 184 193 301 221 L301 221 Z " />
<glyph glyph-name="atilde" unicode="&#xe3;" horiz-adv-x="489" d="M83 555 C96 594 108 620 142 620 C183 620 238 555 279 555 C328 555 350 605 374 680 L361 680 C348 640 336 613 302 613 C261 613 206 678 165 678 C115 678 94 629 70 555 L83 555 L83 555 Z M142 337 C142 381 172 414 211 414 C271 414 302 380 302 329 L302 258 C134 219 48 156 48 89 C48 30 92 -10 157 -10 C214 -10 268 10 304 50 C314 13 346 -11 390 -11 C429 -11 465 11 481 43 L478 49 C477 47 463 46 442 46 C405 46 381 54 381 66 L381 349 C381 415 332 459 236 459 C135 459 58 404 58 331 C58 313 66 302 79 303 L136 303 L141 308 L142 337 L142 337 Z M301 221 L301 76 C277 58 241 49 201 49 C155 49 124 73 124 108 C124 151 184 193 301 221 L301 221 Z " />
<glyph glyph-name="adieresis" unicode="&#xe4;" horiz-adv-x="489" d="M312 570 C342 570 362 590 362 620 C362 650 342 670 312 670 C282 670 262 650 262 620 C262 590 282 570 312 570 L312 570 Z M132 570 C162 570 182 590 182 620 C182 650 162 670 132 670 C102 670 82 650 82 620 C82 590 102 570 132 570 L132 570 Z M142 337 C142 381 172 414 211 414 C271 414 302 380 302 329 L302 258 C134 219 48 156 48 89 C48 30 92 -10 157 -10 C214 -10 268 10 304 50 C314 13 346 -11 390 -11 C429 -11 465 11 481 43 L478 49 C477 47 463 46 442 46 C405 46 381 54 381 66 L381 349 C381 415 332 459 236 459 C135 459 58 404 58 331 C58 313 66 302 79 303 L136 303 L141 308 L142 337 L142 337 Z M301 221 L301 76 C277 58 241 49 201 49 C155 49 124 73 124 108 C124 151 184 193 301 221 L301 221 Z " />
<glyph glyph-name="aring" unicode="&#xe5;" horiz-adv-x="489" d="M191 625 C191 656 205 677 225 677 C248 677 263 651 263 611 C263 583 248 559 231 559 C209 559 191 589 191 625 L191 625 Z M142 618 C142 573 181 535 227 535 C273 535 312 574 312 620 C312 669 278 701 227 701 C176 701 142 668 142 618 L142 618 Z M142 337 C142 381 172 414 211 414 C271 414 302 380 302 329 L302 258 C134 219 48 156 48 89 C48 30 92 -10 157 -10 C214 -10 268 10 304 50 C314 13 346 -11 390 -11 C429 -11 465 11 481 43 L478 49 C477 47 463 46 442 46 C405 46 381 54 381 66 L381 349 C381 415 332 459 236 459 C135 459 58 404 58 331 C58 313 66 302 79 303 L136 303 L141 308 L142 337 L142 337 Z M301 221 L301 76 C277 58 241 49 201 49 C155 49 124 73 124 108 C124 151 184 193 301 221 L301 221 Z " />
<glyph glyph-name="ccedilla" unicode="&#xe7;" horiz-adv-x="477" d="M429 105 C389 80 339 64 304 64 C199 64 129 138 129 250 C129 350 177 416 250 416 C285 416 322 397 343 368 L373 326 L380 326 L417 355 C439 375 434 386 417 411 C396 440 342 460 281 460 C142 460 50 358 50 205 C50 80 129 -5 250 -10 C244 -23 223 -67 195 -129 L224 -142 C259 -149 283 -164 283 -179 C283 -199 268 -212 245 -212 C214 -212 186 -206 175 -196 L175 -207 C197 -227 231 -240 259 -240 C309 -240 343 -209 343 -163 C343 -128 308 -96 253 -81 C271 -42 283 -16 286 -9 C346 0 403 39 433 94 L433 104 L429 105 L429 105 Z " />
<glyph glyph-name="egrave" unicode="&#xe8;" horiz-adv-x="483" d="M258 530 L171 707 L91 707 C91 707 103 662 120 646 L246 530 L258 530 L258 530 Z M131 288 C141 366 184 416 245 416 C305 416 347 366 358 288 L131 288 Z M429 105 C389 80 339 64 304 64 C202 64 133 134 130 242 L398 242 L434 247 C434 375 365 460 262 460 C135 460 51 358 51 205 C51 76 135 -10 262 -10 C331 -10 400 32 434 95 L434 105 L429 105 L429 105 Z " />
<glyph glyph-name="eacute" unicode="&#xe9;" horiz-adv-x="483" d="M252 530 L264 530 L390 646 C407 662 419 707 419 707 L339 707 L252 530 L252 530 Z M131 288 C141 366 184 416 245 416 C305 416 347 366 358 288 L131 288 Z M429 105 C389 80 339 64 304 64 C202 64 133 134 130 242 L398 242 L434 247 C434 375 365 460 262 460 C135 460 51 358 51 205 C51 76 135 -10 262 -10 C331 -10 400 32 434 95 L434 105 L429 105 L429 105 Z " />
<glyph glyph-name="ecircumflex" unicode="&#xea;" horiz-adv-x="483" d="M400 530 L267 705 L237 705 L109 530 L121 530 L252 623 L388 530 L400 530 L400 530 Z M131 288 C141 366 184 416 245 416 C305 416 347 366 358 288 L131 288 Z M429 105 C389 80 339 64 304 64 C202 64 133 134 130 242 L398 242 L434 247 C434 375 365 460 262 460 C135 460 51 358 51 205 C51 76 135 -10 262 -10 C331 -10 400 32 434 95 L434 105 L429 105 L429 105 Z " />
<glyph glyph-name="edieresis" unicode="&#xeb;" horiz-adv-x="483" d="M342 570 C372 570 392 590 392 620 C392 650 372 670 342 670 C312 670 292 650 292 620 C292 590 312 570 342 570 L342 570 Z M162 570 C192 570 212 590 212 620 C212 650 192 670 162 670 C132 670 112 650 112 620 C112 590 132 570 162 570 L162 570 Z M131 288 C141 366 184 416 245 416 C305 416 347 366 358 288 L131 288 Z M429 105 C389 80 339 64 304 64 C202 64 133 134 130 242 L398 242 L434 247 C434 375 365 460 262 460 C135 460 51 358 51 205 C51 76 135 -10 262 -10 C331 -10 400 32 434 95 L434 105 L429 105 L429 105 Z " />
<glyph glyph-name="igrave" unicode="&#xec;" horiz-adv-x="317" d="M160 530 L73 707 L-7 707 C-7 707 5 662 22 646 L148 530 L160 530 L160 530 Z M54 403 L91 371 C108 357 119 347 119 347 L119 50 L54 18 L54 0 L264 0 L264 18 L199 50 L199 460 L183 460 L54 409 L54 403 L54 403 Z " />
<glyph glyph-name="iacute" unicode="&#xed;" horiz-adv-x="317" d="M154 530 L166 530 L292 646 C309 662 321 707 321 707 L241 707 L154 530 L154 530 Z M54 403 L91 371 C108 357 119 347 119 347 L119 50 L54 18 L54 0 L264 0 L264 18 L199 50 L199 460 L183 460 L54 409 L54 403 L54 403 Z " />
<glyph glyph-name="icircumflex" unicode="&#xee;" horiz-adv-x="317" d="M302 530 L169 705 L139 705 L11 530 L23 530 L154 623 L290 530 L302 530 L302 530 Z M54 403 L91 371 C108 357 119 347 119 347 L119 50 L54 18 L54 0 L264 0 L264 18 L199 50 L199 460 L183 460 L54 409 L54 403 L54 403 Z " />
<glyph glyph-name="idieresis" unicode="&#xef;" horiz-adv-x="317" d="M244 570 C274 570 294 590 294 620 C294 650 274 670 244 670 C214 670 194 650 194 620 C194 590 214 570 244 570 L244 570 Z M64 570 C94 570 114 590 114 620 C114 650 94 670 64 670 C34 670 14 650 14 620 C14 590 34 570 64 570 L64 570 Z M54 403 L91 371 C108 357 119 347 119 347 L119 50 L54 18 L54 0 L264 0 L264 18 L199 50 L199 460 L183 460 L54 409 L54 403 L54 403 Z " />
<glyph glyph-name="ntilde" unicode="&#xf1;" horiz-adv-x="590" d="M161 555 C174 594 186 620 220 620 C261 620 316 555 357 555 C406 555 428 605 452 680 L439 680 C426 640 414 613 380 613 C339 613 284 678 243 678 C193 678 172 629 148 555 L161 555 L161 555 Z M50 403 L87 371 C104 357 115 347 115 347 L115 50 L50 18 L50 0 L265 0 L265 18 L195 50 L195 351 C220 375 254 390 304 390 C365 390 405 353 405 297 L405 50 L335 18 L335 0 L550 0 L550 18 L485 50 L485 343 C485 413 430 460 348 460 C291 460 241 429 194 382 L194 384 L192 384 C191 417 190 461 190 461 L174 461 L49 410 L50 403 L50 403 Z " />
<glyph glyph-name="ograve" unicode="&#xf2;" horiz-adv-x="538" d="M275 530 L188 707 L108 707 C108 707 120 662 137 646 L263 530 L275 530 L275 530 Z M142 225 C142 341 180 418 255 418 C340 418 396 341 396 225 C396 109 358 32 283 32 C198 32 142 109 142 225 L142 225 Z M50 225 C50 84 138 -10 269 -10 C414 -10 488 84 488 225 C488 366 400 460 269 460 C124 460 50 366 50 225 L50 225 Z " />
<glyph glyph-name="oacute" unicode="&#xf3;" horiz-adv-x="538" d="M269 530 L281 530 L407 646 C424 662 436 707 436 707 L356 707 L269 530 L269 530 Z M142 225 C142 341 180 418 255 418 C340 418 396 341 396 225 C396 109 358 32 283 32 C198 32 142 109 142 225 L142 225 Z M50 225 C50 84 138 -10 269 -10 C414 -10 488 84 488 225 C488 366 400 460 269 460 C124 460 50 366 50 225 L50 225 Z " />
<glyph glyph-name="ocircumflex" unicode="&#xf4;" horiz-adv-x="538" d="M417 530 L284 705 L254 705 L126 530 L138 530 L269 623 L405 530 L417 530 L417 530 Z M142 225 C142 341 180 418 255 418 C340 418 396 341 396 225 C396 109 358 32 283 32 C198 32 142 109 142 225 L142 225 Z M50 225 C50 84 138 -10 269 -10 C414 -10 488 84 488 225 C488 366 400 460 269 460 C124 460 50 366 50 225 L50 225 Z " />
<glyph glyph-name="otilde" unicode="&#xf5;" horiz-adv-x="538" d="M130 555 C143 594 155 620 189 620 C230 620 285 555 326 555 C375 555 397 605 421 680 L408 680 C395 640 383 613 349 613 C308 613 253 678 212 678 C162 678 141 629 117 555 L130 555 L130 555 Z M142 225 C142 341 180 418 255 418 C340 418 396 341 396 225 C396 109 358 32 283 32 C198 32 142 109 142 225 L142 225 Z M50 225 C50 84 138 -10 269 -10 C414 -10 488 84 488 225 C488 366 400 460 269 460 C124 460 50 366 50 225 L50 225 Z " />
<glyph glyph-name="odieresis" unicode="&#xf6;" horiz-adv-x="538" d="M359 570 C389 570 409 590 409 620 C409 650 389 670 359 670 C329 670 309 650 309 620 C309 590 329 570 359 570 L359 570 Z M179 570 C209 570 229 590 229 620 C229 650 209 670 179 670 C149 670 129 650 129 620 C129 590 149 570 179 570 L179 570 Z M142 225 C142 341 180 418 255 418 C340 418 396 341 396 225 C396 109 358 32 283 32 C198 32 142 109 142 225 L142 225 Z M50 225 C50 84 138 -10 269 -10 C414 -10 488 84 488 225 C488 366 400 460 269 460 C124 460 50 366 50 225 L50 225 Z " />
<glyph glyph-name="oslash" unicode="&#xf8;" horiz-adv-x="538" d="M50 225 C50 158 70 101 105 60 L50 -10 L116 -10 L144 26 C178 3 220 -10 268 -10 C413 -10 487 84 487 225 C487 292 467 349 432 390 L487 460 L421 460 L393 424 C359 447 317 460 269 460 C124 460 50 366 50 225 L50 225 Z M352 372 L158 127 C147 155 141 188 141 225 C141 341 179 418 254 418 C294 418 327 401 351 371 L352 372 L352 372 Z M379 322 C390 294 396 261 396 224 C396 108 358 31 283 31 C243 31 210 48 186 78 L379 322 Z " />
<glyph glyph-name="ugrave" unicode="&#xf9;" horiz-adv-x="552" d="M277 530 L190 707 L110 707 C110 707 122 662 139 646 L265 530 L277 530 L277 530 Z M381 400 L381 101 C351 76 311 63 271 63 C211 63 171 100 171 155 L171 450 L26 450 L26 432 L91 400 L91 107 C91 37 145 -10 225 -10 C270 -10 327 16 382 68 L382 0 L532 0 L532 18 L462 50 L462 450 L312 450 L312 432 L381 400 L381 400 Z " />
<glyph glyph-name="uacute" unicode="&#xfa;" horiz-adv-x="552" d="M271 530 L283 530 L409 646 C426 662 438 707 438 707 L358 707 L271 530 L271 530 Z M381 400 L381 101 C351 76 311 63 271 63 C211 63 171 100 171 155 L171 450 L26 450 L26 432 L91 400 L91 107 C91 37 145 -10 225 -10 C270 -10 327 16 382 68 L382 0 L532 0 L532 18 L462 50 L462 450 L312 450 L312 432 L381 400 L381 400 Z " />
<glyph glyph-name="ucircumflex" unicode="&#xfb;" horiz-adv-x="552" d="M419 530 L286 705 L256 705 L128 530 L140 530 L271 623 L407 530 L419 530 L419 530 Z M381 400 L381 101 C351 76 311 63 271 63 C211 63 171 100 171 155 L171 450 L26 450 L26 432 L91 400 L91 107 C91 37 145 -10 225 -10 C270 -10 327 16 382 68 L382 0 L532 0 L532 18 L462 50 L462 450 L312 450 L312 432 L381 400 L381 400 Z " />
<glyph glyph-name="udieresis" unicode="&#xfc;" horiz-adv-x="552" d="M361 570 C391 570 411 590 411 620 C411 650 391 670 361 670 C331 670 311 650 311 620 C311 590 331 570 361 570 L361 570 Z M181 570 C211 570 231 590 231 620 C231 650 211 670 181 670 C151 670 131 650 131 620 C131 590 151 570 181 570 L181 570 Z M381 400 L381 101 C351 76 311 63 271 63 C211 63 171 100 171 155 L171 450 L26 450 L26 432 L91 400 L91 107 C91 37 145 -10 225 -10 C270 -10 327 16 382 68 L382 0 L532 0 L532 18 L462 50 L462 450 L312 450 L312 432 L381 400 L381 400 Z " />
<glyph glyph-name="yacute" unicode="&#xfd;" horiz-adv-x="478" d="M266 530 L278 530 L404 646 C421 662 433 707 433 707 L353 707 L266 530 L266 530 Z M220 450 L-25 450 L-25 432 L45 400 L227 10 L196 -65 C171 -131 143 -156 96 -156 L51 -156 L47 -160 L47 -211 C47 -232 57 -240 81 -240 C146 -240 188 -195 233 -80 L428 395 L502 431 L502 450 L307 450 L307 431 L384 395 L268 111 L132 400 L219 432 L220 450 L220 450 Z " />
<glyph glyph-name="ydieresis" unicode="&#xff;" horiz-adv-x="478" d="M356 570 C386 570 406 590 406 620 C406 650 386 670 356 670 C326 670 306 650 306 620 C306 590 326 570 356 570 L356 570 Z M176 570 C206 570 226 590 226 620 C226 650 206 670 176 670 C146 670 126 650 126 620 C126 590 146 570 176 570 L176 570 Z M220 450 L-25 450 L-25 432 L45 400 L227 10 L196 -65 C171 -131 143 -156 96 -156 L51 -156 L47 -160 L47 -211 C47 -232 57 -240 81 -240 C146 -240 188 -195 233 -80 L428 395 L502 431 L502 450 L307 450 L307 431 L384 395 L268 111 L132 400 L219 432 L220 450 L220 450 Z " />
<glyph glyph-name="Amacron" unicode="&#x100;" horiz-adv-x="748" d="M237 765 L503 765 L503 815 L237 815 L237 765 L237 765 Z M466 0 L713 0 L713 16 L649 45 C563 252 477 459 391 666 L347 666 L94 51 L16 19 L16 1 L242 1 L242 19 L162 51 L229 220 L483 220 L483 222 L553 51 L465 19 L466 0 L466 0 Z M462 275 L251 275 L355 537 L462 275 L462 275 Z " />
<glyph glyph-name="amacron" unicode="&#x101;" horiz-adv-x="489" d="M94 595 L360 595 L360 645 L94 645 L94 595 L94 595 Z M142 337 C142 381 172 414 211 414 C271 414 302 380 302 329 L302 258 C134 219 48 156 48 89 C48 30 92 -10 157 -10 C214 -10 268 10 304 50 C314 13 346 -11 390 -11 C429 -11 465 11 481 43 L478 49 C477 47 463 46 442 46 C405 46 381 54 381 66 L381 349 C381 415 332 459 236 459 C135 459 58 404 58 331 C58 313 66 302 79 303 L136 303 L141 308 L142 337 L142 337 Z M301 221 L301 76 C277 58 241 49 201 49 C155 49 124 73 124 108 C124 151 184 193 301 221 L301 221 Z " />
<glyph glyph-name="Abreve" unicode="&#x102;" horiz-adv-x="748" d="M235 864 L221 864 C260 756 302 714 370 714 C438 714 480 756 519 864 L505 864 C482 800 444 774 370 774 C296 774 258 800 235 864 L235 864 Z M466 0 L713 0 L713 16 L649 45 C563 252 477 459 391 666 L347 666 L94 51 L16 19 L16 1 L242 1 L242 19 L162 51 L229 220 L483 220 L483 222 L553 51 L465 19 L466 0 L466 0 Z M462 275 L251 275 L355 537 L462 275 L462 275 Z " />
<glyph glyph-name="abreve" unicode="&#x103;" horiz-adv-x="489" d="M92 707 L78 707 C117 587 159 540 227 540 C295 540 337 587 376 707 L362 707 C339 635 301 607 227 607 C153 607 115 635 92 707 L92 707 Z M142 337 C142 381 172 414 211 414 C271 414 302 380 302 329 L302 258 C134 219 48 156 48 89 C48 30 92 -10 157 -10 C214 -10 268 10 304 50 C314 13 346 -11 390 -11 C429 -11 465 11 481 43 L478 49 C477 47 463 46 442 46 C405 46 381 54 381 66 L381 349 C381 415 332 459 236 459 C135 459 58 404 58 331 C58 313 66 302 79 303 L136 303 L141 308 L142 337 L142 337 Z M301 221 L301 76 C277 58 241 49 201 49 C155 49 124 73 124 108 C124 151 184 193 301 221 L301 221 Z " />
<glyph glyph-name="Cacute" unicode="&#x106;" horiz-adv-x="717" d="M369 705 L381 705 L507 809 C524 824 536 864 536 864 L456 864 L369 705 L369 705 Z M627 39 L636 197 C630 197 625 198 620 198 C603 165 581 122 564 89 C562 85 558 80 554 77 C508 54 451 40 401 40 C258 40 163 160 163 341 C163 508 263 620 414 620 C455 620 500 608 536 589 L536 589 C542 586 547 581 549 576 C567 539 590 488 608 451 C613 451 619 452 625 452 L618 625 C585 653 504 671 414 671 C208 671 70 527 70 311 C70 119 202 -9 401 -9 C495 -9 585 11 627 40 L627 39 L627 39 Z " />
<glyph glyph-name="cacute" unicode="&#x107;" horiz-adv-x="477" d="M259 530 L271 530 L397 646 C414 662 426 707 426 707 L346 707 L259 530 L259 530 Z M429 105 C389 80 339 64 304 64 C199 64 129 138 129 250 C129 350 177 416 250 416 C285 416 322 397 343 368 L373 326 L380 326 L417 355 C439 375 434 386 417 411 C396 440 342 460 281 460 C142 460 50 358 50 205 C50 76 134 -10 261 -10 C330 -10 399 32 433 95 L433 105 L429 105 L429 105 Z " />
<glyph glyph-name="Ccaron" unicode="&#x10c;" horiz-adv-x="717" d="M404 710 L537 867 L525 867 L389 784 L258 867 L246 867 L374 710 L404 710 L404 710 Z M627 39 L636 197 C630 197 625 198 620 198 C603 165 581 122 564 89 C562 85 558 80 554 77 C508 54 451 40 401 40 C258 40 163 160 163 341 C163 508 263 620 414 620 C455 620 500 608 536 589 L536 589 C542 586 547 581 549 576 C567 539 590 488 608 451 C613 451 619 452 625 452 L618 625 C585 653 504 671 414 671 C208 671 70 527 70 311 C70 119 202 -9 401 -9 C495 -9 585 11 627 40 L627 39 L627 39 Z " />
<glyph glyph-name="ccaron" unicode="&#x10d;" horiz-adv-x="477" d="M274 535 L407 710 L395 710 L259 617 L128 710 L116 710 L244 535 L274 535 L274 535 Z M429 105 C389 80 339 64 304 64 C199 64 129 138 129 250 C129 350 177 416 250 416 C285 416 322 397 343 368 L373 326 L380 326 L417 355 C439 375 434 386 417 411 C396 440 342 460 281 460 C142 460 50 358 50 205 C50 76 134 -10 261 -10 C330 -10 399 32 433 95 L433 105 L429 105 L429 105 Z " />
<glyph glyph-name="Dcaron" unicode="&#x10e;" horiz-adv-x="775" d="M450 710 L583 867 L571 867 L435 784 L304 867 L292 867 L420 710 L450 710 L450 710 Z M356 0 C565 0 705 130 705 360 C705 558 559 660 340 660 L65 660 L65 641 L145 605 L145 55 L65 19 L65 0 L356 0 L356 0 Z M235 55 L235 605 L314 605 C493 605 612 510 612 325 C612 153 509 55 354 55 L235 55 L235 55 Z " />
<glyph glyph-name="dcaron" unicode="&#x10f;" horiz-adv-x="574" d="M627 750 L552 750 L528 563 L540 563 L642 761 C633 744 637 750 627 750 L627 750 Z M526 0 L526 18 L456 50 L456 754 L440 754 L311 715 L311 710 L355 675 C368 665 376 658 376 658 L376 450 C347 456 316 460 287 460 C144 460 48 354 48 194 C48 72 118 -10 222 -10 C282 -10 342 15 376 54 L385 0 L526 0 L526 0 Z M375 363 L375 89 C354 70 317 58 278 58 C187 58 126 123 126 220 C126 336 185 413 273 413 C273 413 313 394 375 364 L375 363 L375 363 Z " />
<glyph glyph-name="Emacron" unicode="&#x112;" horiz-adv-x="650" d="M202 765 L468 765 L468 815 L202 815 L202 765 L202 765 Z M580 180 L563 180 L505 55 L235 55 L235 313 L405 313 L447 233 L470 233 L470 448 L447 448 L405 368 L235 368 L235 605 L480 605 L538 490 L555 490 L555 660 L65 660 L65 641 L145 605 L145 55 L65 19 L65 0 L580 0 L580 180 L580 180 Z " />
<glyph glyph-name="emacron" unicode="&#x113;" horiz-adv-x="483" d="M124 595 L390 595 L390 645 L124 645 L124 595 L124 595 Z M131 288 C141 366 184 416 245 416 C305 416 347 366 358 288 L131 288 Z M429 105 C389 80 339 64 304 64 C202 64 133 134 130 242 L398 242 L434 247 C434 375 365 460 262 460 C135 460 51 358 51 205 C51 76 135 -10 262 -10 C331 -10 400 32 434 95 L434 105 L429 105 L429 105 Z " />
<glyph glyph-name="Edot" unicode="&#x116;" horiz-adv-x="650" d="M340 725 C376 725 400 749 400 785 C400 821 376 845 340 845 C304 845 280 821 280 785 C280 749 304 725 340 725 L340 725 Z M580 180 L563 180 L505 55 L235 55 L235 313 L405 313 L447 233 L470 233 L470 448 L447 448 L405 368 L235 368 L235 605 L480 605 L538 490 L555 490 L555 660 L65 660 L65 641 L145 605 L145 55 L65 19 L65 0 L580 0 L580 180 L580 180 Z " />
<glyph glyph-name="edot" unicode="&#x117;" horiz-adv-x="483" d="M262 583 C298 583 322 607 322 643 C322 679 298 703 262 703 C226 703 202 679 202 643 C202 607 226 583 262 583 L262 583 Z M131 288 C141 366 184 416 245 416 C305 416 347 366 358 288 L131 288 Z M429 105 C389 80 339 64 304 64 C202 64 133 134 130 242 L398 242 L434 247 C434 375 365 460 262 460 C135 460 51 358 51 205 C51 76 135 -10 262 -10 C331 -10 400 32 434 95 L434 105 L429 105 L429 105 Z " />
<glyph glyph-name="Ecaron" unicode="&#x11a;" horiz-adv-x="650" d="M350 710 L483 867 L471 867 L335 784 L204 867 L192 867 L320 710 L350 710 L350 710 Z M580 180 L563 180 L505 55 L235 55 L235 313 L405 313 L447 233 L470 233 L470 448 L447 448 L405 368 L235 368 L235 605 L480 605 L538 490 L555 490 L555 660 L65 660 L65 641 L145 605 L145 55 L65 19 L65 0 L580 0 L580 180 L580 180 Z " />
<glyph glyph-name="ecaron" unicode="&#x11b;" horiz-adv-x="483" d="M267 535 L400 710 L388 710 L252 617 L121 710 L109 710 L237 535 L267 535 L267 535 Z M131 288 C141 366 184 416 245 416 C305 416 347 366 358 288 L131 288 Z M429 105 C389 80 339 64 304 64 C202 64 133 134 130 242 L398 242 L434 247 C434 375 365 460 262 460 C135 460 51 358 51 205 C51 76 135 -10 262 -10 C331 -10 400 32 434 95 L434 105 L429 105 L429 105 Z " />
<glyph glyph-name="Gbreve" unicode="&#x11e;" horiz-adv-x="774" d="M264 864 L250 864 C289 756 331 714 399 714 C467 714 509 756 548 864 L534 864 C511 800 473 774 399 774 C325 774 287 800 264 864 L264 864 Z M654 235 L729 271 L729 290 L479 290 L479 271 L564 235 L564 67 C534 56 486 49 431 49 C271 49 164 166 164 341 C164 508 268 620 425 620 C471 620 519 608 557 588 C562 585 567 580 570 574 C588 537 611 487 629 450 C634 450 640 451 646 451 L639 624 C606 652 521 670 425 670 C213 670 71 526 71 310 C71 118 204 -10 403 -10 C512 -10 613 24 655 74 L654 235 L654 235 Z " />
<glyph glyph-name="gbreve" unicode="&#x11f;" horiz-adv-x="546" d="M128 707 L114 707 C153 587 195 540 263 540 C331 540 373 587 412 707 L398 707 C375 635 337 607 263 607 C189 607 151 635 128 707 L128 707 Z M161 303 C161 374 192 421 251 421 C313 421 355 372 355 299 C355 226 326 178 270 178 C205 178 161 228 161 303 L161 303 Z M80 300 C80 239 108 190 156 163 C103 143 69 109 69 74 C69 33 99 4 147 -6 C93 -24 59 -84 59 -123 C59 -193 130 -239 236 -239 C377 -239 471 -169 471 -65 C471 11 432 61 331 61 L209 61 C167 61 139 79 139 107 C139 127 155 145 180 152 C202 144 227 140 255 140 C373 140 434 206 434 304 C434 343 422 377 400 403 L494 398 L494 452 L350 442 C324 455 292 462 256 462 C139 462 78 398 78 302 L80 300 L80 300 Z M183 -8 L291 -8 C368 -8 398 -39 398 -85 C398 -160 337 -210 246 -210 C176 -210 130 -170 130 -111 C130 -61 151 -8 183 -8 L183 -8 Z " />
<glyph glyph-name="Itilde" unicode="&#x128;" horiz-adv-x="390" d="M56 705 C69 744 81 770 115 770 C156 770 211 705 252 705 C301 705 323 755 347 830 L334 830 C321 790 309 763 275 763 C234 763 179 828 138 828 C88 828 67 779 43 705 L56 705 L56 705 Z M320 0 L320 19 L240 55 L240 605 L320 641 L320 660 L70 660 L70 641 L150 605 L150 55 L70 19 L70 0 L320 0 L320 0 Z " />
<glyph glyph-name="itilde" unicode="&#x129;" horiz-adv-x="317" d="M20 530 C33 569 45 595 79 595 C120 595 175 530 216 530 C265 530 287 580 311 655 L298 655 C285 615 273 588 239 588 C198 588 143 653 102 653 C52 653 31 604 7 530 L20 530 L20 530 Z M54 403 L91 371 C108 357 119 347 119 347 L119 50 L54 18 L54 0 L264 0 L264 18 L199 50 L199 460 L183 460 L54 409 L54 403 L54 403 Z " />
<glyph glyph-name="Imacron" unicode="&#x12a;" horiz-adv-x="390" d="M62 765 L328 765 L328 815 L62 815 L62 765 L62 765 Z M320 0 L320 19 L240 55 L240 605 L320 641 L320 660 L70 660 L70 641 L150 605 L150 55 L70 19 L70 0 L320 0 L320 0 Z " />
<glyph glyph-name="imacron" unicode="&#x12b;" horiz-adv-x="317" d="M21 595 L287 595 L287 645 L21 645 L21 595 L21 595 Z M54 403 L91 371 C108 357 119 347 119 347 L119 50 L54 18 L54 0 L264 0 L264 18 L199 50 L199 460 L183 460 L54 409 L54 403 L54 403 Z " />
<glyph glyph-name="Idot" unicode="&#x130;" horiz-adv-x="390" d="M195 725 C231 725 255 749 255 785 C255 821 231 845 195 845 C159 845 135 821 135 785 C135 749 159 725 195 725 L195 725 Z M320 0 L320 19 L240 55 L240 605 L320 641 L320 660 L70 660 L70 641 L150 605 L150 55 L70 19 L70 0 L320 0 L320 0 Z " />
<glyph glyph-name="dotlessi" unicode="&#x131;" horiz-adv-x="317" d="M54 403 L91 371 C108 357 119 347 119 347 L119 50 L54 18 L54 0 L264 0 L264 18 L199 50 L199 460 L183 460 L54 409 L54 403 L54 403 Z " />
<glyph glyph-name="Lacute" unicode="&#x139;" horiz-adv-x="630" d="M175 705 L187 705 L313 809 C330 824 342 864 342 864 L262 864 L175 705 L175 705 Z M560 220 L542 220 L480 55 L235 55 L235 605 L320 641 L320 660 L65 660 L65 641 L145 605 L145 55 L65 19 L65 0 L560 0 L560 220 L560 220 Z " />
<glyph glyph-name="lacute" unicode="&#x13a;" horiz-adv-x="298" d="M133 765 L146 765 L278 869 C296 884 309 924 309 924 L225 924 L133 765 L133 765 Z M44 703 L81 671 C98 657 109 647 109 647 L109 50 L44 18 L44 0 L254 0 L254 18 L189 50 L189 760 L173 760 L44 709 L44 703 L44 703 Z " />
<glyph glyph-name="Lcaron" unicode="&#x13d;" horiz-adv-x="630" d="M516 660 L441 660 L417 473 L429 473 L531 671 C522 654 526 660 516 660 L516 660 Z M560 220 L542 220 L480 55 L235 55 L235 605 L320 641 L320 660 L65 660 L65 641 L145 605 L145 55 L65 19 L65 0 L560 0 L560 220 L560 220 Z " />
<glyph glyph-name="lcaron" unicode="&#x13e;" horiz-adv-x="298" d="M360 750 L285 750 L261 563 L273 563 L375 761 C366 744 370 750 360 750 L360 750 Z M44 703 L81 671 C98 657 109 647 109 647 L109 50 L44 18 L44 0 L254 0 L254 18 L189 50 L189 760 L173 760 L44 709 L44 703 L44 703 Z " />
<glyph glyph-name="Nacute" unicode="&#x143;" horiz-adv-x="806" d="M415 705 L427 705 L553 809 C570 824 582 864 582 864 L502 864 L415 705 L415 705 Z M68 641 L143 605 L143 55 L63 19 L63 0 L313 0 L313 19 L213 55 L213 513 C352 340 491 167 630 -6 L665 -6 L665 604 L740 640 L740 659 L495 659 L495 640 L595 604 L595 181 L212 659 L67 659 L68 641 L68 641 Z " />
<glyph glyph-name="nacute" unicode="&#x144;" horiz-adv-x="590" d="M300 530 L312 530 L438 646 C455 662 467 707 467 707 L387 707 L300 530 L300 530 Z M50 403 L87 371 C104 357 115 347 115 347 L115 50 L50 18 L50 0 L265 0 L265 18 L195 50 L195 351 C220 375 254 390 304 390 C365 390 405 353 405 297 L405 50 L335 18 L335 0 L550 0 L550 18 L485 50 L485 343 C485 413 430 460 348 460 C291 460 241 429 194 382 L194 384 L192 384 C191 417 190 461 190 461 L174 461 L49 410 L50 403 L50 403 Z " />
<glyph glyph-name="Ncaron" unicode="&#x147;" horiz-adv-x="806" d="M430 710 L563 867 L551 867 L415 784 L284 867 L272 867 L400 710 L430 710 L430 710 Z M68 641 L143 605 L143 55 L63 19 L63 0 L313 0 L313 19 L213 55 L213 513 C352 340 491 167 630 -6 L665 -6 L665 604 L740 640 L740 659 L495 659 L495 640 L595 604 L595 181 L212 659 L67 659 L68 641 L68 641 Z " />
<glyph glyph-name="ncaron" unicode="&#x148;" horiz-adv-x="590" d="M315 535 L448 710 L436 710 L300 617 L169 710 L157 710 L285 535 L315 535 L315 535 Z M50 403 L87 371 C104 357 115 347 115 347 L115 50 L50 18 L50 0 L265 0 L265 18 L195 50 L195 351 C220 375 254 390 304 390 C365 390 405 353 405 297 L405 50 L335 18 L335 0 L550 0 L550 18 L485 50 L485 343 C485 413 430 460 348 460 C291 460 241 429 194 382 L194 384 L192 384 C191 417 190 461 190 461 L174 461 L49 410 L50 403 L50 403 Z " />
<glyph glyph-name="Omacron" unicode="&#x14c;" horiz-adv-x="807" d="M256 765 L522 765 L522 815 L256 815 L256 765 L256 765 Z M166 363 C166 518 254 621 386 621 C539 621 641 490 641 293 C641 141 554 40 424 40 C269 40 166 169 166 363 L166 363 Z M70 328 C70 125 204 -10 404 -10 C604 -10 737 125 737 328 C737 533 604 670 404 670 C204 670 70 533 70 328 L70 328 Z " />
<glyph glyph-name="omacron" unicode="&#x14d;" horiz-adv-x="538" d="M136 595 L402 595 L402 645 L136 645 L136 595 L136 595 Z M142 225 C142 341 180 418 255 418 C340 418 396 341 396 225 C396 109 358 32 283 32 C198 32 142 109 142 225 L142 225 Z M50 225 C50 84 138 -10 269 -10 C414 -10 488 84 488 225 C488 366 400 460 269 460 C124 460 50 366 50 225 L50 225 Z " />
<glyph glyph-name="Racute" unicode="&#x154;" horiz-adv-x="682" d="M306 705 L318 705 L444 809 C461 824 473 864 473 864 L393 864 L306 705 L306 705 Z M669 0 L669 18 L596 50 L410 304 C499 331 554 395 554 480 C554 589 466 661 334 661 L65 661 L65 642 L145 606 L145 56 L65 20 L65 1 L310 1 L310 20 L235 56 L235 291 L309 291 L521 1 L669 0 L669 0 Z M235 346 L235 606 L312 606 C398 606 456 552 456 472 C456 396 405 346 329 346 L235 346 L235 346 Z " />
<glyph glyph-name="racute" unicode="&#x155;" horiz-adv-x="378" d="M242 530 L254 530 L380 646 C397 662 409 707 409 707 L329 707 L242 530 L242 530 Z M295 460 C269 460 234 423 195 367 L195 375 L194 375 C193 408 192 459 192 459 L176 459 L51 408 L51 402 L88 370 C105 356 116 346 116 346 L116 49 L51 17 L51 -1 L266 -1 L266 17 L196 49 L196 332 C217 361 235 380 247 380 C267 380 292 375 309 368 C320 363 347 352 347 352 L354 352 C369 383 379 409 379 418 C379 442 328 459 296 459 L295 460 L295 460 Z " />
<glyph glyph-name="Rcaron" unicode="&#x158;" horiz-adv-x="682" d="M331 710 L464 867 L452 867 L316 784 L185 867 L173 867 L301 710 L331 710 L331 710 Z M669 0 L669 18 L596 50 L410 304 C499 331 554 395 554 480 C554 589 466 661 334 661 L65 661 L65 642 L145 606 L145 56 L65 20 L65 1 L310 1 L310 20 L235 56 L235 291 L309 291 L521 1 L669 0 L669 0 Z M235 346 L235 606 L312 606 C398 606 456 552 456 472 C456 396 405 346 329 346 L235 346 L235 346 Z " />
<glyph glyph-name="rcaron" unicode="&#x159;" horiz-adv-x="378" d="M257 535 L390 710 L378 710 L242 617 L111 710 L99 710 L227 535 L257 535 L257 535 Z M295 460 C269 460 234 423 195 367 L195 375 L194 375 C193 408 192 459 192 459 L176 459 L51 408 L51 402 L88 370 C105 356 116 346 116 346 L116 49 L51 17 L51 -1 L266 -1 L266 17 L196 49 L196 332 C217 361 235 380 247 380 C267 380 292 375 309 368 C320 363 347 352 347 352 L354 352 C369 383 379 409 379 418 C379 442 328 459 296 459 L295 460 L295 460 Z " />
<glyph glyph-name="Sacute" unicode="&#x15a;" horiz-adv-x="527" d="M233 705 L245 705 L371 809 C388 824 400 864 400 864 L320 864 L233 705 L233 705 Z M360 594 C371 588 382 576 387 564 C398 540 412 507 423 483 C430 483 437 484 444 484 L436 627 C406 653 343 670 278 670 C162 670 85 598 85 489 C85 406 137 352 238 309 C336 267 386 223 386 163 C386 87 341 37 273 37 C237 37 184 55 135 83 C130 86 125 91 123 96 C111 126 94 167 82 197 C79 197 75 196 72 196 L61 196 L69 35 C110 7 191 -11 272 -11 C391 -11 471 67 471 185 C471 274 414 333 304 380 C218 417 173 459 173 520 C173 581 211 621 269 621 C296 621 329 611 359 594 L360 594 L360 594 Z " />
<glyph glyph-name="sacute" unicode="&#x15b;" horiz-adv-x="427" d="M207 530 L219 530 L345 646 C362 662 374 707 374 707 L294 707 L207 530 L207 530 Z M341 320 L341 425 L340 400 L341 425 C305 446 251 460 207 460 C128 460 75 409 75 332 C75 262 111 223 182 199 C251 176 287 145 287 96 C287 54 253 26 203 26 C129 26 100 83 74 135 L60 135 L60 20 C99 2 158 -10 209 -10 C298 -10 357 43 357 122 C357 196 317 239 240 265 C178 286 146 315 146 362 C146 397 172 421 212 421 C213 421 221 421 221 420 C259 416 297 384 315 340 C318 334 321 326 324 320 L341 320 L341 320 Z " />
<glyph glyph-name="Scedilla" unicode="&#x15e;" horiz-adv-x="527" d="M264 -81 C282 -43 294 -17 298 -9 C403 1 472 76 472 186 C472 275 415 334 305 381 C219 418 174 460 174 521 C174 582 212 622 270 622 C297 622 330 612 360 595 L360 595 C371 589 382 577 387 565 C398 541 412 508 423 484 C430 484 437 485 444 485 L436 628 C406 654 343 671 278 671 C162 671 85 599 85 490 C85 407 137 353 238 310 C336 268 386 224 386 164 C386 88 341 38 273 38 C237 38 184 56 135 84 C130 87 125 92 123 97 C111 127 94 168 82 198 C79 198 75 197 72 197 L61 197 L69 36 C108 9 184 -9 261 -11 C255 -24 234 -68 206 -130 L235 -143 C270 -150 294 -165 294 -180 C294 -200 279 -213 256 -213 C225 -213 197 -207 186 -197 L186 -208 C208 -228 242 -241 270 -241 C320 -241 354 -210 354 -164 C354 -129 319 -97 264 -82 L264 -81 L264 -81 Z " />
<glyph glyph-name="scedilla" unicode="&#x15f;" horiz-adv-x="427" d="M341 320 L341 425 L340 400 L341 425 C305 446 251 460 207 460 C128 460 75 409 75 332 C75 262 111 223 182 199 C251 176 287 145 287 96 C287 54 253 26 203 26 C129 26 100 83 74 135 L60 135 L60 20 C96 3 150 -9 198 -11 C192 -24 171 -68 143 -130 L172 -143 C207 -150 231 -165 231 -180 C231 -200 216 -213 193 -213 C162 -213 134 -207 123 -197 L123 -208 C145 -228 179 -241 207 -241 C257 -241 291 -210 291 -164 C291 -129 256 -97 201 -82 C219 -44 231 -18 235 -10 C310 -1 358 49 358 120 C358 194 318 237 241 263 C179 284 147 313 147 360 C147 395 173 419 213 419 C214 419 222 419 222 418 C260 414 298 382 316 338 C319 332 322 324 325 318 L341 320 L341 320 Z " />
<glyph glyph-name="Scaron" unicode="&#x160;" horiz-adv-x="527" d="M263 710 L396 867 L384 867 L248 784 L117 867 L105 867 L233 710 L263 710 L263 710 Z M360 594 C371 588 382 576 387 564 C398 540 412 507 423 483 C430 483 437 484 444 484 L436 627 C406 653 343 670 278 670 C162 670 85 598 85 489 C85 406 137 352 238 309 C336 267 386 223 386 163 C386 87 341 37 273 37 C237 37 184 55 135 83 C130 86 125 91 123 96 C111 126 94 167 82 197 C79 197 75 196 72 196 L61 196 L69 35 C110 7 191 -11 272 -11 C391 -11 471 67 471 185 C471 274 414 333 304 380 C218 417 173 459 173 520 C173 581 211 621 269 621 C296 621 329 611 359 594 L360 594 L360 594 Z " />
<glyph glyph-name="scaron" unicode="&#x161;" horiz-adv-x="427" d="M222 535 L355 710 L343 710 L207 617 L76 710 L64 710 L192 535 L222 535 L222 535 Z M341 320 L341 425 L340 400 L341 425 C305 446 251 460 207 460 C128 460 75 409 75 332 C75 262 111 223 182 199 C251 176 287 145 287 96 C287 54 253 26 203 26 C129 26 100 83 74 135 L60 135 L60 20 C99 2 158 -10 209 -10 C298 -10 357 43 357 122 C357 196 317 239 240 265 C178 286 146 315 146 362 C146 397 172 421 212 421 C213 421 221 421 221 420 C259 416 297 384 315 340 C318 334 321 326 324 320 L341 320 L341 320 Z " />
<glyph glyph-name="Tcaron" unicode="&#x164;" horiz-adv-x="675" d="M353 710 L486 867 L474 867 L338 784 L207 867 L195 867 L323 710 L353 710 L353 710 Z M483 0 L483 19 L383 55 L383 605 L550 605 L612 460 L630 460 L630 660 L45 660 L45 460 L63 460 L125 605 L293 605 L293 55 L193 19 L193 0 L483 0 L483 0 Z " />
<glyph glyph-name="tcaron" unicode="&#x165;" horiz-adv-x="354" d="M351 750 L276 750 L252 563 L264 563 L366 761 C357 744 361 750 351 750 L351 750 Z M324 53 L321 63 C319 59 293 57 255 57 C210 57 180 77 180 107 L180 403 L312 403 L312 450 L180 450 L180 560 L174 560 L100 450 L18 409 L18 403 L100 403 L100 90 C100 30 143 -10 208 -10 C259 -10 306 15 324 53 L324 53 Z " />
<glyph glyph-name="Utilde" unicode="&#x168;" horiz-adv-x="811" d="M266 705 C279 744 291 770 325 770 C366 770 422 705 463 705 C512 705 534 755 558 830 L545 830 C532 790 520 763 486 763 C445 763 389 828 348 828 C298 828 277 779 253 705 L266 705 L266 705 Z M145 605 L145 234 C145 88 249 -10 406 -10 C562 -10 666 88 666 234 L666 605 L746 641 L746 660 L496 660 L496 641 L596 605 L596 213 C596 114 531 48 433 48 C314 48 235 129 235 250 L235 605 L315 641 L315 660 L65 660 L65 641 L145 605 L145 605 Z " />
<glyph glyph-name="utilde" unicode="&#x169;" horiz-adv-x="552" d="M132 535 C145 574 157 600 191 600 C232 600 287 535 328 535 C377 535 399 585 423 660 L410 660 C397 620 385 593 351 593 C310 593 255 658 214 658 C164 658 143 609 119 535 L132 535 L132 535 Z M381 400 L381 101 C351 76 311 63 271 63 C211 63 171 100 171 155 L171 450 L26 450 L26 432 L91 400 L91 107 C91 37 145 -10 225 -10 C270 -10 327 16 382 68 L382 0 L532 0 L532 18 L462 50 L462 450 L312 450 L312 432 L381 400 L381 400 Z " />
<glyph glyph-name="Umacron" unicode="&#x16a;" horiz-adv-x="811" d="M283 765 L549 765 L549 815 L283 815 L283 765 L283 765 Z M145 605 L145 234 C145 88 249 -10 406 -10 C562 -10 666 88 666 234 L666 605 L746 641 L746 660 L496 660 L496 641 L596 605 L596 213 C596 114 531 48 433 48 C314 48 235 129 235 250 L235 605 L315 641 L315 660 L65 660 L65 641 L145 605 L145 605 Z " />
<glyph glyph-name="umacron" unicode="&#x16b;" horiz-adv-x="552" d="M138 595 L404 595 L404 645 L138 645 L138 595 L138 595 Z M381 400 L381 101 C351 76 311 63 271 63 C211 63 171 100 171 155 L171 450 L26 450 L26 432 L91 400 L91 107 C91 37 145 -10 225 -10 C270 -10 327 16 382 68 L382 0 L532 0 L532 18 L462 50 L462 450 L312 450 L312 432 L381 400 L381 400 Z " />
<glyph glyph-name="Uring" unicode="&#x16e;" horiz-adv-x="811" d="M375 800 C375 831 388 852 408 852 C431 852 447 826 447 786 C447 758 432 734 415 734 C393 734 375 764 375 800 L375 800 Z M325 793 C325 748 365 710 411 710 C457 710 496 749 496 795 C496 844 462 876 411 876 C359 876 325 843 325 793 L325 793 Z M145 605 L145 234 C145 88 249 -10 406 -10 C562 -10 666 88 666 234 L666 605 L746 641 L746 660 L496 660 L496 641 L596 605 L596 213 C596 114 531 48 433 48 C314 48 235 129 235 250 L235 605 L315 641 L315 660 L65 660 L65 641 L145 605 L145 605 Z " />
<glyph glyph-name="uring" unicode="&#x16f;" horiz-adv-x="552" d="M235 625 C235 656 249 677 269 677 C292 677 307 651 307 611 C307 583 292 559 275 559 C253 559 235 589 235 625 L235 625 Z M186 618 C186 573 225 535 271 535 C317 535 356 574 356 620 C356 669 322 701 271 701 C220 701 186 668 186 618 L186 618 Z M381 400 L381 101 C351 76 311 63 271 63 C211 63 171 100 171 155 L171 450 L26 450 L26 432 L91 400 L91 107 C91 37 145 -10 225 -10 C270 -10 327 16 382 68 L382 0 L532 0 L532 18 L462 50 L462 450 L312 450 L312 432 L381 400 L381 400 Z " />
<glyph glyph-name="Ydieresis" unicode="&#x178;" horiz-adv-x="718" d="M456 735 C486 735 506 755 506 785 C506 815 486 835 456 835 C426 835 406 815 406 785 C406 755 426 735 456 735 L456 735 Z M276 735 C306 735 326 755 326 785 C326 815 306 835 276 835 C246 835 226 815 226 785 C226 755 246 735 276 735 L276 735 Z M265 660 L31 660 L31 642 L95 610 L321 305 L321 55 L231 19 L231 0 L501 0 L501 19 L411 55 L411 309 L626 621 L683 647 L683 661 L471 661 L471 642 L548 606 L382 365 L197 606 L265 642 L265 660 L265 660 Z " />
<glyph glyph-name="Zacute" unicode="&#x179;" horiz-adv-x="646" d="M323 705 L335 705 L461 809 C478 824 490 864 490 864 L410 864 L323 705 L323 705 Z M102 480 L120 480 L182 605 L434 605 C320 412 206 218 90 25 L90 0 L556 0 L556 190 L538 190 L476 55 L200 55 C313 247 426 439 541 630 L541 660 L102 660 L102 480 L102 480 Z " />
<glyph glyph-name="zacute" unicode="&#x17a;" horiz-adv-x="480" d="M240 530 L252 530 L378 646 C395 662 407 707 407 707 L327 707 L240 530 L240 530 Z M70 305 L87 305 L129 405 L288 405 L73 18 L73 0 L405 0 L405 150 L388 150 L355 45 L179 45 C252 176 324 307 397 437 L397 450 L133 450 L94 460 L84 460 C84 459 83 450 83 450 L83 449 C79 404 75 349 70 304 L70 305 L70 305 Z " />
<glyph glyph-name="Zdot" unicode="&#x17b;" horiz-adv-x="646" d="M333 725 C369 725 393 749 393 785 C393 821 369 845 333 845 C297 845 273 821 273 785 C273 749 297 725 333 725 L333 725 Z M102 480 L120 480 L182 605 L434 605 C320 412 206 218 90 25 L90 0 L556 0 L556 190 L538 190 L476 55 L200 55 C313 247 426 439 541 630 L541 660 L102 660 L102 480 L102 480 Z " />
<glyph glyph-name="zdot" unicode="&#x17c;" horiz-adv-x="480" d="M245 583 C281 583 305 607 305 643 C305 679 281 703 245 703 C209 703 185 679 185 643 C185 607 209 583 245 583 L245 583 Z M70 305 L87 305 L129 405 L288 405 L73 18 L73 0 L405 0 L405 150 L388 150 L355 45 L179 45 C252 176 324 307 397 437 L397 450 L133 450 L94 460 L84 460 C84 459 83 450 83 450 L83 449 C79 404 75 349 70 304 L70 305 L70 305 Z " />
<glyph glyph-name="Zcaron" unicode="&#x17d;" horiz-adv-x="646" d="M353 710 L486 867 L474 867 L338 784 L207 867 L195 867 L323 710 L353 710 L353 710 Z M102 480 L120 480 L182 605 L434 605 C320 412 206 218 90 25 L90 0 L556 0 L556 190 L538 190 L476 55 L200 55 C313 247 426 439 541 630 L541 660 L102 660 L102 480 L102 480 Z " />
<glyph glyph-name="zcaron" unicode="&#x17e;" horiz-adv-x="480" d="M255 535 L388 710 L376 710 L240 617 L109 710 L97 710 L225 535 L255 535 L255 535 Z M70 305 L87 305 L129 405 L288 405 L73 18 L73 0 L405 0 L405 150 L388 150 L355 45 L179 45 C252 176 324 307 397 437 L397 450 L133 450 L94 460 L84 460 C84 459 83 450 83 450 L83 449 C79 404 75 349 70 304 L70 305 L70 305 Z " />
<glyph glyph-name="oogonek" unicode="&#x1eb;" horiz-adv-x="745" d="M737 -122 L737 -109 C729 -114 705 -117 678 -117 C626 -117 545 -23 479 5 C599 42 674 143 674 281 C674 457 553 575 372 575 C190 575 69 458 69 282 C69 102 197 -19 391 -10 C469 -54 557 -147 620 -147 C664 -147 710 -137 735 -123 L737 -122 L737 -122 Z M154 312 C154 443 234 530 354 530 C493 530 586 417 586 248 C586 120 507 34 389 34 C248 34 154 145 154 312 L154 312 Z " />
<glyph glyph-name="G_sc" unicode="&#x262;" horiz-adv-x="712" d="M592 193 L667 229 L667 248 L426 248 L426 229 L511 193 L511 65 C483 51 440 43 392 43 C249 43 154 143 154 294 C154 436 247 530 386 530 C421 530 461 519 495 501 L495 501 C500 498 505 494 507 489 C525 450 548 399 566 360 C572 360 578 361 585 361 L578 528 L557 502 L578 528 C544 556 468 575 387 575 C197 575 71 452 71 267 C71 101 190 -10 368 -10 C461 -10 551 24 593 74 L592 193 L592 193 Z " />
<glyph glyph-name="I_sc" unicode="&#x26a;" horiz-adv-x="381" d="M311 0 L311 19 L231 55 L231 510 L311 546 L311 565 L70 565 L70 546 L150 510 L150 55 L70 19 L70 0 L311 0 L311 0 Z " />
<glyph glyph-name="N_sc" unicode="&#x274;" horiz-adv-x="744" d="M68 546 L143 510 L143 55 L63 19 L63 0 L306 0 L306 19 L206 55 L206 436 C329 289 452 142 575 -5 L604 -5 L604 510 L679 546 L679 565 L441 565 L441 546 L541 510 L541 162 L206 565 L68 565 L68 546 L68 546 Z " />
<glyph glyph-name="R_sc" unicode="&#x280;" horiz-adv-x="615" d="M530 50 L377 266 C447 290 490 342 490 411 C490 503 416 565 306 565 L66 565 L66 546 L146 510 L146 55 L66 19 L66 0 L302 0 L302 19 L227 55 L227 251 L281 251 C284 251 287 251 290 251 L468 0 L605 0 L605 18 L530 50 L530 50 Z M228 300 L228 516 L288 516 C357 516 403 471 403 403 C403 341 362 300 300 300 L228 300 L228 300 Z " />
<glyph glyph-name="Y_sc" unicode="&#x28f;" horiz-adv-x="656" d="M621 565 L416 565 L416 546 L491 510 L350 317 L191 510 L256 546 L256 565 L32 565 L32 547 L97 515 L294 264 L294 55 L204 19 L204 0 L465 0 L465 19 L375 55 L375 267 L562 525 L621 551 L621 565 L621 565 Z " />
<glyph glyph-name="B_sc" unicode="&#x299;" horiz-adv-x="594" d="M246 320 L226 320 L226 516 L285 516 C363 516 403 474 403 410 C403 356 340 320 246 320 L246 320 Z M387 311 C450 337 487 379 487 432 C487 512 425 565 305 565 L65 565 L65 546 L145 510 L145 55 L65 19 L65 0 L304 0 C448 0 544 68 544 169 C544 239 491 291 387 311 L387 311 Z M226 50 L226 270 L311 270 C409 270 460 226 460 161 C460 94 398 50 304 50 L226 50 L226 50 Z " />
<glyph glyph-name="H_sc" unicode="&#x29c;" horiz-adv-x="748" d="M683 0 L683 19 L603 55 L603 510 L683 546 L683 565 L442 565 L442 546 L522 510 L522 316 L226 316 L226 510 L306 546 L306 565 L65 565 L65 546 L145 510 L145 55 L65 19 L65 0 L306 0 L306 19 L226 55 L226 266 L522 266 L522 55 L442 19 L442 0 L683 0 L683 0 Z " />
<glyph glyph-name="L_sc" unicode="&#x29f;" horiz-adv-x="570" d="M500 215 L482 215 L420 50 L226 50 L226 510 L311 546 L311 565 L65 565 L65 546 L145 510 L145 55 L65 19 L65 0 L500 0 L500 215 L500 215 Z " />
<glyph glyph-name="circumflex" unicode="&#x2c6;" horiz-adv-x="340" d="M318 530 L185 705 L155 705 L27 530 L39 530 L170 623 L306 530 L318 530 L318 530 Z " />
<glyph glyph-name="caron" unicode="&#x2c7;" horiz-adv-x="340" d="M185 535 L318 710 L306 710 L170 617 L39 710 L27 710 L155 535 L185 535 L185 535 Z " />
<glyph glyph-name="firsttonechinese" unicode="&#x2c9;" horiz-adv-x="340" d="M37 530 L303 530 L303 580 L37 580 L37 530 L37 530 Z " />
<glyph glyph-name="breve" unicode="&#x2d8;" horiz-adv-x="340" d="M35 727 L21 727 C60 607 102 560 170 560 C238 560 280 607 319 727 L305 727 C282 655 244 627 170 627 C96 627 58 655 35 727 L35 727 Z " />
<glyph glyph-name="dotaccent" unicode="&#x2d9;" horiz-adv-x="340" d="M170 610 C200 610 220 630 220 660 C220 690 200 710 170 710 C140 710 120 690 120 660 C120 630 140 610 170 610 L170 610 Z " />
<glyph glyph-name="ring" unicode="&#x2da;" horiz-adv-x="340" d="M134 620 C134 651 148 672 168 672 C191 672 206 646 206 606 C206 578 191 554 174 554 C152 554 134 584 134 620 L134 620 Z M85 613 C85 568 124 530 170 530 C216 530 255 569 255 615 C255 664 221 696 170 696 C119 696 85 663 85 613 L85 613 Z " />
<glyph glyph-name="A_sc" unicode="&#x1d00;" horiz-adv-x="685" d="M413 0 L650 0 L650 16 L586 45 C510 220 436 396 358 570 L320 570 C246 397 172 223 97 50 L18 18 L18 0 L237 0 L237 18 L158 50 L214 184 L443 184 L443 188 L502 50 L415 18 L413 0 L413 0 Z M424 233 L235 233 L328 457 L424 233 L424 233 Z " />
<glyph glyph-name="C_sc" unicode="&#x1d04;" horiz-adv-x="656" d="M566 40 L547 66 L566 40 L566 40 Z M565 40 L574 191 C568 191 563 192 558 192 C541 158 518 114 501 80 C498 76 494 72 490 69 C449 48 402 35 364 35 C237 35 153 139 153 294 C153 436 241 530 374 530 C406 530 443 519 476 501 C481 498 486 493 488 488 C506 449 529 398 547 359 C553 359 559 360 566 360 L559 527 C525 555 453 574 377 574 C194 574 72 451 72 266 C72 100 190 -11 367 -11 C445 -11 525 9 568 39 L565 40 L565 40 Z " />
<glyph glyph-name="D_sc" unicode="&#x1d05;" horiz-adv-x="713" d="M333 0 C519 0 643 112 643 307 C643 477 513 565 319 565 L65 565 L65 546 L145 510 L145 55 L65 19 L65 0 L333 0 L333 0 Z M226 50 L226 516 C250 516 279 516 296 516 C454 516 559 435 559 277 C559 132 468 49 331 50 L226 50 L226 50 Z " />
<glyph glyph-name="E_sc" unicode="&#x1d07;" horiz-adv-x="590" d="M520 175 L503 175 L445 50 L226 50 L226 266 L345 266 L387 186 L410 186 L410 396 L387 396 L345 316 L226 316 L226 516 L420 516 L478 401 L495 401 L495 565 L65 565 L65 546 L145 510 L145 55 L65 19 L65 0 L520 0 L520 175 L520 175 Z " />
<glyph glyph-name="J_sc" unicode="&#x1d0a;" horiz-adv-x="381" d="M150 510 L150 50 C150 -45 128 -108 95 -108 C95 -108 68 -105 50 -100 L44 -100 C44 -100 35 -147 35 -150 C35 -164 47 -173 65 -173 C165 -173 231 -14 231 224 L231 510 L311 546 L311 565 L70 565 L70 546 L150 510 L150 510 Z " />
<glyph glyph-name="K_sc" unicode="&#x1d0b;" horiz-adv-x="686" d="M656 14 L590 40 L306 314 C381 384 455 455 530 525 L597 551 L597 565 L365 565 L365 547 L438 515 C438 515 289 356 276 342 L227 289 L516 0 L656 0 L656 14 L656 14 Z M306 0 L306 19 L226 55 L226 510 L306 546 L306 565 L65 565 L65 546 L145 510 L145 55 L65 19 L65 0 L306 0 L306 0 Z " />
<glyph glyph-name="M_sc" unicode="&#x1d0d;" horiz-adv-x="901" d="M73 546 L161 510 C155 358 149 206 142 55 L61 19 L61 0 L279 0 L279 19 L196 55 L209 465 L423 -5 L464 -5 C460 4 455 14 452 23 L465 -5 L676 457 L694 55 L616 19 L616 0 L841 0 L841 19 L770 55 L750 510 L837 546 L837 565 L672 565 L463 104 L251 565 L75 565 L73 546 L73 546 Z " />
<glyph glyph-name="O_sc" unicode="&#x1d0f;" horiz-adv-x="745" d="M156 313 C156 444 236 531 356 531 C495 531 588 418 588 249 C588 121 509 35 391 35 C250 35 156 146 156 313 L156 313 Z M70 282 C70 107 191 -10 373 -10 C554 -10 675 106 675 281 C675 457 554 575 373 575 C191 575 70 458 70 282 L70 282 Z " />
<glyph glyph-name="P_sc" unicode="&#x1d18;" horiz-adv-x="558" d="M321 0 L321 19 L226 55 L226 251 L280 251 C405 251 488 315 488 411 C488 503 415 565 305 565 L65 565 L65 546 L145 510 L145 55 L65 19 L65 0 L321 0 L321 0 Z M226 300 L226 516 L285 516 C355 516 402 471 402 403 C402 341 360 300 298 300 L226 300 L226 300 Z " />
<glyph glyph-name="T_sc" unicode="&#x1d1b;" horiz-adv-x="615" d="M448 0 L448 19 L348 55 L348 516 L490 516 L552 371 L570 371 L570 565 L45 565 L45 371 L63 371 L125 516 L267 516 L267 55 L167 19 L167 0 L448 0 L448 0 Z " />
<glyph glyph-name="U_sc" unicode="&#x1d1c;" horiz-adv-x="751" d="M147 510 L147 200 C147 74 239 -10 377 -10 C514 -10 606 74 606 200 L606 510 L686 546 L686 565 L443 565 L443 546 L543 510 L543 181 C543 98 486 42 401 42 C297 42 228 111 228 215 L228 510 L308 546 L308 565 L67 565 L67 546 L147 510 L147 510 Z " />
<glyph glyph-name="V_sc" unicode="&#x1d20;" horiz-adv-x="673" d="M275 565 L33 565 L33 547 L102 515 C173 342 243 168 316 -5 L354 -5 C431 172 507 349 584 525 L640 551 L640 565 L441 565 L441 546 L518 510 L352 117 L188 509 L275 545 L275 565 L275 565 Z " />
<glyph glyph-name="W_sc" unicode="&#x1d21;" horiz-adv-x="917" d="M263 565 L20 565 L20 547 L85 515 C142 342 200 170 255 -4 L285 -4 C341 141 400 285 458 429 C514 285 571 141 625 -4 L654 -4 L660 14 C718 185 775 357 833 527 L896 553 L896 567 L685 567 L685 548 L767 512 L651 150 C594 291 537 432 480 573 L450 573 C398 431 342 291 288 150 L168 513 L260 549 L263 565 L263 565 Z " />
<glyph glyph-name="Z_sc" unicode="&#x1d22;" horiz-adv-x="586" d="M104 391 L122 391 L184 516 L383 516 C286 352 189 187 92 23 L92 0 L496 0 L496 185 L478 185 L416 50 L191 50 C288 214 384 378 482 541 L482 565 L105 565 L104 391 L104 391 Z " />
<glyph glyph-name="Etilde" unicode="&#x1ebc;" horiz-adv-x="650" d="M211 705 C224 744 236 770 270 770 C311 770 366 705 407 705 C456 705 478 755 502 830 L489 830 C476 790 464 763 430 763 C389 763 334 828 293 828 C243 828 222 779 198 705 L211 705 L211 705 Z M580 180 L563 180 L505 55 L235 55 L235 313 L405 313 L447 233 L470 233 L470 448 L447 448 L405 368 L235 368 L235 605 L480 605 L538 490 L555 490 L555 660 L65 660 L65 641 L145 605 L145 55 L65 19 L65 0 L580 0 L580 180 L580 180 Z " />
<glyph glyph-name="endash" unicode="&#x2013;" horiz-adv-x="500" d="M50 242 L450 242 L450 292 L50 292 L50 242 L50 242 Z " />
<glyph glyph-name="emdash" unicode="&#x2014;" horiz-adv-x="1000" d="M50 242 L950 242 L950 292 L50 292 L50 242 L50 242 Z " />
<glyph glyph-name="quoteleft" unicode="&#x2018;" horiz-adv-x="252" d="M163 584 C135 594 116 627 116 666 C116 693 150 719 200 730 L200 750 C114 731 56 680 56 621 C56 558 85 506 129 490 C155 481 171 478 181 505 L199 553 L199 565 L163 584 L163 584 Z " />
<glyph glyph-name="quoteright" unicode="&#x2019;" horiz-adv-x="252" d="M93 656 C121 646 140 613 140 574 C140 547 106 521 56 510 L56 490 C142 509 200 560 200 619 C200 682 171 734 127 750 C101 759 85 762 75 735 L57 687 L57 675 L93 656 L93 656 Z " />
<glyph glyph-name="quotedblleft" unicode="&#x201c;" horiz-adv-x="450" d="M163 584 C135 594 116 627 116 666 C116 693 150 730 200 730 L200 750 C114 750 56 680 56 621 C56 558 85 506 129 490 C155 481 171 478 181 505 L199 553 L199 565 L163 584 L163 584 Z M360 584 C332 594 313 627 313 666 C313 693 347 730 397 730 L397 750 C311 750 253 680 253 621 C253 558 282 506 326 490 C352 481 368 478 378 505 L396 553 L396 565 L360 584 L360 584 Z " />
<glyph glyph-name="quotedblright" unicode="&#x201d;" horiz-adv-x="450" d="M291 656 C319 646 338 613 338 574 C338 547 304 521 254 510 L254 490 C340 509 398 560 398 619 C398 682 369 734 325 750 C299 759 283 762 273 735 L255 687 L255 675 L291 656 L291 656 Z M94 656 C122 646 141 613 141 574 C141 547 107 521 57 510 L57 490 C143 509 201 560 201 619 C201 682 172 734 128 750 C102 759 86 762 76 735 L58 687 L58 675 L94 656 L94 656 Z " />
<glyph glyph-name="bullet" unicode="&#x2022;" horiz-adv-x="500" d="M250 150 C322 150 370 198 370 270 C370 342 322 390 250 390 C178 390 130 342 130 270 C130 198 178 150 250 150 L250 150 Z " />
<glyph glyph-name="ellipsis" unicode="&#x2026;" horiz-adv-x="650" d="M525 -10 C561 -10 585 14 585 50 C585 86 561 110 525 110 C489 110 465 86 465 50 C465 14 489 -10 525 -10 L525 -10 Z M325 -10 C361 -10 385 14 385 50 C385 86 361 110 325 110 C289 110 265 86 265 50 C265 14 289 -10 325 -10 L325 -10 Z M125 -10 C161 -10 185 14 185 50 C185 86 161 110 125 110 C89 110 65 86 65 50 C65 14 89 -10 125 -10 L125 -10 Z " />
<glyph glyph-name="perthousand" unicode="&#x2030;" horiz-adv-x="1138" d="M903 208 C903 306 928 371 965 371 C1017 371 1051 293 1051 176 C1051 80 1024 16 983 16 C935 16 903 93 903 208 L903 208 Z M824 193 C824 71 885 -10 976 -10 C1066 -10 1126 76 1126 204 C1126 319 1066 395 976 395 C885 395 824 314 824 193 L824 193 Z M109 569 C109 669 134 736 171 736 C223 736 257 656 257 537 C257 443 230 381 189 381 C141 381 109 456 109 569 L109 569 Z M30 554 C30 435 91 355 182 355 C272 355 332 439 332 564 C332 682 272 760 182 760 C91 760 30 678 30 554 L30 554 Z M551 208 C551 306 578 371 618 371 C676 371 714 293 714 176 C714 80 683 16 636 16 C585 16 551 93 551 208 L551 208 Z M472 193 C472 71 535 -10 629 -10 C725 -10 789 75 789 203 C789 318 725 395 629 395 C535 395 472 314 472 193 L472 193 Z M199 -11 L664 739 L629 761 L164 11 L199 -11 L199 -11 Z " />
<glyph glyph-name="guilsinglleft" unicode="&#x2039;" horiz-adv-x="246" d="M215 425 L15 248 L215 70 L226 70 L115 248 L226 425 L215 425 L215 425 Z " />
<glyph glyph-name="guilsinglright" unicode="&#x203a;" horiz-adv-x="250" d="M20 425 L130 248 L20 70 L31 70 L230 248 L31 425 L20 425 L20 425 Z " />
<glyph glyph-name="fraction" unicode="&#x2044;" horiz-adv-x="489" d="M48 -11 L513 739 L477 761 L12 11 L48 -11 L48 -11 Z " />
<glyph glyph-name="Euro" unicode="&#x20ac;" horiz-adv-x="499" d="M476 98 C457 72 409 55 357 55 C260 55 208 124 189 237 L359 237 L359 281 L183 281 C180 314 179 352 180 388 L358 388 L358 432 L183 432 C196 556 241 635 303 635 C332 635 365 613 385 581 C394 581 416 536 416 536 L423 536 C436 536 466 564 466 564 C471 567 475 575 475 584 C475 588 470 599 463 610 C440 647 388 671 334 671 C212 671 123 579 94 432 L10 432 L10 388 L88 388 C84 355 83 318 85 283 L10 283 L10 239 L88 239 C105 88 172 -8 311 -8 C374 -8 440 26 478 76 L478 100 L476 98 L476 98 Z " />
<glyph glyph-name="F_sc" unicode="&#xa730;" horiz-adv-x="555" d="M345 266 L387 186 L410 186 L410 396 L387 396 L345 316 L226 316 L226 516 L410 516 L468 401 L485 401 L485 565 L65 565 L65 546 L145 510 L145 55 L65 19 L65 0 L321 0 L321 19 L226 55 L226 266 L345 266 L345 266 Z " />
<glyph glyph-name="S_sc" unicode="&#xa731;" horiz-adv-x="463" d="M302 508 C310 502 317 493 321 484 C332 457 348 422 359 395 C362 395 366 396 369 396 L380 396 L372 532 L354 507 L372 532 C346 558 295 576 243 576 C148 576 85 514 85 420 C85 355 128 308 211 266 C290 227 330 188 330 141 C330 76 295 33 242 33 C215 33 174 50 134 76 C130 79 127 83 126 87 C114 119 97 161 85 193 C78 193 71 192 64 192 L71 36 C107 8 176 -10 243 -10 C343 -10 409 58 409 161 C409 232 362 283 272 328 C202 363 166 400 166 448 C166 498 194 532 236 532 C256 532 280 523 303 508 L302 508 L302 508 Z " />
<glyph glyph-name="X_sc" unicode="&#xf078;" horiz-adv-x="677" d="M398 0 L640 0 L640 16 L577 45 L373 307 C430 378 487 449 544 520 L607 549 L607 565 L411 565 L411 546 L486 510 L346 340 C302 397 257 454 213 511 L290 547 L290 566 L48 566 L48 548 L113 516 L295 278 L113 51 L42 19 L42 1 L256 1 L256 20 L170 56 L320 245 L464 56 L396 20 L398 0 L398 0 Z " />
</font>
</svg>
