<?xml version="1.0" encoding="UTF-8"?>
<svg xmlns="http://www.w3.org/2000/svg" xmlns:xlink="http://www.w3.org/1999/xlink" version="1.2" >
<font id="Ethan Italic">
<font-face  font-family="Ethan" units-per-em="1024" ascent="975" descent="-300" font-style="italic" font-weight="400" font-stretch="normal" cap-height="924" x-height="488" underline-position="-125" underline-thickness="50" />
<missing-glyph  horiz-adv-x="100" d="" />
<glyph glyph-name="NULL" d="" />
<glyph glyph-name="CR" unicode="&#xd;" horiz-adv-x="256" d="" />
<glyph glyph-name="space" unicode="&#x20;" horiz-adv-x="248" d="" />
<glyph glyph-name="exclam" unicode="&#x21;" horiz-adv-x="245" d="M124 -10 C160 -10 187 14 192 50 C197 86 176 110 140 110 C104 110 77 86 72 50 C67 14 88 -10 124 -10 L124 -10 Z M163 660 L142 190 L162 190 L273 660 L163 660 L163 660 Z " />
<glyph glyph-name="quotedbl" unicode="&#x22;" horiz-adv-x="450" d="M384 740 L384 490 L404 490 L474 740 L384 740 L384 740 Z M184 740 L184 490 L204 490 L274 740 L184 740 L184 740 Z " />
<glyph glyph-name="numbersign" unicode="&#x23;" horiz-adv-x="498" d="M213 403 L146 249 L35 249 L28 202 L126 202 L39 0 L89 0 L176 202 L304 202 L217 0 L267 0 L354 202 L468 202 L475 249 L374 249 L441 403 L555 403 L561 450 L461 450 L552 660 L502 660 L411 450 L283 450 L374 660 L324 660 L233 450 L121 450 L115 403 L213 403 L213 403 Z M263 403 L391 403 L324 249 L196 249 L263 403 L263 403 Z " />
<glyph glyph-name="dollar" unicode="&#x24;" horiz-adv-x="500" d="M393 740 L383 669 C365 670 345 670 327 668 L337 739 L296 739 L285 661 C196 639 133 576 121 489 C109 405 148 351 236 314 L198 43 C155 57 132 92 139 140 L142 167 C141 167 138 171 138 171 L110 171 C87 171 69 159 67 140 C56 62 104 7 191 -7 L181 -80 L222 -80 L232 -10 C251 -10 269 -9 286 -6 L276 -80 L317 -80 L329 5 C409 33 464 97 476 182 C485 250 453 314 378 357 L413 604 C433 590 443 569 439 543 L436 517 C436 517 439 513 440 513 L468 513 C491 513 509 525 511 543 C520 602 485 646 421 663 L432 741 L393 740 L393 740 Z M340 376 C322 383 303 390 288 398 L319 621 C338 623 358 622 375 619 L340 376 L340 376 Z M251 423 C221 449 209 481 214 522 C220 561 243 592 278 609 L251 423 Z M275 300 C295 291 312 282 326 272 L294 45 C278 40 259 38 239 38 L275 300 L275 300 Z M364 241 C388 214 399 184 395 154 C389 116 369 85 339 65 L364 241 Z " />
<glyph glyph-name="percent" unicode="&#x25;" horiz-adv-x="801" d="M189 569 C203 669 237 736 274 736 C326 736 349 656 332 537 C319 443 284 381 243 381 C195 381 173 456 189 569 L189 569 Z M108 554 C91 435 141 355 232 355 C322 355 394 439 411 564 C428 682 379 760 289 760 C198 760 125 678 108 554 L108 554 Z M580 208 C594 306 630 371 670 371 C728 371 755 293 739 176 C725 80 685 16 638 16 C587 16 564 93 580 208 L580 208 Z M499 193 C482 71 534 -10 628 -10 C724 -10 800 75 818 203 C834 318 781 395 685 395 C591 395 516 314 499 193 L499 193 Z M197 -11 L768 739 L736 761 L166 11 L197 -11 L197 -11 Z " />
<glyph glyph-name="ampersand" unicode="&#x26;" horiz-adv-x="691" d="M575 452 L597 420 C601 420 608 418 615 419 C569 331 526 255 482 195 L321 375 C423 425 492 488 499 542 C510 618 453 669 357 669 C246 669 163 605 150 509 C141 448 166 402 211 349 C86 294 54 235 44 163 C29 59 94 -11 207 -11 C304 -11 381 25 448 90 L531 -1 L706 -1 L708 17 L614 49 L512 163 C566 234 617 324 672 428 L741 450 L744 468 L579 468 L575 452 L575 452 Z M233 325 C239 318 246 311 253 303 L420 120 C373 75 321 50 260 50 C177 50 129 104 140 185 C148 243 168 289 233 324 L233 325 L233 325 Z M300 398 C259 444 234 477 241 524 C249 586 291 627 345 627 C394 627 422 591 414 536 C407 487 364 436 300 398 L300 398 Z " />
<glyph glyph-name="quotesingle" unicode="&#x27;" horiz-adv-x="250" d="M184 740 L184 490 L204 490 L274 740 L184 740 L184 740 Z " />
<glyph glyph-name="parenleft" unicode="&#x28;" horiz-adv-x="250" d="M324 740 C207 621 121 487 94 295 C67 103 116 -31 199 -150 L224 -150 C161 -61 129 64 161 295 C194 526 261 651 349 740 L324 740 L324 740 Z " />
<glyph glyph-name="parenright" unicode="&#x29;" horiz-adv-x="250" d="M34 -150 C151 -31 236 103 263 295 C290 487 242 621 159 740 L134 740 C196 651 229 526 196 295 C164 64 96 -61 9 -150 L34 -150 L34 -150 Z " />
<glyph glyph-name="asterisk" unicode="&#x2a;" horiz-adv-x="389" d="M293 589 L431 615 L420 672 L288 614 L324 750 L264 750 L262 614 L146 672 L119 615 L251 589 L143 489 L187 454 L270 574 L319 454 L373 489 L293 589 L293 589 Z " />
<glyph glyph-name="plus" unicode="&#x2b;" horiz-adv-x="510" d="M297 482 L271 297 L82 297 L75 247 L264 247 L236 52 L288 52 L316 247 L505 247 L512 297 L323 297 L349 482 L297 482 L297 482 Z " />
<glyph glyph-name="comma" unicode="&#x2c;" horiz-adv-x="247" d="M90 0 C118 -14 133 -49 128 -87 C123 -124 85 -165 33 -190 L30 -210 C118 -168 183 -99 192 -39 C200 21 181 73 145 91 C118 103 113 106 92 79 L56 29 L58 19 L90 0 L90 0 Z " />
<glyph glyph-name="hyphen" unicode="&#x2d;" horiz-adv-x="375" d="M80 217 L355 217 L365 287 L90 287 L80 217 L80 217 Z " />
<glyph glyph-name="period" unicode="&#x2e;" horiz-adv-x="250" d="M124 -10 C160 -10 187 14 192 50 C197 86 176 110 140 110 C104 110 77 86 72 50 C67 14 88 -10 124 -10 L124 -10 Z " />
<glyph glyph-name="slash" unicode="&#x2f;" horiz-adv-x="250" d="M-17 -120 L33 -120 L355 750 L305 750 L-17 -120 L-17 -120 Z " />
<glyph glyph-name="zero" unicode="0" horiz-adv-x="526" d="M179 361 C201 518 263 623 334 623 C429 623 474 496 447 306 C425 146 359 39 284 39 C193 39 152 168 179 361 L179 361 Z M79 330 C51 126 124 -10 262 -10 C400 -10 511 129 541 338 C568 537 495 670 357 670 C219 670 108 534 79 330 L79 330 Z " />
<glyph glyph-name="one" unicode="1" horiz-adv-x="500" d="M395 0 L398 18 L337 50 L423 660 L403 660 L142 511 L137 476 L324 563 L252 50 L183 18 L180 0 L395 0 L395 0 Z " />
<glyph glyph-name="two" unicode="2" horiz-adv-x="480" d="M460 41 C467 73 476 115 484 147 L467 147 L420 82 L175 82 C411 320 505 411 516 493 C531 599 471 670 365 670 C226 670 125 602 110 499 C107 474 120 457 144 457 L190 457 C190 457 195 462 196 462 L203 515 C203 515 137 499 110 499 C213 580 263 623 328 623 C394 623 430 571 419 492 C400 356 305 280 54 25 L50 0 L454 0 L460 41 L460 41 Z " />
<glyph glyph-name="three" unicode="3" horiz-adv-x="498" d="M140 120 L144 147 L137 155 L90 155 C90 155 53 141 50 120 C39 42 116 -10 241 -10 C381 -10 484 64 500 175 C514 279 461 341 342 359 C447 386 507 444 518 521 C531 610 467 670 359 670 C232 670 140 612 128 524 C125 503 163 489 163 489 L204 489 L213 497 L218 535 C226 589 271 625 331 625 C395 625 431 580 421 513 C410 432 347 375 238 364 C225 364 212 363 199 362 L193 318 C346 329 417 280 402 174 C391 90 328 34 246 34 C175 34 132 68 139 119 L140 120 L140 120 Z " />
<glyph glyph-name="four" unicode="4" horiz-adv-x="501" d="M442 660 C321 526 200 393 80 260 L39 213 L36 193 L312 193 L292 50 L223 18 L220 0 L435 0 L438 18 L377 50 L397 193 L516 193 L526 260 L407 260 L463 660 L442 660 L442 660 Z M356 507 L322 260 L142 260 L356 507 L356 507 Z " />
<glyph glyph-name="five" unicode="5" horiz-adv-x="500" d="M498 660 L179 660 L134 345 C156 351 195 355 231 355 C353 355 425 291 411 195 C398 101 329 39 240 39 C192 39 145 67 134 108 L124 108 C113 108 84 81 84 81 C72 73 65 71 63 55 C62 49 64 42 68 36 C83 8 134 -10 193 -10 C350 -10 467 88 488 236 C505 354 412 433 256 433 C229 433 205 431 194 429 L216 582 L487 582 L498 660 L498 660 Z " />
<glyph glyph-name="six" unicode="6" horiz-adv-x="501" d="M515 670 C276 608 98 433 70 233 C49 87 124 -10 255 -10 C384 -10 481 74 499 201 C515 313 457 388 354 388 C287 388 225 361 182 315 C230 474 354 600 511 640 L515 670 Z M165 235 C184 286 240 320 305 320 C376 320 416 264 404 180 C392 94 335 36 261 36 C188 36 149 115 164 235 L165 235 Z " />
<glyph glyph-name="seven" unicode="7" horiz-adv-x="500" d="M143 660 L132 583 L466 583 C237 259 86 30 82 0 L194 0 C209 104 351 360 549 640 L552 660 L143 660 L143 660 Z " />
<glyph glyph-name="eight" unicode="8" horiz-adv-x="493" d="M340 371 C335 373 331 375 326 377 C238 421 210 475 217 530 C225 586 270 623 329 623 C398 623 436 571 425 494 C417 437 386 393 340 370 L340 371 Z M375 349 C450 372 502 428 513 502 C527 603 459 670 344 670 C226 670 138 602 123 500 C115 439 139 379 215 326 C130 301 71 234 58 144 C45 51 119 -11 243 -11 C367 -11 460 61 475 170 C484 232 450 297 373 349 L375 349 Z M246 306 C254 301 263 296 272 291 C356 249 394 192 386 138 C377 74 324 31 253 31 C180 31 140 85 151 167 C160 231 195 280 246 304 L246 306 Z " />
<glyph glyph-name="nine" unicode="9" horiz-adv-x="499" d="M79 -10 C309 -10 477 92 524 427 C545 573 470 670 339 670 C210 670 114 600 95 465 C79 349 140 272 248 272 C311 272 374 303 418 353 C367 108 244 19 84 19 L79 -10 Z M430 424 C406 372 354 338 298 338 C224 338 181 388 191 464 C206 569 262 623 334 623 C407 623 445 544 431 424 L430 424 Z " />
<glyph glyph-name="colon" unicode="&#x3a;" horiz-adv-x="250" d="M171 330 C207 330 235 354 240 390 C245 426 224 450 188 450 C152 450 125 426 120 390 C115 354 135 330 171 330 L171 330 Z M124 -10 C160 -10 187 14 192 50 C197 86 176 110 140 110 C104 110 77 86 72 50 C67 14 88 -10 124 -10 L124 -10 Z " />
<glyph glyph-name="semicolon" unicode="&#x3b;" horiz-adv-x="247" d="M168 330 C204 330 232 354 237 390 C242 426 221 450 185 450 C149 450 122 426 117 390 C112 354 132 330 168 330 L168 330 Z M90 0 C118 -14 133 -49 128 -87 C123 -124 85 -165 33 -190 L30 -210 C118 -168 183 -99 192 -39 C200 21 181 73 145 91 C118 103 113 106 92 79 L56 29 L58 19 L90 0 L90 0 Z " />
<glyph glyph-name="equal" unicode="&#x3d;" horiz-adv-x="500" d="M67 195 L60 145 L480 145 L487 195 L67 195 L67 195 Z M96 399 L89 349 L509 349 L516 399 L96 399 L96 399 Z " />
<glyph glyph-name="question" unicode="&#x3f;" horiz-adv-x="478" d="M211 -5 C247 -5 275 19 280 55 C285 91 264 115 228 115 C192 115 165 91 160 55 C155 19 175 -5 211 -5 L211 -5 Z M201 517 C201 517 137 508 111 508 C108 484 121 468 144 468 L186 468 C186 468 193 478 195 478 L201 517 L201 517 Z M201 517 C210 582 251 626 304 626 C373 626 412 574 401 495 C392 433 321 373 224 345 C218 299 229 190 229 190 L249 190 C249 190 261 232 272 275 C393 319 480 404 493 495 C507 600 447 670 341 670 C217 670 125 605 111 508 L201 517 L201 517 Z " />
<glyph glyph-name="A" unicode="A" horiz-adv-x="748" d="M466 0 L713 0 L715 16 L655 45 C598 252 542 459 485 666 L441 666 L101 51 L19 19 L16 1 L242 1 L245 19 L169 51 L260 220 L514 220 L514 222 L560 51 L468 19 L466 0 L466 0 Z M501 275 L290 275 L430 537 L501 275 L501 275 Z " />
<glyph glyph-name="B" unicode="B" horiz-adv-x="632" d="M295 368 L263 368 L296 605 L371 605 C467 605 510 555 499 479 C490 412 408 368 295 368 L295 368 Z M452 357 C533 387 587 439 596 504 C609 598 544 660 401 660 L134 660 L131 641 L206 605 L129 55 L44 19 L41 0 L304 0 C471 0 593 78 609 194 C621 274 568 334 452 357 L452 357 Z M219 55 L255 313 L355 313 C472 313 526 262 515 186 C504 107 423 55 312 55 L219 55 L219 55 Z " />
<glyph glyph-name="C" unicode="C" horiz-adv-x="717" d="M632 39 L664 197 C658 197 653 198 648 198 C626 165 598 122 577 89 C574 85 569 80 565 77 C516 54 457 40 407 40 C264 40 185 160 211 341 C234 508 350 620 501 620 C542 620 585 608 619 589 L619 589 C624 586 629 581 630 576 C643 539 659 488 671 451 C676 451 683 452 689 452 L706 625 C677 653 598 671 508 671 C302 671 144 527 114 311 C87 119 201 -9 400 -9 C494 -9 587 11 633 40 L632 39 L632 39 Z " />
<glyph glyph-name="D" unicode="D" horiz-adv-x="775" d="M356 0 C565 0 723 130 756 360 C783 558 652 660 433 660 L158 660 L155 641 L230 605 L153 55 L68 19 L65 0 L356 0 L356 0 Z M243 55 L320 605 L399 605 C578 605 684 510 658 325 C634 153 517 55 362 55 L243 55 L243 55 Z " />
<glyph glyph-name="E" unicode="E" horiz-adv-x="650" d="M605 180 L588 180 L513 55 L243 55 L279 313 L449 313 L480 233 L503 233 L533 448 L510 448 L457 368 L287 368 L320 605 L565 605 L607 490 L624 490 L648 660 L158 660 L155 641 L230 605 L153 55 L68 19 L65 0 L580 0 L605 180 L605 180 Z " />
<glyph glyph-name="F" unicode="F" horiz-adv-x="615" d="M449 313 L480 233 L503 233 L533 448 L510 448 L457 368 L287 368 L320 605 L555 605 L597 490 L614 490 L638 660 L158 660 L155 641 L230 605 L153 55 L68 19 L65 0 L330 0 L333 19 L243 55 L279 313 L449 313 L449 313 Z " />
<glyph glyph-name="G" unicode="G" horiz-adv-x="774" d="M687 235 L767 271 L770 290 L520 290 L517 271 L597 235 L573 67 C542 56 493 49 438 49 C278 49 187 166 212 341 C235 508 355 620 512 620 C558 620 604 608 640 588 C644 585 649 580 651 574 C663 537 679 487 692 450 C697 450 703 451 709 451 L727 624 C698 652 615 670 519 670 C307 670 145 526 115 310 C88 118 203 -10 402 -10 C511 -10 616 24 665 74 L687 235 L687 235 Z " />
<glyph glyph-name="H" unicode="H" horiz-adv-x="811" d="M746 0 L749 19 L674 55 L751 605 L836 641 L839 660 L589 660 L586 641 L661 605 L628 368 L287 368 L320 605 L405 641 L408 660 L158 660 L155 641 L230 605 L153 55 L68 19 L65 0 L315 0 L318 19 L243 55 L279 313 L620 313 L584 55 L499 19 L496 0 L746 0 L746 0 Z " />
<glyph glyph-name="I" unicode="I" horiz-adv-x="390" d="M320 0 L323 19 L248 55 L325 605 L410 641 L413 660 L163 660 L160 641 L235 605 L158 55 L73 19 L70 0 L320 0 L320 0 Z " />
<glyph glyph-name="J" unicode="J" horiz-adv-x="390" d="M235 605 L157 50 C144 -40 110 -100 70 -100 C70 -100 40 -96 20 -91 L14 -91 C14 -91 -3 -144 -4 -147 C-6 -163 6 -173 26 -173 C140 -173 239 -7 274 243 L325 605 L410 641 L413 660 L163 660 L160 641 L235 605 L235 605 Z " />
<glyph glyph-name="K" unicode="K" horiz-adv-x="741" d="M714 14 L652 40 L378 359 L688 620 L759 646 L761 660 L519 660 L516 642 L584 610 L348 396 L285 338 C287 335 313 303 313 303 L561 0 L712 0 L714 14 L714 14 Z M316 0 L319 19 L244 55 L321 605 L406 641 L409 660 L159 660 L156 641 L231 605 L154 55 L69 19 L66 0 L316 0 L316 0 Z " />
<glyph glyph-name="L" unicode="L" horiz-adv-x="630" d="M591 220 L573 220 L488 55 L243 55 L320 605 L410 641 L413 660 L158 660 L155 641 L230 605 L153 55 L68 19 L65 0 L560 0 L591 220 L591 220 Z " />
<glyph glyph-name="M" unicode="M" horiz-adv-x="963" d="M161 641 L244 605 L149 55 L63 19 L60 0 L284 0 L287 19 L208 55 L288 540 L448 -5 L493 -5 L802 532 L753 55 L670 19 L667 0 L901 0 L904 19 L838 55 L894 605 L986 641 L989 660 L815 660 L509 118 L348 660 L163 660 L161 641 L161 641 Z " />
<glyph glyph-name="N" unicode="N" horiz-adv-x="806" d="M158 641 L228 605 L151 55 L66 19 L63 0 L313 0 L316 19 L221 55 L285 513 C400 340 514 167 629 -6 L664 -6 L750 604 L830 640 L833 659 L588 659 L585 640 L680 604 L620 181 L305 659 L160 659 L158 641 L158 641 Z " />
<glyph glyph-name="O" unicode="O" horiz-adv-x="807" d="M217 363 C239 518 341 621 473 621 C626 621 710 490 682 293 C661 141 560 40 430 40 C275 40 190 169 217 363 L217 363 Z M116 328 C88 125 203 -10 403 -10 C603 -10 755 125 783 328 C812 533 698 670 498 670 C298 670 145 533 116 328 L116 328 Z " />
<glyph glyph-name="P" unicode="P" horiz-adv-x="623" d="M330 0 L333 19 L243 55 L276 290 L349 290 C496 290 604 366 620 479 C636 588 558 660 426 660 L158 660 L155 641 L230 605 L153 55 L68 19 L65 0 L330 0 L330 0 Z M283 345 L320 605 L396 605 C484 605 534 551 523 471 C513 395 453 345 376 345 L283 345 L283 345 Z " />
<glyph glyph-name="Q" unicode="Q" horiz-adv-x="807" d="M790 -121 L792 -106 C782 -111 756 -115 728 -115 C662 -115 590 -20 522 8 C661 51 761 169 783 329 C812 534 698 671 498 671 C298 671 145 534 116 329 C87 120 210 -20 427 -8 C505 -53 585 -146 661 -146 C708 -146 760 -135 790 -119 L790 -121 L790 -121 Z M217 365 C239 520 342 623 474 623 C627 623 710 492 682 295 C661 143 560 42 430 42 C275 42 190 171 217 365 L217 365 Z " />
<glyph glyph-name="R" unicode="R" horiz-adv-x="682" d="M669 0 L672 18 L603 50 L453 304 C546 331 610 395 621 480 C637 589 559 661 427 661 L158 661 L155 642 L230 606 L153 56 L68 20 L65 1 L310 1 L313 20 L243 56 L276 291 L350 291 L521 1 L669 0 L669 0 Z M284 346 L320 606 L397 606 C483 606 534 552 522 472 C512 396 454 346 378 346 L284 346 L284 346 Z " />
<glyph glyph-name="S" unicode="S" horiz-adv-x="527" d="M443 594 C454 588 463 576 466 564 C474 540 483 507 491 483 C498 483 505 484 512 484 L524 627 C498 653 437 670 372 670 C256 670 169 598 154 489 C142 406 186 352 281 309 C374 267 417 223 409 163 C398 87 346 37 278 37 C242 37 192 55 147 83 C142 86 138 91 136 96 C129 126 117 167 110 197 C107 197 103 196 100 196 L89 196 L74 35 C111 7 189 -11 270 -11 C389 -11 480 67 497 185 C510 274 461 333 357 380 C277 417 238 459 246 520 C255 581 298 621 356 621 C383 621 415 611 442 594 L443 594 L443 594 Z " />
<glyph glyph-name="T" unicode="T" horiz-adv-x="675" d="M483 0 L486 19 L391 55 L468 605 L635 605 L677 460 L695 460 L723 660 L138 660 L110 460 L128 460 L210 605 L378 605 L301 55 L196 19 L193 0 L483 0 L483 0 Z " />
<glyph glyph-name="U" unicode="U" horiz-adv-x="811" d="M230 605 L178 234 C157 88 248 -10 405 -10 C561 -10 678 88 699 234 L751 605 L836 641 L839 660 L589 660 L586 641 L681 605 L626 213 C612 114 538 48 440 48 C321 48 253 129 270 250 L320 605 L405 641 L408 660 L158 660 L155 641 L230 605 L230 605 Z " />
<glyph glyph-name="V" unicode="V" horiz-adv-x="735" d="M377 660 L126 660 L123 642 L187 610 C239 405 290 199 343 -6 L386 -6 L734 619 L794 645 L796 659 L590 659 L587 640 L660 604 L402 131 C362 288 322 446 283 603 L376 639 L377 660 L377 660 Z " />
<glyph glyph-name="W" unicode="W" horiz-adv-x="979" d="M365 660 L112 660 L109 642 L170 610 C202 405 236 201 266 -5 L301 -5 L311 15 L561 500 C597 332 633 164 667 -5 L702 -5 L711 15 C802 217 893 419 985 620 L1052 646 L1054 660 L835 660 L832 641 L911 605 L719 166 C684 332 649 499 612 665 L577 665 C494 499 412 332 329 165 C308 312 286 459 264 606 L363 642 L365 660 L365 660 Z " />
<glyph glyph-name="X" unicode="X" horiz-adv-x="741" d="M393 660 L141 660 L138 642 L198 610 L366 327 C282 235 198 142 114 50 L40 18 L37 0 L269 0 L272 19 L189 55 L393 282 L529 54 L454 18 L451 -1 L704 -1 L706 15 L648 44 L463 347 L706 614 L772 643 L775 659 L562 659 L559 640 L631 604 L435 391 L305 604 L389 640 L393 660 L393 660 Z " />
<glyph glyph-name="Y" unicode="Y" horiz-adv-x="718" d="M358 660 L124 660 L121 642 L181 610 L364 305 L329 55 L234 19 L231 0 L501 0 L504 19 L419 55 L454 309 L713 621 L774 647 L776 661 L564 661 L561 642 L633 606 L433 365 L282 606 L355 642 L358 660 L358 660 Z " />
<glyph glyph-name="Z" unicode="Z" horiz-adv-x="646" d="M169 480 L187 480 L267 605 L519 605 C378 412 237 218 94 25 L90 0 L556 0 L583 190 L565 190 L484 55 L208 55 C348 247 488 439 630 630 L634 660 L195 660 L169 480 L169 480 Z " />
<glyph glyph-name="bracketleft" unicode="&#x5b;" horiz-adv-x="250" d="M230 717 L346 717 L349 740 L171 740 L46 -150 L224 -150 L227 -127 L111 -127 L230 717 L230 717 Z " />
<glyph glyph-name="backslash" unicode="&#x5c;" horiz-adv-x="250" d="M183 -120 L233 -120 L155 750 L105 750 L183 -120 L183 -120 Z " />
<glyph glyph-name="bracketright" unicode="&#x5d;" horiz-adv-x="245" d="M219 717 L100 -127 L-13 -127 L-16 -150 L159 -150 L284 740 L109 740 L106 717 L219 717 L219 717 Z " />
<glyph glyph-name="asciicircum" unicode="&#x5e;" horiz-adv-x="340" d="M392 530 L284 705 L254 705 L101 530 L113 530 L258 623 L380 530 L392 530 L392 530 Z " />
<glyph glyph-name="underscore" unicode="&#x5f;" horiz-adv-x="500" d="M12 -90 L5 -140 L455 -140 L462 -90 L12 -90 L12 -90 Z " />
<glyph glyph-name="grave" unicode="&#x60;" horiz-adv-x="340" d="M250 530 L188 707 L108 707 C108 707 114 662 129 646 L238 530 L250 530 L250 530 Z " />
<glyph glyph-name="a" unicode="a" horiz-adv-x="489" d="M189 337 C196 381 230 414 269 414 C329 414 355 380 348 329 L338 258 C165 219 70 156 61 89 C52 30 91 -10 156 -10 C213 -10 269 10 311 50 C316 13 344 -11 388 -11 C427 -11 467 11 487 43 L485 49 C484 47 469 46 448 46 C411 46 389 54 390 66 L430 349 C439 415 397 459 301 459 C200 459 115 404 105 331 C102 313 108 302 122 303 L179 303 L184 308 L189 337 L189 337 Z M332 221 L312 76 C285 58 248 49 208 49 C162 49 134 73 139 108 C145 151 211 193 332 221 L332 221 Z " />
<glyph glyph-name="b" unicode="b" horiz-adv-x="561" d="M132 693 L165 661 C180 647 190 637 190 637 L99 -10 L105 -10 L135 17 C161 1 217 -10 281 -10 C418 -10 524 95 546 252 C564 377 505 460 399 460 C341 460 279 437 236 402 L285 750 L269 750 L133 699 L132 693 L132 693 Z M191 80 L230 353 C250 377 290 393 332 393 C424 393 477 328 463 231 C447 115 387 38 314 38 C265 38 216 55 191 80 L191 80 Z " />
<glyph glyph-name="c" unicode="c" horiz-adv-x="477" d="M444 105 C400 80 348 64 313 64 C208 64 148 138 164 250 C178 350 235 416 308 416 C343 416 378 397 395 368 L419 326 L426 326 L467 355 C492 375 488 386 475 411 C458 440 407 460 346 460 C207 460 100 358 79 205 C61 76 133 -10 260 -10 C329 -10 403 32 446 95 L448 105 L444 105 L444 105 Z " />
<glyph glyph-name="d" unicode="d" horiz-adv-x="574" d="M526 0 L529 18 L463 50 L562 754 L546 754 L411 715 L411 710 L450 675 C461 665 468 658 468 658 L439 450 C411 456 381 460 352 460 C209 460 98 354 75 194 C58 72 117 -10 221 -10 C281 -10 344 15 384 54 L385 0 L526 0 L526 0 Z M426 363 L388 89 C364 70 325 58 286 58 C195 58 143 123 157 220 C173 336 243 413 331 413 C331 413 368 394 426 364 L426 363 L426 363 Z " />
<glyph glyph-name="e" unicode="e" horiz-adv-x="483" d="M171 288 C192 366 242 416 303 416 C363 416 398 366 398 288 L171 288 Z M444 105 C400 80 348 64 313 64 C211 64 152 134 164 242 L432 242 L469 247 C487 375 430 460 327 460 C200 460 101 358 80 205 C62 76 134 -10 261 -10 C330 -10 404 32 447 95 L449 105 L444 105 L444 105 Z " />
<glyph glyph-name="f" unicode="f" horiz-adv-x="367" d="M265 0 L268 18 L207 50 L258 403 L389 403 L395 450 L264 450 L283 587 C289 625 335 667 395 667 C415 667 435 663 447 657 C460 650 473 646 473 646 L480 646 L507 694 C517 716 513 727 489 739 C489 739 466 749 455 749 C345 749 206 614 189 489 L183 449 L103 449 L96 402 L176 402 L127 49 L57 17 L55 -1 L265 0 L265 0 Z " />
<glyph glyph-name="g" unicode="g" horiz-adv-x="546" d="M204 303 C214 374 251 421 310 421 C372 421 407 372 397 299 C387 226 351 178 295 178 C230 178 193 228 204 303 L204 303 Z M122 300 C114 239 135 190 179 163 C123 143 84 109 79 74 C74 33 100 4 146 -6 C90 -24 47 -84 42 -123 C32 -193 96 -239 202 -239 C343 -239 447 -169 462 -65 C473 11 441 61 340 61 L218 61 C176 61 150 79 154 107 C157 127 175 145 201 152 C222 144 247 140 275 140 C393 140 463 206 477 304 C482 343 475 377 457 403 L550 398 L558 452 L412 442 C388 455 357 462 321 462 C204 462 134 398 120 302 L122 300 L122 300 Z M182 -8 L290 -8 C367 -8 393 -39 386 -85 C376 -160 307 -210 216 -210 C146 -210 106 -170 114 -111 C121 -61 150 -8 182 -8 L182 -8 Z " />
<glyph glyph-name="h" unicode="h" horiz-adv-x="590" d="M147 693 L180 661 C195 647 205 637 205 637 L122 50 L53 18 L50 0 L260 0 L263 18 L202 50 L244 351 C273 375 309 390 359 390 C420 390 455 353 447 297 L412 50 L343 18 L340 0 L550 0 L553 18 L492 50 L533 343 C543 413 495 460 413 460 C356 460 301 429 248 382 L300 751 L284 751 L147 700 L147 693 L147 693 Z " />
<glyph glyph-name="i" unicode="i" horiz-adv-x="317" d="M241 610 C277 610 304 634 309 670 C314 706 294 730 258 730 C222 730 194 706 189 670 C184 634 205 610 241 610 L241 610 Z M111 403 L143 371 C158 357 168 347 168 347 L126 50 L57 18 L54 0 L269 0 L272 18 L206 50 L264 460 L248 460 L111 409 L111 403 L111 403 Z " />
<glyph glyph-name="j" unicode="j" horiz-adv-x="317" d="M245 610 C281 610 308 634 313 670 C318 706 298 730 262 730 C226 730 198 706 193 670 C188 634 209 610 245 610 L245 610 Z M111 403 L143 371 C158 357 168 347 168 347 L117 -12 C103 -111 103 -172 26 -216 L23 -234 C171 -149 187 -87 199 0 L264 460 L248 460 L111 409 L111 403 L111 403 Z " />
<glyph glyph-name="k" unicode="k" horiz-adv-x="544" d="M565 450 L374 450 L371 429 L417 390 L231 255 L302 760 L286 760 L150 709 L149 703 L181 671 C196 657 206 647 206 647 L122 50 L53 18 L50 0 L265 0 L268 18 L202 50 L229 240 L396 0 L516 0 L519 18 L461 50 L303 273 L490 400 L563 432 L565 450 L565 450 Z " />
<glyph glyph-name="l" unicode="l" horiz-adv-x="298" d="M143 703 L175 671 C190 657 200 647 200 647 L116 50 L47 18 L44 0 L254 0 L257 18 L196 50 L296 760 L280 760 L144 709 L143 703 L143 703 Z " />
<glyph glyph-name="m" unicode="m" horiz-adv-x="863" d="M102 403 L134 371 C149 357 159 347 159 347 L117 50 L48 18 L45 0 L255 0 L258 18 L197 50 L239 351 C268 375 303 390 349 390 C407 390 440 353 432 297 L397 50 L323 18 L320 0 L540 0 L543 18 L477 50 L518 343 C518 344 518 345 519 346 C550 373 588 390 636 390 C694 390 728 353 720 297 L685 50 L611 18 L608 0 L823 0 L826 18 L765 50 L806 343 C816 413 770 460 690 460 C634 460 576 425 518 373 C513 426 470 460 403 460 C350 460 297 429 244 382 L244 384 L242 384 C246 417 251 461 251 461 L235 461 L103 410 L102 403 L102 403 Z " />
<glyph glyph-name="n" unicode="n" horiz-adv-x="590" d="M107 403 L139 371 C154 357 164 347 164 347 L122 50 L53 18 L50 0 L265 0 L268 18 L202 50 L244 351 C273 375 309 390 359 390 C420 390 455 353 447 297 L412 50 L338 18 L335 0 L550 0 L553 18 L492 50 L533 343 C543 413 495 460 413 460 C356 460 301 429 248 382 L248 384 L246 384 C250 417 255 461 255 461 L239 461 L107 410 L107 403 L107 403 Z " />
<glyph glyph-name="o" unicode="o" horiz-adv-x="538" d="M174 225 C190 341 239 418 314 418 C399 418 444 341 428 225 C411 109 362 32 287 32 C202 32 157 109 174 225 L174 225 Z M82 225 C62 84 137 -10 268 -10 C413 -10 500 84 520 225 C539 366 465 460 334 460 C189 460 101 366 82 225 L82 225 Z " />
<glyph glyph-name="p" unicode="p" horiz-adv-x="572" d="M107 403 L139 371 C154 357 164 347 164 347 L90 -180 L20 -212 L18 -230 L233 -230 L235 -212 L170 -180 L195 -3 C219 -7 252 -10 288 -10 C428 -10 535 94 557 250 C575 376 520 460 419 460 C368 460 301 433 248 393 C252 424 256 460 256 460 L240 460 L107 409 L107 403 L107 403 Z M206 80 L246 362 C275 381 315 393 352 393 C441 393 490 321 475 214 C460 108 398 38 320 38 C278 38 233 55 206 80 L206 80 Z " />
<glyph glyph-name="q" unicode="q" horiz-adv-x="563" d="M491 -230 L493 -212 L433 -180 L523 460 L517 460 L477 442 C450 453 405 460 354 460 C211 460 100 354 77 194 C60 72 119 -10 223 -10 C265 -10 328 16 386 56 L353 -181 L278 -213 L276 -231 L491 -230 L491 -230 Z M430 367 L391 91 C358 69 318 55 288 55 C197 55 145 120 158 217 C175 333 245 410 333 410 C360 410 396 393 428 366 L430 367 L430 367 Z " />
<glyph glyph-name="r" unicode="r" horiz-adv-x="378" d="M360 460 C334 460 293 423 247 367 L248 375 L247 375 C250 408 257 459 257 459 L241 459 L108 408 L107 402 L140 370 C155 356 165 346 165 346 L123 49 L53 17 L51 -1 L266 -1 L268 17 L203 49 L243 332 C268 361 288 380 300 380 C320 380 345 375 361 368 C371 363 396 352 396 352 L403 352 C423 383 436 409 438 418 C441 442 393 459 361 459 L360 460 L360 460 Z " />
<glyph glyph-name="s" unicode="s" horiz-adv-x="427" d="M386 320 L401 425 L396 400 L401 425 C368 446 316 460 272 460 C193 460 132 409 122 332 C112 262 142 223 210 199 C276 176 307 145 300 96 C295 54 257 26 207 26 C133 26 112 83 93 135 L79 135 L63 20 C99 2 157 -10 208 -10 C297 -10 363 43 374 122 C385 196 351 239 277 265 C218 286 190 315 197 362 C202 397 231 421 271 421 C272 421 280 421 280 420 C317 416 351 384 363 340 C365 334 367 326 369 320 L386 320 L386 320 Z " />
<glyph glyph-name="t" unicode="t" horiz-adv-x="354" d="M331 53 L330 63 C327 59 301 57 263 57 C218 57 191 77 195 107 L237 403 L369 403 L375 450 L243 450 L259 560 L253 560 L163 450 L75 409 L75 403 L157 403 L113 90 C104 30 142 -10 207 -10 C258 -10 308 15 331 53 L331 53 Z " />
<glyph glyph-name="u" unicode="u" horiz-adv-x="552" d="M437 400 L395 101 C362 76 320 63 280 63 C220 63 185 100 193 155 L234 450 L89 450 L87 432 L147 400 L106 107 C96 37 144 -10 224 -10 C269 -10 329 16 392 68 L382 0 L532 0 L535 18 L469 50 L525 450 L375 450 L373 432 L437 400 L437 400 Z " />
<glyph glyph-name="v" unicode="v" horiz-adv-x="550" d="M365 431 L438 395 L283 113 L190 400 L282 432 L284 450 L39 450 L37 432 L102 400 C145 267 188 134 230 0 L251 0 L485 395 L566 431 L568 450 L367 450 L365 431 L365 431 Z " />
<glyph glyph-name="w" unicode="w" horiz-adv-x="844" d="M675 431 L748 395 L542 11 L545 0 L566 0 C643 132 719 264 796 395 L877 431 L879 450 L677 450 L675 431 L675 431 Z M542 11 L599 118 C565 229 531 339 498 451 L477 451 L472 439 L229 11 L231 1 L255 1 L449 326 L542 11 L542 11 Z M329 451 L85 451 L83 433 L145 401 L229 11 L288 117 L229 401 L327 433 L329 451 L329 451 Z " />
<glyph glyph-name="x" unicode="x" horiz-adv-x="537" d="M283 0 L488 0 L491 18 L442 50 L322 252 C368 301 414 351 461 400 L526 432 L528 450 L361 450 L359 432 L414 400 L309 275 C284 316 259 358 236 399 L314 431 L316 449 L102 449 L100 431 L148 399 L249 224 C199 166 149 108 99 50 L37 18 L34 0 L211 0 L214 18 L146 50 L265 199 L351 50 L288 18 L283 0 L283 0 Z " />
<glyph glyph-name="y" unicode="y" horiz-adv-x="538" d="M313 450 L68 450 L66 432 L131 400 L258 10 L217 -65 C183 -131 151 -156 104 -156 L59 -156 L55 -160 L47 -211 C44 -232 53 -240 77 -240 C142 -240 191 -195 252 -80 L514 395 L593 431 L595 450 L400 450 L398 431 L470 395 L314 111 L218 400 L310 432 L313 450 L313 450 Z " />
<glyph glyph-name="z" unicode="z" horiz-adv-x="480" d="M113 305 L130 305 L186 405 L345 405 L76 18 L73 0 L405 0 L426 150 L409 150 L361 45 L185 45 C277 176 367 307 458 437 L460 450 L196 450 L159 460 L149 460 C149 459 146 450 146 450 L146 449 C136 404 124 349 113 304 L113 305 L113 305 Z " />
<glyph glyph-name="braceleft" unicode="&#x7b;" horiz-adv-x="250" d="M137 297 C193 318 231 366 240 430 C249 493 216 577 225 640 C235 708 271 729 321 727 L347 726 L350 749 L331 749 C236 749 168 722 152 608 C144 549 186 469 178 410 C169 348 130 308 73 308 L48 308 L45 284 L70 284 C127 284 154 242 145 181 C137 122 73 43 65 -16 C48 -135 109 -157 204 -157 L223 -157 L226 -134 L199 -136 C148 -140 118 -119 128 -48 C137 14 194 98 202 160 C212 225 187 274 137 296 L137 297 L137 297 Z " />
<glyph glyph-name="bar" unicode="&#x7c;" horiz-adv-x="225" d="M38 -260 L88 -260 L232 760 L182 760 L38 -260 L38 -260 Z " />
<glyph glyph-name="braceright" unicode="&#x7d;" horiz-adv-x="260" d="M295 285 L298 309 L273 309 C216 309 189 349 198 411 C206 470 270 550 279 609 C295 723 234 750 139 750 L120 750 L117 727 L143 728 C194 730 225 709 215 641 C206 578 149 494 141 431 C132 367 157 319 207 298 C151 276 112 227 103 162 C94 100 127 16 119 -46 C109 -117 73 -138 23 -134 L-4 -132 L-7 -155 L12 -155 C107 -155 174 -133 191 -14 C199 45 157 124 166 183 C174 244 213 286 270 286 L295 285 L295 285 Z " />
<glyph glyph-name="asciitilde" unicode="&#x7e;" horiz-adv-x="340" d="M63 225 C81 264 97 290 131 290 C172 290 218 225 259 225 C308 225 337 275 371 350 L358 350 C340 310 324 283 290 283 C249 283 203 348 162 348 C112 348 84 299 50 225 L63 225 L63 225 Z " />
<glyph glyph-name="exclamdown" unicode="&#xa1;" horiz-adv-x="245" d="M190 460 C154 460 126 436 121 400 C116 364 137 340 173 340 C209 340 236 364 241 400 C246 436 226 460 190 460 L190 460 Z M40 -210 L150 -210 L172 260 L152 260 L40 -210 L40 -210 Z " />
<glyph glyph-name="cent" unicode="&#xa2;" horiz-adv-x="477" d="M444 105 C400 80 348 64 313 64 C295 64 278 66 263 70 L311 416 C345 415 378 396 394 368 L418 326 L425 326 L466 355 C491 375 487 386 474 411 C454 444 388 465 317 458 L326 519 L285 519 L275 450 C171 422 95 330 78 204 C62 92 114 12 211 -7 L201 -81 L242 -81 L251 -11 C325 -13 401 29 445 94 L447 104 L444 105 L444 105 Z M224 86 C176 116 152 174 163 249 C175 331 215 390 269 409 L224 86 Z " />
<glyph glyph-name="guillemotleft" unicode="&#xab;" horiz-adv-x="431" d="M460 425 L235 248 L410 70 L421 70 L335 248 L471 425 L460 425 L460 425 Z M275 425 L50 248 L225 70 L236 70 L150 248 L286 425 L275 425 L275 425 Z " />
<glyph glyph-name="acute" unicode="&#xb4;" horiz-adv-x="340" d="M244 530 L256 530 L399 646 C418 662 436 707 436 707 L356 707 L244 530 L244 530 Z " />
<glyph glyph-name="periodcentered" unicode="&#xb7;" horiz-adv-x="250" d="M155 210 C191 210 218 234 223 270 C228 306 207 330 171 330 C135 330 108 306 103 270 C98 234 119 210 155 210 L155 210 Z " />
<glyph glyph-name="guillemotright" unicode="&#xbb;" horiz-adv-x="430" d="M260 425 L345 248 L210 70 L221 70 L445 248 L271 425 L260 425 L260 425 Z M80 425 L165 248 L30 70 L41 70 L265 248 L91 425 L80 425 L80 425 Z " />
<glyph glyph-name="questiondown" unicode="&#xbf;" horiz-adv-x="478" d="M330 455 C294 455 267 431 262 395 C256 359 277 335 313 335 C349 335 376 359 382 395 C387 431 366 455 330 455 L330 455 Z M341 -67 C341 -67 404 -58 430 -58 C433 -34 420 -18 397 -18 L355 -18 C355 -18 348 -28 346 -28 L341 -67 L341 -67 Z M341 -67 C331 -132 290 -176 237 -176 C168 -176 130 -124 141 -45 C149 17 220 77 317 105 C323 151 313 260 313 260 L293 260 C293 260 281 218 270 175 C148 131 61 46 49 -45 C34 -150 94 -220 200 -220 C324 -220 416 -155 430 -58 L341 -67 L341 -67 Z " />
<glyph glyph-name="Agrave" unicode="&#xc0;" horiz-adv-x="748" d="M470 705 L405 864 L325 864 C325 864 332 824 347 809 L458 705 L470 705 L470 705 Z M466 0 L713 0 L715 16 L655 45 C598 252 542 459 485 666 L441 666 L101 51 L19 19 L16 1 L242 1 L245 19 L169 51 L260 220 L514 220 L514 222 L560 51 L468 19 L466 0 L466 0 Z M501 275 L290 275 L430 537 L501 275 L501 275 Z " />
<glyph glyph-name="Aacute" unicode="&#xc1;" horiz-adv-x="748" d="M464 705 L476 705 L617 809 C636 824 653 864 653 864 L573 864 L464 705 L464 705 Z M466 0 L713 0 L715 16 L655 45 C598 252 542 459 485 666 L441 666 L101 51 L19 19 L16 1 L242 1 L245 19 L169 51 L260 220 L514 220 L514 222 L560 51 L468 19 L466 0 L466 0 Z M501 275 L290 275 L430 537 L501 275 L501 275 Z " />
<glyph glyph-name="Acircumflex" unicode="&#xc2;" horiz-adv-x="748" d="M617 705 L506 863 L476 863 L326 705 L338 705 L481 788 L605 705 L617 705 L617 705 Z M466 0 L713 0 L715 16 L655 45 C598 252 542 459 485 666 L441 666 L101 51 L19 19 L16 1 L242 1 L245 19 L169 51 L260 220 L514 220 L514 222 L560 51 L468 19 L466 0 L466 0 Z M501 275 L290 275 L430 537 L501 275 L501 275 Z " />
<glyph glyph-name="Atilde" unicode="&#xc3;" horiz-adv-x="748" d="M338 728 C356 763 371 786 405 786 C446 786 493 728 534 728 C583 728 612 773 645 840 L632 840 C614 804 599 780 565 780 C524 780 477 838 436 838 C386 838 359 794 325 728 L338 728 L338 728 Z M466 0 L713 0 L715 16 L655 45 C598 252 542 459 485 666 L441 666 L101 51 L19 19 L16 1 L242 1 L245 19 L169 51 L260 220 L514 220 L514 222 L560 51 L468 19 L466 0 L466 0 Z M501 275 L290 275 L430 537 L501 275 L501 275 Z " />
<glyph glyph-name="Adieresis" unicode="&#xc4;" horiz-adv-x="748" d="M563 735 C593 735 616 755 620 785 C625 815 607 835 577 835 C547 835 525 815 520 785 C516 755 533 735 563 735 L563 735 Z M383 735 C413 735 436 755 440 785 C445 815 427 835 397 835 C367 835 345 815 340 785 C336 755 353 735 383 735 L383 735 Z M466 0 L713 0 L715 16 L655 45 C598 252 542 459 485 666 L441 666 L101 51 L19 19 L16 1 L242 1 L245 19 L169 51 L260 220 L514 220 L514 222 L560 51 L468 19 L466 0 L466 0 Z M501 275 L290 275 L430 537 L501 275 L501 275 Z " />
<glyph glyph-name="Aring" unicode="&#xc5;" horiz-adv-x="748" d="M446 800 C451 831 468 852 488 852 C511 852 522 826 516 786 C513 758 494 734 477 734 C455 734 441 764 446 800 L446 800 Z M396 793 C390 748 424 710 470 710 C516 710 560 749 567 795 C574 844 544 876 493 876 C442 876 403 843 396 793 L396 793 Z M466 0 L713 0 L715 16 L655 45 C598 252 542 459 485 666 L441 666 L101 51 L19 19 L16 1 L242 1 L245 19 L169 51 L260 220 L514 220 L514 222 L560 51 L468 19 L466 0 L466 0 Z M501 275 L290 275 L430 537 L501 275 L501 275 Z " />
<glyph glyph-name="Ccedilla" unicode="&#xc7;" horiz-adv-x="717" d="M381 -81 C403 -44 418 -19 424 -10 C509 -7 590 12 631 38 L663 196 C657 196 652 197 647 197 C625 164 597 121 575 88 C573 84 568 79 564 76 C514 53 455 39 405 39 C262 39 184 159 210 340 C233 507 349 619 500 619 C541 619 584 607 618 588 L618 588 C623 585 628 580 629 575 C642 538 657 487 670 450 C675 450 681 451 687 451 L705 624 C676 652 597 670 507 670 C301 670 143 526 113 310 C86 121 195 -6 387 -11 C380 -24 352 -68 316 -130 L343 -143 C377 -150 399 -165 397 -180 C394 -200 377 -213 354 -213 C323 -213 296 -207 286 -197 L285 -208 C304 -228 336 -241 364 -241 C414 -241 452 -210 459 -164 C464 -129 433 -97 380 -82 L381 -81 L381 -81 Z " />
<glyph glyph-name="Egrave" unicode="&#xc8;" horiz-adv-x="650" d="M440 705 L375 864 L295 864 C295 864 302 824 317 809 L428 705 L440 705 L440 705 Z M605 180 L588 180 L513 55 L243 55 L279 313 L449 313 L480 233 L503 233 L533 448 L510 448 L457 368 L287 368 L320 605 L565 605 L607 490 L624 490 L648 660 L158 660 L155 641 L230 605 L153 55 L68 19 L65 0 L580 0 L605 180 L605 180 Z " />
<glyph glyph-name="Eacute" unicode="&#xc9;" horiz-adv-x="650" d="M434 705 L446 705 L587 809 C606 824 623 864 623 864 L543 864 L434 705 L434 705 Z M605 180 L588 180 L513 55 L243 55 L279 313 L449 313 L480 233 L503 233 L533 448 L510 448 L457 368 L287 368 L320 605 L565 605 L607 490 L624 490 L648 660 L158 660 L155 641 L230 605 L153 55 L68 19 L65 0 L580 0 L605 180 L605 180 Z " />
<glyph glyph-name="Ecircumflex" unicode="&#xca;" horiz-adv-x="650" d="M582 705 L471 863 L441 863 L291 705 L303 705 L446 788 L570 705 L582 705 L582 705 Z M605 180 L588 180 L513 55 L243 55 L279 313 L449 313 L480 233 L503 233 L533 448 L510 448 L457 368 L287 368 L320 605 L565 605 L607 490 L624 490 L648 660 L158 660 L155 641 L230 605 L153 55 L68 19 L65 0 L580 0 L605 180 L605 180 Z " />
<glyph glyph-name="Edieresis" unicode="&#xcb;" horiz-adv-x="650" d="M528 735 C558 735 581 755 585 785 C590 815 572 835 542 835 C512 835 490 815 485 785 C481 755 498 735 528 735 L528 735 Z M348 735 C378 735 401 755 405 785 C410 815 392 835 362 835 C332 835 310 815 305 785 C301 755 318 735 348 735 L348 735 Z M605 180 L588 180 L513 55 L243 55 L279 313 L449 313 L480 233 L503 233 L533 448 L510 448 L457 368 L287 368 L320 605 L565 605 L607 490 L624 490 L648 660 L158 660 L155 641 L230 605 L153 55 L68 19 L65 0 L580 0 L605 180 L605 180 Z " />
<glyph glyph-name="Igrave" unicode="&#xcc;" horiz-adv-x="390" d="M300 705 L235 864 L155 864 C155 864 162 824 177 809 L288 705 L300 705 L300 705 Z M320 0 L323 19 L248 55 L325 605 L410 641 L413 660 L163 660 L160 641 L235 605 L158 55 L73 19 L70 0 L320 0 L320 0 Z " />
<glyph glyph-name="Iacute" unicode="&#xcd;" horiz-adv-x="390" d="M294 705 L306 705 L447 809 C466 824 483 864 483 864 L403 864 L294 705 L294 705 Z M320 0 L323 19 L248 55 L325 605 L410 641 L413 660 L163 660 L160 641 L235 605 L158 55 L73 19 L70 0 L320 0 L320 0 Z " />
<glyph glyph-name="Icircumflex" unicode="&#xce;" horiz-adv-x="390" d="M442 705 L331 863 L301 863 L151 705 L163 705 L306 788 L430 705 L442 705 L442 705 Z M320 0 L323 19 L248 55 L325 605 L410 641 L413 660 L163 660 L160 641 L235 605 L158 55 L73 19 L70 0 L320 0 L320 0 Z " />
<glyph glyph-name="Idieresis" unicode="&#xcf;" horiz-adv-x="390" d="M388 735 C418 735 441 755 445 785 C450 815 432 835 402 835 C372 835 350 815 345 785 C341 755 358 735 388 735 L388 735 Z M208 735 C238 735 261 755 265 785 C270 815 252 835 222 835 C192 835 170 815 165 785 C161 755 178 735 208 735 L208 735 Z M320 0 L323 19 L248 55 L325 605 L410 641 L413 660 L163 660 L160 641 L235 605 L158 55 L73 19 L70 0 L320 0 L320 0 Z " />
<glyph glyph-name="Ntilde" unicode="&#xd1;" horiz-adv-x="806" d="M382 728 C400 763 415 786 449 786 C490 786 538 728 579 728 C628 728 657 773 690 840 L677 840 C659 804 644 780 610 780 C569 780 521 838 480 838 C430 838 403 794 369 728 L382 728 L382 728 Z M158 641 L228 605 L151 55 L66 19 L63 0 L313 0 L316 19 L221 55 L285 513 C400 340 514 167 629 -6 L664 -6 L750 604 L830 640 L833 659 L588 659 L585 640 L680 604 L620 181 L305 659 L160 659 L158 641 L158 641 Z " />
<glyph glyph-name="Ograve" unicode="&#xd2;" horiz-adv-x="807" d="M494 705 L429 864 L349 864 C349 864 356 824 371 809 L482 705 L494 705 L494 705 Z M217 363 C239 518 341 621 473 621 C626 621 710 490 682 293 C661 141 560 40 430 40 C275 40 190 169 217 363 L217 363 Z M116 328 C88 125 203 -10 403 -10 C603 -10 755 125 783 328 C812 533 698 670 498 670 C298 670 145 533 116 328 L116 328 Z " />
<glyph glyph-name="Oacute" unicode="&#xd3;" horiz-adv-x="807" d="M488 705 L500 705 L641 809 C660 824 677 864 677 864 L597 864 L488 705 L488 705 Z M217 363 C239 518 341 621 473 621 C626 621 710 490 682 293 C661 141 560 40 430 40 C275 40 190 169 217 363 L217 363 Z M116 328 C88 125 203 -10 403 -10 C603 -10 755 125 783 328 C812 533 698 670 498 670 C298 670 145 533 116 328 L116 328 Z " />
<glyph glyph-name="Ocircumflex" unicode="&#xd4;" horiz-adv-x="807" d="M636 705 L525 863 L495 863 L345 705 L357 705 L500 788 L624 705 L636 705 L636 705 Z M217 363 C239 518 341 621 473 621 C626 621 710 490 682 293 C661 141 560 40 430 40 C275 40 190 169 217 363 L217 363 Z M116 328 C88 125 203 -10 403 -10 C603 -10 755 125 783 328 C812 533 698 670 498 670 C298 670 145 533 116 328 L116 328 Z " />
<glyph glyph-name="Otilde" unicode="&#xd5;" horiz-adv-x="807" d="M351 728 C369 763 384 786 418 786 C459 786 507 728 548 728 C597 728 626 773 659 840 L646 840 C628 804 613 780 579 780 C538 780 490 838 449 838 C399 838 372 794 338 728 L351 728 L351 728 Z M217 363 C239 518 341 621 473 621 C626 621 710 490 682 293 C661 141 560 40 430 40 C275 40 190 169 217 363 L217 363 Z M116 328 C88 125 203 -10 403 -10 C603 -10 755 125 783 328 C812 533 698 670 498 670 C298 670 145 533 116 328 L116 328 Z " />
<glyph glyph-name="Odieresis" unicode="&#xd6;" horiz-adv-x="807" d="M582 735 C612 735 635 755 639 785 C644 815 626 835 596 835 C566 835 544 815 539 785 C535 755 552 735 582 735 L582 735 Z M402 735 C432 735 455 755 459 785 C464 815 446 835 416 835 C386 835 364 815 359 785 C355 755 372 735 402 735 L402 735 Z M217 363 C239 518 341 621 473 621 C626 621 710 490 682 293 C661 141 560 40 430 40 C275 40 190 169 217 363 L217 363 Z M116 328 C88 125 203 -10 403 -10 C603 -10 755 125 783 328 C812 533 698 670 498 670 C298 670 145 533 116 328 L116 328 Z " />
<glyph glyph-name="Oslash" unicode="&#xd8;" horiz-adv-x="807" d="M116 328 C102 230 122 148 169 89 L68 -9 L137 -9 L202 55 C251 14 319 -9 401 -9 C601 -9 753 126 781 329 C795 429 775 513 729 573 L829 672 L760 672 L695 608 C646 649 578 672 496 672 C296 672 143 535 114 330 L116 328 L116 328 Z M634 548 L237 160 C212 214 204 284 215 366 C237 521 340 624 472 624 C542 624 597 597 634 549 L634 548 L634 548 Z M659 506 C684 451 692 379 681 296 C659 144 558 43 428 43 C357 43 301 70 264 118 L659 506 Z " />
<glyph glyph-name="Ugrave" unicode="&#xd9;" horiz-adv-x="811" d="M521 705 L456 864 L376 864 C376 864 383 824 398 809 L509 705 L521 705 L521 705 Z M230 605 L178 234 C157 88 248 -10 405 -10 C561 -10 678 88 699 234 L751 605 L836 641 L839 660 L589 660 L586 641 L681 605 L626 213 C612 114 538 48 440 48 C321 48 253 129 270 250 L320 605 L405 641 L408 660 L158 660 L155 641 L230 605 L230 605 Z " />
<glyph glyph-name="Uacute" unicode="&#xda;" horiz-adv-x="811" d="M505 705 L517 705 L658 809 C677 824 694 864 694 864 L614 864 L505 705 L505 705 Z M230 605 L178 234 C157 88 248 -10 405 -10 C561 -10 678 88 699 234 L751 605 L836 641 L839 660 L589 660 L586 641 L681 605 L626 213 C612 114 538 48 440 48 C321 48 253 129 270 250 L320 605 L405 641 L408 660 L158 660 L155 641 L230 605 L230 605 Z " />
<glyph glyph-name="Ucircumflex" unicode="&#xdb;" horiz-adv-x="811" d="M663 705 L552 863 L522 863 L372 705 L384 705 L527 788 L651 705 L663 705 L663 705 Z M230 605 L178 234 C157 88 248 -10 405 -10 C561 -10 678 88 699 234 L751 605 L836 641 L839 660 L589 660 L586 641 L681 605 L626 213 C612 114 538 48 440 48 C321 48 253 129 270 250 L320 605 L405 641 L408 660 L158 660 L155 641 L230 605 L230 605 Z " />
<glyph glyph-name="Udieresis" unicode="&#xdc;" horiz-adv-x="811" d="M609 735 C639 735 662 755 666 785 C671 815 653 835 623 835 C593 835 571 815 566 785 C562 755 579 735 609 735 L609 735 Z M429 735 C459 735 482 755 486 785 C491 815 473 835 443 835 C413 835 391 815 386 785 C382 755 399 735 429 735 L429 735 Z M230 605 L178 234 C157 88 248 -10 405 -10 C561 -10 678 88 699 234 L751 605 L836 641 L839 660 L589 660 L586 641 L681 605 L626 213 C612 114 538 48 440 48 C321 48 253 129 270 250 L320 605 L405 641 L408 660 L158 660 L155 641 L230 605 L230 605 Z " />
<glyph glyph-name="Yacute" unicode="&#xdd;" horiz-adv-x="718" d="M455 705 L467 705 L608 809 C627 824 644 864 644 864 L564 864 L455 705 L455 705 Z M358 660 L124 660 L121 642 L181 610 L364 305 L329 55 L234 19 L231 0 L501 0 L504 19 L419 55 L454 309 L713 621 L774 647 L776 661 L564 661 L561 642 L633 606 L433 365 L282 606 L355 642 L358 660 L358 660 Z " />
<glyph glyph-name="agrave" unicode="&#xe0;" horiz-adv-x="489" d="M317 530 L255 707 L175 707 C175 707 181 662 196 646 L305 530 L317 530 L317 530 Z M189 337 C196 381 230 414 269 414 C329 414 355 380 348 329 L338 258 C165 219 70 156 61 89 C52 30 91 -10 156 -10 C213 -10 269 10 311 50 C316 13 344 -11 388 -11 C427 -11 467 11 487 43 L485 49 C484 47 469 46 448 46 C411 46 389 54 390 66 L430 349 C439 415 397 459 301 459 C200 459 115 404 105 331 C102 313 108 302 122 303 L179 303 L184 308 L189 337 L189 337 Z M332 221 L312 76 C285 58 248 49 208 49 C162 49 134 73 139 108 C145 151 211 193 332 221 L332 221 Z " />
<glyph glyph-name="aacute" unicode="&#xe1;" horiz-adv-x="489" d="M311 530 L323 530 L466 646 C485 662 503 707 503 707 L423 707 L311 530 L311 530 Z M189 337 C196 381 230 414 269 414 C329 414 355 380 348 329 L338 258 C165 219 70 156 61 89 C52 30 91 -10 156 -10 C213 -10 269 10 311 50 C316 13 344 -11 388 -11 C427 -11 467 11 487 43 L485 49 C484 47 469 46 448 46 C411 46 389 54 390 66 L430 349 C439 415 397 459 301 459 C200 459 115 404 105 331 C102 313 108 302 122 303 L179 303 L184 308 L189 337 L189 337 Z M332 221 L312 76 C285 58 248 49 208 49 C162 49 134 73 139 108 C145 151 211 193 332 221 L332 221 Z " />
<glyph glyph-name="acircumflex" unicode="&#xe2;" horiz-adv-x="489" d="M459 530 L351 705 L321 705 L168 530 L180 530 L325 623 L447 530 L459 530 L459 530 Z M189 337 C196 381 230 414 269 414 C329 414 355 380 348 329 L338 258 C165 219 70 156 61 89 C52 30 91 -10 156 -10 C213 -10 269 10 311 50 C316 13 344 -11 388 -11 C427 -11 467 11 487 43 L485 49 C484 47 469 46 448 46 C411 46 389 54 390 66 L430 349 C439 415 397 459 301 459 C200 459 115 404 105 331 C102 313 108 302 122 303 L179 303 L184 308 L189 337 L189 337 Z M332 221 L312 76 C285 58 248 49 208 49 C162 49 134 73 139 108 C145 151 211 193 332 221 L332 221 Z " />
<glyph glyph-name="atilde" unicode="&#xe3;" horiz-adv-x="489" d="M161 555 C179 594 195 620 229 620 C270 620 316 555 357 555 C406 555 435 605 470 680 L457 680 C438 640 422 613 388 613 C347 613 301 678 260 678 C210 678 182 629 148 555 L161 555 L161 555 Z M189 337 C196 381 230 414 269 414 C329 414 355 380 348 329 L338 258 C165 219 70 156 61 89 C52 30 91 -10 156 -10 C213 -10 269 10 311 50 C316 13 344 -11 388 -11 C427 -11 467 11 487 43 L485 49 C484 47 469 46 448 46 C411 46 389 54 390 66 L430 349 C439 415 397 459 301 459 C200 459 115 404 105 331 C102 313 108 302 122 303 L179 303 L184 308 L189 337 L189 337 Z M332 221 L312 76 C285 58 248 49 208 49 C162 49 134 73 139 108 C145 151 211 193 332 221 L332 221 Z " />
<glyph glyph-name="adieresis" unicode="&#xe4;" horiz-adv-x="489" d="M392 570 C422 570 445 590 449 620 C453 650 436 670 406 670 C376 670 353 650 349 620 C345 590 362 570 392 570 L392 570 Z M212 570 C242 570 265 590 269 620 C273 650 256 670 226 670 C196 670 173 650 169 620 C165 590 182 570 212 570 L212 570 Z M189 337 C196 381 230 414 269 414 C329 414 355 380 348 329 L338 258 C165 219 70 156 61 89 C52 30 91 -10 156 -10 C213 -10 269 10 311 50 C316 13 344 -11 388 -11 C427 -11 467 11 487 43 L485 49 C484 47 469 46 448 46 C411 46 389 54 390 66 L430 349 C439 415 397 459 301 459 C200 459 115 404 105 331 C102 313 108 302 122 303 L179 303 L184 308 L189 337 L189 337 Z M332 221 L312 76 C285 58 248 49 208 49 C162 49 134 73 139 108 C145 151 211 193 332 221 L332 221 Z " />
<glyph glyph-name="aring" unicode="&#xe5;" horiz-adv-x="489" d="M279 625 C283 656 300 677 320 677 C343 677 354 651 349 611 C345 583 327 559 310 559 C288 559 274 589 279 625 L279 625 Z M229 618 C223 573 256 535 302 535 C348 535 393 574 399 620 C406 669 377 701 326 701 C275 701 236 668 229 618 L229 618 Z M189 337 C196 381 230 414 269 414 C329 414 355 380 348 329 L338 258 C165 219 70 156 61 89 C52 30 91 -10 156 -10 C213 -10 269 10 311 50 C316 13 344 -11 388 -11 C427 -11 467 11 487 43 L485 49 C484 47 469 46 448 46 C411 46 389 54 390 66 L430 349 C439 415 397 459 301 459 C200 459 115 404 105 331 C102 313 108 302 122 303 L179 303 L184 308 L189 337 L189 337 Z M332 221 L312 76 C285 58 248 49 208 49 C162 49 134 73 139 108 C145 151 211 193 332 221 L332 221 Z " />
<glyph glyph-name="ccedilla" unicode="&#xe7;" horiz-adv-x="477" d="M444 105 C400 80 348 64 313 64 C208 64 148 138 164 250 C178 350 235 416 308 416 C343 416 378 397 395 368 L419 326 L426 326 L467 355 C492 375 488 386 475 411 C458 440 407 460 346 460 C207 460 100 358 79 205 C61 80 128 -5 249 -10 C241 -23 214 -67 177 -129 L204 -142 C238 -149 260 -164 258 -179 C255 -199 238 -212 215 -212 C184 -212 157 -206 147 -196 L146 -207 C165 -227 197 -240 225 -240 C275 -240 314 -209 320 -163 C325 -128 295 -96 242 -81 C265 -42 281 -16 285 -9 C346 0 408 39 446 94 L448 104 L444 105 L444 105 Z " />
<glyph glyph-name="egrave" unicode="&#xe8;" horiz-adv-x="483" d="M332 530 L270 707 L190 707 C190 707 196 662 211 646 L320 530 L332 530 L332 530 Z M171 288 C192 366 242 416 303 416 C363 416 398 366 398 288 L171 288 Z M444 105 C400 80 348 64 313 64 C211 64 152 134 164 242 L432 242 L469 247 C487 375 430 460 327 460 C200 460 101 358 80 205 C62 76 134 -10 261 -10 C330 -10 404 32 447 95 L449 105 L444 105 L444 105 Z " />
<glyph glyph-name="eacute" unicode="&#xe9;" horiz-adv-x="483" d="M326 530 L338 530 L481 646 C500 662 518 707 518 707 L438 707 L326 530 L326 530 Z M171 288 C192 366 242 416 303 416 C363 416 398 366 398 288 L171 288 Z M444 105 C400 80 348 64 313 64 C211 64 152 134 164 242 L432 242 L469 247 C487 375 430 460 327 460 C200 460 101 358 80 205 C62 76 134 -10 261 -10 C330 -10 404 32 447 95 L449 105 L444 105 L444 105 Z " />
<glyph glyph-name="ecircumflex" unicode="&#xea;" horiz-adv-x="483" d="M474 530 L366 705 L336 705 L183 530 L195 530 L340 623 L462 530 L474 530 L474 530 Z M171 288 C192 366 242 416 303 416 C363 416 398 366 398 288 L171 288 Z M444 105 C400 80 348 64 313 64 C211 64 152 134 164 242 L432 242 L469 247 C487 375 430 460 327 460 C200 460 101 358 80 205 C62 76 134 -10 261 -10 C330 -10 404 32 447 95 L449 105 L444 105 L444 105 Z " />
<glyph glyph-name="edieresis" unicode="&#xeb;" horiz-adv-x="483" d="M422 570 C452 570 475 590 479 620 C483 650 466 670 436 670 C406 670 383 650 379 620 C375 590 392 570 422 570 L422 570 Z M242 570 C272 570 295 590 299 620 C303 650 286 670 256 670 C226 670 203 650 199 620 C195 590 212 570 242 570 L242 570 Z M171 288 C192 366 242 416 303 416 C363 416 398 366 398 288 L171 288 Z M444 105 C400 80 348 64 313 64 C211 64 152 134 164 242 L432 242 L469 247 C487 375 430 460 327 460 C200 460 101 358 80 205 C62 76 134 -10 261 -10 C330 -10 404 32 447 95 L449 105 L444 105 L444 105 Z " />
<glyph glyph-name="igrave" unicode="&#xec;" horiz-adv-x="317" d="M234 530 L172 707 L92 707 C92 707 98 662 113 646 L222 530 L234 530 L234 530 Z M111 403 L143 371 C158 357 168 347 168 347 L126 50 L57 18 L54 0 L264 0 L267 18 L206 50 L264 460 L248 460 L111 409 L111 403 L111 403 Z " />
<glyph glyph-name="iacute" unicode="&#xed;" horiz-adv-x="317" d="M228 530 L240 530 L383 646 C402 662 420 707 420 707 L340 707 L228 530 L228 530 Z M111 403 L143 371 C158 357 168 347 168 347 L126 50 L57 18 L54 0 L264 0 L267 18 L206 50 L264 460 L248 460 L111 409 L111 403 L111 403 Z " />
<glyph glyph-name="icircumflex" unicode="&#xee;" horiz-adv-x="317" d="M376 530 L268 705 L238 705 L85 530 L97 530 L242 623 L364 530 L376 530 L376 530 Z M111 403 L143 371 C158 357 168 347 168 347 L126 50 L57 18 L54 0 L264 0 L267 18 L206 50 L264 460 L248 460 L111 409 L111 403 L111 403 Z " />
<glyph glyph-name="idieresis" unicode="&#xef;" horiz-adv-x="317" d="M324 570 C354 570 377 590 381 620 C385 650 368 670 338 670 C308 670 285 650 281 620 C277 590 294 570 324 570 L324 570 Z M144 570 C174 570 197 590 201 620 C205 650 188 670 158 670 C128 670 105 650 101 620 C97 590 114 570 144 570 L144 570 Z M111 403 L143 371 C158 357 168 347 168 347 L126 50 L57 18 L54 0 L264 0 L267 18 L206 50 L264 460 L248 460 L111 409 L111 403 L111 403 Z " />
<glyph glyph-name="ntilde" unicode="&#xf1;" horiz-adv-x="590" d="M239 555 C257 594 273 620 307 620 C348 620 394 555 435 555 C484 555 513 605 548 680 L535 680 C516 640 500 613 466 613 C425 613 379 678 338 678 C288 678 260 629 226 555 L239 555 L239 555 Z M107 403 L139 371 C154 357 164 347 164 347 L122 50 L53 18 L50 0 L265 0 L268 18 L202 50 L244 351 C273 375 309 390 359 390 C420 390 455 353 447 297 L412 50 L338 18 L335 0 L550 0 L553 18 L492 50 L533 343 C543 413 495 460 413 460 C356 460 301 429 248 382 L248 384 L246 384 C250 417 255 461 255 461 L239 461 L107 410 L107 403 L107 403 Z " />
<glyph glyph-name="ograve" unicode="&#xf2;" horiz-adv-x="538" d="M349 530 L287 707 L207 707 C207 707 213 662 228 646 L337 530 L349 530 L349 530 Z M174 225 C190 341 239 418 314 418 C399 418 444 341 428 225 C411 109 362 32 287 32 C202 32 157 109 174 225 L174 225 Z M82 225 C62 84 137 -10 268 -10 C413 -10 500 84 520 225 C539 366 465 460 334 460 C189 460 101 366 82 225 L82 225 Z " />
<glyph glyph-name="oacute" unicode="&#xf3;" horiz-adv-x="538" d="M343 530 L355 530 L498 646 C517 662 535 707 535 707 L455 707 L343 530 L343 530 Z M174 225 C190 341 239 418 314 418 C399 418 444 341 428 225 C411 109 362 32 287 32 C202 32 157 109 174 225 L174 225 Z M82 225 C62 84 137 -10 268 -10 C413 -10 500 84 520 225 C539 366 465 460 334 460 C189 460 101 366 82 225 L82 225 Z " />
<glyph glyph-name="ocircumflex" unicode="&#xf4;" horiz-adv-x="538" d="M491 530 L383 705 L353 705 L200 530 L212 530 L357 623 L479 530 L491 530 L491 530 Z M174 225 C190 341 239 418 314 418 C399 418 444 341 428 225 C411 109 362 32 287 32 C202 32 157 109 174 225 L174 225 Z M82 225 C62 84 137 -10 268 -10 C413 -10 500 84 520 225 C539 366 465 460 334 460 C189 460 101 366 82 225 L82 225 Z " />
<glyph glyph-name="otilde" unicode="&#xf5;" horiz-adv-x="538" d="M208 555 C226 594 242 620 276 620 C317 620 363 555 404 555 C453 555 482 605 517 680 L504 680 C485 640 469 613 435 613 C394 613 348 678 307 678 C257 678 229 629 195 555 L208 555 L208 555 Z M174 225 C190 341 239 418 314 418 C399 418 444 341 428 225 C411 109 362 32 287 32 C202 32 157 109 174 225 L174 225 Z M82 225 C62 84 137 -10 268 -10 C413 -10 500 84 520 225 C539 366 465 460 334 460 C189 460 101 366 82 225 L82 225 Z " />
<glyph glyph-name="odieresis" unicode="&#xf6;" horiz-adv-x="538" d="M439 570 C469 570 492 590 496 620 C500 650 483 670 453 670 C423 670 400 650 396 620 C392 590 409 570 439 570 L439 570 Z M259 570 C289 570 312 590 316 620 C320 650 303 670 273 670 C243 670 220 650 216 620 C212 590 229 570 259 570 L259 570 Z M174 225 C190 341 239 418 314 418 C399 418 444 341 428 225 C411 109 362 32 287 32 C202 32 157 109 174 225 L174 225 Z M82 225 C62 84 137 -10 268 -10 C413 -10 500 84 520 225 C539 366 465 460 334 460 C189 460 101 366 82 225 L82 225 Z " />
<glyph glyph-name="oslash" unicode="&#xf8;" horiz-adv-x="538" d="M82 225 C72 158 84 101 113 60 L49 -10 L115 -10 L148 26 C178 3 219 -10 267 -10 C412 -10 499 84 519 225 C528 292 516 349 487 390 L552 460 L486 460 L453 424 C422 447 382 460 334 460 C189 460 101 366 82 225 L82 225 Z M404 372 L176 127 C169 155 167 188 173 225 C189 341 238 418 313 418 C353 418 383 401 403 371 L404 372 L404 372 Z M424 322 C431 294 433 261 427 224 C411 108 362 31 287 31 C247 31 217 48 197 78 L424 322 Z " />
<glyph glyph-name="ugrave" unicode="&#xf9;" horiz-adv-x="552" d="M351 530 L289 707 L209 707 C209 707 215 662 230 646 L339 530 L351 530 L351 530 Z M437 400 L395 101 C362 76 320 63 280 63 C220 63 185 100 193 155 L234 450 L89 450 L87 432 L147 400 L106 107 C96 37 144 -10 224 -10 C269 -10 329 16 392 68 L382 0 L532 0 L535 18 L469 50 L525 450 L375 450 L373 432 L437 400 L437 400 Z " />
<glyph glyph-name="uacute" unicode="&#xfa;" horiz-adv-x="552" d="M345 530 L357 530 L500 646 C519 662 537 707 537 707 L457 707 L345 530 L345 530 Z M437 400 L395 101 C362 76 320 63 280 63 C220 63 185 100 193 155 L234 450 L89 450 L87 432 L147 400 L106 107 C96 37 144 -10 224 -10 C269 -10 329 16 392 68 L382 0 L532 0 L535 18 L469 50 L525 450 L375 450 L373 432 L437 400 L437 400 Z " />
<glyph glyph-name="ucircumflex" unicode="&#xfb;" horiz-adv-x="552" d="M493 530 L385 705 L355 705 L202 530 L214 530 L359 623 L481 530 L493 530 L493 530 Z M437 400 L395 101 C362 76 320 63 280 63 C220 63 185 100 193 155 L234 450 L89 450 L87 432 L147 400 L106 107 C96 37 144 -10 224 -10 C269 -10 329 16 392 68 L382 0 L532 0 L535 18 L469 50 L525 450 L375 450 L373 432 L437 400 L437 400 Z " />
<glyph glyph-name="udieresis" unicode="&#xfc;" horiz-adv-x="552" d="M441 570 C471 570 494 590 498 620 C502 650 485 670 455 670 C425 670 402 650 398 620 C394 590 411 570 441 570 L441 570 Z M261 570 C291 570 314 590 318 620 C322 650 305 670 275 670 C245 670 222 650 218 620 C214 590 231 570 261 570 L261 570 Z M437 400 L395 101 C362 76 320 63 280 63 C220 63 185 100 193 155 L234 450 L89 450 L87 432 L147 400 L106 107 C96 37 144 -10 224 -10 C269 -10 329 16 392 68 L382 0 L532 0 L535 18 L469 50 L525 450 L375 450 L373 432 L437 400 L437 400 Z " />
<glyph glyph-name="yacute" unicode="&#xfd;" horiz-adv-x="478" d="M340 530 L352 530 L495 646 C514 662 532 707 532 707 L452 707 L340 530 L340 530 Z M283 450 L38 450 L36 432 L101 400 L228 10 L187 -65 C153 -131 121 -156 74 -156 L29 -156 L25 -160 L17 -211 C14 -232 23 -240 47 -240 C112 -240 161 -195 222 -80 L484 395 L563 431 L565 450 L370 450 L368 431 L440 395 L284 111 L188 400 L280 432 L283 450 L283 450 Z " />
<glyph glyph-name="ydieresis" unicode="&#xff;" horiz-adv-x="478" d="M436 570 C466 570 489 590 493 620 C497 650 480 670 450 670 C420 670 397 650 393 620 C389 590 406 570 436 570 L436 570 Z M256 570 C286 570 309 590 313 620 C317 650 300 670 270 670 C240 670 217 650 213 620 C209 590 226 570 256 570 L256 570 Z M283 450 L38 450 L36 432 L101 400 L228 10 L187 -65 C153 -131 121 -156 74 -156 L29 -156 L25 -160 L17 -211 C14 -232 23 -240 47 -240 C112 -240 161 -195 222 -80 L484 395 L563 431 L565 450 L370 450 L368 431 L440 395 L284 111 L188 400 L280 432 L283 450 L283 450 Z " />
<glyph glyph-name="Amacron" unicode="&#x100;" horiz-adv-x="748" d="M345 765 L611 765 L618 815 L352 815 L345 765 L345 765 Z M466 0 L713 0 L715 16 L655 45 C598 252 542 459 485 666 L441 666 L101 51 L19 19 L16 1 L242 1 L245 19 L169 51 L260 220 L514 220 L514 222 L560 51 L468 19 L466 0 L466 0 Z M501 275 L290 275 L430 537 L501 275 L501 275 Z " />
<glyph glyph-name="amacron" unicode="&#x101;" horiz-adv-x="489" d="M178 595 L444 595 L451 645 L185 645 L178 595 L178 595 Z M189 337 C196 381 230 414 269 414 C329 414 355 380 348 329 L338 258 C165 219 70 156 61 89 C52 30 91 -10 156 -10 C213 -10 269 10 311 50 C316 13 344 -11 388 -11 C427 -11 467 11 487 43 L485 49 C484 47 469 46 448 46 C411 46 389 54 390 66 L430 349 C439 415 397 459 301 459 C200 459 115 404 105 331 C102 313 108 302 122 303 L179 303 L184 308 L189 337 L189 337 Z M332 221 L312 76 C285 58 248 49 208 49 C162 49 134 73 139 108 C145 151 211 193 332 221 L332 221 Z " />
<glyph glyph-name="Abreve" unicode="&#x102;" horiz-adv-x="748" d="M356 864 L342 864 C366 756 402 714 470 714 C538 714 586 756 640 864 L626 864 C594 800 553 774 479 774 C405 774 370 800 356 864 L356 864 Z M466 0 L713 0 L715 16 L655 45 C598 252 542 459 485 666 L441 666 L101 51 L19 19 L16 1 L242 1 L245 19 L169 51 L260 220 L514 220 L514 222 L560 51 L468 19 L466 0 L466 0 Z M501 275 L290 275 L430 537 L501 275 L501 275 Z " />
<glyph glyph-name="abreve" unicode="&#x103;" horiz-adv-x="489" d="M191 707 L177 707 C199 587 235 540 303 540 C371 540 419 587 475 707 L461 707 C428 635 386 607 312 607 C238 607 204 635 191 707 L191 707 Z M189 337 C196 381 230 414 269 414 C329 414 355 380 348 329 L338 258 C165 219 70 156 61 89 C52 30 91 -10 156 -10 C213 -10 269 10 311 50 C316 13 344 -11 388 -11 C427 -11 467 11 487 43 L485 49 C484 47 469 46 448 46 C411 46 389 54 390 66 L430 349 C439 415 397 459 301 459 C200 459 115 404 105 331 C102 313 108 302 122 303 L179 303 L184 308 L189 337 L189 337 Z M332 221 L312 76 C285 58 248 49 208 49 C162 49 134 73 139 108 C145 151 211 193 332 221 L332 221 Z " />
<glyph glyph-name="Cacute" unicode="&#x106;" horiz-adv-x="717" d="M468 705 L480 705 L621 809 C640 824 657 864 657 864 L577 864 L468 705 L468 705 Z M632 39 L664 197 C658 197 653 198 648 198 C626 165 598 122 577 89 C574 85 569 80 565 77 C516 54 457 40 407 40 C264 40 185 160 211 341 C234 508 350 620 501 620 C542 620 585 608 619 589 L619 589 C624 586 629 581 630 576 C643 539 659 488 671 451 C676 451 683 452 689 452 L706 625 C677 653 598 671 508 671 C302 671 144 527 114 311 C87 119 201 -9 400 -9 C494 -9 587 11 633 40 L632 39 L632 39 Z " />
<glyph glyph-name="cacute" unicode="&#x107;" horiz-adv-x="477" d="M333 530 L345 530 L488 646 C507 662 525 707 525 707 L445 707 L333 530 L333 530 Z M444 105 C400 80 348 64 313 64 C208 64 148 138 164 250 C178 350 235 416 308 416 C343 416 378 397 395 368 L419 326 L426 326 L467 355 C492 375 488 386 475 411 C458 440 407 460 346 460 C207 460 100 358 79 205 C61 76 133 -10 260 -10 C329 -10 403 32 446 95 L448 105 L444 105 L444 105 Z " />
<glyph glyph-name="Ccaron" unicode="&#x10c;" horiz-adv-x="717" d="M504 710 L659 867 L647 867 L499 784 L380 867 L368 867 L474 710 L504 710 L504 710 Z M632 39 L664 197 C658 197 653 198 648 198 C626 165 598 122 577 89 C574 85 569 80 565 77 C516 54 457 40 407 40 C264 40 185 160 211 341 C234 508 350 620 501 620 C542 620 585 608 619 589 L619 589 C624 586 629 581 630 576 C643 539 659 488 671 451 C676 451 683 452 689 452 L706 625 C677 653 598 671 508 671 C302 671 144 527 114 311 C87 119 201 -9 400 -9 C494 -9 587 11 633 40 L632 39 L632 39 Z " />
<glyph glyph-name="ccaron" unicode="&#x10d;" horiz-adv-x="477" d="M349 535 L507 710 L495 710 L346 617 L228 710 L216 710 L319 535 L349 535 L349 535 Z M444 105 C400 80 348 64 313 64 C208 64 148 138 164 250 C178 350 235 416 308 416 C343 416 378 397 395 368 L419 326 L426 326 L467 355 C492 375 488 386 475 411 C458 440 407 460 346 460 C207 460 100 358 79 205 C61 76 133 -10 260 -10 C329 -10 403 32 446 95 L448 105 L444 105 L444 105 Z " />
<glyph glyph-name="Dcaron" unicode="&#x10e;" horiz-adv-x="775" d="M550 710 L705 867 L693 867 L545 784 L426 867 L414 867 L520 710 L550 710 L550 710 Z M356 0 C565 0 723 130 756 360 C783 558 652 660 433 660 L158 660 L155 641 L230 605 L153 55 L68 19 L65 0 L356 0 L356 0 Z M243 55 L320 605 L399 605 C578 605 684 510 658 325 C634 153 517 55 362 55 L243 55 L243 55 Z " />
<glyph glyph-name="dcaron" unicode="&#x10f;" horiz-adv-x="574" d="M732 750 L657 750 L607 563 L619 563 L749 761 C738 744 742 750 732 750 L732 750 Z M526 0 L529 18 L463 50 L562 754 L546 754 L411 715 L411 710 L450 675 C461 665 468 658 468 658 L439 450 C411 456 381 460 352 460 C209 460 98 354 75 194 C58 72 117 -10 221 -10 C281 -10 344 15 384 54 L385 0 L526 0 L526 0 Z M426 363 L388 89 C364 70 325 58 286 58 C195 58 143 123 157 220 C173 336 243 413 331 413 C331 413 368 394 426 364 L426 363 L426 363 Z " />
<glyph glyph-name="Emacron" unicode="&#x112;" horiz-adv-x="650" d="M310 765 L576 765 L583 815 L317 815 L310 765 L310 765 Z M605 180 L588 180 L513 55 L243 55 L279 313 L449 313 L480 233 L503 233 L533 448 L510 448 L457 368 L287 368 L320 605 L565 605 L607 490 L624 490 L648 660 L158 660 L155 641 L230 605 L153 55 L68 19 L65 0 L580 0 L605 180 L605 180 Z " />
<glyph glyph-name="emacron" unicode="&#x113;" horiz-adv-x="483" d="M208 595 L474 595 L481 645 L215 645 L208 595 L208 595 Z M171 288 C192 366 242 416 303 416 C363 416 398 366 398 288 L171 288 Z M444 105 C400 80 348 64 313 64 C211 64 152 134 164 242 L432 242 L469 247 C487 375 430 460 327 460 C200 460 101 358 80 205 C62 76 134 -10 261 -10 C330 -10 404 32 447 95 L449 105 L444 105 L444 105 Z " />
<glyph glyph-name="Edot" unicode="&#x116;" horiz-adv-x="650" d="M442 725 C478 725 505 749 510 785 C515 821 495 845 459 845 C423 845 395 821 390 785 C385 749 406 725 442 725 L442 725 Z M605 180 L588 180 L513 55 L243 55 L279 313 L449 313 L480 233 L503 233 L533 448 L510 448 L457 368 L287 368 L320 605 L565 605 L607 490 L624 490 L648 660 L158 660 L155 641 L230 605 L153 55 L68 19 L65 0 L580 0 L605 180 L605 180 Z " />
<glyph glyph-name="edot" unicode="&#x117;" horiz-adv-x="483" d="M344 583 C380 583 407 607 412 643 C417 679 397 703 361 703 C325 703 297 679 292 643 C287 607 308 583 344 583 L344 583 Z M171 288 C192 366 242 416 303 416 C363 416 398 366 398 288 L171 288 Z M444 105 C400 80 348 64 313 64 C211 64 152 134 164 242 L432 242 L469 247 C487 375 430 460 327 460 C200 460 101 358 80 205 C62 76 134 -10 261 -10 C330 -10 404 32 447 95 L449 105 L444 105 L444 105 Z " />
<glyph glyph-name="Ecaron" unicode="&#x11a;" horiz-adv-x="650" d="M450 710 L605 867 L593 867 L445 784 L326 867 L314 867 L420 710 L450 710 L450 710 Z M605 180 L588 180 L513 55 L243 55 L279 313 L449 313 L480 233 L503 233 L533 448 L510 448 L457 368 L287 368 L320 605 L565 605 L607 490 L624 490 L648 660 L158 660 L155 641 L230 605 L153 55 L68 19 L65 0 L580 0 L605 180 L605 180 Z " />
<glyph glyph-name="ecaron" unicode="&#x11b;" horiz-adv-x="483" d="M342 535 L500 710 L488 710 L339 617 L221 710 L209 710 L312 535 L342 535 L342 535 Z M171 288 C192 366 242 416 303 416 C363 416 398 366 398 288 L171 288 Z M444 105 C400 80 348 64 313 64 C211 64 152 134 164 242 L432 242 L469 247 C487 375 430 460 327 460 C200 460 101 358 80 205 C62 76 134 -10 261 -10 C330 -10 404 32 447 95 L449 105 L444 105 L444 105 Z " />
<glyph glyph-name="Gbreve" unicode="&#x11e;" horiz-adv-x="774" d="M385 864 L371 864 C395 756 431 714 499 714 C567 714 615 756 669 864 L655 864 C623 800 582 774 508 774 C434 774 399 800 385 864 L385 864 Z M687 235 L767 271 L770 290 L520 290 L517 271 L597 235 L573 67 C542 56 493 49 438 49 C278 49 187 166 212 341 C235 508 355 620 512 620 C558 620 604 608 640 588 C644 585 649 580 651 574 C663 537 679 487 692 450 C697 450 703 451 709 451 L727 624 C698 652 615 670 519 670 C307 670 145 526 115 310 C88 118 203 -10 402 -10 C511 -10 616 24 665 74 L687 235 L687 235 Z " />
<glyph glyph-name="gbreve" unicode="&#x11f;" horiz-adv-x="546" d="M227 707 L213 707 C235 587 271 540 339 540 C407 540 455 587 511 707 L497 707 C464 635 422 607 348 607 C274 607 240 635 227 707 L227 707 Z M204 303 C214 374 251 421 310 421 C372 421 407 372 397 299 C387 226 351 178 295 178 C230 178 193 228 204 303 L204 303 Z M122 300 C114 239 135 190 179 163 C123 143 84 109 79 74 C74 33 100 4 146 -6 C90 -24 47 -84 42 -123 C32 -193 96 -239 202 -239 C343 -239 447 -169 462 -65 C473 11 441 61 340 61 L218 61 C176 61 150 79 154 107 C157 127 175 145 201 152 C222 144 247 140 275 140 C393 140 463 206 477 304 C482 343 475 377 457 403 L550 398 L558 452 L412 442 C388 455 357 462 321 462 C204 462 134 398 120 302 L122 300 L122 300 Z M182 -8 L290 -8 C367 -8 393 -39 386 -85 C376 -160 307 -210 216 -210 C146 -210 106 -170 114 -111 C121 -61 150 -8 182 -8 L182 -8 Z " />
<glyph glyph-name="Itilde" unicode="&#x128;" horiz-adv-x="390" d="M155 705 C174 744 189 770 223 770 C264 770 310 705 351 705 C400 705 429 755 464 830 L451 830 C432 790 416 763 382 763 C341 763 295 828 254 828 C204 828 176 779 142 705 L155 705 L155 705 Z M320 0 L323 19 L248 55 L325 605 L410 641 L413 660 L163 660 L160 641 L235 605 L158 55 L73 19 L70 0 L320 0 L320 0 Z " />
<glyph glyph-name="itilde" unicode="&#x129;" horiz-adv-x="317" d="M94 530 C113 569 129 595 163 595 C204 595 249 530 290 530 C339 530 369 580 403 655 L390 655 C371 615 356 588 322 588 C281 588 235 653 194 653 C144 653 116 604 81 530 L94 530 L94 530 Z M111 403 L143 371 C158 357 168 347 168 347 L126 50 L57 18 L54 0 L264 0 L267 18 L206 50 L264 460 L248 460 L111 409 L111 403 L111 403 Z " />
<glyph glyph-name="Imacron" unicode="&#x12a;" horiz-adv-x="390" d="M170 765 L436 765 L443 815 L177 815 L170 765 L170 765 Z M320 0 L323 19 L248 55 L325 605 L410 641 L413 660 L163 660 L160 641 L235 605 L158 55 L73 19 L70 0 L320 0 L320 0 Z " />
<glyph glyph-name="imacron" unicode="&#x12b;" horiz-adv-x="317" d="M105 595 L371 595 L378 645 L112 645 L105 595 L105 595 Z M111 403 L143 371 C158 357 168 347 168 347 L126 50 L57 18 L54 0 L264 0 L267 18 L206 50 L264 460 L248 460 L111 409 L111 403 L111 403 Z " />
<glyph glyph-name="Idot" unicode="&#x130;" horiz-adv-x="390" d="M297 725 C333 725 360 749 365 785 C370 821 350 845 314 845 C278 845 250 821 245 785 C240 749 261 725 297 725 L297 725 Z M320 0 L323 19 L248 55 L325 605 L410 641 L413 660 L163 660 L160 641 L235 605 L158 55 L73 19 L70 0 L320 0 L320 0 Z " />
<glyph glyph-name="dotlessi" unicode="&#x131;" horiz-adv-x="317" d="M111 403 L143 371 C158 357 168 347 168 347 L126 50 L57 18 L54 0 L264 0 L267 18 L206 50 L264 460 L248 460 L111 409 L111 403 L111 403 Z " />
<glyph glyph-name="Lacute" unicode="&#x139;" horiz-adv-x="630" d="M274 705 L286 705 L427 809 C446 824 463 864 463 864 L383 864 L274 705 L274 705 Z M591 220 L573 220 L488 55 L243 55 L320 605 L410 641 L413 660 L158 660 L155 641 L230 605 L153 55 L68 19 L65 0 L560 0 L591 220 L591 220 Z " />
<glyph glyph-name="lacute" unicode="&#x13a;" horiz-adv-x="298" d="M241 765 L254 765 L400 869 C420 884 439 924 439 924 L355 924 L241 765 L241 765 Z M143 703 L175 671 C190 657 200 647 200 647 L116 50 L47 18 L44 0 L254 0 L257 18 L196 50 L296 760 L280 760 L144 709 L143 703 L143 703 Z " />
<glyph glyph-name="Lcaron" unicode="&#x13d;" horiz-adv-x="630" d="M609 660 L534 660 L483 473 L495 473 L625 671 C614 654 619 660 609 660 L609 660 Z M591 220 L573 220 L488 55 L243 55 L320 605 L410 641 L413 660 L158 660 L155 641 L230 605 L153 55 L68 19 L65 0 L560 0 L591 220 L591 220 Z " />
<glyph glyph-name="lcaron" unicode="&#x13e;" horiz-adv-x="298" d="M465 750 L390 750 L340 563 L352 563 L482 761 C471 744 475 750 465 750 L465 750 Z M143 703 L175 671 C190 657 200 647 200 647 L116 50 L47 18 L44 0 L254 0 L257 18 L196 50 L296 760 L280 760 L144 709 L143 703 L143 703 Z " />
<glyph glyph-name="Nacute" unicode="&#x143;" horiz-adv-x="806" d="M514 705 L526 705 L667 809 C686 824 703 864 703 864 L623 864 L514 705 L514 705 Z M158 641 L228 605 L151 55 L66 19 L63 0 L313 0 L316 19 L221 55 L285 513 C400 340 514 167 629 -6 L664 -6 L750 604 L830 640 L833 659 L588 659 L585 640 L680 604 L620 181 L305 659 L160 659 L158 641 L158 641 Z " />
<glyph glyph-name="nacute" unicode="&#x144;" horiz-adv-x="590" d="M374 530 L386 530 L529 646 C548 662 566 707 566 707 L486 707 L374 530 L374 530 Z M107 403 L139 371 C154 357 164 347 164 347 L122 50 L53 18 L50 0 L265 0 L268 18 L202 50 L244 351 C273 375 309 390 359 390 C420 390 455 353 447 297 L412 50 L338 18 L335 0 L550 0 L553 18 L492 50 L533 343 C543 413 495 460 413 460 C356 460 301 429 248 382 L248 384 L246 384 C250 417 255 461 255 461 L239 461 L107 410 L107 403 L107 403 Z " />
<glyph glyph-name="Ncaron" unicode="&#x147;" horiz-adv-x="806" d="M530 710 L685 867 L673 867 L525 784 L406 867 L394 867 L500 710 L530 710 L530 710 Z M158 641 L228 605 L151 55 L66 19 L63 0 L313 0 L316 19 L221 55 L285 513 C400 340 514 167 629 -6 L664 -6 L750 604 L830 640 L833 659 L588 659 L585 640 L680 604 L620 181 L305 659 L160 659 L158 641 L158 641 Z " />
<glyph glyph-name="ncaron" unicode="&#x148;" horiz-adv-x="590" d="M390 535 L548 710 L536 710 L387 617 L269 710 L257 710 L360 535 L390 535 L390 535 Z M107 403 L139 371 C154 357 164 347 164 347 L122 50 L53 18 L50 0 L265 0 L268 18 L202 50 L244 351 C273 375 309 390 359 390 C420 390 455 353 447 297 L412 50 L338 18 L335 0 L550 0 L553 18 L492 50 L533 343 C543 413 495 460 413 460 C356 460 301 429 248 382 L248 384 L246 384 C250 417 255 461 255 461 L239 461 L107 410 L107 403 L107 403 Z " />
<glyph glyph-name="Omacron" unicode="&#x14c;" horiz-adv-x="807" d="M364 765 L630 765 L637 815 L371 815 L364 765 L364 765 Z M217 363 C239 518 341 621 473 621 C626 621 710 490 682 293 C661 141 560 40 430 40 C275 40 190 169 217 363 L217 363 Z M116 328 C88 125 203 -10 403 -10 C603 -10 755 125 783 328 C812 533 698 670 498 670 C298 670 145 533 116 328 L116 328 Z " />
<glyph glyph-name="omacron" unicode="&#x14d;" horiz-adv-x="538" d="M220 595 L486 595 L493 645 L227 645 L220 595 L220 595 Z M174 225 C190 341 239 418 314 418 C399 418 444 341 428 225 C411 109 362 32 287 32 C202 32 157 109 174 225 L174 225 Z M82 225 C62 84 137 -10 268 -10 C413 -10 500 84 520 225 C539 366 465 460 334 460 C189 460 101 366 82 225 L82 225 Z " />
<glyph glyph-name="Racute" unicode="&#x154;" horiz-adv-x="682" d="M405 705 L417 705 L558 809 C577 824 594 864 594 864 L514 864 L405 705 L405 705 Z M669 0 L672 18 L603 50 L453 304 C546 331 610 395 621 480 C637 589 559 661 427 661 L158 661 L155 642 L230 606 L153 56 L68 20 L65 1 L310 1 L313 20 L243 56 L276 291 L350 291 L521 1 L669 0 L669 0 Z M284 346 L320 606 L397 606 C483 606 534 552 522 472 C512 396 454 346 378 346 L284 346 L284 346 Z " />
<glyph glyph-name="racute" unicode="&#x155;" horiz-adv-x="378" d="M316 530 L328 530 L471 646 C490 662 508 707 508 707 L428 707 L316 530 L316 530 Z M360 460 C334 460 293 423 247 367 L248 375 L247 375 C250 408 257 459 257 459 L241 459 L108 408 L107 402 L140 370 C155 356 165 346 165 346 L123 49 L53 17 L51 -1 L266 -1 L268 17 L203 49 L243 332 C268 361 288 380 300 380 C320 380 345 375 361 368 C371 363 396 352 396 352 L403 352 C423 383 436 409 438 418 C441 442 393 459 361 459 L360 460 L360 460 Z " />
<glyph glyph-name="Rcaron" unicode="&#x158;" horiz-adv-x="682" d="M431 710 L586 867 L574 867 L426 784 L307 867 L295 867 L401 710 L431 710 L431 710 Z M669 0 L672 18 L603 50 L453 304 C546 331 610 395 621 480 C637 589 559 661 427 661 L158 661 L155 642 L230 606 L153 56 L68 20 L65 1 L310 1 L313 20 L243 56 L276 291 L350 291 L521 1 L669 0 L669 0 Z M284 346 L320 606 L397 606 C483 606 534 552 522 472 C512 396 454 346 378 346 L284 346 L284 346 Z " />
<glyph glyph-name="rcaron" unicode="&#x159;" horiz-adv-x="378" d="M332 535 L490 710 L478 710 L329 617 L211 710 L199 710 L302 535 L332 535 L332 535 Z M360 460 C334 460 293 423 247 367 L248 375 L247 375 C250 408 257 459 257 459 L241 459 L108 408 L107 402 L140 370 C155 356 165 346 165 346 L123 49 L53 17 L51 -1 L266 -1 L268 17 L203 49 L243 332 C268 361 288 380 300 380 C320 380 345 375 361 368 C371 363 396 352 396 352 L403 352 C423 383 436 409 438 418 C441 442 393 459 361 459 L360 460 L360 460 Z " />
<glyph glyph-name="Sacute" unicode="&#x15a;" horiz-adv-x="527" d="M332 705 L344 705 L485 809 C504 824 521 864 521 864 L441 864 L332 705 L332 705 Z M443 594 C454 588 463 576 466 564 C474 540 483 507 491 483 C498 483 505 484 512 484 L524 627 C498 653 437 670 372 670 C256 670 169 598 154 489 C142 406 186 352 281 309 C374 267 417 223 409 163 C398 87 346 37 278 37 C242 37 192 55 147 83 C142 86 138 91 136 96 C129 126 117 167 110 197 C107 197 103 196 100 196 L89 196 L74 35 C111 7 189 -11 270 -11 C389 -11 480 67 497 185 C510 274 461 333 357 380 C277 417 238 459 246 520 C255 581 298 621 356 621 C383 621 415 611 442 594 L443 594 L443 594 Z " />
<glyph glyph-name="sacute" unicode="&#x15b;" horiz-adv-x="427" d="M281 530 L293 530 L436 646 C455 662 473 707 473 707 L393 707 L281 530 L281 530 Z M386 320 L401 425 L396 400 L401 425 C368 446 316 460 272 460 C193 460 132 409 122 332 C112 262 142 223 210 199 C276 176 307 145 300 96 C295 54 257 26 207 26 C133 26 112 83 93 135 L79 135 L63 20 C99 2 157 -10 208 -10 C297 -10 363 43 374 122 C385 196 351 239 277 265 C218 286 190 315 197 362 C202 397 231 421 271 421 C272 421 280 421 280 420 C317 416 351 384 363 340 C365 334 367 326 369 320 L386 320 L386 320 Z " />
<glyph glyph-name="Scedilla" unicode="&#x15e;" horiz-adv-x="527" d="M253 -81 C276 -43 292 -17 297 -9 C403 1 483 76 498 186 C511 275 462 334 359 381 C278 418 239 460 247 521 C256 582 299 622 357 622 C384 622 416 612 444 595 L444 595 C454 589 463 577 466 565 C474 541 483 508 491 484 C498 484 505 485 512 485 L524 628 C498 654 437 671 372 671 C256 671 169 599 154 490 C142 407 187 353 282 310 C374 268 417 224 409 164 C398 88 346 38 278 38 C242 38 192 56 147 84 C142 87 138 92 137 97 C129 127 118 168 110 198 C107 198 103 197 100 197 L89 197 L74 36 C109 9 183 -9 259 -11 C252 -24 224 -68 188 -130 L215 -143 C249 -150 271 -165 269 -180 C266 -200 249 -213 226 -213 C195 -213 168 -207 158 -197 L157 -208 C176 -228 208 -241 236 -241 C286 -241 324 -210 331 -164 C336 -129 305 -97 252 -82 L253 -81 L253 -81 Z " />
<glyph glyph-name="scedilla" unicode="&#x15f;" horiz-adv-x="427" d="M386 320 L401 425 L396 400 L401 425 C368 446 316 460 272 460 C193 460 132 409 122 332 C112 262 142 223 210 199 C276 176 307 145 300 96 C295 54 257 26 207 26 C133 26 112 83 93 135 L79 135 L63 20 C96 3 149 -9 196 -11 C189 -24 161 -68 125 -130 L152 -143 C186 -150 208 -165 206 -180 C203 -200 186 -213 163 -213 C132 -213 105 -207 95 -197 L94 -208 C113 -228 145 -241 173 -241 C223 -241 261 -210 268 -164 C273 -129 242 -97 189 -82 C213 -44 228 -18 234 -10 C310 -1 365 49 375 120 C385 194 351 237 278 263 C219 284 191 313 198 360 C203 395 232 419 272 419 C273 419 281 419 281 418 C318 414 352 382 364 338 C366 332 368 324 370 318 L386 320 L386 320 Z " />
<glyph glyph-name="Scaron" unicode="&#x160;" horiz-adv-x="527" d="M363 710 L518 867 L506 867 L358 784 L239 867 L227 867 L333 710 L363 710 L363 710 Z M443 594 C454 588 463 576 466 564 C474 540 483 507 491 483 C498 483 505 484 512 484 L524 627 C498 653 437 670 372 670 C256 670 169 598 154 489 C142 406 186 352 281 309 C374 267 417 223 409 163 C398 87 346 37 278 37 C242 37 192 55 147 83 C142 86 138 91 136 96 C129 126 117 167 110 197 C107 197 103 196 100 196 L89 196 L74 35 C111 7 189 -11 270 -11 C389 -11 480 67 497 185 C510 274 461 333 357 380 C277 417 238 459 246 520 C255 581 298 621 356 621 C383 621 415 611 442 594 L443 594 L443 594 Z " />
<glyph glyph-name="scaron" unicode="&#x161;" horiz-adv-x="427" d="M297 535 L455 710 L443 710 L294 617 L176 710 L164 710 L267 535 L297 535 L297 535 Z M386 320 L401 425 L396 400 L401 425 C368 446 316 460 272 460 C193 460 132 409 122 332 C112 262 142 223 210 199 C276 176 307 145 300 96 C295 54 257 26 207 26 C133 26 112 83 93 135 L79 135 L63 20 C99 2 157 -10 208 -10 C297 -10 363 43 374 122 C385 196 351 239 277 265 C218 286 190 315 197 362 C202 397 231 421 271 421 C272 421 280 421 280 420 C317 416 351 384 363 340 C365 334 367 326 369 320 L386 320 L386 320 Z " />
<glyph glyph-name="Tcaron" unicode="&#x164;" horiz-adv-x="675" d="M453 710 L608 867 L596 867 L448 784 L329 867 L317 867 L423 710 L453 710 L453 710 Z M483 0 L486 19 L391 55 L468 605 L635 605 L677 460 L695 460 L723 660 L138 660 L110 460 L128 460 L210 605 L378 605 L301 55 L196 19 L193 0 L483 0 L483 0 Z " />
<glyph glyph-name="tcaron" unicode="&#x165;" horiz-adv-x="354" d="M456 750 L381 750 L331 563 L343 563 L473 761 C462 744 466 750 456 750 L456 750 Z M331 53 L330 63 C327 59 301 57 263 57 C218 57 191 77 195 107 L237 403 L369 403 L375 450 L243 450 L259 560 L253 560 L163 450 L75 409 L75 403 L157 403 L113 90 C104 30 142 -10 207 -10 C258 -10 308 15 331 53 L331 53 Z " />
<glyph glyph-name="Utilde" unicode="&#x168;" horiz-adv-x="811" d="M365 705 C384 744 399 770 433 770 C474 770 521 705 562 705 C611 705 640 755 675 830 L662 830 C643 790 627 763 593 763 C552 763 505 828 464 828 C414 828 386 779 352 705 L365 705 L365 705 Z M230 605 L178 234 C157 88 248 -10 405 -10 C561 -10 678 88 699 234 L751 605 L836 641 L839 660 L589 660 L586 641 L681 605 L626 213 C612 114 538 48 440 48 C321 48 253 129 270 250 L320 605 L405 641 L408 660 L158 660 L155 641 L230 605 L230 605 Z " />
<glyph glyph-name="utilde" unicode="&#x169;" horiz-adv-x="552" d="M207 535 C226 574 241 600 275 600 C316 600 362 535 403 535 C452 535 481 585 516 660 L503 660 C484 620 468 593 434 593 C393 593 347 658 306 658 C256 658 229 609 194 535 L207 535 L207 535 Z M437 400 L395 101 C362 76 320 63 280 63 C220 63 185 100 193 155 L234 450 L89 450 L87 432 L147 400 L106 107 C96 37 144 -10 224 -10 C269 -10 329 16 392 68 L382 0 L532 0 L535 18 L469 50 L525 450 L375 450 L373 432 L437 400 L437 400 Z " />
<glyph glyph-name="Umacron" unicode="&#x16a;" horiz-adv-x="811" d="M391 765 L657 765 L664 815 L398 815 L391 765 L391 765 Z M230 605 L178 234 C157 88 248 -10 405 -10 C561 -10 678 88 699 234 L751 605 L836 641 L839 660 L589 660 L586 641 L681 605 L626 213 C612 114 538 48 440 48 C321 48 253 129 270 250 L320 605 L405 641 L408 660 L158 660 L155 641 L230 605 L230 605 Z " />
<glyph glyph-name="umacron" unicode="&#x16b;" horiz-adv-x="552" d="M222 595 L488 595 L495 645 L229 645 L222 595 L222 595 Z M437 400 L395 101 C362 76 320 63 280 63 C220 63 185 100 193 155 L234 450 L89 450 L87 432 L147 400 L106 107 C96 37 144 -10 224 -10 C269 -10 329 16 392 68 L382 0 L532 0 L535 18 L469 50 L525 450 L375 450 L373 432 L437 400 L437 400 Z " />
<glyph glyph-name="Uring" unicode="&#x16e;" horiz-adv-x="811" d="M487 800 C492 831 508 852 528 852 C551 852 563 826 557 786 C554 758 535 734 518 734 C496 734 482 764 487 800 L487 800 Z M436 793 C430 748 465 710 511 710 C557 710 601 749 608 795 C615 844 585 876 534 876 C482 876 443 843 436 793 L436 793 Z M230 605 L178 234 C157 88 248 -10 405 -10 C561 -10 678 88 699 234 L751 605 L836 641 L839 660 L589 660 L586 641 L681 605 L626 213 C612 114 538 48 440 48 C321 48 253 129 270 250 L320 605 L405 641 L408 660 L158 660 L155 641 L230 605 L230 605 Z " />
<glyph glyph-name="uring" unicode="&#x16f;" horiz-adv-x="552" d="M323 625 C327 656 344 677 364 677 C387 677 398 651 393 611 C389 583 371 559 354 559 C332 559 318 589 323 625 L323 625 Z M273 618 C267 573 300 535 346 535 C392 535 437 574 443 620 C450 669 421 701 370 701 C319 701 280 668 273 618 L273 618 Z M437 400 L395 101 C362 76 320 63 280 63 C220 63 185 100 193 155 L234 450 L89 450 L87 432 L147 400 L106 107 C96 37 144 -10 224 -10 C269 -10 329 16 392 68 L382 0 L532 0 L535 18 L469 50 L525 450 L375 450 L373 432 L437 400 L437 400 Z " />
<glyph glyph-name="Ydieresis" unicode="&#x178;" horiz-adv-x="718" d="M559 735 C589 735 612 755 616 785 C621 815 603 835 573 835 C543 835 521 815 516 785 C512 755 529 735 559 735 L559 735 Z M379 735 C409 735 432 755 436 785 C441 815 423 835 393 835 C363 835 341 815 336 785 C332 755 349 735 379 735 L379 735 Z M358 660 L124 660 L121 642 L181 610 L364 305 L329 55 L234 19 L231 0 L501 0 L504 19 L419 55 L454 309 L713 621 L774 647 L776 661 L564 661 L561 642 L633 606 L433 365 L282 606 L355 642 L358 660 L358 660 Z " />
<glyph glyph-name="Zacute" unicode="&#x179;" horiz-adv-x="646" d="M422 705 L434 705 L575 809 C594 824 611 864 611 864 L531 864 L422 705 L422 705 Z M169 480 L187 480 L267 605 L519 605 C378 412 237 218 94 25 L90 0 L556 0 L583 190 L565 190 L484 55 L208 55 C348 247 488 439 630 630 L634 660 L195 660 L169 480 L169 480 Z " />
<glyph glyph-name="zacute" unicode="&#x17a;" horiz-adv-x="480" d="M314 530 L326 530 L469 646 C488 662 506 707 506 707 L426 707 L314 530 L314 530 Z M113 305 L130 305 L186 405 L345 405 L76 18 L73 0 L405 0 L426 150 L409 150 L361 45 L185 45 C277 176 367 307 458 437 L460 450 L196 450 L159 460 L149 460 C149 459 146 450 146 450 L146 449 C136 404 124 349 113 304 L113 305 L113 305 Z " />
<glyph glyph-name="Zdot" unicode="&#x17b;" horiz-adv-x="646" d="M435 725 C471 725 498 749 503 785 C508 821 488 845 452 845 C416 845 388 821 383 785 C378 749 399 725 435 725 L435 725 Z M169 480 L187 480 L267 605 L519 605 C378 412 237 218 94 25 L90 0 L556 0 L583 190 L565 190 L484 55 L208 55 C348 247 488 439 630 630 L634 660 L195 660 L169 480 L169 480 Z " />
<glyph glyph-name="zdot" unicode="&#x17c;" horiz-adv-x="480" d="M327 583 C363 583 390 607 395 643 C400 679 380 703 344 703 C308 703 280 679 275 643 C270 607 291 583 327 583 L327 583 Z M113 305 L130 305 L186 405 L345 405 L76 18 L73 0 L405 0 L426 150 L409 150 L361 45 L185 45 C277 176 367 307 458 437 L460 450 L196 450 L159 460 L149 460 C149 459 146 450 146 450 L146 449 C136 404 124 349 113 304 L113 305 L113 305 Z " />
<glyph glyph-name="Zcaron" unicode="&#x17d;" horiz-adv-x="646" d="M453 710 L608 867 L596 867 L448 784 L329 867 L317 867 L423 710 L453 710 L453 710 Z M169 480 L187 480 L267 605 L519 605 C378 412 237 218 94 25 L90 0 L556 0 L583 190 L565 190 L484 55 L208 55 C348 247 488 439 630 630 L634 660 L195 660 L169 480 L169 480 Z " />
<glyph glyph-name="zcaron" unicode="&#x17e;" horiz-adv-x="480" d="M330 535 L488 710 L476 710 L327 617 L209 710 L197 710 L300 535 L330 535 L330 535 Z M113 305 L130 305 L186 405 L345 405 L76 18 L73 0 L405 0 L426 150 L409 150 L361 45 L185 45 C277 176 367 307 458 437 L460 450 L196 450 L159 460 L149 460 C149 459 146 450 146 450 L146 449 C136 404 124 349 113 304 L113 305 L113 305 Z " />
<glyph glyph-name="oogonek" unicode="&#x1eb;" horiz-adv-x="745" d="M720 -122 L722 -109 C713 -114 689 -117 662 -117 C610 -117 542 -23 480 5 C605 42 694 143 713 281 C738 457 634 575 453 575 C271 575 133 458 109 282 C83 102 194 -19 390 -10 C461 -54 536 -147 599 -147 C643 -147 691 -137 718 -123 L720 -122 L720 -122 Z M198 312 C216 443 308 530 428 530 C567 530 645 417 621 248 C603 120 512 34 394 34 C253 34 174 145 198 312 L198 312 Z " />
<glyph glyph-name="G_sc" unicode="&#x262;" horiz-adv-x="712" d="M619 193 L699 229 L702 248 L461 248 L458 229 L538 193 L520 65 C490 51 446 43 398 43 C255 43 174 143 195 294 C215 436 321 530 460 530 C495 530 534 519 565 501 L565 501 C570 498 574 494 576 489 C588 450 604 399 617 360 C623 360 629 361 636 361 L652 528 L628 502 L652 528 C622 556 549 575 468 575 C278 575 135 452 109 267 C85 101 189 -10 367 -10 C460 -10 554 24 603 74 L619 193 L619 193 Z " />
<glyph glyph-name="I_sc" unicode="&#x26a;" horiz-adv-x="381" d="M311 0 L314 19 L239 55 L303 510 L388 546 L390 565 L149 565 L147 546 L222 510 L158 55 L73 19 L70 0 L311 0 L311 0 Z " />
<glyph glyph-name="N_sc" unicode="&#x274;" horiz-adv-x="744" d="M145 546 L215 510 L151 55 L66 19 L63 0 L306 0 L309 19 L214 55 L267 436 C370 289 472 142 574 -5 L603 -5 L676 510 L756 546 L758 565 L520 565 L518 546 L613 510 L564 162 L285 565 L147 565 L145 546 L145 546 Z " />
<glyph glyph-name="R_sc" unicode="&#x280;" horiz-adv-x="615" d="M537 50 L414 266 C488 290 538 342 548 411 C561 503 495 565 385 565 L145 565 L143 546 L218 510 L154 55 L69 19 L66 0 L302 0 L305 19 L235 55 L262 251 L316 251 C319 251 322 251 325 251 L468 0 L605 0 L608 18 L537 50 L537 50 Z M270 300 L301 516 L361 516 C430 516 469 471 460 403 C451 341 404 300 342 300 L270 300 L270 300 Z " />
<glyph glyph-name="Y_sc" unicode="&#x28f;" horiz-adv-x="656" d="M700 565 L495 565 L493 546 L563 510 L395 317 L263 510 L333 546 L335 565 L111 565 L109 547 L169 515 L331 264 L302 55 L207 19 L204 0 L465 0 L468 19 L383 55 L413 267 L636 525 L698 551 L700 565 L700 565 Z " />
<glyph glyph-name="B_sc" unicode="&#x299;" horiz-adv-x="594" d="M291 320 L271 320 L299 516 L358 516 C436 516 470 474 461 410 C453 356 385 320 291 320 L291 320 Z M431 311 C497 337 540 379 548 432 C559 512 504 565 384 565 L144 565 L142 546 L217 510 L153 55 L68 19 L65 0 L304 0 C448 0 554 68 568 169 C578 239 532 291 431 311 L431 311 Z M233 50 L264 270 L349 270 C447 270 492 226 483 161 C473 94 405 50 311 50 L233 50 L233 50 Z " />
<glyph glyph-name="H_sc" unicode="&#x29c;" horiz-adv-x="748" d="M683 0 L686 19 L611 55 L675 510 L760 546 L762 565 L521 565 L519 546 L594 510 L566 316 L270 316 L298 510 L383 546 L385 565 L144 565 L142 546 L217 510 L153 55 L68 19 L65 0 L306 0 L309 19 L234 55 L263 266 L559 266 L530 55 L445 19 L442 0 L683 0 L683 0 Z " />
<glyph glyph-name="L_sc" unicode="&#x29f;" horiz-adv-x="570" d="M530 215 L512 215 L427 50 L233 50 L298 510 L388 546 L390 565 L144 565 L142 546 L217 510 L153 55 L68 19 L65 0 L500 0 L530 215 L530 215 Z " />
<glyph glyph-name="circumflex" unicode="&#x2c6;" horiz-adv-x="340" d="M392 530 L284 705 L254 705 L101 530 L113 530 L258 623 L380 530 L392 530 L392 530 Z " />
<glyph glyph-name="caron" unicode="&#x2c7;" horiz-adv-x="340" d="M260 535 L418 710 L406 710 L257 617 L139 710 L127 710 L230 535 L260 535 L260 535 Z " />
<glyph glyph-name="firsttonechinese" unicode="&#x2c9;" horiz-adv-x="340" d="M111 530 L377 530 L385 580 L119 580 L111 530 L111 530 Z " />
<glyph glyph-name="breve" unicode="&#x2d8;" horiz-adv-x="340" d="M137 727 L123 727 C145 607 181 560 249 560 C317 560 365 607 421 727 L407 727 C374 655 332 627 258 627 C184 627 150 655 137 727 L137 727 Z " />
<glyph glyph-name="dotaccent" unicode="&#x2d9;" horiz-adv-x="340" d="M256 610 C286 610 309 630 313 660 C317 690 300 710 270 710 C240 710 217 690 213 660 C209 630 226 610 256 610 L256 610 Z " />
<glyph glyph-name="ring" unicode="&#x2da;" horiz-adv-x="340" d="M221 620 C225 651 242 672 262 672 C285 672 297 646 291 606 C287 578 269 554 252 554 C230 554 216 584 221 620 L221 620 Z M171 613 C165 568 198 530 244 530 C290 530 335 569 341 615 C348 664 319 696 268 696 C217 696 178 663 171 613 L171 613 Z " />
<glyph glyph-name="A_sc" unicode="&#x1d00;" horiz-adv-x="685" d="M413 0 L650 0 L652 16 L592 45 C541 220 492 396 438 570 L400 570 C302 397 203 223 104 50 L21 18 L18 0 L237 0 L240 18 L165 50 L240 184 L469 184 L469 188 L509 50 L418 18 L413 0 L413 0 Z M457 233 L268 233 L392 457 L457 233 L457 233 Z " />
<glyph glyph-name="C_sc" unicode="&#x1d04;" horiz-adv-x="656" d="M572 40 L556 66 L572 40 L572 40 Z M571 40 L601 191 C595 191 590 192 585 192 C563 158 534 114 512 80 C509 76 504 72 500 69 C456 48 407 35 369 35 C242 35 173 139 194 294 C214 436 315 530 448 530 C480 530 516 519 546 501 C551 498 555 493 557 488 C569 449 585 398 597 359 C603 359 610 360 617 360 L633 527 C603 555 534 574 458 574 C275 574 135 451 109 266 C86 100 188 -11 365 -11 C443 -11 526 9 573 39 L571 40 L571 40 Z " />
<glyph glyph-name="D_sc" unicode="&#x1d05;" horiz-adv-x="713" d="M333 0 C519 0 659 112 686 307 C710 477 592 565 398 565 L144 565 L142 546 L217 510 L153 55 L68 19 L65 0 L333 0 L333 0 Z M233 50 L299 516 C323 516 352 516 369 516 C527 516 620 435 598 277 C578 132 475 49 338 50 L233 50 L233 50 Z " />
<glyph glyph-name="E_sc" unicode="&#x1d07;" horiz-adv-x="590" d="M545 175 L528 175 L452 50 L233 50 L263 266 L382 266 L413 186 L436 186 L466 396 L443 396 L389 316 L270 316 L299 516 L493 516 L534 401 L551 401 L574 565 L144 565 L142 546 L217 510 L153 55 L68 19 L65 0 L520 0 L545 175 L545 175 Z " />
<glyph glyph-name="J_sc" unicode="&#x1d0a;" horiz-adv-x="381" d="M222 510 L157 50 C144 -45 113 -108 80 -108 C80 -108 53 -105 36 -100 L30 -100 C30 -100 14 -147 14 -150 C12 -164 23 -173 41 -173 C141 -173 229 -14 262 224 L303 510 L388 546 L390 565 L149 565 L147 546 L222 510 L222 510 Z " />
<glyph glyph-name="K_sc" unicode="&#x1d0b;" horiz-adv-x="686" d="M658 14 L596 40 L350 314 C435 384 519 455 604 525 L674 551 L676 565 L444 565 L442 547 L510 515 C510 515 339 356 324 342 L268 289 L516 0 L656 0 L658 14 L658 14 Z M306 0 L309 19 L234 55 L298 510 L383 546 L385 565 L144 565 L142 546 L217 510 L153 55 L68 19 L65 0 L306 0 L306 0 Z " />
<glyph glyph-name="M_sc" unicode="&#x1d0d;" horiz-adv-x="901" d="M150 546 L233 510 C205 358 178 206 150 55 L64 19 L61 0 L279 0 L282 19 L204 55 L274 465 L422 -5 L463 -5 C461 4 457 14 455 23 L464 -5 L740 457 L702 55 L619 19 L616 0 L841 0 L844 19 L778 55 L822 510 L914 546 L916 565 L751 565 L478 104 L330 565 L154 565 L150 546 L150 546 Z " />
<glyph glyph-name="O_sc" unicode="&#x1d0f;" horiz-adv-x="745" d="M200 313 C218 444 311 531 431 531 C570 531 647 418 623 249 C605 121 514 35 396 35 C255 35 177 146 200 313 L200 313 Z M110 282 C85 107 190 -10 372 -10 C553 -10 690 106 714 281 C739 457 635 575 454 575 C272 575 134 458 110 282 L110 282 Z " />
<glyph glyph-name="P_sc" unicode="&#x1d18;" horiz-adv-x="558" d="M321 0 L324 19 L234 55 L261 251 L315 251 C440 251 532 315 546 411 C559 503 494 565 384 565 L144 565 L142 546 L217 510 L153 55 L68 19 L65 0 L321 0 L321 0 Z M268 300 L299 516 L358 516 C428 516 468 471 459 403 C450 341 402 300 340 300 L268 300 L268 300 Z " />
<glyph glyph-name="T_sc" unicode="&#x1d1b;" horiz-adv-x="615" d="M448 0 L451 19 L356 55 L421 516 L563 516 L604 371 L622 371 L649 565 L124 565 L97 371 L115 371 L198 516 L340 516 L275 55 L170 19 L167 0 L448 0 L448 0 Z " />
<glyph glyph-name="U_sc" unicode="&#x1d1c;" horiz-adv-x="751" d="M219 510 L175 200 C157 74 238 -10 376 -10 C513 -10 616 74 634 200 L678 510 L763 546 L765 565 L522 565 L520 546 L615 510 L568 181 C557 98 492 42 407 42 C303 42 244 111 258 215 L300 510 L385 546 L387 565 L146 565 L144 546 L219 510 L219 510 Z " />
<glyph glyph-name="V_sc" unicode="&#x1d20;" horiz-adv-x="673" d="M354 565 L112 565 L110 547 L174 515 C221 342 267 168 315 -5 L353 -5 C455 172 556 349 658 525 L717 551 L719 565 L520 565 L518 546 L590 510 L368 117 L260 509 L352 545 L354 565 L354 565 Z " />
<glyph glyph-name="W_sc" unicode="&#x1d21;" horiz-adv-x="917" d="M342 565 L99 565 L97 547 L157 515 C190 342 224 170 254 -4 L284 -4 C361 141 440 285 518 429 C554 285 591 141 624 -4 L653 -4 L662 14 C744 185 825 357 907 527 L974 553 L976 567 L765 567 L762 548 L839 512 L672 150 C635 291 598 432 561 573 L531 573 C459 431 383 291 309 150 L240 513 L337 549 L342 565 L342 565 Z " />
<glyph glyph-name="Z_sc" unicode="&#x1d22;" horiz-adv-x="586" d="M159 391 L177 391 L257 516 L456 516 C335 352 215 187 95 23 L92 0 L496 0 L522 185 L504 185 L423 50 L198 50 C318 214 437 378 558 541 L561 565 L184 565 L159 391 L159 391 Z " />
<glyph glyph-name="Etilde" unicode="&#x1ebc;" horiz-adv-x="650" d="M310 705 C329 744 344 770 378 770 C419 770 465 705 506 705 C555 705 584 755 619 830 L606 830 C587 790 571 763 537 763 C496 763 450 828 409 828 C359 828 331 779 297 705 L310 705 L310 705 Z M605 180 L588 180 L513 55 L243 55 L279 313 L449 313 L480 233 L503 233 L533 448 L510 448 L457 368 L287 368 L320 605 L565 605 L607 490 L624 490 L648 660 L158 660 L155 641 L230 605 L153 55 L68 19 L65 0 L580 0 L605 180 L605 180 Z " />
<glyph glyph-name="endash" unicode="&#x2013;" horiz-adv-x="500" d="M84 242 L484 242 L491 292 L91 292 L84 242 L84 242 Z " />
<glyph glyph-name="emdash" unicode="&#x2014;" horiz-adv-x="1000" d="M84 242 L984 242 L991 292 L91 292 L84 242 L84 242 Z " />
<glyph glyph-name="quoteleft" unicode="&#x2018;" horiz-adv-x="252" d="M245 584 C218 594 204 627 210 666 C213 693 251 719 303 730 L305 750 C217 731 152 680 143 621 C134 558 156 506 198 490 C223 481 238 478 252 505 L277 553 L278 565 L245 584 L245 584 Z " />
<glyph glyph-name="quoteright" unicode="&#x2019;" horiz-adv-x="252" d="M185 656 C212 646 226 613 221 574 C217 547 179 521 128 510 L125 490 C214 509 279 560 287 619 C296 682 274 734 232 750 C208 759 192 762 178 735 L154 687 L152 675 L185 656 L185 656 Z " />
<glyph glyph-name="quotedblleft" unicode="&#x201c;" horiz-adv-x="450" d="M245 584 C218 594 204 627 210 666 C213 693 253 730 303 730 L305 750 C219 750 152 680 143 621 C134 558 156 506 198 490 C223 481 238 478 252 505 L277 553 L278 565 L245 584 L245 584 Z M442 584 C415 594 401 627 407 666 C410 693 450 730 500 730 L502 750 C416 750 349 680 340 621 C331 558 353 506 395 490 C420 481 435 478 449 505 L474 553 L475 565 L442 584 L442 584 Z " />
<glyph glyph-name="quotedblright" unicode="&#x201d;" horiz-adv-x="450" d="M383 656 C410 646 424 613 419 574 C415 547 377 521 326 510 L323 490 C412 509 477 560 485 619 C494 682 472 734 430 750 C406 759 390 762 376 735 L352 687 L350 675 L383 656 L383 656 Z M186 656 C213 646 227 613 222 574 C218 547 180 521 129 510 L126 490 C215 509 280 560 288 619 C297 682 275 734 233 750 C209 759 193 762 179 735 L155 687 L153 675 L186 656 L186 656 Z " />
<glyph glyph-name="bullet" unicode="&#x2022;" horiz-adv-x="500" d="M271 150 C343 150 398 198 408 270 C418 342 377 390 305 390 C233 390 178 342 168 270 C158 198 199 150 271 150 L271 150 Z " />
<glyph glyph-name="ellipsis" unicode="&#x2026;" horiz-adv-x="650" d="M524 -10 C560 -10 587 14 592 50 C597 86 576 110 540 110 C504 110 477 86 472 50 C467 14 488 -10 524 -10 L524 -10 Z M324 -10 C360 -10 387 14 392 50 C397 86 376 110 340 110 C304 110 277 86 272 50 C267 14 288 -10 324 -10 L324 -10 Z M124 -10 C160 -10 187 14 192 50 C197 86 176 110 140 110 C104 110 77 86 72 50 C67 14 88 -10 124 -10 L124 -10 Z " />
<glyph glyph-name="perthousand" unicode="&#x2030;" horiz-adv-x="1138" d="M932 208 C946 306 980 371 1017 371 C1069 371 1092 293 1076 176 C1062 80 1026 16 985 16 C937 16 916 93 932 208 L932 208 Z M851 193 C834 71 884 -10 975 -10 C1065 -10 1137 76 1155 204 C1171 319 1122 395 1032 395 C941 395 868 314 851 193 L851 193 Z M189 569 C203 669 237 736 274 736 C326 736 349 656 332 537 C319 443 284 381 243 381 C195 381 173 456 189 569 L189 569 Z M108 554 C91 435 141 355 232 355 C322 355 394 439 411 564 C428 682 379 760 289 760 C198 760 125 678 108 554 L108 554 Z M580 208 C594 306 630 371 670 371 C728 371 755 293 739 176 C725 80 685 16 638 16 C587 16 564 93 580 208 L580 208 Z M499 193 C482 71 534 -10 628 -10 C724 -10 800 75 818 203 C834 318 781 395 685 395 C591 395 516 314 499 193 L499 193 Z M197 -11 L768 739 L736 761 L166 11 L197 -11 L197 -11 Z " />
<glyph glyph-name="guilsinglleft" unicode="&#x2039;" horiz-adv-x="246" d="M275 425 L50 248 L225 70 L236 70 L150 248 L286 425 L275 425 L275 425 Z " />
<glyph glyph-name="guilsinglright" unicode="&#x203a;" horiz-adv-x="250" d="M80 425 L165 248 L30 70 L41 70 L265 248 L91 425 L80 425 L80 425 Z " />
<glyph glyph-name="fraction" unicode="&#x2044;" horiz-adv-x="489" d="M46 -11 L617 739 L584 761 L14 11 L46 -11 L46 -11 Z " />
<glyph glyph-name="Euro" unicode="&#x20ac;" horiz-adv-x="499" d="M490 98 C467 72 417 55 365 55 C268 55 225 124 222 237 L392 237 L398 281 L222 281 C224 314 228 352 235 388 L413 388 L419 432 L244 432 C274 556 330 635 392 635 C421 635 451 613 467 581 C476 581 491 536 491 536 L498 536 C511 536 545 564 545 564 C551 567 556 575 557 584 C558 588 554 599 549 610 C531 647 482 671 428 671 C306 671 204 579 155 432 L71 432 L65 388 L143 388 C134 355 128 318 125 283 L50 283 L44 239 L122 239 C117 88 171 -8 310 -8 C373 -8 444 26 489 76 L492 100 L490 98 L490 98 Z " />
<glyph glyph-name="F_sc" unicode="&#xa730;" horiz-adv-x="555" d="M382 266 L413 186 L436 186 L466 396 L443 396 L389 316 L270 316 L299 516 L483 516 L524 401 L541 401 L564 565 L144 565 L142 546 L217 510 L153 55 L68 19 L65 0 L321 0 L324 19 L234 55 L263 266 L382 266 L382 266 Z " />
<glyph glyph-name="S_sc" unicode="&#xa731;" horiz-adv-x="463" d="M373 508 C381 502 386 493 389 484 C396 457 407 422 415 395 C418 395 422 396 425 396 L436 396 L447 532 L425 507 L447 532 C424 558 376 576 324 576 C229 576 157 514 144 420 C135 355 171 308 248 266 C322 227 356 188 350 141 C341 76 300 33 247 33 C220 33 181 50 145 76 C141 79 139 83 138 87 C131 119 120 161 112 193 C105 193 98 192 91 192 L76 36 C108 8 175 -10 242 -10 C342 -10 417 58 432 161 C442 232 402 283 318 328 C253 363 222 400 229 448 C236 498 269 532 311 532 C331 532 354 523 374 508 L373 508 L373 508 Z " />
<glyph glyph-name="X_sc" unicode="&#xf078;" horiz-adv-x="677" d="M398 0 L640 0 L642 16 L583 45 L416 307 C483 378 550 449 617 520 L684 549 L686 565 L490 565 L488 546 L558 510 L394 340 C358 397 321 454 285 511 L367 547 L370 566 L128 566 L125 548 L186 516 L334 278 L120 51 L45 19 L42 1 L256 1 L259 20 L178 56 L354 245 L472 56 L399 20 L398 0 L398 0 Z " />
</font>
</svg>
