<?xml version="1.0" encoding="UTF-8"?>
<svg xmlns="http://www.w3.org/2000/svg" xmlns:xlink="http://www.w3.org/1999/xlink" version="1.2" >
<font id="Ethan Light">
<font-face  font-family="Ethan" units-per-em="1024" ascent="975" descent="-300" font-style="normal" font-weight="300" font-stretch="normal" cap-height="924" x-height="488" underline-position="-125" underline-thickness="50" />
<missing-glyph  horiz-adv-x="100" d="" />
<glyph glyph-name="NULL" d="" />
<glyph glyph-name="CR" unicode="&#xd;" horiz-adv-x="256" d="" />
<glyph glyph-name="space" unicode="&#x20;" horiz-adv-x="248" d="" />
<glyph glyph-name="exclam" unicode="&#x21;" horiz-adv-x="204" d="M142 28 C142 76 67 77 67 28 C67 -22 142 -21 142 28 L142 28 Z M70 660 L98 145 L111 145 L139 660 L70 660 L70 660 Z " />
<glyph glyph-name="quotedbl" unicode="&#x22;" horiz-adv-x="382" d="M246 740 L268 546 L280 546 L302 740 L246 740 L246 740 Z M80 740 L102 546 L114 546 L136 740 L80 740 L80 740 Z " />
<glyph glyph-name="numbersign" unicode="&#x23;" horiz-adv-x="498" d="M165 421 L112 240 L-1 240 L-1 210 L103 210 L42 0 L73 0 L134 210 L292 210 L231 0 L262 0 L323 210 L439 210 L439 240 L332 240 L385 421 L498 421 L498 450 L394 450 L455 660 L424 660 L363 450 L205 450 L266 660 L235 660 L174 450 L58 450 L58 421 L165 421 L165 421 Z M196 421 L354 421 L301 240 L143 240 L196 421 L196 421 Z " />
<glyph glyph-name="dollar" unicode="&#x24;" horiz-adv-x="492" d="M292 740 L292 668 C270 671 244 671 222 668 L222 740 L196 740 L196 663 C109 643 54 580 54 494 C54 411 102 361 196 330 L196 23 C133 35 93 79 93 140 L93 157 C92 157 90 159 90 159 L72 159 C58 159 48 151 48 140 C48 61 106 5 196 -7 L196 -79 L222 -79 L222 -9 C247 -10 270 -8 292 -3 L292 -79 L318 -79 L318 4 C396 30 444 94 444 179 C444 248 401 309 318 346 L318 629 C359 614 384 583 384 542 L384 526 C384 526 386 523 387 523 L405 523 C419 523 429 531 429 542 C429 603 386 648 318 664 L318 740 L292 740 L292 740 Z M292 357 C270 365 243 371 222 379 L222 637 C244 641 271 641 292 637 L292 357 L292 357 Z M196 390 C139 417 110 456 110 513 C110 570 143 613 196 631 L196 390 Z M222 322 C248 315 271 306 291 296 L291 27 C270 21 246 18 220 19 L222 322 L222 322 Z M316 281 C367 248 393 206 393 161 C393 104 364 60 316 37 L316 281 Z " />
<glyph glyph-name="percent" unicode="&#x25;" horiz-adv-x="797" d="M79 565 C79 673 116 745 171 745 C235 745 278 665 278 545 C278 441 240 371 182 371 C120 371 79 449 79 565 L79 565 Z M30 555 C30 435 89 355 178 355 C266 355 325 438 325 562 C325 681 266 760 178 760 C89 760 30 678 30 555 L30 555 Z M532 204 C532 310 569 380 625 380 C693 380 738 302 738 184 C738 77 697 6 636 6 C574 6 532 85 532 204 L532 204 Z M483 194 C483 72 543 -10 632 -10 C724 -10 785 74 785 201 C785 317 724 395 632 395 C543 395 483 315 483 194 L483 194 Z M189 -7 L654 743 L632 757 L167 7 L189 -7 L189 -7 Z " />
<glyph glyph-name="ampersand" unicode="&#x26;" horiz-adv-x="686" d="M525 452 L550 420 C555 420 563 418 571 420 C531 316 493 228 447 163 L244 360 C347 414 413 484 413 543 C413 619 351 670 257 670 C148 670 76 606 76 511 C76 448 115 403 177 343 C45 279 19 220 19 150 C19 54 93 -10 205 -10 C304 -10 375 28 433 95 L532 0 L661 0 L661 18 L563 50 L469 142 C519 216 560 314 605 430 L671 453 L671 471 L525 471 L525 452 L525 452 Z M193 330 C198 325 203 320 208 315 L411 119 C361 66 301 37 220 37 C134 37 77 89 77 167 C77 229 96 280 193 329 L193 330 L193 330 Z M230 375 C171 432 133 468 133 522 C133 596 181 645 254 645 C319 645 362 603 362 540 C362 483 311 420 231 374 L230 375 Z " />
<glyph glyph-name="quotesingle" unicode="&#x27;" horiz-adv-x="216" d="M80 740 L102 546 L114 546 L136 740 L80 740 L80 740 Z " />
<glyph glyph-name="parenleft" unicode="&#x28;" horiz-adv-x="217" d="M196 740 C111 638 54 510 54 295 C54 80 111 -48 196 -150 L212 -150 C142 -67 96 56 96 295 C96 534 142 657 212 740 L196 740 L196 740 Z " />
<glyph glyph-name="parenright" unicode="&#x29;" horiz-adv-x="217" d="M55 -150 C140 -48 197 80 197 295 C197 510 140 638 55 740 L39 740 C109 657 155 534 155 295 C155 56 109 -67 39 -150 L55 -150 L55 -150 Z " />
<glyph glyph-name="asterisk" unicode="&#x2a;" horiz-adv-x="362" d="M191 592 L330 626 L319 662 L186 607 L197 750 L159 750 L170 607 L37 662 L26 626 L165 592 L72 483 L103 460 L178 582 L253 460 L284 483 L191 592 L191 592 Z " />
<glyph glyph-name="plus" unicode="&#x2b;" horiz-adv-x="510" d="M239 482 L239 288 L40 288 L40 256 L239 256 L239 52 L271 52 L271 256 L470 256 L470 288 L271 288 L271 482 L239 482 L239 482 Z " />
<glyph glyph-name="comma" unicode="&#x2c;" horiz-adv-x="215" d="M90 0 C113 -11 129 -44 129 -83 C129 -124 101 -169 60 -197 L60 -210 C123 -168 165 -105 165 -52 C165 0 145 43 116 57 C98 66 95 66 85 50 L67 19 L69 12 L90 0 L90 0 Z " />
<glyph glyph-name="hyphen" unicode="&#x2d;" horiz-adv-x="375" d="M50 230 L325 230 L325 274 L50 274 L50 230 L50 230 Z " />
<glyph glyph-name="period" unicode="&#x2e;" horiz-adv-x="205" d="M140 28 C140 77 65 76 65 28 C65 -21 140 -22 140 28 L140 28 Z " />
<glyph glyph-name="slash" unicode="&#x2f;" horiz-adv-x="231" d="M0 -120 L31 -120 L231 750 L200 750 L0 -120 L0 -120 Z " />
<glyph glyph-name="zero" unicode="0" horiz-adv-x="518" d="M93 352 C93 525 155 641 248 641 C357 641 429 512 429 318 C429 139 365 20 269 20 C163 20 93 153 93 352 L93 352 Z M33 333 C33 127 123 -10 259 -10 C395 -10 485 129 485 338 C485 537 395 670 259 670 C123 670 33 535 33 333 L33 333 Z " />
<glyph glyph-name="one" unicode="1" horiz-adv-x="468" d="M363 0 L363 18 L298 50 L298 660 L286 660 L70 504 L70 482 L245 593 L245 50 L180 18 L180 0 L363 0 L363 0 Z " />
<glyph glyph-name="two" unicode="2" horiz-adv-x="480" d="M453 25 C455 52 459 89 461 116 L444 116 L405 51 L118 51 C348 336 438 442 438 499 C438 602 369 670 265 670 C130 670 40 602 40 501 C40 485 50 475 65 475 L92 475 C92 475 96 480 97 480 L97 510 C97 510 57 501 40 501 C97 589 157 641 246 641 C325 641 378 584 378 498 C378 410 286 310 50 16 L50 0 L453 0 L453 25 L453 25 Z " />
<glyph glyph-name="three" unicode="3" horiz-adv-x="486" d="M89 120 L89 137 L84 142 L55 142 C55 142 33 133 33 120 C33 42 114 -10 236 -10 C372 -10 463 64 463 175 C463 282 395 343 263 356 C376 381 434 444 434 528 C434 613 364 670 258 670 C134 670 52 612 52 525 C52 512 77 503 77 503 L103 503 L108 508 L108 532 C108 598 162 642 244 642 C322 642 374 594 374 523 C374 433 311 371 189 359 C175 359 160 358 145 357 L145 330 C315 342 402 289 402 175 C402 81 335 18 235 18 C147 18 88 59 88 120 L89 120 L89 120 Z " />
<glyph glyph-name="four" unicode="4" horiz-adv-x="501" d="M349 660 L308 606 C208 475 108 344 8 213 L8 200 L308 200 L308 50 L243 18 L243 0 L426 0 L426 18 L361 50 L361 200 L488 200 L488 241 L361 241 L361 660 L349 660 L349 660 Z M308 564 L308 241 L69 242 L308 564 L308 564 Z " />
<glyph glyph-name="five" unicode="5" horiz-adv-x="497" d="M402 660 L86 660 L86 359 C107 365 148 369 187 369 C320 369 408 304 408 207 C408 95 333 21 221 21 C175 21 130 42 108 73 C106 73 102 84 102 84 L96 84 C89 84 73 67 73 67 C66 62 62 61 62 51 C62 47 64 43 67 39 C88 10 139 -10 195 -10 C349 -10 452 87 452 233 C452 345 350 419 196 419 C165 419 133 416 116 411 L116 611 L402 611 L402 660 L402 660 Z " />
<glyph glyph-name="six" unicode="6" horiz-adv-x="491" d="M411 670 C186 610 36 435 36 233 C36 87 122 -10 251 -10 C377 -10 461 74 461 199 C461 312 389 388 282 388 C201 388 134 351 99 291 C119 464 239 604 411 650 L411 670 Z M96 234 C111 301 176 345 258 345 C346 345 404 281 404 185 C404 85 343 18 251 18 C159 18 97 104 96 234 L96 234 Z " />
<glyph glyph-name="seven" unicode="7" horiz-adv-x="500" d="M50 660 L50 612 L411 612 C212 272 82 30 82 0 L152 0 C152 74 275 334 460 648 L460 660 L442 660 L440 661 L50 660 L50 660 Z " />
<glyph glyph-name="eight" unicode="8" horiz-adv-x="485" d="M289 354 C280 357 271 360 261 363 C158 392 118 451 118 522 C118 593 168 641 244 641 C324 641 378 583 378 497 C378 428 344 376 289 354 L289 354 Z M312 345 C387 365 434 423 434 501 C434 602 361 670 251 670 C138 670 63 603 63 503 C63 432 99 370 187 330 C98 309 42 241 42 148 C42 54 123 -9 245 -9 C366 -9 447 62 447 169 C447 242 402 307 314 346 L312 345 Z M208 322 C220 317 233 313 247 309 C344 282 394 221 394 150 C394 71 335 18 247 18 C158 18 98 76 98 163 C98 241 140 300 207 322 L208 322 Z " />
<glyph glyph-name="nine" unicode="9" horiz-adv-x="490" d="M80 -10 C305 -10 455 93 455 427 C455 573 369 670 240 670 C114 670 30 600 30 465 C30 351 106 275 220 275 C294 275 359 314 395 376 C383 103 260 9 79 9 L80 -10 Z M395 425 C375 360 314 317 243 317 C151 317 89 376 89 465 C89 581 149 641 239 641 C332 641 394 555 396 425 L395 425 Z " />
<glyph glyph-name="colon" unicode="&#x3a;" horiz-adv-x="205" d="M140 244 C140 293 65 292 65 244 C65 195 140 194 140 244 L140 244 Z M140 28 C140 77 65 76 65 28 C65 -21 140 -22 140 28 L140 28 Z " />
<glyph glyph-name="semicolon" unicode="&#x3b;" horiz-adv-x="215" d="M144 244 C144 292 69 293 69 244 C69 194 144 195 144 244 L144 244 Z M90 0 C113 -11 129 -44 129 -83 C129 -124 101 -169 60 -197 L60 -210 C123 -168 165 -105 165 -52 C165 0 145 43 116 57 C98 66 95 66 85 50 L67 19 L69 12 L90 0 L90 0 Z " />
<glyph glyph-name="equal" unicode="&#x3d;" horiz-adv-x="500" d="M40 195 L40 164 L460 164 L460 195 L40 195 L40 195 Z M40 380 L40 349 L460 349 L460 380 L40 380 L40 380 Z " />
<glyph glyph-name="question" unicode="&#x3f;" horiz-adv-x="469" d="M234 33 C234 81 159 82 159 33 C159 -17 234 -16 234 33 L234 33 Z M95 514 C95 514 57 509 40 509 C40 494 50 484 64 484 L90 484 C90 484 94 490 95 490 L95 514 L95 514 Z M95 514 C95 591 146 642 222 642 C303 642 357 587 357 504 C357 425 283 361 173 345 C173 285 190 145 190 145 L202 145 C202 145 208 231 211 297 C334 324 414 404 414 503 C414 603 345 669 242 669 C121 669 40 605 40 508 L95 514 L95 514 Z " />
<glyph glyph-name="A" unicode="A" horiz-adv-x="739" d="M492 0 L704 0 L704 16 L640 45 C553 252 468 459 380 665 L352 665 L96 50 L17 18 L17 0 L218 0 L218 18 L138 50 L218 245 L497 245 L497 249 C524 183 552 116 579 50 L492 18 L492 0 L492 0 Z M484 280 L232 280 L357 587 L484 280 L484 280 Z " />
<glyph glyph-name="B" unicode="B" horiz-adv-x="624" d="M263 358 C242 358 203 358 176 358 L176 627 L280 627 C397 627 457 572 457 489 C457 415 380 365 262 359 L263 358 L263 358 Z M373 353 C462 380 516 434 516 504 C516 598 440 661 293 661 L40 661 L40 642 L120 606 L120 56 L40 20 L40 1 L289 1 C459 1 573 76 573 189 C573 273 505 334 373 353 L373 353 Z M176 35 L176 324 L296 324 C440 324 514 268 514 183 C514 94 424 35 289 35 L176 35 L176 35 Z " />
<glyph glyph-name="C" unicode="C" horiz-adv-x="714" d="M549 51 C504 32 449 21 399 21 C236 21 128 145 128 332 C128 516 242 639 412 639 C456 639 500 630 536 615 C536 615 543 608 544 606 C562 565 587 510 605 469 C610 469 616 470 622 470 L616 621 C582 650 500 669 412 669 C207 669 70 526 70 312 C70 118 202 -11 399 -11 C490 -11 580 9 624 40 L632 176 C626 176 621 177 616 177 C598 141 575 94 557 58 C556 55 549 49 549 49 L549 51 L549 51 Z " />
<glyph glyph-name="D" unicode="D" horiz-adv-x="767" d="M334 0 C552 0 697 129 697 356 C697 557 549 660 326 660 L65 660 L65 641 L145 605 L145 55 L65 19 L65 0 L334 0 L334 0 Z M201 34 L201 626 C233 626 284 626 311 626 C508 626 639 527 639 336 C639 144 517 35 333 35 L201 34 L201 34 Z " />
<glyph glyph-name="E" unicode="E" horiz-adv-x="650" d="M580 159 L563 159 L505 34 L201 34 L201 323 L405 323 L447 243 L470 243 L470 437 L447 437 L405 357 L201 357 L201 626 L480 626 L538 511 L555 511 L555 660 L65 660 L65 641 L145 605 L145 55 L65 19 L65 0 L580 0 L580 159 L580 159 Z " />
<glyph glyph-name="F" unicode="F" horiz-adv-x="615" d="M405 323 L447 243 L470 243 L470 437 L447 437 L405 357 L201 357 L201 626 L470 626 L528 511 L545 511 L545 660 L65 660 L65 641 L145 605 L145 55 L65 19 L65 0 L296 0 L296 19 L201 55 L201 323 L405 323 L405 323 Z " />
<glyph glyph-name="G" unicode="G" horiz-adv-x="770" d="M650 235 L725 271 L725 290 L509 290 L509 271 L594 235 L594 66 C558 43 492 28 417 28 C244 28 128 150 128 333 C128 517 246 640 423 640 C471 640 520 631 558 615 C560 613 562 610 563 608 C581 567 606 512 624 471 C629 471 635 472 641 472 L635 623 C601 652 515 671 422 671 C210 671 69 528 69 314 C69 120 201 -9 399 -9 C507 -9 607 25 649 75 L650 235 L650 235 Z " />
<glyph glyph-name="H" unicode="H" horiz-adv-x="802" d="M737 0 L737 19 L657 55 L657 605 L737 641 L737 660 L521 660 L521 641 L601 605 L601 357 L201 357 L201 605 L281 641 L281 660 L65 660 L65 641 L145 605 L145 55 L65 19 L65 0 L281 0 L281 19 L201 55 L201 323 L601 323 L601 55 L521 19 L521 0 L737 0 L737 0 Z " />
<glyph glyph-name="I" unicode="I" horiz-adv-x="356" d="M286 0 L286 19 L206 55 L206 605 L286 641 L286 660 L70 660 L70 641 L150 605 L150 55 L70 19 L70 0 L286 0 L286 0 Z " />
<glyph glyph-name="J" unicode="J" horiz-adv-x="356" d="M150 605 L150 50 C150 -57 118 -128 71 -128 C71 -128 49 -122 36 -122 C36 -127 15 -173 50 -173 C144 -173 206 -35 206 171 L206 605 L286 641 L286 660 L70 660 L70 641 L150 605 L150 605 Z " />
<glyph glyph-name="K" unicode="K" horiz-adv-x="702" d="M672 14 L603 40 L262 352 L558 620 L627 646 L627 660 L419 660 L419 642 L487 610 C404 531 321 451 238 373 L202 338 L564 0 L671 0 L672 14 L672 14 Z M281 0 L281 19 L201 55 L201 605 L281 641 L281 660 L64 660 L64 641 L144 605 L144 55 L64 19 L64 0 L281 0 L281 0 Z " />
<glyph glyph-name="L" unicode="L" horiz-adv-x="630" d="M560 199 L542 199 L480 34 L201 34 L201 605 L286 641 L286 660 L65 660 L65 641 L145 605 L145 55 L65 19 L65 0 L560 0 L560 199 L560 199 Z " />
<glyph glyph-name="M" unicode="M" horiz-adv-x="955" d="M76 641 L164 605 C157 422 150 238 142 55 L61 19 L61 0 L263 0 L263 19 L180 55 L199 587 L463 -5 L491 -5 L751 581 L771 55 L693 19 L693 0 L895 0 L895 19 L824 55 L803 605 L890 641 L890 660 L748 660 L490 71 L226 660 L77 660 L76 641 L76 641 Z " />
<glyph glyph-name="N" unicode="N" horiz-adv-x="799" d="M68 641 L143 605 L143 55 L63 19 L63 0 L287 0 L287 19 L187 55 L187 567 C337 376 488 186 638 -5 L659 -5 L659 605 L734 641 L734 660 L515 660 L515 641 L615 605 L615 115 L187 660 L68 660 L68 641 L68 641 Z " />
<glyph glyph-name="O" unicode="O" horiz-adv-x="798" d="M130 353 C130 525 233 639 388 639 C556 639 668 506 668 307 C668 135 566 21 412 21 C243 21 130 154 130 353 L130 353 Z M70 332 C70 127 202 -10 399 -10 C596 -10 728 125 728 328 C728 533 596 670 399 670 C202 670 70 535 70 332 L70 332 Z " />
<glyph glyph-name="P" unicode="P" horiz-adv-x="605" d="M296 0 L296 19 L201 55 L201 300 L291 300 C437 300 535 373 535 483 C535 589 447 660 316 660 L65 660 L65 641 L145 605 L145 55 L65 19 L65 0 L296 0 L296 0 Z M201 334 L201 626 L302 626 C406 626 475 566 475 477 C475 391 406 334 303 334 L201 334 L201 334 Z " />
<glyph glyph-name="Q" unicode="Q" horiz-adv-x="798" d="M774 -124 L774 -114 C768 -118 749 -120 727 -120 C649 -120 562 -26 486 0 C634 34 728 157 728 329 C728 534 596 671 399 671 C202 671 70 536 70 333 C70 121 211 -22 425 -8 C509 -45 603 -138 688 -138 C723 -138 757 -132 774 -122 L774 -124 L774 -124 Z M130 355 C130 527 233 641 388 641 C556 641 668 508 668 309 C668 137 566 23 412 23 C243 23 130 156 130 355 L130 355 Z " />
<glyph glyph-name="R" unicode="R" horiz-adv-x="661" d="M647 18 C622 29 597 40 572 50 L369 308 C472 329 536 394 536 483 C536 589 448 660 316 660 L65 660 L65 641 L145 605 L145 55 L65 19 L65 0 L276 0 L276 19 L201 55 L201 300 L291 300 C295 300 299 300 303 300 L539 0 L647 0 L647 18 L647 18 Z M201 334 L201 626 L303 626 C406 626 474 566 474 477 C474 391 406 334 303 334 L201 334 L201 334 Z " />
<glyph glyph-name="S" unicode="S" horiz-adv-x="511" d="M347 617 C355 613 362 606 365 599 C377 570 393 532 405 503 C408 503 412 504 415 504 L426 504 L419 625 C383 652 323 670 269 670 C159 670 86 599 86 493 C86 411 139 360 243 323 C348 286 402 239 402 167 C402 78 347 19 265 19 C238 19 189 34 136 58 C132 60 128 63 127 67 C114 100 97 145 84 178 C81 178 77 177 74 177 L63 177 L70 38 C125 9 203 -10 264 -10 C379 -10 455 66 455 181 C455 271 397 326 285 366 C190 400 141 444 141 513 C141 589 190 640 263 640 C286 640 316 632 346 618 L347 617 L347 617 Z " />
<glyph glyph-name="T" unicode="T" horiz-adv-x="675" d="M466 0 L466 19 L366 55 L366 626 L550 626 L612 481 L630 481 L630 660 L45 660 L45 481 L63 481 L125 626 L309 626 L309 55 L209 19 L209 0 L466 0 L466 0 Z " />
<glyph glyph-name="U" unicode="U" horiz-adv-x="812" d="M153 605 L153 234 C153 88 256 -10 410 -10 C564 -10 667 88 667 234 L667 605 L747 641 L747 660 L523 660 L523 641 L623 605 L623 221 C623 104 545 26 427 26 C296 26 209 113 209 244 L209 605 L289 641 L289 660 L73 660 L73 641 L153 605 L153 605 Z " />
<glyph glyph-name="V" unicode="V" horiz-adv-x="728" d="M249 660 L33 660 L33 642 L102 610 L350 8 L355 -5 L382 -5 C468 203 553 412 640 620 L695 646 L695 660 L515 660 L515 641 L593 605 L380 81 C308 256 235 431 163 605 L250 641 L249 660 L249 660 Z " />
<glyph glyph-name="W" unicode="W" horiz-adv-x="973" d="M237 660 L20 660 L20 642 L85 610 C151 405 219 201 283 -5 L300 -5 C364 179 425 364 487 548 C553 364 621 181 685 -5 L703 -5 C765 203 827 411 889 619 L952 645 L952 659 L758 659 L758 640 L842 604 L699 108 C632 293 565 478 498 663 L482 663 C423 477 361 292 300 107 C248 272 194 438 143 602 L235 638 L237 660 L237 660 Z " />
<glyph glyph-name="X" unicode="X" horiz-adv-x="729" d="M270 660 L58 660 L58 642 L123 610 L339 328 L123 49 L53 17 L53 -1 L258 -1 L258 18 L170 54 L360 300 L549 54 L481 18 L481 -1 L691 -1 L691 15 L628 44 L401 335 L599 614 L660 643 L660 659 L470 659 L470 640 L551 604 L380 362 C317 443 254 524 192 604 L269 640 L270 660 L270 660 Z " />
<glyph glyph-name="Y" unicode="Y" horiz-adv-x="711" d="M230 660 L32 660 L32 642 L96 610 L334 302 L334 54 L244 18 L244 -1 L480 -1 L480 18 L390 54 L390 303 L617 619 L676 645 L676 659 L490 659 L490 640 L565 604 L373 338 L163 604 L230 640 L230 660 L230 660 Z " />
<glyph glyph-name="Z" unicode="Z" horiz-adv-x="646" d="M109 501 L127 501 L189 626 L467 626 C344 423 221 219 97 16 L97 0 L556 0 L556 169 L538 169 L476 34 L167 34 C292 240 418 445 542 651 L542 660 L110 660 L109 501 L109 501 Z " />
<glyph glyph-name="bracketleft" unicode="&#x5b;" horiz-adv-x="226" d="M105 726 L221 726 L221 740 L66 740 L66 -150 L221 -150 L221 -136 L105 -136 L105 726 L105 726 Z " />
<glyph glyph-name="backslash" unicode="&#x5c;" horiz-adv-x="212" d="M181 -120 L212 -120 L31 750 L0 750 L181 -120 L181 -120 Z " />
<glyph glyph-name="bracketright" unicode="&#x5d;" horiz-adv-x="221" d="M117 726 L117 -136 L5 -136 L5 -150 L156 -150 L156 740 L5 740 L5 726 L117 726 L117 726 Z " />
<glyph glyph-name="asciicircum" unicode="&#x5e;" horiz-adv-x="340" d="M309 530 L179 705 L161 705 L36 530 L43 530 L171 648 L302 530 L309 530 L309 530 Z " />
<glyph glyph-name="underscore" unicode="&#x5f;" horiz-adv-x="500" d="M25 -94 L25 -125 L475 -125 L475 -94 L25 -94 L25 -94 Z " />
<glyph glyph-name="grave" unicode="&#x60;" horiz-adv-x="340" d="M175 530 L88 707 L38 707 C38 707 45 683 56 669 L167 530 L175 530 L175 530 Z " />
<glyph glyph-name="a" unicode="a" horiz-adv-x="482" d="M119 336 C119 390 163 431 221 431 C290 431 325 393 325 335 L325 258 C147 220 55 155 55 86 C55 28 100 -10 168 -10 C230 -10 289 13 326 57 C332 16 360 -10 399 -10 C431 -10 461 11 474 42 L472 45 C467 34 451 27 431 27 C397 27 375 44 375 69 L375 348 C375 415 328 460 237 460 C140 460 67 405 67 332 C67 321 72 314 80 315 L114 315 L119 320 L119 336 L119 336 Z M325 235 L325 74 C296 43 248 28 195 28 C140 28 103 56 103 98 C103 152 178 204 325 236 L325 235 L325 235 Z " />
<glyph glyph-name="b" unicode="b" horiz-adv-x="554" d="M100 -10 L104 -10 L138 28 C176 5 226 -10 272 -10 C411 -10 503 94 503 250 C503 376 429 460 319 460 C254 460 189 431 150 386 L150 750 L140 750 L35 709 L35 703 L82 663 C93 654 100 647 100 647 L100 -10 L100 -10 Z M150 80 L150 353 C176 392 230 418 285 418 C386 418 453 346 453 237 C453 107 388 20 290 20 C246 20 190 44 150 80 L150 80 Z " />
<glyph glyph-name="c" unicode="c" horiz-adv-x="477" d="M432 381 L431 383 C432 383 432 382 432 381 L432 381 Z M429 101 C387 63 331 37 288 37 C175 37 99 117 99 237 C99 355 163 434 260 434 C302 434 346 414 368 383 L395 346 L399 346 L404 354 L432 381 C432 386 424 396 414 409 C392 439 339 459 281 459 C142 459 50 359 50 208 C50 77 134 -11 261 -11 C330 -11 399 31 433 94 L433 100 L429 101 L429 101 Z " />
<glyph glyph-name="d" unicode="d" horiz-adv-x="567" d="M519 0 L519 18 L449 50 L449 756 L439 756 L334 725 L334 720 L386 678 C394 672 399 668 399 668 L399 442 C359 453 317 460 287 460 C144 460 48 354 48 196 C48 72 122 -10 232 -10 C298 -10 364 17 399 58 L405 0 L519 0 L519 0 Z M399 386 L399 79 C372 50 320 31 266 31 C165 31 97 103 97 211 C97 342 169 429 278 429 C278 429 325 411 398 385 L399 386 L399 386 Z " />
<glyph glyph-name="e" unicode="e" horiz-adv-x="483" d="M101 273 C112 371 168 433 248 433 C324 433 378 370 386 273 L101 273 Z M428 101 C386 63 330 37 287 37 C172 37 96 120 99 244 L411 244 L433 247 C433 375 364 460 261 460 C134 460 50 360 50 209 C50 78 134 -10 261 -10 C330 -10 399 32 433 95 L433 101 L428 101 L428 101 Z " />
<glyph glyph-name="f" unicode="f" horiz-adv-x="345" d="M243 0 L243 18 L178 50 L179 421 L310 421 L310 450 L179 450 L179 550 C179 621 240 698 332 698 C344 698 361 694 374 688 C388 681 401 677 401 677 L408 677 L417 694 C426 716 419 728 394 740 C394 740 370 750 359 750 C249 750 129 615 129 490 L129 450 L41 450 L41 421 L129 421 L129 50 L64 18 L64 0 L243 0 L243 0 Z " />
<glyph glyph-name="g" unicode="g" horiz-adv-x="539" d="M131 302 C131 382 171 435 250 435 C327 435 378 381 378 300 C378 218 339 164 262 164 C183 164 131 219 131 302 L131 302 Z M80 301 C80 236 111 186 163 160 C110 142 76 110 76 77 C76 40 108 13 158 6 C103 -10 68 -75 68 -122 C68 -192 135 -239 235 -239 C378 -239 473 -175 473 -78 C473 -2 431 48 323 48 L203 48 C154 48 121 68 121 99 C121 123 145 145 180 154 C202 146 227 142 254 142 C370 142 429 206 429 303 C429 353 409 395 375 423 L489 418 L489 452 L335 447 C312 457 285 462 255 462 C140 462 80 398 80 303 L80 301 L80 301 Z M187 5 L298 5 C392 5 428 -33 428 -90 C428 -168 353 -220 241 -220 C164 -220 112 -177 112 -113 C112 -59 142 5 187 5 L187 5 Z " />
<glyph glyph-name="h" unicode="h" horiz-adv-x="583" d="M543 0 L543 18 L478 50 L478 343 C478 413 420 460 332 460 C267 460 213 427 165 377 L165 750 L155 750 L50 709 L50 703 L97 663 C108 654 115 647 115 647 L115 50 L50 18 L50 0 L230 0 L230 18 L165 50 L165 358 C199 393 243 416 304 416 C378 416 428 375 428 314 L428 50 L363 18 L363 0 L543 0 L543 0 Z " />
<glyph glyph-name="i" unicode="i" horiz-adv-x="287" d="M179 648 C179 696 104 697 104 648 C104 598 179 599 179 648 L179 648 Z M239 0 L239 18 L169 50 L169 460 L159 460 L54 419 L54 413 L101 373 C112 364 119 357 119 357 L119 50 L54 18 L54 0 L239 0 L239 0 Z " />
<glyph glyph-name="j" unicode="j" horiz-adv-x="287" d="M182 648 C182 696 107 697 107 648 C107 598 182 599 182 648 L182 648 Z M56 -222 L56 -233 C168 -163 169 -98 169 -2 L169 460 L159 460 L54 419 L54 413 L101 373 C112 364 119 357 119 357 L119 -10 C119 -114 128 -177 56 -222 L56 -222 Z " />
<glyph glyph-name="k" unicode="k" horiz-adv-x="512" d="M469 450 L302 450 L302 429 L346 390 L165 255 L165 760 L155 760 L50 719 L50 713 L97 673 C108 664 115 657 115 657 L115 50 L50 18 L50 0 L235 0 L235 18 L165 50 L165 246 L402 0 L482 0 L482 18 L417 50 L210 267 L399 401 L469 433 L469 450 L469 450 Z " />
<glyph glyph-name="l" unicode="l" horiz-adv-x="268" d="M224 0 L224 18 L159 50 L159 760 L149 760 L44 719 L44 713 L91 673 C102 664 109 657 109 657 L109 50 L44 18 L44 0 L224 0 L224 0 Z " />
<glyph glyph-name="m" unicode="m" horiz-adv-x="879" d="M839 0 L839 18 L774 50 L774 343 C774 413 717 460 632 460 C568 460 512 424 461 369 C448 424 395 459 321 459 C260 459 208 426 160 376 L160 381 L159 381 C158 411 157 459 157 459 L147 459 L45 418 L45 412 L92 372 C103 363 110 356 110 356 L110 49 L45 17 L45 -1 L225 -1 L225 17 L160 49 L160 357 C194 392 237 415 294 415 C365 415 413 374 413 313 L413 49 L343 17 L343 -1 L533 -1 L533 17 L463 49 L463 342 C463 345 463 348 463 351 C500 389 545 414 605 414 C676 414 724 373 724 312 L724 48 L654 16 L654 -2 L839 0 L839 0 Z " />
<glyph glyph-name="n" unicode="n" horiz-adv-x="583" d="M543 0 L543 18 L478 50 L478 343 C478 413 420 460 332 460 C267 460 213 427 165 377 L165 382 L164 382 C163 412 162 460 162 460 L152 460 L50 419 L50 413 L97 373 C108 364 115 357 115 357 L115 50 L50 18 L50 0 L235 0 L235 18 L165 50 L165 358 C199 393 243 416 304 416 C378 416 428 375 428 314 L428 50 L358 18 L358 0 L543 0 L543 0 Z " />
<glyph glyph-name="o" unicode="o" horiz-adv-x="529" d="M108 225 C108 350 158 434 256 434 C356 434 422 350 422 225 C422 100 371 16 273 16 C174 16 108 100 108 225 L108 225 Z M50 225 C50 84 136 -10 265 -10 C406 -10 479 84 479 225 C479 366 393 460 265 460 C123 460 50 366 50 225 L50 225 Z " />
<glyph glyph-name="p" unicode="p" horiz-adv-x="565" d="M164 389 C163 419 162 460 162 460 L152 460 L50 419 L50 413 L97 373 C108 364 115 357 115 357 L115 -180 L50 -212 L50 -230 L235 -230 L235 -212 L165 -180 L165 6 C193 -4 237 -10 286 -10 C423 -10 515 93 515 247 C515 375 444 460 337 460 C280 460 212 432 164 389 L164 389 Z M165 62 L165 370 C199 399 253 418 302 418 C400 418 466 340 466 224 C466 102 400 20 302 20 C250 20 195 37 165 62 L165 62 Z " />
<glyph glyph-name="q" unicode="q" horiz-adv-x="541" d="M501 -230 L501 -212 L436 -180 L436 460 L432 460 L398 444 C370 454 327 460 280 460 C142 460 50 354 50 196 C50 72 120 -10 226 -10 C270 -10 333 18 386 60 L386 -180 L316 -212 L316 -230 L501 -230 L501 -230 Z M386 390 L386 82 C348 52 298 32 261 32 C164 32 100 104 100 212 C100 343 169 430 272 430 C310 430 355 414 386 390 L386 390 Z " />
<glyph glyph-name="r" unicode="r" horiz-adv-x="343" d="M261 460 C235 460 202 422 165 363 L165 375 L164 375 C163 405 162 460 162 460 L152 460 L50 419 L50 413 L97 373 C108 364 115 357 115 357 L115 50 L50 18 L50 0 L235 0 L235 18 L165 50 L165 342 C192 384 214 412 230 412 C246 412 268 407 285 400 C296 395 323 384 323 384 L330 384 C338 400 343 416 343 425 C343 443 287 461 261 461 L261 460 L261 460 Z " />
<glyph glyph-name="s" unicode="s" horiz-adv-x="414" d="M60 22 C101 3 158 -10 202 -10 C287 -10 344 41 344 117 C344 181 303 221 224 252 C155 279 119 310 119 355 C119 407 160 444 218 435 C218 435 286 399 303 357 C306 351 309 343 312 337 L329 337 L329 423 C291 445 240 460 202 460 C126 460 76 410 76 336 C76 278 114 240 187 212 C262 183 301 149 301 101 C301 48 261 12 200 12 C152 12 119 36 100 72 C93 86 82 104 75 118 L61 118 L61 38 L60 22 L60 22 Z " />
<glyph glyph-name="t" unicode="t" horiz-adv-x="320" d="M290 53 L288 59 C279 41 253 29 222 29 C176 29 146 58 146 101 L146 421 L278 421 L278 450 L146 450 L146 549 L142 549 L96 450 L18 425 L18 421 L96 421 L96 90 C96 30 133 -10 189 -10 C231 -10 272 15 290 53 L290 53 Z " />
<glyph glyph-name="u" unicode="u" horiz-adv-x="545" d="M404 400 L404 97 C361 56 309 36 263 36 C190 36 141 76 141 137 L141 450 L26 450 L26 432 L91 400 L91 107 C91 37 148 -10 234 -10 C283 -10 345 19 404 77 L404 0 L524 0 L524 18 L454 50 L454 450 L334 450 L334 432 L404 400 L404 400 Z " />
<glyph glyph-name="v" unicode="v" horiz-adv-x="545" d="M318 431 L395 395 L257 69 L101 400 L188 432 L188 450 L-24 450 L-24 432 L46 400 L231 7 L234 0 L247 0 L424 395 L500 431 L500 450 L318 450 L318 431 L318 431 Z " />
<glyph glyph-name="w" unicode="w" horiz-adv-x="838" d="M627 431 L704 395 L544 7 L547 0 L560 0 C618 132 676 264 734 395 L810 431 L810 450 L627 450 L627 431 L627 431 Z M234 450 L21 450 L21 432 L88 400 L230 6 L232 0 L248 0 L428 436 L422 450 L406 450 L404 443 L258 76 C219 184 180 292 142 400 L234 432 L234 450 L234 450 Z M544 7 L572 76 L428 436 L401 370 L544 7 L544 7 Z " />
<glyph glyph-name="x" unicode="x" horiz-adv-x="510" d="M292 0 L461 0 L461 18 L407 50 L262 245 L380 400 L440 432 L440 450 L291 450 L291 432 L351 400 L252 260 L148 400 L221 432 L221 450 L40 450 L40 432 L94 400 L220 229 L92 50 L34 18 L34 0 L194 0 L194 18 L123 50 L232 213 C272 159 312 105 352 51 L294 19 L292 0 L292 0 Z " />
<glyph glyph-name="y" unicode="y" horiz-adv-x="534" d="M351 431 L429 395 L237 -78 C206 -157 173 -188 121 -188 L95 -188 L91 -192 L91 -222 C91 -235 97 -240 112 -240 C175 -240 217 -197 260 -87 C325 74 390 235 455 395 L529 431 L529 450 L351 450 L351 431 L351 431 Z M218 450 L6 450 L6 432 L77 400 L271 6 L296 68 C242 179 186 290 133 400 L218 432 L218 450 L218 450 Z " />
<glyph glyph-name="z" unicode="z" horiz-adv-x="480" d="M77 322 L94 322 L136 422 L321 422 C240 285 158 148 77 11 L77 0 L404 0 L404 133 L387 133 L354 28 L145 28 L378 422 L396 450 L137 450 L98 460 L88 460 L87 450 C87 411 79 361 76 322 L77 322 L77 322 Z " />
<glyph glyph-name="braceleft" unicode="&#x7b;" horiz-adv-x="250" d="M77 297 C130 314 163 360 163 422 C163 487 135 575 135 640 C135 714 170 736 222 736 L245 736 L245 750 L226 750 C146 750 93 722 93 620 C93 557 126 473 126 410 C126 346 88 304 30 304 L5 304 L5 290 L30 290 C88 290 126 244 126 174 C126 111 93 28 93 -35 C93 -137 146 -156 226 -156 L245 -156 L245 -142 L221 -143 C169 -145 135 -127 135 -55 C135 10 163 96 163 161 C163 229 130 279 77 297 L77 297 Z " />
<glyph glyph-name="bar" unicode="&#x7c;" horiz-adv-x="216" d="M84 -260 L116 -260 L116 760 L84 760 L84 -260 L84 -260 Z " />
<glyph glyph-name="braceright" unicode="&#x7d;" horiz-adv-x="260" d="M255 304 L230 304 C172 304 134 346 134 410 C134 473 167 557 167 620 C167 722 114 750 34 750 L15 750 L15 736 L38 736 C90 736 125 714 125 640 C125 575 97 487 97 422 C97 360 130 314 183 297 C130 279 97 229 97 161 C97 96 125 10 125 -55 C125 -127 91 -145 39 -143 L15 -142 L15 -156 L34 -156 C114 -156 167 -137 167 -35 C167 28 134 111 134 174 C134 244 172 290 230 290 L255 290 L255 304 L255 304 Z " />
<glyph glyph-name="asciitilde" unicode="&#x7e;" horiz-adv-x="340" d="M27 225 C40 266 54 294 99 294 C137 294 189 233 227 233 C280 233 300 276 321 341 L313 341 C299 298 285 270 241 270 C203 270 151 330 113 330 C59 330 39 288 19 225 L27 225 L27 225 Z " />
<glyph glyph-name="exclamdown" unicode="&#xa1;" horiz-adv-x="204" d="M67 422 C67 373 142 374 142 422 C142 471 67 472 67 422 L67 422 Z M70 -210 L139 -210 L111 305 L98 305 L70 -210 L70 -210 Z " />
<glyph glyph-name="cent" unicode="&#xa2;" horiz-adv-x="477" d="M429 101 C387 63 331 37 288 37 C273 37 259 38 245 41 L245 433 C295 437 343 417 367 383 L394 346 L398 346 L403 354 L431 381 C431 381 431 381 431 382 C431 382 431 382 431 381 L430 383 C429 387 422 397 412 410 C385 447 313 467 243 458 L243 520 L217 520 L217 453 C113 427 48 336 48 209 C48 93 114 11 217 -6 L217 -79 L243 -79 L243 -9 C323 -14 394 28 431 96 L431 102 L429 101 L429 101 Z M217 49 C143 75 97 144 97 238 C97 338 143 410 217 429 L217 49 Z " />
<glyph glyph-name="guillemotleft" unicode="&#xab;" horiz-adv-x="431" d="M404 425 L204 248 L404 70 L411 70 L266 248 L411 425 L404 425 L404 425 Z M217 425 L17 248 L217 70 L224 70 L79 248 L224 425 L217 425 L217 425 Z " />
<glyph glyph-name="acute" unicode="&#xb4;" horiz-adv-x="340" d="M171 530 L179 530 L290 669 C301 683 308 707 308 707 L258 707 L171 530 L171 530 Z " />
<glyph glyph-name="periodcentered" unicode="&#xb7;" horiz-adv-x="205" d="M140 248 C140 297 65 296 65 248 C65 199 140 198 140 248 L140 248 Z " />
<glyph glyph-name="guillemotright" unicode="&#xbb;" horiz-adv-x="412" d="M191 425 L329 248 L191 70 L198 70 L392 248 L198 425 L191 425 L191 425 Z M20 425 L158 248 L20 70 L27 70 L221 248 L27 425 L20 425 L20 425 Z " />
<glyph glyph-name="questiondown" unicode="&#xbf;" horiz-adv-x="469" d="M235 417 C235 369 310 368 310 417 C310 467 235 466 235 417 L235 417 Z M374 -64 C374 -64 412 -59 429 -59 C429 -44 419 -34 405 -34 L379 -34 C379 -34 375 -40 374 -40 L374 -64 L374 -64 Z M374 -64 C374 -141 323 -192 247 -192 C166 -192 112 -137 112 -54 C112 25 186 89 296 105 C296 165 279 305 279 305 L267 305 C267 305 261 219 258 153 C135 126 55 46 55 -53 C55 -153 124 -219 227 -219 C348 -219 429 -155 429 -58 L374 -64 L374 -64 Z " />
<glyph glyph-name="Agrave" unicode="&#xc0;" horiz-adv-x="739" d="M364 705 L277 864 L227 864 C227 864 234 843 245 830 L356 705 L364 705 L364 705 Z M492 0 L704 0 L704 16 L640 45 C553 252 468 459 380 665 L352 665 L96 50 L17 18 L17 0 L218 0 L218 18 L138 50 L218 245 L497 245 L497 249 C524 183 552 116 579 50 L492 18 L492 0 L492 0 Z M484 280 L232 280 L357 587 L484 280 L484 280 Z " />
<glyph glyph-name="Aacute" unicode="&#xc1;" horiz-adv-x="739" d="M360 705 L368 705 L479 830 C490 843 497 864 497 864 L447 864 L360 705 L360 705 Z M492 0 L704 0 L704 16 L640 45 C553 252 468 459 380 665 L352 665 L96 50 L17 18 L17 0 L218 0 L218 18 L138 50 L218 245 L497 245 L497 249 C524 183 552 116 579 50 L492 18 L492 0 L492 0 Z M484 280 L232 280 L357 587 L484 280 L484 280 Z " />
<glyph glyph-name="Acircumflex" unicode="&#xc2;" horiz-adv-x="739" d="M503 705 L373 863 L355 863 L230 705 L237 705 L365 811 L496 705 L503 705 L503 705 Z M492 0 L704 0 L704 16 L640 45 C553 252 468 459 380 665 L352 665 L96 50 L17 18 L17 0 L218 0 L218 18 L138 50 L218 245 L497 245 L497 249 C524 183 552 116 579 50 L492 18 L492 0 L492 0 Z M484 280 L232 280 L357 587 L484 280 L484 280 Z " />
<glyph glyph-name="Atilde" unicode="&#xc3;" horiz-adv-x="739" d="M226 728 C239 764 253 790 298 790 C336 790 388 735 426 735 C479 735 499 773 520 832 L512 832 C498 793 484 768 440 768 C402 768 350 822 312 822 C258 822 238 784 218 728 L226 728 L226 728 Z M492 0 L704 0 L704 16 L640 45 C553 252 468 459 380 665 L352 665 L96 50 L17 18 L17 0 L218 0 L218 18 L138 50 L218 245 L497 245 L497 249 C524 183 552 116 579 50 L492 18 L492 0 L492 0 Z M484 280 L232 280 L357 587 L484 280 L484 280 Z " />
<glyph glyph-name="Adieresis" unicode="&#xc4;" horiz-adv-x="739" d="M470 766 C470 808 408 808 408 766 C408 725 470 725 470 766 L470 766 Z M320 766 C320 808 258 808 258 766 C258 725 320 725 320 766 L320 766 Z M492 0 L704 0 L704 16 L640 45 C553 252 468 459 380 665 L352 665 L96 50 L17 18 L17 0 L218 0 L218 18 L138 50 L218 245 L497 245 L497 249 C524 183 552 116 579 50 L492 18 L492 0 L492 0 Z M484 280 L232 280 L357 587 L484 280 L484 280 Z " />
<glyph glyph-name="Aring" unicode="&#xc5;" horiz-adv-x="739" d="M314 793 C314 828 334 851 363 851 C394 851 414 824 414 784 C414 752 392 725 367 725 C338 725 314 756 314 793 L314 793 Z M283 788 C283 746 320 710 364 710 C408 710 445 746 445 789 C445 835 413 866 364 866 C315 866 283 835 283 788 L283 788 Z M492 0 L704 0 L704 16 L640 45 C553 252 468 459 380 665 L352 665 L96 50 L17 18 L17 0 L218 0 L218 18 L138 50 L218 245 L497 245 L497 249 C524 183 552 116 579 50 L492 18 L492 0 L492 0 Z M484 280 L232 280 L357 587 L484 280 L484 280 Z " />
<glyph glyph-name="Ccedilla" unicode="&#xc7;" horiz-adv-x="714" d="M549 51 C504 32 449 21 399 21 C236 21 128 145 128 332 C128 516 242 639 412 639 C456 639 500 630 536 615 C536 615 543 608 544 606 C562 565 587 510 605 469 C610 469 616 470 622 470 L616 621 C582 650 500 669 412 669 C207 669 70 526 70 312 C70 120 199 -8 392 -11 C387 -23 366 -68 337 -131 L355 -139 C401 -153 431 -171 431 -185 C431 -208 415 -224 392 -224 C359 -224 329 -218 317 -209 L317 -216 C337 -231 371 -241 401 -241 C441 -241 468 -215 468 -175 C468 -149 430 -119 372 -101 C394 -54 409 -21 413 -11 C499 -9 582 10 624 39 L632 175 C626 175 621 176 616 176 C598 140 575 93 557 57 C556 54 549 48 549 48 L549 51 L549 51 Z " />
<glyph glyph-name="Egrave" unicode="&#xc8;" horiz-adv-x="650" d="M340 705 L253 864 L203 864 C203 864 210 843 221 830 L332 705 L340 705 L340 705 Z M580 159 L563 159 L505 34 L201 34 L201 323 L405 323 L447 243 L470 243 L470 437 L447 437 L405 357 L201 357 L201 626 L480 626 L538 511 L555 511 L555 660 L65 660 L65 641 L145 605 L145 55 L65 19 L65 0 L580 0 L580 159 L580 159 Z " />
<glyph glyph-name="Eacute" unicode="&#xc9;" horiz-adv-x="650" d="M336 705 L344 705 L455 830 C466 843 473 864 473 864 L423 864 L336 705 L336 705 Z M580 159 L563 159 L505 34 L201 34 L201 323 L405 323 L447 243 L470 243 L470 437 L447 437 L405 357 L201 357 L201 626 L480 626 L538 511 L555 511 L555 660 L65 660 L65 641 L145 605 L145 55 L65 19 L65 0 L580 0 L580 159 L580 159 Z " />
<glyph glyph-name="Ecircumflex" unicode="&#xca;" horiz-adv-x="650" d="M474 705 L344 863 L326 863 L201 705 L208 705 L336 811 L467 705 L474 705 L474 705 Z M580 159 L563 159 L505 34 L201 34 L201 323 L405 323 L447 243 L470 243 L470 437 L447 437 L405 357 L201 357 L201 626 L480 626 L538 511 L555 511 L555 660 L65 660 L65 641 L145 605 L145 55 L65 19 L65 0 L580 0 L580 159 L580 159 Z " />
<glyph glyph-name="Edieresis" unicode="&#xcb;" horiz-adv-x="650" d="M441 766 C441 808 379 808 379 766 C379 725 441 725 441 766 L441 766 Z M291 766 C291 808 229 808 229 766 C229 725 291 725 291 766 L291 766 Z M580 159 L563 159 L505 34 L201 34 L201 323 L405 323 L447 243 L470 243 L470 437 L447 437 L405 357 L201 357 L201 626 L480 626 L538 511 L555 511 L555 660 L65 660 L65 641 L145 605 L145 55 L65 19 L65 0 L580 0 L580 159 L580 159 Z " />
<glyph glyph-name="Igrave" unicode="&#xcc;" horiz-adv-x="356" d="M183 705 L96 864 L46 864 C46 864 53 843 64 830 L175 705 L183 705 L183 705 Z M286 0 L286 19 L206 55 L206 605 L286 641 L286 660 L70 660 L70 641 L150 605 L150 55 L70 19 L70 0 L286 0 L286 0 Z " />
<glyph glyph-name="Iacute" unicode="&#xcd;" horiz-adv-x="356" d="M179 705 L187 705 L298 830 C309 843 316 864 316 864 L266 864 L179 705 L179 705 Z M286 0 L286 19 L206 55 L206 605 L286 641 L286 660 L70 660 L70 641 L150 605 L150 55 L70 19 L70 0 L286 0 L286 0 Z " />
<glyph glyph-name="Icircumflex" unicode="&#xce;" horiz-adv-x="356" d="M317 705 L187 863 L169 863 L44 705 L51 705 L179 811 L310 705 L317 705 L317 705 Z M286 0 L286 19 L206 55 L206 605 L286 641 L286 660 L70 660 L70 641 L150 605 L150 55 L70 19 L70 0 L286 0 L286 0 Z " />
<glyph glyph-name="Idieresis" unicode="&#xcf;" horiz-adv-x="356" d="M284 766 C284 808 222 808 222 766 C222 725 284 725 284 766 L284 766 Z M134 766 C134 808 72 808 72 766 C72 725 134 725 134 766 L134 766 Z M286 0 L286 19 L206 55 L206 605 L286 641 L286 660 L70 660 L70 641 L150 605 L150 55 L70 19 L70 0 L286 0 L286 0 Z " />
<glyph glyph-name="Ntilde" unicode="&#xd1;" horiz-adv-x="799" d="M273 728 C286 764 300 790 345 790 C383 790 435 735 473 735 C526 735 546 773 567 832 L559 832 C545 793 531 768 487 768 C449 768 397 822 359 822 C305 822 285 784 265 728 L273 728 L273 728 Z M68 641 L143 605 L143 55 L63 19 L63 0 L287 0 L287 19 L187 55 L187 567 C337 376 488 186 638 -5 L659 -5 L659 605 L734 641 L734 660 L515 660 L515 641 L615 605 L615 115 L187 660 L68 660 L68 641 L68 641 Z " />
<glyph glyph-name="Ograve" unicode="&#xd2;" horiz-adv-x="798" d="M389 705 L302 864 L252 864 C252 864 259 843 270 830 L381 705 L389 705 L389 705 Z M130 353 C130 525 233 639 388 639 C556 639 668 506 668 307 C668 135 566 21 412 21 C243 21 130 154 130 353 L130 353 Z M70 332 C70 127 202 -10 399 -10 C596 -10 728 125 728 328 C728 533 596 670 399 670 C202 670 70 535 70 332 L70 332 Z " />
<glyph glyph-name="Oacute" unicode="&#xd3;" horiz-adv-x="798" d="M385 705 L393 705 L504 830 C515 843 522 864 522 864 L472 864 L385 705 L385 705 Z M130 353 C130 525 233 639 388 639 C556 639 668 506 668 307 C668 135 566 21 412 21 C243 21 130 154 130 353 L130 353 Z M70 332 C70 127 202 -10 399 -10 C596 -10 728 125 728 328 C728 533 596 670 399 670 C202 670 70 535 70 332 L70 332 Z " />
<glyph glyph-name="Ocircumflex" unicode="&#xd4;" horiz-adv-x="798" d="M523 705 L393 863 L375 863 L250 705 L257 705 L385 811 L516 705 L523 705 L523 705 Z M130 353 C130 525 233 639 388 639 C556 639 668 506 668 307 C668 135 566 21 412 21 C243 21 130 154 130 353 L130 353 Z M70 332 C70 127 202 -10 399 -10 C596 -10 728 125 728 328 C728 533 596 670 399 670 C202 670 70 535 70 332 L70 332 Z " />
<glyph glyph-name="Otilde" unicode="&#xd5;" horiz-adv-x="798" d="M241 728 C254 764 268 790 313 790 C351 790 403 735 441 735 C494 735 514 773 535 832 L527 832 C513 793 499 768 455 768 C417 768 365 822 327 822 C273 822 253 784 233 728 L241 728 L241 728 Z M130 353 C130 525 233 639 388 639 C556 639 668 506 668 307 C668 135 566 21 412 21 C243 21 130 154 130 353 L130 353 Z M70 332 C70 127 202 -10 399 -10 C596 -10 728 125 728 328 C728 533 596 670 399 670 C202 670 70 535 70 332 L70 332 Z " />
<glyph glyph-name="Odieresis" unicode="&#xd6;" horiz-adv-x="798" d="M490 766 C490 808 428 808 428 766 C428 725 490 725 490 766 L490 766 Z M340 766 C340 808 278 808 278 766 C278 725 340 725 340 766 L340 766 Z M130 353 C130 525 233 639 388 639 C556 639 668 506 668 307 C668 135 566 21 412 21 C243 21 130 154 130 353 L130 353 Z M70 332 C70 127 202 -10 399 -10 C596 -10 728 125 728 328 C728 533 596 670 399 670 C202 670 70 535 70 332 L70 332 Z " />
<glyph glyph-name="Oslash" unicode="&#xd8;" horiz-adv-x="798" d="M70 332 C70 231 102 147 158 87 L70 -10 L113 -10 L181 65 C237 17 312 -10 399 -10 C596 -10 728 125 728 328 C728 429 696 513 640 573 L728 670 L685 670 L617 595 C561 643 486 670 399 670 C202 670 70 535 70 332 L70 332 Z M583 557 L195 128 C153 185 130 262 130 353 C130 525 233 639 388 639 C467 639 534 609 582 557 L583 557 L583 557 Z M602 532 C643 475 666 398 666 307 C666 135 564 21 410 21 C330 21 263 51 214 104 L602 532 Z " />
<glyph glyph-name="Ugrave" unicode="&#xd9;" horiz-adv-x="812" d="M425 705 L338 864 L288 864 C288 864 295 843 306 830 L417 705 L425 705 L425 705 Z M153 605 L153 234 C153 88 256 -10 410 -10 C564 -10 667 88 667 234 L667 605 L747 641 L747 660 L523 660 L523 641 L623 605 L623 221 C623 104 545 26 427 26 C296 26 209 113 209 244 L209 605 L289 641 L289 660 L73 660 L73 641 L153 605 L153 605 Z " />
<glyph glyph-name="Uacute" unicode="&#xda;" horiz-adv-x="812" d="M411 705 L419 705 L530 830 C541 843 548 864 548 864 L498 864 L411 705 L411 705 Z M153 605 L153 234 C153 88 256 -10 410 -10 C564 -10 667 88 667 234 L667 605 L747 641 L747 660 L523 660 L523 641 L623 605 L623 221 C623 104 545 26 427 26 C296 26 209 113 209 244 L209 605 L289 641 L289 660 L73 660 L73 641 L153 605 L153 605 Z " />
<glyph glyph-name="Ucircumflex" unicode="&#xdb;" horiz-adv-x="812" d="M559 705 L429 863 L411 863 L286 705 L293 705 L421 811 L552 705 L559 705 L559 705 Z M153 605 L153 234 C153 88 256 -10 410 -10 C564 -10 667 88 667 234 L667 605 L747 641 L747 660 L523 660 L523 641 L623 605 L623 221 C623 104 545 26 427 26 C296 26 209 113 209 244 L209 605 L289 641 L289 660 L73 660 L73 641 L153 605 L153 605 Z " />
<glyph glyph-name="Udieresis" unicode="&#xdc;" horiz-adv-x="812" d="M526 766 C526 808 464 808 464 766 C464 725 526 725 526 766 L526 766 Z M376 766 C376 808 314 808 314 766 C314 725 376 725 376 766 L376 766 Z M153 605 L153 234 C153 88 256 -10 410 -10 C564 -10 667 88 667 234 L667 605 L747 641 L747 660 L523 660 L523 641 L623 605 L623 221 C623 104 545 26 427 26 C296 26 209 113 209 244 L209 605 L289 641 L289 660 L73 660 L73 641 L153 605 L153 605 Z " />
<glyph glyph-name="Yacute" unicode="&#xdd;" horiz-adv-x="711" d="M353 705 L361 705 L472 830 C483 843 490 864 490 864 L440 864 L353 705 L353 705 Z M230 660 L32 660 L32 642 L96 610 L334 302 L334 54 L244 18 L244 -1 L480 -1 L480 18 L390 54 L390 303 L617 619 L676 645 L676 659 L490 659 L490 640 L565 604 L373 338 L163 604 L230 640 L230 660 L230 660 Z " />
<glyph glyph-name="agrave" unicode="&#xe0;" horiz-adv-x="482" d="M242 530 L155 707 L105 707 C105 707 112 683 123 669 L234 530 L242 530 L242 530 Z M119 336 C119 390 163 431 221 431 C290 431 325 393 325 335 L325 258 C147 220 55 155 55 86 C55 28 100 -10 168 -10 C230 -10 289 13 326 57 C332 16 360 -10 399 -10 C431 -10 461 11 474 42 L472 45 C467 34 451 27 431 27 C397 27 375 44 375 69 L375 348 C375 415 328 460 237 460 C140 460 67 405 67 332 C67 321 72 314 80 315 L114 315 L119 320 L119 336 L119 336 Z M325 235 L325 74 C296 43 248 28 195 28 C140 28 103 56 103 98 C103 152 178 204 325 236 L325 235 L325 235 Z " />
<glyph glyph-name="aacute" unicode="&#xe1;" horiz-adv-x="482" d="M238 530 L246 530 L357 669 C368 683 375 707 375 707 L325 707 L238 530 L238 530 Z M119 336 C119 390 163 431 221 431 C290 431 325 393 325 335 L325 258 C147 220 55 155 55 86 C55 28 100 -10 168 -10 C230 -10 289 13 326 57 C332 16 360 -10 399 -10 C431 -10 461 11 474 42 L472 45 C467 34 451 27 431 27 C397 27 375 44 375 69 L375 348 C375 415 328 460 237 460 C140 460 67 405 67 332 C67 321 72 314 80 315 L114 315 L119 320 L119 336 L119 336 Z M325 235 L325 74 C296 43 248 28 195 28 C140 28 103 56 103 98 C103 152 178 204 325 236 L325 235 L325 235 Z " />
<glyph glyph-name="acircumflex" unicode="&#xe2;" horiz-adv-x="482" d="M376 530 L246 705 L228 705 L103 530 L110 530 L238 648 L369 530 L376 530 L376 530 Z M119 336 C119 390 163 431 221 431 C290 431 325 393 325 335 L325 258 C147 220 55 155 55 86 C55 28 100 -10 168 -10 C230 -10 289 13 326 57 C332 16 360 -10 399 -10 C431 -10 461 11 474 42 L472 45 C467 34 451 27 431 27 C397 27 375 44 375 69 L375 348 C375 415 328 460 237 460 C140 460 67 405 67 332 C67 321 72 314 80 315 L114 315 L119 320 L119 336 L119 336 Z M325 235 L325 74 C296 43 248 28 195 28 C140 28 103 56 103 98 C103 152 178 204 325 236 L325 235 L325 235 Z " />
<glyph glyph-name="atilde" unicode="&#xe3;" horiz-adv-x="482" d="M79 555 C92 596 106 624 151 624 C189 624 241 563 279 563 C332 563 352 606 373 671 L365 671 C351 628 337 600 293 600 C255 600 203 660 165 660 C111 660 91 618 71 555 L79 555 L79 555 Z M119 336 C119 390 163 431 221 431 C290 431 325 393 325 335 L325 258 C147 220 55 155 55 86 C55 28 100 -10 168 -10 C230 -10 289 13 326 57 C332 16 360 -10 399 -10 C431 -10 461 11 474 42 L472 45 C467 34 451 27 431 27 C397 27 375 44 375 69 L375 348 C375 415 328 460 237 460 C140 460 67 405 67 332 C67 321 72 314 80 315 L114 315 L119 320 L119 336 L119 336 Z M325 235 L325 74 C296 43 248 28 195 28 C140 28 103 56 103 98 C103 152 178 204 325 236 L325 235 L325 235 Z " />
<glyph glyph-name="adieresis" unicode="&#xe4;" horiz-adv-x="482" d="M328 601 C328 643 266 643 266 601 C266 560 328 560 328 601 L328 601 Z M178 601 C178 643 116 643 116 601 C116 560 178 560 178 601 L178 601 Z M119 336 C119 390 163 431 221 431 C290 431 325 393 325 335 L325 258 C147 220 55 155 55 86 C55 28 100 -10 168 -10 C230 -10 289 13 326 57 C332 16 360 -10 399 -10 C431 -10 461 11 474 42 L472 45 C467 34 451 27 431 27 C397 27 375 44 375 69 L375 348 C375 415 328 460 237 460 C140 460 67 405 67 332 C67 321 72 314 80 315 L114 315 L119 320 L119 336 L119 336 Z M325 235 L325 74 C296 43 248 28 195 28 C140 28 103 56 103 98 C103 152 178 204 325 236 L325 235 L325 235 Z " />
<glyph glyph-name="aring" unicode="&#xe5;" horiz-adv-x="482" d="M177 618 C177 653 197 676 226 676 C257 676 277 649 277 609 C277 577 255 550 230 550 C201 550 177 581 177 618 L177 618 Z M146 613 C146 571 183 535 227 535 C271 535 308 571 308 614 C308 660 276 691 227 691 C178 691 146 660 146 613 L146 613 Z M119 336 C119 390 163 431 221 431 C290 431 325 393 325 335 L325 258 C147 220 55 155 55 86 C55 28 100 -10 168 -10 C230 -10 289 13 326 57 C332 16 360 -10 399 -10 C431 -10 461 11 474 42 L472 45 C467 34 451 27 431 27 C397 27 375 44 375 69 L375 348 C375 415 328 460 237 460 C140 460 67 405 67 332 C67 321 72 314 80 315 L114 315 L119 320 L119 336 L119 336 Z M325 235 L325 74 C296 43 248 28 195 28 C140 28 103 56 103 98 C103 152 178 204 325 236 L325 235 L325 235 Z " />
<glyph glyph-name="ccedilla" unicode="&#xe7;" horiz-adv-x="477" d="M429 101 C387 63 331 37 288 37 C175 37 99 117 99 237 C99 355 163 434 260 434 C302 434 346 414 368 383 L395 346 L399 346 L404 354 L432 381 C432 381 432 381 432 382 C432 382 432 382 432 381 L431 383 C430 387 423 397 413 410 C391 440 338 460 280 460 C141 460 49 360 49 209 C49 80 130 -7 253 -10 C248 -22 227 -67 198 -130 L216 -138 C262 -152 292 -170 292 -184 C292 -207 276 -223 253 -223 C220 -223 190 -217 178 -208 L178 -215 C198 -230 232 -240 262 -240 C302 -240 329 -214 329 -174 C329 -148 291 -118 233 -100 C255 -52 270 -19 274 -10 C338 -4 400 36 432 94 L432 100 L429 101 L429 101 Z " />
<glyph glyph-name="egrave" unicode="&#xe8;" horiz-adv-x="483" d="M256 530 L169 707 L119 707 C119 707 126 682 137 669 L249 530 L256 530 L256 530 Z M101 273 C112 371 168 433 248 433 C324 433 378 370 386 273 L101 273 Z M428 101 C386 63 330 37 287 37 C172 37 96 120 99 244 L411 244 L433 247 C433 375 364 460 261 460 C134 460 50 360 50 209 C50 78 134 -10 261 -10 C330 -10 399 32 433 95 L433 101 L428 101 L428 101 Z " />
<glyph glyph-name="eacute" unicode="&#xe9;" horiz-adv-x="483" d="M253 530 L260 530 L372 669 C383 682 390 707 390 707 L340 707 L253 530 L253 530 Z M101 273 C112 371 168 433 248 433 C324 433 378 370 386 273 L101 273 Z M428 101 C386 63 330 37 287 37 C172 37 96 120 99 244 L411 244 L433 247 C433 375 364 460 261 460 C134 460 50 360 50 209 C50 78 134 -10 261 -10 C330 -10 399 32 433 95 L433 101 L428 101 L428 101 Z " />
<glyph glyph-name="ecircumflex" unicode="&#xea;" horiz-adv-x="483" d="M391 530 L261 705 L242 705 L117 530 L125 530 L252 648 L383 530 L391 530 L391 530 Z M101 273 C112 371 168 433 248 433 C324 433 378 370 386 273 L101 273 Z M428 101 C386 63 330 37 287 37 C172 37 96 120 99 244 L411 244 L433 247 C433 375 364 460 261 460 C134 460 50 360 50 209 C50 78 134 -10 261 -10 C330 -10 399 32 433 95 L433 101 L428 101 L428 101 Z " />
<glyph glyph-name="edieresis" unicode="&#xeb;" horiz-adv-x="483" d="M358 601 C358 643 295 642 295 601 C295 561 358 560 358 601 L358 601 Z M208 601 C208 643 145 642 145 601 C145 561 208 560 208 601 L208 601 Z M101 273 C112 371 168 433 248 433 C324 433 378 370 386 273 L101 273 Z M428 101 C386 63 330 37 287 37 C172 37 96 120 99 244 L411 244 L433 247 C433 375 364 460 261 460 C134 460 50 360 50 209 C50 78 134 -10 261 -10 C330 -10 399 32 433 95 L433 101 L428 101 L428 101 Z " />
<glyph glyph-name="igrave" unicode="&#xec;" horiz-adv-x="287" d="M144 530 L57 707 L7 707 C7 707 14 683 25 669 L136 530 L144 530 L144 530 Z M234 0 L234 18 L169 50 L169 460 L159 460 L54 419 L54 413 L101 373 C112 364 119 357 119 357 L119 50 L54 18 L54 0 L234 0 L234 0 Z " />
<glyph glyph-name="iacute" unicode="&#xed;" horiz-adv-x="287" d="M140 530 L148 530 L259 669 C270 683 277 707 277 707 L227 707 L140 530 L140 530 Z M234 0 L234 18 L169 50 L169 460 L159 460 L54 419 L54 413 L101 373 C112 364 119 357 119 357 L119 50 L54 18 L54 0 L234 0 L234 0 Z " />
<glyph glyph-name="icircumflex" unicode="&#xee;" horiz-adv-x="287" d="M278 530 L148 705 L130 705 L5 530 L12 530 L140 648 L271 530 L278 530 L278 530 Z M234 0 L234 18 L169 50 L169 460 L159 460 L54 419 L54 413 L101 373 C112 364 119 357 119 357 L119 50 L54 18 L54 0 L234 0 L234 0 Z " />
<glyph glyph-name="idieresis" unicode="&#xef;" horiz-adv-x="287" d="M245 601 C245 643 183 643 183 601 C183 560 245 560 245 601 L245 601 Z M95 601 C95 643 33 643 33 601 C33 560 95 560 95 601 L95 601 Z M234 0 L234 18 L169 50 L169 460 L159 460 L54 419 L54 413 L101 373 C112 364 119 357 119 357 L119 50 L54 18 L54 0 L234 0 L234 0 Z " />
<glyph glyph-name="ntilde" unicode="&#xf1;" horiz-adv-x="583" d="M154 555 C167 596 181 624 225 624 C263 624 315 563 353 563 C407 563 427 606 448 671 L439 671 C425 628 411 600 368 600 C330 600 278 660 240 660 C185 660 165 618 145 555 L154 555 L154 555 Z M543 0 L543 18 L478 50 L478 343 C478 413 420 460 332 460 C267 460 213 427 165 377 L165 382 L164 382 C163 412 162 460 162 460 L152 460 L50 419 L50 413 L97 373 C108 364 115 357 115 357 L115 50 L50 18 L50 0 L235 0 L235 18 L165 50 L165 358 C199 393 243 416 304 416 C378 416 428 375 428 314 L428 50 L358 18 L358 0 L543 0 L543 0 Z " />
<glyph glyph-name="ograve" unicode="&#xf2;" horiz-adv-x="529" d="M269 530 L182 707 L132 707 C132 707 139 682 150 669 L262 530 L269 530 L269 530 Z M108 225 C108 350 158 434 256 434 C356 434 422 350 422 225 C422 100 371 16 273 16 C174 16 108 100 108 225 L108 225 Z M50 225 C50 84 136 -10 265 -10 C406 -10 479 84 479 225 C479 366 393 460 265 460 C123 460 50 366 50 225 L50 225 Z " />
<glyph glyph-name="oacute" unicode="&#xf3;" horiz-adv-x="529" d="M266 530 L273 530 L385 669 C396 682 403 707 403 707 L353 707 L266 530 L266 530 Z M108 225 C108 350 158 434 256 434 C356 434 422 350 422 225 C422 100 371 16 273 16 C174 16 108 100 108 225 L108 225 Z M50 225 C50 84 136 -10 265 -10 C406 -10 479 84 479 225 C479 366 393 460 265 460 C123 460 50 366 50 225 L50 225 Z " />
<glyph glyph-name="ocircumflex" unicode="&#xf4;" horiz-adv-x="529" d="M404 530 L274 705 L255 705 L130 530 L138 530 L265 648 L396 530 L404 530 L404 530 Z M108 225 C108 350 158 434 256 434 C356 434 422 350 422 225 C422 100 371 16 273 16 C174 16 108 100 108 225 L108 225 Z M50 225 C50 84 136 -10 265 -10 C406 -10 479 84 479 225 C479 366 393 460 265 460 C123 460 50 366 50 225 L50 225 Z " />
<glyph glyph-name="otilde" unicode="&#xf5;" horiz-adv-x="529" d="M122 555 C135 596 149 624 193 624 C231 624 283 563 321 563 C375 563 395 606 416 671 L407 671 C393 628 379 600 336 600 C298 600 246 660 208 660 C153 660 133 618 113 555 L122 555 L122 555 Z M108 225 C108 350 158 434 256 434 C356 434 422 350 422 225 C422 100 371 16 273 16 C174 16 108 100 108 225 L108 225 Z M50 225 C50 84 136 -10 265 -10 C406 -10 479 84 479 225 C479 366 393 460 265 460 C123 460 50 366 50 225 L50 225 Z " />
<glyph glyph-name="odieresis" unicode="&#xf6;" horiz-adv-x="529" d="M371 601 C371 643 308 642 308 601 C308 561 371 560 371 601 L371 601 Z M221 601 C221 643 158 642 158 601 C158 561 221 560 221 601 L221 601 Z M108 225 C108 350 158 434 256 434 C356 434 422 350 422 225 C422 100 371 16 273 16 C174 16 108 100 108 225 L108 225 Z M50 225 C50 84 136 -10 265 -10 C406 -10 479 84 479 225 C479 366 393 460 265 460 C123 460 50 366 50 225 L50 225 Z " />
<glyph glyph-name="oslash" unicode="&#xf8;" horiz-adv-x="529" d="M50 225 C50 156 70 99 106 58 L50 -10 L91 -10 L129 36 C165 7 211 -9 265 -9 C406 -9 479 85 479 226 C479 295 459 353 423 394 L479 462 L438 462 L400 416 C364 445 318 461 265 461 C123 461 50 367 50 226 L50 225 L50 225 Z M373 382 L138 98 C119 132 108 176 108 226 C108 351 158 435 256 435 C304 435 344 416 373 382 L373 382 Z M392 355 C412 321 423 277 423 226 C423 101 372 17 274 17 C226 17 186 36 157 70 L392 355 Z " />
<glyph glyph-name="ugrave" unicode="&#xf9;" horiz-adv-x="545" d="M272 530 L185 707 L135 707 C135 707 142 682 153 669 L265 530 L272 530 L272 530 Z M404 400 L404 97 C361 56 309 36 263 36 C190 36 141 76 141 137 L141 450 L26 450 L26 432 L91 400 L91 107 C91 37 148 -10 234 -10 C283 -10 345 19 404 77 L404 0 L524 0 L524 18 L454 50 L454 450 L334 450 L334 432 L404 400 L404 400 Z " />
<glyph glyph-name="uacute" unicode="&#xfa;" horiz-adv-x="545" d="M269 530 L276 530 L388 669 C399 682 406 707 406 707 L356 707 L269 530 L269 530 Z M404 400 L404 97 C361 56 309 36 263 36 C190 36 141 76 141 137 L141 450 L26 450 L26 432 L91 400 L91 107 C91 37 148 -10 234 -10 C283 -10 345 19 404 77 L404 0 L524 0 L524 18 L454 50 L454 450 L334 450 L334 432 L404 400 L404 400 Z " />
<glyph glyph-name="ucircumflex" unicode="&#xfb;" horiz-adv-x="545" d="M407 530 L277 705 L258 705 L133 530 L141 530 L268 648 L399 530 L407 530 L407 530 Z M404 400 L404 97 C361 56 309 36 263 36 C190 36 141 76 141 137 L141 450 L26 450 L26 432 L91 400 L91 107 C91 37 148 -10 234 -10 C283 -10 345 19 404 77 L404 0 L524 0 L524 18 L454 50 L454 450 L334 450 L334 432 L404 400 L404 400 Z " />
<glyph glyph-name="udieresis" unicode="&#xfc;" horiz-adv-x="545" d="M374 601 C374 643 311 642 311 601 C311 561 374 560 374 601 L374 601 Z M224 601 C224 643 161 642 161 601 C161 561 224 560 224 601 L224 601 Z M404 400 L404 97 C361 56 309 36 263 36 C190 36 141 76 141 137 L141 450 L26 450 L26 432 L91 400 L91 107 C91 37 148 -10 234 -10 C283 -10 345 19 404 77 L404 0 L524 0 L524 18 L454 50 L454 450 L334 450 L334 432 L404 400 L404 400 Z " />
<glyph glyph-name="yacute" unicode="&#xfd;" horiz-adv-x="474" d="M249 530 L256 530 L368 669 C379 682 386 707 386 707 L336 707 L249 530 L249 530 Z M321 431 L399 395 L207 -78 C176 -157 143 -188 91 -188 L65 -188 L61 -192 L61 -222 C61 -235 67 -240 82 -240 C145 -240 187 -197 230 -87 C295 74 360 235 425 395 L499 431 L499 450 L321 450 L321 431 L321 431 Z M188 450 L-24 450 L-24 432 L47 400 L241 6 L266 68 C212 179 156 290 103 400 L188 432 L188 450 L188 450 Z " />
<glyph glyph-name="ydieresis" unicode="&#xff;" horiz-adv-x="474" d="M354 601 C354 643 291 642 291 601 C291 561 354 560 354 601 L354 601 Z M204 601 C204 643 141 642 141 601 C141 561 204 560 204 601 L204 601 Z M321 431 L399 395 L207 -78 C176 -157 143 -188 91 -188 L65 -188 L61 -192 L61 -222 C61 -235 67 -240 82 -240 C145 -240 187 -197 230 -87 C295 74 360 235 425 395 L499 431 L499 450 L321 450 L321 431 L321 431 Z M188 450 L-24 450 L-24 432 L47 400 L241 6 L266 68 C212 179 156 290 103 400 L188 432 L188 450 L188 450 Z " />
<glyph glyph-name="Amacron" unicode="&#x100;" horiz-adv-x="739" d="M231 767 L497 767 L497 798 L231 798 L231 767 L231 767 Z M492 0 L704 0 L704 16 L640 45 C553 252 468 459 380 665 L352 665 L96 50 L17 18 L17 0 L218 0 L218 18 L138 50 L218 245 L497 245 L497 249 C524 183 552 116 579 50 L492 18 L492 0 L492 0 Z M484 280 L232 280 L357 587 L484 280 L484 280 Z " />
<glyph glyph-name="amacron" unicode="&#x101;" horiz-adv-x="482" d="M94 597 L360 597 L360 628 L94 628 L94 597 L94 597 Z M119 336 C119 390 163 431 221 431 C290 431 325 393 325 335 L325 258 C147 220 55 155 55 86 C55 28 100 -10 168 -10 C230 -10 289 13 326 57 C332 16 360 -10 399 -10 C431 -10 461 11 474 42 L472 45 C467 34 451 27 431 27 C397 27 375 44 375 69 L375 348 C375 415 328 460 237 460 C140 460 67 405 67 332 C67 321 72 314 80 315 L114 315 L119 320 L119 336 L119 336 Z M325 235 L325 74 C296 43 248 28 195 28 C140 28 103 56 103 98 C103 152 178 204 325 236 L325 235 L325 235 Z " />
<glyph glyph-name="Abreve" unicode="&#x102;" horiz-adv-x="739" d="M232 842 L223 842 C256 750 296 714 364 714 C432 714 472 750 505 842 L496 842 C473 777 436 752 364 752 C292 752 255 777 232 842 L232 842 Z M492 0 L704 0 L704 16 L640 45 C553 252 468 459 380 665 L352 665 L96 50 L17 18 L17 0 L218 0 L218 18 L138 50 L218 245 L497 245 L497 249 C524 183 552 116 579 50 L492 18 L492 0 L492 0 Z M484 280 L232 280 L357 587 L484 280 L484 280 Z " />
<glyph glyph-name="abreve" unicode="&#x103;" horiz-adv-x="482" d="M95 682 L86 682 C119 580 159 540 227 540 C295 540 335 580 368 682 L359 682 C336 610 299 582 227 582 C155 582 118 610 95 682 L95 682 Z M119 336 C119 390 163 431 221 431 C290 431 325 393 325 335 L325 258 C147 220 55 155 55 86 C55 28 100 -10 168 -10 C230 -10 289 13 326 57 C332 16 360 -10 399 -10 C431 -10 461 11 474 42 L472 45 C467 34 451 27 431 27 C397 27 375 44 375 69 L375 348 C375 415 328 460 237 460 C140 460 67 405 67 332 C67 321 72 314 80 315 L114 315 L119 320 L119 336 L119 336 Z M325 235 L325 74 C296 43 248 28 195 28 C140 28 103 56 103 98 C103 152 178 204 325 236 L325 235 L325 235 Z " />
<glyph glyph-name="Cacute" unicode="&#x106;" horiz-adv-x="714" d="M369 705 L376 705 L488 830 C499 842 506 864 506 864 L456 864 L369 705 L369 705 Z M549 51 C504 32 449 21 399 21 C236 21 128 145 128 332 C128 516 242 639 412 639 C456 639 500 630 536 615 C536 615 543 608 544 606 C562 565 587 510 605 469 C610 469 616 470 622 470 L616 621 C582 650 500 669 412 669 C207 669 70 526 70 312 C70 118 202 -11 399 -11 C490 -11 580 9 624 40 L632 176 C626 176 621 177 616 177 C598 141 575 94 557 58 C556 55 549 49 549 49 L549 51 L549 51 Z " />
<glyph glyph-name="cacute" unicode="&#x107;" horiz-adv-x="477" d="M258 530 L266 530 L377 669 C388 683 395 707 395 707 L345 707 L258 530 L258 530 Z M432 381 L431 383 C432 383 432 382 432 381 L432 381 Z M429 101 C387 63 331 37 288 37 C175 37 99 117 99 237 C99 355 163 434 260 434 C302 434 346 414 368 383 L395 346 L399 346 L404 354 L432 381 C432 386 424 396 414 409 C392 439 339 459 281 459 C142 459 50 359 50 208 C50 77 134 -11 261 -11 C330 -11 399 31 433 94 L433 100 L429 101 L429 101 Z " />
<glyph glyph-name="Ccaron" unicode="&#x10c;" horiz-adv-x="714" d="M549 51 C504 32 449 21 399 21 C236 21 128 145 128 332 C128 516 242 639 412 639 C456 639 500 630 536 615 C536 615 543 608 544 606 C562 565 587 510 605 469 C610 469 616 470 622 470 L616 621 C582 650 500 669 412 669 C207 669 70 526 70 312 C70 118 202 -11 399 -11 C490 -11 580 9 624 40 L632 176 C626 176 621 177 616 177 C598 141 575 94 557 58 C556 55 549 49 549 49 L549 51 L549 51 Z M397 708 L527 865 L519 865 L388 759 L261 865 L253 865 L378 708 L397 708 L397 708 Z " />
<glyph glyph-name="ccaron" unicode="&#x10d;" horiz-adv-x="477" d="M266 535 L396 710 L389 710 L258 592 L130 710 L123 710 L248 535 L266 535 L266 535 Z M432 381 L431 383 C432 383 432 382 432 381 L432 381 Z M429 101 C387 63 331 37 288 37 C175 37 99 117 99 237 C99 355 163 434 260 434 C302 434 346 414 368 383 L395 346 L399 346 L404 354 L432 381 C432 386 424 396 414 409 C392 439 339 459 281 459 C142 459 50 359 50 208 C50 77 134 -11 261 -11 C330 -11 399 31 433 94 L433 100 L429 101 L429 101 Z " />
<glyph glyph-name="Dcaron" unicode="&#x10e;" horiz-adv-x="767" d="M440 710 L570 867 L563 867 L432 761 L304 867 L297 867 L422 710 L440 710 L440 710 Z M334 0 C552 0 697 129 697 356 C697 557 549 660 326 660 L65 660 L65 641 L145 605 L145 55 L65 19 L65 0 L334 0 L334 0 Z M201 34 L201 626 C233 626 284 626 311 626 C508 626 639 527 639 336 C639 144 517 35 333 35 L201 34 L201 34 Z " />
<glyph glyph-name="dcaron" unicode="&#x10f;" horiz-adv-x="567" d="M597 750 L550 750 L527 563 L535 563 L603 749 C601 746 601 750 597 750 L597 750 Z M603 749 L606 757 C605 753 604 751 603 750 L603 749 L603 749 Z M519 1 L519 19 L449 51 L449 757 L439 757 L334 726 L334 721 L386 679 C394 673 399 669 399 669 L399 443 C359 454 317 461 287 461 C144 461 48 355 48 197 C48 73 122 -9 232 -9 C298 -9 364 18 399 59 L405 1 L519 1 L519 1 Z M399 387 L399 80 C372 51 320 32 266 32 C165 32 97 104 97 212 C97 343 169 430 278 430 C278 430 325 412 398 386 L399 387 L399 387 Z " />
<glyph glyph-name="Emacron" unicode="&#x112;" horiz-adv-x="650" d="M202 767 L468 767 L468 798 L202 798 L202 767 L202 767 Z M580 159 L563 159 L505 34 L201 34 L201 323 L405 323 L447 243 L470 243 L470 437 L447 437 L405 357 L201 357 L201 626 L480 626 L538 511 L555 511 L555 660 L65 660 L65 641 L145 605 L145 55 L65 19 L65 0 L580 0 L580 159 L580 159 Z " />
<glyph glyph-name="emacron" unicode="&#x113;" horiz-adv-x="483" d="M124 597 L390 597 L390 628 L124 628 L124 597 L124 597 Z M101 273 C112 371 168 433 248 433 C324 433 378 370 386 273 L101 273 Z M428 101 C386 63 330 37 287 37 C172 37 96 120 99 244 L411 244 L433 247 C433 375 364 460 261 460 C134 460 50 360 50 209 C50 78 134 -10 261 -10 C330 -10 399 32 433 95 L433 101 L428 101 L428 101 Z " />
<glyph glyph-name="Edot" unicode="&#x116;" horiz-adv-x="650" d="M378 763 C378 811 303 812 303 763 C303 713 378 714 378 763 L378 763 Z M580 159 L563 159 L505 34 L201 34 L201 323 L405 323 L447 243 L470 243 L470 437 L447 437 L405 357 L201 357 L201 626 L480 626 L538 511 L555 511 L555 660 L65 660 L65 641 L145 605 L145 55 L65 19 L65 0 L580 0 L580 159 L580 159 Z " />
<glyph glyph-name="edot" unicode="&#x117;" horiz-adv-x="483" d="M299 621 C299 670 224 669 224 621 C224 572 299 571 299 621 L299 621 Z M101 273 C112 371 168 433 248 433 C324 433 378 370 386 273 L101 273 Z M428 101 C386 63 330 37 287 37 C172 37 96 120 99 244 L411 244 L433 247 C433 375 364 460 261 460 C134 460 50 360 50 209 C50 78 134 -10 261 -10 C330 -10 399 32 433 95 L433 101 L428 101 L428 101 Z " />
<glyph glyph-name="Ecaron" unicode="&#x11a;" horiz-adv-x="650" d="M344 710 L474 867 L467 867 L336 761 L208 867 L201 867 L326 710 L344 710 L344 710 Z M580 159 L563 159 L505 34 L201 34 L201 323 L405 323 L447 243 L470 243 L470 437 L447 437 L405 357 L201 357 L201 626 L480 626 L538 511 L555 511 L555 660 L65 660 L65 641 L145 605 L145 55 L65 19 L65 0 L580 0 L580 159 L580 159 Z " />
<glyph glyph-name="ecaron" unicode="&#x11b;" horiz-adv-x="483" d="M261 535 L391 710 L383 710 L252 592 L125 710 L117 710 L242 535 L261 535 L261 535 Z M101 273 C112 371 168 433 248 433 C324 433 378 370 386 273 L101 273 Z M428 101 C386 63 330 37 287 37 C172 37 96 120 99 244 L411 244 L433 247 C433 375 364 460 261 460 C134 460 50 360 50 209 C50 78 134 -10 261 -10 C330 -10 399 32 433 95 L433 101 L428 101 L428 101 Z " />
<glyph glyph-name="Gbreve" unicode="&#x11e;" horiz-adv-x="770" d="M266 842 L257 842 C290 750 330 714 398 714 C466 714 506 750 539 842 L530 842 C507 777 470 752 398 752 C326 752 289 777 266 842 L266 842 Z M650 235 L725 271 L725 290 L509 290 L509 271 L594 235 L594 66 C558 43 492 28 417 28 C244 28 128 150 128 333 C128 517 246 640 423 640 C471 640 520 631 558 615 C560 613 562 610 563 608 C581 567 606 512 624 471 C629 471 635 472 641 472 L635 623 C601 652 515 671 422 671 C210 671 69 528 69 314 C69 120 201 -9 399 -9 C507 -9 607 25 649 75 L650 235 L650 235 Z " />
<glyph glyph-name="gbreve" unicode="&#x11f;" horiz-adv-x="539" d="M128 682 L119 682 C152 580 192 540 260 540 C328 540 368 580 401 682 L392 682 C369 610 332 582 260 582 C188 582 151 610 128 682 L128 682 Z M131 302 C131 382 171 435 250 435 C327 435 378 381 378 300 C378 218 339 164 262 164 C183 164 131 219 131 302 L131 302 Z M80 301 C80 236 111 186 163 160 C110 142 76 110 76 77 C76 40 108 13 158 6 C103 -10 68 -75 68 -122 C68 -192 135 -239 235 -239 C378 -239 473 -175 473 -78 C473 -2 431 48 323 48 L203 48 C154 48 121 68 121 99 C121 123 145 145 180 154 C202 146 227 142 254 142 C370 142 429 206 429 303 C429 353 409 395 375 423 L489 418 L489 452 L335 447 C312 457 285 462 255 462 C140 462 80 398 80 303 L80 301 L80 301 Z M187 5 L298 5 C392 5 428 -33 428 -90 C428 -168 353 -220 241 -220 C164 -220 112 -177 112 -113 C112 -59 142 5 187 5 L187 5 Z " />
<glyph glyph-name="Itilde" unicode="&#x128;" horiz-adv-x="356" d="M35 705 C48 746 62 774 107 774 C145 774 197 713 235 713 C288 713 308 756 329 821 L321 821 C307 778 293 750 249 750 C211 750 159 810 121 810 C67 810 47 768 27 705 L35 705 L35 705 Z M286 0 L286 19 L206 55 L206 605 L286 641 L286 660 L70 660 L70 641 L150 605 L150 55 L70 19 L70 0 L286 0 L286 0 Z " />
<glyph glyph-name="itilde" unicode="&#x129;" horiz-adv-x="287" d="M1 530 C14 571 28 599 73 599 C111 599 163 538 201 538 C254 538 274 581 295 646 L287 646 C273 603 259 575 215 575 C177 575 125 635 87 635 C33 635 13 593 -7 530 L1 530 L1 530 Z M234 0 L234 18 L169 50 L169 460 L159 460 L54 419 L54 413 L101 373 C112 364 119 357 119 357 L119 50 L54 18 L54 0 L234 0 L234 0 Z " />
<glyph glyph-name="Imacron" unicode="&#x12a;" horiz-adv-x="356" d="M45 767 L311 767 L311 798 L45 798 L45 767 L45 767 Z M286 0 L286 19 L206 55 L206 605 L286 641 L286 660 L70 660 L70 641 L150 605 L150 55 L70 19 L70 0 L286 0 L286 0 Z " />
<glyph glyph-name="imacron" unicode="&#x12b;" horiz-adv-x="287" d="M6 597 L272 597 L272 628 L6 628 L6 597 L6 597 Z M234 0 L234 18 L169 50 L169 460 L159 460 L54 419 L54 413 L101 373 C112 364 119 357 119 357 L119 50 L54 18 L54 0 L234 0 L234 0 Z " />
<glyph glyph-name="Idot" unicode="&#x130;" horiz-adv-x="356" d="M216 763 C216 811 141 812 141 763 C141 713 216 714 216 763 L216 763 Z M286 0 L286 19 L206 55 L206 605 L286 641 L286 660 L70 660 L70 641 L150 605 L150 55 L70 19 L70 0 L286 0 L286 0 Z " />
<glyph glyph-name="dotlessi" unicode="&#x131;" horiz-adv-x="287" d="M234 0 L234 18 L169 50 L169 460 L159 460 L54 419 L54 413 L101 373 C112 364 119 357 119 357 L119 50 L54 18 L54 0 L234 0 L234 0 Z " />
<glyph glyph-name="Lacute" unicode="&#x139;" horiz-adv-x="630" d="M159 705 L167 705 L278 830 C289 843 296 864 296 864 L246 864 L159 705 L159 705 Z M560 199 L542 199 L480 34 L201 34 L201 605 L286 641 L286 660 L65 660 L65 641 L145 605 L145 55 L65 19 L65 0 L560 0 L560 199 L560 199 Z " />
<glyph glyph-name="lacute" unicode="&#x13a;" horiz-adv-x="268" d="M119 765 L128 765 L244 890 C256 903 263 924 263 924 L211 924 L119 765 L119 765 Z M224 0 L224 18 L159 50 L159 760 L149 760 L44 719 L44 713 L91 673 C102 664 109 657 109 657 L109 50 L44 18 L44 0 L224 0 L224 0 Z " />
<glyph glyph-name="Lcaron" unicode="&#x13d;" horiz-adv-x="630" d="M523 660 L476 660 L453 473 L461 473 L529 659 C527 656 527 660 523 660 L523 660 Z M529 659 L532 667 C531 663 530 661 529 660 L529 659 L529 659 Z M560 200 L542 200 L480 35 L201 35 L201 606 L286 642 L286 661 L65 661 L65 642 L145 606 L145 56 L65 20 L65 1 L560 1 L560 200 L560 200 Z " />
<glyph glyph-name="lcaron" unicode="&#x13e;" horiz-adv-x="268" d="M307 750 L260 750 L237 563 L245 563 L313 749 C311 746 311 750 307 750 L307 750 Z M313 749 L316 757 C315 753 314 751 313 750 L313 749 L313 749 Z M224 1 L224 19 L159 51 L159 761 L149 761 L44 720 L44 714 L91 674 C102 665 109 658 109 658 L109 51 L44 19 L44 1 L224 1 L224 1 Z " />
<glyph glyph-name="Nacute" unicode="&#x143;" horiz-adv-x="799" d="M412 705 L420 705 L531 830 C542 843 549 864 549 864 L499 864 L412 705 L412 705 Z M68 641 L143 605 L143 55 L63 19 L63 0 L287 0 L287 19 L187 55 L187 567 C337 376 488 186 638 -5 L659 -5 L659 605 L734 641 L734 660 L515 660 L515 641 L615 605 L615 115 L187 660 L68 660 L68 641 L68 641 Z " />
<glyph glyph-name="nacute" unicode="&#x144;" horiz-adv-x="583" d="M298 530 L305 530 L417 669 C428 682 435 707 435 707 L385 707 L298 530 L298 530 Z M543 0 L543 18 L478 50 L478 343 C478 413 420 460 332 460 C267 460 213 427 165 377 L165 382 L164 382 C163 412 162 460 162 460 L152 460 L50 419 L50 413 L97 373 C108 364 115 357 115 357 L115 50 L50 18 L50 0 L235 0 L235 18 L165 50 L165 358 C199 393 243 416 304 416 C378 416 428 375 428 314 L428 50 L358 18 L358 0 L543 0 L543 0 Z " />
<glyph glyph-name="Ncaron" unicode="&#x147;" horiz-adv-x="799" d="M420 710 L550 867 L543 867 L412 761 L284 867 L277 867 L402 710 L420 710 L420 710 Z M68 641 L143 605 L143 55 L63 19 L63 0 L287 0 L287 19 L187 55 L187 567 C337 376 488 186 638 -5 L659 -5 L659 605 L734 641 L734 660 L515 660 L515 641 L615 605 L615 115 L187 660 L68 660 L68 641 L68 641 Z " />
<glyph glyph-name="ncaron" unicode="&#x148;" horiz-adv-x="583" d="M306 535 L436 710 L428 710 L297 592 L170 710 L162 710 L287 535 L306 535 L306 535 Z M543 0 L543 18 L478 50 L478 343 C478 413 420 460 332 460 C267 460 213 427 165 377 L165 382 L164 382 C163 412 162 460 162 460 L152 460 L50 419 L50 413 L97 373 C108 364 115 357 115 357 L115 50 L50 18 L50 0 L235 0 L235 18 L165 50 L165 358 C199 393 243 416 304 416 C378 416 428 375 428 314 L428 50 L358 18 L358 0 L543 0 L543 0 Z " />
<glyph glyph-name="Omacron" unicode="&#x14c;" horiz-adv-x="798" d="M251 767 L517 767 L517 798 L251 798 L251 767 L251 767 Z M130 353 C130 525 233 639 388 639 C556 639 668 506 668 307 C668 135 566 21 412 21 C243 21 130 154 130 353 L130 353 Z M70 332 C70 127 202 -10 399 -10 C596 -10 728 125 728 328 C728 533 596 670 399 670 C202 670 70 535 70 332 L70 332 Z " />
<glyph glyph-name="omacron" unicode="&#x14d;" horiz-adv-x="529" d="M132 597 L398 597 L398 628 L132 628 L132 597 L132 597 Z M108 225 C108 350 158 434 256 434 C356 434 422 350 422 225 C422 100 371 16 273 16 C174 16 108 100 108 225 L108 225 Z M50 225 C50 84 136 -10 265 -10 C406 -10 479 84 479 225 C479 366 393 460 265 460 C123 460 50 366 50 225 L50 225 Z " />
<glyph glyph-name="Racute" unicode="&#x154;" horiz-adv-x="661" d="M316 705 L323 705 L435 830 C446 842 453 864 453 864 L403 864 L316 705 L316 705 Z M647 18 C622 29 597 40 572 50 L369 308 C472 329 536 394 536 483 C536 589 448 660 316 660 L65 660 L65 641 L145 605 L145 55 L65 19 L65 0 L276 0 L276 19 L201 55 L201 300 L291 300 C295 300 299 300 303 300 L539 0 L647 0 L647 18 L647 18 Z M201 334 L201 626 L303 626 C406 626 474 566 474 477 C474 391 406 334 303 334 L201 334 L201 334 Z " />
<glyph glyph-name="racute" unicode="&#x155;" horiz-adv-x="343" d="M225 530 L233 530 L344 669 C355 683 362 707 362 707 L312 707 L225 530 L225 530 Z M261 460 C235 460 202 422 165 363 L165 375 L164 375 C163 405 162 460 162 460 L152 460 L50 419 L50 413 L97 373 C108 364 115 357 115 357 L115 50 L50 18 L50 0 L235 0 L235 18 L165 50 L165 342 C192 384 214 412 230 412 C246 412 268 407 285 400 C296 395 323 384 323 384 L330 384 C338 400 343 416 343 425 C343 443 287 461 261 461 L261 460 L261 460 Z " />
<glyph glyph-name="Rcaron" unicode="&#x158;" horiz-adv-x="661" d="M647 18 C622 29 597 40 572 50 L369 308 C472 329 536 394 536 483 C536 589 448 660 316 660 L65 660 L65 641 L145 605 L145 55 L65 19 L65 0 L276 0 L276 19 L201 55 L201 300 L291 300 C295 300 299 300 303 300 L539 0 L647 0 L647 18 L647 18 Z M334 710 L464 867 L456 867 L325 761 L198 867 L190 867 L315 710 L334 710 L334 710 Z M201 334 L201 626 L303 626 C406 626 474 566 474 477 C474 391 406 334 303 334 L201 334 L201 334 Z " />
<glyph glyph-name="rcaron" unicode="&#x159;" horiz-adv-x="343" d="M233 535 L363 710 L356 710 L225 592 L97 710 L90 710 L215 535 L233 535 L233 535 Z M261 460 C235 460 202 422 165 363 L165 375 L164 375 C163 405 162 460 162 460 L152 460 L50 419 L50 413 L97 373 C108 364 115 357 115 357 L115 50 L50 18 L50 0 L235 0 L235 18 L165 50 L165 342 C192 384 214 412 230 412 C246 412 268 407 285 400 C296 395 323 384 323 384 L330 384 C338 400 343 416 343 425 C343 443 287 461 261 461 L261 460 L261 460 Z " />
<glyph glyph-name="Sacute" unicode="&#x15a;" horiz-adv-x="511" d="M233 705 L241 705 L352 830 C363 843 370 864 370 864 L320 864 L233 705 L233 705 Z M347 617 C355 613 362 606 365 599 C377 570 393 532 405 503 C408 503 412 504 415 504 L426 504 L419 625 C383 652 323 670 269 670 C159 670 86 599 86 493 C86 411 139 360 243 323 C348 286 402 239 402 167 C402 78 347 19 265 19 C238 19 189 34 136 58 C132 60 128 63 127 67 C114 100 97 145 84 178 C81 178 77 177 74 177 L63 177 L70 38 C125 9 203 -10 264 -10 C379 -10 455 66 455 181 C455 271 397 326 285 366 C190 400 141 444 141 513 C141 589 190 640 263 640 C286 640 316 632 346 618 L347 617 L347 617 Z " />
<glyph glyph-name="sacute" unicode="&#x15b;" horiz-adv-x="414" d="M200 530 L208 530 L319 669 C330 683 337 707 337 707 L287 707 L200 530 L200 530 Z M60 22 C101 3 158 -10 202 -10 C287 -10 344 41 344 117 C344 181 303 221 224 252 C155 279 119 310 119 355 C119 407 160 444 218 435 C218 435 286 399 303 357 C306 351 309 343 312 337 L329 337 L329 423 C291 445 240 460 202 460 C126 460 76 410 76 336 C76 278 114 240 187 212 C262 183 301 149 301 101 C301 48 261 12 200 12 C152 12 119 36 100 72 C93 86 82 104 75 118 L61 118 L61 38 L60 22 L60 22 Z " />
<glyph glyph-name="Scedilla" unicode="&#x15e;" horiz-adv-x="511" d="M239 -100 C261 -52 276 -19 280 -10 C387 -4 457 70 457 180 C457 270 399 325 287 365 C192 399 143 443 143 512 C143 588 192 639 265 639 C288 639 318 631 348 617 L348 617 C356 613 363 606 366 599 C378 570 394 532 406 503 C409 503 413 504 416 504 L427 504 L420 625 C384 652 324 670 270 670 C160 670 87 599 87 493 C87 411 140 360 244 323 C349 286 403 239 403 167 C403 78 348 19 266 19 C239 19 190 34 137 58 C133 60 129 63 128 67 C115 100 98 145 85 178 C82 178 78 177 75 177 L64 177 L71 38 C124 10 199 -9 259 -10 C254 -22 233 -67 204 -130 L222 -138 C268 -152 298 -170 298 -184 C298 -207 282 -223 259 -223 C226 -223 196 -217 184 -208 L184 -215 C204 -230 238 -240 268 -240 C308 -240 335 -214 335 -174 C335 -148 297 -118 239 -100 L239 -100 Z " />
<glyph glyph-name="scedilla" unicode="&#x15f;" horiz-adv-x="414" d="M60 22 C99 4 153 -9 196 -10 C191 -22 170 -67 141 -130 L159 -138 C205 -152 235 -170 235 -184 C235 -207 219 -223 196 -223 C163 -223 133 -217 121 -208 L121 -215 C141 -230 175 -240 205 -240 C245 -240 272 -214 272 -174 C272 -148 234 -118 176 -100 C176 -100 213 -19 217 -10 C294 -4 344 45 344 116 C344 180 303 220 224 251 C155 278 119 309 119 354 C119 406 160 443 218 434 C252 427 286 397 303 355 C306 349 309 341 312 335 L329 335 L329 421 C291 443 240 458 202 458 C126 458 76 408 76 334 C76 276 114 238 187 210 C262 181 301 147 301 99 C301 46 261 10 200 10 C152 10 119 34 100 70 C93 84 82 102 75 116 L61 116 L61 36 L60 22 L60 22 Z " />
<glyph glyph-name="Scaron" unicode="&#x160;" horiz-adv-x="511" d="M256 710 L386 867 L379 867 L248 761 L120 867 L113 867 L238 710 L256 710 L256 710 Z M347 617 C355 613 362 606 365 599 C377 570 393 532 405 503 C408 503 412 504 415 504 L426 504 L419 625 C383 652 323 670 269 670 C159 670 86 599 86 493 C86 411 139 360 243 323 C348 286 402 239 402 167 C402 78 347 19 265 19 C238 19 189 34 136 58 C132 60 128 63 127 67 C114 100 97 145 84 178 C81 178 77 177 74 177 L63 177 L70 38 C125 9 203 -10 264 -10 C379 -10 455 66 455 181 C455 271 397 326 285 366 C190 400 141 444 141 513 C141 589 190 640 263 640 C286 640 316 632 346 618 L347 617 L347 617 Z " />
<glyph glyph-name="scaron" unicode="&#x161;" horiz-adv-x="414" d="M208 535 L338 710 L331 710 L200 592 L72 710 L65 710 L190 535 L208 535 L208 535 Z M60 22 C101 3 158 -10 202 -10 C287 -10 344 41 344 117 C344 181 303 221 224 252 C155 279 119 310 119 355 C119 407 160 444 218 435 C218 435 286 399 303 357 C306 351 309 343 312 337 L329 337 L329 423 C291 445 240 460 202 460 C126 460 76 410 76 336 C76 278 114 240 187 212 C262 183 301 149 301 101 C301 48 261 12 200 12 C152 12 119 36 100 72 C93 86 82 104 75 118 L61 118 L61 38 L60 22 L60 22 Z " />
<glyph glyph-name="Tcaron" unicode="&#x164;" horiz-adv-x="675" d="M347 710 L477 867 L469 867 L338 761 L211 867 L203 867 L328 710 L347 710 L347 710 Z M466 0 L466 19 L366 55 L366 626 L550 626 L612 481 L630 481 L630 660 L45 660 L45 481 L63 481 L125 626 L309 626 L309 55 L209 19 L209 0 L466 0 L466 0 Z " />
<glyph glyph-name="tcaron" unicode="&#x165;" horiz-adv-x="320" d="M294 750 L247 750 L224 563 L232 563 L300 749 C298 746 298 750 294 750 L294 750 Z M290 53 L288 59 C279 41 253 29 222 29 C176 29 146 58 146 101 L146 421 L278 421 L278 450 L146 450 L146 549 L142 549 L96 450 L18 425 L18 421 L96 421 L96 90 C96 30 133 -10 189 -10 C231 -10 272 15 290 53 L290 53 Z M300 749 L303 757 C302 753 301 751 300 750 L300 749 L300 749 Z " />
<glyph glyph-name="Utilde" unicode="&#x168;" horiz-adv-x="812" d="M267 705 C280 746 294 774 339 774 C377 774 429 713 467 713 C520 713 540 756 561 821 L553 821 C539 778 525 750 481 750 C443 750 391 810 353 810 C299 810 279 768 259 705 L267 705 L267 705 Z M153 605 L153 234 C153 88 256 -10 410 -10 C564 -10 667 88 667 234 L667 605 L747 641 L747 660 L523 660 L523 641 L623 605 L623 221 C623 104 545 26 427 26 C296 26 209 113 209 244 L209 605 L289 641 L289 660 L73 660 L73 641 L153 605 L153 605 Z " />
<glyph glyph-name="utilde" unicode="&#x169;" horiz-adv-x="545" d="M125 535 C138 576 152 604 196 604 C234 604 286 543 324 543 C378 543 398 586 419 651 L410 651 C396 608 382 580 339 580 C301 580 249 640 211 640 C156 640 136 598 116 535 L125 535 L125 535 Z M404 400 L404 97 C361 56 309 36 263 36 C190 36 141 76 141 137 L141 450 L26 450 L26 432 L91 400 L91 107 C91 37 148 -10 234 -10 C283 -10 345 19 404 77 L404 0 L524 0 L524 18 L454 50 L454 450 L334 450 L334 432 L404 400 L404 400 Z " />
<glyph glyph-name="Umacron" unicode="&#x16a;" horiz-adv-x="812" d="M287 767 L553 767 L553 798 L287 798 L287 767 L287 767 Z M153 605 L153 234 C153 88 256 -10 410 -10 C564 -10 667 88 667 234 L667 605 L747 641 L747 660 L523 660 L523 641 L623 605 L623 221 C623 104 545 26 427 26 C296 26 209 113 209 244 L209 605 L289 641 L289 660 L73 660 L73 641 L153 605 L153 605 Z " />
<glyph glyph-name="umacron" unicode="&#x16b;" horiz-adv-x="545" d="M135 597 L401 597 L401 628 L135 628 L135 597 L135 597 Z M404 400 L404 97 C361 56 309 36 263 36 C190 36 141 76 141 137 L141 450 L26 450 L26 432 L91 400 L91 107 C91 37 148 -10 234 -10 C283 -10 345 19 404 77 L404 0 L524 0 L524 18 L454 50 L454 450 L334 450 L334 432 L404 400 L404 400 Z " />
<glyph glyph-name="Uring" unicode="&#x16e;" horiz-adv-x="812" d="M365 793 C365 828 385 851 414 851 C445 851 465 824 465 784 C465 752 443 725 418 725 C389 725 365 756 365 793 L365 793 Z M334 788 C334 746 371 710 415 710 C459 710 496 746 496 789 C496 835 464 866 415 866 C366 866 334 835 334 788 L334 788 Z M153 605 L153 234 C153 88 256 -10 410 -10 C564 -10 667 88 667 234 L667 605 L747 641 L747 660 L523 660 L523 641 L623 605 L623 221 C623 104 545 26 427 26 C296 26 209 113 209 244 L209 605 L289 641 L289 660 L73 660 L73 641 L153 605 L153 605 Z " />
<glyph glyph-name="uring" unicode="&#x16f;" horiz-adv-x="545" d="M218 618 C218 653 237 676 266 676 C297 676 317 649 317 609 C317 577 295 550 270 550 C242 550 218 581 218 618 L218 618 Z M187 613 C187 571 224 535 268 535 C311 535 348 571 348 614 C348 660 316 691 268 691 C219 691 187 660 187 613 L187 613 Z M404 400 L404 97 C361 56 309 36 263 36 C190 36 141 76 141 137 L141 450 L26 450 L26 432 L91 400 L91 107 C91 37 148 -10 234 -10 C283 -10 345 19 404 77 L404 0 L524 0 L524 18 L454 50 L454 450 L334 450 L334 432 L404 400 L404 400 Z " />
<glyph glyph-name="Ydieresis" unicode="&#x178;" horiz-adv-x="711" d="M468 766 C468 808 406 808 406 766 C406 725 468 725 468 766 L468 766 Z M318 766 C318 808 256 808 256 766 C256 725 318 725 318 766 L318 766 Z M230 660 L32 660 L32 642 L96 610 L334 302 L334 54 L244 18 L244 -1 L480 -1 L480 18 L390 54 L390 303 L617 619 L676 645 L676 659 L490 659 L490 640 L565 604 L373 338 L163 604 L230 640 L230 660 L230 660 Z " />
<glyph glyph-name="Zacute" unicode="&#x179;" horiz-adv-x="646" d="M328 705 L335 705 L447 830 C458 842 465 864 465 864 L415 864 L328 705 L328 705 Z M109 501 L127 501 L189 626 L467 626 C344 423 221 219 97 16 L97 0 L556 0 L556 169 L538 169 L476 34 L167 34 C292 240 418 445 542 651 L542 660 L110 660 L109 501 L109 501 Z " />
<glyph glyph-name="zacute" unicode="&#x17a;" horiz-adv-x="480" d="M244 530 L251 530 L363 669 C374 682 381 707 381 707 L331 707 L244 530 L244 530 Z M77 322 L94 322 L136 422 L321 422 C240 285 158 148 77 11 L77 0 L404 0 L404 133 L387 133 L354 28 L145 28 L378 422 L396 450 L137 450 L98 460 L88 460 L87 450 C87 411 79 361 76 322 L77 322 L77 322 Z " />
<glyph glyph-name="Zdot" unicode="&#x17b;" horiz-adv-x="646" d="M374 763 C374 812 299 811 299 763 C299 714 374 713 374 763 L374 763 Z M109 501 L127 501 L189 626 L467 626 C344 423 221 219 97 16 L97 0 L556 0 L556 169 L538 169 L476 34 L167 34 C292 240 418 445 542 651 L542 660 L110 660 L109 501 L109 501 Z " />
<glyph glyph-name="zdot" unicode="&#x17c;" horiz-adv-x="480" d="M285 621 C285 670 210 669 210 621 C210 572 285 571 285 621 L285 621 Z M77 322 L94 322 L136 422 L321 422 C240 285 158 148 77 11 L77 0 L404 0 L404 133 L387 133 L354 28 L145 28 L378 422 L396 450 L137 450 L98 460 L88 460 L87 450 C87 411 79 361 76 322 L77 322 L77 322 Z " />
<glyph glyph-name="Zcaron" unicode="&#x17d;" horiz-adv-x="646" d="M351 710 L481 867 L473 867 L342 761 L215 867 L207 867 L332 710 L351 710 L351 710 Z M109 501 L127 501 L189 626 L467 626 C344 423 221 219 97 16 L97 0 L556 0 L556 169 L538 169 L476 34 L167 34 C292 240 418 445 542 651 L542 660 L110 660 L109 501 L109 501 Z " />
<glyph glyph-name="zcaron" unicode="&#x17e;" horiz-adv-x="480" d="M252 535 L382 710 L374 710 L243 592 L116 710 L108 710 L233 535 L252 535 L252 535 Z M77 322 L94 322 L136 422 L321 422 C240 285 158 148 77 11 L77 0 L404 0 L404 133 L387 133 L354 28 L145 28 L378 422 L396 450 L137 450 L98 460 L88 460 L87 450 C87 411 79 361 76 322 L77 322 L77 322 Z " />
<glyph glyph-name="oogonek" unicode="&#x1eb;" horiz-adv-x="736" d="M706 -124 L706 -116 C701 -119 683 -121 662 -121 C598 -121 514 -27 445 -2 C580 27 666 133 666 281 C666 457 547 575 368 575 C189 575 70 459 70 285 C70 102 197 -20 390 -9 C467 -45 555 -139 626 -139 C658 -139 689 -133 705 -124 L706 -124 L706 -124 Z M123 304 C123 450 217 548 357 548 C510 548 612 433 612 261 C612 115 518 18 378 18 C225 18 123 132 123 304 L123 304 Z " />
<glyph glyph-name="G_sc" unicode="&#x262;" horiz-adv-x="709" d="M589 193 L664 229 L664 248 L453 248 L453 229 L538 193 L538 64 C504 39 445 23 381 23 C226 23 122 128 122 286 C122 443 227 547 385 547 C423 547 462 539 496 525 C499 524 502 521 503 518 C521 476 547 420 565 378 C570 378 576 379 582 379 L576 526 L563 510 L576 526 C541 555 465 575 385 575 C196 575 70 453 70 269 C70 102 188 -10 365 -10 C457 -10 547 24 589 74 L589 193 L589 193 Z " />
<glyph glyph-name="I_sc" unicode="&#x26a;" horiz-adv-x="351" d="M281 0 L281 19 L201 55 L201 510 L281 546 L281 565 L70 565 L70 546 L150 510 L150 55 L70 19 L70 0 L281 0 L281 0 Z " />
<glyph glyph-name="N_sc" unicode="&#x274;" horiz-adv-x="739" d="M69 546 L144 510 L144 55 L64 19 L64 0 L283 0 L283 19 L183 55 L183 483 C316 320 450 158 581 -6 L599 -6 L599 509 L674 545 L674 564 L459 564 L459 545 L559 509 L559 101 L183 564 L69 564 L69 546 L69 546 Z " />
<glyph glyph-name="R_sc" unicode="&#x280;" horiz-adv-x="598" d="M584 0 L584 18 L508 50 L334 267 C419 286 472 340 472 413 C472 504 399 564 289 564 L65 564 L65 545 L145 509 L145 54 L65 18 L65 -1 L270 -1 L270 18 L195 54 L195 259 L264 259 C268 259 272 259 276 259 L484 -1 L584 0 L584 0 Z M196 290 L196 533 L278 533 C363 533 419 483 419 408 C419 337 362 290 276 290 L196 290 L196 290 Z " />
<glyph glyph-name="Y_sc" unicode="&#x28f;" horiz-adv-x="650" d="M225 565 L32 565 L32 547 L98 515 L305 261 L305 55 L215 19 L215 0 L446 0 L446 19 L356 55 L356 262 C422 349 488 437 555 524 L614 550 L614 564 L433 564 L433 545 L506 509 L341 293 C281 365 221 437 161 509 L225 545 L225 565 L225 565 Z " />
<glyph glyph-name="B_sc" unicode="&#x299;" horiz-adv-x="586" d="M244 310 L195 310 L195 534 L279 534 C376 534 426 488 426 418 C426 353 353 310 244 310 L244 310 Z M361 305 C435 328 479 373 479 431 C479 511 415 564 292 564 L65 564 L65 545 L145 509 L145 54 L65 18 L65 -1 L291 -1 C438 -1 536 64 536 162 C536 235 477 288 361 304 L361 305 L361 305 Z M195 30 L195 278 L298 278 C420 278 483 230 483 157 C483 81 406 30 291 30 L195 30 L195 30 Z " />
<glyph glyph-name="H_sc" unicode="&#x29c;" horiz-adv-x="741" d="M676 0 L676 19 L596 55 L596 510 L676 546 L676 565 L465 565 L465 546 L545 510 L545 307 L195 307 L195 510 L275 546 L275 565 L65 565 L65 546 L145 510 L145 55 L65 19 L65 0 L275 0 L275 19 L195 55 L195 276 L545 276 L545 55 L465 19 L465 0 L676 0 L676 0 Z " />
<glyph glyph-name="L_sc" unicode="&#x29f;" horiz-adv-x="570" d="M500 196 L482 196 L420 31 L195 31 L195 510 L280 546 L280 565 L65 565 L65 546 L145 510 L145 55 L65 19 L65 0 L500 0 L500 196 L500 196 Z " />
<glyph glyph-name="circumflex" unicode="&#x2c6;" horiz-adv-x="340" d="M309 530 L179 705 L161 705 L36 530 L43 530 L171 648 L302 530 L309 530 L309 530 Z " />
<glyph glyph-name="caron" unicode="&#x2c7;" horiz-adv-x="340" d="M179 535 L309 710 L302 710 L171 592 L43 710 L36 710 L161 535 L179 535 L179 535 Z " />
<glyph glyph-name="firsttonechinese" unicode="&#x2c9;" horiz-adv-x="340" d="M37 532 L303 532 L303 563 L37 563 L37 532 L37 532 Z " />
<glyph glyph-name="breve" unicode="&#x2d8;" horiz-adv-x="340" d="M38 702 L29 702 C62 600 102 560 170 560 C238 560 278 600 311 702 L302 702 C279 630 242 602 170 602 C98 602 61 630 38 702 L38 702 Z " />
<glyph glyph-name="dotaccent" unicode="&#x2d9;" horiz-adv-x="340" d="M201 641 C201 683 139 683 139 641 C139 600 201 600 201 641 L201 641 Z " />
<glyph glyph-name="ring" unicode="&#x2da;" horiz-adv-x="340" d="M120 613 C120 648 140 671 169 671 C200 671 220 644 220 604 C220 572 198 545 173 545 C144 545 120 576 120 613 L120 613 Z M89 608 C89 566 126 530 170 530 C214 530 251 566 251 609 C251 655 219 686 170 686 C121 686 89 655 89 608 L89 608 Z " />
<glyph glyph-name="A_sc" unicode="&#x1d00;" horiz-adv-x="677" d="M436 0 L642 0 L642 16 L577 45 L352 558 L347 570 L323 570 L97 50 L18 18 L18 0 L213 0 L213 18 L134 50 L202 208 L453 208 L453 211 C476 158 500 104 522 51 L436 19 L436 0 L436 0 Z M441 240 L215 240 L327 503 L441 240 L441 240 Z " />
<glyph glyph-name="C_sc" unicode="&#x1d04;" horiz-adv-x="653" d="M496 52 C495 49 491 46 488 45 C448 28 403 18 363 18 C218 18 122 125 122 286 C122 443 223 547 375 547 C409 547 446 539 478 525 C480 524 481 522 482 519 C500 477 526 421 544 379 C549 379 555 380 561 380 L555 527 C520 556 448 576 374 576 C191 576 69 454 69 270 C69 103 186 -9 362 -9 C437 -9 517 12 562 43 L570 175 C564 175 559 176 554 176 C536 139 513 90 495 53 L496 52 L496 52 Z " />
<glyph glyph-name="D_sc" unicode="&#x1d05;" horiz-adv-x="705" d="M313 0 C506 0 635 111 635 304 C635 476 503 565 305 565 L65 565 L65 546 L145 510 L145 55 L65 19 L65 0 L313 0 L313 0 Z M195 31 L195 534 L291 534 C466 534 582 449 582 285 C582 124 474 31 311 31 L195 31 L195 31 Z " />
<glyph glyph-name="E_sc" unicode="&#x1d07;" horiz-adv-x="590" d="M520 156 L503 156 L445 31 L195 31 L195 276 L345 276 L387 196 L410 196 L410 387 L387 387 L345 307 L195 307 L195 534 L420 534 L478 419 L495 419 L495 565 L65 565 L65 546 L145 510 L145 55 L65 19 L65 0 L520 0 L520 156 L520 156 Z " />
<glyph glyph-name="J_sc" unicode="&#x1d0a;" horiz-adv-x="351" d="M150 510 L150 50 C150 -59 124 -132 84 -132 C84 -132 63 -127 52 -127 C52 -131 34 -173 65 -173 C147 -173 201 -40 201 159 L201 510 L281 546 L281 565 L70 565 L70 546 L150 510 L150 510 Z " />
<glyph glyph-name="K_sc" unicode="&#x1d0b;" horiz-adv-x="651" d="M620 14 L550 40 L247 305 L489 525 L558 551 L558 565 L357 565 L357 547 L426 515 C360 451 294 385 228 321 L196 289 L519 0 L619 0 L620 14 L620 14 Z M275 0 L275 19 L195 55 L195 510 L275 546 L275 565 L64 565 L64 546 L144 510 L144 55 L64 19 L64 0 L275 0 L275 0 Z " />
<glyph glyph-name="M_sc" unicode="&#x1d0d;" horiz-adv-x="894" d="M77 546 L164 510 L142 55 L60 19 L60 0 L258 0 L258 19 L175 55 L194 504 L433 -5 L458 -5 L450 12 L458 -5 L693 498 L713 54 L635 18 L635 -1 L832 -1 L832 18 L761 54 L741 509 L828 545 L828 564 L691 564 L458 62 L220 564 L77 564 L77 546 L77 546 Z " />
<glyph glyph-name="O_sc" unicode="&#x1d0f;" horiz-adv-x="736" d="M124 304 C124 450 218 548 358 548 C511 548 613 433 613 261 C613 115 519 18 379 18 C226 18 124 132 124 304 L124 304 Z M70 285 C70 108 189 -10 368 -10 C547 -10 666 106 666 281 C666 457 547 575 368 575 C189 575 70 459 70 285 L70 285 Z " />
<glyph glyph-name="P_sc" unicode="&#x1d18;" horiz-adv-x="542" d="M290 0 L290 19 L195 55 L195 260 L264 260 C389 260 472 322 472 414 C472 505 399 565 289 565 L65 565 L65 546 L145 510 L145 55 L65 19 L65 0 L290 0 L290 0 Z M195 291 L195 534 L277 534 C362 534 418 484 418 409 C418 338 361 291 275 291 L195 291 L195 291 Z " />
<glyph glyph-name="T_sc" unicode="&#x1d1b;" horiz-adv-x="615" d="M433 0 L433 19 L333 55 L333 534 L490 534 L552 389 L570 389 L570 565 L45 565 L45 389 L63 389 L125 534 L282 534 L282 55 L182 19 L182 0 L433 0 L433 0 Z " />
<glyph glyph-name="U_sc" unicode="&#x1d1c;" horiz-adv-x="752" d="M467 546 C500 534 533 522 566 510 L567 188 C567 89 498 23 395 23 C280 23 203 97 203 209 L204 510 L284 546 L284 565 L73 565 L73 546 L153 510 L153 200 C153 74 244 -10 380 -10 C516 -10 606 74 606 200 L606 510 L686 546 L686 565 L466 565 L467 546 L467 546 Z " />
<glyph glyph-name="V_sc" unicode="&#x1d20;" horiz-adv-x="667" d="M244 565 L34 565 L34 547 L102 515 C177 342 253 169 326 -5 L350 -5 C426 172 502 349 578 525 L634 551 L634 565 L458 565 L458 546 L535 510 L349 72 L158 510 L244 546 L244 565 L244 565 Z " />
<glyph glyph-name="W_sc" unicode="&#x1d21;" horiz-adv-x="912" d="M232 565 L20 565 L20 547 L87 515 L260 22 L269 -5 L283 -5 L290 13 L457 469 C519 311 580 152 644 -5 L657 -5 C716 171 772 348 829 525 L892 551 L892 565 L703 565 L703 546 L786 510 L657 98 C594 255 531 412 468 570 L456 570 C399 413 344 255 288 98 L142 510 L233 546 L232 565 L232 565 Z " />
<glyph glyph-name="Z_sc" unicode="&#x1d22;" horiz-adv-x="586" d="M110 409 L128 409 L190 534 L413 534 L108 31 L98 14 L98 0 L496 0 L496 166 L478 166 L416 31 L161 31 C268 207 376 382 482 559 L482 565 L111 565 L110 409 L110 409 Z " />
<glyph glyph-name="Etilde" unicode="&#x1ebc;" horiz-adv-x="650" d="M207 705 C220 746 234 774 279 774 C317 774 369 713 407 713 C460 713 480 756 501 821 L493 821 C479 778 465 750 421 750 C383 750 331 810 293 810 C239 810 219 768 199 705 L207 705 L207 705 Z M580 159 L563 159 L505 34 L201 34 L201 323 L405 323 L447 243 L470 243 L470 437 L447 437 L405 357 L201 357 L201 626 L480 626 L538 511 L555 511 L555 660 L65 660 L65 641 L145 605 L145 55 L65 19 L65 0 L580 0 L580 159 L580 159 Z " />
<glyph glyph-name="endash" unicode="&#x2013;" horiz-adv-x="500" d="M50 252 L450 252 L450 283 L50 283 L50 252 L50 252 Z " />
<glyph glyph-name="emdash" unicode="&#x2014;" horiz-adv-x="1000" d="M50 252 L950 252 L950 283 L50 283 L50 252 L50 252 Z " />
<glyph glyph-name="quoteleft" unicode="&#x2018;" horiz-adv-x="235" d="M146 587 C122 596 106 628 106 667 C106 695 137 723 183 738 L183 750 C115 728 69 684 69 639 C69 585 91 540 125 528 C141 523 151 521 157 538 L168 567 L168 575 L146 587 L146 587 Z " />
<glyph glyph-name="quoteright" unicode="&#x2019;" horiz-adv-x="235" d="M106 691 C130 682 146 650 146 611 C146 583 115 555 69 540 L69 528 C137 550 183 594 183 639 C183 693 161 738 127 750 C111 755 101 757 95 740 L84 711 L84 703 L106 691 L106 691 Z " />
<glyph glyph-name="quotedblleft" unicode="&#x201c;" horiz-adv-x="397" d="M146 587 C122 596 106 628 106 667 C106 695 137 738 183 738 L183 750 C115 750 69 684 69 639 C69 585 91 540 125 528 C141 523 151 521 157 538 L168 567 L168 575 L146 587 L146 587 Z M307 587 C283 596 267 628 267 667 C267 695 298 738 344 738 L344 750 C276 750 230 684 230 639 C230 585 252 540 286 528 C302 523 312 521 318 538 L329 567 L329 575 L307 587 L307 587 Z " />
<glyph glyph-name="quotedblright" unicode="&#x201d;" horiz-adv-x="397" d="M268 691 C292 682 308 650 308 611 C308 583 277 555 231 540 L231 528 C299 550 345 594 345 639 C345 693 323 738 289 750 C273 755 263 757 257 740 L246 711 L246 703 L268 691 L268 691 Z M107 691 C131 682 147 650 147 611 C147 583 116 555 70 540 L70 528 C138 550 184 594 184 639 C184 693 162 738 128 750 C112 755 102 757 96 740 L85 711 L85 703 L107 691 L107 691 Z " />
<glyph glyph-name="bullet" unicode="&#x2022;" horiz-adv-x="410" d="M205 169 C250 169 280 199 280 244 C280 289 250 319 205 319 C160 319 130 289 130 244 C130 199 160 169 205 169 L205 169 Z " />
<glyph glyph-name="ellipsis" unicode="&#x2026;" horiz-adv-x="560" d="M495 28 C495 77 420 76 420 28 C420 -21 495 -22 495 28 L495 28 Z M318 28 C318 76 243 77 243 28 C243 -22 318 -21 318 28 L318 28 Z M140 28 C140 77 65 76 65 28 C65 -21 140 -22 140 28 L140 28 Z " />
<glyph glyph-name="perthousand" unicode="&#x2030;" horiz-adv-x="1127" d="M869 204 C869 310 906 380 961 380 C1025 380 1068 302 1068 184 C1068 77 1030 6 972 6 C910 6 869 85 869 204 L869 204 Z M820 195 C820 72 879 -10 968 -10 C1056 -10 1115 74 1115 201 C1115 317 1056 395 968 395 C879 395 820 315 820 195 L820 195 Z M79 565 C79 673 116 745 171 745 C235 745 278 665 278 545 C278 441 240 371 182 371 C120 371 79 449 79 565 L79 565 Z M30 555 C30 435 89 355 178 355 C266 355 325 438 325 562 C325 681 266 760 178 760 C89 760 30 678 30 555 L30 555 Z M532 204 C532 310 569 380 625 380 C693 380 738 302 738 184 C738 77 697 6 636 6 C574 6 532 85 532 204 L532 204 Z M483 194 C483 72 543 -10 632 -10 C724 -10 785 74 785 201 C785 317 724 395 632 395 C543 395 483 315 483 194 L483 194 Z M189 -7 L654 743 L632 757 L167 7 L189 -7 L189 -7 Z " />
<glyph glyph-name="guilsinglleft" unicode="&#x2039;" horiz-adv-x="244" d="M217 425 L17 248 L217 70 L224 70 L79 248 L224 425 L217 425 L217 425 Z " />
<glyph glyph-name="guilsinglright" unicode="&#x203a;" horiz-adv-x="241" d="M20 425 L158 248 L20 70 L27 70 L221 248 L27 425 L20 425 L20 425 Z " />
<glyph glyph-name="fraction" unicode="&#x2044;" horiz-adv-x="496" d="M41 -7 L506 743 L484 757 L19 7 L41 -7 L41 -7 Z " />
<glyph glyph-name="Euro" unicode="&#x20ac;" horiz-adv-x="499" d="M477 90 C450 54 395 30 340 30 C225 30 167 114 150 248 L359 248 L359 276 L147 276 C144 312 143 354 145 392 L359 392 L359 420 L148 420 C163 567 223 661 307 661 C343 661 385 633 412 590 C418 590 431 562 431 562 C443 562 460 577 463 579 C475 585 468 597 461 608 C438 645 387 670 335 670 C209 670 118 573 92 420 L10 420 L10 392 L88 392 C84 356 84 314 86 276 L11 276 L11 248 L89 248 C104 91 171 -10 312 -10 C375 -10 441 24 479 74 L479 90 L477 90 L477 90 Z " />
<glyph glyph-name="F_sc" unicode="&#xa730;" horiz-adv-x="555" d="M345 276 L387 196 L410 196 L410 387 L387 387 L345 307 L195 307 L195 534 L410 534 L468 419 L485 419 L485 565 L65 565 L65 546 L145 510 L145 55 L65 19 L65 0 L290 0 L290 19 L195 55 L195 276 L345 276 L345 276 Z " />
<glyph glyph-name="S_sc" unicode="&#xa731;" horiz-adv-x="448" d="M283 532 L283 531 C290 527 296 521 299 514 C311 483 329 442 341 411 C344 411 348 412 351 412 L362 412 L355 529 C323 557 275 575 234 575 C146 575 87 514 87 422 C87 358 131 314 215 277 C301 239 345 198 345 144 C345 67 301 16 234 16 C214 16 178 29 137 50 C137 50 128 57 128 58 C115 93 99 139 86 174 C79 174 72 173 65 173 L71 39 C120 10 185 -10 233 -10 C328 -10 392 57 392 157 C392 227 345 275 254 315 C176 349 136 388 136 441 C136 505 173 548 229 548 C243 548 262 542 282 531 L283 532 L283 532 Z " />
<glyph glyph-name="X_sc" unicode="&#xf078;" horiz-adv-x="666" d="M265 565 L60 565 L60 547 L126 515 L314 279 C252 203 191 126 129 50 L58 18 L58 0 L252 0 L252 19 L166 55 L330 259 C384 191 438 123 492 55 L426 19 L426 0 L627 0 L627 16 L564 45 L360 298 L532 520 L595 549 L595 565 L416 565 L416 546 L493 510 L343 318 L188 510 L264 546 L265 565 L265 565 Z " />
</font>
</svg>
