<?xml version="1.0" encoding="UTF-8"?>
<svg xmlns="http://www.w3.org/2000/svg" xmlns:xlink="http://www.w3.org/1999/xlink" version="1.2" >
<font id="Ethan Medium">
<font-face  font-family="Ethan" units-per-em="1024" ascent="975" descent="-300" font-style="normal" font-weight="500" font-stretch="normal" cap-height="924" x-height="488" underline-position="-125" underline-thickness="50" />
<missing-glyph  horiz-adv-x="100" d="" />
<glyph glyph-name="NULL" d="" />
<glyph glyph-name="CR" unicode="&#xd;" horiz-adv-x="256" d="" />
<glyph glyph-name="space" unicode="&#x20;" horiz-adv-x="248" d="" />
<glyph glyph-name="exclam" unicode="&#x21;" horiz-adv-x="231" d="M118 -10 C150 -10 171 11 171 43 C171 74 150 95 118 95 C87 95 66 74 66 43 C66 11 87 -10 118 -10 L118 -10 Z M70 660 L109 175 L127 175 L166 660 L70 660 L70 660 Z " />
<glyph glyph-name="quotedbl" unicode="&#x22;" horiz-adv-x="428" d="M269 740 L300 509 L317 509 L348 740 L269 740 L269 740 Z M80 740 L111 509 L128 509 L159 740 L80 740 L80 740 Z " />
<glyph glyph-name="numbersign" unicode="&#x23;" horiz-adv-x="498" d="M159 409 L112 246 L0 246 L0 204 L99 204 L40 0 L84 0 L143 204 L281 204 L222 0 L266 0 L325 204 L440 204 L440 246 L338 246 L385 409 L498 409 L498 450 L397 450 L458 660 L414 660 L353 450 L215 450 L276 660 L232 660 L171 450 L58 450 L58 409 L159 409 L159 409 Z M203 409 L341 409 L294 246 L156 246 L203 409 L203 409 Z " />
<glyph glyph-name="dollar" unicode="&#x24;" horiz-adv-x="497" d="M290 740 L290 669 C271 671 249 671 230 669 L230 741 L194 741 L194 663 C107 641 53 577 53 490 C53 406 101 354 194 319 L194 36 C143 49 111 88 111 140 L111 164 C110 164 107 167 107 167 L82 167 C62 167 48 156 48 140 C48 62 105 6 194 -7 L194 -80 L230 -80 L230 -10 C251 -10 271 -8 290 -4 L290 -79 L326 -79 L326 6 C402 33 449 97 449 182 C449 250 407 313 326 354 L326 613 C354 598 371 573 371 542 L371 519 C371 519 374 516 375 516 L400 516 C420 516 434 526 434 542 C434 602 393 646 326 663 L326 740 L290 740 L290 740 Z M290 369 C270 376 248 383 230 391 L230 626 C249 629 272 628 290 625 L290 369 L290 369 Z M194 411 C152 438 131 473 131 520 C131 565 155 600 194 617 L194 411 Z M230 308 C252 300 272 291 289 281 L289 40 C271 35 251 32 229 33 L230 308 L230 308 Z M325 256 C361 226 379 192 379 157 C379 113 359 78 325 56 L325 256 Z " />
<glyph glyph-name="percent" unicode="&#x25;" horiz-adv-x="798" d="M99 568 C99 671 127 739 170 739 C226 739 264 659 264 540 C264 443 233 378 186 378 C134 378 99 454 99 568 L99 568 Z M30 554 C30 435 90 355 180 355 C269 355 329 438 329 563 C329 681 269 760 180 760 C90 760 30 678 30 554 L30 554 Z M544 207 C544 307 574 374 619 374 C680 374 721 296 721 179 C721 79 687 13 635 13 C580 13 544 91 544 207 L544 207 Z M475 193 C475 71 537 -10 629 -10 C723 -10 786 75 786 202 C786 318 723 395 629 395 C537 395 475 314 475 193 L475 193 Z M196 -10 L661 740 L629 760 L164 10 L196 -10 L196 -10 Z " />
<glyph glyph-name="ampersand" unicode="&#x26;" horiz-adv-x="689" d="M515 452 L541 420 C546 420 554 418 561 419 C525 326 491 246 453 184 L261 370 C359 422 421 488 421 543 C421 619 357 670 262 670 C152 670 78 606 78 510 C78 448 112 403 167 348 C45 290 20 231 20 159 C20 58 95 -10 207 -10 C305 -10 376 27 434 93 L531 1 L691 1 L691 19 L592 51 L482 157 C528 229 567 322 609 430 L675 453 L675 471 L516 471 L515 452 L515 452 Z M188 329 C195 322 202 315 209 308 L405 121 C361 74 309 48 242 48 C157 48 100 102 100 182 C100 242 115 290 187 329 L188 329 L188 329 Z M238 392 C187 442 154 476 154 526 C154 592 194 636 255 636 C309 636 345 598 345 540 C345 488 304 433 238 392 L238 392 Z " />
<glyph glyph-name="quotesingle" unicode="&#x27;" horiz-adv-x="239" d="M80 740 L111 509 L128 509 L159 740 L80 740 L80 740 Z " />
<glyph glyph-name="parenleft" unicode="&#x28;" horiz-adv-x="239" d="M212 740 C117 627 54 495 54 295 C54 95 117 -37 212 -150 L234 -150 C161 -63 112 61 112 295 C112 529 161 653 234 740 L212 740 L212 740 Z " />
<glyph glyph-name="parenright" unicode="&#x29;" horiz-adv-x="239" d="M55 -150 C150 -37 213 95 213 295 C213 495 150 627 55 740 L33 740 C106 653 155 529 155 295 C155 61 106 -63 33 -150 L55 -150 L55 -150 Z " />
<glyph glyph-name="asterisk" unicode="&#x2a;" horiz-adv-x="380" d="M204 589 L340 618 L323 668 L197 613 L212 750 L159 750 L174 612 L47 669 L31 619 L166 590 L73 487 L116 456 L185 576 L254 456 L297 487 L204 589 L204 589 Z " />
<glyph glyph-name="plus" unicode="&#x2b;" horiz-adv-x="510" d="M232 482 L232 294 L40 294 L40 250 L232 250 L232 52 L278 52 L278 250 L470 250 L470 294 L278 294 L278 482 L232 482 L232 482 Z " />
<glyph glyph-name="comma" unicode="&#x2c;" horiz-adv-x="237" d="M90 0 C118 -13 136 -47 136 -86 C136 -124 106 -166 60 -192 L60 -210 C136 -167 187 -100 187 -43 C187 13 163 62 127 79 C105 90 96 90 84 67 L59 23 L61 15 L90 0 L90 0 Z " />
<glyph glyph-name="hyphen" unicode="&#x2d;" horiz-adv-x="375" d="M50 221 L325 221 L325 283 L50 283 L50 221 L50 221 Z " />
<glyph glyph-name="period" unicode="&#x2e;" horiz-adv-x="235" d="M118 -10 C149 -10 170 11 170 43 C170 74 149 95 118 95 C86 95 65 74 65 43 C65 11 86 -10 118 -10 L118 -10 Z " />
<glyph glyph-name="slash" unicode="&#x2f;" horiz-adv-x="244" d="M0 -120 L44 -120 L244 750 L200 750 L0 -120 L0 -120 Z " />
<glyph glyph-name="zero" unicode="0" horiz-adv-x="524" d="M116 358 C116 521 168 629 247 629 C346 629 412 501 412 310 C412 143 358 32 276 32 C180 32 116 162 116 358 L116 358 Z M33 331 C33 126 125 -10 262 -10 C399 -10 491 129 491 338 C491 537 399 670 262 670 C125 670 33 534 33 331 L33 331 Z " />
<glyph glyph-name="one" unicode="1" horiz-adv-x="489" d="M384 0 L384 18 L319 50 L319 660 L302 660 L70 508 L70 478 L245 572 L245 50 L180 18 L180 0 L384 0 L384 0 Z " />
<glyph glyph-name="two" unicode="2" horiz-adv-x="480" d="M454 36 C457 66 460 107 463 137 L446 137 L407 72 L148 72 C360 325 444 420 444 494 C444 599 374 669 269 669 C132 669 40 601 40 499 C40 477 54 462 76 462 L115 462 C115 462 119 467 120 467 L120 512 C120 512 64 499 40 499 C120 582 169 628 242 628 C312 628 359 574 359 493 C359 372 272 288 50 21 L50 -1 L454 -1 L454 36 L454 36 Z " />
<glyph glyph-name="three" unicode="3" horiz-adv-x="494" d="M111 120 L111 144 L104 151 L63 151 C63 151 33 139 33 120 C33 42 116 -10 240 -10 C379 -10 471 64 471 175 C471 280 408 342 283 359 C388 385 442 445 442 524 C442 612 370 670 263 670 C138 670 54 612 54 525 C54 506 89 494 89 494 L125 494 L132 501 L132 534 C132 592 177 630 244 630 C312 630 358 584 358 516 C358 433 301 375 190 364 C177 364 163 363 149 362 L149 324 C306 335 387 285 387 176 C387 88 328 30 240 30 C163 30 111 66 111 121 L111 120 L111 120 Z " />
<glyph glyph-name="four" unicode="4" horiz-adv-x="501" d="M432 18 L367 50 L367 195 L488 195 L488 254 L367 254 L366 584 L367 660 L350 660 C246 524 142 389 38 254 L8 213 L8 195 L292 195 L292 50 L227 18 L227 0 L432 0 L432 18 L432 18 Z M292 525 L292 254 L93 254 L292 525 L292 525 Z " />
<glyph glyph-name="five" unicode="5" horiz-adv-x="499" d="M404 660 L86 660 L86 350 C107 356 146 360 183 360 C308 360 391 296 391 199 C391 99 327 33 230 33 C182 33 129 60 113 100 L105 100 C95 100 73 77 73 77 C63 70 57 68 57 54 C57 49 60 42 64 37 C84 9 136 -10 194 -10 C350 -10 454 88 454 235 C454 351 350 428 195 428 C167 428 141 426 128 423 L128 592 L404 592 L404 660 L404 660 Z " />
<glyph glyph-name="six" unicode="6" horiz-adv-x="498" d="M418 670 C189 609 37 434 37 233 C37 87 124 -10 255 -10 C383 -10 468 74 468 201 C468 313 398 388 293 388 C222 388 161 358 125 309 C149 472 260 602 418 644 L418 670 Z M120 235 C133 291 189 329 259 329 C336 329 388 270 388 182 C388 91 335 30 255 30 C175 30 121 112 119 235 L120 235 Z " />
<glyph glyph-name="seven" unicode="7" horiz-adv-x="500" d="M50 660 L50 593 L393 593 C206 263 83 29 83 0 L181 0 C181 94 293 351 460 643 L460 660 L434 660 L432 661 L50 660 L50 660 Z " />
<glyph glyph-name="eight" unicode="8" horiz-adv-x="490" d="M288 365 C282 368 276 371 270 374 C173 413 135 469 135 529 C135 590 178 631 243 631 C316 631 364 577 364 497 C364 435 336 388 289 365 L288 365 Z M322 348 C395 370 440 426 440 501 C440 602 364 670 251 670 C135 670 58 602 58 501 C58 437 92 376 176 328 C93 304 41 237 41 146 C41 52 123 -10 246 -10 C369 -10 451 62 451 170 C451 236 407 301 322 349 L322 348 Z M207 313 C217 308 228 303 239 298 C331 261 379 202 379 143 C379 73 328 27 251 27 C173 27 121 83 121 167 C121 236 153 288 207 312 L207 313 Z " />
<glyph glyph-name="nine" unicode="9" horiz-adv-x="496" d="M80 -10 C309 -10 461 92 461 427 C461 573 374 670 243 670 C115 670 30 600 30 465 C30 350 103 273 213 273 C280 273 340 307 376 361 C361 107 246 16 79 16 L80 -10 Z M377 425 C360 369 308 332 246 332 C166 332 112 385 112 465 C112 574 164 630 242 630 C322 630 376 548 378 425 L377 425 Z " />
<glyph glyph-name="colon" unicode="&#x3a;" horiz-adv-x="235" d="M118 289 C149 289 170 310 170 341 C170 373 149 394 118 394 C86 394 65 373 65 341 C65 310 86 289 118 289 L118 289 Z M118 -10 C149 -10 170 11 170 43 C170 74 149 95 118 95 C86 95 65 74 65 43 C65 11 86 -10 118 -10 L118 -10 Z " />
<glyph glyph-name="semicolon" unicode="&#x3b;" horiz-adv-x="237" d="M117 289 C149 289 170 310 170 341 C170 373 149 394 117 394 C86 394 65 373 65 341 C65 310 86 289 117 289 L117 289 Z M90 0 C118 -13 136 -47 136 -86 C136 -124 106 -166 60 -192 L60 -210 C136 -167 187 -100 187 -43 C187 13 163 62 127 79 C105 90 96 90 84 67 L59 23 L61 15 L90 0 L90 0 Z " />
<glyph glyph-name="equal" unicode="&#x3d;" horiz-adv-x="500" d="M40 195 L40 151 L460 151 L460 195 L40 195 L40 195 Z M40 393 L40 349 L460 349 L460 393 L40 393 L40 393 Z " />
<glyph glyph-name="question" unicode="&#x3f;" horiz-adv-x="475" d="M207 -5 C238 -5 259 16 259 48 C259 79 238 100 207 100 C175 100 154 79 154 48 C154 16 175 -5 207 -5 L207 -5 Z M117 516 C117 516 63 508 40 508 C40 487 54 473 74 473 L110 473 C110 473 115 482 117 482 L117 516 L117 516 Z M117 516 C117 585 157 631 218 631 C291 631 340 578 340 498 C340 429 274 368 175 345 C175 294 198 175 198 175 L215 175 C215 175 222 231 226 283 C344 321 420 404 420 498 C420 601 350 670 245 670 C122 670 40 605 40 508 L117 516 L117 516 Z " />
<glyph glyph-name="A" unicode="A" horiz-adv-x="745" d="M474 0 L710 0 L710 16 L646 45 C560 252 475 460 387 666 L349 666 L96 51 L17 19 L17 1 L235 1 L235 19 L155 51 L226 228 L488 228 L488 231 L562 51 L474 19 L474 0 L474 0 Z M469 277 L245 277 L356 554 L469 277 L469 277 Z " />
<glyph glyph-name="B" unicode="B" horiz-adv-x="629" d="M242 364 L199 364 L199 612 L283 612 C387 612 441 560 441 482 C441 411 361 364 242 364 L242 364 Z M392 355 C473 384 521 436 521 502 C521 596 447 659 302 659 L40 659 L40 640 L120 604 L120 54 L40 18 L40 -1 L297 -1 C466 -1 578 76 578 191 C578 272 515 332 391 354 L392 355 L392 355 Z M198 47 L198 315 L305 315 C432 315 497 263 497 184 C497 102 417 47 297 47 L198 47 L198 47 Z " />
<glyph glyph-name="C" unicode="C" horiz-adv-x="716" d="M626 40 L635 190 C629 190 624 191 619 191 C602 157 579 113 562 79 C560 75 557 71 553 69 C508 47 451 34 401 34 C251 34 151 156 151 338 C151 511 256 626 413 626 C456 626 502 615 538 597 C542 595 546 591 548 587 C566 548 589 497 607 458 C612 458 617 459 623 459 L617 624 C583 652 502 671 413 671 C207 671 70 527 70 312 C70 119 202 -9 401 -9 C493 -9 583 11 626 41 L626 40 L626 40 Z " />
<glyph glyph-name="D" unicode="D" horiz-adv-x="773" d="M348 0 C561 0 703 130 703 358 C703 557 556 660 335 660 L65 660 L65 641 L145 605 L145 55 L65 19 L65 0 L348 0 L348 0 Z M223 48 L223 612 L313 612 C497 612 620 516 620 329 C620 150 510 48 346 48 L223 48 L223 48 Z " />
<glyph glyph-name="E" unicode="E" horiz-adv-x="650" d="M580 173 L563 173 L505 48 L223 48 L223 316 L405 316 L447 236 L470 236 L470 444 L447 444 L405 364 L223 364 L223 612 L480 612 L538 497 L555 497 L555 660 L65 660 L65 641 L145 605 L145 55 L65 19 L65 0 L580 0 L580 173 L580 173 Z " />
<glyph glyph-name="F" unicode="F" horiz-adv-x="615" d="M405 316 L447 236 L470 236 L470 444 L447 444 L405 364 L223 364 L223 612 L470 612 L528 497 L545 497 L545 660 L65 660 L65 641 L145 605 L145 55 L65 19 L65 0 L318 0 L318 19 L223 55 L223 316 L405 316 L405 316 Z " />
<glyph glyph-name="G" unicode="G" horiz-adv-x="772" d="M652 235 L727 271 L727 290 L488 290 L488 271 L573 235 L573 65 C541 50 487 41 425 41 C261 41 151 159 151 337 C151 510 260 625 423 625 C470 625 519 614 557 596 L557 596 C562 594 566 589 568 585 C586 546 609 495 627 456 C632 456 637 457 643 457 L637 622 C603 650 518 669 423 669 C211 669 70 525 70 310 C70 117 202 -11 401 -11 C509 -11 610 23 652 73 L652 235 L652 235 Z " />
<glyph glyph-name="H" unicode="H" horiz-adv-x="808" d="M743 0 L743 19 L663 55 L663 605 L743 641 L743 660 L504 660 L504 641 L584 605 L584 364 L223 364 L223 605 L303 641 L303 660 L65 660 L65 641 L145 605 L145 55 L65 19 L65 0 L303 0 L303 19 L223 55 L223 316 L584 316 L584 55 L504 19 L504 0 L743 0 L743 0 Z " />
<glyph glyph-name="I" unicode="I" horiz-adv-x="379" d="M309 0 L309 19 L229 55 L229 605 L309 641 L309 660 L70 660 L70 641 L150 605 L150 55 L70 19 L70 0 L309 0 L309 0 Z " />
<glyph glyph-name="J" unicode="J" horiz-adv-x="379" d="M150 605 L150 50 C150 -46 122 -110 80 -110 C80 -110 54 -107 36 -102 L30 -102 C30 -102 21 -148 21 -151 C21 -164 33 -173 50 -173 C157 -173 229 -16 229 219 L229 605 L309 641 L309 660 L70 660 L70 641 L150 605 L150 605 Z " />
<glyph glyph-name="K" unicode="K" horiz-adv-x="728" d="M654 660 L424 660 L424 642 L494 610 C494 610 293 406 274 388 L225 338 L562 0 L699 0 L699 14 L632 40 L307 356 L587 620 L654 646 L654 660 L654 660 Z M304 0 L304 19 L224 55 L224 605 L304 641 L304 660 L65 660 L65 641 L145 605 L145 55 L65 19 L65 0 L304 0 L304 0 Z " />
<glyph glyph-name="L" unicode="L" horiz-adv-x="630" d="M560 213 L542 213 L480 48 L223 48 L223 605 L308 641 L308 660 L65 660 L65 641 L145 605 L145 55 L65 19 L65 0 L560 0 L560 213 L560 213 Z " />
<glyph glyph-name="M" unicode="M" horiz-adv-x="961" d="M73 641 L161 605 L142 55 L61 19 L61 0 L278 0 L278 19 L195 55 L209 557 L455 -5 L494 -5 L736 550 L755 55 L677 19 L677 0 L901 0 L901 19 L830 55 L809 605 L896 641 L896 660 L732 660 L493 102 L247 660 L74 660 L73 641 L73 641 Z " />
<glyph glyph-name="N" unicode="N" horiz-adv-x="803" d="M68 641 L143 605 L143 55 L63 19 L63 0 L304 0 L304 19 L204 55 L204 532 C347 353 489 173 633 -5 L663 -5 L663 605 L738 641 L738 660 L502 660 L502 641 L602 605 L602 160 L204 660 L68 660 L68 641 L68 641 Z " />
<glyph glyph-name="O" unicode="O" horiz-adv-x="804" d="M154 360 C154 520 247 627 386 627 C544 627 650 495 650 297 C650 139 558 34 420 34 C260 34 154 164 154 360 L154 360 Z M70 329 C70 126 203 -10 402 -10 C601 -10 734 125 734 328 C734 533 601 670 402 670 C203 670 70 534 70 329 L70 329 Z " />
<glyph glyph-name="P" unicode="P" horiz-adv-x="617" d="M318 0 L318 19 L223 55 L223 293 L302 293 C449 293 547 368 547 480 C547 588 459 660 327 660 L65 660 L65 641 L145 605 L145 55 L65 19 L65 0 L318 0 L318 0 Z M223 341 L223 612 L308 612 C401 612 463 556 463 473 C463 394 405 341 319 341 L223 341 L223 341 Z " />
<glyph glyph-name="Q" unicode="Q" horiz-adv-x="804" d="M796 -122 L796 -109 C788 -114 764 -117 738 -117 C668 -117 583 -23 510 4 C648 44 735 164 735 328 C735 533 602 670 403 670 C204 670 71 534 71 329 C71 119 213 -22 428 -9 C512 -52 606 -146 685 -146 C727 -146 772 -136 797 -122 L796 -122 L796 -122 Z M155 360 C155 520 248 627 387 627 C545 627 651 495 651 297 C651 139 559 34 421 34 C261 34 155 164 155 360 L155 360 Z " />
<glyph glyph-name="R" unicode="R" horiz-adv-x="675" d="M662 0 L662 18 L589 50 L402 306 C493 332 549 395 549 480 C549 588 461 660 329 660 L66 660 L66 641 L146 605 L146 55 L66 19 L66 0 L299 0 L299 19 L224 55 L224 293 L304 293 C307 293 310 293 313 293 L527 0 L662 0 L662 0 Z M223 341 L223 612 L308 612 C400 612 462 556 462 473 C462 394 405 341 320 341 L223 341 L223 341 Z " />
<glyph glyph-name="S" unicode="S" horiz-adv-x="522" d="M356 601 C366 596 375 585 380 575 C391 549 407 516 418 490 C421 490 425 491 428 491 L439 491 L431 626 C397 652 335 670 275 670 C161 670 85 598 85 490 C85 408 138 355 240 314 C340 274 391 229 391 164 C391 84 343 31 271 31 C238 31 187 48 137 74 L137 74 C132 77 127 82 125 87 C113 118 96 160 84 191 C77 191 70 190 63 190 L70 37 C72 39 89 64 90 64 L71 37 C117 9 197 -10 272 -10 C390 -10 468 68 468 185 C468 274 411 332 300 376 C210 412 164 455 164 519 C164 584 206 628 269 628 C294 628 326 618 357 601 L356 601 L356 601 Z " />
<glyph glyph-name="T" unicode="T" horiz-adv-x="675" d="M477 0 L477 19 L377 55 L377 612 L550 612 L612 467 L630 467 L630 660 L45 660 L45 467 L63 467 L125 612 L298 612 L298 55 L198 19 L198 0 L477 0 L477 0 Z " />
<glyph glyph-name="U" unicode="U" horiz-adv-x="810" d="M147 605 L147 234 C147 88 251 -10 406 -10 C561 -10 665 88 665 234 L665 605 L745 641 L745 660 L504 660 L504 641 L604 605 L604 215 C604 111 534 41 430 41 C307 41 225 124 225 248 L226 605 L306 641 L306 660 L67 660 L67 641 L147 605 L147 605 Z " />
<glyph glyph-name="V" unicode="V" horiz-adv-x="733" d="M502 641 L580 605 L382 115 L185 605 L273 641 L273 660 L34 660 L34 642 L102 610 C184 405 268 201 348 -5 L386 -5 L645 620 L701 646 L701 660 L503 660 L502 641 L502 641 Z " />
<glyph glyph-name="W" unicode="W" horiz-adv-x="977" d="M747 641 L831 605 L697 148 C635 320 574 493 512 665 L483 665 C421 493 363 319 303 146 L166 605 L260 641 L260 660 L19 660 L19 642 L84 610 C147 405 210 200 272 -5 L302 -5 C363 169 427 342 490 515 C551 342 611 168 674 -5 L702 -5 L708 15 C770 217 832 419 895 620 L958 646 L958 660 L747 660 L747 641 L747 641 Z " />
<glyph glyph-name="X" unicode="X" horiz-adv-x="736" d="M461 0 L699 0 L699 16 L637 45 L410 343 L612 615 L673 644 L673 660 L468 660 L468 641 L547 605 L380 382 C324 456 267 531 211 605 L289 641 L289 660 L50 660 L50 642 L114 610 L325 327 L111 49 L41 17 L41 -1 L264 -1 L264 18 L176 54 L354 288 L529 54 L460 18 L461 0 L461 0 Z " />
<glyph glyph-name="Y" unicode="Y" horiz-adv-x="716" d="M681 660 L477 660 L477 641 L554 605 L380 355 C316 438 250 522 187 605 L254 641 L254 660 L32 660 L32 642 L96 610 L326 305 L326 55 L236 19 L236 0 L495 0 L495 19 L405 55 L405 306 L624 620 L682 646 L681 660 L681 660 Z " />
<glyph glyph-name="Z" unicode="Z" horiz-adv-x="646" d="M104 487 L122 487 L184 612 L445 612 L108 48 L92 22 L92 0 L556 0 L556 183 L538 183 L476 48 L189 48 C306 244 423 441 541 637 L541 660 L104 660 L104 487 L104 487 Z " />
<glyph glyph-name="bracketleft" unicode="&#x5b;" horiz-adv-x="242" d="M121 720 L237 720 L237 740 L66 740 L66 -150 L237 -150 L237 -130 L121 -130 L121 720 L121 720 Z " />
<glyph glyph-name="backslash" unicode="&#x5c;" horiz-adv-x="238" d="M194 -120 L238 -120 L44 750 L0 750 L194 -120 L194 -120 Z " />
<glyph glyph-name="bracketright" unicode="&#x5d;" horiz-adv-x="237" d="M117 720 L117 -130 L5 -130 L5 -150 L172 -150 L172 740 L5 740 L5 720 L117 720 L117 720 Z " />
<glyph glyph-name="asciicircum" unicode="&#x5e;" horiz-adv-x="340" d="M315 530 L183 705 L157 705 L30 530 L40 530 L170 631 L305 530 L315 530 L315 530 Z " />
<glyph glyph-name="underscore" unicode="&#x5f;" horiz-adv-x="500" d="M25 -91 L25 -135 L475 -135 L475 -91 L25 -91 L25 -91 Z " />
<glyph glyph-name="grave" unicode="&#x60;" horiz-adv-x="340" d="M176 530 L89 707 L19 707 C19 707 29 668 44 653 L165 530 L176 530 L176 530 Z " />
<glyph glyph-name="a" unicode="a" horiz-adv-x="487" d="M134 337 C134 384 169 419 215 419 C278 419 310 384 310 331 L310 258 C138 220 50 156 50 88 C50 29 94 -10 161 -10 C219 -10 275 12 312 53 C320 14 351 -10 394 -10 C431 -10 465 10 480 40 L477 45 C476 43 461 41 439 41 C404 41 380 51 380 67 L380 350 C380 416 331 460 237 460 C137 460 62 405 62 332 C62 317 69 307 80 308 L129 308 L134 313 L134 337 L134 337 Z M310 226 L310 75 C284 54 244 43 199 43 C150 43 118 68 118 105 C118 152 183 197 310 226 L310 226 Z " />
<glyph glyph-name="b" unicode="b" horiz-adv-x="559" d="M100 -10 L105 -10 L134 20 C166 1 221 -11 280 -11 C417 -11 509 94 509 251 C509 376 437 459 330 459 C269 459 209 435 170 397 L170 750 L156 750 L35 702 L35 696 L75 662 C90 649 100 640 100 640 L100 -10 L100 -10 Z M170 80 L170 353 C190 382 234 401 280 401 C375 401 438 334 438 233 C438 112 384 32 303 32 C255 32 202 51 170 80 L170 80 Z " />
<glyph glyph-name="c" unicode="c" horiz-adv-x="477" d="M429 103 C388 74 336 55 298 55 C191 55 119 131 119 246 C119 352 173 422 253 422 C290 422 330 402 351 373 L380 333 L386 333 L416 361 C426 370 432 378 432 381 C432 386 426 398 416 411 C395 440 341 460 281 460 C142 460 50 358 50 206 C50 76 134 -10 261 -10 C330 -10 399 32 433 95 L433 103 L429 103 L429 103 Z " />
<glyph glyph-name="d" unicode="d" horiz-adv-x="572" d="M524 0 L524 18 L454 50 L454 755 L440 755 L319 719 L319 714 L365 676 C376 667 384 661 384 661 L384 448 C353 456 318 461 287 461 C144 461 48 355 48 195 C48 73 119 -9 226 -9 C289 -9 351 16 385 55 L393 0 L524 0 L524 0 Z M384 370 L384 86 C361 64 319 50 275 50 C180 50 117 117 117 218 C117 339 181 419 276 419 C276 419 318 400 384 371 L384 370 L384 370 Z " />
<glyph glyph-name="e" unicode="e" horiz-adv-x="483" d="M121 283 C132 368 179 422 246 422 C311 422 358 368 368 283 L121 283 Z M429 103 C388 74 336 55 298 55 C192 55 120 130 119 243 L402 243 L433 247 C433 375 364 460 261 460 C134 460 50 358 50 206 C50 76 134 -10 261 -10 C330 -10 399 32 433 95 L433 103 L429 103 L429 103 Z " />
<glyph glyph-name="f" unicode="f" horiz-adv-x="360" d="M258 0 L258 18 L193 50 L194 409 L325 409 L325 450 L194 450 L194 574 C194 624 242 678 313 678 C330 678 349 674 362 668 C376 661 389 657 389 657 L396 657 L412 694 C419 716 414 727 388 739 C388 739 364 749 353 749 C243 749 123 614 123 489 L123 449 L40 449 L40 408 L123 408 L123 49 L58 17 L58 -1 L258 0 L258 0 Z " />
<glyph glyph-name="g" unicode="g" horiz-adv-x="544" d="M347 442 C321 454 291 460 257 460 C140 460 80 396 80 300 C80 237 109 188 158 161 C106 142 73 109 73 75 C73 36 103 7 151 -2 C97 -20 63 -82 63 -124 C63 -194 133 -241 237 -241 C379 -241 473 -173 473 -71 C473 4 433 54 330 54 L208 54 C164 54 134 74 134 103 C134 124 153 143 181 151 C203 143 228 139 256 139 C373 139 434 204 434 302 C434 345 420 381 395 408 L495 403 L495 450 L347 442 L347 442 Z M152 303 C152 377 186 426 252 426 C319 426 363 375 363 299 C363 223 331 173 268 173 C198 173 152 225 152 303 L152 303 Z M187 -5 L296 -5 C378 -5 410 -39 410 -89 C410 -165 345 -215 247 -215 C175 -215 127 -174 127 -113 C127 -61 151 -5 187 -5 L187 -5 Z " />
<glyph glyph-name="h" unicode="h" horiz-adv-x="588" d="M548 0 L548 18 L483 50 L483 343 C483 413 427 460 343 460 C283 460 232 428 185 380 L185 750 L171 750 L50 702 L50 696 L90 662 C105 649 115 640 115 640 L115 50 L50 18 L50 0 L250 0 L250 18 L185 50 L185 353 C213 380 250 398 303 398 C368 398 412 360 412 303 L412 50 L347 18 L347 0 L548 0 L548 0 Z " />
<glyph glyph-name="i" unicode="i" horiz-adv-x="307" d="M150 610 C182 610 203 631 203 663 C203 694 182 715 150 715 C119 715 98 694 98 663 C98 631 119 610 150 610 L150 610 Z M259 0 L259 18 L189 50 L189 460 L175 460 L54 412 L54 406 L94 372 C109 359 119 350 119 350 L119 50 L54 18 L54 0 L259 0 L259 0 Z " />
<glyph glyph-name="j" unicode="j" horiz-adv-x="307" d="M154 610 C186 610 207 631 207 663 C207 694 186 715 154 715 C123 715 102 694 102 663 C102 631 123 610 154 610 L154 610 Z M56 -218 L56 -234 C184 -154 189 -91 189 -1 L189 460 L175 460 L54 412 L54 406 L94 372 C109 359 119 350 119 350 L119 -11 C119 -112 127 -174 56 -218 L56 -218 Z " />
<glyph glyph-name="k" unicode="k" horiz-adv-x="533" d="M491 450 L308 450 L308 429 L357 390 L185 255 L185 760 L171 760 L50 712 L50 706 L90 672 C105 659 115 650 115 650 L115 50 L50 18 L50 0 L255 0 L255 18 L185 50 L185 242 L398 0 L505 0 L505 18 L441 50 L246 272 C305 315 363 358 422 401 L491 433 L491 450 L491 450 Z " />
<glyph glyph-name="l" unicode="l" horiz-adv-x="288" d="M244 0 L244 18 L179 50 L179 760 L165 760 L44 712 L44 706 L84 672 C99 659 109 650 109 650 L109 50 L44 18 L44 0 L244 0 L244 0 Z " />
<glyph glyph-name="m" unicode="m" horiz-adv-x="869" d="M829 0 L829 18 L764 50 L764 343 C764 413 710 460 628 460 C568 460 514 425 464 372 C451 426 401 460 331 460 C276 460 226 428 179 380 L179 383 L177 383 C176 415 175 460 175 460 L161 460 L44 412 L44 406 L84 372 C99 359 109 350 109 350 L109 50 L44 18 L44 0 L244 0 L244 18 L179 50 L179 353 C207 380 243 398 293 398 C355 398 397 360 397 303 L397 50 L327 18 L327 0 L537 0 L537 18 L467 50 L467 343 C467 345 467 347 467 349 C498 379 536 399 589 399 C651 399 693 361 693 304 L693 51 L623 19 L623 1 L829 0 L829 0 Z " />
<glyph glyph-name="n" unicode="n" horiz-adv-x="588" d="M548 0 L548 18 L483 50 L483 343 C483 413 427 460 343 460 C283 460 232 428 185 380 L185 383 L183 383 C182 415 181 460 181 460 L167 460 L50 412 L50 406 L90 372 C105 359 115 350 115 350 L115 50 L50 18 L50 0 L255 0 L255 18 L185 50 L185 353 C213 380 250 398 303 398 C368 398 412 360 412 303 L412 50 L342 18 L342 0 L548 0 L548 0 Z " />
<glyph glyph-name="o" unicode="o" horiz-adv-x="535" d="M131 225 C131 344 174 423 256 423 C345 423 405 344 405 225 C405 106 362 27 279 27 C190 27 131 106 131 225 L131 225 Z M50 225 C50 84 137 -10 268 -10 C411 -10 485 84 485 225 C485 366 398 460 268 460 C124 460 50 366 50 225 L50 225 Z " />
<glyph glyph-name="p" unicode="p" horiz-adv-x="570" d="M183 392 C182 423 181 460 181 460 L167 460 L50 412 L50 406 L90 372 C105 359 115 350 115 350 L115 -180 L50 -212 L50 -230 L255 -230 L255 -212 L185 -180 L185 -1 C211 -7 248 -10 288 -10 C427 -10 520 94 520 249 C520 376 451 460 348 460 C295 460 231 433 184 392 L183 392 L183 392 Z M186 74 L186 366 C215 388 259 402 300 402 C392 402 453 328 453 218 C453 107 397 33 312 33 C266 33 216 50 186 75 L186 74 L186 74 Z " />
<glyph glyph-name="q" unicode="q" horiz-adv-x="556" d="M516 -230 L516 -212 L451 -180 L451 460 L446 460 L410 443 C381 454 335 461 286 461 C144 461 50 355 50 195 C50 73 120 -9 225 -9 C268 -9 329 18 381 59 L381 -179 L311 -211 L311 -229 L516 -230 L516 -230 Z M381 376 L381 90 C348 66 307 50 274 50 C181 50 119 117 119 218 C119 339 181 419 275 419 C305 419 346 402 381 376 L381 376 Z " />
<glyph glyph-name="r" unicode="r" horiz-adv-x="366" d="M283 460 C257 460 223 423 185 367 L185 377 L184 377 C183 410 182 461 182 461 L168 461 L51 413 L51 407 L91 373 C106 360 116 351 116 351 L116 51 L51 19 L51 1 L256 1 L256 19 L186 51 L186 337 C209 370 228 391 242 391 C261 391 285 386 302 379 C313 374 340 363 340 363 L347 363 C360 389 368 412 368 421 C368 444 315 460 285 460 L283 460 L283 460 Z " />
<glyph glyph-name="s" unicode="s" horiz-adv-x="423" d="M337 326 L337 424 L336 403 L337 424 C300 446 247 460 205 460 C127 460 75 409 75 333 C75 267 112 228 183 203 C254 178 291 146 291 98 C291 52 255 21 202 21 C154 21 118 46 98 83 C91 97 80 115 73 129 L59 129 L59 21 C99 2 158 -10 206 -10 C294 -10 352 42 352 120 C352 191 312 232 234 260 C169 283 136 313 136 359 C136 406 177 434 229 423 C262 414 294 384 310 345 C313 339 316 331 319 325 L337 326 L337 326 Z " />
<glyph glyph-name="t" unicode="t" horiz-adv-x="343" d="M313 53 L311 61 C307 53 281 48 245 48 C199 48 169 71 169 105 L169 409 L301 409 L301 450 L169 450 L169 556 L164 556 L99 450 L18 414 L18 409 L99 409 L99 90 C99 30 140 -10 202 -10 C250 -10 295 15 313 53 L313 53 Z " />
<glyph glyph-name="u" unicode="u" horiz-adv-x="550" d="M389 400 L389 99 C356 69 311 53 268 53 C204 53 161 91 161 148 L161 449 L26 449 L26 431 L91 399 L91 106 C91 36 146 -11 228 -11 C274 -11 333 17 389 71 L389 0 L529 0 L529 18 L459 50 L459 450 L319 450 L319 432 L389 400 L389 400 Z " />
<glyph glyph-name="v" unicode="v" horiz-adv-x="548" d="M210 450 L-24 450 L-24 432 L46 400 L227 10 L232 0 L250 0 L427 395 L503 431 L503 450 L308 450 L308 431 L385 395 L263 98 L123 400 L210 432 L210 450 L210 450 Z " />
<glyph glyph-name="w" unicode="w" horiz-adv-x="842" d="M618 431 L696 395 L580 104 C530 219 481 335 431 450 L412 450 C353 302 290 156 229 9 L232 0 L254 0 L403 339 C451 226 497 112 547 0 L565 0 C623 132 681 264 739 395 L815 431 L815 450 L619 450 L618 431 L618 431 Z M256 450 L23 450 L23 432 L90 400 L229 9 L268 103 C234 202 198 302 164 400 L256 432 L256 450 L256 450 Z " />
<glyph glyph-name="x" unicode="x" horiz-adv-x="528" d="M204 18 L132 50 L234 204 L345 50 L286 18 L286 0 L479 0 L479 18 L425 50 L278 249 L395 400 L455 432 L455 450 L295 450 L295 432 L355 400 L263 270 C231 313 199 356 167 399 L240 431 L240 449 L38 449 L38 431 L91 399 L217 226 L91 49 L33 17 L33 -1 L204 -1 L204 18 L204 18 Z " />
<glyph glyph-name="y" unicode="y" horiz-adv-x="537" d="M239 450 L5 450 L5 432 L76 400 L262 9 L230 -70 C203 -140 173 -167 125 -167 L86 -167 L82 -171 L82 -214 C82 -233 90 -240 112 -240 C176 -240 219 -196 263 -82 C328 77 392 237 458 395 L532 431 L532 450 L342 450 L342 431 L420 395 L298 96 C250 197 201 298 153 399 L239 431 L239 450 L239 450 Z " />
<glyph glyph-name="z" unicode="z" horiz-adv-x="480" d="M86 460 C86 458 84 431 83 431 L73 311 L90 311 L131 411 L299 411 C224 279 149 147 75 15 L75 -1 L405 -1 L405 143 L388 143 L355 38 L168 38 C244 173 321 307 397 442 L397 449 L135 449 L96 459 L86 460 L86 460 Z " />
<glyph glyph-name="braceleft" unicode="&#x7b;" horiz-adv-x="250" d="M88 297 C141 317 174 365 174 429 C174 493 135 577 135 641 C135 711 169 733 220 731 L245 730 L245 750 L226 750 C136 750 76 723 76 613 C76 552 122 472 122 411 C122 349 85 307 30 307 L5 307 L5 287 L30 287 C85 287 122 244 122 179 C122 119 76 38 76 -22 C76 -135 136 -156 226 -156 L245 -156 L245 -136 L219 -137 C169 -139 135 -120 135 -49 C135 14 174 98 174 161 C174 227 141 276 88 296 L88 297 L88 297 Z " />
<glyph glyph-name="bar" unicode="&#x7c;" horiz-adv-x="222" d="M78 -260 L122 -260 L122 760 L78 760 L78 -260 L78 -260 Z " />
<glyph glyph-name="braceright" unicode="&#x7d;" horiz-adv-x="260" d="M255 307 L230 307 C175 307 138 349 138 411 C138 472 184 552 184 613 C184 723 124 750 34 750 L15 750 L15 730 L40 731 C91 733 125 711 125 641 C125 577 86 493 86 429 C86 365 119 317 172 297 C119 277 86 228 86 162 C86 99 125 15 125 -48 C125 -119 91 -138 41 -136 L15 -135 L15 -155 L34 -155 C124 -155 184 -134 184 -21 C184 39 138 120 138 180 C138 245 175 288 230 288 L255 288 L255 307 L255 307 Z " />
<glyph glyph-name="asciitilde" unicode="&#x7e;" horiz-adv-x="340" d="M30 225 C43 265 56 291 92 291 C133 291 187 228 227 228 C278 228 299 276 322 347 L310 347 C297 306 284 279 248 279 C208 279 154 342 113 342 C62 342 41 295 18 225 L30 225 L30 225 Z " />
<glyph glyph-name="exclamdown" unicode="&#xa1;" horiz-adv-x="231" d="M118 460 C87 460 66 439 66 407 C66 376 87 355 118 355 C150 355 171 376 171 407 C171 439 150 460 118 460 L118 460 Z M70 -210 L166 -210 L127 275 L109 275 L70 -210 L70 -210 Z " />
<glyph glyph-name="cent" unicode="&#xa2;" horiz-adv-x="477" d="M429 103 C388 74 336 55 298 55 C281 55 265 57 250 60 L250 422 C288 423 328 403 349 374 L378 334 L384 334 L414 362 C424 371 430 379 430 382 C430 387 424 399 414 412 C389 446 318 467 249 459 L249 521 L213 521 L213 453 C112 426 48 334 48 208 C48 94 112 14 213 -4 L213 -78 L249 -78 L249 -8 C325 -11 395 31 431 97 L431 105 L429 103 L429 103 Z M213 75 C153 104 117 166 117 248 C117 336 154 399 213 418 L213 75 Z " />
<glyph glyph-name="guillemotleft" unicode="&#xab;" horiz-adv-x="432" d="M402 425 L202 248 L402 70 L412 70 L289 248 L412 425 L402 425 L402 425 Z M216 425 L16 248 L216 70 L226 70 L103 248 L226 425 L216 425 L216 425 Z " />
<glyph glyph-name="acute" unicode="&#xb4;" horiz-adv-x="340" d="M170 530 L181 530 L302 653 C317 668 327 707 327 707 L257 707 L170 530 L170 530 Z " />
<glyph glyph-name="periodcentered" unicode="&#xb7;" horiz-adv-x="235" d="M118 210 C149 210 170 231 170 263 C170 294 149 315 118 315 C86 315 65 294 65 263 C65 231 86 210 118 210 L118 210 Z " />
<glyph glyph-name="guillemotright" unicode="&#xbb;" horiz-adv-x="424" d="M197 425 L316 248 L197 70 L207 70 L404 248 L207 425 L197 425 L197 425 Z M20 425 L139 248 L20 70 L30 70 L227 248 L30 425 L20 425 L20 425 Z " />
<glyph glyph-name="questiondown" unicode="&#xbf;" horiz-adv-x="475" d="M268 455 C237 455 216 434 216 402 C216 371 237 350 268 350 C300 350 321 371 321 402 C321 434 300 455 268 455 L268 455 Z M358 -66 C358 -66 412 -58 435 -58 C435 -37 421 -23 401 -23 L365 -23 C365 -23 360 -32 358 -32 L358 -66 L358 -66 Z M358 -66 C358 -135 318 -181 257 -181 C184 -181 135 -128 135 -48 C135 21 201 82 300 105 C300 156 277 275 277 275 L260 275 C260 275 253 219 249 167 C131 129 55 46 55 -48 C55 -151 125 -220 230 -220 C353 -220 435 -155 435 -58 L358 -66 L358 -66 Z " />
<glyph glyph-name="Agrave" unicode="&#xc0;" horiz-adv-x="745" d="M368 705 L281 864 L211 864 C211 864 221 829 236 816 L358 705 L368 705 L368 705 Z M474 0 L710 0 L710 16 L646 45 C560 252 475 460 387 666 L349 666 L96 51 L17 19 L17 1 L235 1 L235 19 L155 51 L226 228 L488 228 L488 231 L562 51 L474 19 L474 0 L474 0 Z M469 277 L245 277 L356 554 L469 277 L469 277 Z " />
<glyph glyph-name="Aacute" unicode="&#xc1;" horiz-adv-x="745" d="M363 705 L373 705 L495 816 C510 829 520 864 520 864 L450 864 L363 705 L363 705 Z M474 0 L710 0 L710 16 L646 45 C560 252 475 460 387 666 L349 666 L96 51 L17 19 L17 1 L235 1 L235 19 L155 51 L226 228 L488 228 L488 231 L562 51 L474 19 L474 0 L474 0 Z M469 277 L245 277 L356 554 L469 277 L469 277 Z " />
<glyph glyph-name="Acircumflex" unicode="&#xc2;" horiz-adv-x="745" d="M513 705 L381 863 L354 863 L227 705 L238 705 L368 796 L502 705 L513 705 L513 705 Z M474 0 L710 0 L710 16 L646 45 C560 252 475 460 387 666 L349 666 L96 51 L17 19 L17 1 L235 1 L235 19 L155 51 L226 228 L488 228 L488 231 L562 51 L474 19 L474 0 L474 0 Z M469 277 L245 277 L356 554 L469 277 L469 277 Z " />
<glyph glyph-name="Atilde" unicode="&#xc3;" horiz-adv-x="745" d="M232 728 C245 764 258 787 295 787 C335 787 389 730 429 730 C480 730 501 773 524 837 L513 837 C500 800 487 776 450 776 C410 776 356 833 316 833 C265 833 244 791 221 728 L232 728 L232 728 Z M474 0 L710 0 L710 16 L646 45 C560 252 475 460 387 666 L349 666 L96 51 L17 19 L17 1 L235 1 L235 19 L155 51 L226 228 L488 228 L488 231 L562 51 L474 19 L474 0 L474 0 Z M469 277 L245 277 L356 554 L469 277 L469 277 Z " />
<glyph glyph-name="Adieresis" unicode="&#xc4;" horiz-adv-x="745" d="M453 735 C509 735 509 823 453 823 C395 823 395 735 452 735 L453 735 Z M282 735 C338 735 338 823 282 823 C224 823 224 735 281 735 L282 735 Z M472 0 L708 0 L708 16 L644 45 C558 252 473 460 385 666 L347 666 L94 51 L15 19 L15 1 L233 1 L233 19 L153 51 L224 228 L486 228 L486 231 L560 51 L472 19 L472 0 L472 0 Z M467 277 L243 277 L354 554 L467 277 L467 277 Z " />
<glyph glyph-name="Aring" unicode="&#xc5;" horiz-adv-x="745" d="M327 798 C327 830 343 852 366 852 C391 852 408 826 408 786 C408 756 391 731 371 731 C347 731 327 762 327 798 L327 798 Z M284 792 C284 748 323 710 368 710 C413 710 451 749 451 794 C451 841 418 873 368 873 C318 873 284 841 284 792 L284 792 Z M474 0 L710 0 L710 16 L646 45 C560 252 475 460 387 666 L349 666 L96 51 L17 19 L17 1 L235 1 L235 19 L155 51 L226 228 L488 228 L488 231 L562 51 L474 19 L474 0 L474 0 Z M469 277 L245 277 L356 554 L469 277 L469 277 Z " />
<glyph glyph-name="Ccedilla" unicode="&#xc7;" horiz-adv-x="716" d="M386 -88 C405 -47 418 -19 423 -9 C507 -6 587 13 627 41 L636 191 C630 191 625 192 620 192 C603 158 580 114 563 80 C561 76 558 72 554 70 C509 48 452 35 402 35 C252 35 152 157 152 339 C152 512 257 627 414 627 C457 627 503 616 539 598 C543 596 547 592 549 588 C567 549 590 498 608 459 C613 459 618 460 624 460 L618 625 C584 653 503 672 414 672 C208 672 71 528 71 313 C71 123 199 -4 393 -8 C387 -21 366 -65 338 -127 L363 -139 C402 -149 428 -165 428 -180 C428 -200 413 -214 390 -214 C357 -214 328 -208 318 -200 L318 -209 C339 -226 373 -238 402 -238 C449 -238 480 -209 480 -166 C480 -134 443 -103 387 -86 L386 -88 L386 -88 Z " />
<glyph glyph-name="Egrave" unicode="&#xc8;" horiz-adv-x="650" d="M341 705 L254 864 L184 864 C184 864 194 829 209 816 L330 705 L341 705 L341 705 Z M580 173 L563 173 L505 48 L223 48 L223 316 L405 316 L447 236 L470 236 L470 444 L447 444 L405 364 L223 364 L223 612 L480 612 L538 497 L555 497 L555 660 L65 660 L65 641 L145 605 L145 55 L65 19 L65 0 L580 0 L580 173 L580 173 Z " />
<glyph glyph-name="Eacute" unicode="&#xc9;" horiz-adv-x="650" d="M335 705 L346 705 L467 816 C482 829 492 864 492 864 L422 864 L335 705 L335 705 Z M580 173 L563 173 L505 48 L223 48 L223 316 L405 316 L447 236 L470 236 L470 444 L447 444 L405 364 L223 364 L223 612 L480 612 L538 497 L555 497 L555 660 L65 660 L65 641 L145 605 L145 55 L65 19 L65 0 L580 0 L580 173 L580 173 Z " />
<glyph glyph-name="Ecircumflex" unicode="&#xca;" horiz-adv-x="650" d="M480 705 L348 863 L322 863 L195 705 L205 705 L335 796 L470 705 L480 705 L480 705 Z M580 173 L563 173 L505 48 L223 48 L223 316 L405 316 L447 236 L470 236 L470 444 L447 444 L405 364 L223 364 L223 612 L480 612 L538 497 L555 497 L555 660 L65 660 L65 641 L145 605 L145 55 L65 19 L65 0 L580 0 L580 173 L580 173 Z " />
<glyph glyph-name="Edieresis" unicode="&#xcb;" horiz-adv-x="650" d="M464 779 C464 837 376 837 376 780 C376 722 464 722 464 779 L464 779 Z M294 779 C294 837 206 837 206 780 C206 722 294 722 294 779 L294 779 Z M580 173 L563 173 L505 48 L223 48 L223 316 L405 316 L447 236 L470 236 L470 444 L447 444 L405 364 L223 364 L223 612 L480 612 L538 497 L555 497 L555 660 L65 660 L65 641 L145 605 L145 55 L65 19 L65 0 L580 0 L580 173 L580 173 Z " />
<glyph glyph-name="Igrave" unicode="&#xcc;" horiz-adv-x="379" d="M195 705 L108 864 L38 864 C38 864 48 829 63 816 L184 705 L195 705 L195 705 Z M309 0 L309 19 L229 55 L229 605 L309 641 L309 660 L70 660 L70 641 L150 605 L150 55 L70 19 L70 0 L309 0 L309 0 Z " />
<glyph glyph-name="Iacute" unicode="&#xcd;" horiz-adv-x="379" d="M189 705 L200 705 L321 816 C336 829 346 864 346 864 L276 864 L189 705 L189 705 Z M309 0 L309 19 L229 55 L229 605 L309 641 L309 660 L70 660 L70 641 L150 605 L150 55 L70 19 L70 0 L309 0 L309 0 Z " />
<glyph glyph-name="Icircumflex" unicode="&#xce;" horiz-adv-x="379" d="M334 705 L202 863 L176 863 L49 705 L59 705 L189 796 L324 705 L334 705 L334 705 Z M309 0 L309 19 L229 55 L229 605 L309 641 L309 660 L70 660 L70 641 L150 605 L150 55 L70 19 L70 0 L309 0 L309 0 Z " />
<glyph glyph-name="Idieresis" unicode="&#xcf;" horiz-adv-x="379" d="M318 779 C318 837 230 837 230 780 C230 722 318 722 318 779 L318 779 Z M148 779 C148 837 60 837 60 780 C60 722 148 722 148 779 L148 779 Z M309 0 L309 19 L229 55 L229 605 L309 641 L309 660 L70 660 L70 641 L150 605 L150 55 L70 19 L70 0 L309 0 L309 0 Z " />
<glyph glyph-name="Ntilde" unicode="&#xd1;" horiz-adv-x="803" d="M278 728 C291 764 304 787 340 787 C381 787 435 730 475 730 C526 730 547 773 570 837 L558 837 C545 800 532 776 496 776 C456 776 402 833 361 833 C310 833 289 791 266 728 L278 728 L278 728 Z M68 641 L143 605 L143 55 L63 19 L63 0 L304 0 L304 19 L204 55 L204 532 C347 353 489 173 633 -5 L663 -5 L663 605 L738 641 L738 660 L502 660 L502 641 L602 605 L602 160 L204 660 L68 660 L68 641 L68 641 Z " />
<glyph glyph-name="Ograve" unicode="&#xd2;" horiz-adv-x="804" d="M393 705 L306 864 L236 864 C236 864 246 829 261 816 L382 705 L393 705 L393 705 Z M154 360 C154 520 247 627 386 627 C544 627 650 495 650 297 C650 139 558 34 420 34 C260 34 154 164 154 360 L154 360 Z M70 329 C70 126 203 -10 402 -10 C601 -10 734 125 734 328 C734 533 601 670 402 670 C203 670 70 534 70 329 L70 329 Z " />
<glyph glyph-name="Oacute" unicode="&#xd3;" horiz-adv-x="804" d="M387 705 L398 705 L519 816 C534 829 544 864 544 864 L474 864 L387 705 L387 705 Z M154 360 C154 520 247 627 386 627 C544 627 650 495 650 297 C650 139 558 34 420 34 C260 34 154 164 154 360 L154 360 Z M70 329 C70 126 203 -10 402 -10 C601 -10 734 125 734 328 C734 533 601 670 402 670 C203 670 70 534 70 329 L70 329 Z " />
<glyph glyph-name="Ocircumflex" unicode="&#xd4;" horiz-adv-x="804" d="M532 705 L400 863 L374 863 L247 705 L257 705 L387 796 L522 705 L532 705 L532 705 Z M154 360 C154 520 247 627 386 627 C544 627 650 495 650 297 C650 139 558 34 420 34 C260 34 154 164 154 360 L154 360 Z M70 329 C70 126 203 -10 402 -10 C601 -10 734 125 734 328 C734 533 601 670 402 670 C203 670 70 534 70 329 L70 329 Z " />
<glyph glyph-name="Otilde" unicode="&#xd5;" horiz-adv-x="804" d="M247 728 C260 764 273 787 309 787 C350 787 404 730 444 730 C495 730 516 773 539 837 L527 837 C514 800 501 776 465 776 C425 776 371 833 330 833 C279 833 258 791 235 728 L247 728 L247 728 Z M154 360 C154 520 247 627 386 627 C544 627 650 495 650 297 C650 139 558 34 420 34 C260 34 154 164 154 360 L154 360 Z M70 329 C70 126 203 -10 402 -10 C601 -10 734 125 734 328 C734 533 601 670 402 670 C203 670 70 534 70 329 L70 329 Z " />
<glyph glyph-name="Odieresis" unicode="&#xd6;" horiz-adv-x="804" d="M516 779 C516 837 428 837 428 780 C428 722 516 722 516 779 L516 779 Z M346 779 C346 837 258 837 258 780 C258 722 346 722 346 779 L346 779 Z M154 360 C154 520 247 627 386 627 C544 627 650 495 650 297 C650 139 558 34 420 34 C260 34 154 164 154 360 L154 360 Z M70 329 C70 126 203 -10 402 -10 C601 -10 734 125 734 328 C734 533 601 670 402 670 C203 670 70 534 70 329 L70 329 Z " />
<glyph glyph-name="Oslash" unicode="&#xd8;" horiz-adv-x="804" d="M70 329 C70 230 102 147 157 88 L70 -10 L130 -10 L190 58 C245 15 317 -9 401 -9 C600 -9 733 126 733 329 C733 429 701 513 645 573 L732 671 L672 671 L612 603 C557 647 485 671 401 671 C202 671 69 535 69 330 L70 329 L70 329 Z M565 550 L208 148 C172 203 152 276 152 361 C152 521 245 628 384 628 C457 628 519 600 564 550 L565 550 L565 550 Z M592 514 C628 458 648 384 648 298 C648 140 556 35 418 35 C344 35 282 63 236 112 L592 514 Z " />
<glyph glyph-name="Ugrave" unicode="&#xd9;" horiz-adv-x="810" d="M422 705 L335 864 L265 864 C265 864 275 829 290 816 L411 705 L422 705 L422 705 Z M147 605 L147 234 C147 88 251 -10 406 -10 C561 -10 665 88 665 234 L665 605 L745 641 L745 660 L504 660 L504 641 L604 605 L604 215 C604 111 534 41 430 41 C307 41 225 124 225 248 L226 605 L306 641 L306 660 L67 660 L67 641 L147 605 L147 605 Z " />
<glyph glyph-name="Uacute" unicode="&#xda;" horiz-adv-x="810" d="M406 705 L417 705 L538 816 C553 829 563 864 563 864 L493 864 L406 705 L406 705 Z M147 605 L147 234 C147 88 251 -10 406 -10 C561 -10 665 88 665 234 L665 605 L745 641 L745 660 L504 660 L504 641 L604 605 L604 215 C604 111 534 41 430 41 C307 41 225 124 225 248 L226 605 L306 641 L306 660 L67 660 L67 641 L147 605 L147 605 Z " />
<glyph glyph-name="Ucircumflex" unicode="&#xdb;" horiz-adv-x="810" d="M561 705 L429 863 L403 863 L276 705 L286 705 L416 796 L551 705 L561 705 L561 705 Z M147 605 L147 234 C147 88 251 -10 406 -10 C561 -10 665 88 665 234 L665 605 L745 641 L745 660 L504 660 L504 641 L604 605 L604 215 C604 111 534 41 430 41 C307 41 225 124 225 248 L226 605 L306 641 L306 660 L67 660 L67 641 L147 605 L147 605 Z " />
<glyph glyph-name="Udieresis" unicode="&#xdc;" horiz-adv-x="810" d="M545 779 C545 837 457 837 457 780 C457 722 545 722 545 779 L545 779 Z M375 779 C375 837 287 837 287 780 C287 722 375 722 375 779 L375 779 Z M147 605 L147 234 C147 88 251 -10 406 -10 C561 -10 665 88 665 234 L665 605 L745 641 L745 660 L504 660 L504 641 L604 605 L604 215 C604 111 534 41 430 41 C307 41 225 124 225 248 L226 605 L306 641 L306 660 L67 660 L67 641 L147 605 L147 605 Z " />
<glyph glyph-name="Yacute" unicode="&#xdd;" horiz-adv-x="716" d="M355 705 L365 705 L487 816 C502 829 512 864 512 864 L442 864 L355 705 L355 705 Z M681 660 L477 660 L477 641 L554 605 L380 355 C316 438 250 522 187 605 L254 641 L254 660 L32 660 L32 642 L96 610 L326 305 L326 55 L236 19 L236 0 L495 0 L495 19 L405 55 L405 306 L624 620 L682 646 L681 660 L681 660 Z " />
<glyph glyph-name="agrave" unicode="&#xe0;" horiz-adv-x="487" d="M243 530 L156 707 L86 707 C86 707 96 668 111 653 L232 530 L243 530 L243 530 Z M134 337 C134 384 169 419 215 419 C278 419 310 384 310 331 L310 258 C138 220 50 156 50 88 C50 29 94 -10 161 -10 C219 -10 275 12 312 53 C320 14 351 -10 394 -10 C431 -10 465 10 480 40 L477 45 C476 43 461 41 439 41 C404 41 380 51 380 67 L380 350 C380 416 331 460 237 460 C137 460 62 405 62 332 C62 317 69 307 80 308 L129 308 L134 313 L134 337 L134 337 Z M310 226 L310 75 C284 54 244 43 199 43 C150 43 118 68 118 105 C118 152 183 197 310 226 L310 226 Z " />
<glyph glyph-name="aacute" unicode="&#xe1;" horiz-adv-x="487" d="M237 530 L248 530 L369 653 C384 668 394 707 394 707 L324 707 L237 530 L237 530 Z M134 337 C134 384 169 419 215 419 C278 419 310 384 310 331 L310 258 C138 220 50 156 50 88 C50 29 94 -10 161 -10 C219 -10 275 12 312 53 C320 14 351 -10 394 -10 C431 -10 465 10 480 40 L477 45 C476 43 461 41 439 41 C404 41 380 51 380 67 L380 350 C380 416 331 460 237 460 C137 460 62 405 62 332 C62 317 69 307 80 308 L129 308 L134 313 L134 337 L134 337 Z M310 226 L310 75 C284 54 244 43 199 43 C150 43 118 68 118 105 C118 152 183 197 310 226 L310 226 Z " />
<glyph glyph-name="acircumflex" unicode="&#xe2;" horiz-adv-x="487" d="M382 530 L250 705 L224 705 L97 530 L107 530 L237 631 L372 530 L382 530 L382 530 Z M134 337 C134 384 169 419 215 419 C278 419 310 384 310 331 L310 258 C138 220 50 156 50 88 C50 29 94 -10 161 -10 C219 -10 275 12 312 53 C320 14 351 -10 394 -10 C431 -10 465 10 480 40 L477 45 C476 43 461 41 439 41 C404 41 380 51 380 67 L380 350 C380 416 331 460 237 460 C137 460 62 405 62 332 C62 317 69 307 80 308 L129 308 L134 313 L134 337 L134 337 Z M310 226 L310 75 C284 54 244 43 199 43 C150 43 118 68 118 105 C118 152 183 197 310 226 L310 226 Z " />
<glyph glyph-name="atilde" unicode="&#xe3;" horiz-adv-x="487" d="M82 555 C95 595 108 621 144 621 C185 621 239 558 279 558 C330 558 351 606 374 677 L362 677 C349 636 336 609 300 609 C260 609 206 672 165 672 C114 672 93 625 70 555 L82 555 L82 555 Z M134 337 C134 384 169 419 215 419 C278 419 310 384 310 331 L310 258 C138 220 50 156 50 88 C50 29 94 -10 161 -10 C219 -10 275 12 312 53 C320 14 351 -10 394 -10 C431 -10 465 10 480 40 L477 45 C476 43 461 41 439 41 C404 41 380 51 380 67 L380 350 C380 416 331 460 237 460 C137 460 62 405 62 332 C62 317 69 307 80 308 L129 308 L134 313 L134 337 L134 337 Z M310 226 L310 75 C284 54 244 43 199 43 C150 43 118 68 118 105 C118 152 183 197 310 226 L310 226 Z " />
<glyph glyph-name="adieresis" unicode="&#xe4;" horiz-adv-x="487" d="M351 614 C351 672 263 672 263 615 C263 557 351 557 351 614 L351 614 Z M181 614 C181 672 93 672 93 615 C93 557 181 557 181 614 L181 614 Z M134 337 C134 384 169 419 215 419 C278 419 310 384 310 331 L310 258 C138 220 50 156 50 88 C50 29 94 -10 161 -10 C219 -10 275 12 312 53 C320 14 351 -10 394 -10 C431 -10 465 10 480 40 L477 45 C476 43 461 41 439 41 C404 41 380 51 380 67 L380 350 C380 416 331 460 237 460 C137 460 62 405 62 332 C62 317 69 307 80 308 L129 308 L134 313 L134 337 L134 337 Z M310 226 L310 75 C284 54 244 43 199 43 C150 43 118 68 118 105 C118 152 183 197 310 226 L310 226 Z " />
<glyph glyph-name="aring" unicode="&#xe5;" horiz-adv-x="487" d="M186 623 C186 655 202 677 225 677 C251 677 268 651 268 611 C268 581 251 556 231 556 C207 556 186 587 186 623 L186 623 Z M143 617 C143 573 182 535 227 535 C272 535 311 574 311 619 C311 666 277 698 227 698 C177 698 143 666 143 617 L143 617 Z M134 337 C134 384 169 419 215 419 C278 419 310 384 310 331 L310 258 C138 220 50 156 50 88 C50 29 94 -10 161 -10 C219 -10 275 12 312 53 C320 14 351 -10 394 -10 C431 -10 465 10 480 40 L477 45 C476 43 461 41 439 41 C404 41 380 51 380 67 L380 350 C380 416 331 460 237 460 C137 460 62 405 62 332 C62 317 69 307 80 308 L129 308 L134 313 L134 337 L134 337 Z M310 226 L310 75 C284 54 244 43 199 43 C150 43 118 68 118 105 C118 152 183 197 310 226 L310 226 Z " />
<glyph glyph-name="ccedilla" unicode="&#xe7;" horiz-adv-x="477" d="M429 103 C388 74 336 55 298 55 C191 55 119 131 119 246 C119 352 173 422 253 422 C290 422 330 402 351 373 L380 333 L386 333 L416 361 C426 370 432 378 432 381 C432 386 426 398 416 411 C395 440 341 460 281 460 C142 460 50 358 50 206 C50 79 130 -6 252 -10 C246 -23 225 -67 197 -129 L222 -141 C261 -151 287 -167 287 -182 C287 -202 272 -216 249 -216 C216 -216 187 -210 177 -202 L177 -211 C198 -228 232 -240 261 -240 C308 -240 339 -211 339 -168 C339 -136 302 -105 246 -88 C266 -45 279 -16 283 -8 C344 0 402 40 432 96 L432 104 L429 103 L429 103 Z " />
<glyph glyph-name="egrave" unicode="&#xe8;" horiz-adv-x="483" d="M257 530 L170 707 L100 707 C100 707 110 668 125 653 L247 530 L257 530 L257 530 Z M121 283 C132 368 179 422 246 422 C311 422 358 368 368 283 L121 283 Z M429 103 C388 74 336 55 298 55 C192 55 120 130 119 243 L402 243 L433 247 C433 375 364 460 261 460 C134 460 50 358 50 206 C50 76 134 -10 261 -10 C330 -10 399 32 433 95 L433 103 L429 103 L429 103 Z " />
<glyph glyph-name="eacute" unicode="&#xe9;" horiz-adv-x="483" d="M252 530 L262 530 L384 653 C399 668 409 707 409 707 L339 707 L252 530 L252 530 Z M121 283 C132 368 179 422 246 422 C311 422 358 368 368 283 L121 283 Z M429 103 C388 74 336 55 298 55 C192 55 120 130 119 243 L402 243 L433 247 C433 375 364 460 261 460 C134 460 50 358 50 206 C50 76 134 -10 261 -10 C330 -10 399 32 433 95 L433 103 L429 103 L429 103 Z " />
<glyph glyph-name="ecircumflex" unicode="&#xea;" horiz-adv-x="483" d="M397 530 L265 705 L238 705 L111 530 L122 530 L252 630 L386 530 L397 530 L397 530 Z M121 283 C132 368 179 422 246 422 C311 422 358 368 368 283 L121 283 Z M429 103 C388 74 336 55 298 55 C192 55 120 130 119 243 L402 243 L433 247 C433 375 364 460 261 460 C134 460 50 358 50 206 C50 76 134 -10 261 -10 C330 -10 399 32 433 95 L433 103 L429 103 L429 103 Z " />
<glyph glyph-name="edieresis" unicode="&#xeb;" horiz-adv-x="483" d="M337 570 C393 570 393 658 337 658 C279 658 279 570 336 570 L337 570 Z M166 570 C222 570 222 658 166 658 C108 658 108 570 165 570 L166 570 Z M119 283 C130 368 177 422 244 422 C309 422 356 368 366 283 L119 283 Z M427 103 C386 74 334 55 296 55 C190 55 118 130 117 243 L400 243 L431 247 C431 375 362 460 259 460 C132 460 48 358 48 206 C48 76 132 -10 259 -10 C328 -10 397 32 431 95 L431 103 L427 103 L427 103 Z " />
<glyph glyph-name="igrave" unicode="&#xec;" horiz-adv-x="307" d="M155 530 L68 707 L-2 707 C-2 707 8 668 23 653 L144 530 L155 530 L155 530 Z M254 0 L254 18 L189 50 L189 460 L175 460 L54 412 L54 406 L94 372 C109 359 119 350 119 350 L119 50 L54 18 L54 0 L254 0 L254 0 Z " />
<glyph glyph-name="iacute" unicode="&#xed;" horiz-adv-x="307" d="M149 530 L160 530 L281 653 C296 668 306 707 306 707 L236 707 L149 530 L149 530 Z M254 0 L254 18 L189 50 L189 460 L175 460 L54 412 L54 406 L94 372 C109 359 119 350 119 350 L119 50 L54 18 L54 0 L254 0 L254 0 Z " />
<glyph glyph-name="icircumflex" unicode="&#xee;" horiz-adv-x="307" d="M294 530 L162 705 L136 705 L9 530 L19 530 L149 631 L284 530 L294 530 L294 530 Z M254 0 L254 18 L189 50 L189 460 L175 460 L54 412 L54 406 L94 372 C109 359 119 350 119 350 L119 50 L54 18 L54 0 L254 0 L254 0 Z " />
<glyph glyph-name="idieresis" unicode="&#xef;" horiz-adv-x="307" d="M278 614 C278 672 190 672 190 615 C190 557 278 557 278 614 L278 614 Z M108 614 C108 672 20 672 20 615 C20 557 108 557 108 614 L108 614 Z M254 0 L254 18 L189 50 L189 460 L175 460 L54 412 L54 406 L94 372 C109 359 119 350 119 350 L119 50 L54 18 L54 0 L254 0 L254 0 Z " />
<glyph glyph-name="ntilde" unicode="&#xf1;" horiz-adv-x="588" d="M159 555 C172 595 185 621 221 621 C262 621 316 558 356 558 C407 558 428 606 451 677 L439 677 C426 636 413 609 377 609 C337 609 283 672 242 672 C191 672 170 625 147 555 L159 555 L159 555 Z M548 0 L548 18 L483 50 L483 343 C483 413 427 460 343 460 C283 460 232 428 185 380 L185 383 L183 383 C182 415 181 460 181 460 L167 460 L50 412 L50 406 L90 372 C105 359 115 350 115 350 L115 50 L50 18 L50 0 L255 0 L255 18 L185 50 L185 353 C213 380 250 398 303 398 C368 398 412 360 412 303 L412 50 L342 18 L342 0 L548 0 L548 0 Z " />
<glyph glyph-name="ograve" unicode="&#xf2;" horiz-adv-x="535" d="M273 530 L186 707 L116 707 C116 707 126 668 141 653 L263 530 L273 530 L273 530 Z M131 225 C131 344 174 423 256 423 C345 423 405 344 405 225 C405 106 362 27 279 27 C190 27 131 106 131 225 L131 225 Z M50 225 C50 84 137 -10 268 -10 C411 -10 485 84 485 225 C485 366 398 460 268 460 C124 460 50 366 50 225 L50 225 Z " />
<glyph glyph-name="oacute" unicode="&#xf3;" horiz-adv-x="535" d="M268 530 L278 530 L400 653 C415 668 425 707 425 707 L355 707 L268 530 L268 530 Z M131 225 C131 344 174 423 256 423 C345 423 405 344 405 225 C405 106 362 27 279 27 C190 27 131 106 131 225 L131 225 Z M50 225 C50 84 137 -10 268 -10 C411 -10 485 84 485 225 C485 366 398 460 268 460 C124 460 50 366 50 225 L50 225 Z " />
<glyph glyph-name="ocircumflex" unicode="&#xf4;" horiz-adv-x="535" d="M413 530 L281 705 L254 705 L127 530 L138 530 L268 630 L402 530 L413 530 L413 530 Z M131 225 C131 344 174 423 256 423 C345 423 405 344 405 225 C405 106 362 27 279 27 C190 27 131 106 131 225 L131 225 Z M50 225 C50 84 137 -10 268 -10 C411 -10 485 84 485 225 C485 366 398 460 268 460 C124 460 50 366 50 225 L50 225 Z " />
<glyph glyph-name="otilde" unicode="&#xf5;" horiz-adv-x="535" d="M127 555 C140 595 153 621 190 621 C230 621 284 558 324 558 C375 558 396 606 419 677 L408 677 C395 636 382 609 345 609 C305 609 251 672 211 672 C160 672 139 625 116 555 L127 555 L127 555 Z M131 225 C131 344 174 423 256 423 C345 423 405 344 405 225 C405 106 362 27 279 27 C190 27 131 106 131 225 L131 225 Z M50 225 C50 84 137 -10 268 -10 C411 -10 485 84 485 225 C485 366 398 460 268 460 C124 460 50 366 50 225 L50 225 Z " />
<glyph glyph-name="odieresis" unicode="&#xf6;" horiz-adv-x="535" d="M353 570 C409 570 409 658 353 658 C295 658 295 570 352 570 L353 570 Z M182 570 C238 570 238 658 182 658 C124 658 124 570 181 570 L182 570 Z M129 225 C129 344 172 423 254 423 C343 423 403 344 403 225 C403 106 360 27 277 27 C188 27 129 106 129 225 L129 225 Z M48 225 C48 84 135 -10 266 -10 C409 -10 483 84 483 225 C483 366 396 460 266 460 C122 460 48 366 48 225 L48 225 Z " />
<glyph glyph-name="oslash" unicode="&#xf8;" horiz-adv-x="535" d="M50 225 C50 157 70 100 105 59 L49 -10 L107 -10 L138 29 C173 4 217 -10 267 -10 C410 -10 484 84 484 225 C484 293 464 350 429 391 L485 460 L427 460 L396 421 C361 446 318 460 268 460 C124 460 50 366 50 225 L50 225 Z M359 375 L152 116 C139 146 132 183 132 225 C132 344 175 423 257 423 C299 423 334 406 360 375 L359 375 L359 375 Z M385 334 C399 304 406 267 406 225 C406 106 363 27 280 27 C238 27 203 44 177 75 L385 334 Z " />
<glyph glyph-name="ugrave" unicode="&#xf9;" horiz-adv-x="550" d="M276 530 L189 707 L119 707 C119 707 129 668 144 653 L265 530 L276 530 L276 530 Z M389 400 L389 99 C356 69 311 53 268 53 C204 53 161 91 161 148 L161 449 L26 449 L26 431 L91 399 L91 106 C91 36 146 -11 228 -11 C274 -11 333 17 389 71 L389 0 L529 0 L529 18 L459 50 L459 450 L319 450 L319 432 L389 400 L389 400 Z " />
<glyph glyph-name="uacute" unicode="&#xfa;" horiz-adv-x="550" d="M270 530 L281 530 L402 653 C417 668 427 707 427 707 L357 707 L270 530 L270 530 Z M389 400 L389 99 C356 69 311 53 268 53 C204 53 161 91 161 148 L161 449 L26 449 L26 431 L91 399 L91 106 C91 36 146 -11 228 -11 C274 -11 333 17 389 71 L389 0 L529 0 L529 18 L459 50 L459 450 L319 450 L319 432 L389 400 L389 400 Z " />
<glyph glyph-name="ucircumflex" unicode="&#xfb;" horiz-adv-x="550" d="M415 530 L283 705 L257 705 L130 530 L140 530 L270 631 L405 530 L415 530 L415 530 Z M389 400 L389 99 C356 69 311 53 268 53 C204 53 161 91 161 148 L161 449 L26 449 L26 431 L91 399 L91 106 C91 36 146 -11 228 -11 C274 -11 333 17 389 71 L389 0 L529 0 L529 18 L459 50 L459 450 L319 450 L319 432 L389 400 L389 400 Z " />
<glyph glyph-name="udieresis" unicode="&#xfc;" horiz-adv-x="550" d="M399 614 C399 672 311 672 311 615 C311 557 399 557 399 614 L399 614 Z M229 614 C229 672 141 672 141 615 C141 557 229 557 229 614 L229 614 Z M389 400 L389 99 C356 69 311 53 268 53 C204 53 161 91 161 148 L161 449 L26 449 L26 431 L91 399 L91 106 C91 36 146 -11 228 -11 C274 -11 333 17 389 71 L389 0 L529 0 L529 18 L459 50 L459 450 L319 450 L319 432 L389 400 L389 400 Z " />
<glyph glyph-name="yacute" unicode="&#xfd;" horiz-adv-x="477" d="M260 530 L270 530 L392 653 C407 668 417 707 417 707 L347 707 L260 530 L260 530 Z M209 450 L-25 450 L-25 432 L46 400 L232 9 L200 -70 C173 -140 143 -167 95 -167 L56 -167 L52 -171 L52 -214 C52 -233 60 -240 82 -240 C146 -240 189 -196 233 -82 C298 77 362 237 428 395 L502 431 L502 450 L312 450 L312 431 L390 395 L268 96 C220 197 171 298 123 399 L209 431 L209 450 L209 450 Z " />
<glyph glyph-name="ydieresis" unicode="&#xff;" horiz-adv-x="477" d="M345 570 C401 570 401 658 345 658 C287 658 287 570 344 570 L345 570 Z M174 570 C230 570 230 658 174 658 C116 658 116 570 173 570 L174 570 Z M207 450 L-27 450 L-27 432 L44 400 L230 9 L198 -70 C171 -140 141 -167 93 -167 L54 -167 L50 -171 L50 -214 C50 -233 58 -240 80 -240 C144 -240 187 -196 231 -82 C296 77 360 237 426 395 L500 431 L500 450 L310 450 L310 431 L388 395 L266 96 C218 197 169 298 121 399 L207 431 L207 450 L207 450 Z " />
<glyph glyph-name="Amacron" unicode="&#x100;" horiz-adv-x="745" d="M235 766 L501 766 L501 809 L235 809 L235 766 L235 766 Z M474 0 L710 0 L710 16 L646 45 C560 252 475 460 387 666 L349 666 L96 51 L17 19 L17 1 L235 1 L235 19 L155 51 L226 228 L488 228 L488 231 L562 51 L474 19 L474 0 L474 0 Z M469 277 L245 277 L356 554 L469 277 L469 277 Z " />
<glyph glyph-name="amacron" unicode="&#x101;" horiz-adv-x="487" d="M94 596 L360 596 L360 639 L94 639 L94 596 L94 596 Z M134 337 C134 384 169 419 215 419 C278 419 310 384 310 331 L310 258 C138 220 50 156 50 88 C50 29 94 -10 161 -10 C219 -10 275 12 312 53 C320 14 351 -10 394 -10 C431 -10 465 10 480 40 L477 45 C476 43 461 41 439 41 C404 41 380 51 380 67 L380 350 C380 416 331 460 237 460 C137 460 62 405 62 332 C62 317 69 307 80 308 L129 308 L134 313 L134 337 L134 337 Z M310 226 L310 75 C284 54 244 43 199 43 C150 43 118 68 118 105 C118 152 183 197 310 226 L310 226 Z " />
<glyph glyph-name="Abreve" unicode="&#x102;" horiz-adv-x="745" d="M233 857 L221 857 C258 755 299 714 368 714 C436 714 477 755 514 857 L502 857 C479 792 441 767 368 767 C294 767 256 792 233 857 L233 857 Z M474 0 L710 0 L710 16 L646 45 C560 252 475 460 387 666 L349 666 L96 51 L17 19 L17 1 L235 1 L235 19 L155 51 L226 228 L488 228 L488 231 L562 51 L474 19 L474 0 L474 0 Z M469 277 L245 277 L356 554 L469 277 L469 277 Z " />
<glyph glyph-name="abreve" unicode="&#x103;" horiz-adv-x="487" d="M93 699 L80 699 C117 585 158 540 227 540 C296 540 337 585 374 699 L362 699 C339 627 301 599 227 599 C154 599 116 627 93 699 L93 699 Z M134 337 C134 384 169 419 215 419 C278 419 310 384 310 331 L310 258 C138 220 50 156 50 88 C50 29 94 -10 161 -10 C219 -10 275 12 312 53 C320 14 351 -10 394 -10 C431 -10 465 10 480 40 L477 45 C476 43 461 41 439 41 C404 41 380 51 380 67 L380 350 C380 416 331 460 237 460 C137 460 62 405 62 332 C62 317 69 307 80 308 L129 308 L134 313 L134 337 L134 337 Z M310 226 L310 75 C284 54 244 43 199 43 C150 43 118 68 118 105 C118 152 183 197 310 226 L310 226 Z " />
<glyph glyph-name="Cacute" unicode="&#x106;" horiz-adv-x="716" d="M369 705 L379 705 L501 816 C516 829 526 864 526 864 L456 864 L369 705 L369 705 Z M626 40 L635 190 C629 190 624 191 619 191 C602 157 579 113 562 79 C560 75 557 71 553 69 C508 47 451 34 401 34 C251 34 151 156 151 338 C151 511 256 626 413 626 C456 626 502 615 538 597 C542 595 546 591 548 587 C566 548 589 497 607 458 C612 458 617 459 623 459 L617 624 C583 652 502 671 413 671 C207 671 70 527 70 312 C70 119 202 -9 401 -9 C493 -9 583 11 626 41 L626 40 L626 40 Z " />
<glyph glyph-name="cacute" unicode="&#x107;" horiz-adv-x="477" d="M258 530 L269 530 L390 653 C405 668 415 707 415 707 L345 707 L258 530 L258 530 Z M429 103 C388 74 336 55 298 55 C191 55 119 131 119 246 C119 352 173 422 253 422 C290 422 330 402 351 373 L380 333 L386 333 L416 361 C426 370 432 378 432 381 C432 386 426 398 416 411 C395 440 341 460 281 460 C142 460 50 358 50 206 C50 76 134 -10 261 -10 C330 -10 399 32 433 95 L433 103 L429 103 L429 103 Z " />
<glyph glyph-name="Ccaron" unicode="&#x10c;" horiz-adv-x="716" d="M401 710 L533 867 L523 867 L389 777 L259 867 L248 867 L375 710 L401 710 L401 710 Z M626 40 L635 190 C629 190 624 191 619 191 C602 157 579 113 562 79 C560 75 557 71 553 69 C508 47 451 34 401 34 C251 34 151 156 151 338 C151 511 256 626 413 626 C456 626 502 615 538 597 C542 595 546 591 548 587 C566 548 589 497 607 458 C612 458 617 459 623 459 L617 624 C583 652 502 671 413 671 C207 671 70 527 70 312 C70 119 202 -9 401 -9 C493 -9 583 11 626 41 L626 40 L626 40 Z " />
<glyph glyph-name="ccaron" unicode="&#x10d;" horiz-adv-x="477" d="M271 535 L403 710 L393 710 L258 609 L128 710 L118 710 L245 535 L271 535 L271 535 Z M429 103 C388 74 336 55 298 55 C191 55 119 131 119 246 C119 352 173 422 253 422 C290 422 330 402 351 373 L380 333 L386 333 L416 361 C426 370 432 378 432 381 C432 386 426 398 416 411 C395 440 341 460 281 460 C142 460 50 358 50 206 C50 76 134 -10 261 -10 C330 -10 399 32 433 95 L433 103 L429 103 L429 103 Z " />
<glyph glyph-name="Dcaron" unicode="&#x10e;" horiz-adv-x="773" d="M447 710 L579 867 L569 867 L435 777 L304 867 L294 867 L421 710 L447 710 L447 710 Z M348 0 C561 0 703 130 703 358 C703 557 556 660 335 660 L65 660 L65 641 L145 605 L145 55 L65 19 L65 0 L348 0 L348 0 Z M223 48 L223 612 L313 612 C497 612 620 516 620 329 C620 150 510 48 346 48 L223 48 L223 48 Z " />
<glyph glyph-name="dcaron" unicode="&#x10f;" horiz-adv-x="572" d="M617 750 L552 750 L528 563 L539 563 L627 751 C624 745 624 750 617 750 L617 750 Z M627 751 L631 760 C629 756 628 753 627 751 L627 751 Z M524 0 L524 18 L454 50 L454 755 L440 755 L319 719 L319 714 L365 676 C376 667 384 661 384 661 L384 448 C353 456 318 461 287 461 C144 461 48 355 48 195 C48 73 119 -9 226 -9 C289 -9 351 16 385 55 L393 0 L524 0 L524 0 Z M384 370 L384 86 C361 64 319 50 275 50 C180 50 117 117 117 218 C117 339 181 419 276 419 C276 419 318 400 384 371 L384 370 L384 370 Z " />
<glyph glyph-name="Emacron" unicode="&#x112;" horiz-adv-x="650" d="M202 766 L468 766 L468 809 L202 809 L202 766 L202 766 Z M580 173 L563 173 L505 48 L223 48 L223 316 L405 316 L447 236 L470 236 L470 444 L447 444 L405 364 L223 364 L223 612 L480 612 L538 497 L555 497 L555 660 L65 660 L65 641 L145 605 L145 55 L65 19 L65 0 L580 0 L580 173 L580 173 Z " />
<glyph glyph-name="emacron" unicode="&#x113;" horiz-adv-x="483" d="M124 596 L390 596 L390 639 L124 639 L124 596 L124 596 Z M121 283 C132 368 179 422 246 422 C311 422 358 368 368 283 L121 283 Z M429 103 C388 74 336 55 298 55 C192 55 120 130 119 243 L402 243 L433 247 C433 375 364 460 261 460 C134 460 50 358 50 206 C50 76 134 -10 261 -10 C330 -10 399 32 433 95 L433 103 L429 103 L429 103 Z " />
<glyph glyph-name="Edot" unicode="&#x116;" horiz-adv-x="650" d="M340 725 C372 725 393 746 393 778 C393 809 372 830 340 830 C309 830 288 809 288 778 C288 746 309 725 340 725 L340 725 Z M580 173 L563 173 L505 48 L223 48 L223 316 L405 316 L447 236 L470 236 L470 444 L447 444 L405 364 L223 364 L223 612 L480 612 L538 497 L555 497 L555 660 L65 660 L65 641 L145 605 L145 55 L65 19 L65 0 L580 0 L580 173 L580 173 Z " />
<glyph glyph-name="edot" unicode="&#x117;" horiz-adv-x="483" d="M262 583 C293 583 314 604 314 636 C314 667 293 688 262 688 C230 688 209 667 209 636 C209 604 230 583 262 583 L262 583 Z M121 283 C132 368 179 422 246 422 C311 422 358 368 368 283 L121 283 Z M429 103 C388 74 336 55 298 55 C192 55 120 130 119 243 L402 243 L433 247 C433 375 364 460 261 460 C134 460 50 358 50 206 C50 76 134 -10 261 -10 C330 -10 399 32 433 95 L433 103 L429 103 L429 103 Z " />
<glyph glyph-name="Ecaron" unicode="&#x11a;" horiz-adv-x="650" d="M348 710 L480 867 L470 867 L336 777 L205 867 L195 867 L322 710 L348 710 L348 710 Z M580 173 L563 173 L505 48 L223 48 L223 316 L405 316 L447 236 L470 236 L470 444 L447 444 L405 364 L223 364 L223 612 L480 612 L538 497 L555 497 L555 660 L65 660 L65 641 L145 605 L145 55 L65 19 L65 0 L580 0 L580 173 L580 173 Z " />
<glyph glyph-name="ecaron" unicode="&#x11b;" horiz-adv-x="483" d="M265 535 L397 710 L386 710 L252 610 L122 710 L111 710 L238 535 L265 535 L265 535 Z M121 283 C132 368 179 422 246 422 C311 422 358 368 368 283 L121 283 Z M429 103 C388 74 336 55 298 55 C192 55 120 130 119 243 L402 243 L433 247 C433 375 364 460 261 460 C134 460 50 358 50 206 C50 76 134 -10 261 -10 C330 -10 399 32 433 95 L433 103 L429 103 L429 103 Z " />
<glyph glyph-name="Gbreve" unicode="&#x11e;" horiz-adv-x="772" d="M264 857 L252 857 C289 755 330 714 398 714 C467 714 508 755 545 857 L532 857 C509 792 471 767 398 767 C325 767 287 792 264 857 L264 857 Z M652 235 L727 271 L727 290 L488 290 L488 271 L573 235 L573 65 C541 50 487 41 425 41 C261 41 151 159 151 337 C151 510 260 625 423 625 C470 625 519 614 557 596 L557 596 C562 594 566 589 568 585 C586 546 609 495 627 456 C632 456 637 457 643 457 L637 622 C603 650 518 669 423 669 C211 669 70 525 70 310 C70 117 202 -11 401 -11 C509 -11 610 23 652 73 L652 235 L652 235 Z " />
<glyph glyph-name="gbreve" unicode="&#x11f;" horiz-adv-x="544" d="M128 699 L115 699 C152 585 193 540 262 540 C331 540 372 585 409 699 L397 699 C374 627 336 599 262 599 C189 599 151 627 128 699 L128 699 Z M347 442 C321 454 291 460 257 460 C140 460 80 396 80 300 C80 237 109 188 158 161 C106 142 73 109 73 75 C73 36 103 7 151 -2 C97 -20 63 -82 63 -124 C63 -194 133 -241 237 -241 C379 -241 473 -173 473 -71 C473 4 433 54 330 54 L208 54 C164 54 134 74 134 103 C134 124 153 143 181 151 C203 143 228 139 256 139 C373 139 434 204 434 302 C434 345 420 381 395 408 L495 403 L495 450 L347 442 L347 442 Z M152 303 C152 377 186 426 252 426 C319 426 363 375 363 299 C363 223 331 173 268 173 C198 173 152 225 152 303 L152 303 Z M187 -5 L296 -5 C378 -5 410 -39 410 -89 C410 -165 345 -215 247 -215 C175 -215 127 -174 127 -113 C127 -61 151 -5 187 -5 L187 -5 Z " />
<glyph glyph-name="Itilde" unicode="&#x128;" horiz-adv-x="379" d="M49 705 C62 745 75 771 111 771 C152 771 206 708 246 708 C297 708 318 756 341 827 L329 827 C316 786 303 759 267 759 C227 759 173 822 132 822 C81 822 60 775 37 705 L49 705 L49 705 Z M309 0 L309 19 L229 55 L229 605 L309 641 L309 660 L70 660 L70 641 L150 605 L150 55 L70 19 L70 0 L309 0 L309 0 Z " />
<glyph glyph-name="itilde" unicode="&#x129;" horiz-adv-x="307" d="M14 530 C27 570 40 596 76 596 C117 596 171 533 211 533 C262 533 283 581 306 652 L294 652 C281 611 268 584 232 584 C192 584 138 647 97 647 C46 647 25 600 2 530 L14 530 L14 530 Z M254 0 L254 18 L189 50 L189 460 L175 460 L54 412 L54 406 L94 372 C109 359 119 350 119 350 L119 50 L54 18 L54 0 L254 0 L254 0 Z " />
<glyph glyph-name="Imacron" unicode="&#x12a;" horiz-adv-x="379" d="M56 766 L322 766 L322 809 L56 809 L56 766 L56 766 Z M309 0 L309 19 L229 55 L229 605 L309 641 L309 660 L70 660 L70 641 L150 605 L150 55 L70 19 L70 0 L309 0 L309 0 Z " />
<glyph glyph-name="imacron" unicode="&#x12b;" horiz-adv-x="307" d="M16 596 L282 596 L282 639 L16 639 L16 596 L16 596 Z M254 0 L254 18 L189 50 L189 460 L175 460 L54 412 L54 406 L94 372 C109 359 119 350 119 350 L119 50 L54 18 L54 0 L254 0 L254 0 Z " />
<glyph glyph-name="Idot" unicode="&#x130;" horiz-adv-x="379" d="M189 725 C221 725 242 746 242 778 C242 809 221 830 189 830 C158 830 137 809 137 778 C137 746 158 725 189 725 L189 725 Z M309 0 L309 19 L229 55 L229 605 L309 641 L309 660 L70 660 L70 641 L150 605 L150 55 L70 19 L70 0 L309 0 L309 0 Z " />
<glyph glyph-name="dotlessi" unicode="&#x131;" horiz-adv-x="307" d="M254 0 L254 18 L189 50 L189 460 L175 460 L54 412 L54 406 L94 372 C109 359 119 350 119 350 L119 50 L54 18 L54 0 L254 0 L254 0 Z " />
<glyph glyph-name="Lacute" unicode="&#x139;" horiz-adv-x="630" d="M169 705 L180 705 L301 816 C316 829 326 864 326 864 L256 864 L169 705 L169 705 Z M560 213 L542 213 L480 48 L223 48 L223 605 L308 641 L308 660 L65 660 L65 641 L145 605 L145 55 L65 19 L65 0 L560 0 L560 213 L560 213 Z " />
<glyph glyph-name="lacute" unicode="&#x13a;" horiz-adv-x="288" d="M128 765 L140 765 L267 876 C283 889 293 924 293 924 L220 924 L128 765 L128 765 Z M244 0 L244 18 L179 50 L179 760 L165 760 L44 712 L44 706 L84 672 C99 659 109 650 109 650 L109 50 L44 18 L44 0 L244 0 L244 0 Z " />
<glyph glyph-name="Lcaron" unicode="&#x13d;" horiz-adv-x="630" d="M518 660 L453 660 L429 473 L440 473 L528 661 C525 655 525 660 518 660 L518 660 Z M528 661 L532 670 C530 666 529 663 528 661 L528 661 Z M560 213 L542 213 L480 48 L223 48 L223 605 L308 641 L308 660 L65 660 L65 641 L145 605 L145 55 L65 19 L65 0 L560 0 L560 213 L560 213 Z " />
<glyph glyph-name="lcaron" unicode="&#x13e;" horiz-adv-x="288" d="M342 750 L277 750 L253 563 L264 563 L352 751 C349 745 349 750 342 750 L342 750 Z M352 751 L356 760 C354 756 353 753 352 751 L352 751 Z M244 0 L244 18 L179 50 L179 760 L165 760 L44 712 L44 706 L84 672 C99 659 109 650 109 650 L109 50 L44 18 L44 0 L244 0 L244 0 Z " />
<glyph glyph-name="Nacute" unicode="&#x143;" horiz-adv-x="803" d="M413 705 L424 705 L545 816 C560 829 570 864 570 864 L500 864 L413 705 L413 705 Z M68 641 L143 605 L143 55 L63 19 L63 0 L304 0 L304 19 L204 55 L204 532 C347 353 489 173 633 -5 L663 -5 L663 605 L738 641 L738 660 L502 660 L502 641 L602 605 L602 160 L204 660 L68 660 L68 641 L68 641 Z " />
<glyph glyph-name="nacute" unicode="&#x144;" horiz-adv-x="588" d="M299 530 L310 530 L431 653 C446 668 456 707 456 707 L386 707 L299 530 L299 530 Z M548 0 L548 18 L483 50 L483 343 C483 413 427 460 343 460 C283 460 232 428 185 380 L185 383 L183 383 C182 415 181 460 181 460 L167 460 L50 412 L50 406 L90 372 C105 359 115 350 115 350 L115 50 L50 18 L50 0 L255 0 L255 18 L185 50 L185 353 C213 380 250 398 303 398 C368 398 412 360 412 303 L412 50 L342 18 L342 0 L548 0 L548 0 Z " />
<glyph glyph-name="Ncaron" unicode="&#x147;" horiz-adv-x="803" d="M426 710 L558 867 L548 867 L414 777 L283 867 L273 867 L400 710 L426 710 L426 710 Z M68 641 L143 605 L143 55 L63 19 L63 0 L304 0 L304 19 L204 55 L204 532 C347 353 489 173 633 -5 L663 -5 L663 605 L738 641 L738 660 L502 660 L502 641 L602 605 L602 160 L204 660 L68 660 L68 641 L68 641 Z " />
<glyph glyph-name="ncaron" unicode="&#x148;" horiz-adv-x="588" d="M312 535 L444 710 L434 710 L299 609 L169 710 L159 710 L286 535 L312 535 L312 535 Z M548 0 L548 18 L483 50 L483 343 C483 413 427 460 343 460 C283 460 232 428 185 380 L185 383 L183 383 C182 415 181 460 181 460 L167 460 L50 412 L50 406 L90 372 C105 359 115 350 115 350 L115 50 L50 18 L50 0 L255 0 L255 18 L185 50 L185 353 C213 380 250 398 303 398 C368 398 412 360 412 303 L412 50 L342 18 L342 0 L548 0 L548 0 Z " />
<glyph glyph-name="Omacron" unicode="&#x14c;" horiz-adv-x="804" d="M254 766 L520 766 L520 809 L254 809 L254 766 L254 766 Z M154 360 C154 520 247 627 386 627 C544 627 650 495 650 297 C650 139 558 34 420 34 C260 34 154 164 154 360 L154 360 Z M70 329 C70 126 203 -10 402 -10 C601 -10 734 125 734 328 C734 533 601 670 402 670 C203 670 70 534 70 329 L70 329 Z " />
<glyph glyph-name="omacron" unicode="&#x14d;" horiz-adv-x="535" d="M135 596 L401 596 L401 639 L135 639 L135 596 L135 596 Z M131 225 C131 344 174 423 256 423 C345 423 405 344 405 225 C405 106 362 27 279 27 C190 27 131 106 131 225 L131 225 Z M50 225 C50 84 137 -10 268 -10 C411 -10 485 84 485 225 C485 366 398 460 268 460 C124 460 50 366 50 225 L50 225 Z " />
<glyph glyph-name="Racute" unicode="&#x154;" horiz-adv-x="675" d="M309 705 L319 705 L441 816 C456 829 466 864 466 864 L396 864 L309 705 L309 705 Z M662 0 L662 18 L589 50 L402 306 C493 332 549 395 549 480 C549 588 461 660 329 660 L66 660 L66 641 L146 605 L146 55 L66 19 L66 0 L299 0 L299 19 L224 55 L224 293 L304 293 C307 293 310 293 313 293 L527 0 L662 0 L662 0 Z M223 341 L223 612 L308 612 C400 612 462 556 462 473 C462 394 405 341 320 341 L223 341 L223 341 Z " />
<glyph glyph-name="racute" unicode="&#x155;" horiz-adv-x="366" d="M236 530 L246 530 L368 653 C383 668 393 707 393 707 L323 707 L236 530 L236 530 Z M283 460 C257 460 223 423 185 367 L185 377 L184 377 C183 410 182 461 182 461 L168 461 L51 413 L51 407 L91 373 C106 360 116 351 116 351 L116 51 L51 19 L51 1 L256 1 L256 19 L186 51 L186 337 C209 370 228 391 242 391 C261 391 285 386 302 379 C313 374 340 363 340 363 L347 363 C360 389 368 412 368 421 C368 444 315 460 285 460 L283 460 L283 460 Z " />
<glyph glyph-name="Rcaron" unicode="&#x158;" horiz-adv-x="675" d="M332 710 L464 867 L453 867 L319 777 L189 867 L178 867 L305 710 L332 710 L332 710 Z M662 0 L662 18 L589 50 L402 306 C493 332 549 395 549 480 C549 588 461 660 329 660 L66 660 L66 641 L146 605 L146 55 L66 19 L66 0 L299 0 L299 19 L224 55 L224 293 L304 293 C307 293 310 293 313 293 L527 0 L662 0 L662 0 Z M223 341 L223 612 L308 612 C400 612 462 556 462 473 C462 394 405 341 320 341 L223 341 L223 341 Z " />
<glyph glyph-name="rcaron" unicode="&#x159;" horiz-adv-x="366" d="M249 535 L381 710 L370 710 L236 610 L106 710 L95 710 L222 535 L249 535 L249 535 Z M283 460 C257 460 223 423 185 367 L185 377 L184 377 C183 410 182 461 182 461 L168 461 L51 413 L51 407 L91 373 C106 360 116 351 116 351 L116 51 L51 19 L51 1 L256 1 L256 19 L186 51 L186 337 C209 370 228 391 242 391 C261 391 285 386 302 379 C313 374 340 363 340 363 L347 363 C360 389 368 412 368 421 C368 444 315 460 285 460 L283 460 L283 460 Z " />
<glyph glyph-name="Sacute" unicode="&#x15a;" horiz-adv-x="522" d="M233 705 L243 705 L365 816 C380 829 390 864 390 864 L320 864 L233 705 L233 705 Z M356 601 C366 596 375 585 380 575 C391 549 407 516 418 490 C421 490 425 491 428 491 L439 491 L431 626 C397 652 335 670 275 670 C161 670 85 598 85 490 C85 408 138 355 240 314 C340 274 391 229 391 164 C391 84 343 31 271 31 C238 31 187 48 137 74 L137 74 C132 77 127 82 125 87 C113 118 96 160 84 191 C77 191 70 190 63 190 L70 37 C72 39 89 64 90 64 L71 37 C117 9 197 -10 272 -10 C390 -10 468 68 468 185 C468 274 411 332 300 376 C210 412 164 455 164 519 C164 584 206 628 269 628 C294 628 326 618 357 601 L356 601 L356 601 Z " />
<glyph glyph-name="sacute" unicode="&#x15b;" horiz-adv-x="423" d="M204 530 L215 530 L336 653 C351 668 361 707 361 707 L291 707 L204 530 L204 530 Z M337 326 L337 424 L336 403 L337 424 C300 446 247 460 205 460 C127 460 75 409 75 333 C75 267 112 228 183 203 C254 178 291 146 291 98 C291 52 255 21 202 21 C154 21 118 46 98 83 C91 97 80 115 73 129 L59 129 L59 21 C99 2 158 -10 206 -10 C294 -10 352 42 352 120 C352 191 312 232 234 260 C169 283 136 313 136 359 C136 406 177 434 229 423 C262 414 294 384 310 345 C313 339 316 331 319 325 L337 326 L337 326 Z " />
<glyph glyph-name="Scedilla" unicode="&#x15e;" horiz-adv-x="522" d="M256 -88 C275 -46 288 -18 292 -9 C398 0 467 75 467 185 C467 274 410 332 299 376 C209 412 163 455 163 519 C163 584 205 628 268 628 C293 628 325 618 356 601 L356 601 C366 596 375 585 380 575 C391 549 407 516 418 490 C421 490 425 491 428 491 L439 491 L431 626 C397 652 335 670 275 670 C161 670 85 598 85 490 C85 408 138 355 240 314 C340 274 391 229 391 164 C391 84 343 31 271 31 C238 31 187 48 137 74 L137 74 C132 77 127 82 125 87 C113 118 96 160 84 191 C77 191 70 190 63 190 L70 37 C72 39 89 64 90 64 L71 37 C115 10 190 -9 262 -11 C256 -24 235 -68 207 -130 L232 -142 C271 -152 297 -168 297 -183 C297 -203 282 -217 259 -217 C226 -217 197 -211 187 -203 L187 -212 C208 -229 242 -241 271 -241 C318 -241 349 -212 349 -169 C349 -137 312 -106 256 -89 L256 -88 L256 -88 Z " />
<glyph glyph-name="scedilla" unicode="&#x15f;" horiz-adv-x="423" d="M337 326 L337 424 L336 403 L337 424 C300 446 247 460 205 460 C127 460 75 409 75 333 C75 267 112 228 183 203 C254 178 291 146 291 98 C291 52 255 21 202 21 C154 21 118 46 98 83 C91 97 80 115 73 129 L59 129 L59 21 C96 3 150 -9 196 -10 C190 -23 169 -67 141 -129 L166 -141 C205 -151 231 -167 231 -182 C231 -202 216 -216 193 -216 C160 -216 131 -210 121 -202 L121 -211 C142 -228 176 -240 205 -240 C252 -240 283 -211 283 -168 C283 -136 246 -105 190 -88 C210 -46 223 -18 227 -9 C303 -1 352 49 352 120 C352 191 312 232 234 260 C169 283 136 313 136 359 C136 406 177 434 229 423 C262 414 294 384 310 345 C313 339 316 331 319 325 L337 326 L337 326 Z " />
<glyph glyph-name="Scaron" unicode="&#x160;" horiz-adv-x="522" d="M261 710 L393 867 L382 867 L248 777 L118 867 L107 867 L234 710 L261 710 L261 710 Z M356 601 C366 596 375 585 380 575 C391 549 407 516 418 490 C421 490 425 491 428 491 L439 491 L431 626 C397 652 335 670 275 670 C161 670 85 598 85 490 C85 408 138 355 240 314 C340 274 391 229 391 164 C391 84 343 31 271 31 C238 31 187 48 137 74 L137 74 C132 77 127 82 125 87 C113 118 96 160 84 191 C77 191 70 190 63 190 L70 37 C72 39 89 64 90 64 L71 37 C117 9 197 -10 272 -10 C390 -10 468 68 468 185 C468 274 411 332 300 376 C210 412 164 455 164 519 C164 584 206 628 269 628 C294 628 326 618 357 601 L356 601 L356 601 Z " />
<glyph glyph-name="scaron" unicode="&#x161;" horiz-adv-x="423" d="M217 535 L349 710 L339 710 L204 609 L74 710 L64 710 L191 535 L217 535 L217 535 Z M337 326 L337 424 L336 403 L337 424 C300 446 247 460 205 460 C127 460 75 409 75 333 C75 267 112 228 183 203 C254 178 291 146 291 98 C291 52 255 21 202 21 C154 21 118 46 98 83 C91 97 80 115 73 129 L59 129 L59 21 C99 2 158 -10 206 -10 C294 -10 352 42 352 120 C352 191 312 232 234 260 C169 283 136 313 136 359 C136 406 177 434 229 423 C262 414 294 384 310 345 C313 339 316 331 319 325 L337 326 L337 326 Z " />
<glyph glyph-name="Tcaron" unicode="&#x164;" horiz-adv-x="675" d="M351 710 L483 867 L472 867 L338 777 L208 867 L197 867 L324 710 L351 710 L351 710 Z M477 0 L477 19 L377 55 L377 612 L550 612 L612 467 L630 467 L630 660 L45 660 L45 467 L63 467 L125 612 L298 612 L298 55 L198 19 L198 0 L477 0 L477 0 Z " />
<glyph glyph-name="tcaron" unicode="&#x165;" horiz-adv-x="343" d="M332 750 L267 750 L243 563 L254 563 L342 751 C339 745 339 750 332 750 L332 750 Z M313 53 L311 61 C307 53 281 48 245 48 C199 48 169 71 169 105 L169 409 L301 409 L301 450 L169 450 L169 556 L164 556 L99 450 L18 414 L18 409 L99 409 L99 90 C99 30 140 -10 202 -10 C250 -10 295 15 313 53 L313 53 Z M342 751 L346 760 C344 756 343 753 342 751 L342 751 Z " />
<glyph glyph-name="Utilde" unicode="&#x168;" horiz-adv-x="810" d="M266 705 C279 745 292 771 328 771 C369 771 423 708 463 708 C514 708 535 756 558 827 L546 827 C533 786 520 759 484 759 C444 759 390 822 349 822 C298 822 277 775 254 705 L266 705 L266 705 Z M147 605 L147 234 C147 88 251 -10 406 -10 C561 -10 665 88 665 234 L665 605 L745 641 L745 660 L504 660 L504 641 L604 605 L604 215 C604 111 534 41 430 41 C307 41 225 124 225 248 L226 605 L306 641 L306 660 L67 660 L67 641 L147 605 L147 605 Z " />
<glyph glyph-name="utilde" unicode="&#x169;" horiz-adv-x="550" d="M130 535 C143 575 156 601 192 601 C233 601 287 538 327 538 C378 538 399 586 422 657 L410 657 C397 616 384 589 348 589 C308 589 254 652 213 652 C162 652 141 605 118 535 L130 535 L130 535 Z M389 400 L389 99 C356 69 311 53 268 53 C204 53 161 91 161 148 L161 449 L26 449 L26 431 L91 399 L91 106 C91 36 146 -11 228 -11 C274 -11 333 17 389 71 L389 0 L529 0 L529 18 L459 50 L459 450 L319 450 L319 432 L389 400 L389 400 Z " />
<glyph glyph-name="Umacron" unicode="&#x16a;" horiz-adv-x="810" d="M283 766 L549 766 L549 809 L283 809 L283 766 L283 766 Z M147 605 L147 234 C147 88 251 -10 406 -10 C561 -10 665 88 665 234 L665 605 L745 641 L745 660 L504 660 L504 641 L604 605 L604 215 C604 111 534 41 430 41 C307 41 225 124 225 248 L226 605 L306 641 L306 660 L67 660 L67 641 L147 605 L147 605 Z " />
<glyph glyph-name="umacron" unicode="&#x16b;" horiz-adv-x="550" d="M137 596 L403 596 L403 639 L137 639 L137 596 L137 596 Z M389 400 L389 99 C356 69 311 53 268 53 C204 53 161 91 161 148 L161 449 L26 449 L26 431 L91 399 L91 106 C91 36 146 -11 228 -11 C274 -11 333 17 389 71 L389 0 L529 0 L529 18 L459 50 L459 450 L319 450 L319 432 L389 400 L389 400 Z " />
<glyph glyph-name="Uring" unicode="&#x16e;" horiz-adv-x="810" d="M370 798 C370 830 386 852 409 852 C435 852 452 826 452 786 C452 756 435 731 415 731 C391 731 370 762 370 798 L370 798 Z M327 792 C327 748 366 710 411 710 C456 710 495 749 495 794 C495 841 461 873 411 873 C361 873 327 841 327 792 L327 792 Z M147 605 L147 234 C147 88 251 -10 406 -10 C561 -10 665 88 665 234 L665 605 L745 641 L745 660 L504 660 L504 641 L604 605 L604 215 C604 111 534 41 430 41 C307 41 225 124 225 248 L226 605 L306 641 L306 660 L67 660 L67 641 L147 605 L147 605 Z " />
<glyph glyph-name="uring" unicode="&#x16f;" horiz-adv-x="550" d="M229 623 C229 655 245 677 268 677 C294 677 311 651 311 611 C311 581 294 556 274 556 C250 556 229 587 229 623 L229 623 Z M186 617 C186 573 225 535 270 535 C315 535 354 574 354 619 C354 666 320 698 270 698 C220 698 186 666 186 617 L186 617 Z M389 400 L389 99 C356 69 311 53 268 53 C204 53 161 91 161 148 L161 449 L26 449 L26 431 L91 399 L91 106 C91 36 146 -11 228 -11 C274 -11 333 17 389 71 L389 0 L529 0 L529 18 L459 50 L459 450 L319 450 L319 432 L389 400 L389 400 Z " />
<glyph glyph-name="Ydieresis" unicode="&#x178;" horiz-adv-x="716" d="M450 735 C506 735 506 823 450 823 C392 823 392 735 449 735 L450 735 Z M279 735 C335 735 335 823 279 823 C221 823 221 735 278 735 L279 735 Z M679 660 L475 660 L475 641 L552 605 L378 355 C314 438 248 522 185 605 L252 641 L252 660 L30 660 L30 642 L94 610 L324 305 L324 55 L234 19 L234 0 L493 0 L493 19 L403 55 L403 306 L622 620 L680 646 L679 660 L679 660 Z " />
<glyph glyph-name="Zacute" unicode="&#x179;" horiz-adv-x="646" d="M324 705 L335 705 L456 816 C471 829 481 864 481 864 L411 864 L324 705 L324 705 Z M104 487 L122 487 L184 612 L445 612 L108 48 L92 22 L92 0 L556 0 L556 183 L538 183 L476 48 L189 48 C306 244 423 441 541 637 L541 660 L104 660 L104 487 L104 487 Z " />
<glyph glyph-name="zacute" unicode="&#x17a;" horiz-adv-x="480" d="M241 530 L252 530 L373 653 C388 668 398 707 398 707 L328 707 L241 530 L241 530 Z M86 460 C86 458 84 431 83 431 L73 311 L90 311 L131 411 L299 411 C224 279 149 147 75 15 L75 -1 L405 -1 L405 143 L388 143 L355 38 L168 38 C244 173 321 307 397 442 L397 449 L135 449 L96 459 L86 460 L86 460 Z " />
<glyph glyph-name="Zdot" unicode="&#x17b;" horiz-adv-x="646" d="M334 725 C366 725 387 746 387 778 C387 809 366 830 334 830 C303 830 282 809 282 778 C282 746 303 725 334 725 L334 725 Z M104 487 L122 487 L184 612 L445 612 L108 48 L92 22 L92 0 L556 0 L556 183 L538 183 L476 48 L189 48 C306 244 423 441 541 637 L541 660 L104 660 L104 487 L104 487 Z " />
<glyph glyph-name="zdot" unicode="&#x17c;" horiz-adv-x="480" d="M246 583 C278 583 299 604 299 636 C299 667 278 688 246 688 C215 688 194 667 194 636 C194 604 215 583 246 583 L246 583 Z M86 460 C86 458 84 431 83 431 L73 311 L90 311 L131 411 L299 411 C224 279 149 147 75 15 L75 -1 L405 -1 L405 143 L388 143 L355 38 L168 38 C244 173 321 307 397 442 L397 449 L135 449 L96 459 L86 460 L86 460 Z " />
<glyph glyph-name="Zcaron" unicode="&#x17d;" horiz-adv-x="646" d="M352 710 L484 867 L474 867 L340 777 L209 867 L199 867 L326 710 L352 710 L352 710 Z M104 487 L122 487 L184 612 L445 612 L108 48 L92 22 L92 0 L556 0 L556 183 L538 183 L476 48 L189 48 C306 244 423 441 541 637 L541 660 L104 660 L104 487 L104 487 Z " />
<glyph glyph-name="zcaron" unicode="&#x17e;" horiz-adv-x="480" d="M254 535 L386 710 L376 710 L241 609 L111 710 L101 710 L228 535 L254 535 L254 535 Z M86 460 C86 458 84 431 83 431 L73 311 L90 311 L131 411 L299 411 C224 279 149 147 75 15 L75 -1 L405 -1 L405 143 L388 143 L355 38 L168 38 C244 173 321 307 397 442 L397 449 L135 449 L96 459 L86 460 L86 460 Z " />
<glyph glyph-name="oogonek" unicode="&#x1eb;" horiz-adv-x="742" d="M727 -123 L727 -111 C720 -115 698 -118 673 -118 C617 -118 535 -25 468 2 C594 36 672 139 672 280 C672 456 552 574 371 574 C190 574 70 457 70 282 C70 100 198 -21 392 -11 C470 -52 558 -145 624 -145 C664 -145 705 -137 727 -124 L727 -123 L727 -123 Z M146 309 C146 445 230 536 357 536 C500 536 596 422 596 252 C596 118 512 28 387 28 C242 28 146 140 146 309 L146 309 Z " />
<glyph glyph-name="G_sc" unicode="&#x262;" horiz-adv-x="712" d="M592 193 L667 229 L667 248 L436 248 L436 229 L521 193 L521 65 C490 47 441 36 388 36 C240 36 142 138 142 291 C142 438 239 536 385 536 C421 536 461 526 495 509 L495 509 C499 507 503 503 505 499 C523 459 547 406 565 366 C570 366 575 367 581 367 L575 528 C541 556 465 575 384 575 C194 575 68 452 68 267 C68 101 187 -10 365 -10 C458 -10 548 24 590 74 L592 193 L592 193 Z " />
<glyph glyph-name="I_sc" unicode="&#x26a;" horiz-adv-x="371" d="M301 0 L301 19 L221 55 L221 510 L301 546 L301 565 L70 565 L70 546 L150 510 L150 55 L70 19 L70 0 L301 0 L301 0 Z " />
<glyph glyph-name="N_sc" unicode="&#x274;" horiz-adv-x="742" d="M68 546 L143 510 L143 55 L63 19 L63 0 L298 0 L298 19 L198 55 L198 452 C324 300 450 148 576 -5 L602 -5 L602 510 L677 546 L677 565 L447 565 L447 546 L547 510 L547 142 L198 565 L68 565 L68 546 L68 546 Z " />
<glyph glyph-name="R_sc" unicode="&#x280;" horiz-adv-x="609" d="M597 0 L597 18 L523 50 L367 268 C438 292 482 344 482 413 C482 505 408 566 298 566 L64 566 L64 547 L144 511 L144 56 L64 20 L64 1 L289 1 L289 20 L214 56 L214 255 L273 255 C278 255 283 255 288 255 L470 1 L597 0 L597 0 Z M213 298 L213 523 L280 523 C355 523 405 476 405 406 C405 341 358 298 288 298 L213 298 L213 298 Z " />
<glyph glyph-name="Y_sc" unicode="&#x28f;" horiz-adv-x="654" d="M246 565 L32 565 L32 547 L97 515 L298 262 L298 55 L208 19 L208 0 L458 0 L458 19 L368 55 L368 264 C432 351 495 438 559 524 L618 550 L618 564 L420 564 L420 545 L494 509 L346 308 L180 509 L245 545 L246 565 L246 565 Z " />
<glyph glyph-name="B_sc" unicode="&#x299;" horiz-adv-x="591" d="M245 317 L215 317 L215 522 L282 522 C367 522 411 478 411 412 C411 355 345 317 245 317 L245 317 Z M379 309 C445 334 484 377 484 431 C484 511 421 564 300 564 L65 564 L65 545 L145 509 L145 54 L65 18 L65 -1 L299 -1 C444 -1 541 66 541 166 C541 237 486 289 379 308 L379 309 L379 309 Z M215 42 L215 272 L306 272 C413 272 468 227 468 160 C468 89 400 42 299 42 L215 42 L215 42 Z " />
<glyph glyph-name="H_sc" unicode="&#x29c;" horiz-adv-x="746" d="M681 0 L681 19 L601 55 L601 510 L681 546 L681 565 L450 565 L450 546 L530 510 L530 313 L215 313 L215 510 L295 546 L295 565 L65 565 L65 546 L145 510 L145 55 L65 19 L65 0 L295 0 L295 19 L215 55 L215 269 L530 269 L530 55 L450 19 L450 0 L681 0 L681 0 Z " />
<glyph glyph-name="L_sc" unicode="&#x29f;" horiz-adv-x="570" d="M500 208 L482 208 L420 43 L215 43 L215 510 L300 546 L300 565 L65 565 L65 546 L145 510 L145 55 L65 19 L65 0 L500 0 L500 208 L500 208 Z " />
<glyph glyph-name="circumflex" unicode="&#x2c6;" horiz-adv-x="340" d="M315 530 L183 705 L157 705 L30 530 L40 530 L170 631 L305 530 L315 530 L315 530 Z " />
<glyph glyph-name="caron" unicode="&#x2c7;" horiz-adv-x="340" d="M183 535 L315 710 L305 710 L170 609 L40 710 L30 710 L157 535 L183 535 L183 535 Z " />
<glyph glyph-name="firsttonechinese" unicode="&#x2c9;" horiz-adv-x="340" d="M37 531 L303 531 L303 574 L37 574 L37 531 L37 531 Z " />
<glyph glyph-name="breve" unicode="&#x2d8;" horiz-adv-x="340" d="M36 719 L23 719 C60 605 101 560 170 560 C239 560 280 605 317 719 L305 719 C282 647 244 619 170 619 C97 619 59 647 36 719 L36 719 Z " />
<glyph glyph-name="dotaccent" unicode="&#x2d9;" horiz-adv-x="340" d="M214 654 C214 712 126 712 126 655 C126 597 214 597 214 654 L214 654 Z " />
<glyph glyph-name="ring" unicode="&#x2da;" horiz-adv-x="340" d="M129 618 C129 650 145 672 168 672 C194 672 211 646 211 606 C211 576 194 551 174 551 C150 551 129 582 129 618 L129 618 Z M86 612 C86 568 125 530 170 530 C215 530 254 569 254 614 C254 661 220 693 170 693 C120 693 86 661 86 612 L86 612 Z " />
<glyph glyph-name="A_sc" unicode="&#x1d00;" horiz-adv-x="683" d="M420 0 L648 0 L648 16 L583 45 L361 553 L354 570 L320 570 C245 397 171 223 96 50 L18 18 L18 0 L229 0 L229 18 L150 50 L209 192 L444 192 L444 196 L507 50 L420 18 L420 0 L420 0 Z M427 235 L227 235 L326 471 L427 235 L427 235 Z " />
<glyph glyph-name="C_sc" unicode="&#x1d04;" horiz-adv-x="655" d="M565 40 L573 186 C567 186 562 187 557 187 C540 152 517 106 500 71 C498 67 494 64 491 62 C449 42 402 30 363 30 C230 30 142 135 142 292 C142 439 235 537 374 537 C407 537 445 526 478 509 C481 507 484 504 486 500 C504 460 528 407 546 367 C551 367 556 368 562 368 L556 529 C522 557 450 576 374 576 C191 576 69 453 69 268 C69 102 187 -9 363 -9 C441 -9 521 11 564 41 L565 40 L565 40 Z " />
<glyph glyph-name="D_sc" unicode="&#x1d05;" horiz-adv-x="711" d="M326 0 C515 0 641 111 641 306 C641 477 510 565 314 565 L65 565 L65 546 L145 510 L145 55 L65 19 L65 0 L326 0 L326 0 Z M215 43 L215 522 C241 522 275 522 294 522 C457 522 566 440 566 280 C566 130 469 44 324 44 L215 43 L215 43 Z " />
<glyph glyph-name="E_sc" unicode="&#x1d07;" horiz-adv-x="590" d="M520 168 L503 168 L445 43 L215 43 L215 269 L345 269 L387 189 L410 189 L410 393 L387 393 L345 313 L215 313 L215 522 L420 522 L478 407 L495 407 L495 565 L65 565 L65 546 L145 510 L145 55 L65 19 L65 0 L520 0 L520 168 L520 168 Z " />
<glyph glyph-name="J_sc" unicode="&#x1d0a;" horiz-adv-x="371" d="M150 510 L150 50 C150 -50 127 -116 92 -116 C92 -116 69 -113 53 -109 L47 -109 C47 -114 22 -173 65 -173 C159 -173 221 -23 221 202 L221 510 L301 546 L301 565 L70 565 L70 546 L150 510 L150 510 Z " />
<glyph glyph-name="K_sc" unicode="&#x1d0b;" horiz-adv-x="674" d="M644 14 L576 40 L286 310 L516 525 L584 551 L584 565 L363 565 L363 547 L435 515 L217 289 L517 0 L644 0 L644 14 L644 14 Z M296 0 L296 19 L216 55 L216 510 L296 546 L296 565 L65 565 L65 546 L145 510 L145 55 L65 19 L65 0 L296 0 L296 0 Z " />
<glyph glyph-name="M_sc" unicode="&#x1d0d;" horiz-adv-x="899" d="M74 546 L162 510 C155 358 149 206 142 55 L61 19 L61 0 L272 0 L272 19 L189 55 L204 478 L427 -5 L462 -5 C461 -2 450 18 451 19 L681 470 L699 54 L621 18 L621 -1 L837 -1 L837 18 L766 54 L746 509 L833 545 L833 564 L677 564 L460 89 L239 564 L74 564 L74 546 L74 546 Z " />
<glyph glyph-name="O_sc" unicode="&#x1d0f;" horiz-adv-x="742" d="M146 310 C146 446 230 537 357 537 C500 537 596 423 596 253 C596 119 512 29 387 29 C242 29 146 141 146 310 L146 310 Z M70 283 C70 107 190 -10 371 -10 C552 -10 672 106 672 281 C672 457 552 575 371 575 C190 575 70 458 70 283 L70 283 Z " />
<glyph glyph-name="P_sc" unicode="&#x1d18;" horiz-adv-x="553" d="M310 0 L310 19 L215 55 L215 254 L274 254 C399 254 483 317 483 412 C483 504 409 565 299 565 L65 565 L65 546 L145 510 L145 55 L65 19 L65 0 L310 0 L310 0 Z M215 297 L215 522 L282 522 C357 522 407 475 407 405 C407 340 360 297 290 297 L215 297 L215 297 Z " />
<glyph glyph-name="T_sc" unicode="&#x1d1b;" horiz-adv-x="615" d="M443 0 L443 19 L343 55 L343 522 L490 522 L552 377 L570 377 L570 565 L45 565 L45 377 L63 377 L125 522 L272 522 L272 55 L172 19 L172 0 L443 0 L443 0 Z " />
<glyph glyph-name="U_sc" unicode="&#x1d1c;" horiz-adv-x="751" d="M149 510 L149 200 C149 74 241 -10 378 -10 C515 -10 606 74 606 200 L606 510 L686 546 L686 565 L451 565 L451 546 L551 510 L551 183 C551 95 490 36 399 36 C292 36 220 107 220 213 L220 510 L300 546 L300 565 L69 565 L69 546 L149 510 L149 510 Z " />
<glyph glyph-name="V_sc" unicode="&#x1d20;" horiz-adv-x="671" d="M264 565 L33 565 L33 547 L102 515 L312 11 L319 -5 L352 -5 C429 172 505 349 582 525 L638 551 L638 565 L446 565 L446 546 L523 510 L351 102 L178 510 L265 546 L264 565 L264 565 Z " />
<glyph glyph-name="W_sc" unicode="&#x1d21;" horiz-adv-x="915" d="M252 565 L20 565 L20 547 L86 515 C144 342 204 170 260 -4 L284 -4 C342 145 400 294 458 443 C516 294 575 146 633 -3 L656 -3 L662 15 C719 186 775 357 832 527 L895 553 L895 567 L692 567 L692 548 L775 512 L655 134 C596 280 536 426 477 572 L453 572 C400 425 344 279 289 133 C246 259 202 386 160 512 L251 548 L252 565 L252 565 Z " />
<glyph glyph-name="Z_sc" unicode="&#x1d22;" horiz-adv-x="586" d="M106 397 L124 397 L186 522 L393 522 C293 355 195 187 94 21 L94 1 L496 1 L496 179 L478 179 L416 44 L181 44 C281 212 381 380 482 548 L482 566 L107 566 L106 397 L106 397 Z " />
<glyph glyph-name="Etilde" unicode="&#x1ebc;" horiz-adv-x="650" d="M210 705 C223 745 236 771 272 771 C313 771 367 708 407 708 C458 708 479 756 502 827 L490 827 C477 786 464 759 428 759 C388 759 334 822 293 822 C242 822 221 775 198 705 L210 705 L210 705 Z M580 173 L563 173 L505 48 L223 48 L223 316 L405 316 L447 236 L470 236 L470 444 L447 444 L405 364 L223 364 L223 612 L480 612 L538 497 L555 497 L555 660 L65 660 L65 641 L145 605 L145 55 L65 19 L65 0 L580 0 L580 173 L580 173 Z " />
<glyph glyph-name="endash" unicode="&#x2013;" horiz-adv-x="500" d="M50 245 L450 245 L450 289 L50 289 L50 245 L50 245 Z " />
<glyph glyph-name="emdash" unicode="&#x2014;" horiz-adv-x="1000" d="M50 245 L950 245 L950 289 L50 289 L50 245 L50 245 Z " />
<glyph glyph-name="quoteleft" unicode="&#x2018;" horiz-adv-x="246" d="M157 585 C130 595 112 627 112 666 C112 694 145 721 194 733 L194 750 C114 730 60 680 60 627 C60 567 87 518 127 503 C149 494 165 494 173 516 L189 558 L189 568 L157 585 L157 585 Z " />
<glyph glyph-name="quoteright" unicode="&#x2019;" horiz-adv-x="246" d="M97 668 C124 658 142 626 142 587 C142 559 109 532 60 520 L60 503 C140 523 194 573 194 626 C194 686 167 735 127 750 C105 759 89 759 81 737 L65 695 L65 685 L97 668 L97 668 Z " />
<glyph glyph-name="quotedblleft" unicode="&#x201c;" horiz-adv-x="432" d="M157 585 C130 595 112 627 112 666 C112 694 145 733 194 733 L194 750 C114 750 60 680 60 627 C60 567 87 518 127 503 C149 494 165 494 173 516 L189 558 L189 568 L157 585 L157 585 Z M343 585 C316 595 298 627 298 666 C298 694 331 733 380 733 L380 750 C300 750 246 680 246 627 C246 567 273 518 313 503 C335 494 351 494 359 516 L375 558 L375 568 L343 585 L343 585 Z " />
<glyph glyph-name="quotedblright" unicode="&#x201d;" horiz-adv-x="432" d="M283 668 C310 658 328 626 328 587 C328 559 295 532 246 520 L246 503 C326 523 380 573 380 626 C380 686 353 735 313 750 C291 759 275 759 267 737 L251 695 L251 685 L283 668 L283 668 Z M97 668 C124 658 142 626 142 587 C142 559 109 532 60 520 L60 503 C140 523 194 573 194 626 C194 686 167 735 127 750 C105 759 89 759 81 737 L65 695 L65 685 L97 668 L97 668 Z " />
<glyph glyph-name="bullet" unicode="&#x2022;" horiz-adv-x="470" d="M235 156 C298 156 340 198 340 261 C340 324 298 366 235 366 C172 366 130 324 130 261 C130 198 172 156 235 156 L235 156 Z " />
<glyph glyph-name="ellipsis" unicode="&#x2026;" horiz-adv-x="620" d="M503 -10 C534 -10 555 11 555 43 C555 74 534 95 503 95 C471 95 450 74 450 43 C450 11 471 -10 503 -10 L503 -10 Z M310 -10 C342 -10 363 11 363 43 C363 74 342 95 310 95 C279 95 258 74 258 43 C258 11 279 -10 310 -10 L310 -10 Z M118 -10 C149 -10 170 11 170 43 C170 74 149 95 118 95 C86 95 65 74 65 43 C65 11 86 -10 118 -10 L118 -10 Z " />
<glyph glyph-name="perthousand" unicode="&#x2030;" horiz-adv-x="1132" d="M890 207 C890 307 918 374 961 374 C1017 374 1055 296 1055 179 C1055 79 1024 13 977 13 C925 13 890 91 890 207 L890 207 Z M821 194 C821 72 881 -10 971 -10 C1060 -10 1120 75 1120 203 C1120 318 1060 395 971 395 C881 395 821 315 821 194 L821 194 Z M99 568 C99 671 127 739 170 739 C226 739 264 659 264 540 C264 443 233 378 186 378 C134 378 99 454 99 568 L99 568 Z M30 554 C30 435 90 355 180 355 C269 355 329 438 329 563 C329 681 269 760 180 760 C90 760 30 678 30 554 L30 554 Z M544 207 C544 307 574 374 619 374 C680 374 721 296 721 179 C721 79 687 13 635 13 C580 13 544 91 544 207 L544 207 Z M475 193 C475 71 537 -10 629 -10 C723 -10 786 75 786 202 C786 318 723 395 629 395 C537 395 475 314 475 193 L475 193 Z M196 -10 L661 740 L629 760 L164 10 L196 -10 L196 -10 Z " />
<glyph glyph-name="guilsinglleft" unicode="&#x2039;" horiz-adv-x="246" d="M216 425 L16 248 L216 70 L226 70 L103 248 L226 425 L216 425 L216 425 Z " />
<glyph glyph-name="guilsinglright" unicode="&#x203a;" horiz-adv-x="247" d="M20 425 L139 248 L20 70 L30 70 L227 248 L30 425 L20 425 L20 425 Z " />
<glyph glyph-name="fraction" unicode="&#x2044;" horiz-adv-x="491" d="M46 -10 L511 740 L479 760 L14 10 L46 -10 L46 -10 Z " />
<glyph glyph-name="Euro" unicode="&#x20ac;" horiz-adv-x="499" d="M476 96 C454 67 404 47 351 47 C248 47 194 121 175 241 L358 241 L358 279 L170 279 C167 313 166 353 168 389 L358 389 L358 427 L171 427 C184 558 233 642 303 642 C335 642 371 619 393 584 C401 584 420 545 420 545 L426 545 C437 545 464 568 464 568 C469 571 472 578 472 586 C472 589 468 597 461 608 C438 645 386 670 333 670 C210 670 121 576 93 427 L10 427 L10 389 L88 389 C84 355 83 316 85 279 L10 279 L10 241 L88 241 C104 88 171 -10 311 -10 C374 -10 440 24 478 74 L478 96 L476 96 L476 96 Z " />
<glyph glyph-name="F_sc" unicode="&#xa730;" horiz-adv-x="555" d="M345 269 L387 189 L410 189 L410 393 L387 393 L345 313 L215 313 L215 522 L410 522 L468 407 L485 407 L485 565 L65 565 L65 546 L145 510 L145 55 L65 19 L65 0 L310 0 L310 19 L215 55 L215 269 L345 269 L345 269 Z " />
<glyph glyph-name="S_sc" unicode="&#xa731;" horiz-adv-x="458" d="M292 517 C301 512 309 502 313 493 C325 465 341 427 353 399 C356 399 360 400 363 400 L374 400 L366 531 L351 508 L366 531 C338 557 288 575 240 575 C148 575 86 513 86 420 C86 355 129 309 212 269 C293 230 335 191 335 141 C335 73 297 27 239 27 C214 27 175 42 135 66 C131 69 128 73 126 77 C113 110 97 154 84 187 C77 187 70 186 63 186 L70 37 C110 9 177 -10 238 -10 C336 -10 402 58 402 160 C402 231 355 281 265 324 C192 359 155 396 155 445 C155 500 186 537 232 537 C249 537 270 530 291 518 L292 517 L292 517 Z " />
<glyph glyph-name="X_sc" unicode="&#xf078;" horiz-adv-x="673" d="M408 0 L636 0 L636 16 L573 45 L366 308 C424 379 481 450 539 520 L602 549 L602 565 L413 565 L413 546 L488 510 L344 336 L207 510 L284 546 L284 565 L55 565 L55 547 L120 515 L304 277 C243 201 182 125 120 50 L49 18 L49 0 L257 0 L257 19 L171 55 L326 249 C376 184 427 119 476 55 L409 19 L408 0 L408 0 Z " />
</font>
</svg>
