<?xml version="1.0" encoding="UTF-8"?>
<svg xmlns="http://www.w3.org/2000/svg" xmlns:xlink="http://www.w3.org/1999/xlink" version="1.2" >
<font id="Ethan Regular">
<font-face  font-family="Ethan" units-per-em="1024" ascent="975" descent="-300" font-style="normal" font-weight="400" font-stretch="normal" cap-height="924" x-height="488" underline-position="-125" underline-thickness="50" />
<missing-glyph  horiz-adv-x="153" d="" />
<glyph glyph-name="NULL" d="" />
<glyph glyph-name="CR" unicode="&#xd;" horiz-adv-x="256" d="" />
<glyph glyph-name="space" unicode="&#x20;" horiz-adv-x="378" d="" />
<glyph glyph-name="exclam" unicode="&#x21;" horiz-adv-x="374" d="M191 -10 C246 -10 282 14 282 50 C282 86 246 110 191 110 C136 110 99 86 99 50 C99 14 136 -10 191 -10 L191 -10 Z M107 660 L175 190 L206 190 L275 660 L107 660 L107 660 Z " />
<glyph glyph-name="quotedbl" unicode="&#x22;" horiz-adv-x="687" d="M427 740 L481 490 L511 490 L565 740 L427 740 L427 740 Z M122 740 L175 490 L206 490 L259 740 L122 740 L122 740 Z " />
<glyph glyph-name="numbersign" unicode="&#x23;" horiz-adv-x="760" d="M238 403 L169 249 L0 249 L0 202 L150 202 L60 0 L136 0 L226 202 L421 202 L331 0 L407 0 L497 202 L671 202 L671 249 L517 249 L586 403 L760 403 L760 450 L607 450 L700 660 L624 660 L531 450 L336 450 L429 660 L352 660 L259 450 L88 450 L88 403 L238 403 L238 403 Z M314 403 L510 403 L441 249 L246 249 L314 403 L314 403 Z " />
<glyph glyph-name="dollar" unicode="&#x24;" horiz-adv-x="763" d="M441 740 L441 669 C413 670 383 670 356 668 L356 739 L293 739 L293 661 C162 639 79 576 79 489 C79 405 151 351 293 314 L293 43 C224 57 182 92 182 140 L182 167 C180 167 174 171 174 171 L131 171 C96 171 72 159 72 140 C72 62 157 7 293 -7 L293 -80 L356 -80 L356 -10 C384 -10 412 -9 438 -6 L438 -80 L500 -80 L500 5 C616 33 687 97 687 182 C687 250 624 314 500 357 L500 604 C534 590 554 569 554 543 L554 517 C554 517 560 513 561 513 L604 513 C639 513 664 525 664 543 C664 602 601 646 500 663 L500 741 L441 740 L441 740 Z M438 376 C409 383 378 390 354 398 L354 621 C381 623 413 622 439 619 L438 376 L438 376 Z M293 423 C241 449 215 481 215 522 C215 561 244 592 293 609 L293 423 Z M356 300 C388 291 415 282 439 272 L439 45 C415 40 388 38 357 38 L356 300 L356 300 Z M504 241 C546 214 569 184 569 154 C569 116 545 85 504 65 L504 241 Z " />
<glyph glyph-name="percent" unicode="&#x25;" horiz-adv-x="1222" d="M166 569 C166 669 204 736 261 736 C340 736 392 656 392 537 C392 443 351 381 288 381 C215 381 166 456 166 569 L166 569 Z M46 554 C46 435 139 355 278 355 C415 355 507 439 507 564 C507 682 415 760 278 760 C139 760 46 678 46 554 L46 554 Z M841 208 C841 306 882 371 943 371 C1031 371 1089 293 1089 176 C1089 80 1042 16 970 16 C893 16 841 93 841 208 L841 208 Z M720 193 C720 71 816 -10 960 -10 C1106 -10 1204 75 1204 203 C1204 318 1106 395 960 395 C816 395 720 314 720 193 L720 193 Z M304 -11 L1013 739 L960 761 L250 11 L304 -11 L304 -11 Z " />
<glyph glyph-name="ampersand" unicode="&#x26;" horiz-adv-x="1054" d="M780 452 L821 420 C827 420 838 418 848 419 C796 331 748 255 694 195 L409 375 C554 425 645 488 645 542 C645 618 548 669 401 669 C232 669 119 605 119 509 C119 448 168 402 247 349 C69 294 32 235 32 163 C32 59 146 -11 319 -11 C467 -11 575 25 664 90 L810 -1 L1077 -1 L1077 17 L926 49 L746 163 C813 234 871 324 934 428 L1034 450 L1034 468 L783 468 L780 452 L780 452 Z M285 325 C296 318 308 311 320 303 L615 120 C552 75 479 50 386 50 C259 50 174 104 174 185 C174 243 194 289 285 324 L285 325 L285 325 Z M372 398 C301 444 255 477 255 524 C255 586 310 627 392 627 C467 627 517 591 517 536 C517 487 462 436 372 398 L372 398 Z " />
<glyph glyph-name="quotesingle" unicode="&#x27;" horiz-adv-x="381" d="M122 740 L175 490 L206 490 L259 740 L122 740 L122 740 Z " />
<glyph glyph-name="parenleft" unicode="&#x28;" horiz-adv-x="381" d="M336 740 C183 621 81 487 81 295 C81 103 183 -31 336 -150 L374 -150 C259 -61 183 64 183 295 C183 526 259 651 374 740 L336 740 L336 740 Z " />
<glyph glyph-name="parenright" unicode="&#x29;" horiz-adv-x="381" d="M84 -150 C236 -31 339 103 339 295 C339 487 236 621 84 740 L46 740 C160 651 236 526 236 295 C236 64 160 -61 46 -150 L84 -150 L84 -150 Z " />
<glyph glyph-name="asterisk" unicode="&#x2a;" horiz-adv-x="594" d="M320 589 L526 615 L497 672 L308 614 L334 750 L243 750 L269 614 L79 672 L50 615 L256 589 L113 489 L188 454 L288 574 L389 454 L464 489 L320 589 L320 589 Z " />
<glyph glyph-name="plus" unicode="&#x2b;" horiz-adv-x="778" d="M349 482 L349 297 L61 297 L61 247 L349 247 L349 52 L429 52 L429 247 L717 247 L717 297 L429 297 L429 482 L349 482 L349 482 Z " />
<glyph glyph-name="comma" unicode="&#x2c;" horiz-adv-x="377" d="M137 0 C183 -14 214 -49 214 -87 C214 -124 165 -165 92 -190 L92 -210 C217 -168 301 -99 301 -39 C301 21 261 73 201 91 C159 103 150 106 124 79 L79 29 L84 19 L137 0 L137 0 Z " />
<glyph glyph-name="hyphen" unicode="&#x2d;" horiz-adv-x="572" d="M76 217 L496 217 L496 287 L76 287 L76 217 L76 217 Z " />
<glyph glyph-name="period" unicode="&#x2e;" horiz-adv-x="381" d="M191 -10 C246 -10 282 14 282 50 C282 86 246 110 191 110 C136 110 99 86 99 50 C99 14 136 -10 191 -10 L191 -10 Z " />
<glyph glyph-name="slash" unicode="&#x2f;" horiz-adv-x="381" d="M0 -120 L76 -120 L381 750 L305 750 L0 -120 L0 -120 Z " />
<glyph glyph-name="zero" unicode="0" horiz-adv-x="803" d="M195 361 C195 518 267 623 375 623 C520 623 616 496 616 306 C616 146 540 39 426 39 C287 39 195 168 195 361 L195 361 Z M50 330 C50 126 191 -10 401 -10 C612 -10 752 129 752 338 C752 537 612 670 401 670 C191 670 50 534 50 330 L50 330 Z " />
<glyph glyph-name="one" unicode="1" horiz-adv-x="763" d="M603 0 L603 18 L504 50 L504 660 L473 660 L107 511 L107 476 L374 563 L374 50 L275 18 L275 0 L603 0 L603 0 Z " />
<glyph glyph-name="two" unicode="2" horiz-adv-x="732" d="M693 41 C697 73 702 115 706 147 L680 147 L623 82 L249 82 C558 320 682 411 682 493 C682 599 575 670 413 670 C201 670 61 602 61 499 C61 474 85 457 122 457 L192 457 C192 457 198 462 200 462 L200 515 C200 515 102 499 61 499 C200 580 267 623 366 623 C467 623 534 571 534 492 C534 356 406 280 76 25 L76 0 L693 0 L693 41 L693 41 Z " />
<glyph glyph-name="three" unicode="3" horiz-adv-x="760" d="M188 120 L188 147 L175 155 L104 155 C104 155 50 141 50 120 C50 42 179 -10 369 -10 C583 -10 725 64 725 175 C725 279 630 341 446 359 C600 386 679 444 679 521 C679 610 569 670 404 670 C211 670 82 612 82 524 C82 503 143 489 143 489 L206 489 L218 497 L218 535 C218 589 279 625 371 625 C468 625 532 580 532 513 C532 432 449 375 285 364 C265 364 246 363 226 362 L226 318 C458 329 577 280 577 174 C577 90 493 34 368 34 C259 34 186 68 186 119 L188 120 L188 120 Z " />
<glyph glyph-name="four" unicode="4" horiz-adv-x="764" d="M532 660 C377 526 221 393 66 260 L14 213 L14 193 L435 193 L435 50 L336 18 L336 0 L664 0 L664 18 L565 50 L565 193 L746 193 L746 260 L565 260 L565 660 L532 660 L532 660 Z M435 507 L435 260 L160 260 L435 507 L435 507 Z " />
<glyph glyph-name="five" unicode="5" horiz-adv-x="763" d="M618 660 L131 660 L131 345 C163 351 221 355 276 355 C462 355 586 291 586 195 C586 101 494 39 359 39 C285 39 208 67 182 108 L166 108 C150 108 111 81 111 81 C95 73 84 71 84 55 C84 49 88 42 96 36 C125 8 206 -10 296 -10 C536 -10 694 88 694 236 C694 354 536 433 298 433 C256 433 220 431 204 429 L204 582 L618 582 L618 660 L618 660 Z " />
<glyph glyph-name="six" unicode="6" horiz-adv-x="764" d="M642 670 C291 608 56 433 56 233 C56 87 191 -10 391 -10 C587 -10 719 74 719 201 C719 313 613 388 456 388 C354 388 265 361 211 315 C249 474 412 600 642 640 L642 670 Z M201 235 C220 286 298 320 397 320 C505 320 578 264 578 180 C578 94 504 36 391 36 C279 36 203 115 200 235 L201 235 Z " />
<glyph glyph-name="seven" unicode="7" horiz-adv-x="763" d="M76 660 L76 583 L586 583 C307 259 125 30 125 0 L296 0 C296 104 458 360 700 640 L700 660 L76 660 L76 660 Z " />
<glyph glyph-name="eight" unicode="8" horiz-adv-x="752" d="M439 371 C432 373 424 375 417 377 C273 421 218 475 218 530 C218 586 278 623 368 623 C473 623 543 571 543 494 C543 437 505 393 439 370 L439 371 Z M497 349 C607 372 674 428 674 502 C674 603 557 670 381 670 C201 670 81 602 81 500 C81 439 131 379 258 326 C134 301 58 234 58 144 C58 51 185 -11 374 -11 C563 -11 688 61 688 170 C688 232 623 297 494 349 L497 349 Z M310 306 C323 301 337 296 352 291 C490 249 560 192 560 138 C560 74 488 31 380 31 C269 31 195 85 195 167 C195 231 238 280 310 304 L310 306 Z " />
<glyph glyph-name="nine" unicode="9" horiz-adv-x="761" d="M122 -10 C473 -10 708 92 708 427 C708 573 574 670 374 670 C177 670 46 600 46 465 C46 349 156 272 320 272 C417 272 505 303 561 353 C537 108 368 19 124 19 L122 -10 Z M565 424 C540 372 467 338 381 338 C269 338 192 388 192 464 C192 569 265 623 375 623 C487 623 563 544 566 424 L565 424 Z " />
<glyph glyph-name="colon" unicode="&#x3a;" horiz-adv-x="381" d="M191 330 C246 330 282 354 282 390 C282 426 246 450 191 450 C136 450 99 426 99 390 C99 354 136 330 191 330 L191 330 Z M191 -10 C246 -10 282 14 282 50 C282 86 246 110 191 110 C136 110 99 86 99 50 C99 14 136 -10 191 -10 L191 -10 Z " />
<glyph glyph-name="semicolon" unicode="&#x3b;" horiz-adv-x="377" d="M186 330 C241 330 278 354 278 390 C278 426 241 450 186 450 C131 450 95 426 95 390 C95 354 131 330 186 330 L186 330 Z M137 0 C183 -14 214 -49 214 -87 C214 -124 165 -165 92 -190 L92 -210 C217 -168 301 -99 301 -39 C301 21 261 73 201 91 C159 103 150 106 124 79 L79 29 L84 19 L137 0 L137 0 Z " />
<glyph glyph-name="equal" unicode="&#x3d;" horiz-adv-x="763" d="M61 195 L61 145 L702 145 L702 195 L61 195 L61 195 Z M61 399 L61 349 L702 349 L702 399 L61 399 L61 399 Z " />
<glyph glyph-name="question" unicode="&#x3f;" horiz-adv-x="729" d="M323 -5 C378 -5 415 19 415 55 C415 91 378 115 323 115 C269 115 232 91 232 55 C232 19 269 -5 323 -5 L323 -5 Z M195 517 C195 517 101 508 61 508 C61 484 84 468 119 468 L183 468 C183 468 192 478 195 478 L195 517 L195 517 Z M195 517 C195 582 249 626 330 626 C435 626 505 574 505 495 C505 433 410 373 269 345 C269 299 308 190 308 190 L339 190 C339 190 348 232 356 275 C531 319 645 404 645 495 C645 600 539 670 377 670 C188 670 61 605 61 508 L195 517 L195 517 Z " />
<glyph glyph-name="A" unicode="A" horiz-adv-x="1141" d="M711 0 L1088 0 L1088 16 L990 45 C859 252 728 459 597 666 L529 666 L143 51 L24 19 L24 1 L369 1 L369 19 L247 51 L349 220 L737 220 L737 222 L844 51 L709 19 L711 0 L711 0 Z M705 275 L383 275 L542 537 L705 275 L705 275 Z " />
<glyph glyph-name="B" unicode="B" horiz-adv-x="964" d="M371 368 L322 368 L322 605 L436 605 C583 605 659 555 659 479 C659 412 543 368 371 368 L371 368 Z M613 357 C731 387 801 439 801 504 C801 598 688 660 470 660 L63 660 L63 641 L185 605 L185 55 L63 19 L63 0 L464 0 C719 0 888 78 888 194 C888 274 795 334 613 357 L613 357 Z M322 55 L322 313 L475 313 C653 313 746 262 746 186 C746 107 633 55 464 55 L322 55 L322 55 Z " />
<glyph glyph-name="C" unicode="C" horiz-adv-x="1094" d="M957 39 L970 197 C961 197 954 198 946 198 C920 165 886 122 861 89 C857 85 851 80 845 77 C775 54 688 40 612 40 C394 40 249 160 249 341 C249 508 401 620 632 620 C694 620 763 608 818 589 L818 589 C827 586 835 581 838 576 C865 539 900 488 928 451 C935 451 944 452 954 452 L943 625 C893 653 769 671 632 671 C317 671 107 527 107 311 C107 119 308 -9 612 -9 C755 -9 893 11 957 40 L957 39 L957 39 Z " />
<glyph glyph-name="D" unicode="D" horiz-adv-x="1182" d="M543 0 C862 0 1076 130 1076 360 C1076 558 853 660 519 660 L99 660 L99 641 L221 605 L221 55 L99 19 L99 0 L543 0 L543 0 Z M359 55 L359 605 L479 605 C752 605 934 510 934 325 C934 153 777 55 540 55 L359 55 L359 55 Z " />
<glyph glyph-name="E" unicode="E" horiz-adv-x="992" d="M885 180 L859 180 L771 55 L359 55 L359 313 L618 313 L682 233 L717 233 L717 448 L682 448 L618 368 L359 368 L359 605 L732 605 L821 490 L847 490 L847 660 L99 660 L99 641 L221 605 L221 55 L99 19 L99 0 L885 0 L885 180 L885 180 Z " />
<glyph glyph-name="F" unicode="F" horiz-adv-x="938" d="M618 313 L682 233 L717 233 L717 448 L682 448 L618 368 L359 368 L359 605 L717 605 L806 490 L832 490 L832 660 L99 660 L99 641 L221 605 L221 55 L99 19 L99 0 L504 0 L504 19 L359 55 L359 313 L618 313 L618 313 Z " />
<glyph glyph-name="G" unicode="G" horiz-adv-x="1181" d="M998 235 L1112 271 L1112 290 L731 290 L731 271 L861 235 L861 67 C815 56 742 49 658 49 C413 49 250 166 250 341 C250 508 409 620 648 620 C719 620 792 608 850 588 C857 585 865 580 870 574 C897 537 932 487 960 450 C967 450 976 451 986 451 L975 624 C925 652 795 670 648 670 C325 670 108 526 108 310 C108 118 311 -10 615 -10 C781 -10 935 24 999 74 L998 235 L998 235 Z " />
<glyph glyph-name="H" unicode="H" horiz-adv-x="1237" d="M1138 0 L1138 19 L1016 55 L1016 605 L1138 641 L1138 660 L757 660 L757 641 L879 605 L879 368 L359 368 L359 605 L481 641 L481 660 L99 660 L99 641 L221 605 L221 55 L99 19 L99 0 L481 0 L481 19 L359 55 L359 313 L879 313 L879 55 L757 19 L757 0 L1138 0 L1138 0 Z " />
<glyph glyph-name="I" unicode="I" horiz-adv-x="595" d="M488 0 L488 19 L366 55 L366 605 L488 641 L488 660 L107 660 L107 641 L229 605 L229 55 L107 19 L107 0 L488 0 L488 0 Z " />
<glyph glyph-name="J" unicode="J" horiz-adv-x="595" d="M229 605 L229 50 C229 -40 189 -100 128 -100 C128 -100 81 -96 50 -91 L41 -91 C41 -91 26 -144 26 -147 C26 -163 46 -173 76 -173 C250 -173 366 -7 366 243 L366 605 L488 641 L488 660 L107 660 L107 641 L229 605 L229 605 Z " />
<glyph glyph-name="K" unicode="K" horiz-adv-x="1131" d="M1086 14 L986 40 L500 359 L917 620 L1019 646 L1019 660 L650 660 L650 642 L760 610 L446 396 L362 338 C366 335 412 303 412 303 L856 0 L1086 0 L1086 14 L1086 14 Z M482 0 L482 19 L360 55 L360 605 L482 641 L482 660 L101 660 L101 641 L223 605 L223 55 L101 19 L101 0 L482 0 L482 0 Z " />
<glyph glyph-name="L" unicode="L" horiz-adv-x="961" d="M854 220 L827 220 L732 55 L359 55 L359 605 L488 641 L488 660 L99 660 L99 641 L221 605 L221 55 L99 19 L99 0 L854 0 L854 220 L854 220 Z " />
<glyph glyph-name="M" unicode="M" horiz-adv-x="1469" d="M108 641 L243 605 L215 55 L92 19 L92 0 L433 0 L433 19 L305 55 L323 540 L685 -5 L754 -5 L1109 532 L1137 55 L1018 19 L1018 0 L1375 0 L1375 19 L1266 55 L1234 605 L1367 641 L1367 660 L1102 660 L751 118 L389 660 L107 660 L108 641 L108 641 Z " />
<glyph glyph-name="N" unicode="N" horiz-adv-x="1230" d="M104 641 L218 605 L218 55 L96 19 L96 0 L478 0 L478 19 L325 55 L325 513 C537 340 749 167 961 -6 L1015 -6 L1015 604 L1129 640 L1129 659 L755 659 L755 640 L908 604 L908 181 L323 659 L102 659 L104 641 L104 641 Z " />
<glyph glyph-name="O" unicode="O" horiz-adv-x="1231" d="M253 363 C253 518 388 621 589 621 C822 621 978 490 978 293 C978 141 845 40 647 40 C410 40 253 169 253 363 L253 363 Z M107 328 C107 125 311 -10 616 -10 C922 -10 1124 125 1124 328 C1124 533 922 670 616 670 C311 670 107 533 107 328 L107 328 Z " />
<glyph glyph-name="P" unicode="P" horiz-adv-x="951" d="M504 0 L504 19 L359 55 L359 290 L470 290 C694 290 844 366 844 479 C844 588 709 660 508 660 L99 660 L99 641 L221 605 L221 55 L99 19 L99 0 L504 0 L504 0 Z M359 345 L359 605 L475 605 C609 605 697 551 697 471 C697 395 618 345 500 345 L359 345 L359 345 Z " />
<glyph glyph-name="Q" unicode="Q" horiz-adv-x="1231" d="M1231 -121 L1231 -106 C1218 -111 1178 -115 1135 -115 C1034 -115 905 -20 795 8 C998 51 1124 169 1124 329 C1124 534 922 671 616 671 C311 671 107 534 107 329 C107 120 325 -20 653 -8 C781 -53 925 -146 1041 -146 C1112 -146 1189 -135 1231 -119 L1231 -121 L1231 -121 Z M253 365 C253 520 388 623 589 623 C822 623 978 492 978 295 C978 143 845 42 647 42 C410 42 253 171 253 365 L253 365 Z " />
<glyph glyph-name="R" unicode="R" horiz-adv-x="1041" d="M1021 0 L1021 18 L909 50 L626 304 C761 331 845 395 845 480 C845 589 711 661 510 661 L99 661 L99 642 L221 606 L221 56 L99 20 L99 1 L473 1 L473 20 L359 56 L359 291 L471 291 L795 1 L1021 0 L1021 0 Z M359 346 L359 606 L476 606 C607 606 696 552 696 472 C696 396 618 346 502 346 L359 346 L359 346 Z " />
<glyph glyph-name="S" unicode="S" horiz-adv-x="804" d="M549 594 C566 588 583 576 590 564 C607 540 629 507 645 483 C656 483 667 484 677 484 L665 627 C619 653 523 670 424 670 C247 670 130 598 130 489 C130 406 209 352 363 309 C513 267 589 223 589 163 C589 87 520 37 417 37 C362 37 281 55 206 83 C198 86 191 91 188 96 C169 126 143 167 125 197 C121 197 114 196 110 196 L93 196 L105 35 C168 7 291 -11 415 -11 C597 -11 719 67 719 185 C719 274 632 333 464 380 C333 417 264 459 264 520 C264 581 322 621 410 621 C452 621 502 611 548 594 L549 594 L549 594 Z " />
<glyph glyph-name="T" unicode="T" horiz-adv-x="1030" d="M737 0 L737 19 L584 55 L584 605 L839 605 L934 460 L961 460 L961 660 L69 660 L69 460 L96 460 L191 605 L447 605 L447 55 L294 19 L294 0 L737 0 L737 0 Z " />
<glyph glyph-name="U" unicode="U" horiz-adv-x="1237" d="M221 605 L221 234 C221 88 380 -10 619 -10 C857 -10 1016 88 1016 234 L1016 605 L1138 641 L1138 660 L757 660 L757 641 L909 605 L909 213 C909 114 810 48 661 48 C479 48 359 129 359 250 L359 605 L481 641 L481 660 L99 660 L99 641 L221 605 L221 605 Z " />
<glyph glyph-name="V" unicode="V" horiz-adv-x="1121" d="M433 660 L50 660 L50 642 L154 610 C278 405 400 199 525 -6 L590 -6 L987 619 L1073 645 L1073 659 L758 659 L758 640 L877 604 L586 131 C491 288 395 446 302 603 L436 639 L433 660 L433 660 Z " />
<glyph glyph-name="W" unicode="W" horiz-adv-x="1494" d="M415 660 L29 660 L29 642 L128 610 C221 405 317 201 407 -5 L461 -5 L471 15 L749 500 C839 332 931 164 1019 -5 L1073 -5 L1082 15 C1178 217 1272 419 1370 620 L1466 646 L1466 660 L1132 660 L1132 641 L1260 605 L1062 166 C972 332 883 499 792 665 L738 665 C647 499 557 332 467 165 C403 312 337 459 273 606 L417 642 L415 660 L415 660 Z " />
<glyph glyph-name="X" unicode="X" horiz-adv-x="1131" d="M458 660 L73 660 L73 642 L171 610 L488 327 C380 235 272 142 163 50 L56 18 L56 0 L410 0 L410 19 L276 55 L539 282 L795 54 L688 18 L688 -1 L1074 -1 L1074 15 L980 44 L632 347 L946 614 L1041 643 L1041 659 L716 659 L716 640 L833 604 L580 391 L336 604 L456 640 L458 660 L458 660 Z " />
<glyph glyph-name="Y" unicode="Y" horiz-adv-x="1095" d="M404 660 L47 660 L47 642 L145 610 L490 305 L490 55 L352 19 L352 0 L764 0 L764 19 L627 55 L627 309 L955 621 L1042 647 L1042 661 L719 661 L719 642 L836 606 L583 365 L301 606 L404 642 L404 660 L404 660 Z " />
<glyph glyph-name="Z" unicode="Z" horiz-adv-x="986" d="M156 480 L183 480 L278 605 L662 605 C488 412 314 218 137 25 L137 0 L848 0 L848 190 L821 190 L726 55 L305 55 C478 247 650 439 825 630 L825 660 L156 660 L156 480 L156 480 Z " />
<glyph glyph-name="bracketleft" unicode="&#x5b;" horiz-adv-x="381" d="M197 717 L374 717 L374 740 L102 740 L102 -150 L374 -150 L374 -127 L197 -127 L197 717 L197 717 Z " />
<glyph glyph-name="backslash" unicode="&#x5c;" horiz-adv-x="381" d="M305 -120 L381 -120 L76 750 L0 750 L305 -120 L305 -120 Z " />
<glyph glyph-name="bracketright" unicode="&#x5d;" horiz-adv-x="374" d="M180 717 L180 -127 L8 -127 L8 -150 L275 -150 L275 740 L8 740 L8 717 L180 717 L180 717 Z " />
<glyph glyph-name="asciicircum" unicode="&#x5e;" horiz-adv-x="519" d="M485 530 L282 705 L236 705 L41 530 L60 530 L259 623 L467 530 L485 530 L485 530 Z " />
<glyph glyph-name="underscore" unicode="&#x5f;" horiz-adv-x="763" d="M38 -90 L38 -140 L725 -140 L725 -90 L38 -90 L38 -90 Z " />
<glyph glyph-name="grave" unicode="&#x60;" horiz-adv-x="519" d="M269 530 L136 707 L14 707 C14 707 32 662 58 646 L250 530 L269 530 L269 530 Z " />
<glyph glyph-name="a" unicode="a" horiz-adv-x="746" d="M217 337 C217 381 262 414 322 414 C413 414 461 380 461 329 L461 258 C204 219 73 156 73 89 C73 30 140 -10 240 -10 C327 -10 409 10 464 50 C479 13 528 -11 595 -11 C655 -11 709 11 734 43 L729 49 C728 47 706 46 674 46 C618 46 581 54 581 66 L581 349 C581 415 507 459 360 459 C206 459 88 404 88 331 C88 313 101 302 121 303 L208 303 L215 308 L217 337 L217 337 Z M459 221 L459 76 C423 58 368 49 307 49 C236 49 189 73 189 108 C189 151 281 193 459 221 L459 221 Z " />
<glyph glyph-name="b" unicode="b" horiz-adv-x="856" d="M53 693 L110 661 C136 647 153 637 153 637 L153 -10 L162 -10 L203 17 C246 1 333 -10 430 -10 C639 -10 780 95 780 252 C780 377 671 460 510 460 C421 460 333 437 275 402 L275 750 L250 750 L53 699 L53 693 L53 693 Z M275 80 L275 353 C301 377 359 393 423 393 C563 393 658 328 658 231 C658 115 583 38 471 38 C397 38 317 55 275 80 L275 80 Z " />
<glyph glyph-name="c" unicode="c" horiz-adv-x="728" d="M655 105 C594 80 517 64 464 64 C304 64 197 138 197 250 C197 350 270 416 381 416 C435 416 491 397 523 368 L569 326 L580 326 L636 355 C670 375 662 386 636 411 C604 440 522 460 429 460 C217 460 76 358 76 205 C76 76 204 -10 398 -10 C504 -10 609 32 661 95 L661 105 L655 105 L655 105 Z " />
<glyph glyph-name="d" unicode="d" horiz-adv-x="876" d="M803 0 L803 18 L696 50 L696 754 L671 754 L475 715 L475 710 L542 675 C561 665 574 658 574 658 L574 450 C529 456 482 460 438 460 C220 460 73 354 73 194 C73 72 180 -10 339 -10 C430 -10 522 15 574 54 L587 0 L803 0 L803 0 Z M572 363 L572 89 C540 70 484 58 424 58 C285 58 192 123 192 220 C192 336 282 413 417 413 C417 413 478 394 572 364 L572 363 L572 363 Z " />
<glyph glyph-name="e" unicode="e" horiz-adv-x="737" d="M200 288 C215 366 281 416 374 416 C465 416 529 366 546 288 L200 288 Z M655 105 C594 80 517 64 464 64 C308 64 203 134 198 242 L607 242 L662 247 C662 375 557 460 400 460 C206 460 78 358 78 205 C78 76 206 -10 400 -10 C505 -10 610 32 662 95 L662 105 L655 105 L655 105 Z " />
<glyph glyph-name="f" unicode="f" horiz-adv-x="560" d="M404 0 L404 18 L305 50 L307 403 L507 403 L507 450 L307 450 L307 587 C307 625 368 667 459 667 C490 667 522 663 542 657 C563 650 583 646 583 646 L594 646 L624 694 C635 716 627 727 587 739 C587 739 551 749 534 749 C366 749 183 614 183 489 L183 449 L61 449 L61 402 L183 402 L183 49 L84 17 L84 -1 L404 0 L404 0 Z " />
<glyph glyph-name="g" unicode="g" horiz-adv-x="833" d="M246 303 C246 374 293 421 383 421 C478 421 542 372 542 299 C542 226 497 178 412 178 C313 178 246 228 246 303 L246 303 Z M122 300 C122 239 165 190 238 163 C157 143 105 109 105 74 C105 33 151 4 224 -6 C142 -24 90 -84 90 -123 C90 -193 198 -239 360 -239 C575 -239 719 -169 719 -65 C719 11 659 61 505 61 L319 61 C255 61 212 79 212 107 C212 127 236 145 275 152 C308 144 346 140 389 140 C569 140 662 206 662 304 C662 343 644 377 610 403 L754 398 L754 452 L534 442 C494 455 446 462 391 462 C212 462 119 398 119 302 L122 300 L122 300 Z M279 -8 L444 -8 C561 -8 607 -39 607 -85 C607 -160 514 -210 375 -210 C269 -210 198 -170 198 -111 C198 -61 230 -8 279 -8 L279 -8 Z " />
<glyph glyph-name="h" unicode="h" horiz-adv-x="900" d="M76 693 L133 661 C159 647 175 637 175 637 L175 50 L76 18 L76 0 L397 0 L397 18 L298 50 L298 351 C336 375 388 390 464 390 C557 390 618 353 618 297 L618 50 L519 18 L519 0 L839 0 L839 18 L740 50 L740 343 C740 413 656 460 531 460 C444 460 368 429 296 382 L296 751 L272 751 L75 700 L76 693 L76 693 Z " />
<glyph glyph-name="i" unicode="i" horiz-adv-x="484" d="M236 610 C291 610 328 634 328 670 C328 706 291 730 236 730 C182 730 145 706 145 670 C145 634 182 610 236 610 L236 610 Z M82 403 L139 371 C165 357 182 347 182 347 L182 50 L82 18 L82 0 L410 0 L410 18 L304 50 L304 460 L279 460 L82 409 L82 403 L82 403 Z " />
<glyph glyph-name="j" unicode="j" horiz-adv-x="484" d="M243 610 C298 610 334 634 334 670 C334 706 298 730 243 730 C188 730 151 706 151 670 C151 634 188 610 243 610 L243 610 Z M82 403 L139 371 C165 357 182 347 182 347 L182 -12 C182 -111 194 -172 85 -216 L85 -234 C293 -149 304 -87 304 0 L304 460 L279 460 L82 409 L82 403 L82 403 Z " />
<glyph glyph-name="k" unicode="k" horiz-adv-x="830" d="M766 450 L475 450 L475 429 L552 390 L298 255 L298 760 L273 760 L76 709 L76 703 L133 671 C159 657 175 647 175 647 L175 50 L76 18 L76 0 L404 0 L404 18 L298 50 L298 240 L604 0 L787 0 L787 18 L693 50 L404 273 L662 400 L766 432 L766 450 L766 450 Z " />
<glyph glyph-name="l" unicode="l" horiz-adv-x="455" d="M67 703 L124 671 C150 657 166 647 166 647 L166 50 L67 18 L67 0 L388 0 L388 18 L288 50 L288 760 L264 760 L67 709 L67 703 L67 703 Z " />
<glyph glyph-name="m" unicode="m" horiz-adv-x="1317" d="M69 403 L125 371 C151 357 168 347 168 347 L168 50 L69 18 L69 0 L389 0 L389 18 L290 50 L290 351 C328 375 378 390 449 390 C537 390 595 353 595 297 L595 50 L488 18 L488 0 L824 0 L824 18 L717 50 L717 343 C717 344 717 345 717 346 C760 373 813 390 886 390 C975 390 1034 353 1034 297 L1034 50 L928 18 L928 0 L1256 0 L1256 18 L1157 50 L1157 343 C1157 413 1076 460 954 460 C868 460 787 425 711 373 C691 426 618 460 516 460 C435 460 362 429 290 382 L290 384 L287 384 C285 417 284 461 284 461 L259 461 L69 410 L69 403 L69 403 Z " />
<glyph glyph-name="n" unicode="n" horiz-adv-x="900" d="M76 403 L133 371 C159 357 175 347 175 347 L175 50 L76 18 L76 0 L404 0 L404 18 L298 50 L298 351 C336 375 388 390 464 390 C557 390 618 353 618 297 L618 50 L511 18 L511 0 L839 0 L839 18 L740 50 L740 343 C740 413 656 460 531 460 C444 460 368 429 296 382 L296 384 L293 384 C291 417 290 461 290 461 L265 461 L75 410 L76 403 L76 403 Z " />
<glyph glyph-name="o" unicode="o" horiz-adv-x="821" d="M217 225 C217 341 275 418 389 418 C519 418 604 341 604 225 C604 109 546 32 432 32 C302 32 217 109 217 225 L217 225 Z M76 225 C76 84 211 -10 410 -10 C632 -10 745 84 745 225 C745 366 610 460 410 460 C189 460 76 366 76 225 L76 225 Z " />
<glyph glyph-name="p" unicode="p" horiz-adv-x="873" d="M76 403 L133 371 C159 357 175 347 175 347 L175 -180 L76 -212 L76 -230 L404 -230 L404 -212 L298 -180 L298 -3 C336 -7 386 -10 441 -10 C655 -10 796 94 796 250 C796 376 694 460 540 460 C462 460 366 433 294 393 C293 424 291 460 291 460 L267 460 L76 409 L76 403 L76 403 Z M298 80 L298 362 C337 381 397 393 453 393 C589 393 679 321 679 214 C679 108 600 38 481 38 C417 38 343 55 298 80 L298 80 Z " />
<glyph glyph-name="q" unicode="q" horiz-adv-x="859" d="M798 -230 L798 -212 L699 -180 L699 460 L690 460 L633 442 C589 453 519 460 441 460 C223 460 76 354 76 194 C76 72 183 -10 342 -10 C406 -10 497 16 577 56 L577 -181 L470 -213 L470 -231 L798 -230 L798 -230 Z M577 367 L577 91 C531 69 473 55 427 55 C288 55 195 120 195 217 C195 333 285 410 420 410 C461 410 520 393 575 366 L577 367 L577 367 Z " />
<glyph glyph-name="r" unicode="r" horiz-adv-x="577" d="M450 460 C410 460 357 423 298 367 L298 375 L296 375 C294 408 293 459 293 459 L269 459 L78 408 L78 402 L134 370 C160 356 177 346 177 346 L177 49 L78 17 L78 -1 L406 -1 L406 17 L299 49 L299 332 C331 361 359 380 377 380 C407 380 446 375 471 368 C488 363 529 352 529 352 L540 352 C563 383 578 409 578 418 C578 442 500 459 452 459 L450 460 L450 460 Z " />
<glyph glyph-name="s" unicode="s" horiz-adv-x="651" d="M520 320 L520 425 L519 400 L520 425 C465 446 383 460 316 460 C195 460 114 409 114 332 C114 262 169 223 278 199 C383 176 438 145 438 96 C438 54 386 26 310 26 C197 26 153 83 113 135 L92 135 L92 20 C151 2 241 -10 319 -10 C455 -10 545 43 545 122 C545 196 484 239 366 265 C272 286 223 315 223 362 C223 397 262 421 323 421 C325 421 337 421 337 420 C395 416 453 384 481 340 C485 334 490 326 494 320 L520 320 L520 320 Z " />
<glyph glyph-name="t" unicode="t" horiz-adv-x="540" d="M494 53 L490 63 C487 59 447 57 389 57 C320 57 275 77 275 107 L275 403 L476 403 L476 450 L275 450 L275 560 L265 560 L153 450 L27 409 L27 403 L153 403 L153 90 C153 30 218 -10 317 -10 C395 -10 467 15 494 53 L494 53 Z " />
<glyph glyph-name="u" unicode="u" horiz-adv-x="842" d="M581 400 L581 101 C536 76 475 63 413 63 C322 63 261 100 261 155 L261 450 L40 450 L40 432 L139 400 L139 107 C139 37 221 -10 343 -10 C412 -10 499 16 583 68 L583 0 L812 0 L812 18 L705 50 L705 450 L476 450 L476 432 L581 400 L581 400 Z " />
<glyph glyph-name="v" unicode="v" horiz-adv-x="839" d="M464 431 L583 395 L407 113 L204 400 L337 432 L337 450 L-37 450 L-37 432 L70 400 C163 267 258 134 351 0 L383 0 L655 395 L771 431 L771 450 L464 450 L464 431 L464 431 Z " />
<glyph glyph-name="w" unicode="w" horiz-adv-x="1288" d="M937 431 L1056 395 L824 11 L832 0 L864 0 C952 132 1041 264 1129 395 L1245 431 L1245 450 L937 450 L937 431 L937 431 Z M824 11 L888 118 C813 229 737 339 664 451 L632 451 L626 439 L346 11 L352 1 L389 1 L615 326 L824 11 L824 11 Z M406 451 L34 451 L34 433 L136 401 L346 11 L415 117 L264 401 L406 433 L406 451 L406 451 Z " />
<glyph glyph-name="x" unicode="x" horiz-adv-x="819" d="M432 0 L745 0 L745 18 L664 50 L438 252 C497 301 557 351 618 400 L709 432 L709 450 L455 450 L455 432 L546 400 L412 275 C366 316 319 358 275 399 L386 431 L386 449 L60 449 L60 431 L140 399 L333 224 C269 166 204 108 140 50 L52 18 L52 0 L322 0 L322 18 L212 50 L362 199 L525 50 L435 18 L432 0 L432 0 Z " />
<glyph glyph-name="y" unicode="y" horiz-adv-x="821" d="M381 450 L8 450 L8 432 L114 400 L392 10 L345 -65 C307 -131 264 -156 192 -156 L124 -156 L117 -160 L117 -211 C117 -232 133 -240 169 -240 C269 -240 333 -195 401 -80 L699 395 L812 431 L812 450 L514 450 L514 431 L632 395 L455 111 L247 400 L380 432 L381 450 L381 450 Z " />
<glyph glyph-name="z" unicode="z" horiz-adv-x="732" d="M107 305 L133 305 L197 405 L439 405 L111 18 L111 0 L618 0 L618 150 L592 150 L542 45 L273 45 C384 176 494 307 606 437 L606 450 L203 450 L143 460 L128 460 C128 459 127 450 127 450 L127 449 C121 404 114 349 107 304 L107 305 L107 305 Z " />
<glyph glyph-name="braceleft" unicode="&#x7b;" horiz-adv-x="381" d="M145 297 C226 318 275 366 275 430 C275 493 206 577 206 640 C206 708 258 729 334 727 L374 726 L374 749 L345 749 C200 749 102 722 102 608 C102 549 183 469 183 410 C183 348 133 308 46 308 L8 308 L8 284 L46 284 C133 284 183 242 183 181 C183 122 102 43 102 -16 C102 -135 200 -157 345 -157 L374 -157 L374 -134 L333 -136 C256 -140 206 -119 206 -48 C206 14 275 98 275 160 C275 225 226 274 145 296 L145 297 L145 297 Z " />
<glyph glyph-name="bar" unicode="&#x7c;" horiz-adv-x="343" d="M114 -260 L191 -260 L191 760 L114 760 L114 -260 L114 -260 Z " />
<glyph glyph-name="braceright" unicode="&#x7d;" horiz-adv-x="397" d="M389 285 L389 309 L351 309 C264 309 214 349 214 411 C214 470 294 550 294 609 C294 723 197 750 52 750 L23 750 L23 727 L63 728 C139 730 191 709 191 641 C191 578 122 494 122 431 C122 367 171 319 252 298 C171 276 122 227 122 162 C122 100 191 16 191 -46 C191 -117 140 -138 64 -134 L23 -132 L23 -155 L52 -155 C197 -155 294 -133 294 -14 C294 45 214 124 214 183 C214 244 264 286 351 286 L389 285 L389 285 Z " />
<glyph glyph-name="asciitilde" unicode="&#x7e;" horiz-adv-x="519" d="M47 225 C67 264 85 290 137 290 C200 290 284 225 346 225 C421 225 455 275 491 350 L471 350 C452 310 433 283 381 283 C319 283 235 348 172 348 C96 348 64 299 27 225 L47 225 L47 225 Z " />
<glyph glyph-name="exclamdown" unicode="&#xa1;" horiz-adv-x="374" d="M191 460 C136 460 99 436 99 400 C99 364 136 340 191 340 C246 340 282 364 282 400 C282 436 246 460 191 460 L191 460 Z M107 -210 L275 -210 L206 260 L175 260 L107 -210 L107 -210 Z " />
<glyph glyph-name="cent" unicode="&#xa2;" horiz-adv-x="728" d="M655 105 C594 80 517 64 464 64 C436 64 410 66 386 70 L386 416 C438 415 491 396 522 368 L568 326 L578 326 L635 355 C668 375 661 386 635 411 C598 444 493 465 386 458 L386 519 L323 519 L323 450 C171 422 75 330 75 204 C75 92 171 12 323 -7 L323 -81 L386 -81 L386 -11 C499 -13 606 29 659 94 L659 104 L655 105 L655 105 Z M323 86 C244 116 195 174 195 249 C195 331 244 390 323 409 L323 86 Z " />
<glyph glyph-name="guillemotleft" unicode="&#xab;" horiz-adv-x="658" d="M610 425 L305 248 L610 70 L627 70 L458 248 L627 425 L610 425 L610 425 Z M328 425 L23 248 L328 70 L345 70 L175 248 L345 425 L328 425 L328 425 Z " />
<glyph glyph-name="acute" unicode="&#xb4;" horiz-adv-x="519" d="M259 530 L278 530 L470 646 C496 662 514 707 514 707 L392 707 L259 530 L259 530 Z " />
<glyph glyph-name="periodcentered" unicode="&#xb7;" horiz-adv-x="381" d="M191 210 C246 210 282 234 282 270 C282 306 246 330 191 330 C136 330 99 306 99 270 C99 234 136 210 191 210 L191 210 Z " />
<glyph glyph-name="guillemotright" unicode="&#xbb;" horiz-adv-x="656" d="M305 425 L473 248 L305 70 L322 70 L626 248 L322 425 L305 425 L305 425 Z M31 425 L198 248 L31 70 L47 70 L351 248 L47 425 L31 425 L31 425 Z " />
<glyph glyph-name="questiondown" unicode="&#xbf;" horiz-adv-x="729" d="M406 455 C351 455 314 431 314 395 C314 359 351 335 406 335 C461 335 497 359 497 395 C497 431 461 455 406 455 L406 455 Z M534 -67 C534 -67 629 -58 668 -58 C668 -34 645 -18 610 -18 L546 -18 C546 -18 537 -28 534 -28 L534 -67 L534 -67 Z M534 -67 C534 -132 481 -176 400 -176 C294 -176 224 -124 224 -45 C224 17 319 77 461 105 C461 151 421 260 421 260 L391 260 C391 260 381 218 374 175 C198 131 84 46 84 -45 C84 -150 191 -220 352 -220 C542 -220 668 -155 668 -58 L534 -67 L534 -67 Z " />
<glyph glyph-name="Agrave" unicode="&#xc0;" horiz-adv-x="1141" d="M566 705 L433 864 L311 864 C311 864 330 824 356 809 L548 705 L566 705 L566 705 Z M711 0 L1088 0 L1088 16 L990 45 C859 252 728 459 597 666 L529 666 L143 51 L24 19 L24 1 L369 1 L369 19 L247 51 L349 220 L737 220 L737 222 L844 51 L709 19 L711 0 L711 0 Z M705 275 L383 275 L542 537 L705 275 L705 275 Z " />
<glyph glyph-name="Aacute" unicode="&#xc1;" horiz-adv-x="1141" d="M557 705 L575 705 L767 809 C793 824 812 864 812 864 L690 864 L557 705 L557 705 Z M711 0 L1088 0 L1088 16 L990 45 C859 252 728 459 597 666 L529 666 L143 51 L24 19 L24 1 L369 1 L369 19 L247 51 L349 220 L737 220 L737 222 L844 51 L709 19 L711 0 L711 0 Z M705 275 L383 275 L542 537 L705 275 L705 275 Z " />
<glyph glyph-name="Acircumflex" unicode="&#xc2;" horiz-adv-x="1141" d="M790 705 L587 863 L542 863 L346 705 L365 705 L565 788 L772 705 L790 705 L790 705 Z M711 0 L1088 0 L1088 16 L990 45 C859 252 728 459 597 666 L529 666 L143 51 L24 19 L24 1 L369 1 L369 19 L247 51 L349 220 L737 220 L737 222 L844 51 L709 19 L711 0 L711 0 Z M705 275 L383 275 L542 537 L705 275 L705 275 Z " />
<glyph glyph-name="Atilde" unicode="&#xc3;" horiz-adv-x="1141" d="M360 728 C380 763 398 786 450 786 C513 786 597 728 659 728 C734 728 767 773 804 840 L784 840 C764 804 746 780 694 780 C632 780 548 838 485 838 C409 838 377 794 340 728 L360 728 L360 728 Z M711 0 L1088 0 L1088 16 L990 45 C859 252 728 459 597 666 L529 666 L143 51 L24 19 L24 1 L369 1 L369 19 L247 51 L349 220 L737 220 L737 222 L844 51 L709 19 L711 0 L711 0 Z M705 275 L383 275 L542 537 L705 275 L705 275 Z " />
<glyph glyph-name="Adieresis" unicode="&#xc4;" horiz-adv-x="1141" d="M702 735 C748 735 778 755 778 785 C778 815 748 835 702 835 C656 835 626 815 626 785 C626 755 656 735 702 735 L702 735 Z M427 735 C473 735 504 755 504 785 C504 815 473 835 427 835 C381 835 351 815 351 785 C351 755 381 735 427 735 L427 735 Z M711 0 L1088 0 L1088 16 L990 45 C859 252 728 459 597 666 L529 666 L143 51 L24 19 L24 1 L369 1 L369 19 L247 51 L349 220 L737 220 L737 222 L844 51 L709 19 L711 0 L711 0 Z M705 275 L383 275 L542 537 L705 275 L705 275 Z " />
<glyph glyph-name="Aring" unicode="&#xc5;" horiz-adv-x="1141" d="M510 800 C510 831 531 852 561 852 C597 852 619 826 619 786 C619 758 597 734 571 734 C537 734 510 764 510 800 L510 800 Z M435 793 C435 748 494 710 565 710 C635 710 694 749 694 795 C694 844 642 876 565 876 C487 876 435 843 435 793 L435 793 Z M711 0 L1088 0 L1088 16 L990 45 C859 252 728 459 597 666 L529 666 L143 51 L24 19 L24 1 L369 1 L369 19 L247 51 L349 220 L737 220 L737 222 L844 51 L709 19 L711 0 L711 0 Z M705 275 L383 275 L542 537 L705 275 L705 275 Z " />
<glyph glyph-name="Ccedilla" unicode="&#xc7;" horiz-adv-x="1094" d="M598 -81 C624 -44 642 -19 648 -10 C778 -7 897 12 955 38 L969 196 C960 196 952 197 944 197 C919 164 885 121 859 88 C856 84 850 79 844 76 C774 53 687 39 610 39 C392 39 247 159 247 340 C247 507 400 619 630 619 C693 619 761 607 816 588 L816 588 C825 585 833 580 836 575 C864 538 899 487 926 450 C934 450 943 451 952 451 L941 624 C891 652 767 670 630 670 C316 670 105 526 105 310 C105 121 299 -6 594 -11 C584 -24 552 -68 510 -130 L554 -143 C607 -150 644 -165 644 -180 C644 -200 621 -213 586 -213 C539 -213 496 -207 479 -197 L479 -208 C513 -228 565 -241 607 -241 C684 -241 735 -210 735 -164 C735 -129 682 -97 598 -82 L598 -81 L598 -81 Z " />
<glyph glyph-name="Egrave" unicode="&#xc8;" horiz-adv-x="992" d="M520 705 L388 864 L265 864 C265 864 284 824 310 809 L502 705 L520 705 L520 705 Z M885 180 L859 180 L771 55 L359 55 L359 313 L618 313 L682 233 L717 233 L717 448 L682 448 L618 368 L359 368 L359 605 L732 605 L821 490 L847 490 L847 660 L99 660 L99 641 L221 605 L221 55 L99 19 L99 0 L885 0 L885 180 L885 180 Z " />
<glyph glyph-name="Eacute" unicode="&#xc9;" horiz-adv-x="992" d="M511 705 L529 705 L722 809 C748 824 766 864 766 864 L644 864 L511 705 L511 705 Z M885 180 L859 180 L771 55 L359 55 L359 313 L618 313 L682 233 L717 233 L717 448 L682 448 L618 368 L359 368 L359 605 L732 605 L821 490 L847 490 L847 660 L99 660 L99 641 L221 605 L221 55 L99 19 L99 0 L885 0 L885 180 L885 180 Z " />
<glyph glyph-name="Ecircumflex" unicode="&#xca;" horiz-adv-x="992" d="M737 705 L534 863 L488 863 L293 705 L311 705 L511 788 L719 705 L737 705 L737 705 Z M885 180 L859 180 L771 55 L359 55 L359 313 L618 313 L682 233 L717 233 L717 448 L682 448 L618 368 L359 368 L359 605 L732 605 L821 490 L847 490 L847 660 L99 660 L99 641 L221 605 L221 55 L99 19 L99 0 L885 0 L885 180 L885 180 Z " />
<glyph glyph-name="Edieresis" unicode="&#xcb;" horiz-adv-x="992" d="M648 735 C694 735 725 755 725 785 C725 815 694 835 648 835 C603 835 572 815 572 785 C572 755 603 735 648 735 L648 735 Z M374 735 C420 735 450 755 450 785 C450 815 420 835 374 835 C328 835 298 815 298 785 C298 755 328 735 374 735 L374 735 Z M885 180 L859 180 L771 55 L359 55 L359 313 L618 313 L682 233 L717 233 L717 448 L682 448 L618 368 L359 368 L359 605 L732 605 L821 490 L847 490 L847 660 L99 660 L99 641 L221 605 L221 55 L99 19 L99 0 L885 0 L885 180 L885 180 Z " />
<glyph glyph-name="Igrave" unicode="&#xcc;" horiz-adv-x="595" d="M307 705 L174 864 L52 864 C52 864 70 824 96 809 L288 705 L307 705 L307 705 Z M488 0 L488 19 L366 55 L366 605 L488 641 L488 660 L107 660 L107 641 L229 605 L229 55 L107 19 L107 0 L488 0 L488 0 Z " />
<glyph glyph-name="Iacute" unicode="&#xcd;" horiz-adv-x="595" d="M298 705 L316 705 L508 809 C534 824 552 864 552 864 L430 864 L298 705 L298 705 Z M488 0 L488 19 L366 55 L366 605 L488 641 L488 660 L107 660 L107 641 L229 605 L229 55 L107 19 L107 0 L488 0 L488 0 Z " />
<glyph glyph-name="Icircumflex" unicode="&#xce;" horiz-adv-x="595" d="M523 705 L320 863 L275 863 L79 705 L98 705 L298 788 L505 705 L523 705 L523 705 Z M488 0 L488 19 L366 55 L366 605 L488 641 L488 660 L107 660 L107 641 L229 605 L229 55 L107 19 L107 0 L488 0 L488 0 Z " />
<glyph glyph-name="Idieresis" unicode="&#xcf;" horiz-adv-x="595" d="M435 735 C481 735 511 755 511 785 C511 815 481 835 435 835 C389 835 359 815 359 785 C359 755 389 735 435 735 L435 735 Z M160 735 C206 735 236 755 236 785 C236 815 206 835 160 835 C114 835 84 815 84 785 C84 755 114 735 160 735 L160 735 Z M488 0 L488 19 L366 55 L366 605 L488 641 L488 660 L107 660 L107 641 L229 605 L229 55 L107 19 L107 0 L488 0 L488 0 Z " />
<glyph glyph-name="Ntilde" unicode="&#xd1;" horiz-adv-x="1230" d="M427 728 C447 763 465 786 517 786 C580 786 665 728 728 728 C803 728 836 773 873 840 L853 840 C833 804 815 780 763 780 C700 780 615 838 552 838 C476 838 444 794 407 728 L427 728 L427 728 Z M104 641 L218 605 L218 55 L96 19 L96 0 L478 0 L478 19 L325 55 L325 513 C537 340 749 167 961 -6 L1015 -6 L1015 604 L1129 640 L1129 659 L755 659 L755 640 L908 604 L908 181 L323 659 L102 659 L104 641 L104 641 Z " />
<glyph glyph-name="Ograve" unicode="&#xd2;" horiz-adv-x="1231" d="M603 705 L470 864 L348 864 C348 864 366 824 392 809 L584 705 L603 705 L603 705 Z M253 363 C253 518 388 621 589 621 C822 621 978 490 978 293 C978 141 845 40 647 40 C410 40 253 169 253 363 L253 363 Z M107 328 C107 125 311 -10 616 -10 C922 -10 1124 125 1124 328 C1124 533 922 670 616 670 C311 670 107 533 107 328 L107 328 Z " />
<glyph glyph-name="Oacute" unicode="&#xd3;" horiz-adv-x="1231" d="M594 705 L612 705 L804 809 C830 824 848 864 848 864 L726 864 L594 705 L594 705 Z M253 363 C253 518 388 621 589 621 C822 621 978 490 978 293 C978 141 845 40 647 40 C410 40 253 169 253 363 L253 363 Z M107 328 C107 125 311 -10 616 -10 C922 -10 1124 125 1124 328 C1124 533 922 670 616 670 C311 670 107 533 107 328 L107 328 Z " />
<glyph glyph-name="Ocircumflex" unicode="&#xd4;" horiz-adv-x="1231" d="M819 705 L616 863 L571 863 L375 705 L394 705 L594 788 L801 705 L819 705 L819 705 Z M253 363 C253 518 388 621 589 621 C822 621 978 490 978 293 C978 141 845 40 647 40 C410 40 253 169 253 363 L253 363 Z M107 328 C107 125 311 -10 616 -10 C922 -10 1124 125 1124 328 C1124 533 922 670 616 670 C311 670 107 533 107 328 L107 328 Z " />
<glyph glyph-name="Otilde" unicode="&#xd5;" horiz-adv-x="1231" d="M380 728 C400 763 418 786 470 786 C532 786 618 728 680 728 C755 728 789 773 825 840 L806 840 C786 804 767 780 716 780 C653 780 568 838 505 838 C429 838 397 794 360 728 L380 728 L380 728 Z M253 363 C253 518 388 621 589 621 C822 621 978 490 978 293 C978 141 845 40 647 40 C410 40 253 169 253 363 L253 363 Z M107 328 C107 125 311 -10 616 -10 C922 -10 1124 125 1124 328 C1124 533 922 670 616 670 C311 670 107 533 107 328 L107 328 Z " />
<glyph glyph-name="Odieresis" unicode="&#xd6;" horiz-adv-x="1231" d="M731 735 C777 735 807 755 807 785 C807 815 777 835 731 835 C685 835 655 815 655 785 C655 755 685 735 731 735 L731 735 Z M456 735 C502 735 532 755 532 785 C532 815 502 835 456 835 C410 835 380 815 380 785 C380 755 410 735 456 735 L456 735 Z M253 363 C253 518 388 621 589 621 C822 621 978 490 978 293 C978 141 845 40 647 40 C410 40 253 169 253 363 L253 363 Z M107 328 C107 125 311 -10 616 -10 C922 -10 1124 125 1124 328 C1124 533 922 670 616 670 C311 670 107 533 107 328 L107 328 Z " />
<glyph glyph-name="Oslash" unicode="&#xd8;" horiz-adv-x="1231" d="M107 328 C107 230 154 148 238 89 L105 -9 L211 -9 L296 55 C380 14 488 -9 613 -9 C919 -9 1121 126 1121 329 C1121 429 1073 513 989 573 L1121 672 L1016 672 L931 608 C847 649 738 672 613 672 C308 672 104 535 104 330 L107 328 L107 328 Z M850 548 L328 160 C278 214 250 284 250 366 C250 521 384 624 586 624 C693 624 783 597 850 549 L850 548 L850 548 Z M897 506 C947 451 975 379 975 296 C975 144 842 43 644 43 C536 43 444 70 377 118 L897 506 Z " />
<glyph glyph-name="Ugrave" unicode="&#xd9;" horiz-adv-x="1237" d="M644 705 L511 864 L389 864 C389 864 407 824 433 809 L626 705 L644 705 L644 705 Z M221 605 L221 234 C221 88 380 -10 619 -10 C857 -10 1016 88 1016 234 L1016 605 L1138 641 L1138 660 L757 660 L757 641 L909 605 L909 213 C909 114 810 48 661 48 C479 48 359 129 359 250 L359 605 L481 641 L481 660 L99 660 L99 641 L221 605 L221 605 Z " />
<glyph glyph-name="Uacute" unicode="&#xda;" horiz-adv-x="1237" d="M619 705 L638 705 L830 809 C856 824 874 864 874 864 L752 864 L619 705 L619 705 Z M221 605 L221 234 C221 88 380 -10 619 -10 C857 -10 1016 88 1016 234 L1016 605 L1138 641 L1138 660 L757 660 L757 641 L909 605 L909 213 C909 114 810 48 661 48 C479 48 359 129 359 250 L359 605 L481 641 L481 660 L99 660 L99 641 L221 605 L221 605 Z " />
<glyph glyph-name="Ucircumflex" unicode="&#xdb;" horiz-adv-x="1237" d="M861 705 L658 863 L612 863 L417 705 L435 705 L635 788 L842 705 L861 705 L861 705 Z M221 605 L221 234 C221 88 380 -10 619 -10 C857 -10 1016 88 1016 234 L1016 605 L1138 641 L1138 660 L757 660 L757 641 L909 605 L909 213 C909 114 810 48 661 48 C479 48 359 129 359 250 L359 605 L481 641 L481 660 L99 660 L99 641 L221 605 L221 605 Z " />
<glyph glyph-name="Udieresis" unicode="&#xdc;" horiz-adv-x="1237" d="M772 735 C818 735 848 755 848 785 C848 815 818 835 772 835 C726 835 696 815 696 785 C696 755 726 735 772 735 L772 735 Z M497 735 C543 735 574 755 574 785 C574 815 543 835 497 835 C452 835 421 815 421 785 C421 755 452 735 497 735 L497 735 Z M221 605 L221 234 C221 88 380 -10 619 -10 C857 -10 1016 88 1016 234 L1016 605 L1138 641 L1138 660 L757 660 L757 641 L909 605 L909 213 C909 114 810 48 661 48 C479 48 359 129 359 250 L359 605 L481 641 L481 660 L99 660 L99 641 L221 605 L221 605 Z " />
<glyph glyph-name="Yacute" unicode="&#xdd;" horiz-adv-x="1095" d="M543 705 L561 705 L754 809 C780 824 798 864 798 864 L676 864 L543 705 L543 705 Z M404 660 L47 660 L47 642 L145 610 L490 305 L490 55 L352 19 L352 0 L764 0 L764 19 L627 55 L627 309 L955 621 L1042 647 L1042 661 L719 661 L719 642 L836 606 L583 365 L301 606 L404 642 L404 660 L404 660 Z " />
<glyph glyph-name="agrave" unicode="&#xe0;" horiz-adv-x="746" d="M371 530 L238 707 L116 707 C116 707 134 662 160 646 L352 530 L371 530 L371 530 Z M217 337 C217 381 262 414 322 414 C413 414 461 380 461 329 L461 258 C204 219 73 156 73 89 C73 30 140 -10 240 -10 C327 -10 409 10 464 50 C479 13 528 -11 595 -11 C655 -11 709 11 734 43 L729 49 C728 47 706 46 674 46 C618 46 581 54 581 66 L581 349 C581 415 507 459 360 459 C206 459 88 404 88 331 C88 313 101 302 121 303 L208 303 L215 308 L217 337 L217 337 Z M459 221 L459 76 C423 58 368 49 307 49 C236 49 189 73 189 108 C189 151 281 193 459 221 L459 221 Z " />
<glyph glyph-name="aacute" unicode="&#xe1;" horiz-adv-x="746" d="M362 530 L380 530 L572 646 C598 662 616 707 616 707 L494 707 L362 530 L362 530 Z M217 337 C217 381 262 414 322 414 C413 414 461 380 461 329 L461 258 C204 219 73 156 73 89 C73 30 140 -10 240 -10 C327 -10 409 10 464 50 C479 13 528 -11 595 -11 C655 -11 709 11 734 43 L729 49 C728 47 706 46 674 46 C618 46 581 54 581 66 L581 349 C581 415 507 459 360 459 C206 459 88 404 88 331 C88 313 101 302 121 303 L208 303 L215 308 L217 337 L217 337 Z M459 221 L459 76 C423 58 368 49 307 49 C236 49 189 73 189 108 C189 151 281 193 459 221 L459 221 Z " />
<glyph glyph-name="acircumflex" unicode="&#xe2;" horiz-adv-x="746" d="M587 530 L384 705 L339 705 L143 530 L162 530 L362 623 L569 530 L587 530 L587 530 Z M217 337 C217 381 262 414 322 414 C413 414 461 380 461 329 L461 258 C204 219 73 156 73 89 C73 30 140 -10 240 -10 C327 -10 409 10 464 50 C479 13 528 -11 595 -11 C655 -11 709 11 734 43 L729 49 C728 47 706 46 674 46 C618 46 581 54 581 66 L581 349 C581 415 507 459 360 459 C206 459 88 404 88 331 C88 313 101 302 121 303 L208 303 L215 308 L217 337 L217 337 Z M459 221 L459 76 C423 58 368 49 307 49 C236 49 189 73 189 108 C189 151 281 193 459 221 L459 221 Z " />
<glyph glyph-name="atilde" unicode="&#xe3;" horiz-adv-x="746" d="M127 555 C146 594 165 620 217 620 C279 620 363 555 426 555 C500 555 534 605 571 680 L551 680 C531 640 513 613 461 613 C398 613 314 678 252 678 C175 678 143 629 107 555 L127 555 L127 555 Z M217 337 C217 381 262 414 322 414 C413 414 461 380 461 329 L461 258 C204 219 73 156 73 89 C73 30 140 -10 240 -10 C327 -10 409 10 464 50 C479 13 528 -11 595 -11 C655 -11 709 11 734 43 L729 49 C728 47 706 46 674 46 C618 46 581 54 581 66 L581 349 C581 415 507 459 360 459 C206 459 88 404 88 331 C88 313 101 302 121 303 L208 303 L215 308 L217 337 L217 337 Z M459 221 L459 76 C423 58 368 49 307 49 C236 49 189 73 189 108 C189 151 281 193 459 221 L459 221 Z " />
<glyph glyph-name="adieresis" unicode="&#xe4;" horiz-adv-x="746" d="M476 570 C522 570 552 590 552 620 C552 650 522 670 476 670 C430 670 400 650 400 620 C400 590 430 570 476 570 L476 570 Z M201 570 C247 570 278 590 278 620 C278 650 247 670 201 670 C156 670 125 650 125 620 C125 590 156 570 201 570 L201 570 Z M217 337 C217 381 262 414 322 414 C413 414 461 380 461 329 L461 258 C204 219 73 156 73 89 C73 30 140 -10 240 -10 C327 -10 409 10 464 50 C479 13 528 -11 595 -11 C655 -11 709 11 734 43 L729 49 C728 47 706 46 674 46 C618 46 581 54 581 66 L581 349 C581 415 507 459 360 459 C206 459 88 404 88 331 C88 313 101 302 121 303 L208 303 L215 308 L217 337 L217 337 Z M459 221 L459 76 C423 58 368 49 307 49 C236 49 189 73 189 108 C189 151 281 193 459 221 L459 221 Z " />
<glyph glyph-name="aring" unicode="&#xe5;" horiz-adv-x="746" d="M291 625 C291 656 313 677 343 677 C378 677 401 651 401 611 C401 583 378 559 352 559 C319 559 291 589 291 625 L291 625 Z M217 618 C217 573 276 535 346 535 C417 535 476 574 476 620 C476 669 424 701 346 701 C269 701 217 668 217 618 L217 618 Z M217 337 C217 381 262 414 322 414 C413 414 461 380 461 329 L461 258 C204 219 73 156 73 89 C73 30 140 -10 240 -10 C327 -10 409 10 464 50 C479 13 528 -11 595 -11 C655 -11 709 11 734 43 L729 49 C728 47 706 46 674 46 C618 46 581 54 581 66 L581 349 C581 415 507 459 360 459 C206 459 88 404 88 331 C88 313 101 302 121 303 L208 303 L215 308 L217 337 L217 337 Z M459 221 L459 76 C423 58 368 49 307 49 C236 49 189 73 189 108 C189 151 281 193 459 221 L459 221 Z " />
<glyph glyph-name="ccedilla" unicode="&#xe7;" horiz-adv-x="728" d="M655 105 C594 80 517 64 464 64 C304 64 197 138 197 250 C197 350 270 416 381 416 C435 416 491 397 523 368 L569 326 L580 326 L636 355 C670 375 662 386 636 411 C604 440 522 460 429 460 C217 460 76 358 76 205 C76 80 197 -5 381 -10 C372 -23 340 -67 298 -129 L342 -142 C395 -149 432 -164 432 -179 C432 -199 409 -212 374 -212 C327 -212 284 -206 267 -196 L267 -207 C301 -227 352 -240 395 -240 C471 -240 523 -209 523 -163 C523 -128 470 -96 386 -81 C413 -42 432 -16 436 -9 C528 0 615 39 661 94 L661 104 L655 105 L655 105 Z " />
<glyph glyph-name="egrave" unicode="&#xe8;" horiz-adv-x="737" d="M394 530 L261 707 L139 707 C139 707 157 662 183 646 L375 530 L394 530 L394 530 Z M200 288 C215 366 281 416 374 416 C465 416 529 366 546 288 L200 288 Z M655 105 C594 80 517 64 464 64 C308 64 203 134 198 242 L607 242 L662 247 C662 375 557 460 400 460 C206 460 78 358 78 205 C78 76 206 -10 400 -10 C505 -10 610 32 662 95 L662 105 L655 105 L655 105 Z " />
<glyph glyph-name="eacute" unicode="&#xe9;" horiz-adv-x="737" d="M384 530 L403 530 L595 646 C621 662 639 707 639 707 L517 707 L384 530 L384 530 Z M200 288 C215 366 281 416 374 416 C465 416 529 366 546 288 L200 288 Z M655 105 C594 80 517 64 464 64 C308 64 203 134 198 242 L607 242 L662 247 C662 375 557 460 400 460 C206 460 78 358 78 205 C78 76 206 -10 400 -10 C505 -10 610 32 662 95 L662 105 L655 105 L655 105 Z " />
<glyph glyph-name="ecircumflex" unicode="&#xea;" horiz-adv-x="737" d="M610 530 L407 705 L362 705 L166 530 L185 530 L384 623 L592 530 L610 530 L610 530 Z M200 288 C215 366 281 416 374 416 C465 416 529 366 546 288 L200 288 Z M655 105 C594 80 517 64 464 64 C308 64 203 134 198 242 L607 242 L662 247 C662 375 557 460 400 460 C206 460 78 358 78 205 C78 76 206 -10 400 -10 C505 -10 610 32 662 95 L662 105 L655 105 L655 105 Z " />
<glyph glyph-name="edieresis" unicode="&#xeb;" horiz-adv-x="737" d="M522 570 C568 570 598 590 598 620 C598 650 568 670 522 670 C476 670 446 650 446 620 C446 590 476 570 522 570 L522 570 Z M247 570 C293 570 323 590 323 620 C323 650 293 670 247 670 C201 670 171 650 171 620 C171 590 201 570 247 570 L247 570 Z M200 288 C215 366 281 416 374 416 C465 416 529 366 546 288 L200 288 Z M655 105 C594 80 517 64 464 64 C308 64 203 134 198 242 L607 242 L662 247 C662 375 557 460 400 460 C206 460 78 358 78 205 C78 76 206 -10 400 -10 C505 -10 610 32 662 95 L662 105 L655 105 L655 105 Z " />
<glyph glyph-name="igrave" unicode="&#xec;" horiz-adv-x="484" d="M244 530 L111 707 L-11 707 C-11 707 8 662 34 646 L226 530 L244 530 L244 530 Z M82 403 L139 371 C165 357 182 347 182 347 L182 50 L82 18 L82 0 L403 0 L403 18 L304 50 L304 460 L279 460 L82 409 L82 403 L82 403 Z " />
<glyph glyph-name="iacute" unicode="&#xed;" horiz-adv-x="484" d="M235 530 L253 530 L446 646 C471 662 490 707 490 707 L368 707 L235 530 L235 530 Z M82 403 L139 371 C165 357 182 347 182 347 L182 50 L82 18 L82 0 L403 0 L403 18 L304 50 L304 460 L279 460 L82 409 L82 403 L82 403 Z " />
<glyph glyph-name="icircumflex" unicode="&#xee;" horiz-adv-x="484" d="M461 530 L258 705 L212 705 L17 530 L35 530 L235 623 L442 530 L461 530 L461 530 Z M82 403 L139 371 C165 357 182 347 182 347 L182 50 L82 18 L82 0 L403 0 L403 18 L304 50 L304 460 L279 460 L82 409 L82 403 L82 403 Z " />
<glyph glyph-name="idieresis" unicode="&#xef;" horiz-adv-x="484" d="M372 570 C418 570 449 590 449 620 C449 650 418 670 372 670 C327 670 296 650 296 620 C296 590 327 570 372 570 L372 570 Z M98 570 C143 570 174 590 174 620 C174 650 143 670 98 670 C52 670 21 650 21 620 C21 590 52 570 98 570 L98 570 Z M82 403 L139 371 C165 357 182 347 182 347 L182 50 L82 18 L82 0 L403 0 L403 18 L304 50 L304 460 L279 460 L82 409 L82 403 L82 403 Z " />
<glyph glyph-name="ntilde" unicode="&#xf1;" horiz-adv-x="900" d="M246 555 C265 594 284 620 336 620 C398 620 482 555 545 555 C619 555 653 605 690 680 L670 680 C650 640 632 613 580 613 C517 613 433 678 371 678 C294 678 262 629 226 555 L246 555 L246 555 Z M76 403 L133 371 C159 357 175 347 175 347 L175 50 L76 18 L76 0 L404 0 L404 18 L298 50 L298 351 C336 375 388 390 464 390 C557 390 618 353 618 297 L618 50 L511 18 L511 0 L839 0 L839 18 L740 50 L740 343 C740 413 656 460 531 460 C444 460 368 429 296 382 L296 384 L293 384 C291 417 290 461 290 461 L265 461 L75 410 L76 403 L76 403 Z " />
<glyph glyph-name="ograve" unicode="&#xf2;" horiz-adv-x="821" d="M420 530 L287 707 L165 707 C165 707 183 662 209 646 L401 530 L420 530 L420 530 Z M217 225 C217 341 275 418 389 418 C519 418 604 341 604 225 C604 109 546 32 432 32 C302 32 217 109 217 225 L217 225 Z M76 225 C76 84 211 -10 410 -10 C632 -10 745 84 745 225 C745 366 610 460 410 460 C189 460 76 366 76 225 L76 225 Z " />
<glyph glyph-name="oacute" unicode="&#xf3;" horiz-adv-x="821" d="M410 530 L429 530 L621 646 C647 662 665 707 665 707 L543 707 L410 530 L410 530 Z M217 225 C217 341 275 418 389 418 C519 418 604 341 604 225 C604 109 546 32 432 32 C302 32 217 109 217 225 L217 225 Z M76 225 C76 84 211 -10 410 -10 C632 -10 745 84 745 225 C745 366 610 460 410 460 C189 460 76 366 76 225 L76 225 Z " />
<glyph glyph-name="ocircumflex" unicode="&#xf4;" horiz-adv-x="821" d="M636 530 L433 705 L388 705 L192 530 L211 530 L410 623 L618 530 L636 530 L636 530 Z M217 225 C217 341 275 418 389 418 C519 418 604 341 604 225 C604 109 546 32 432 32 C302 32 217 109 217 225 L217 225 Z M76 225 C76 84 211 -10 410 -10 C632 -10 745 84 745 225 C745 366 610 460 410 460 C189 460 76 366 76 225 L76 225 Z " />
<glyph glyph-name="otilde" unicode="&#xf5;" horiz-adv-x="821" d="M198 555 C218 594 236 620 288 620 C351 620 435 555 497 555 C572 555 606 605 642 680 L623 680 C603 640 584 613 532 613 C470 613 386 678 323 678 C247 678 215 629 179 555 L198 555 L198 555 Z M217 225 C217 341 275 418 389 418 C519 418 604 341 604 225 C604 109 546 32 432 32 C302 32 217 109 217 225 L217 225 Z M76 225 C76 84 211 -10 410 -10 C632 -10 745 84 745 225 C745 366 610 460 410 460 C189 460 76 366 76 225 L76 225 Z " />
<glyph glyph-name="odieresis" unicode="&#xf6;" horiz-adv-x="821" d="M548 570 C594 570 624 590 624 620 C624 650 594 670 548 670 C502 670 471 650 471 620 C471 590 502 570 548 570 L548 570 Z M273 570 C319 570 349 590 349 620 C349 650 319 670 273 670 C227 670 197 650 197 620 C197 590 227 570 273 570 L273 570 Z M217 225 C217 341 275 418 389 418 C519 418 604 341 604 225 C604 109 546 32 432 32 C302 32 217 109 217 225 L217 225 Z M76 225 C76 84 211 -10 410 -10 C632 -10 745 84 745 225 C745 366 610 460 410 460 C189 460 76 366 76 225 L76 225 Z " />
<glyph glyph-name="oslash" unicode="&#xf8;" horiz-adv-x="821" d="M76 225 C76 158 107 101 160 60 L76 -10 L177 -10 L220 26 C272 3 336 -10 409 -10 C630 -10 743 84 743 225 C743 292 713 349 659 390 L743 460 L642 460 L600 424 C548 447 484 460 410 460 C189 460 76 366 76 225 L76 225 Z M537 372 L241 127 C224 155 215 188 215 225 C215 341 273 418 388 418 C449 418 499 401 536 371 L537 372 L537 372 Z M578 322 C595 294 604 261 604 224 C604 108 546 31 432 31 C371 31 320 48 284 78 L578 322 Z " />
<glyph glyph-name="ugrave" unicode="&#xf9;" horiz-adv-x="842" d="M423 530 L290 707 L168 707 C168 707 186 662 212 646 L404 530 L423 530 L423 530 Z M581 400 L581 101 C536 76 475 63 413 63 C322 63 261 100 261 155 L261 450 L40 450 L40 432 L139 400 L139 107 C139 37 221 -10 343 -10 C412 -10 499 16 583 68 L583 0 L812 0 L812 18 L705 50 L705 450 L476 450 L476 432 L581 400 L581 400 Z " />
<glyph glyph-name="uacute" unicode="&#xfa;" horiz-adv-x="842" d="M413 530 L432 530 L624 646 C650 662 668 707 668 707 L546 707 L413 530 L413 530 Z M581 400 L581 101 C536 76 475 63 413 63 C322 63 261 100 261 155 L261 450 L40 450 L40 432 L139 400 L139 107 C139 37 221 -10 343 -10 C412 -10 499 16 583 68 L583 0 L812 0 L812 18 L705 50 L705 450 L476 450 L476 432 L581 400 L581 400 Z " />
<glyph glyph-name="ucircumflex" unicode="&#xfb;" horiz-adv-x="842" d="M639 530 L436 705 L391 705 L195 530 L214 530 L413 623 L621 530 L639 530 L639 530 Z M581 400 L581 101 C536 76 475 63 413 63 C322 63 261 100 261 155 L261 450 L40 450 L40 432 L139 400 L139 107 C139 37 221 -10 343 -10 C412 -10 499 16 583 68 L583 0 L812 0 L812 18 L705 50 L705 450 L476 450 L476 432 L581 400 L581 400 Z " />
<glyph glyph-name="udieresis" unicode="&#xfc;" horiz-adv-x="842" d="M551 570 C597 570 627 590 627 620 C627 650 597 670 551 670 C505 670 475 650 475 620 C475 590 505 570 551 570 L551 570 Z M276 570 C322 570 352 590 352 620 C352 650 322 670 276 670 C230 670 200 650 200 620 C200 590 230 570 276 570 L276 570 Z M581 400 L581 101 C536 76 475 63 413 63 C322 63 261 100 261 155 L261 450 L40 450 L40 432 L139 400 L139 107 C139 37 221 -10 343 -10 C412 -10 499 16 583 68 L583 0 L812 0 L812 18 L705 50 L705 450 L476 450 L476 432 L581 400 L581 400 Z " />
<glyph glyph-name="yacute" unicode="&#xfd;" horiz-adv-x="729" d="M406 530 L424 530 L616 646 C642 662 661 707 661 707 L539 707 L406 530 L406 530 Z M336 450 L-38 450 L-38 432 L69 400 L346 10 L299 -65 C261 -131 218 -156 146 -156 L78 -156 L72 -160 L72 -211 C72 -232 87 -240 124 -240 C223 -240 287 -195 356 -80 L653 395 L766 431 L766 450 L468 450 L468 431 L586 395 L409 111 L201 400 L334 432 L336 450 L336 450 Z " />
<glyph glyph-name="ydieresis" unicode="&#xff;" horiz-adv-x="729" d="M543 570 C589 570 619 590 619 620 C619 650 589 670 543 670 C497 670 467 650 467 620 C467 590 497 570 543 570 L543 570 Z M269 570 C314 570 345 590 345 620 C345 650 314 670 269 670 C223 670 192 650 192 620 C192 590 223 570 269 570 L269 570 Z M336 450 L-38 450 L-38 432 L69 400 L346 10 L299 -65 C261 -131 218 -156 146 -156 L78 -156 L72 -160 L72 -211 C72 -232 87 -240 124 -240 C223 -240 287 -195 356 -80 L653 395 L766 431 L766 450 L468 450 L468 431 L586 395 L409 111 L201 400 L334 432 L336 450 L336 450 Z " />
<glyph glyph-name="Amacron" unicode="&#x100;" horiz-adv-x="1141" d="M362 765 L767 765 L767 815 L362 815 L362 765 L362 765 Z M711 0 L1088 0 L1088 16 L990 45 C859 252 728 459 597 666 L529 666 L143 51 L24 19 L24 1 L369 1 L369 19 L247 51 L349 220 L737 220 L737 222 L844 51 L709 19 L711 0 L711 0 Z M705 275 L383 275 L542 537 L705 275 L705 275 Z " />
<glyph glyph-name="amacron" unicode="&#x101;" horiz-adv-x="746" d="M143 595 L549 595 L549 645 L143 645 L143 595 L143 595 Z M217 337 C217 381 262 414 322 414 C413 414 461 380 461 329 L461 258 C204 219 73 156 73 89 C73 30 140 -10 240 -10 C327 -10 409 10 464 50 C479 13 528 -11 595 -11 C655 -11 709 11 734 43 L729 49 C728 47 706 46 674 46 C618 46 581 54 581 66 L581 349 C581 415 507 459 360 459 C206 459 88 404 88 331 C88 313 101 302 121 303 L208 303 L215 308 L217 337 L217 337 Z M459 221 L459 76 C423 58 368 49 307 49 C236 49 189 73 189 108 C189 151 281 193 459 221 L459 221 Z " />
<glyph glyph-name="Abreve" unicode="&#x102;" horiz-adv-x="1141" d="M359 864 L337 864 C397 756 461 714 565 714 C668 714 732 756 792 864 L771 864 C735 800 677 774 565 774 C452 774 394 800 359 864 L359 864 Z M711 0 L1088 0 L1088 16 L990 45 C859 252 728 459 597 666 L529 666 L143 51 L24 19 L24 1 L369 1 L369 19 L247 51 L349 220 L737 220 L737 222 L844 51 L709 19 L711 0 L711 0 Z M705 275 L383 275 L542 537 L705 275 L705 275 Z " />
<glyph glyph-name="abreve" unicode="&#x103;" horiz-adv-x="746" d="M140 707 L119 707 C179 587 243 540 346 540 C450 540 514 587 574 707 L552 707 C517 635 459 607 346 607 C233 607 175 635 140 707 L140 707 Z M217 337 C217 381 262 414 322 414 C413 414 461 380 461 329 L461 258 C204 219 73 156 73 89 C73 30 140 -10 240 -10 C327 -10 409 10 464 50 C479 13 528 -11 595 -11 C655 -11 709 11 734 43 L729 49 C728 47 706 46 674 46 C618 46 581 54 581 66 L581 349 C581 415 507 459 360 459 C206 459 88 404 88 331 C88 313 101 302 121 303 L208 303 L215 308 L217 337 L217 337 Z M459 221 L459 76 C423 58 368 49 307 49 C236 49 189 73 189 108 C189 151 281 193 459 221 L459 221 Z " />
<glyph glyph-name="Cacute" unicode="&#x106;" horiz-adv-x="1094" d="M563 705 L581 705 L774 809 C799 824 818 864 818 864 L696 864 L563 705 L563 705 Z M957 39 L970 197 C961 197 954 198 946 198 C920 165 886 122 861 89 C857 85 851 80 845 77 C775 54 688 40 612 40 C394 40 249 160 249 341 C249 508 401 620 632 620 C694 620 763 608 818 589 L818 589 C827 586 835 581 838 576 C865 539 900 488 928 451 C935 451 944 452 954 452 L943 625 C893 653 769 671 632 671 C317 671 107 527 107 311 C107 119 308 -9 612 -9 C755 -9 893 11 957 40 L957 39 L957 39 Z " />
<glyph glyph-name="cacute" unicode="&#x107;" horiz-adv-x="728" d="M395 530 L413 530 L606 646 C632 662 650 707 650 707 L528 707 L395 530 L395 530 Z M655 105 C594 80 517 64 464 64 C304 64 197 138 197 250 C197 350 270 416 381 416 C435 416 491 397 523 368 L569 326 L580 326 L636 355 C670 375 662 386 636 411 C604 440 522 460 429 460 C217 460 76 358 76 205 C76 76 204 -10 398 -10 C504 -10 609 32 661 95 L661 105 L655 105 L655 105 Z " />
<glyph glyph-name="Ccaron" unicode="&#x10c;" horiz-adv-x="1094" d="M616 710 L819 867 L801 867 L594 784 L394 867 L375 867 L571 710 L616 710 L616 710 Z M957 39 L970 197 C961 197 954 198 946 198 C920 165 886 122 861 89 C857 85 851 80 845 77 C775 54 688 40 612 40 C394 40 249 160 249 341 C249 508 401 620 632 620 C694 620 763 608 818 589 L818 589 C827 586 835 581 838 576 C865 539 900 488 928 451 C935 451 944 452 954 452 L943 625 C893 653 769 671 632 671 C317 671 107 527 107 311 C107 119 308 -9 612 -9 C755 -9 893 11 957 40 L957 39 L957 39 Z " />
<glyph glyph-name="ccaron" unicode="&#x10d;" horiz-adv-x="728" d="M418 535 L621 710 L603 710 L395 617 L195 710 L177 710 L372 535 L418 535 L418 535 Z M655 105 C594 80 517 64 464 64 C304 64 197 138 197 250 C197 350 270 416 381 416 C435 416 491 397 523 368 L569 326 L580 326 L636 355 C670 375 662 386 636 411 C604 440 522 460 429 460 C217 460 76 358 76 205 C76 76 204 -10 398 -10 C504 -10 609 32 661 95 L661 105 L655 105 L655 105 Z " />
<glyph glyph-name="Dcaron" unicode="&#x10e;" horiz-adv-x="1182" d="M687 710 L890 867 L871 867 L664 784 L464 867 L446 867 L641 710 L687 710 L687 710 Z M543 0 C862 0 1076 130 1076 360 C1076 558 853 660 519 660 L99 660 L99 641 L221 605 L221 55 L99 19 L99 0 L543 0 L543 0 Z M359 55 L359 605 L479 605 C752 605 934 510 934 325 C934 153 777 55 540 55 L359 55 L359 55 Z " />
<glyph glyph-name="dcaron" unicode="&#x10f;" horiz-adv-x="876" d="M957 750 L842 750 L806 563 L824 563 L980 761 C966 744 972 750 957 750 L957 750 Z M803 0 L803 18 L696 50 L696 754 L671 754 L475 715 L475 710 L542 675 C561 665 574 658 574 658 L574 450 C529 456 482 460 438 460 C220 460 73 354 73 194 C73 72 180 -10 339 -10 C430 -10 522 15 574 54 L587 0 L803 0 L803 0 Z M572 363 L572 89 C540 70 484 58 424 58 C285 58 192 123 192 220 C192 336 282 413 417 413 C417 413 478 394 572 364 L572 363 L572 363 Z " />
<glyph glyph-name="Emacron" unicode="&#x112;" horiz-adv-x="992" d="M308 765 L714 765 L714 815 L308 815 L308 765 L308 765 Z M885 180 L859 180 L771 55 L359 55 L359 313 L618 313 L682 233 L717 233 L717 448 L682 448 L618 368 L359 368 L359 605 L732 605 L821 490 L847 490 L847 660 L99 660 L99 641 L221 605 L221 55 L99 19 L99 0 L885 0 L885 180 L885 180 Z " />
<glyph glyph-name="emacron" unicode="&#x113;" horiz-adv-x="737" d="M189 595 L595 595 L595 645 L189 645 L189 595 L189 595 Z M200 288 C215 366 281 416 374 416 C465 416 529 366 546 288 L200 288 Z M655 105 C594 80 517 64 464 64 C308 64 203 134 198 242 L607 242 L662 247 C662 375 557 460 400 460 C206 460 78 358 78 205 C78 76 206 -10 400 -10 C505 -10 610 32 662 95 L662 105 L655 105 L655 105 Z " />
<glyph glyph-name="Edot" unicode="&#x116;" horiz-adv-x="992" d="M519 725 C574 725 610 749 610 785 C610 821 574 845 519 845 C464 845 427 821 427 785 C427 749 464 725 519 725 L519 725 Z M885 180 L859 180 L771 55 L359 55 L359 313 L618 313 L682 233 L717 233 L717 448 L682 448 L618 368 L359 368 L359 605 L732 605 L821 490 L847 490 L847 660 L99 660 L99 641 L221 605 L221 55 L99 19 L99 0 L885 0 L885 180 L885 180 Z " />
<glyph glyph-name="edot" unicode="&#x117;" horiz-adv-x="737" d="M400 583 C455 583 491 607 491 643 C491 679 455 703 400 703 C345 703 308 679 308 643 C308 607 345 583 400 583 L400 583 Z M200 288 C215 366 281 416 374 416 C465 416 529 366 546 288 L200 288 Z M655 105 C594 80 517 64 464 64 C308 64 203 134 198 242 L607 242 L662 247 C662 375 557 460 400 460 C206 460 78 358 78 205 C78 76 206 -10 400 -10 C505 -10 610 32 662 95 L662 105 L655 105 L655 105 Z " />
<glyph glyph-name="Ecaron" unicode="&#x11a;" horiz-adv-x="992" d="M534 710 L737 867 L719 867 L511 784 L311 867 L293 867 L488 710 L534 710 L534 710 Z M885 180 L859 180 L771 55 L359 55 L359 313 L618 313 L682 233 L717 233 L717 448 L682 448 L618 368 L359 368 L359 605 L732 605 L821 490 L847 490 L847 660 L99 660 L99 641 L221 605 L221 55 L99 19 L99 0 L885 0 L885 180 L885 180 Z " />
<glyph glyph-name="ecaron" unicode="&#x11b;" horiz-adv-x="737" d="M407 535 L610 710 L592 710 L384 617 L185 710 L166 710 L362 535 L407 535 L407 535 Z M200 288 C215 366 281 416 374 416 C465 416 529 366 546 288 L200 288 Z M655 105 C594 80 517 64 464 64 C308 64 203 134 198 242 L607 242 L662 247 C662 375 557 460 400 460 C206 460 78 358 78 205 C78 76 206 -10 400 -10 C505 -10 610 32 662 95 L662 105 L655 105 L655 105 Z " />
<glyph glyph-name="Gbreve" unicode="&#x11e;" horiz-adv-x="1181" d="M403 864 L381 864 C441 756 505 714 609 714 C713 714 777 756 836 864 L815 864 C780 800 722 774 609 774 C496 774 438 800 403 864 L403 864 Z M998 235 L1112 271 L1112 290 L731 290 L731 271 L861 235 L861 67 C815 56 742 49 658 49 C413 49 250 166 250 341 C250 508 409 620 648 620 C719 620 792 608 850 588 C857 585 865 580 870 574 C897 537 932 487 960 450 C967 450 976 451 986 451 L975 624 C925 652 795 670 648 670 C325 670 108 526 108 310 C108 118 311 -10 615 -10 C781 -10 935 24 999 74 L998 235 L998 235 Z " />
<glyph glyph-name="gbreve" unicode="&#x11f;" horiz-adv-x="833" d="M195 707 L174 707 C233 587 298 540 401 540 C505 540 569 587 629 707 L607 707 C572 635 514 607 401 607 C288 607 230 635 195 707 L195 707 Z M246 303 C246 374 293 421 383 421 C478 421 542 372 542 299 C542 226 497 178 412 178 C313 178 246 228 246 303 L246 303 Z M122 300 C122 239 165 190 238 163 C157 143 105 109 105 74 C105 33 151 4 224 -6 C142 -24 90 -84 90 -123 C90 -193 198 -239 360 -239 C575 -239 719 -169 719 -65 C719 11 659 61 505 61 L319 61 C255 61 212 79 212 107 C212 127 236 145 275 152 C308 144 346 140 389 140 C569 140 662 206 662 304 C662 343 644 377 610 403 L754 398 L754 452 L534 442 C494 455 446 462 391 462 C212 462 119 398 119 302 L122 300 L122 300 Z M279 -8 L444 -8 C561 -8 607 -39 607 -85 C607 -160 514 -210 375 -210 C269 -210 198 -170 198 -111 C198 -61 230 -8 279 -8 L279 -8 Z " />
<glyph glyph-name="Itilde" unicode="&#x128;" horiz-adv-x="595" d="M85 705 C105 744 124 770 175 770 C238 770 322 705 384 705 C459 705 493 755 529 830 L510 830 C490 790 471 763 420 763 C357 763 273 828 211 828 C134 828 102 779 66 705 L85 705 L85 705 Z M488 0 L488 19 L366 55 L366 605 L488 641 L488 660 L107 660 L107 641 L229 605 L229 55 L107 19 L107 0 L488 0 L488 0 Z " />
<glyph glyph-name="itilde" unicode="&#x129;" horiz-adv-x="484" d="M31 530 C50 569 69 595 121 595 C183 595 267 530 330 530 C404 530 438 580 475 655 L455 655 C435 615 417 588 365 588 C302 588 218 653 156 653 C79 653 47 604 11 530 L31 530 L31 530 Z M82 403 L139 371 C165 357 182 347 182 347 L182 50 L82 18 L82 0 L403 0 L403 18 L304 50 L304 460 L279 460 L82 409 L82 403 L82 403 Z " />
<glyph glyph-name="Imacron" unicode="&#x12a;" horiz-adv-x="595" d="M95 765 L500 765 L500 815 L95 815 L95 765 L95 765 Z M488 0 L488 19 L366 55 L366 605 L488 641 L488 660 L107 660 L107 641 L229 605 L229 55 L107 19 L107 0 L488 0 L488 0 Z " />
<glyph glyph-name="imacron" unicode="&#x12b;" horiz-adv-x="484" d="M32 595 L438 595 L438 645 L32 645 L32 595 L32 595 Z M82 403 L139 371 C165 357 182 347 182 347 L182 50 L82 18 L82 0 L403 0 L403 18 L304 50 L304 460 L279 460 L82 409 L82 403 L82 403 Z " />
<glyph glyph-name="Idot" unicode="&#x130;" horiz-adv-x="595" d="M298 725 C352 725 389 749 389 785 C389 821 352 845 298 845 C243 845 206 821 206 785 C206 749 243 725 298 725 L298 725 Z M488 0 L488 19 L366 55 L366 605 L488 641 L488 660 L107 660 L107 641 L229 605 L229 55 L107 19 L107 0 L488 0 L488 0 Z " />
<glyph glyph-name="dotlessi" unicode="&#x131;" horiz-adv-x="484" d="M82 403 L139 371 C165 357 182 347 182 347 L182 50 L82 18 L82 0 L403 0 L403 18 L304 50 L304 460 L279 460 L82 409 L82 403 L82 403 Z " />
<glyph glyph-name="Lacute" unicode="&#x139;" horiz-adv-x="961" d="M267 705 L285 705 L478 809 C504 824 522 864 522 864 L400 864 L267 705 L267 705 Z M854 220 L827 220 L732 55 L359 55 L359 605 L488 641 L488 660 L99 660 L99 641 L221 605 L221 55 L99 19 L99 0 L854 0 L854 220 L854 220 Z " />
<glyph glyph-name="lacute" unicode="&#x13a;" horiz-adv-x="455" d="M203 765 L223 765 L424 869 C452 884 471 924 471 924 L343 924 L203 765 L203 765 Z M67 703 L124 671 C150 657 166 647 166 647 L166 50 L67 18 L67 0 L388 0 L388 18 L288 50 L288 760 L264 760 L67 709 L67 703 L67 703 Z " />
<glyph glyph-name="Lcaron" unicode="&#x13d;" horiz-adv-x="961" d="M787 660 L673 660 L636 473 L655 473 L810 671 C796 654 803 660 787 660 L787 660 Z M854 220 L827 220 L732 55 L359 55 L359 605 L488 641 L488 660 L99 660 L99 641 L221 605 L221 55 L99 19 L99 0 L854 0 L854 220 L854 220 Z " />
<glyph glyph-name="lcaron" unicode="&#x13e;" horiz-adv-x="455" d="M549 750 L435 750 L398 563 L417 563 L572 761 C558 744 565 750 549 750 L549 750 Z M67 703 L124 671 C150 657 166 647 166 647 L166 50 L67 18 L67 0 L388 0 L388 18 L288 50 L288 760 L264 760 L67 709 L67 703 L67 703 Z " />
<glyph glyph-name="Nacute" unicode="&#x143;" horiz-adv-x="1230" d="M633 705 L651 705 L844 809 C870 824 888 864 888 864 L766 864 L633 705 L633 705 Z M104 641 L218 605 L218 55 L96 19 L96 0 L478 0 L478 19 L325 55 L325 513 C537 340 749 167 961 -6 L1015 -6 L1015 604 L1129 640 L1129 659 L755 659 L755 640 L908 604 L908 181 L323 659 L102 659 L104 641 L104 641 Z " />
<glyph glyph-name="nacute" unicode="&#x144;" horiz-adv-x="900" d="M458 530 L476 530 L668 646 C694 662 713 707 713 707 L590 707 L458 530 L458 530 Z M76 403 L133 371 C159 357 175 347 175 347 L175 50 L76 18 L76 0 L404 0 L404 18 L298 50 L298 351 C336 375 388 390 464 390 C557 390 618 353 618 297 L618 50 L511 18 L511 0 L839 0 L839 18 L740 50 L740 343 C740 413 656 460 531 460 C444 460 368 429 296 382 L296 384 L293 384 C291 417 290 461 290 461 L265 461 L75 410 L76 403 L76 403 Z " />
<glyph glyph-name="Ncaron" unicode="&#x147;" horiz-adv-x="1230" d="M656 710 L859 867 L841 867 L633 784 L433 867 L415 867 L610 710 L656 710 L656 710 Z M104 641 L218 605 L218 55 L96 19 L96 0 L478 0 L478 19 L325 55 L325 513 C537 340 749 167 961 -6 L1015 -6 L1015 604 L1129 640 L1129 659 L755 659 L755 640 L908 604 L908 181 L323 659 L102 659 L104 641 L104 641 Z " />
<glyph glyph-name="ncaron" unicode="&#x148;" horiz-adv-x="900" d="M481 535 L684 710 L665 710 L458 617 L258 710 L240 710 L435 535 L481 535 L481 535 Z M76 403 L133 371 C159 357 175 347 175 347 L175 50 L76 18 L76 0 L404 0 L404 18 L298 50 L298 351 C336 375 388 390 464 390 C557 390 618 353 618 297 L618 50 L511 18 L511 0 L839 0 L839 18 L740 50 L740 343 C740 413 656 460 531 460 C444 460 368 429 296 382 L296 384 L293 384 C291 417 290 461 290 461 L265 461 L75 410 L76 403 L76 403 Z " />
<glyph glyph-name="Omacron" unicode="&#x14c;" horiz-adv-x="1231" d="M391 765 L796 765 L796 815 L391 815 L391 765 L391 765 Z M253 363 C253 518 388 621 589 621 C822 621 978 490 978 293 C978 141 845 40 647 40 C410 40 253 169 253 363 L253 363 Z M107 328 C107 125 311 -10 616 -10 C922 -10 1124 125 1124 328 C1124 533 922 670 616 670 C311 670 107 533 107 328 L107 328 Z " />
<glyph glyph-name="omacron" unicode="&#x14d;" horiz-adv-x="821" d="M208 595 L613 595 L613 645 L208 645 L208 595 L208 595 Z M217 225 C217 341 275 418 389 418 C519 418 604 341 604 225 C604 109 546 32 432 32 C302 32 217 109 217 225 L217 225 Z M76 225 C76 84 211 -10 410 -10 C632 -10 745 84 745 225 C745 366 610 460 410 460 C189 460 76 366 76 225 L76 225 Z " />
<glyph glyph-name="Racute" unicode="&#x154;" horiz-adv-x="1041" d="M467 705 L485 705 L677 809 C703 824 722 864 722 864 L600 864 L467 705 L467 705 Z M1021 0 L1021 18 L909 50 L626 304 C761 331 845 395 845 480 C845 589 711 661 510 661 L99 661 L99 642 L221 606 L221 56 L99 20 L99 1 L473 1 L473 20 L359 56 L359 291 L471 291 L795 1 L1021 0 L1021 0 Z M359 346 L359 606 L476 606 C607 606 696 552 696 472 C696 396 618 346 502 346 L359 346 L359 346 Z " />
<glyph glyph-name="racute" unicode="&#x155;" horiz-adv-x="577" d="M369 530 L388 530 L580 646 C606 662 624 707 624 707 L502 707 L369 530 L369 530 Z M450 460 C410 460 357 423 298 367 L298 375 L296 375 C294 408 293 459 293 459 L269 459 L78 408 L78 402 L134 370 C160 356 177 346 177 346 L177 49 L78 17 L78 -1 L406 -1 L406 17 L299 49 L299 332 C331 361 359 380 377 380 C407 380 446 375 471 368 C488 363 529 352 529 352 L540 352 C563 383 578 409 578 418 C578 442 500 459 452 459 L450 460 L450 460 Z " />
<glyph glyph-name="Rcaron" unicode="&#x158;" horiz-adv-x="1041" d="M505 710 L708 867 L690 867 L482 784 L282 867 L264 867 L459 710 L505 710 L505 710 Z M1021 0 L1021 18 L909 50 L626 304 C761 331 845 395 845 480 C845 589 711 661 510 661 L99 661 L99 642 L221 606 L221 56 L99 20 L99 1 L473 1 L473 20 L359 56 L359 291 L471 291 L795 1 L1021 0 L1021 0 Z M359 346 L359 606 L476 606 C607 606 696 552 696 472 C696 396 618 346 502 346 L359 346 L359 346 Z " />
<glyph glyph-name="rcaron" unicode="&#x159;" horiz-adv-x="577" d="M392 535 L595 710 L577 710 L369 617 L169 710 L151 710 L346 535 L392 535 L392 535 Z M450 460 C410 460 357 423 298 367 L298 375 L296 375 C294 408 293 459 293 459 L269 459 L78 408 L78 402 L134 370 C160 356 177 346 177 346 L177 49 L78 17 L78 -1 L406 -1 L406 17 L299 49 L299 332 C331 361 359 380 377 380 C407 380 446 375 471 368 C488 363 529 352 529 352 L540 352 C563 383 578 409 578 418 C578 442 500 459 452 459 L450 460 L450 460 Z " />
<glyph glyph-name="Sacute" unicode="&#x15a;" horiz-adv-x="804" d="M356 705 L374 705 L566 809 C592 824 610 864 610 864 L488 864 L356 705 L356 705 Z M549 594 C566 588 583 576 590 564 C607 540 629 507 645 483 C656 483 667 484 677 484 L665 627 C619 653 523 670 424 670 C247 670 130 598 130 489 C130 406 209 352 363 309 C513 267 589 223 589 163 C589 87 520 37 417 37 C362 37 281 55 206 83 C198 86 191 91 188 96 C169 126 143 167 125 197 C121 197 114 196 110 196 L93 196 L105 35 C168 7 291 -11 415 -11 C597 -11 719 67 719 185 C719 274 632 333 464 380 C333 417 264 459 264 520 C264 581 322 621 410 621 C452 621 502 611 548 594 L549 594 L549 594 Z " />
<glyph glyph-name="sacute" unicode="&#x15b;" horiz-adv-x="651" d="M316 530 L334 530 L526 646 C552 662 571 707 571 707 L449 707 L316 530 L316 530 Z M520 320 L520 425 L519 400 L520 425 C465 446 383 460 316 460 C195 460 114 409 114 332 C114 262 169 223 278 199 C383 176 438 145 438 96 C438 54 386 26 310 26 C197 26 153 83 113 135 L92 135 L92 20 C151 2 241 -10 319 -10 C455 -10 545 43 545 122 C545 196 484 239 366 265 C272 286 223 315 223 362 C223 397 262 421 323 421 C325 421 337 421 337 420 C395 416 453 384 481 340 C485 334 490 326 494 320 L520 320 L520 320 Z " />
<glyph glyph-name="Scedilla" unicode="&#x15e;" horiz-adv-x="804" d="M403 -81 C430 -43 449 -17 455 -9 C615 1 720 76 720 186 C720 275 633 334 465 381 C334 418 265 460 265 521 C265 582 323 622 412 622 C453 622 504 612 549 595 L549 595 C566 589 583 577 590 565 C607 541 629 508 645 484 C656 484 667 485 677 485 L665 628 C619 654 523 671 424 671 C247 671 130 599 130 490 C130 407 209 353 363 310 C513 268 589 224 589 164 C589 88 520 38 417 38 C362 38 281 56 206 84 C198 87 191 92 188 97 C169 127 143 168 125 198 C121 198 114 197 110 197 L93 197 L105 36 C165 9 281 -9 398 -11 C389 -24 357 -68 314 -130 L359 -143 C412 -150 449 -165 449 -180 C449 -200 426 -213 391 -213 C343 -213 301 -207 284 -197 L284 -208 C317 -228 369 -241 412 -241 C488 -241 540 -210 540 -164 C540 -129 487 -97 403 -82 L403 -81 L403 -81 Z " />
<glyph glyph-name="scedilla" unicode="&#x15f;" horiz-adv-x="651" d="M520 320 L520 425 L519 400 L520 425 C465 446 383 460 316 460 C195 460 114 409 114 332 C114 262 169 223 278 199 C383 176 438 145 438 96 C438 54 386 26 310 26 C197 26 153 83 113 135 L92 135 L92 20 C146 3 229 -9 302 -11 C293 -24 261 -68 218 -130 L262 -143 C316 -150 352 -165 352 -180 C352 -200 330 -213 294 -213 C247 -213 204 -207 188 -197 L188 -208 C221 -228 273 -241 316 -241 C392 -241 444 -210 444 -164 C444 -129 391 -97 307 -82 C334 -44 352 -18 359 -10 C473 -1 546 49 546 120 C546 194 485 237 368 263 C273 284 224 313 224 360 C224 395 264 419 325 419 C327 419 339 419 339 418 C397 414 455 382 482 338 C487 332 491 324 496 318 L520 320 L520 320 Z " />
<glyph glyph-name="Scaron" unicode="&#x160;" horiz-adv-x="804" d="M401 710 L604 867 L586 867 L378 784 L179 867 L160 867 L356 710 L401 710 L401 710 Z M549 594 C566 588 583 576 590 564 C607 540 629 507 645 483 C656 483 667 484 677 484 L665 627 C619 653 523 670 424 670 C247 670 130 598 130 489 C130 406 209 352 363 309 C513 267 589 223 589 163 C589 87 520 37 417 37 C362 37 281 55 206 83 C198 86 191 91 188 96 C169 126 143 167 125 197 C121 197 114 196 110 196 L93 196 L105 35 C168 7 291 -11 415 -11 C597 -11 719 67 719 185 C719 274 632 333 464 380 C333 417 264 459 264 520 C264 581 322 621 410 621 C452 621 502 611 548 594 L549 594 L549 594 Z " />
<glyph glyph-name="scaron" unicode="&#x161;" horiz-adv-x="651" d="M339 535 L542 710 L523 710 L316 617 L116 710 L98 710 L293 535 L339 535 L339 535 Z M520 320 L520 425 L519 400 L520 425 C465 446 383 460 316 460 C195 460 114 409 114 332 C114 262 169 223 278 199 C383 176 438 145 438 96 C438 54 386 26 310 26 C197 26 153 83 113 135 L92 135 L92 20 C151 2 241 -10 319 -10 C455 -10 545 43 545 122 C545 196 484 239 366 265 C272 286 223 315 223 362 C223 397 262 421 323 421 C325 421 337 421 337 420 C395 416 453 384 481 340 C485 334 490 326 494 320 L520 320 L520 320 Z " />
<glyph glyph-name="Tcaron" unicode="&#x164;" horiz-adv-x="1030" d="M539 710 L742 867 L723 867 L516 784 L316 867 L298 867 L493 710 L539 710 L539 710 Z M737 0 L737 19 L584 55 L584 605 L839 605 L934 460 L961 460 L961 660 L69 660 L69 460 L96 460 L191 605 L447 605 L447 55 L294 19 L294 0 L737 0 L737 0 Z " />
<glyph glyph-name="tcaron" unicode="&#x165;" horiz-adv-x="540" d="M536 750 L421 750 L384 563 L403 563 L558 761 C545 744 551 750 536 750 L536 750 Z M494 53 L490 63 C487 59 447 57 389 57 C320 57 275 77 275 107 L275 403 L476 403 L476 450 L275 450 L275 560 L265 560 L153 450 L27 409 L27 403 L153 403 L153 90 C153 30 218 -10 317 -10 C395 -10 467 15 494 53 L494 53 Z " />
<glyph glyph-name="Utilde" unicode="&#x168;" horiz-adv-x="1237" d="M406 705 C426 744 444 770 496 770 C558 770 644 705 706 705 C781 705 815 755 851 830 L832 830 C812 790 793 763 742 763 C679 763 594 828 531 828 C455 828 423 779 386 705 L406 705 L406 705 Z M221 605 L221 234 C221 88 380 -10 619 -10 C857 -10 1016 88 1016 234 L1016 605 L1138 641 L1138 660 L757 660 L757 641 L909 605 L909 213 C909 114 810 48 661 48 C479 48 359 129 359 250 L359 605 L481 641 L481 660 L99 660 L99 641 L221 605 L221 605 Z " />
<glyph glyph-name="utilde" unicode="&#x169;" horiz-adv-x="842" d="M201 535 C221 574 240 600 291 600 C354 600 438 535 500 535 C575 535 609 585 645 660 L626 660 C606 620 587 593 536 593 C473 593 389 658 327 658 C250 658 218 609 182 535 L201 535 L201 535 Z M581 400 L581 101 C536 76 475 63 413 63 C322 63 261 100 261 155 L261 450 L40 450 L40 432 L139 400 L139 107 C139 37 221 -10 343 -10 C412 -10 499 16 583 68 L583 0 L812 0 L812 18 L705 50 L705 450 L476 450 L476 432 L581 400 L581 400 Z " />
<glyph glyph-name="Umacron" unicode="&#x16a;" horiz-adv-x="1237" d="M432 765 L838 765 L838 815 L432 815 L432 765 L432 765 Z M221 605 L221 234 C221 88 380 -10 619 -10 C857 -10 1016 88 1016 234 L1016 605 L1138 641 L1138 660 L757 660 L757 641 L909 605 L909 213 C909 114 810 48 661 48 C479 48 359 129 359 250 L359 605 L481 641 L481 660 L99 660 L99 641 L221 605 L221 605 Z " />
<glyph glyph-name="umacron" unicode="&#x16b;" horiz-adv-x="842" d="M211 595 L616 595 L616 645 L211 645 L211 595 L211 595 Z M581 400 L581 101 C536 76 475 63 413 63 C322 63 261 100 261 155 L261 450 L40 450 L40 432 L139 400 L139 107 C139 37 221 -10 343 -10 C412 -10 499 16 583 68 L583 0 L812 0 L812 18 L705 50 L705 450 L476 450 L476 432 L581 400 L581 400 Z " />
<glyph glyph-name="Uring" unicode="&#x16e;" horiz-adv-x="1237" d="M572 800 C572 831 592 852 623 852 C658 852 682 826 682 786 C682 758 659 734 633 734 C600 734 572 764 572 800 L572 800 Z M496 793 C496 748 557 710 627 710 C697 710 757 749 757 795 C757 844 705 876 627 876 C548 876 496 843 496 793 L496 793 Z M221 605 L221 234 C221 88 380 -10 619 -10 C857 -10 1016 88 1016 234 L1016 605 L1138 641 L1138 660 L757 660 L757 641 L909 605 L909 213 C909 114 810 48 661 48 C479 48 359 129 359 250 L359 605 L481 641 L481 660 L99 660 L99 641 L221 605 L221 605 Z " />
<glyph glyph-name="uring" unicode="&#x16f;" horiz-adv-x="842" d="M359 625 C359 656 380 677 410 677 C446 677 468 651 468 611 C468 583 446 559 420 559 C386 559 359 589 359 625 L359 625 Z M284 618 C284 573 343 535 413 535 C484 535 543 574 543 620 C543 669 491 701 413 701 C336 701 284 668 284 618 L284 618 Z M581 400 L581 101 C536 76 475 63 413 63 C322 63 261 100 261 155 L261 450 L40 450 L40 432 L139 400 L139 107 C139 37 221 -10 343 -10 C412 -10 499 16 583 68 L583 0 L812 0 L812 18 L705 50 L705 450 L476 450 L476 432 L581 400 L581 400 Z " />
<glyph glyph-name="Ydieresis" unicode="&#x178;" horiz-adv-x="1095" d="M696 735 C742 735 772 755 772 785 C772 815 742 835 696 835 C650 835 619 815 619 785 C619 755 650 735 696 735 L696 735 Z M421 735 C467 735 497 755 497 785 C497 815 467 835 421 835 C375 835 345 815 345 785 C345 755 375 735 421 735 L421 735 Z M404 660 L47 660 L47 642 L145 610 L490 305 L490 55 L352 19 L352 0 L764 0 L764 19 L627 55 L627 309 L955 621 L1042 647 L1042 661 L719 661 L719 642 L836 606 L583 365 L301 606 L404 642 L404 660 L404 660 Z " />
<glyph glyph-name="Zacute" unicode="&#x179;" horiz-adv-x="986" d="M493 705 L511 705 L703 809 C729 824 748 864 748 864 L626 864 L493 705 L493 705 Z M156 480 L183 480 L278 605 L662 605 C488 412 314 218 137 25 L137 0 L848 0 L848 190 L821 190 L726 55 L305 55 C478 247 650 439 825 630 L825 660 L156 660 L156 480 L156 480 Z " />
<glyph glyph-name="zacute" unicode="&#x17a;" horiz-adv-x="732" d="M366 530 L384 530 L577 646 C603 662 621 707 621 707 L499 707 L366 530 L366 530 Z M107 305 L133 305 L197 405 L439 405 L111 18 L111 0 L618 0 L618 150 L592 150 L542 45 L273 45 C384 176 494 307 606 437 L606 450 L203 450 L143 460 L128 460 C128 459 127 450 127 450 L127 449 C121 404 114 349 107 304 L107 305 L107 305 Z " />
<glyph glyph-name="Zdot" unicode="&#x17b;" horiz-adv-x="986" d="M508 725 C563 725 600 749 600 785 C600 821 563 845 508 845 C453 845 417 821 417 785 C417 749 453 725 508 725 L508 725 Z M156 480 L183 480 L278 605 L662 605 C488 412 314 218 137 25 L137 0 L848 0 L848 190 L821 190 L726 55 L305 55 C478 247 650 439 825 630 L825 660 L156 660 L156 480 L156 480 Z " />
<glyph glyph-name="zdot" unicode="&#x17c;" horiz-adv-x="732" d="M374 583 C429 583 465 607 465 643 C465 679 429 703 374 703 C319 703 282 679 282 643 C282 607 319 583 374 583 L374 583 Z M107 305 L133 305 L197 405 L439 405 L111 18 L111 0 L618 0 L618 150 L592 150 L542 45 L273 45 C384 176 494 307 606 437 L606 450 L203 450 L143 460 L128 460 C128 459 127 450 127 450 L127 449 C121 404 114 349 107 304 L107 305 L107 305 Z " />
<glyph glyph-name="Zcaron" unicode="&#x17d;" horiz-adv-x="986" d="M539 710 L742 867 L723 867 L516 784 L316 867 L298 867 L493 710 L539 710 L539 710 Z M156 480 L183 480 L278 605 L662 605 C488 412 314 218 137 25 L137 0 L848 0 L848 190 L821 190 L726 55 L305 55 C478 247 650 439 825 630 L825 660 L156 660 L156 480 L156 480 Z " />
<glyph glyph-name="zcaron" unicode="&#x17e;" horiz-adv-x="732" d="M389 535 L592 710 L574 710 L366 617 L166 710 L148 710 L343 535 L389 535 L389 535 Z M107 305 L133 305 L197 405 L439 405 L111 18 L111 0 L618 0 L618 150 L592 150 L542 45 L273 45 C384 176 494 307 606 437 L606 450 L203 450 L143 460 L128 460 C128 459 127 450 127 450 L127 449 C121 404 114 349 107 304 L107 305 L107 305 Z " />
<glyph glyph-name="oogonek" unicode="&#x1eb;" horiz-adv-x="1137" d="M1124 -122 L1124 -109 C1112 -114 1076 -117 1034 -117 C955 -117 832 -23 731 5 C914 42 1028 143 1028 281 C1028 457 844 575 568 575 C290 575 105 458 105 282 C105 102 301 -19 597 -10 C716 -54 850 -147 946 -147 C1013 -147 1083 -137 1121 -123 L1124 -122 L1124 -122 Z M235 312 C235 443 357 530 540 530 C752 530 894 417 894 248 C894 120 774 34 594 34 C378 34 235 145 235 312 L235 312 Z " />
<glyph glyph-name="G_sc" unicode="&#x262;" horiz-adv-x="1086" d="M903 193 L1018 229 L1018 248 L650 248 L650 229 L780 193 L780 65 C737 51 671 43 598 43 C380 43 235 143 235 294 C235 436 377 530 589 530 C642 530 703 519 755 501 L755 501 C763 498 771 494 774 489 C801 450 836 399 864 360 C873 360 882 361 893 361 L882 528 L850 502 L882 528 C830 556 714 575 590 575 C301 575 108 452 108 267 C108 101 290 -10 561 -10 C703 -10 841 24 905 74 L903 193 L903 193 Z " />
<glyph glyph-name="I_sc" unicode="&#x26a;" horiz-adv-x="581" d="M475 0 L475 19 L352 55 L352 510 L475 546 L475 565 L107 565 L107 546 L229 510 L229 55 L107 19 L107 0 L475 0 L475 0 Z " />
<glyph glyph-name="N_sc" unicode="&#x274;" horiz-adv-x="1135" d="M104 546 L218 510 L218 55 L96 19 L96 0 L467 0 L467 19 L314 55 L314 436 C502 289 690 142 877 -5 L922 -5 L922 510 L1036 546 L1036 565 L673 565 L673 546 L825 510 L825 162 L314 565 L104 565 L104 546 L104 546 Z " />
<glyph glyph-name="R_sc" unicode="&#x280;" horiz-adv-x="938" d="M809 50 L575 266 C682 290 748 342 748 411 C748 503 635 565 467 565 L101 565 L101 546 L223 510 L223 55 L101 19 L101 0 L461 0 L461 19 L346 55 L346 251 L429 251 C433 251 438 251 442 251 L714 0 L923 0 L923 18 L809 50 L809 50 Z M348 300 L348 516 L439 516 C545 516 615 471 615 403 C615 341 552 300 458 300 L348 300 L348 300 Z " />
<glyph glyph-name="Y_sc" unicode="&#x28f;" horiz-adv-x="1001" d="M947 565 L635 565 L635 546 L749 510 L534 317 L291 510 L391 546 L391 565 L49 565 L49 547 L148 515 L449 264 L449 55 L311 19 L311 0 L709 0 L709 19 L572 55 L572 267 L857 525 L947 551 L947 565 L947 565 Z " />
<glyph glyph-name="B_sc" unicode="&#x299;" horiz-adv-x="906" d="M375 320 L345 320 L345 516 L435 516 C554 516 615 474 615 410 C615 356 519 320 375 320 L375 320 Z M590 311 C687 337 743 379 743 432 C743 512 648 565 465 565 L99 565 L99 546 L221 510 L221 55 L99 19 L99 0 L464 0 C684 0 830 68 830 169 C830 239 749 291 590 311 L590 311 Z M345 50 L345 270 L475 270 C624 270 702 226 702 161 C702 94 607 50 464 50 L345 50 L345 50 Z " />
<glyph glyph-name="H_sc" unicode="&#x29c;" horiz-adv-x="1141" d="M1042 0 L1042 19 L920 55 L920 510 L1042 546 L1042 565 L674 565 L674 546 L796 510 L796 316 L345 316 L345 510 L467 546 L467 565 L99 565 L99 546 L221 510 L221 55 L99 19 L99 0 L467 0 L467 19 L345 55 L345 266 L796 266 L796 55 L674 19 L674 0 L1042 0 L1042 0 Z " />
<glyph glyph-name="L_sc" unicode="&#x29f;" horiz-adv-x="870" d="M763 215 L735 215 L641 50 L345 50 L345 510 L475 546 L475 565 L99 565 L99 546 L221 510 L221 55 L99 19 L99 0 L763 0 L763 215 L763 215 Z " />
<glyph glyph-name="circumflex" unicode="&#x2c6;" horiz-adv-x="519" d="M485 530 L282 705 L236 705 L41 530 L60 530 L259 623 L467 530 L485 530 L485 530 Z " />
<glyph glyph-name="caron" unicode="&#x2c7;" horiz-adv-x="519" d="M282 535 L485 710 L467 710 L259 617 L60 710 L41 710 L236 535 L282 535 L282 535 Z " />
<glyph glyph-name="firsttonechinese" unicode="&#x2c9;" horiz-adv-x="519" d="M56 530 L462 530 L462 580 L56 580 L56 530 L56 530 Z " />
<glyph glyph-name="breve" unicode="&#x2d8;" horiz-adv-x="519" d="M53 727 L32 727 C92 607 156 560 259 560 C363 560 427 607 487 727 L465 727 C430 655 372 627 259 627 C146 627 88 655 53 727 L53 727 Z " />
<glyph glyph-name="dotaccent" unicode="&#x2d9;" horiz-adv-x="519" d="M259 610 C305 610 336 630 336 660 C336 690 305 710 259 710 C214 710 183 690 183 660 C183 630 214 610 259 610 L259 610 Z " />
<glyph glyph-name="ring" unicode="&#x2da;" horiz-adv-x="519" d="M204 620 C204 651 226 672 256 672 C291 672 314 646 314 606 C314 578 291 554 265 554 C232 554 204 584 204 620 L204 620 Z M130 613 C130 568 189 530 259 530 C330 530 389 569 389 615 C389 664 337 696 259 696 C182 696 130 663 130 613 L130 613 Z " />
<glyph glyph-name="A_sc" unicode="&#x1d00;" horiz-adv-x="1045" d="M630 0 L992 0 L992 16 L894 45 C778 220 665 396 546 570 L488 570 C375 397 262 223 148 50 L27 18 L27 0 L362 0 L362 18 L241 50 L327 184 L676 184 L676 188 L766 50 L633 18 L630 0 L630 0 Z M647 233 L359 233 L500 457 L647 233 L647 233 Z " />
<glyph glyph-name="C_sc" unicode="&#x1d04;" horiz-adv-x="1001" d="M864 40 L835 66 L864 40 L864 40 Z M862 40 L876 191 C867 191 859 192 851 192 C825 158 790 114 764 80 C760 76 754 72 748 69 C685 48 613 35 555 35 C362 35 233 139 233 294 C233 436 368 530 571 530 C619 530 676 519 726 501 C734 498 742 493 745 488 C772 449 807 398 835 359 C844 359 853 360 864 360 L853 527 C801 555 691 574 575 574 C296 574 110 451 110 266 C110 100 290 -11 560 -11 C679 -11 801 9 867 39 L862 40 L862 40 Z " />
<glyph glyph-name="D_sc" unicode="&#x1d05;" horiz-adv-x="1088" d="M508 0 C792 0 981 112 981 307 C981 477 783 565 487 565 L99 565 L99 546 L221 510 L221 55 L99 19 L99 0 L508 0 L508 0 Z M345 50 L345 516 C381 516 426 516 452 516 C693 516 853 435 853 277 C853 132 714 49 505 50 L345 50 L345 50 Z " />
<glyph glyph-name="E_sc" unicode="&#x1d07;" horiz-adv-x="900" d="M793 175 L767 175 L679 50 L345 50 L345 266 L526 266 L590 186 L626 186 L626 396 L590 396 L526 316 L345 316 L345 516 L641 516 L729 401 L755 401 L755 565 L99 565 L99 546 L221 510 L221 55 L99 19 L99 0 L793 0 L793 175 L793 175 Z " />
<glyph glyph-name="J_sc" unicode="&#x1d0a;" horiz-adv-x="581" d="M229 510 L229 50 C229 -45 195 -108 145 -108 C145 -108 104 -105 76 -100 L67 -100 C67 -100 53 -147 53 -150 C53 -164 72 -173 99 -173 C252 -173 352 -14 352 224 L352 510 L475 546 L475 565 L107 565 L107 546 L229 510 L229 510 Z " />
<glyph glyph-name="K_sc" unicode="&#x1d0b;" horiz-adv-x="1047" d="M1001 14 L900 40 L467 314 C581 384 694 455 809 525 L911 551 L911 565 L557 565 L557 547 L668 515 C668 515 441 356 421 342 L346 289 L787 0 L1001 0 L1001 14 L1001 14 Z M467 0 L467 19 L345 55 L345 510 L467 546 L467 565 L99 565 L99 546 L221 510 L221 55 L99 19 L99 0 L467 0 L467 0 Z " />
<glyph glyph-name="M_sc" unicode="&#x1d0d;" horiz-adv-x="1375" d="M111 546 L246 510 C236 358 227 206 217 55 L93 19 L93 0 L426 0 L426 19 L299 55 L319 465 L645 -5 L708 -5 C702 4 694 14 690 23 L709 -5 L1031 457 L1059 55 L940 19 L940 0 L1283 0 L1283 19 L1175 55 L1144 510 L1277 546 L1277 565 L1025 565 L706 104 L383 565 L114 565 L111 546 L111 546 Z " />
<glyph glyph-name="O_sc" unicode="&#x1d0f;" horiz-adv-x="1137" d="M238 313 C238 444 360 531 543 531 C755 531 897 418 897 249 C897 121 777 35 597 35 C381 35 238 146 238 313 L238 313 Z M107 282 C107 107 291 -10 569 -10 C845 -10 1030 106 1030 281 C1030 457 845 575 569 575 C291 575 107 458 107 282 L107 282 Z " />
<glyph glyph-name="P_sc" unicode="&#x1d18;" horiz-adv-x="851" d="M490 0 L490 19 L345 55 L345 251 L427 251 C618 251 745 315 745 411 C745 503 633 565 465 565 L99 565 L99 546 L221 510 L221 55 L99 19 L99 0 L490 0 L490 0 Z M345 300 L345 516 L435 516 C542 516 613 471 613 403 C613 341 549 300 455 300 L345 300 L345 300 Z " />
<glyph glyph-name="T_sc" unicode="&#x1d1b;" horiz-adv-x="938" d="M684 0 L684 19 L531 55 L531 516 L748 516 L842 371 L870 371 L870 565 L69 565 L69 371 L96 371 L191 516 L407 516 L407 55 L255 19 L255 0 L684 0 L684 0 Z " />
<glyph glyph-name="U_sc" unicode="&#x1d1c;" horiz-adv-x="1146" d="M224 510 L224 200 C224 74 365 -10 575 -10 C784 -10 925 74 925 200 L925 510 L1047 546 L1047 565 L676 565 L676 546 L828 510 L828 181 C828 98 742 42 612 42 C453 42 348 111 348 215 L348 510 L470 546 L470 565 L102 565 L102 546 L224 510 L224 510 Z " />
<glyph glyph-name="V_sc" unicode="&#x1d20;" horiz-adv-x="1027" d="M420 565 L50 565 L50 547 L156 515 C264 342 371 168 482 -5 L540 -5 C658 172 774 349 891 525 L976 551 L976 565 L673 565 L673 546 L790 510 L537 117 L287 509 L420 545 L420 565 L420 565 Z " />
<glyph glyph-name="W_sc" unicode="&#x1d21;" horiz-adv-x="1399" d="M401 565 L31 565 L31 547 L130 515 C217 342 305 170 389 -4 L435 -4 C520 141 610 285 699 429 C784 285 871 141 954 -4 L998 -4 L1007 14 C1095 185 1182 357 1271 527 L1367 553 L1367 567 L1045 567 L1045 548 L1170 512 L993 150 C906 291 819 432 732 573 L687 573 C607 431 522 291 439 150 L256 513 L397 549 L401 565 L401 565 Z " />
<glyph glyph-name="Z_sc" unicode="&#x1d22;" horiz-adv-x="894" d="M159 391 L186 391 L281 516 L584 516 C436 352 288 187 140 23 L140 0 L757 0 L757 185 L729 185 L635 50 L291 50 C439 214 586 378 735 541 L735 565 L160 565 L159 391 L159 391 Z " />
<glyph glyph-name="Etilde" unicode="&#x1ebc;" horiz-adv-x="992" d="M322 705 C342 744 360 770 412 770 C475 770 558 705 621 705 C696 705 729 755 766 830 L746 830 C726 790 708 763 656 763 C594 763 510 828 447 828 C371 828 339 779 302 705 L322 705 L322 705 Z M885 180 L859 180 L771 55 L359 55 L359 313 L618 313 L682 233 L717 233 L717 448 L682 448 L618 368 L359 368 L359 605 L732 605 L821 490 L847 490 L847 660 L99 660 L99 641 L221 605 L221 55 L99 19 L99 0 L885 0 L885 180 L885 180 Z " />
<glyph glyph-name="endash" unicode="&#x2013;" horiz-adv-x="763" d="M76 242 L687 242 L687 292 L76 292 L76 242 L76 242 Z " />
<glyph glyph-name="emdash" unicode="&#x2014;" horiz-adv-x="1526" d="M76 242 L1449 242 L1449 292 L76 292 L76 242 L76 242 Z " />
<glyph glyph-name="quoteleft" unicode="&#x2018;" horiz-adv-x="384" d="M249 584 C206 594 177 627 177 666 C177 693 229 719 305 730 L305 750 C174 731 85 680 85 621 C85 558 130 506 197 490 C236 481 261 478 276 505 L304 553 L304 565 L249 584 L249 584 Z " />
<glyph glyph-name="quoteright" unicode="&#x2019;" horiz-adv-x="384" d="M142 656 C185 646 214 613 214 574 C214 547 162 521 85 510 L85 490 C217 509 305 560 305 619 C305 682 261 734 194 750 C154 759 130 762 114 735 L87 687 L87 675 L142 656 L142 656 Z " />
<glyph glyph-name="quotedblleft" unicode="&#x201c;" horiz-adv-x="687" d="M249 584 C206 594 177 627 177 666 C177 693 229 730 305 730 L305 750 C174 750 85 680 85 621 C85 558 130 506 197 490 C236 481 261 478 276 505 L304 553 L304 565 L249 584 L249 584 Z M549 584 C507 594 478 627 478 666 C478 693 529 730 606 730 L606 750 C475 750 386 680 386 621 C386 558 430 506 497 490 C537 481 561 478 577 505 L604 553 L604 565 L549 584 L549 584 Z " />
<glyph glyph-name="quotedblright" unicode="&#x201d;" horiz-adv-x="687" d="M444 656 C487 646 516 613 516 574 C516 547 464 521 388 510 L388 490 C519 509 607 560 607 619 C607 682 563 734 496 750 C456 759 432 762 417 735 L389 687 L389 675 L444 656 L444 656 Z M143 656 C186 646 215 613 215 574 C215 547 163 521 87 510 L87 490 C218 509 307 560 307 619 C307 682 262 734 195 750 C156 759 131 762 116 735 L88 687 L88 675 L143 656 L143 656 Z " />
<glyph glyph-name="bullet" unicode="&#x2022;" horiz-adv-x="763" d="M381 150 C491 150 565 198 565 270 C565 342 491 390 381 390 C272 390 198 342 198 270 C198 198 272 150 381 150 L381 150 Z " />
<glyph glyph-name="ellipsis" unicode="&#x2026;" horiz-adv-x="992" d="M801 -10 C856 -10 893 14 893 50 C893 86 856 110 801 110 C746 110 709 86 709 50 C709 14 746 -10 801 -10 L801 -10 Z M496 -10 C551 -10 587 14 587 50 C587 86 551 110 496 110 C441 110 404 86 404 50 C404 14 441 -10 496 -10 L496 -10 Z M191 -10 C246 -10 282 14 282 50 C282 86 246 110 191 110 C136 110 99 86 99 50 C99 14 136 -10 191 -10 L191 -10 Z " />
<glyph glyph-name="perthousand" unicode="&#x2030;" horiz-adv-x="1736" d="M1378 208 C1378 306 1416 371 1472 371 C1552 371 1604 293 1604 176 C1604 80 1562 16 1500 16 C1427 16 1378 93 1378 208 L1378 208 Z M1257 193 C1257 71 1350 -10 1489 -10 C1626 -10 1718 76 1718 204 C1718 319 1626 395 1489 395 C1350 395 1257 314 1257 193 L1257 193 Z M166 569 C166 669 204 736 261 736 C340 736 392 656 392 537 C392 443 351 381 288 381 C215 381 166 456 166 569 L166 569 Z M46 554 C46 435 139 355 278 355 C415 355 507 439 507 564 C507 682 415 760 278 760 C139 760 46 678 46 554 L46 554 Z M841 208 C841 306 882 371 943 371 C1031 371 1089 293 1089 176 C1089 80 1042 16 970 16 C893 16 841 93 841 208 L841 208 Z M720 193 C720 71 816 -10 960 -10 C1106 -10 1204 75 1204 203 C1204 318 1106 395 960 395 C816 395 720 314 720 193 L720 193 Z M304 -11 L1013 739 L960 761 L250 11 L304 -11 L304 -11 Z " />
<glyph glyph-name="guilsinglleft" unicode="&#x2039;" horiz-adv-x="375" d="M328 425 L23 248 L328 70 L345 70 L175 248 L345 425 L328 425 L328 425 Z " />
<glyph glyph-name="guilsinglright" unicode="&#x203a;" horiz-adv-x="381" d="M31 425 L198 248 L31 70 L47 70 L351 248 L47 425 L31 425 L31 425 Z " />
<glyph glyph-name="fraction" unicode="&#x2044;" horiz-adv-x="746" d="M73 -11 L783 739 L728 761 L18 11 L73 -11 L73 -11 Z " />
<glyph glyph-name="Euro" unicode="&#x20ac;" horiz-adv-x="761" d="M726 98 C697 72 624 55 545 55 C397 55 317 124 288 237 L548 237 L548 281 L279 281 C275 314 273 352 275 388 L546 388 L546 432 L279 432 C299 556 368 635 462 635 C507 635 557 613 587 581 C601 581 635 536 635 536 L645 536 C665 536 711 564 711 564 C719 567 725 575 725 584 C725 588 717 599 706 610 C671 647 592 671 510 671 C323 671 188 579 143 432 L15 432 L15 388 L134 388 C128 355 127 318 130 283 L15 283 L15 239 L134 239 C160 88 262 -8 475 -8 C571 -8 671 26 729 76 L729 100 L726 98 L726 98 Z " />
<glyph glyph-name="F_sc" unicode="&#xa730;" horiz-adv-x="847" d="M526 266 L590 186 L626 186 L626 396 L590 396 L526 316 L345 316 L345 516 L626 516 L714 401 L740 401 L740 565 L99 565 L99 546 L221 510 L221 55 L99 19 L99 0 L490 0 L490 19 L345 55 L345 266 L526 266 L526 266 Z " />
<glyph glyph-name="S_sc" unicode="&#xa731;" horiz-adv-x="706" d="M461 508 C473 502 484 493 490 484 C507 457 531 422 548 395 C552 395 558 396 563 396 L580 396 L568 532 L540 507 L568 532 C528 558 450 576 371 576 C226 576 130 514 130 420 C130 355 195 308 322 266 C442 227 504 188 504 141 C504 76 450 33 369 33 C328 33 265 50 204 76 C198 79 194 83 192 87 C174 119 148 161 130 193 C119 193 108 192 98 192 L108 36 C163 8 269 -10 371 -10 C523 -10 624 58 624 161 C624 232 552 283 415 328 C308 363 253 400 253 448 C253 498 296 532 360 532 C391 532 427 523 462 508 L461 508 L461 508 Z " />
<glyph glyph-name="X_sc" unicode="&#xf078;" horiz-adv-x="1033" d="M607 0 L976 0 L976 16 L880 45 L569 307 C656 378 743 449 830 520 L926 549 L926 565 L627 565 L627 546 L742 510 L528 340 C461 397 392 454 325 511 L442 547 L442 566 L73 566 L73 548 L172 516 L450 278 L172 51 L64 19 L64 1 L391 1 L391 20 L259 56 L488 245 L708 56 L604 20 L607 0 L607 0 Z " />
</font>
</svg>
