<?xml version="1.0" encoding="UTF-8"?>
<svg xmlns="http://www.w3.org/2000/svg" xmlns:xlink="http://www.w3.org/1999/xlink" version="1.2" >
<font id="Faraz Outline">
<font-face  font-family="Faraz" units-per-em="1024" ascent="975" descent="-300" font-style="normal" font-weight="400" font-stretch="normal" cap-height="1044" x-height="488" underline-position="-125" underline-thickness="50" />
<missing-glyph  horiz-adv-x="100" d="" />
<glyph glyph-name="NULL" d="" />
<glyph glyph-name="CR" unicode="&#xd;" horiz-adv-x="256" d="" />
<glyph glyph-name="space" unicode="&#x20;" horiz-adv-x="250" d="" />
<glyph glyph-name="exclam" unicode="&#x21;" horiz-adv-x="244" d="M122 -12.68 C82.8188 -12.68 54.32 15.8188 54.32 55 C54.32 94.1812 82.8188 122.68 122 122.68 C161.181 122.68 189.68 94.1812 189.68 55 C189.68 15.8188 161.181 -12.68 122 -12.68 L122 -12.68 Z M122 2.68 C154.819 2.68 174.32 22.1812 174.32 55 C174.32 87.8188 154.819 107.32 122 107.32 C89.1812 107.32 69.68 87.8188 69.68 55 C69.68 22.1812 89.1812 2.68 122 2.68 L122 2.68 Z M122 762.68 C168.177 762.68 187.823 714.141 181.645 649.272 L181.644 649.254 L181.642 649.236 L137.642 209.236 L136.95 202.32 L130 202.32 L114 202.32 L107.05 202.32 L106.358 209.236 L62.3581 649.236 L62.3563 649.254 L62.3546 649.272 C56.1766 714.141 75.8233 762.68 122 762.68 L122 762.68 Z M122 747.32 C86.1836 747.32 71.8288 711.873 77.6419 650.764 L77.6454 650.728 L120.95 217.68 L123.05 217.68 L166.355 650.728 L166.358 650.764 C172.171 711.873 157.816 747.32 122 747.32 L122 747.32 Z " />
<glyph glyph-name="quotedbl" unicode="&#x22;" horiz-adv-x="325" d="M212 757.68 L232 757.68 C256.292 757.68 271.151 733.39 264.51 703.39 L234.521 558.444 L233.254 552.32 L227 552.32 L217 552.32 L210.746 552.32 L209.479 558.444 L179.49 703.391 C172.812 733.564 188.904 757.68 212 757.68 L212 757.68 Z M212 742.32 C197.11 742.32 189.208 730.467 194.497 706.666 L194.509 706.611 L194.521 706.556 L222 573.74 L249.479 706.556 L249.491 706.611 L249.503 706.666 C254.83 730.64 247.693 742.32 232 742.32 L212 742.32 L212 742.32 Z M92 757.68 L112 757.68 C136.292 757.68 151.151 733.39 144.51 703.39 L114.521 558.444 L113.254 552.32 L107 552.32 L97 552.32 L90.7463 552.32 L89.4793 558.444 L59.49 703.391 C52.8117 733.564 68.9042 757.68 92 757.68 L92 757.68 Z M92 742.32 C77.1102 742.32 69.2081 730.467 74.4971 706.666 L74.5093 706.611 L74.5207 706.556 L102 573.74 L129.479 706.556 L129.491 706.611 L129.503 706.666 C134.83 730.64 127.693 742.32 112 742.32 L92 742.32 L92 742.32 Z " />
<glyph glyph-name="numbersign" unicode="&#x23;" horiz-adv-x="545" d="M382.404 668.135 L383.382 674.68 L390 674.68 L424 674.68 L432.913 674.68 L431.596 665.865 L406.913 500.68 L525 500.68 L533.798 500.68 L532.61 491.962 L523.61 425.962 L522.704 419.32 L516 419.32 L394.617 419.32 L367.913 240.68 L478 240.68 L486.931 240.68 L485.593 231.849 L475.593 165.849 L474.604 159.32 L468 159.32 L355.616 159.32 L331.595 -1.13703 L330.616 -7.68 L324 -7.68 L290 -7.68 L281.085 -7.68 L282.405 1.13703 L306.085 159.32 L184.616 159.32 L160.595 -1.13703 L159.616 -7.68 L153 -7.68 L119 -7.68 L110.085 -7.68 L111.405 1.13703 L135.085 159.32 L16 159.32 L7.06871 159.32 L8.40666 168.151 L18.4067 234.151 L19.396 240.68 L26 240.68 L147.383 240.68 L174.087 419.32 L58 419.32 L49.2017 419.32 L50.3904 428.038 L59.3904 494.038 L60.2962 500.68 L67 500.68 L186.382 500.68 L211.404 668.135 L212.382 674.68 L219 674.68 L253 674.68 L261.913 674.68 L260.596 665.865 L235.913 500.68 L357.382 500.68 L382.404 668.135 L382.404 668.135 Z M396.618 659.32 L371.596 491.865 L370.618 485.32 L364 485.32 L227 485.32 L218.087 485.32 L219.404 494.135 L244.087 659.32 L225.618 659.32 L200.596 491.865 L199.618 485.32 L193 485.32 L73.704 485.32 L66.798 434.68 L183 434.68 L191.913 434.68 L190.596 425.865 L161.596 231.865 L160.617 225.32 L154 225.32 L32.604 225.32 L24.931 174.68 L144 174.68 L152.915 174.68 L151.595 165.863 L127.915 7.68 L146.384 7.68 L170.405 168.137 L171.384 174.68 L178 174.68 L315 174.68 L323.915 174.68 L322.595 165.863 L298.915 7.68 L317.384 7.68 L341.405 168.137 L342.384 174.68 L349 174.68 L461.396 174.68 L469.069 225.32 L359 225.32 L350.087 225.32 L351.404 234.135 L380.404 428.135 L381.383 434.68 L388 434.68 L509.296 434.68 L516.202 485.32 L398 485.32 L389.087 485.32 L390.404 494.135 L415.087 659.32 L396.618 659.32 L396.618 659.32 Z M223.617 419.32 L196.913 240.68 L318.383 240.68 L345.087 419.32 L223.617 419.32 L223.617 419.32 Z M209.404 428.135 L210.383 434.68 L217 434.68 L354 434.68 L362.913 434.68 L361.596 425.865 L332.596 231.865 L331.617 225.32 L325 225.32 L188 225.32 L179.087 225.32 L180.404 234.135 L209.404 428.135 L209.404 428.135 Z " />
<glyph glyph-name="dollar" unicode="&#x24;" horiz-adv-x="551" d="M480.68 755 L480.68 551 L480.68 512.6 L465.32 512.6 L465.32 546.227 C463.43 546.539 461.208 546.736 458.726 546.825 C456.474 546.905 454.442 546.881 452.68 546.745 L452.68 513.6 L447.159 512.899 L437.564 550.081 L429.577 581.028 L429.564 581.081 C414.251 638.68 381.652 682.592 338.68 707.284 L338.68 431.245 C457.653 383.88 520.68 294.137 520.68 198 C520.68 85.2933 447.747 4.03246 338.68 -12.678 L338.68 -73 L338.68 -80.68 L331 -80.68 L301 -80.68 L293.32 -80.68 L293.32 -73 L293.32 -15.614 C281.108 -15.3977 269.476 -14.6273 257.68 -12.985 L257.68 -73 L257.68 -80.68 L250 -80.68 L220 -80.68 L212.32 -80.68 L212.32 -73 L212.32 -2.528 C205.041 -0.0710332 197.583 2.57306 190.132 5.87 C156.081 18.1936 128.305 25.4324 108.412 27.6158 C89.4777 29.694 83.3325 28.2652 82.587 24.786 L79.6155 2.00668 L72 3 L64.32 3 C64.32 -1.40598 68.4607 -3.0999 67.1887 -2.86862 C65.5489 -2.57048 63.4885 -2.43 61 -2.43 C59.7929 -2.43 58.6865 -2.46293 57.68 -2.531 L57.68 -35.4 L42.32 -35.4 L42.32 3 L42.32 243 L42.32 281.4 L57.68 281.4 L57.68 247.773 C59.5704 247.461 61.7918 247.264 64.2741 247.175 C66.5263 247.095 68.5579 247.119 70.32 247.255 L70.32 280.4 L76.1373 281.116 L85.4507 243.863 L93.4507 211.863 L93.456 211.841 L93.4613 211.82 C111.904 136.205 156.15 77.5837 212.32 49.066 L212.32 337.265 C110.211 389.377 57.32 472.994 57.32 563 C57.32 668.34 119.056 745.595 212.32 763.449 L212.32 825 L212.32 832.68 L220 832.68 L250 832.68 L257.68 832.68 L257.68 825 L257.68 767.611 C269.151 767.404 280.311 766.732 291.32 765.603 L291.32 825 L291.32 832.68 L299 832.68 L329 832.68 L336.68 832.68 L336.68 825 L336.68 757.343 C364.054 750.377 390.729 744.694 411.208 742.12 C421.876 740.779 430.201 740.326 436.191 740.923 C439.591 741.263 440.42 741.205 440.542 740.897 L443.452 756.415 L451 755 L458.68 755 C458.68 759.406 454.539 761.1 455.811 760.869 C457.451 760.57 459.512 760.43 462 760.43 C463.207 760.43 464.313 760.463 465.32 760.531 L465.32 793.4 L480.68 793.4 L480.68 755 L480.68 755 Z M329 743.32 L321.32 743.32 L321.32 751 L321.32 817.32 L306.68 817.32 L306.68 757 L306.68 748.3 L298.047 749.379 C282.283 751.35 266.76 752.32 250 752.32 L242.32 752.32 L242.32 760 L242.32 817.32 L227.68 817.32 L227.68 757 L227.68 750.448 L221.21 749.416 C130.079 734.874 72.68 665.243 72.68 563 C72.68 476.253 122.314 398.939 223.408 348.883 L227.68 346.767 L227.68 342 L227.68 37 L227.68 25.353 L216.975 29.941 C152.209 57.6976 98.9578 124.514 78.5493 208.137 L78.5387 208.18 L72.572 232.045 C69.8503 231.788 66.6522 231.72 63.7259 231.825 C61.7551 231.895 59.664 232.052 57.68 232.284 L57.68 12.841 C58.7993 12.8998 59.9268 12.93 61 12.93 C62.4615 12.93 64.0239 12.8745 65.529 12.766 L67.3845 26.9933 L67.4068 27.1646 L67.4369 27.3347 C69.8074 40.768 88.2401 45.2821 110.088 42.8842 C131.146 40.5729 160.782 32.8416 195.616 20.2207 L195.871 20.1283 L196.119 20.0181 C204.78 16.1686 213.429 13.2859 222.429 10.2859 L227.68 8.53543 L227.68 3 L227.68 -65.32 L242.32 -65.32 L242.32 -4 L242.32 5.15396 L251.335 3.56314 C267.91 0.638127 283.24 -0.32 301 -0.32 L308.68 -0.32 L308.68 -8 L308.68 -65.32 L323.32 -65.32 L323.32 -6 L323.32 0.764497 L330.03 1.61854 C437.255 15.2653 505.32 89.0028 505.32 198 C505.32 290.543 446.089 373.658 328.251 418.829 L323.32 420.719 L323.32 426 L323.32 720 L323.32 732.205 L334.323 726.924 C385.912 702.161 427.01 650.525 444.423 584.972 L444.43 584.945 L444.436 584.919 L450.364 561.949 C453.099 562.211 456.325 562.28 459.274 562.175 C461.245 562.105 463.336 561.948 465.32 561.716 L465.32 745.159 C464.201 745.1 463.073 745.07 462 745.07 C460.382 745.07 458.641 745.137 456.99 745.27 L455.564 737.666 C454.326 730.425 445.503 726.416 437.716 725.639 C430.549 724.924 420.499 725.471 409.292 726.88 C387.322 729.642 358.361 735.889 329.525 743.32 L329 743.32 L329 743.32 Z M294.32 724.434 C282.961 726.992 271.825 728.582 259.68 728.545 L259.68 466.393 C270.351 460.239 281.964 454.543 294.32 448.884 L294.32 724.434 L294.32 724.434 Z M309.68 730 L309.68 437 L309.68 425.182 L298.881 429.982 C280.805 438.016 263.38 446.216 248.049 455.414 L244.32 457.652 L244.32 462 L244.32 736 L244.32 743.265 L251.574 743.668 C270.384 744.713 287.527 742.035 303.863 737.951 L309.68 736.496 L309.68 730.5 L309.68 730 L309.68 730 Z M259.68 33.766 C270.547 31.8305 282.218 30.3996 294.32 30.453 L294.32 304.043 C283.728 308.684 271.751 312.999 259.68 317.676 L259.68 33.766 L259.68 33.766 Z M244.32 31.181 L244.32 329 L244.32 340.468 L254.924 336.102 C271.68 329.202 289.848 323.146 305.248 315.959 L309.68 313.891 L309.68 309 L309.68 23 L309.68 15.7348 L302.426 15.3318 C283.667 14.2896 265.203 16.9273 249.994 19.9691 L235.922 22.7834 L244.32 31.181 L244.32 31.181 Z M338.68 280.826 L338.68 37.112 C392.421 54.1903 425.32 101.406 425.32 168 C425.32 206.994 397.454 246.163 338.68 280.826 L338.68 280.826 Z M323.32 294 L323.32 306.922 L334.671 300.746 C404.128 262.953 440.68 214.575 440.68 168 C440.68 92.4271 397.476 35.1812 332.806 19.5354 L323.32 17.2404 L323.32 27 L323.32 294 L323.32 294 Z M213.32 496.501 L213.32 718.628 C175.119 700.615 152.68 658.981 152.68 602 C152.68 565.612 172.75 529.251 213.32 496.501 L213.32 496.501 Z M228.68 481 L228.68 466.007 L216.513 474.767 C165.24 511.684 137.32 557.859 137.32 602 C137.32 668.14 168.874 720.368 218.525 737.27 L228.68 740.727 L228.68 730 L228.68 481 L228.68 481 Z " />
<glyph glyph-name="ampersand" unicode="&#x26;" horiz-adv-x="335" d="M339.68 461.558 C372.809 422.139 406.651 387.183 545.083 222.826 C607.132 295.451 661.317 390.799 702.791 503.649 L704.64 508.68 L710 508.68 L730 508.68 L740.934 508.68 L737.225 498.394 C693.906 378.284 636.771 273.046 572.958 190.298 C586.633 174.639 600.367 158.174 614.868 140.955 L614.875 140.947 C652.051 96.9261 699.129 68.68 735 68.68 C775.627 68.68 805.69 101.396 812.381 153.97 L813.562 163.242 L822.429 160.286 L837.429 155.286 L843.354 153.311 L842.628 147.107 C831.352 50.7476 773.496 -15.68 700 -15.68 C648.89 -15.68 580.018 26.0391 529.206 86.956 C521.136 95.8398 513.703 104.728 506.463 113.538 C424.169 31.4343 332.752 -15.68 245 -15.68 C118.765 -15.68 32.32 72.8729 32.32 201 C32.32 306.607 109.776 401.867 225.053 443.656 C171.836 508.738 137.32 559.326 137.32 600 C137.32 700.318 209.954 768.68 315 768.68 C421.841 768.68 496.68 704.532 496.68 612 C496.68 553.874 433.079 494.897 339.68 461.558 L339.68 461.558 Z M320.559 485.989 C376.65 508.209 412.32 559.103 412.32 618 C412.32 689.202 374.421 734.32 315 734.32 C261.181 734.32 227.68 700.819 227.68 646 C227.68 606.236 262.728 556.601 320.559 485.989 L320.559 485.989 Z M473.285 152.302 C312.458 343.274 285.385 368.925 240.816 422.593 C176.23 392.014 135.68 317.551 135.68 226 C135.68 136.323 197.042 78.68 293 78.68 C353.085 78.68 414.219 104.568 473.285 152.302 L473.285 152.302 Z M485.978 161.076 L515.911 176.042 L519.357 170.792 L489.935 146.116 C427.094 93.4103 358.613 63.32 293 63.32 C190.958 63.32 120.32 129.677 120.32 226 C120.32 307.858 153.288 379.958 206.329 419.575 C108.964 376.073 47.68 293.8 47.68 201 C47.68 79.1271 125.235 -0.32 245 -0.32 C331.099 -0.32 419.349 46.2295 501.505 130.366 L507.505 136.51 L512.944 129.863 C521.944 118.863 530.817 108.018 540.683 97.1661 L540.794 97.0437 L540.9 96.9166 C590.078 37.9027 653.146 -0.32 700 -0.32 C764.996 -0.32 814.365 54.6702 826.582 142.71 L826.166 142.849 C816.175 90.2548 779.808 53.32 735 53.32 C694.873 53.32 641.955 85.0706 603.132 131.045 L603.129 131.049 L603.125 131.053 C587.113 150.068 572.169 168 557.241 184.919 L553.016 189.707 L556.953 194.735 C619.734 274.901 675.717 376.235 719.019 493.32 L715.347 493.32 C672.332 377.877 615.338 279.44 550.77 205.932 L544.875 199.221 L539.124 206.055 C390.916 382.173 359.53 413.632 324.064 456.289 L318.32 454.413 L318.32 465 L318.32 466 L318.32 469.32 L318 469.32 L314.371 469.32 L312.067 472.123 C251.906 545.319 212.32 600.531 212.32 646 C212.32 707.181 254.819 749.68 315 749.68 C381.579 749.68 427.68 694.798 427.68 618 C427.68 559.312 392.867 505.084 340.129 478.043 C427.021 510.17 481.32 561.563 481.32 612 C481.32 697.468 416.159 753.32 315 753.32 C216.046 753.32 152.68 693.682 152.68 600 C152.68 562.438 187.106 513.667 243.921 444.891 L251.093 436.209 L249.827 435.794 C295.517 380.479 320.244 357.901 485.978 161.076 L485.978 161.076 Z " />
<glyph glyph-name="quotesingle" unicode="&#x27;" horiz-adv-x="204" d="M92 757.68 L112 757.68 C136.292 757.68 151.151 733.39 144.51 703.39 L114.521 558.444 L113.254 552.32 L107 552.32 L97 552.32 L90.7463 552.32 L89.4793 558.444 L59.49 703.391 C52.8117 733.564 68.9042 757.68 92 757.68 L92 757.68 Z M92 742.32 C77.1102 742.32 69.2081 730.467 74.4971 706.666 L74.5093 706.611 L74.5207 706.556 L102 573.74 L129.479 706.556 L129.491 706.611 L129.503 706.666 C134.83 730.64 127.693 742.32 112 742.32 L92 742.32 L92 742.32 Z " />
<glyph glyph-name="parenleft" unicode="&#x28;" horiz-adv-x="470" d="M315.707 766.368 L322.958 771.257 L326.869 763.435 L331.869 753.435 L334.88 747.413 L329.304 743.64 C232.423 678.074 167.68 490.71 167.68 273 C167.68 59.2278 229.541 -129.301 322.598 -198.848 L327.972 -202.865 L324.714 -208.73 L319.714 -217.73 L315.437 -225.428 L308.392 -220.144 C178.77 -122.927 92.32 75.3989 92.32 273 C92.32 477.653 181.897 676.148 315.707 766.368 L315.707 766.368 Z M271.545 710.175 C171.277 611.203 107.68 445.723 107.68 273 C107.68 109.355 166.886 -52.3599 261.006 -155.971 C194.025 -62.2234 152.32 98.6404 152.32 273 C152.32 455.276 198.368 619.988 271.545 710.175 L271.545 710.175 Z " />
<glyph glyph-name="parenright" unicode="&#x29;" horiz-adv-x="470" d="M20.8061 743.566 L15.0671 747.307 L18.1308 753.435 L23.1308 763.435 L26.9729 771.119 L34.1801 766.443 C203.736 656.433 317.68 458.049 317.68 273 C317.68 84.9992 206.772 -113.414 41.1689 -220.45 L33.9662 -225.105 L30.1308 -217.435 L25.1308 -207.435 L22.0606 -201.294 L27.8197 -197.557 C156.94 -113.777 242.32 73.6667 242.32 273 C242.32 470.273 153.988 656.751 20.8061 743.566 L20.8061 743.566 Z M102.03 694.904 C197.561 593.387 257.68 435.556 257.68 273 C257.68 108.172 199.062 -51.2915 105.69 -151.473 C226.491 -42.0308 302.32 118.171 302.32 273 C302.32 424.643 225.028 583.776 102.03 694.904 L102.03 694.904 Z " />
<glyph glyph-name="asterisk" unicode="&#x2a;" horiz-adv-x="296" d="M251.024 547.997 C260.899 541.6 268.424 544.068 275.38 555.894 C282.345 567.733 280.845 575.553 270.215 581.212 L251.024 547.997 L251.024 547.997 Z M150.079 658.957 L168.464 752.481 L168.467 752.494 L168.469 752.506 C171.785 769.084 166.218 776.32 150 776.32 C133.782 776.32 128.215 769.084 131.531 752.506 L131.532 752.5 L131.533 752.494 L150.079 658.957 L150.079 658.957 Z M22.051 664.318 C6.19764 674.195 1.09504 692.385 11.2865 710.73 L11.3324 710.812 L11.3803 710.894 C21.6614 728.372 40.3013 732.924 56.518 724.056 L57.0556 724.986 L64.062 718.776 L68.8334 714.641 L68.797 714.579 L135.032 655.87 L116.469 749.494 L116.467 749.506 C111.79 772.923 126.223 791.68 150 791.68 C173.773 791.68 188.205 772.93 183.536 749.519 L183.531 749.494 L164.898 654.713 L235.924 717.264 L235.947 717.284 L235.97 717.304 C253.664 732.638 276.777 729.027 288.62 708.894 C300.53 688.646 291.862 666.975 269.655 658.794 L269.523 658.745 L269.389 658.701 L181.386 629.9 L269.448 600.279 L278.346 597.286 L276.905 594.791 C293.613 584.956 299.132 565.977 288.62 548.106 C276.703 527.848 253.556 524.955 235.97 540.196 L231.177 544.35 L231.96 545.705 L165.015 604.282 L183.528 512.519 L183.53 512.513 L183.531 512.506 C188.215 489.084 173.782 470.32 150 470.32 C126.218 470.32 111.785 489.084 116.469 512.506 L116.472 512.519 L116.474 512.532 L134.913 603.122 L64.0758 540.736 L64.0529 540.716 L64.0299 540.696 C46.5722 525.566 23.3114 527.726 11.332 549.189 C-0.506855 569.413 8.16842 591.036 30.345 599.206 L30.448 599.244 L30.5521 599.279 L121.763 629.952 L36.277 658.321 L20.4392 630.909 L7.28016 638.47 L22.051 664.318 L22.051 664.318 Z M29.538 677.402 C35.646 688.027 44.2613 702.898 48.966 711.01 C39.119 717.384 31.6075 714.939 24.667 703.187 C17.7115 690.623 19.1182 682.992 29.538 677.402 L29.538 677.402 Z M123.514 645.554 L60.945 701.014 L44.124 671.901 L123.514 645.554 L123.514 645.554 Z M124.957 614.821 L35.555 584.757 C19.8476 578.94 16.5472 570.617 24.6197 556.894 L24.6676 556.812 L24.7135 556.73 C32.7376 542.286 41.4286 541.455 53.9242 552.264 L53.9701 552.304 L124.957 614.821 L124.957 614.821 Z M150.081 600.633 L131.531 509.494 L131.526 509.468 C128.221 492.909 133.79 485.68 150 485.68 C166.214 485.68 171.782 492.912 168.472 509.481 L168.469 509.494 L150.081 600.633 L150.081 600.633 Z M175.208 615.773 L239.025 559.933 L255.654 588.714 L175.208 615.773 L175.208 615.773 Z M264.473 673.254 C280.156 679.07 283.448 687.391 275.38 701.106 C267.233 714.956 258.358 716.359 246.076 705.736 L246.03 705.696 L176.5 644.462 L264.473 673.254 L264.473 673.254 Z " />
<glyph glyph-name="plus" unicode="&#x2b;" horiz-adv-x="620" d="M269.32 460 L269.32 467.68 L277 467.68 L343 467.68 L350.68 467.68 L350.68 460 L350.68 287.68 L520 287.68 L527.68 287.68 L527.68 280 L527.68 220 L527.68 212.32 L520 212.32 L350.68 212.32 L350.68 40 L350.68 32.32 L343 32.32 L277 32.32 L269.32 32.32 L269.32 40 L269.32 212.32 L100 212.32 L92.32 212.32 L92.32 220 L92.32 280 L92.32 287.68 L100 287.68 L269.32 287.68 L269.32 460 L269.32 460 Z M284.68 452.32 L284.68 280 L284.68 272.32 L277 272.32 L107.68 272.32 L107.68 227.68 L277 227.68 L284.68 227.68 L284.68 220 L284.68 47.68 L335.32 47.68 L335.32 220 L335.32 227.68 L343 227.68 L512.32 227.68 L512.32 272.32 L343 272.32 L335.32 272.32 L335.32 280 L335.32 452.32 L284.68 452.32 L284.68 452.32 Z " />
<glyph glyph-name="comma" unicode="&#x2c;" horiz-adv-x="265" d="M152.264 -5.839 C144.193 -10.1976 134.855 -12.68 125 -12.68 C85.8188 -12.68 57.32 15.8188 57.32 55 C57.32 94.1812 85.8188 122.68 125 122.68 C170.999 122.68 202.68 77.4209 202.68 16 C202.68 -66.1812 146.181 -122.68 65 -122.68 L57.32 -122.68 L57.32 -115 L57.32 -95 L57.32 -87.32 L65 -87.32 C119.197 -87.32 152.32 -59.427 152.32 -15 C152.32 -11.8832 152.32 -8.83919 152.264 -5.839 L152.264 -5.839 Z M150.941 11.553 L150.3 16.68 L159 16.68 L159.5 16.68 L178.041 16.68 L167.068 5.707 C167.68 -1.34134 167.68 -8.33666 167.68 -15 C167.68 -64.3373 128.44 -99.5203 72.68 -102.478 L72.68 -107.15 C143.054 -103.994 187.32 -57.1911 187.32 16 C187.32 72.5791 163.001 107.32 125 107.32 C92.1812 107.32 72.68 87.8188 72.68 55 C72.68 22.1812 92.1812 2.68 125 2.68 C135.802 2.68 143.794 5.54808 150.941 11.553 L150.941 11.553 Z " />
<glyph glyph-name="hyphen" unicode="&#x2d;" horiz-adv-x="430" d="M80 242.32 L72.32 242.32 L72.32 250 L72.32 320 L72.32 327.68 L80 327.68 L350 327.68 L357.68 327.68 L357.68 320 L357.68 250 L357.68 242.32 L350 242.32 L80 242.32 L80 242.32 Z M87.68 257.68 L342.32 257.68 L342.32 312.32 L87.68 312.32 L87.68 257.68 L87.68 257.68 Z " />
<glyph glyph-name="period" unicode="&#x2e;" horiz-adv-x="195" d="M125 -12.68 C85.8188 -12.68 57.32 15.8188 57.32 55 C57.32 94.1812 85.8188 122.68 125 122.68 C164.181 122.68 192.68 94.1812 192.68 55 C192.68 15.8188 164.181 -12.68 125 -12.68 L125 -12.68 Z M125 2.68 C157.819 2.68 177.32 22.1812 177.32 55 C177.32 87.8188 157.819 107.32 125 107.32 C92.1812 107.32 72.68 87.8188 72.68 55 C72.68 22.1812 92.1812 2.68 125 2.68 L125 2.68 Z " />
<glyph glyph-name="slash" unicode="&#x2f;" horiz-adv-x="389" d="M301.711 772.418 L303.456 777.68 L309 777.68 L359 777.68 L369.64 777.68 L366.289 767.582 L84.2893 -82.4183 L82.5437 -87.68 L77 -87.68 L27 -87.68 L16.3604 -87.68 L19.7107 -77.5817 L301.711 772.418 L301.711 772.418 Z M314.544 762.32 L37.64 -72.32 L71.456 -72.32 L348.36 762.32 L314.544 762.32 L314.544 762.32 Z " />
<glyph glyph-name="zero" unicode="0" horiz-adv-x="610" d="M37.32 250 C37.32 392.865 145.493 517.68 305 517.68 C447.865 517.68 572.68 409.507 572.68 250 C572.68 107.135 464.507 -17.68 305 -17.68 C162.135 -17.68 37.32 90.4931 37.32 250 L37.32 250 Z M52.68 250 C52.68 97.5069 167.865 -2.32 305 -2.32 C457.493 -2.32 557.32 112.865 557.32 250 C557.32 402.493 442.135 502.32 305 502.32 C152.507 502.32 52.68 387.135 52.68 250 L52.68 250 Z M92.68 250 C92.68 118.443 188.925 32.68 305 32.68 C433.46 32.68 517.32 130.834 517.32 250 C517.32 381.557 421.075 467.32 305 467.32 C176.54 467.32 92.68 369.166 92.68 250 L92.68 250 Z M77.32 250 C77.32 374.834 169.46 482.68 305 482.68 C426.925 482.68 532.68 388.443 532.68 250 C532.68 125.166 440.54 17.32 305 17.32 C183.075 17.32 77.32 111.557 77.32 250 L77.32 250 Z " />
<glyph glyph-name="one" unicode="1" horiz-adv-x="365" d="M317.68 0 L317.68 -7.68 L310 -7.68 L55 -7.68 L47.32 -7.68 L47.32 0 L47.32 25 L47.32 33.2935 L55.589 32.6574 L68.5345 31.6614 L68.589 31.6574 C107.135 29.0051 132.32 66.3779 132.32 130 L132.32 370 C132.32 433.623 107.136 470.995 68.589 468.343 L68.5345 468.339 L55.589 467.343 L45.4809 466.565 L47.4691 476.506 C48.2752 480.536 47.32 496.774 47.32 501 L47.32 508.68 L55 508.68 L310 508.68 L317.68 508.68 L317.68 501 L317.68 476 L317.68 467.707 L309.411 468.343 L296.465 469.339 L296.411 469.343 C257.865 471.995 232.68 434.622 232.68 371 L232.68 131 C232.68 67.3776 257.864 30.0048 296.411 32.6574 L296.465 32.6614 L309.411 33.6574 L319.519 34.4349 L317.531 24.4938 C316.725 20.4637 317.68 4.22569 317.68 0 L317.68 0 Z M302.087 7.68 C301.988 10.7726 301.895 14.3364 301.897 17.674 L297.589 17.3426 L297.562 17.3405 L297.535 17.3386 C250.112 14.0301 217.32 62.6522 217.32 131 L217.32 371 C217.32 439.348 250.112 487.97 297.535 484.661 L297.562 484.659 L297.589 484.657 L302.32 484.293 L302.32 493.32 L62.913 493.32 C63.0123 490.227 63.1052 486.664 63.103 483.326 L67.411 483.657 L67.4382 483.659 L67.4655 483.661 C114.888 486.97 147.68 438.348 147.68 370 L147.68 130 C147.68 61.6522 114.888 13.0301 67.4655 16.3386 L67.4382 16.3405 L67.411 16.3426 L62.68 16.707 L62.68 7.68 L302.087 7.68 L302.087 7.68 Z " />
<glyph glyph-name="two" unicode="2" horiz-adv-x="541" d="M500.003 144.798 L503.881 149.646 L509.435 146.869 L521.435 140.869 L529.216 136.979 L524.39 129.74 C512.354 111.685 497.351 90.6785 483.404 70.756 L436.508 -4.07819 L434.251 -7.68 L430 -7.68 L18 -7.68 L-20.4 -7.68 L-21.1516 -0.833013 L8.304 5.713 L2.03239 10.1027 L13.5654 15.8692 C43.3177 30.7454 72.0302 46.5811 99.885 62.494 C109.574 69.2699 119.132 75.621 128.729 78.997 C256.71 156.485 348.32 240.535 348.32 325 C348.32 393.637 300.997 437.32 226 437.32 C148.042 437.32 86.0682 379.103 68.5401 288.541 L67.0213 280.693 L59.241 282.524 L42.241 286.524 L35.0663 288.212 L36.4582 295.45 C61.9257 427.881 156.945 517.68 270 517.68 C376.114 517.68 448.68 447.249 448.68 345 C448.68 262.826 341.375 170.713 195.912 82.68 L331 82.68 C404.754 82.68 467.39 103.559 491.967 134.753 L491.985 134.775 L492.003 134.798 L500.003 144.798 L500.003 144.798 Z M498.299 118.749 C467.757 87.5927 402.396 67.32 331 67.32 L168 67.32 L139.703 67.32 L164.117 81.6262 C320.599 173.322 433.32 265.637 433.32 345 C433.32 440.751 369.886 502.32 270 502.32 C165.086 502.32 79.3859 423.212 53.007 299.77 L55.103 299.277 C75.8002 390.471 144.273 452.68 226 452.68 C307.003 452.68 363.68 400.363 363.68 325 C363.68 233.619 265.625 143.822 135.974 65.428 L135.241 64.9849 L134.429 64.7141 C126.404 62.0393 118.333 56.6583 108.404 49.7083 L108.116 49.5065 L107.81 49.3319 C83.3344 35.3456 57.9926 21.3026 31.908 7.939 L32.278 7.68 L425.749 7.68 L470.492 79.0782 L470.596 79.2439 L470.708 79.4042 C479.876 92.5011 489.441 105.982 498.299 118.749 L498.299 118.749 Z " />
<glyph glyph-name="three" unicode="3" horiz-adv-x="434" d="M9.43686 -216.335 L8.0039 -208.215 L16.2052 -207.361 C187.262 -189.563 297.32 -113.958 297.32 -17 C297.32 63.521 221.435 127.312 101.851 144.839 L91.32 139.573 L91.32 146.301 L65.3132 149.867 L91.32 158.535 L91.32 169 L91.32 174.322 L96.3034 176.191 C103.393 178.85 110.497 182.34 117.892 186.033 C126.748 198.181 127.654 198.66 142.143 198.679 C228.121 242.957 280.32 294.617 280.32 357 C280.32 409.531 243.1 442.32 182 442.32 C112.489 442.32 58.8528 403.48 45.4914 344.308 L43.7391 336.548 L36.0455 338.573 L17.0455 343.573 L9.83614 345.47 L11.518 352.733 C34.1138 450.305 117.279 517.68 216 517.68 C316.612 517.68 386.68 463.782 386.68 386 C386.68 317.798 314.75 252.836 202.459 193.452 C322.953 174.056 401.68 103.196 401.68 7 C401.68 -117.227 246.597 -215.446 20.8182 -239.636 L13.6838 -240.401 L12.4369 -233.335 L9.43686 -216.335 L9.43686 -216.335 Z M25.987 -221.735 L26.311 -223.573 C244.497 -198.581 386.32 -107.53 386.32 7 C386.32 102.376 305.922 168.586 176.247 181.357 L149.758 183.966 L173.565 195.869 C296.742 257.457 371.32 320.562 371.32 386 C371.32 456.218 311.388 502.32 216 502.32 C125.176 502.32 51.8378 444.844 28.282 356.499 L32.496 355.39 C50.1652 416.067 110.497 457.68 182 457.68 C248.9 457.68 295.68 416.469 295.68 357 C295.68 287.778 236.543 229.697 147.497 184.162 L145.85 183.32 L144 183.32 C134.911 183.32 134.911 183.32 129.211 175.483 L128.11 173.968 L126.435 173.131 C120.022 169.925 113.379 166.603 106.68 163.793 L106.68 163.655 L139.001 174.429 L142.781 165.304 L124.955 156.391 C237.458 133.587 312.68 65.6472 312.68 -17 C312.68 -120.394 196.472 -201.846 25.987 -221.735 L25.987 -221.735 Z " />
<glyph glyph-name="four" unicode="4" horiz-adv-x="620" d="M608.03 40.68 L608.402 40.68 L607.097 31.8745 C603.112 4.97347 598.612 -32.0265 594.597 -59.1255 L593.413 -67.1148 L585.494 -65.5309 C580.703 -64.5727 567.454 -62.68 562 -62.68 L553.3 -62.68 L554.379 -54.0474 L555.334 -46.411 C555.822 -23.6759 521.025 -7.68 460 -7.68 L422.68 -7.68 L422.68 -220 L422.68 -227.68 L415 -227.68 L330 -227.68 L322.32 -227.68 L322.32 -220 L322.32 -7.68 L15 -7.68 L7.32 -7.68 L7.32 0 L7.32 15 L7.32 17.5746 L8.87174 19.6289 L397.872 534.629 L400.176 537.68 L404 537.68 L415 537.68 L422.68 537.68 L422.68 530 L422.68 72.68 L468 72.68 C529.048 72.68 571.169 94.1348 578.476 125.55 L580.444 136.374 L582.276 146.449 L591.435 141.869 C592.563 141.305 604.814 138.68 613 138.68 L621.772 138.68 L620.613 129.985 C617 102.889 612.557 69.1584 608.03 40.68 L608.03 40.68 Z M590.628 25.32 L589.934 25.32 L591.424 34.2626 C595.965 61.507 600.51 95.412 604.31 123.931 C600.822 124.355 597.248 124.956 594.095 125.59 L593.556 122.626 L593.525 122.457 L593.487 122.289 C584.688 83.7916 532.847 57.32 468 57.32 L415 57.32 L407.32 57.32 L407.32 65 L407.32 521.653 L22.68 12.425 L22.68 7.68 L330 7.68 L337.68 7.68 L337.68 0 L337.68 -212.32 L407.32 -212.32 L407.32 0 L407.32 7.68 L415 7.68 L460 7.68 C524.693 7.68 571.857 -14.1765 570.675 -47.2741 L570.663 -47.6146 L570.627 -47.905 C573.887 -48.2466 577.388 -48.6988 580.523 -49.153 C583.792 -26.1937 587.332 2.07922 590.628 25.32 L590.628 25.32 Z M107.769 72.212 L322.32 72.664 L322.32 357.979 L107.769 72.212 L107.769 72.212 Z M95.688 56.827 L70.2777 31.4165 L62.8028 37.9027 L85.8583 68.6111 L323.858 385.611 L337.68 404.021 L337.68 381 L337.68 65 L337.68 57.3362 L330.016 57.32 L95.688 56.827 L95.688 56.827 Z " />
<glyph glyph-name="five" unicode="5" horiz-adv-x="436" d="M366 562.68 L366.5 562.68 L375.681 562.68 L374.059 553.643 C367.063 514.662 359.568 471.696 351.571 424.711 L350.492 418.374 L344.064 418.32 L109.408 416.373 L85.219 284.68 L95 284.68 C284.499 284.68 414.68 189.909 414.68 50 C414.68 -98.6172 272.154 -216.356 61.9165 -241.625 L53.8422 -242.596 L53.335 -234.479 L52.335 -218.479 L51.8837 -211.258 L59.0647 -210.377 C219.707 -190.666 324.32 -98.53 324.32 21 C324.32 116.913 231.655 179.32 86 179.32 L48 179.32 L45.1144 179.32 L42.9427 181.22 L26.9427 195.22 L23.6568 198.095 L24.4467 202.389 L79.4467 501.389 L80.6039 507.68 L87 507.68 L221 507.68 C282.438 507.68 325.519 524.695 332.582 548.995 L334.549 556.863 L336.004 562.68 L342 562.68 L366 562.68 L366 562.68 Z M357.323 547.32 L347.996 547.32 L347.451 545.137 L347.42 545.013 L347.385 544.89 C338.345 513.252 285.465 492.32 221 492.32 L93.396 492.32 L40.343 203.905 L50.886 194.68 L86 194.68 C236.345 194.68 339.68 125.087 339.68 21 C339.68 -103.632 229.566 -202.425 68.113 -224.688 L68.155 -225.356 C269.33 -198.742 399.32 -89.5255 399.32 50 C399.32 182.091 279.501 269.32 95 269.32 L76 269.32 L66.7809 269.32 L68.4464 278.387 L95.4464 425.387 L96.5924 431.627 L102.936 431.68 L337.509 433.626 C344.498 474.604 351.104 512.51 357.323 547.32 L357.323 547.32 Z " />
<glyph glyph-name="six" unicode="6" horiz-adv-x="568" d="M548.398 757.511 L555.652 759.059 L557.451 751.863 L560.451 739.863 L562.383 732.133 L554.588 730.486 C375.891 692.72 241.448 582.466 179.848 434.351 C210.451 459.434 250.238 473.68 295 473.68 C430.257 473.68 522.68 378.106 522.68 239 C522.68 87.0529 428.42 -17.68 290 -17.68 C142.309 -17.68 42.32 107.306 42.32 291 C42.32 506.383 246.356 693.075 548.398 757.511 L548.398 757.511 Z M456.865 717.35 C212.802 639.017 57.68 476.609 57.68 291 C57.68 112.694 149.691 -2.32 290 -2.32 C421.58 -2.32 507.32 92.9471 507.32 239 C507.32 371.894 423.743 458.32 295 458.32 C239.778 458.32 195.978 436.886 166.07 398.295 L142.548 367.944 L140.693 368.93 L152.705 405.402 C198.996 545.956 308.54 659.344 456.865 717.35 L456.865 717.35 Z M142.68 247 C142.68 110.283 199.16 23.68 285 23.68 C367.788 23.68 422.32 109.239 422.32 244 C422.32 360.483 368.111 434.32 286 434.32 C198.782 434.32 142.68 361.388 142.68 247 L142.68 247 Z M127.32 247 C127.32 366.612 191.218 449.68 286 449.68 C375.889 449.68 437.68 365.517 437.68 244 C437.68 104.761 376.212 8.32 285 8.32 C190.84 8.32 127.32 105.717 127.32 247 L127.32 247 Z " />
<glyph glyph-name="seven" unicode="7" horiz-adv-x="455" d="M215 507.68 L452 507.68 L459.68 507.68 L459.68 500 L459.68 485 L459.68 483.555 L459.155 482.209 L184.155 -222.791 L182.248 -227.68 L177 -227.68 L112 -227.68 L100.155 -227.68 L104.989 -216.866 L391.155 423.32 L187 423.32 C125.648 423.32 76.6645 404.928 59.844 376.488 L56.0181 367.881 L51.4765 357.662 L43.5694 365.569 C42.4507 366.688 32.2374 371.795 28.1099 370.615 L12.3069 366.1 L18.9819 381.119 C26.9971 399.153 37.9907 422.145 47.96 443.08 L57.8693 467.852 L57.9666 468.096 L58.0803 468.332 C71.0073 495.18 85.9611 530.072 97.9819 557.119 L102.523 567.338 L110.431 559.431 C112.082 557.779 122.155 554.68 126 554.68 L137.647 554.68 L133.059 543.975 L130.194 537.29 C127.619 529.197 131.397 524.138 145.433 518.045 C160.67 511.431 184.111 507.68 215 507.68 L215 507.68 Z M215 492.32 C182.889 492.32 156.33 496.569 139.317 503.955 C121.697 511.604 110.987 525.978 115.365 541.301 C113.153 541.937 110.886 542.694 108.758 543.52 C97.4186 517.838 83.9188 486.609 72.034 461.905 L62.1307 437.148 L62.0395 436.92 L61.934 436.698 C53.6451 419.292 44.7009 400.578 37.352 384.49 C40.1259 383.712 42.8625 382.693 45.317 381.623 L45.9819 383.119 L46.1503 383.498 L46.3584 383.856 C65.731 417.22 122.599 438.68 187 438.68 L403 438.68 L414.845 438.68 L410.011 427.866 L123.845 -212.32 L171.752 -212.32 L444.32 486.445 L444.32 492.32 L215 492.32 L215 492.32 Z " />
<glyph glyph-name="eight" unicode="8" horiz-adv-x="543" d="M218.923 362.822 C158.823 326.282 121.68 255.534 121.68 174 C121.68 79.0771 180.286 17.68 271 17.68 C366.409 17.68 428.32 91.7859 428.32 208 C428.32 266.462 356.702 306.048 244.148 351.869 L244.104 351.887 C235.737 355.234 227.055 358.708 218.923 362.822 L218.923 362.822 Z M183.293 382.779 C107.081 429.739 58.32 500.244 58.32 580 C58.32 691.477 145.107 767.68 270 767.68 C396.649 767.68 484.68 698.74 484.68 598 C484.68 530.78 430.73 461.188 347.762 414.331 C446.398 364.445 511.68 296.695 511.68 172 C511.68 58.265 413.654 -18.68 272 -18.68 C130.295 -18.68 33.32 59.3213 33.32 173 C33.32 252.424 92.1265 331.656 183.293 382.779 L183.293 382.779 Z M308.664 434.451 C363.186 467.791 397.32 526.31 397.32 591 C397.32 683.408 353.196 741.32 286 741.32 C197.911 741.32 141.68 691.542 141.68 613 C141.68 538.997 196.465 479.489 282.838 445.136 L282.888 445.117 L282.936 445.096 L308.664 434.451 L308.664 434.451 Z M309 418.32 L307.474 418.32 L306.064 418.904 L277.112 430.883 C187.513 466.535 126.32 533.018 126.32 613 C126.32 681.61 168.713 732.664 234.026 750.128 C135.579 737.729 73.68 673.586 73.68 580 C73.68 503.134 120.234 437.638 196.869 392.525 L221.73 378.714 C230.304 373.95 239.852 370.131 249.852 366.131 L249.874 366.122 L249.896 366.113 C363.317 319.942 443.68 275.531 443.68 208 C443.68 86.2141 373.591 2.32 271 2.32 C173.714 2.32 106.32 72.9229 106.32 174 C106.32 257.148 145.153 333.156 206.192 372.947 L203.128 376.011 L201.548 375.188 C107.046 325.969 48.68 250.38 48.68 173 C48.68 66.6787 135.705 -3.32 272 -3.32 C408.346 -3.32 496.32 65.735 496.32 172 C496.32 295.717 431.585 357.596 327.698 407.066 L313.728 413.718 L327.474 420.823 C415.054 466.089 469.32 532.731 469.32 598 C469.32 673.367 418.398 727.705 334.81 745.781 C382.425 722.85 412.68 665.529 412.68 591 C412.68 520.887 373.089 454.374 313.384 419.374 L311.585 418.32 L309.5 418.32 L309 418.32 L309 418.32 Z " />
<glyph glyph-name="nine" unicode="9" horiz-adv-x="568" d="M19.6023 -257.511 L12.3483 -259.059 L10.5493 -251.863 L7.54931 -239.863 L5.61698 -232.133 L13.412 -230.486 C192.109 -192.72 326.552 -82.4657 388.152 65.649 C357.549 40.5662 317.762 26.32 273 26.32 C137.743 26.32 45.32 121.894 45.32 261 C45.32 412.947 139.58 517.68 278 517.68 C425.691 517.68 525.68 392.694 525.68 209 C525.68 -6.3826 321.644 -193.075 19.6023 -257.511 L19.6023 -257.511 Z M111.135 -217.35 C355.198 -139.017 510.32 23.3911 510.32 209 C510.32 387.306 418.309 502.32 278 502.32 C146.42 502.32 60.68 407.053 60.68 261 C60.68 128.106 144.257 41.68 273 41.68 C328.222 41.68 372.022 63.1143 401.93 101.705 L425.452 132.056 L427.307 131.07 L415.295 94.5976 C369.004 -45.9563 259.46 -159.344 111.135 -217.35 L111.135 -217.35 Z M425.32 253 C425.32 389.717 368.84 476.32 283 476.32 C200.212 476.32 145.68 390.761 145.68 256 C145.68 139.517 199.889 65.68 282 65.68 C369.218 65.68 425.32 138.612 425.32 253 L425.32 253 Z M440.68 253 C440.68 133.388 376.782 50.32 282 50.32 C192.111 50.32 130.32 134.483 130.32 256 C130.32 395.239 191.788 491.68 283 491.68 C377.16 491.68 440.68 394.283 440.68 253 L440.68 253 Z " />
<glyph glyph-name="colon" unicode="&#x3a;" horiz-adv-x="135" d="M125 377.32 C85.8188 377.32 57.32 405.819 57.32 445 C57.32 484.181 85.8188 512.68 125 512.68 C164.181 512.68 192.68 484.181 192.68 445 C192.68 405.819 164.181 377.32 125 377.32 L125 377.32 Z M125 392.68 C157.819 392.68 177.32 412.181 177.32 445 C177.32 477.819 157.819 497.32 125 497.32 C92.1812 497.32 72.68 477.819 72.68 445 C72.68 412.181 92.1812 392.68 125 392.68 L125 392.68 Z M125 -12.68 C85.8188 -12.68 57.32 15.8188 57.32 55 C57.32 94.1812 85.8188 122.68 125 122.68 C164.181 122.68 192.68 94.1812 192.68 55 C192.68 15.8188 164.181 -12.68 125 -12.68 L125 -12.68 Z M125 2.68 C157.819 2.68 177.32 22.1812 177.32 55 C177.32 87.8188 157.819 107.32 125 107.32 C92.1812 107.32 72.68 87.8188 72.68 55 C72.68 22.1812 92.1812 2.68 125 2.68 L125 2.68 Z " />
<glyph glyph-name="semicolon" unicode="&#x3b;" horiz-adv-x="265" d="M125 377.32 C85.8188 377.32 57.32 405.819 57.32 445 C57.32 484.181 85.8188 512.68 125 512.68 C164.181 512.68 192.68 484.181 192.68 445 C192.68 405.819 164.181 377.32 125 377.32 L125 377.32 Z M125 392.68 C157.819 392.68 177.32 412.181 177.32 445 C177.32 477.819 157.819 497.32 125 497.32 C92.1812 497.32 72.68 477.819 72.68 445 C72.68 412.181 92.1812 392.68 125 392.68 L125 392.68 Z M152.264 -5.839 C144.193 -10.1976 134.855 -12.68 125 -12.68 C85.8188 -12.68 57.32 15.8188 57.32 55 C57.32 94.1812 85.8188 122.68 125 122.68 C170.999 122.68 202.68 77.4209 202.68 16 C202.68 -66.1812 146.181 -122.68 65 -122.68 L57.32 -122.68 L57.32 -115 L57.32 -95 L57.32 -87.32 L65 -87.32 C119.197 -87.32 152.32 -59.427 152.32 -15 C152.32 -11.8832 152.32 -8.83919 152.264 -5.839 L152.264 -5.839 Z M150.941 11.553 L150.3 16.68 L159 16.68 L159.5 16.68 L178.041 16.68 L167.068 5.707 C167.68 -1.34134 167.68 -8.33666 167.68 -15 C167.68 -64.3373 128.44 -99.5203 72.68 -102.478 L72.68 -107.15 C143.054 -103.994 187.32 -57.1911 187.32 16 C187.32 72.5791 163.001 107.32 125 107.32 C92.1812 107.32 72.68 87.8188 72.68 55 C72.68 22.1812 92.1812 2.68 125 2.68 C135.802 2.68 143.794 5.54808 150.941 11.553 L150.941 11.553 Z " />
<glyph glyph-name="equal" unicode="&#x3d;" horiz-adv-x="533" d="M75.32 219 L75.32 226.68 L83 226.68 L463 226.68 L470.68 226.68 L470.68 219 L470.68 181 L470.68 173.32 L463 173.32 L83 173.32 L75.32 173.32 L75.32 181 L75.32 219 L75.32 219 Z M90.68 211.32 L90.68 188.68 L455.32 188.68 L455.32 211.32 L90.68 211.32 L90.68 211.32 Z M75.32 319 L75.32 326.68 L83 326.68 L463 326.68 L470.68 326.68 L470.68 319 L470.68 281 L470.68 273.32 L463 273.32 L83 273.32 L75.32 273.32 L75.32 281 L75.32 319 L75.32 319 Z M90.68 311.32 L90.68 288.68 L455.32 288.68 L455.32 311.32 L90.68 311.32 L90.68 311.32 Z " />
<glyph glyph-name="question" unicode="&#x3f;" horiz-adv-x="299" d="M125 -12.68 C85.8188 -12.68 57.32 15.8188 57.32 55 C57.32 94.1812 85.8188 122.68 125 122.68 C164.181 122.68 192.68 94.1812 192.68 55 C192.68 15.8188 164.181 -12.68 125 -12.68 L125 -12.68 Z M125 2.68 C157.819 2.68 177.32 22.1812 177.32 55 C177.32 87.8188 157.819 107.32 125 107.32 C92.1812 107.32 72.68 87.8188 72.68 55 C72.68 22.1812 92.1812 2.68 125 2.68 L125 2.68 Z M132.68 210 L132.68 202.32 L125 202.32 L110 202.32 L102.487 202.32 L102.322 209.831 C102.322 209.831 101.073 266.514 98.826 323.573 C97.7022 352.102 96.3335 380.628 94.7469 402.234 C93.9556 413.01 93.1272 421.876 92.2485 428.199 C91.5563 433.181 91.5019 433.799 93.026 433.288 L58.3483 446.292 L58.6 447.68 L97 447.68 C219.601 447.68 242.423 463.48 259.61 489.26 L259.658 489.333 L259.708 489.404 C273.151 508.607 281.32 530.393 281.32 545 C281.32 617.053 240.58 662.32 176 662.32 C159.057 662.32 133.057 647.32 111 647.32 C79.9466 647.32 57.32 668.69 57.32 697 C57.32 738.746 94.3557 767.68 145 767.68 C250.608 767.68 322.68 680.77 322.68 555 C322.68 513.972 310.081 467.777 291.39 439.74 L291.371 439.711 L291.351 439.681 C257.906 390.497 223.181 354.321 132.68 352.4 L132.68 210 L132.68 210 Z M117.32 225.042 L117.32 360 L117.32 367.68 L125 367.68 C214.716 367.68 245.001 398.845 278.61 448.26 L278.649 448.319 C295.936 474.286 307.32 516.058 307.32 555 C307.32 675.23 243.392 752.32 145 752.32 C99.6443 752.32 72.68 731.254 72.68 697 C72.68 675.31 86.0534 662.68 111 662.68 C128.943 662.68 154.943 677.68 176 677.68 C247.42 677.68 296.68 622.947 296.68 545 C296.68 527.627 286.872 501.452 272.342 480.667 C254.038 453.25 225.87 433.42 107.15 432.364 C107.265 431.672 107.369 430.987 107.462 430.313 C108.388 423.648 109.263 414.287 110.066 403.359 C111.667 381.559 113.048 352.773 114.174 324.177 C115.724 284.826 116.8 245.653 117.32 225.042 L117.32 225.042 Z " />
<glyph glyph-name="at" unicode="&#x40;" horiz-adv-x="1160" d="M1034.05 3.25841 L1036.12 7.68 L1041 7.68 L1070 7.68 L1082.06 7.68 L1076.96 -3.25027 C1004.9 -157.516 817.979 -260.68 611 -260.68 C274.996 -260.68 48.32 -51.3617 48.32 259 C48.32 573.203 262.84 785.68 581 785.68 C898.768 785.68 1113.68 607.61 1113.68 343 C1113.68 121.506 1003.91 -29.68 841 -29.68 C740.552 -29.68 672.675 18.7024 654.766 95.584 C612.206 36.5388 543.121 0.32 466 0.32 C356.725 0.32 281.32 78.9115 281.32 192 C281.32 374.162 403.8 497.68 585 497.68 C643.999 497.68 690.911 470.996 714.104 427.373 L727.544 481.84 L728.985 487.68 L735 487.68 L815 487.68 L824.836 487.68 L822.451 478.137 L752.451 198.137 C724.199 85.1311 764.457 14.68 855 14.68 C960.438 14.68 1030.32 142.956 1030.32 343 C1030.32 586.57 852.062 746.32 580 746.32 C308.36 746.32 129.68 552.994 129.68 259 C129.68 -35.9459 313.31 -230.32 591 -230.32 C792.098 -230.32 968.138 -137.41 1034.05 3.25841 L1034.05 3.25841 Z M459.269 -229.791 C248.889 -176.438 114.32 7.20377 114.32 259 C114.32 559.006 301.64 761.68 580 761.68 C857.938 761.68 1045.68 593.43 1045.68 343 C1045.68 139.044 969.562 -0.68 855 -0.68 C755.543 -0.68 707.801 82.8689 737.549 201.863 L805.164 472.32 L741.015 472.32 L723.456 401.16 L716.897 374.576 L708.674 400.694 C692.469 452.17 648.615 482.32 585 482.32 C410.2 482.32 296.68 367.838 296.68 192 C296.68 85.0885 363.275 15.68 466 15.68 C545.942 15.68 613.43 54.6519 652.406 119.937 L663.988 139.336 L666.627 116.897 C676.26 35.0197 737.702 -14.32 841 -14.32 C996.085 -14.32 1098.32 126.494 1098.32 343 C1098.32 600.39 893.232 770.32 581 770.32 C269.16 770.32 63.68 566.797 63.68 259 C63.68 4.78383 216.015 -177.263 459.269 -229.791 L459.269 -229.791 Z M1045.84 -7.68 C978.607 -145.451 806.702 -238.821 612.659 -245.318 C810.018 -244.795 984.502 -150.874 1057.7 -7.68 L1045.84 -7.68 L1045.84 -7.68 Z M697.317 356.933 C696.889 419.016 653.664 458.32 584 458.32 C466.759 458.32 390.68 360.368 390.68 208 C390.68 118.788 437.59 62.68 511 62.68 C578.962 62.68 637.098 117.06 658.549 201.863 L658.554 201.883 L697.317 356.933 L697.317 356.933 Z M712.68 356 L712.68 355.055 L712.451 354.137 L673.451 198.137 L673.448 198.127 L673.446 198.117 C650.893 108.932 585.032 47.32 511 47.32 C430.41 47.32 375.32 113.212 375.32 208 C375.32 365.632 459.241 473.68 584 473.68 C659.987 473.68 712.68 425.378 712.68 356 L712.68 356 Z " />
<glyph glyph-name="A" unicode="A" horiz-adv-x="796" d="M771.511 38.6644 L772.011 38.6963 L772.511 38.663 L787.511 37.663 L795.969 37.0991 L794.576 28.7374 C793.712 23.5553 794.68 4.19188 794.68 -1 L794.68 -8.68 L787 -8.68 L462 -8.68 L454.32 -8.68 L454.32 -1 L454.32 30 L454.32 37.68 L462 37.68 L481 37.68 L481.177 37.68 L481.354 37.6718 C540.666 34.9343 559.906 89.1542 530.67 182.709 L530.665 182.723 L530.661 182.736 L503.332 271.32 L263.634 271.32 L231.383 168.876 C209.133 83.5651 229.961 35.929 286.629 38.671 L286.814 38.68 L287 38.68 L306 38.68 L315.368 38.68 L313.531 29.4938 C312.715 25.4127 313.68 4.17446 313.68 0 L313.68 -7.68 L306 -7.68 L16 -7.68 L7.22803 -7.68 L8.38737 1.01502 C8.38737 1.01502 10.1574 14.2862 10.31 19.365 L8.44388 29.6262 L6.79773 38.68 L16 38.68 L36 38.68 L36.1719 38.68 L36.3435 38.6723 C100.128 35.8163 161.327 92.2915 192.706 184.404 L192.73 184.475 L365.949 710.108 L363.644 717.793 L361.087 726.316 L369.892 727.6 C416.18 734.35 440.576 750.614 437.434 768.684 L435.869 777.68 L445 777.68 L455 777.68 C460.913 777.68 464.911 769.991 466.812 764.853 C468.637 759.922 470.579 753.338 472.289 747.002 C475.376 735.571 477.947 724.138 478.422 722.004 L649.308 187.36 L649.315 187.338 C679.845 92.8086 728.353 35.9096 771.511 38.6644 L771.511 38.6644 Z M771.971 23.305 C721.274 20.5335 666.055 85.5142 634.692 182.64 L634.688 182.651 L634.685 182.662 L463.685 717.662 L463.576 718.002 L463.499 718.35 C463.499 718.35 460.788 730.673 457.461 742.998 C455.796 749.162 454.051 755.078 452.407 759.522 L452.292 759.832 C447.504 738.627 419.197 721.211 380.856 713.873 L381.356 712.207 L382.051 709.892 L381.294 707.596 L207.294 179.596 L207.282 179.561 L207.27 179.525 C174.669 83.7588 105.97 20.2898 35.831 23.32 L25.202 23.32 L25.5561 21.3738 L25.68 20.6925 L25.68 20 C25.68 17.296 25.1821 12.1846 24.675 7.68 L298.126 7.68 C297.998 12.3666 297.862 18.289 297.912 23.32 L287.182 23.32 C220.029 20.1896 192.919 82.4522 216.57 172.942 L216.618 173.125 L216.674 173.306 L250.674 281.306 L252.366 286.68 L258 286.68 L509 286.68 L514.668 286.68 L516.339 281.264 L545.33 187.291 L545.339 187.264 C576.064 88.9172 551.369 19.1847 480.826 22.32 L469.68 22.32 L469.68 6.68 L779.131 6.68 C778.992 11.5576 778.838 17.6817 778.908 22.842 L771.971 23.305 L771.971 23.305 Z M277.485 311.68 L491.542 311.68 L384.969 651.439 L277.485 311.68 L277.485 311.68 Z M267 296.32 L256.515 296.32 L259.678 306.316 L377.678 679.316 L385.031 702.561 L392.328 679.299 L509.328 306.299 L512.458 296.32 L502 296.32 L267 296.32 L267 296.32 Z " />
<glyph glyph-name="B" unicode="B" horiz-adv-x="685" d="M334 16.68 C453.352 16.68 527.32 49.9658 527.32 201 C527.32 307.531 448.1 377.32 325 377.32 L252.68 377.32 L252.68 229 C252.68 163.279 256.631 108.956 263.435 70.8501 C270.147 33.2635 277.497 16.68 284 16.68 L334 16.68 L334 16.68 Z M365 -7.68 L60 -7.68 L52.32 -7.68 L52.32 0 L52.32 31 L52.32 38.68 L60 38.68 L73 38.68 L73.2676 38.68 L73.5345 38.6614 C112.225 35.9621 137.32 71.4416 137.32 135 L137.32 615 C137.32 678.529 112.249 714.005 73.589 711.343 L73.5345 711.339 L60.589 710.343 L50.8125 709.591 L52.4245 719.263 C53.2911 724.462 52.32 745.826 52.32 750 L52.32 757.68 L60 757.68 L330 757.68 C565.798 757.68 624.68 680.598 624.68 570 C624.68 491.409 570.422 429.408 483.481 399.264 C586.711 372.5 652.68 298.949 652.68 201 C652.68 32.4957 534.267 -7.68 365 -7.68 L365 -7.68 Z M270.937 7.68 C260.975 17.9736 253.341 40.0024 248.315 68.1499 C241.369 107.044 237.32 162.721 237.32 229 L237.32 385 L237.32 392.68 L245 392.68 L325 392.68 C453.9 392.68 542.68 314.469 542.68 201 C542.68 78.0304 492.47 26.4087 414.083 8.89 C552.181 16.2577 637.32 59.5752 637.32 201 C637.32 301.789 566.354 371.808 450.779 390.418 L413.375 396.44 L450.172 405.459 C550.087 429.948 609.32 489.181 609.32 570 C609.32 675.402 558.202 742.32 330 742.32 L67.874 742.32 C68.0043 737.575 68.1445 731.537 68.099 726.326 L72.411 726.657 L72.4382 726.659 L72.4655 726.661 C119.775 729.962 152.68 683.442 152.68 615 L152.68 135 C152.68 66.691 119.902 20.2183 72.74 23.32 L67.68 23.32 L67.68 7.68 L270.937 7.68 L270.937 7.68 Z M335 409.68 C441.144 409.68 509.32 468.517 509.32 560 C509.32 659.775 469.77 722.32 290 722.32 L252.68 722.32 L252.68 409.68 L335 409.68 L335 409.68 Z M335 394.32 L245 394.32 L237.32 394.32 L237.32 402 L237.32 730 L237.32 737.68 L245 737.68 L290 737.68 C478.23 737.68 524.68 664.225 524.68 560 C524.68 461.483 446.856 394.32 335 394.32 L335 394.32 Z " />
<glyph glyph-name="C" unicode="C" horiz-adv-x="740" d="M705.68 223 L705.68 -1 L705.68 -39.4 L690.32 -39.4 L690.32 -6.531 C689.313 -6.46293 688.207 -6.43 687 -6.43 C685.793 -6.43 684.687 -6.46293 683.68 -6.531 L683.68 -39.4 L673.828 -40.1002 L668.397 -2.08612 L665.405 18.8607 L665.397 18.9139 C664.513 24.5766 658.496 27.0386 641.278 26.6965 C623.165 26.3367 598.148 21.1032 567.686 10.801 C523.008 -7.43678 468.61 -17.68 403 -17.68 C187.619 -17.68 42.32 141.015 42.32 375 C42.32 609.062 192.698 767.68 414 767.68 C478.606 767.68 528.995 758.442 569.676 742.201 C599.723 731.868 624.423 726.118 642.268 724.913 C659.261 723.764 664.701 725.428 665.427 729.283 L668.414 748.198 L676 747 L683.68 747 C683.68 751.406 679.539 753.1 680.811 752.869 C682.451 752.57 684.512 752.43 687 752.43 C688.207 752.43 689.313 752.463 690.32 752.531 L690.32 785.4 L705.68 785.4 L705.68 747 L705.68 526 L705.68 487.6 L690.32 487.6 L690.32 520.992 C688.493 521.213 686.367 521.32 684 521.32 C681.633 521.32 679.507 521.213 677.68 520.992 L677.68 487.6 L673.545 487 L662.636 523.818 L654.636 550.818 L654.617 550.883 L654.599 550.949 C632.121 632.066 571.921 696.127 501.992 716.586 C478.519 722.44 453.498 725.32 424 725.32 C269.883 725.32 167.68 586.478 167.68 373 C167.68 158.411 265.01 18.68 413 18.68 C446.336 18.68 475.136 23.4748 502.581 32.289 C573.747 56.6884 633.115 119.906 654.602 197.06 L654.608 197.085 L654.615 197.11 L662.615 225.11 L670 223 L677.68 223 C677.68 227.064 674.008 228.638 675.812 228.294 C677.995 227.878 680.774 227.68 684 227.68 C686.367 227.68 688.493 227.787 690.32 228.008 L690.32 261.4 L705.68 261.4 L705.68 223 L705.68 223 Z M675.01 536.125 C677.759 536.492 681.019 536.68 684 536.68 C686.06 536.68 688.254 536.591 690.32 536.414 L690.32 737.159 C689.201 737.1 688.073 737.07 687 737.07 C685.462 737.07 683.813 737.131 682.236 737.251 L680.586 726.802 L680.575 726.734 L680.563 726.665 C678.25 713.557 661.163 708.241 641.232 709.587 C622.112 710.879 595.373 717.11 564.5 727.738 L564.322 727.799 L564.148 727.869 C524.859 743.585 477.301 752.32 414 752.32 C199.302 752.32 57.68 602.938 57.68 375 C57.68 146.985 194.381 -2.32 403 -2.32 C467.282 -2.32 518.812 7.40265 562.092 25.1082 L562.312 25.198 L562.536 25.2741 C593.973 35.9221 621.379 41.6642 640.972 42.0535 C661.45 42.4603 678.45 35.4386 680.595 21.1393 L680.599 21.1127 L680.603 21.0861 L682.364 8.758 C683.902 8.87167 685.504 8.93 687 8.93 C688.073 8.93 689.201 8.89978 690.32 8.841 L690.32 212.586 C688.254 212.409 686.06 212.32 684 212.32 C681.049 212.32 677.823 212.504 675.091 212.864 L669.398 192.94 L669.385 192.89 C646.865 112.091 582.277 43.3467 507.488 17.7343 L507.419 17.7107 L507.35 17.6884 C478.816 8.51673 447.636 3.32 413 3.32 C256.99 3.32 152.32 153.589 152.32 373 C152.32 591.522 262.117 740.68 424 740.68 C454.442 740.68 481.377 737.572 505.863 731.451 L506.007 731.415 L506.15 731.373 C580.141 709.792 645.861 639.915 669.383 555.117 L675.01 536.125 L675.01 536.125 Z " />
<glyph glyph-name="D" unicode="D" horiz-adv-x="853" d="M325 -7.68 L60.029 -8.67995 L52.32 -8.70904 L52.32 -1 L52.32 24 L52.32 32.2935 L60.589 31.6574 L73.5345 30.6614 L73.589 30.6574 C112.135 28.0051 137.32 65.3779 137.32 129 L137.32 619 C137.32 682.623 112.136 719.995 73.589 717.343 L73.5345 717.339 L60.589 716.343 L50.4809 715.565 L52.4691 725.506 C53.2752 729.536 52.32 745.774 52.32 750 L52.32 757.68 L60 757.68 L365 757.68 C654.227 757.68 805.68 603.136 805.68 375 C805.68 123.934 611.369 -7.67122 325.029 -7.67995 L325 -7.68 L325 -7.68 Z M324.971 7.67995 L324.986 7.68 L325 7.68 C606.644 7.68 790.32 132.074 790.32 375 C790.32 596.864 647.773 742.32 365 742.32 L67.913 742.32 C68.0123 739.227 68.1052 735.664 68.103 732.326 L72.411 732.657 L72.4382 732.659 L72.4655 732.661 C119.888 735.97 152.68 687.348 152.68 619 L152.68 129 C152.68 60.6522 119.888 12.0301 72.4655 15.3386 L72.4382 15.3405 L72.411 15.3426 L67.68 15.707 L67.68 6.709 L324.971 7.67995 L324.971 7.67995 Z M295 27.68 C528.384 27.68 680.32 144.777 680.32 375 C680.32 584.899 547.738 722.32 285 722.32 L252.68 722.32 L252.68 218 C252.68 99.2428 257.209 27.68 295 27.68 L295 27.68 Z M295 12.32 C242.791 12.32 237.32 98.7572 237.32 218 L237.32 730 L237.32 737.68 L245 737.68 L285 737.68 C554.262 737.68 695.68 591.101 695.68 375 C695.68 137.223 533.616 12.32 295 12.32 L295 12.32 Z " />
<glyph glyph-name="E" unicode="E" horiz-adv-x="652" d="M563.369 743.492 L563.828 743.033 L564.131 740.367 C569.125 696.422 576.625 637.922 581.631 593.867 L583.082 581.096 L571.148 585.869 C568.2 587.049 558.693 585.32 553 585.32 L547.286 585.32 L545.644 590.793 L539.644 610.793 L539.634 610.827 L539.624 610.862 C520.413 677.139 454.702 720.32 373 720.32 L252.68 720.32 L252.68 415.68 L310 415.68 C391.526 415.68 450.971 458.406 462.434 524.316 L462.45 524.411 L462.469 524.506 L466.469 544.506 L467.894 551.63 L475.086 550.603 C475.086 550.603 485.075 549.175 488.772 548.78 L492.148 550.131 L502.68 554.344 L502.68 543 L502.68 249 L502.68 237.656 L492.148 241.869 C489.2 243.049 479.693 241.32 474 241.32 L467.704 241.32 L466.469 247.494 L462.469 267.494 L462.45 267.589 L462.434 267.684 C450.971 333.594 391.526 376.32 310 376.32 L252.68 376.32 L252.68 217 C252.68 111.095 269.12 42.4114 411.913 29.717 C491.839 38.6763 551.741 75.3101 570.767 128.583 L570.78 128.619 L570.794 128.655 L577.794 147.655 L579.94 153.481 L586.086 152.603 C586.086 152.603 596.075 151.175 599.772 150.78 L603.148 152.131 L615.878 157.223 L613.57 143.707 C606.561 102.654 596.561 48.6545 589.57 7.70748 L589.552 7.60038 L589.531 7.49383 L587.531 -2.50617 L586.296 -8.68 L580 -8.68 L40 -8.68 L32.32 -8.68 L32.32 -1 L32.32 24 L32.32 32.175 L40.4791 31.665 L56.434 30.6677 L56.4791 30.665 C105.201 27.9365 137.32 73.4609 137.32 149 L137.32 599 C137.32 674.539 105.202 720.064 56.4791 717.335 L56.434 717.332 L40.4791 716.335 L30.5103 715.712 L32.4691 725.506 C33.2752 729.536 32.32 745.774 32.32 750 L32.32 757.68 L40 757.68 L555 757.68 L561.95 757.68 L562.642 750.764 L563.369 743.492 L563.369 743.492 Z M549.173 735.966 L548.631 736.508 L548.358 739.236 L548.05 742.32 L47.913 742.32 C48.0136 739.189 48.1077 735.574 48.103 732.201 L55.5209 732.665 L55.5435 732.666 L55.566 732.668 C112.818 735.908 152.68 679.438 152.68 599 L152.68 149 C152.68 68.5625 112.818 12.0916 55.566 15.3323 L55.5435 15.3335 L55.5209 15.335 L47.68 15.825 L47.68 6.68 L573.704 6.68 L574.448 10.4 C580.867 47.9913 589.787 96.4072 596.609 135.719 C594.592 135.954 592.218 136.261 590.071 136.548 L585.233 123.417 L585.206 123.345 C564.262 64.823 496.502 23.5485 412.838 14.3658 L412.086 14.2833 L411.332 14.3491 C256.823 27.8298 237.32 109.091 237.32 217 L237.32 384 L237.32 391.68 L245 391.68 L310 391.68 C396.435 391.68 464.968 342.45 477.55 270.413 L480.205 257.137 C482.39 257.325 484.848 257.505 487.32 257.539 L487.32 533.528 C485.324 533.738 482.631 534.078 480.114 534.41 L477.55 521.587 C464.968 449.55 396.435 400.32 310 400.32 L245 400.32 L237.32 400.32 L237.32 408 L237.32 728 L237.32 735.68 L245 735.68 L373 735.68 C459.27 735.68 533.539 686.892 554.356 615.207 L558.593 601.083 C560.629 601.262 562.938 601.448 565.291 601.517 C560.449 643.238 553.819 695.346 549.173 735.966 L549.173 735.966 Z " />
<glyph glyph-name="F" unicode="F" horiz-adv-x="627" d="M492.18 385 L492.18 377.32 L491.68 377.32 L491.68 250 L491.68 238.656 L481.148 242.869 C478.2 244.049 468.693 242.32 463 242.32 L456.704 242.32 L455.469 248.494 L451.469 268.494 L451.45 268.589 L451.434 268.684 C439.971 334.594 380.526 377.32 299 377.32 L252.68 377.32 L252.68 150 C252.68 74.4607 284.798 28.9362 333.521 31.665 L333.566 31.6677 L349.521 32.665 L359.49 33.2881 L357.531 23.4938 C356.725 19.4637 357.68 3.22569 357.68 -1 L357.68 -8.68 L350 -8.68 L40 -8.68 L32.32 -8.68 L32.32 -1 L32.32 24 L32.32 32.175 L40.4791 31.665 L56.434 30.6677 L56.4791 30.665 C105.201 27.9365 137.32 73.4609 137.32 149 L137.32 599 C137.32 674.539 105.202 720.064 56.4791 717.335 L56.434 717.332 L40.4791 716.335 L30.5103 715.712 L32.4691 725.506 C33.2752 729.536 32.32 745.774 32.32 750 L32.32 757.68 L40 757.68 L555 757.68 L562.215 757.68 L562.665 750.479 L563.152 742.684 C568.151 699.689 574.63 641.891 580.606 599.061 L582.435 585.954 L570.148 590.869 C567.2 592.049 557.693 590.32 552 590.32 L546.286 590.32 L544.644 595.793 L538.644 615.793 L538.634 615.827 L538.624 615.862 C519.413 682.139 453.702 725.32 371 725.32 L252.68 725.32 L252.68 416.68 L299 416.68 C380.526 416.68 439.971 459.406 451.434 525.316 L451.45 525.411 L451.469 525.506 L455.469 545.506 L456.894 552.63 L464.086 551.603 C464.086 551.603 474.075 550.175 477.772 549.78 L481.148 551.131 L491.638 555.327 L491.68 544.028 L492.18 409.028 L492.18 409.014 L492.18 409 L492.18 385 L492.18 385 Z M476.82 392.68 L476.82 408.972 L476.82 409 L476.355 534.525 C474.356 534.735 471.646 535.076 469.114 535.41 L466.55 522.587 C453.968 450.55 385.435 401.32 299 401.32 L245 401.32 L237.32 401.32 L237.32 409 L237.32 733 L237.32 740.68 L245 740.68 L371 740.68 C458.27 740.68 532.539 691.892 553.356 620.207 L557.593 606.083 C559.568 606.257 561.801 606.437 564.082 606.51 C558.446 648.361 552.508 701.236 547.871 741.113 L547.848 741.316 L547.835 741.521 L547.785 742.32 L47.913 742.32 C48.0136 739.189 48.1077 735.574 48.103 732.201 L55.5209 732.665 L55.5435 732.666 L55.566 732.668 C112.818 735.908 152.68 679.438 152.68 599 L152.68 149 C152.68 68.5625 112.818 12.0916 55.566 15.3323 L55.5435 15.3335 L55.5209 15.335 L47.68 15.825 L47.68 6.68 L342.087 6.68 C341.986 9.81129 341.892 13.4255 341.897 16.799 L334.479 16.335 L334.457 16.3335 L334.434 16.3323 C277.182 13.0916 237.32 69.5625 237.32 150 L237.32 385 L237.32 392.68 L245 392.68 L299 392.68 C385.435 392.68 453.968 343.45 466.55 271.413 L469.205 258.137 C471.39 258.325 473.848 258.505 476.32 258.539 L476.32 385 L476.32 392.68 L476.82 392.68 L476.82 392.68 Z " />
<glyph glyph-name="G" unicode="G" horiz-adv-x="817" d="M706.68 748 L706.68 527 L706.68 488.6 L691.32 488.6 L691.32 521.992 C689.493 522.213 687.367 522.32 685 522.32 C682.633 522.32 680.507 522.213 678.68 521.992 L678.68 488.6 L674.165 487.968 L663.615 524.89 L655.615 552.89 L655.607 552.92 L655.599 552.949 C633.121 634.066 572.921 698.127 502.992 718.586 C479.519 724.44 454.498 727.32 425 727.32 C270.883 727.32 168.68 588.478 168.68 375 C168.68 158.513 271.893 17.68 429 17.68 C513.595 17.68 566.376 53.1283 568.32 109.13 C568.317 123.959 567.82 138.919 567.82 155 L567.82 156 C567.82 240.939 539.699 290.982 495.547 288.34 L495.469 288.334 L481.547 287.34 L471.822 286.645 L473.424 296.263 C474.291 301.462 473.32 322.826 473.32 327 L473.32 334.68 L481 334.68 L771 334.68 L778.68 334.68 L778.68 327 L778.68 295 L778.68 286.752 L770.453 287.34 L756.531 288.334 L756.453 288.34 C712.224 290.987 683.68 241.878 683.68 157 L683.68 58.61 C704.576 65.6717 723.986 73.4298 742.822 81.9916 L749.744 85.138 L752.959 78.2478 L759.959 63.2478 L763.223 56.2539 L756.213 53.0246 C666.65 11.7649 564.045 -16.68 413 -16.68 C192.683 -16.68 43.32 141.953 43.32 376 C43.32 610.062 193.698 768.68 415 768.68 C479.606 768.68 529.995 759.442 570.676 743.201 C600.723 732.868 625.423 727.118 643.268 725.913 C660.261 724.764 665.701 726.428 666.427 730.283 L669.414 749.198 L677 748 L684.68 748 C684.68 752.406 680.539 754.1 681.811 753.869 C683.451 753.57 685.512 753.43 688 753.43 C689.207 753.43 690.313 753.463 691.32 753.531 L691.32 786.4 L706.68 786.4 L706.68 748 L706.68 748 Z M583.18 155 C583.18 139.128 583.68 124.128 583.68 109 L583.68 108.872 L583.676 108.744 C581.545 44.8185 518.342 2.32 429 2.32 C264.107 2.32 153.32 153.487 153.32 375 C153.32 593.522 263.117 742.68 425 742.68 C455.442 742.68 482.377 739.572 506.863 733.451 L507.007 733.415 L507.15 733.373 C581.143 711.791 646.864 641.911 670.385 557.11 L670.401 557.051 L676.091 537.136 C678.823 537.496 682.049 537.68 685 537.68 C687.06 537.68 689.254 537.591 691.32 537.414 L691.32 738.159 C690.201 738.1 689.073 738.07 688 738.07 C686.462 738.07 684.813 738.131 683.236 738.251 L681.586 727.802 L681.575 727.734 L681.563 727.665 C679.25 714.557 662.163 709.241 642.232 710.587 C623.112 711.879 596.373 718.11 565.5 728.738 L565.322 728.799 L565.148 728.869 C525.859 744.585 478.301 753.32 415 753.32 C200.302 753.32 58.68 603.938 58.68 376 C58.68 148.047 199.317 -1.32 413 -1.32 C558.024 -1.32 656.07 24.8001 742.762 63.778 L742.237 64.902 C722.115 56.0351 700.957 47.9225 678.341 40.6854 L668.32 37.4788 L668.32 48 L668.32 157 C668.32 246.072 703.743 306.955 757.469 303.666 L757.508 303.663 L757.547 303.66 L763.32 303.248 L763.32 319.32 L488.874 319.32 C489.005 314.561 489.146 308.499 489.099 303.278 L494.453 303.66 L494.492 303.663 L494.531 303.666 C548.334 306.96 583.18 245.012 583.18 156 L583.18 155 L583.18 155 Z " />
<glyph glyph-name="H" unicode="H" horiz-adv-x="861" d="M808.68 0 L808.68 -7.68 L801 -7.68 L531 -7.68 L523.32 -7.68 L523.32 0 L523.32 25 L523.32 33.2935 L531.589 32.6574 L544.535 31.6614 L544.589 31.6574 C583.135 29.0051 608.32 66.3779 608.32 130 L608.32 375.32 L288.68 375.32 L288.68 130 C288.68 66.3776 313.864 29.0048 352.411 31.6574 L352.465 31.6614 L365.411 32.6574 L375.519 33.4349 L373.531 23.4938 C372.725 19.4637 373.68 3.22569 373.68 -1 L373.68 -8.68 L366 -8.68 L96 -8.68 L88.32 -8.68 L88.32 -1 L88.32 24 L88.32 32.2935 L96.589 31.6574 L109.535 30.6614 L109.589 30.6574 C148.135 28.0051 173.32 65.3779 173.32 129 L173.32 619 C173.32 682.623 148.136 719.995 109.589 717.343 L109.535 717.339 L96.589 716.343 L86.4809 715.565 L88.4691 725.506 C89.2752 729.536 88.32 745.774 88.32 750 L88.32 757.68 L96 757.68 L366 757.68 L373.68 757.68 L373.68 750 L373.68 725 L373.68 716.707 L365.411 717.343 L352.465 718.339 L352.411 718.343 C313.865 720.995 288.68 683.622 288.68 620 L288.68 416.68 L608.32 416.68 L608.32 620 C608.32 683.623 583.136 720.995 544.589 718.343 L544.535 718.339 L531.589 717.343 L521.481 716.565 L523.469 726.506 C524.275 730.536 523.32 746.774 523.32 751 L523.32 758.68 L531 758.68 L801 758.68 L808.68 758.68 L808.68 751 L808.68 726 L808.68 717.707 L800.411 718.343 L787.465 719.339 L787.411 719.343 C748.865 721.995 723.68 684.622 723.68 621 L723.68 131 C723.68 67.3776 748.864 30.0048 787.411 32.6574 L787.465 32.6614 L800.411 33.6574 L810.519 34.4349 L808.531 24.4938 C807.725 20.4637 808.68 4.22569 808.68 0 L808.68 0 Z M793.087 7.68 C792.988 10.7726 792.895 14.3364 792.897 17.674 L788.589 17.3426 L788.562 17.3405 L788.535 17.3386 C741.112 14.0301 708.32 62.6522 708.32 131 L708.32 621 C708.32 689.348 741.112 737.97 788.535 734.661 L788.562 734.659 L788.589 734.657 L793.32 734.293 L793.32 743.32 L538.913 743.32 C539.012 740.227 539.105 736.664 539.103 733.326 L543.411 733.657 L543.438 733.659 L543.465 733.661 C590.888 736.97 623.68 688.348 623.68 620 L623.68 409 L623.68 401.32 L616 401.32 L281 401.32 L273.32 401.32 L273.32 409 L273.32 620 C273.32 688.348 306.112 736.97 353.535 733.661 L353.562 733.659 L353.589 733.657 L358.32 733.293 L358.32 742.32 L103.913 742.32 C104.012 739.227 104.105 735.664 104.103 732.326 L108.411 732.657 L108.438 732.659 L108.465 732.661 C155.888 735.97 188.68 687.348 188.68 619 L188.68 129 C188.68 60.6522 155.888 12.0301 108.465 15.3386 L108.438 15.3405 L108.411 15.3426 L103.68 15.707 L103.68 6.68 L358.087 6.68 C357.988 9.77263 357.895 13.3364 357.897 16.674 L353.589 16.3426 L353.562 16.3405 L353.535 16.3386 C306.112 13.0301 273.32 61.6522 273.32 130 L273.32 383 L273.32 390.68 L281 390.68 L616 390.68 L623.68 390.68 L623.68 383 L623.68 130 C623.68 61.6522 590.888 13.0301 543.465 16.3386 L543.438 16.3405 L543.411 16.3426 L538.68 16.707 L538.68 7.68 L793.087 7.68 L793.087 7.68 Z " />
<glyph glyph-name="I" unicode="I" horiz-adv-x="385" d="M332.68 0 L332.68 -7.68 L325 -7.68 L55 -7.68 L47.32 -7.68 L47.32 0 L47.32 25 L47.32 33.2935 L55.589 32.6574 L68.5345 31.6614 L68.589 31.6574 C107.135 29.0051 132.32 66.3779 132.32 130 L132.32 620 C132.32 683.623 107.136 720.995 68.589 718.343 L68.5345 718.339 L55.589 717.343 L45.4809 716.565 L47.4691 726.506 C48.2752 730.536 47.32 746.774 47.32 751 L47.32 758.68 L55 758.68 L325 758.68 L332.68 758.68 L332.68 751 L332.68 726 L332.68 717.707 L324.411 718.343 L311.465 719.339 L311.411 719.343 C272.865 721.995 247.68 684.622 247.68 621 L247.68 131 C247.68 67.3776 272.864 30.0048 311.411 32.6574 L311.465 32.6614 L324.411 33.6574 L334.519 34.4349 L332.531 24.4938 C331.725 20.4637 332.68 4.22569 332.68 0 L332.68 0 Z M317.087 7.68 C316.988 10.7726 316.895 14.3364 316.897 17.674 L312.589 17.3426 L312.562 17.3405 L312.535 17.3386 C265.112 14.0301 232.32 62.6522 232.32 131 L232.32 621 C232.32 689.348 265.112 737.97 312.535 734.661 L312.562 734.659 L312.589 734.657 L317.32 734.293 L317.32 743.32 L62.913 743.32 C63.0123 740.227 63.1052 736.664 63.103 733.326 L67.411 733.657 L67.4382 733.659 L67.4655 733.661 C114.888 736.97 147.68 688.348 147.68 620 L147.68 130 C147.68 61.6522 114.888 13.0301 67.4655 16.3386 L67.4382 16.3405 L67.411 16.3426 L62.68 16.707 L62.68 7.68 L317.087 7.68 L317.087 7.68 Z " />
<glyph glyph-name="J" unicode="J" horiz-adv-x="385" d="M147.68 581.1 L147.68 -72 C147.68 -172.658 83.1643 -192.68 40 -192.68 C9.85373 -192.68 1.9261 -167.312 -4.44227 -147.332 C-10.8107 -127.353 -15.5794 -112.68 -35 -112.68 C-58.8188 -112.68 -72.32 -126.181 -72.32 -150 C-72.32 -188.119 -39.4761 -212.32 15 -212.32 C108.468 -212.32 232.32 -160.874 232.32 116 L232.32 620 C232.32 688.348 265.112 736.97 312.535 733.661 L312.562 733.659 L312.589 733.657 L317.32 733.293 L317.32 742.32 L62.913 742.32 C63.0123 739.227 63.1052 735.664 63.103 732.326 L67.411 732.657 L67.4382 732.659 L67.4655 732.661 C105.232 735.296 133.743 705.292 143.769 658.4 L147.68 658.4 L147.68 620 L147.68 619.5 L147.68 581.1 L147.68 581.1 Z M132.32 619.5 C132.32 683.1 107.163 719.998 68.589 717.343 L68.5345 717.339 L55.589 716.343 L45.4809 715.565 L47.4691 725.506 C48.2752 729.536 47.32 745.774 47.32 750 L47.32 757.68 L55 757.68 L325 757.68 L332.68 757.68 L332.68 750 L332.68 725 L332.68 716.707 L324.411 717.343 L311.465 718.339 L311.411 718.343 C272.865 720.995 247.68 683.622 247.68 620 L247.68 116 C247.68 -171.126 111.532 -227.68 15 -227.68 C-44.5239 -227.68 -87.68 -195.881 -87.68 -150 C-87.68 -119.819 -65.1812 -97.32 -35 -97.32 C-4.42058 -97.32 3.81066 -122.647 10.1923 -142.668 C16.5739 -162.688 21.1463 -177.32 40 -177.32 C80.8357 -177.32 132.32 -161.342 132.32 -72 L132.32 581.1 L132.32 619.5 L132.32 619.5 Z " />
<glyph glyph-name="K" unicode="K" horiz-adv-x="775" d="M373.351 544.564 L373.169 544.729 L397.57 574.38 C436.583 621.789 456.61 659.354 458.849 685.042 C460.893 708.49 449.682 718.685 417.365 717.329 L417.324 717.327 L396.365 716.329 L386.54 715.861 L388.469 725.506 C389.275 729.536 388.32 745.774 388.32 750 L388.32 757.68 L396 757.68 L674 757.68 L681.68 757.68 L681.68 750 L681.68 725 L681.68 716.791 L673.489 717.337 L658.549 718.333 L658.489 718.337 C609.967 721.149 536.068 674.108 472.842 600.015 L472.837 600.008 L472.831 600.002 L333.071 436.948 L600.758 118.086 C652.022 62.9189 705.938 28.8807 741.362 31.6535 L741.396 31.6562 L753.362 32.6535 L763.532 33.501 L761.531 23.4938 C760.731 19.4936 761.68 5.25572 761.68 0 L761.68 -7.68 L754 -7.68 L560 -7.68 L556.421 -7.68 L554.119 -4.93972 L252.68 353.917 L252.68 130 C252.68 66.3776 277.864 29.0048 316.411 31.6574 L316.465 31.6614 L329.411 32.6574 L339.519 33.4349 L337.531 23.4938 C336.725 19.4637 337.68 3.22569 337.68 -1 L337.68 -8.68 L330 -8.68 L60 -8.68 L52.32 -8.68 L52.32 -1 L52.32 24 L52.32 32.2935 L60.589 31.6574 L73.5345 30.6614 L73.589 30.6574 C112.135 28.0051 137.32 65.3779 137.32 129 L137.32 619 C137.32 682.623 112.136 719.995 73.589 717.343 L73.5345 717.339 L60.589 716.343 L50.4809 715.565 L52.4691 725.506 C53.2752 729.536 52.32 745.774 52.32 750 L52.32 757.68 L60 757.68 L330 757.68 L337.68 757.68 L337.68 750 L337.68 725 L337.68 716.707 L329.411 717.343 L316.465 718.339 L316.411 718.343 C277.865 720.995 252.68 683.622 252.68 620 L252.68 396.572 L373.351 544.564 L373.351 544.564 Z M237.32 396.083 L237.32 620 C237.32 688.348 270.112 736.97 317.535 733.661 L317.562 733.659 L317.589 733.657 L322.32 733.293 L322.32 742.32 L67.913 742.32 C68.0123 739.227 68.1052 735.664 68.103 732.326 L72.411 732.657 L72.4382 732.659 L72.4655 732.661 C119.888 735.97 152.68 687.348 152.68 619 L152.68 129 C152.68 60.6522 119.888 12.0301 72.4655 15.3386 L72.4382 15.3405 L72.411 15.3426 L67.68 15.707 L67.68 6.68 L322.087 6.68 C321.988 9.77263 321.895 13.3364 321.897 16.674 L317.589 16.3426 L317.562 16.3405 L317.535 16.3386 C270.112 13.0301 237.32 61.6522 237.32 130 L237.32 353.428 L237.32 375 L237.32 396.083 L237.32 396.083 Z M433.301 595.736 L434.219 594.907 L409.952 565.147 L254.969 375.073 L563.579 7.68 L746.091 7.68 C745.995 10.4881 745.904 13.6309 745.895 16.618 L742.638 16.3465 L742.621 16.3451 L742.604 16.3438 C702.058 13.1428 642.053 51.0409 589.372 107.774 L589.241 107.915 L589.118 108.062 L317.118 432.062 L312.929 437.052 L317.169 441.998 L461.158 609.985 L461.169 609.998 C525.914 685.867 605.975 736.812 659.451 733.667 L659.481 733.665 L659.511 733.663 L666.32 733.209 L666.32 742.32 L403.913 742.32 C404.015 739.15 404.11 735.484 404.103 732.075 L416.635 732.671 L416.655 732.672 L416.676 732.673 C455.328 734.306 476.856 714.75 474.151 683.708 C472.194 661.258 458.27 630.993 433.301 595.736 L433.301 595.736 Z " />
<glyph glyph-name="L" unicode="L" horiz-adv-x="650" d="M584.565 6.67612 L584.535 6.50428 L584.497 6.33397 L582.497 -2.66603 L581.161 -8.68 L575 -8.68 L55 -8.68 L47.32 -8.68 L47.32 -1 L47.32 24 L47.32 32.2935 L55.589 31.6574 L68.5345 30.6614 L68.589 30.6574 C107.135 28.0051 132.32 65.3779 132.32 129 L132.32 619 C132.32 682.623 107.136 719.995 68.589 717.343 L68.5345 717.339 L55.589 716.343 L45.4809 715.565 L47.4691 725.506 C48.2752 729.536 47.32 745.774 47.32 750 L47.32 757.68 L55 757.68 L325 757.68 L332.68 757.68 L332.68 750 L332.68 725 L332.68 716.707 L324.411 717.343 L311.465 718.339 L311.411 718.343 C272.865 720.995 247.68 683.622 247.68 620 L247.68 218 C247.68 109.089 264.137 39.4133 406.913 26.717 C486.839 35.6763 546.741 72.3101 565.767 125.583 L565.78 125.619 L565.794 125.655 L572.794 144.655 L574.94 150.481 L581.086 149.603 C581.086 149.603 591.075 148.175 594.772 147.78 L598.148 149.131 L610.94 154.248 L608.565 140.676 C601.559 100.639 591.559 46.6388 584.565 6.67612 L584.565 6.67612 Z M569.465 9.496 C575.867 46.0704 584.754 94.2404 591.568 132.724 C589.56 132.959 587.203 133.263 585.071 133.548 L580.233 120.417 L580.206 120.345 C559.262 61.823 491.502 20.5485 407.838 11.3658 L407.086 11.2833 L406.332 11.3491 C251.805 24.8313 232.32 107.103 232.32 218 L232.32 620 C232.32 688.348 265.112 736.97 312.535 733.661 L312.562 733.659 L312.589 733.657 L317.32 733.293 L317.32 742.32 L62.913 742.32 C63.0123 739.227 63.1052 735.664 63.103 732.326 L67.411 732.657 L67.4382 732.659 L67.4655 732.661 C114.888 735.97 147.68 687.348 147.68 619 L147.68 129 C147.68 60.6522 114.888 12.0301 67.4655 15.3386 L67.4382 15.3405 L67.411 15.3426 L62.68 15.707 L62.68 6.68 L568.839 6.68 L569.465 9.496 L569.465 9.496 Z " />
<glyph glyph-name="M" unicode="M" horiz-adv-x="900" d="M807.437 137.68 L807.951 137.68 L808.176 130.233 C810.105 66.581 836.743 28.9965 875.411 31.6574 L875.465 31.6614 L888.411 32.6574 L898.519 33.4349 L896.531 23.4938 C895.725 19.4637 896.68 3.22569 896.68 -1 L896.68 -8.68 L889 -8.68 L620 -8.68 L612.32 -8.68 L612.32 -1 L612.32 24 L612.32 32.2935 L620.589 31.6574 L633.574 30.6585 L633.589 30.6574 C669.209 27.9954 692.341 60.4872 694.317 117.032 L681.423 612.508 L468.258 -3.51145 L466.469 -8.68 L461 -8.68 L436 -8.68 L430.846 -8.68 L428.893 -3.91054 C347.619 194.549 265.893 395.253 185.412 594.808 L175.683 118.051 C177.653 60.5024 200.786 27.9951 237.411 30.6574 L237.44 30.6595 L250.411 31.6574 L260.519 32.4349 L258.531 22.4938 C257.725 18.4637 258.68 2.22569 258.68 -2 L258.68 -9.68 L251 -9.68 L47 -9.68 L39.32 -9.68 L39.32 -2 L39.32 23 L39.32 31.3466 L47.6378 30.6535 L59.585 29.658 C98.2591 26.993 124.417 63.6233 127.325 126.296 L144.237 673.433 C120.523 702.994 94.456 719.099 69.589 717.343 L69.5472 717.34 L56.589 716.343 L46.4809 715.565 L48.4691 725.506 C49.2692 729.506 48.32 743.744 48.32 749 L48.32 756.68 L56 756.68 L251 756.68 L256.367 756.68 L258.212 751.64 L477.666 152.25 L677.715 751.432 L679.467 756.68 L685 756.68 L865 756.68 L872.68 756.68 L872.68 749 L872.68 724 L872.68 715.707 L864.411 716.343 L851.44 717.34 L851.411 717.343 C814.83 720.001 791.712 686.632 791.68 628.122 L807.437 137.68 L807.437 137.68 Z M793.181 122.32 L792.563 122.32 L792.324 129.753 L776.324 627.753 L776.32 627.877 L776.32 628 C776.32 691.399 807.184 735.98 852.56 732.66 L852.575 732.658 L852.589 732.657 L857.32 732.293 L857.32 741.32 L690.533 741.32 L485.285 126.568 L478.334 105.75 L470.788 126.36 L245.633 741.32 L63.909 741.32 C64.0052 738.494 64.097 735.33 64.105 732.326 L68.411 732.657 L68.4319 732.659 L68.4528 732.66 C98.9739 734.841 132.233 713.776 158.052 680.728 L159.762 678.539 L159.676 675.763 L142.676 125.763 L142.675 125.704 L142.672 125.646 C139.567 58.381 105.752 11.0396 58.4655 14.3386 L58.4138 14.3422 L58.3622 14.3465 L54.68 14.653 L54.68 5.68 L243.087 5.68 C242.988 8.77263 242.895 12.3364 242.897 15.674 L238.589 15.3426 L238.575 15.3415 L238.56 15.3405 C193.245 12.0247 162.401 55.4351 160.324 117.744 L160.317 117.95 L160.322 118.157 L170.822 632.657 L171.588 670.211 L185.624 635.37 C269.975 425.98 355.801 215.12 441.154 6.68 L455.531 6.68 L680.742 657.511 L693.299 693.8 L694.678 693.587 L695.677 655.2 L709.677 117.2 L709.683 116.97 L709.676 116.74 C707.597 55.4331 676.749 12.0172 632.426 15.3415 L632.418 15.3421 L632.411 15.3426 L627.68 15.707 L627.68 6.68 L881.087 6.68 C880.988 9.77263 880.895 13.3364 880.897 16.674 L876.589 16.3426 L876.562 16.3405 L876.535 16.3386 C830.969 13.1596 797.434 57.9616 793.181 122.32 L793.181 122.32 Z " />
<glyph glyph-name="N" unicode="N" horiz-adv-x="786" d="M603.327 616.812 L602.869 617.27 L602.821 620.382 C601.855 683.168 577.014 721.985 538.589 719.343 L538.535 719.339 L525.589 718.343 L515.481 717.565 L517.469 727.506 C518.275 731.536 517.32 747.774 517.32 752 L517.32 759.68 L525 759.68 L725 759.68 L732.68 759.68 L732.68 752 L732.68 727 L732.68 718.707 L724.411 719.343 L711.465 720.339 L711.411 720.343 C673.018 722.983 648.63 684.656 646.679 621.838 L639.68 1.9133 L639.594 -5.68 L632 -5.68 L612 -5.68 L608.114 -5.68 L605.813 -2.54956 C460.512 195.059 316.15 392.667 171.824 590.267 L174.678 119.285 C178.571 62.7968 203.557 30.9774 239.411 33.6574 L239.426 33.6585 L252.411 34.6574 L262.519 35.4349 L260.531 25.4938 C259.725 21.4637 260.68 5.22569 260.68 1 L260.68 -6.68 L253 -6.68 L53 -6.68 L45.32 -6.68 L45.32 1 L45.32 26 L45.32 34.2935 L53.589 33.6574 L66.5345 32.6614 L66.589 32.6574 C105.135 30.0051 130.32 67.3779 130.32 131 L130.32 131.007 L130.32 131.015 L131.314 644.136 C88.5702 692.991 42.5906 722.085 10.6559 719.348 L10.6225 719.345 L10.589 719.343 L-2.41097 718.343 L-12.5191 717.565 L-10.5309 727.506 C-9.73081 731.506 -10.68 745.744 -10.68 751 L-10.68 758.68 L-3 758.68 L188 758.68 L191.9 758.68 L194.201 755.531 C330.598 568.831 466.984 381.212 604.268 194.476 L603.327 616.812 L603.327 616.812 Z M618.108 623.753 L618.673 623.188 L618.68 620.017 L619.68 171.017 L619.732 147.531 L605.814 166.449 C464.573 358.417 324.327 551.366 184.099 743.32 L4.909 743.32 C5.00523 740.494 5.097 737.33 5.105 734.326 L9.41097 734.657 C47.0059 737.834 100.11 703.834 144.815 652.017 L146.686 649.849 L146.68 646.985 L145.68 131 L145.68 130.985 C145.675 62.6455 112.885 14.0303 65.4655 17.3386 L65.4382 17.3405 L65.411 17.3426 L60.68 17.707 L60.68 8.68 L245.087 8.68 C244.988 11.7726 244.895 15.3364 244.897 18.674 L240.589 18.3426 L240.582 18.3421 L240.574 18.3415 C196.485 15.0348 163.497 57.1225 159.338 118.481 L159.322 118.717 L159.32 118.953 L156.32 613.953 L156.176 637.733 L170.202 618.53 C318.44 415.573 466.671 212.627 615.886 9.68 L624.406 9.68 L631.32 622.087 L631.321 622.161 L631.324 622.236 C633.388 689.344 664.975 738.98 712.535 735.661 L712.562 735.659 L712.589 735.657 L717.32 735.293 L717.32 744.32 L532.913 744.32 C533.012 741.227 533.105 737.664 533.103 734.326 L537.411 734.657 L537.438 734.659 L537.465 734.661 C584.268 737.927 616.138 689.356 618.108 623.753 L618.108 623.753 Z " />
<glyph glyph-name="O" unicode="O" horiz-adv-x="851" d="M42.32 375 C42.32 609.077 193.714 767.68 418 767.68 C648.226 767.68 803.68 609.137 803.68 375 C803.68 140.804 644.167 -17.68 408 -17.68 C189.651 -17.68 42.32 140.984 42.32 375 L42.32 375 Z M57.68 375 C57.68 147.016 196.349 -2.32 408 -2.32 C637.833 -2.32 788.32 147.196 788.32 375 C788.32 602.863 641.774 752.32 418 752.32 C200.286 752.32 57.68 602.923 57.68 375 L57.68 375 Z M166.68 375 C166.68 161.444 264.971 22.68 413 22.68 C573.202 22.68 679.32 161.598 679.32 375 C679.32 588.421 574.181 727.32 414 727.32 C264.971 727.32 166.68 588.556 166.68 375 L166.68 375 Z M151.32 375 C151.32 593.444 257.029 742.68 414 742.68 C581.819 742.68 694.68 593.579 694.68 375 C694.68 156.402 580.798 7.32 413 7.32 C257.029 7.32 151.32 156.556 151.32 375 L151.32 375 Z " />
<glyph glyph-name="P" unicode="P" horiz-adv-x="628" d="M362.68 0 L362.68 -7.68 L355 -7.68 L85 -7.68 L77.32 -7.68 L77.32 0 L77.32 25 L77.32 33.2935 L85.589 32.6574 L98.5345 31.6614 L98.589 31.6574 C137.135 29.0051 162.32 66.3779 162.32 130 L162.32 620 C162.32 683.623 137.136 720.995 98.589 718.343 L98.5345 718.339 L85.589 717.343 L75.4809 716.565 L77.4691 726.506 C78.2752 730.536 77.32 746.774 77.32 751 L77.32 758.68 L85 758.68 L370 758.68 C515.908 758.68 615.68 670.461 615.68 540 C615.68 400.345 494.883 337.32 320 337.32 L277.68 337.32 L277.68 131 C277.68 67.3776 302.864 30.0048 341.411 32.6574 L341.465 32.6614 L354.411 33.6574 L364.519 34.4349 L362.531 24.4938 C361.725 20.4637 362.68 4.22569 362.68 0 L362.68 0 Z M347.087 7.68 C346.988 10.7726 346.895 14.3364 346.897 17.674 L342.589 17.3426 L342.562 17.3405 L342.535 17.3386 C295.112 14.0301 262.32 62.6522 262.32 131 L262.32 345 L262.32 352.68 L270 352.68 L320 352.68 C491.117 352.68 600.32 409.655 600.32 540 C600.32 663.539 510.092 743.32 370 743.32 L92.913 743.32 C93.0123 740.227 93.1052 736.664 93.103 733.326 L97.411 733.657 L97.4382 733.659 L97.4655 733.661 C144.888 736.97 177.68 688.348 177.68 620 L177.68 130 C177.68 61.6522 144.888 13.0301 97.4655 16.3386 L97.4382 16.3405 L97.411 16.3426 L92.68 16.707 L92.68 7.68 L347.087 7.68 L347.087 7.68 Z M277.68 372.68 L320 372.68 C434.423 372.68 507.32 427.82 507.32 555 C507.32 658.915 443.721 725.32 345 725.32 L277.68 725.32 L277.68 372.68 L277.68 372.68 Z M270 357.32 L262.32 357.32 L262.32 365 L262.32 733 L262.32 740.68 L270 740.68 L345 740.68 C450.279 740.68 522.68 665.085 522.68 555 C522.68 420.18 439.577 357.32 320 357.32 L270 357.32 L270 357.32 Z " />
<glyph glyph-name="Q" unicode="Q" horiz-adv-x="846" d="M1151.78 -35.9427 L1156.97 -41.87 L1150.91 -46.9054 C1060.89 -121.758 921.358 -172.68 803 -172.68 C630.881 -172.68 404.947 -95.0713 238.131 19.341 C116.32 78.485 41.32 208.176 41.32 375 C41.32 609.077 192.714 767.68 417 767.68 C647.226 767.68 802.68 609.137 802.68 375 C802.68 140.804 643.167 -17.68 407 -17.68 C406.333 -17.68 405.666 -17.6781 404.999 -17.675 C505.798 -52.0316 656.709 -73.32 818 -73.32 C975.437 -73.32 1101.7 -54.7237 1134.02 -27.1568 L1139.79 -22.2354 L1144.78 -27.9427 L1151.78 -35.9427 L1151.78 -35.9427 Z M166.68 375 C166.68 153.139 253.333 9.68 385 9.68 C562.343 9.68 679.32 153.726 679.32 375 C679.32 588.421 574.181 727.32 414 727.32 C264.971 727.32 166.68 588.556 166.68 375 L166.68 375 Z M151.32 375 C151.32 593.444 257.029 742.68 414 742.68 C581.819 742.68 694.68 593.579 694.68 375 C694.68 170.098 592.567 24.6328 436.608 -1.473 C649.672 10.8685 787.32 157.129 787.32 375 C787.32 602.863 640.774 752.32 417 752.32 C199.286 752.32 56.68 602.923 56.68 375 C56.68 212.064 127.464 89.8892 245.342 32.9147 L245.867 32.6609 L246.348 32.3309 C411.486 -81.0771 633.283 -157.32 803 -157.32 C908.564 -157.32 1029.82 -116.424 1117.07 -53.654 C1061.75 -75.4291 949.031 -88.68 818 -88.68 C629.368 -88.68 452.73 -59.4085 353.795 -13.9794 L318.898 2.04469 L319.849 5.38363 L324.127 4.849 C218.319 43.2199 151.32 183.415 151.32 375 L151.32 375 Z " />
<glyph glyph-name="R" unicode="R" horiz-adv-x="796" d="M793.68 0 L793.68 -18.5412 L782.318 -7.18 C597.093 -7.12503 582.882 -2.04855 526.751 76.5361 L526.746 76.5427 L526.741 76.5493 C433.868 207.152 365.167 308.04 341.621 347.32 L252.68 347.32 L252.68 130 C252.68 66.3776 277.864 29.0048 316.411 31.6574 L316.465 31.6614 L329.411 32.6574 L339.519 33.4349 L337.531 23.4938 C336.725 19.4637 337.68 3.22569 337.68 -1 L337.68 -8.68 L330 -8.68 L60 -8.68 L52.32 -8.68 L52.32 -1 L52.32 24 L52.32 32.2935 L60.589 31.6574 L73.5345 30.6614 L73.589 30.6574 C112.135 28.0051 137.32 65.3779 137.32 129 L137.32 619 C137.32 682.623 112.136 719.995 73.589 717.343 L73.5345 717.339 L60.589 716.343 L50.4809 715.565 L52.4691 725.506 C53.2752 729.536 52.32 745.774 52.32 750 L52.32 757.68 L60 757.68 L350 757.68 C509.739 757.68 618.68 668.642 618.68 538 C618.68 441.385 557.512 382.482 461.999 359.079 C496.109 311.554 565.806 213.231 657.262 84.4467 L657.267 84.44 L657.271 84.4332 C696.961 28.2874 698.479 27.68 786 27.68 L793.68 27.68 L793.68 20 L793.68 0 L793.68 0 Z M778.32 8.181 L778.32 12.33 C695.006 12.5648 685.812 17.4503 644.738 75.5533 L644.729 75.5668 C546.732 213.563 473.751 316.535 442.77 359.509 L435.864 369.089 L447.422 371.516 C545.392 392.09 603.32 444.412 603.32 538 C603.32 661.358 504.261 742.32 350 742.32 L67.913 742.32 C68.0123 739.227 68.1052 735.664 68.103 732.326 L72.411 732.657 L72.4382 732.659 L72.4655 732.661 C119.888 735.97 152.68 687.348 152.68 619 L152.68 129 C152.68 60.6522 119.888 12.0301 72.4655 15.3386 L72.4382 15.3405 L72.411 15.3426 L67.68 15.707 L67.68 6.68 L322.087 6.68 C321.988 9.77263 321.895 13.3364 321.897 16.674 L317.589 16.3426 L317.562 16.3405 L317.535 16.3386 C270.112 13.0301 237.32 61.6522 237.32 130 L237.32 355 L237.32 362.68 L245 362.68 L346 362.68 L350.411 362.68 L352.634 358.87 C373.5 323.099 443.301 220.391 539.249 85.4639 L539.259 85.4507 C592.1 11.4742 599.568 8.25247 778.32 8.181 L778.32 8.181 Z M251.68 388.68 L349 388.68 C436.013 388.68 491.32 439.378 491.32 559 C491.32 658.723 423.914 723.32 319 723.32 L251.68 723.32 L251.68 388.68 L251.68 388.68 Z M244 373.32 L236.32 373.32 L236.32 381 L236.32 731 L236.32 738.68 L244 738.68 L319 738.68 C430.086 738.68 506.68 665.277 506.68 559 C506.68 432.622 441.987 373.32 349 373.32 L244 373.32 L244 373.32 Z " />
<glyph glyph-name="S" unicode="S" horiz-adv-x="551" d="M480.68 754 L480.68 550 L480.68 511.6 L465.32 511.6 L465.32 545.227 C463.43 545.539 461.208 545.736 458.726 545.825 C456.474 545.905 454.442 545.881 452.68 545.745 L452.68 512.6 L447.159 511.899 L437.564 549.081 L429.569 580.061 L429.564 580.081 C406.156 669.78 339.113 728.32 258 728.32 C193.597 728.32 152.68 679.219 152.68 602 C152.68 540.01 210.368 477.589 326.601 435.226 L326.629 435.216 C453.854 389.405 520.68 296.467 520.68 197 C520.68 69.6589 428.024 -16.68 294 -16.68 C259.266 -16.68 223.86 -9.40074 191.246 3.829 C157.143 16.1776 129.327 23.43 109.412 25.6158 C90.4777 27.694 84.3325 26.2652 83.587 22.786 L80.6155 0.00667507 L73 1 L65.32 1 C65.32 -3.40598 69.4607 -5.0999 68.1887 -4.86862 C66.5489 -4.57048 64.4885 -4.43 62 -4.43 C60.7929 -4.43 59.6865 -4.46293 58.68 -4.531 L58.68 -37.4 L43.32 -37.4 L43.32 1 L43.32 241 L43.32 279.4 L58.68 279.4 L58.68 245.773 C60.5704 245.461 62.7918 245.264 65.2741 245.175 C67.5263 245.095 69.5579 245.119 71.32 245.255 L71.32 278.4 L77.1373 279.116 L86.4507 241.863 L94.4507 209.863 L94.4595 209.828 L94.4679 209.792 C117.973 111.856 185.636 42.2767 264.99 31.6159 L265.021 31.6118 C361.584 19.0721 424.32 73.5144 424.32 167 C424.32 220.858 370.733 275.384 260.358 315.789 C127.186 364.584 57.32 459.478 57.32 563 C57.32 684.124 138.761 767.68 257 767.68 C285.138 767.68 312.901 763.629 338.189 755.68 L339.003 755.68 L339.972 755.423 C371.721 746.989 398.083 741.863 416.945 740.148 C426.223 739.305 432.923 739.305 437.699 740.106 C439.656 740.434 440.392 740.445 440.615 740.285 L443.452 755.415 L451 754 L458.68 754 C458.68 758.406 454.539 760.1 455.811 759.869 C457.451 759.57 459.512 759.43 462 759.43 C463.207 759.43 464.313 759.463 465.32 759.531 L465.32 792.4 L480.68 792.4 L480.68 754 L480.68 754 Z M337 740.32 L335.801 740.32 L334.659 740.685 C310.255 748.495 284.434 752.32 257 752.32 C145.239 752.32 72.68 677.876 72.68 563 C72.68 464.522 136.811 377.416 265.64 330.212 C379.265 288.617 439.68 227.142 439.68 167 C439.68 66.4957 366.429 2.93961 263.01 16.3841 L262.994 16.3861 L262.979 16.3882 C178.366 27.7387 104.059 104.122 79.5493 206.137 L79.5321 206.208 L73.572 230.045 C70.8503 229.788 67.6522 229.72 64.7259 229.825 C62.7551 229.895 60.664 230.052 58.68 230.284 L58.68 10.841 C59.7993 10.8998 60.9268 10.93 62 10.93 C63.4615 10.93 65.0239 10.8745 66.529 10.766 L68.3845 24.9933 L68.4068 25.1646 L68.4369 25.3347 C70.8074 38.768 89.2401 43.2821 111.088 40.8842 C132.146 38.5729 161.782 30.8416 196.616 18.2207 L196.754 18.1706 L196.891 18.1153 C228.238 5.38025 260.782 -1.32 294 -1.32 C421.976 -1.32 505.32 76.3411 505.32 197 C505.32 291.525 444.156 376.581 321.399 420.774 L321.385 420.779 L321.371 420.784 C201.623 464.421 137.32 533.994 137.32 602 C137.32 684.781 186.403 743.68 258 743.68 C344.881 743.68 419.834 678.228 444.431 583.939 L444.434 583.929 L444.436 583.919 L450.364 560.949 C453.099 561.211 456.325 561.28 459.274 561.175 C461.245 561.105 463.336 560.948 465.32 560.716 L465.32 744.159 C464.201 744.1 463.073 744.07 462 744.07 C460.382 744.07 458.64 744.137 456.989 744.27 L455.556 736.626 L455.548 736.585 C454.388 730.367 447.006 726.091 440.238 724.957 C434.202 723.945 425.527 723.945 415.555 724.852 C396.114 726.619 368.835 731.903 337 740.32 L337 740.32 Z " />
<glyph glyph-name="T" unicode="T" horiz-adv-x="775" d="M728.286 739.429 L730.569 732.581 C747.121 692.823 768.181 643.161 783.155 604.792 L789.108 589.535 L773.571 594.714 L769.255 596.153 L756.015 594.387 L751.135 593.737 L748.507 597.899 L736.507 616.899 L736.45 616.988 L736.396 617.079 C699.538 679.157 620.167 719.32 535 719.32 L445.68 719.32 L445.68 132 C445.68 68.3776 470.864 31.0048 509.411 33.6574 L509.465 33.6614 L522.411 34.6574 L532.519 35.4349 L530.531 25.4938 C529.725 21.4637 530.68 5.22569 530.68 1 L530.68 -6.68 L523 -6.68 L253 -6.68 L245.32 -6.68 L245.32 1 L245.32 26 L245.32 34.2935 L253.589 33.6574 L266.535 32.6614 L266.589 32.6574 C305.135 30.0051 330.32 67.3779 330.32 131 L330.32 718.32 L233 718.32 C147.833 718.32 68.5056 678.179 32.6488 616.156 L32.5736 616.026 L32.4934 615.899 L20.4934 596.899 L17.8061 592.644 L12.8322 593.409 C12.8322 593.409 3.32359 594.872 0 595.238 L-4.57137 593.714 L-20.5424 588.39 L-14.0943 603.942 C2.89078 644.906 25.3779 699.873 42.3821 740.884 L42.4057 740.942 L65.8821 798.884 L73 796 L80.68 796 C80.68 801.5 74.3211 800.137 77.4013 801.306 C78.9744 801.903 80.9609 802.812 82.8057 803.427 C84.8872 804.12 92.1998 805.005 94.872 799.453 L98.611 792.91 C111.045 772.717 171.989 758.68 256 758.68 L515 758.68 C599.011 758.68 659.955 772.717 672.389 792.91 L676.332 799.81 L679.456 805.277 L685.429 803.286 C686.582 802.901 688.432 802.187 690.32 801.612 L690.32 834.4 L691.383 834.597 L705.168 798.757 C710.035 786.103 718.512 769.149 724.631 753.852 L724.91 753.154 L725.048 752.415 L726.452 744.931 L728.286 739.429 L728.286 739.429 Z M81.342 792.196 L88 796 L80.7141 793.571 C80.8856 793.057 81.0983 792.601 81.342 792.196 L81.342 792.196 Z M702.51 766.351 C699.546 772.934 696.538 779.508 693.937 785.62 C692.501 785.549 691.199 785.643 690.227 785.823 C688.98 786.054 687.722 786.371 686.538 786.712 L685.668 785.19 L685.615 785.097 L685.56 785.007 C669.879 759.244 600.875 743.32 515 743.32 L256 743.32 C170.125 743.32 101.121 759.244 85.4398 785.007 L85.3846 785.097 L85.3319 785.19 L84.059 787.417 C83.6718 787.262 83.2676 787.103 82.8487 786.944 C81.5732 786.46 79.4378 785.857 77.088 785.638 L56.6179 735.116 L56.6063 735.087 L56.5943 735.058 C41.2081 697.95 21.3074 649.351 5.057 610.045 C6.75925 609.82 8.56834 609.565 10.179 609.332 L19.427 623.976 C57.6093 689.88 144.227 733.68 233 733.68 L338 733.68 L345.68 733.68 L345.68 726 L345.68 131 C345.68 62.6522 312.888 14.0301 265.465 17.3386 L265.438 17.3405 L265.411 17.3426 L260.68 17.707 L260.68 8.68 L515.087 8.68 C514.988 11.7726 514.895 15.3364 514.897 18.674 L510.589 18.3426 L510.562 18.3405 L510.535 18.3386 C463.112 15.0301 430.32 63.6522 430.32 132 L430.32 727 L430.32 734.68 L438 734.68 L535 734.68 C623.791 734.68 710.382 690.884 749.549 625.013 L758.865 610.263 L764.205 610.975 C748.653 650.051 728.332 697.854 712.906 735.058 L698.198 770.53 L698.278 770.583 L702.51 766.351 L702.51 766.351 Z " />
<glyph glyph-name="U" unicode="U" horiz-adv-x="760" d="M102.32 757.135 L102.32 757.757 L110.077 757.68 L210.077 756.68 L217.68 756.604 L217.68 749 L217.68 219 C217.68 121.581 263.817 60.68 334 60.68 C420.193 60.68 499.95 111.6 537.32 190.708 L537.32 618 C537.32 681.623 512.136 718.995 473.589 716.343 L473.535 716.339 L460.589 715.343 L450.481 714.565 L452.469 724.506 C453.275 728.536 452.32 744.774 452.32 749 L452.32 756.635 L459.955 756.68 L544.955 757.18 L544.958 757.18 L544.962 757.18 L644.962 757.68 L652.68 757.718 L652.68 750 L652.68 141 C652.68 77.7086 676.658 47.9423 714.622 60.3027 L714.682 60.322 L714.741 60.3404 L727.741 64.3404 L740.058 68.1301 L737.531 55.4938 C736.725 51.4637 737.68 35.2257 737.68 31 L737.68 24.968 L731.82 23.5387 C690.776 13.528 636.797 1.033 596.863 -8.95069 L595.908 -9.18946 L594.923 -9.17962 L544.923 -8.67962 L537.32 -8.60358 L537.32 -1 L537.32 113.697 C487.38 33.6591 392.456 -18.68 294 -18.68 C180.321 -18.68 102.32 78.2946 102.32 219 L102.32 618 C102.32 681.623 77.1358 718.995 38.589 716.343 L38.5345 716.339 L25.589 715.343 L15.4809 714.565 L17.4691 724.506 C18.2752 728.536 17.32 744.774 17.32 749 L17.32 756.635 L24.9548 756.68 L102.32 757.135 L102.32 757.135 Z M117.68 742.243 L117.68 741.865 L110.045 741.82 L32.911 741.366 C33.0109 738.263 33.1052 734.68 33.103 731.326 L37.411 731.657 L37.4382 731.659 L37.4655 731.661 C84.8883 734.97 117.68 686.348 117.68 618 L117.68 219 C117.68 83.7054 187.679 -3.32 294 -3.32 C398.831 -3.32 496.003 56.3305 538.029 147.223 L552.68 178.91 L552.68 144 L552.68 6.604 L594.093 6.189 C632.108 15.6779 682.36 27.3477 722.143 36.993 C722.047 39.7987 721.942 43.1716 721.908 46.474 L719.317 45.677 C671.313 30.0929 637.32 72.3205 637.32 141 L637.32 742.282 L545.045 741.82 L545.038 741.82 L467.911 741.366 C468.011 738.263 468.105 734.68 468.103 731.326 L472.411 731.657 L472.438 731.659 L472.465 731.661 C519.888 734.97 552.68 686.348 552.68 618 L552.68 189 L552.68 187.307 L551.968 185.771 C513.03 101.746 425.256 45.32 334 45.32 C256.183 45.32 202.32 116.419 202.32 219 L202.32 741.396 L117.68 742.243 L117.68 742.243 Z " />
<glyph glyph-name="V" unicode="V" horiz-adv-x="806" d="M153.526 526.07 L153.338 526.033 L138.885 561.609 C100.346 656.475 53.6617 713.933 20.6953 711.352 L20.6207 711.345 L9.69531 710.352 L-0.210772 709.451 L1.42449 719.263 C2.28969 724.454 1.32 744.817 1.32 750 L1.32 757.68 L9 757.68 L321 757.68 L328.68 757.68 L328.68 750 L328.68 718 L328.68 709.905 L320.596 710.331 L301.635 711.329 L301.596 711.331 C244.873 714.007 231.075 660.504 268.123 567.872 L268.131 567.852 L433.687 157.312 L585.285 567.631 L585.296 567.662 C619.265 660.86 597.9 714.075 532.365 711.329 L532.324 711.327 L511.365 710.329 L501.86 709.876 L503.424 719.263 C504.291 724.462 503.32 745.826 503.32 750 L503.32 757.68 L511 757.68 L779 757.68 L787.772 757.68 L786.613 748.985 C786.613 748.985 784.845 735.728 784.691 731.518 L786.591 719.168 L788.054 709.654 L778.453 710.34 L764.478 711.338 L764.453 711.34 C724.22 714.057 672.635 655.896 635.141 561.173 L635.139 561.169 L407.139 -13.8309 L405.216 -18.68 L400 -18.68 L380 -18.68 L374.83 -18.68 L372.885 -13.8906 L153.526 526.07 L153.526 526.07 Z M138.32 601.005 L138.32 603.4 L138.662 603.467 L153.115 567.891 L385.17 -3.32 L394.784 -3.32 L620.859 566.827 L620.861 566.831 C659.359 664.086 717.759 729.919 765.522 726.662 L765.535 726.661 L765.547 726.66 L769.946 726.346 L769.409 729.832 L769.32 730.413 L769.32 731 C769.32 733.191 769.808 737.977 770.31 742.32 L518.874 742.32 C519.006 737.498 519.149 731.341 519.097 726.074 L531.635 726.671 L531.655 726.672 L531.676 726.673 C608.102 729.902 635.723 661.133 599.715 562.369 L599.71 562.354 L599.704 562.338 L441.204 133.338 L434.313 114.688 L426.877 133.128 L253.877 562.128 L253.873 562.138 L253.869 562.148 C214.935 659.483 233.125 729.968 302.365 726.671 L302.384 726.67 L302.404 726.669 L313.32 726.095 L313.32 742.32 L16.862 742.32 C16.993 737.573 17.1405 731.615 17.102 726.448 L19.3047 726.648 L19.342 726.652 L19.3793 726.655 C55.4702 729.581 101.036 679.232 138.32 601.005 L138.32 601.005 Z " />
<glyph glyph-name="W" unicode="W" horiz-adv-x="1109" d="M407.672 711.349 L397.764 710.358 L387.774 709.359 L389.424 719.263 C390.29 724.454 389.32 744.817 389.32 750 L389.32 757.68 L397 757.68 L705 757.68 L712.68 757.68 L712.68 750 L712.68 718 L712.68 709.881 L704.574 710.332 L686.629 711.329 L686.574 711.332 C630.209 714.029 613.195 668.913 642.22 587.617 L642.233 587.583 L796.027 163.224 L913.593 587.028 L913.599 587.053 C935.73 667.906 908.71 714.112 843.365 711.329 L843.329 711.327 L822.365 710.329 L812.86 709.876 L814.424 719.263 C815.291 724.462 814.32 745.826 814.32 750 L814.32 757.68 L822 757.68 L1092 757.68 L1100.77 757.68 L1099.61 748.985 C1099.61 748.985 1097.85 735.728 1097.69 731.518 L1099.59 719.168 L1101.05 709.654 L1091.45 710.34 L1077.5 711.336 L1077.45 711.34 C1035.11 714.065 992.794 668.996 967.331 591.707 L788.363 -12.1822 L786.734 -17.68 L781 -17.68 L756 -17.68 L750.738 -17.68 L748.838 -12.7724 C691.189 136.153 633.54 286.003 575.894 435.881 L398.14 -12.8285 L396.218 -17.68 L391 -17.68 L366 -17.68 L360.72 -17.68 L358.829 -12.75 L121.892 605.086 C91.4719 674.684 53.0433 714.011 22.6953 711.352 L22.675 711.35 L11.6953 710.352 L1.78923 709.451 L3.42449 719.263 C4.28969 724.454 3.32 744.817 3.32 750 L3.32 757.68 L11 757.68 L294 757.68 L301.68 757.68 L301.68 750 L301.68 718 L301.68 709.791 L293.489 710.337 L278.549 711.333 L278.489 711.337 C233.754 713.928 221.571 669.312 251.705 587.659 L251.71 587.645 L251.716 587.63 L414.174 141.948 L550.776 498.996 L518.83 582.249 L518.826 582.257 L518.823 582.266 C487.362 664.85 442.905 713.976 407.672 711.349 L407.672 711.349 Z M406.236 726.642 L406.323 726.651 L406.411 726.657 C449.162 729.946 500.655 673.092 533.17 587.751 L533.177 587.734 L566.17 501.751 L567.224 499.004 L566.173 496.256 L421.173 117.256 L413.826 98.0523 L406.784 117.37 L237.295 582.341 L237.284 582.37 C205.446 668.665 222.242 730.032 279.451 726.667 L279.481 726.665 L279.511 726.663 L286.32 726.209 L286.32 742.32 L18.862 742.32 C18.993 737.573 19.1405 731.615 19.102 726.448 L21.3047 726.648 L21.3148 726.649 L21.325 726.65 C58.9508 729.97 104.476 683.361 136.038 611.073 L136.108 610.913 L136.171 610.75 L371.28 -2.32 L385.782 -2.32 L568.86 459.829 L576.106 478.119 L583.168 459.757 C642.535 305.403 701.899 151.057 761.263 -2.32 L775.266 -2.32 L952.637 596.182 L952.669 596.292 L952.705 596.401 C979.237 677.016 1028.88 729.9 1078.5 726.664 L1078.52 726.662 L1078.55 726.66 L1082.95 726.346 L1082.41 729.832 L1082.32 730.413 L1082.32 731 C1082.32 733.191 1082.81 737.977 1083.31 742.32 L829.874 742.32 C830.006 737.498 830.149 731.341 830.097 726.074 L842.635 726.671 L842.653 726.672 L842.671 726.673 C917.293 729.871 952.261 670.088 928.407 582.972 L928.404 582.959 L928.401 582.947 L804.401 135.947 L797.973 112.776 L789.78 135.383 L627.78 582.383 L627.773 582.4 L627.767 582.417 C596.819 669.073 619.788 729.941 687.371 726.671 L687.399 726.67 L687.426 726.668 L697.32 726.119 L697.32 742.32 L404.863 742.32 C404.993 737.597 405.139 731.678 405.103 726.529 L406.236 726.642 L406.236 726.642 Z " />
<glyph glyph-name="X" unicode="X" horiz-adv-x="789" d="M238.847 130.677 L236.561 127.32 L236.085 127.32 C193.103 62.8697 197.654 29.1198 245.549 31.6667 L245.589 31.669 L262.549 32.6667 L272.482 33.2511 L270.531 23.4938 C269.725 19.4637 270.68 3.22569 270.68 -1 L270.68 -8.68 L263 -8.68 L21 -8.68 L13.32 -8.68 L13.32 -1 L13.32 24 L13.32 32.2481 L21.5472 31.6605 L35.5345 30.6614 L35.5472 30.6605 C75.909 27.8534 132.643 65.6617 180.855 127.608 L341.696 350.237 L173.567 609.805 L173.554 609.825 C129.148 677.908 80.4313 720.064 49.675 717.35 L39.7642 716.358 L29.4329 715.325 L31.4691 725.506 C32.2692 729.506 31.32 743.744 31.32 749 L31.32 756.68 L39 756.68 L316 756.68 L323.68 756.68 L323.68 749 L323.68 724 L323.68 715.752 L315.453 716.34 L301.511 717.336 L301.453 717.34 C281.137 718.623 273.943 712.379 273.426 696.254 C272.85 678.296 282.882 652.006 304.933 618.195 L304.944 618.178 L304.955 618.162 L421.286 437.73 L548.724 618.426 L548.731 618.437 L548.738 618.447 C596.031 685.043 592.171 719.924 543.451 717.333 L543.411 717.331 L526.451 716.333 L516.518 715.749 L518.469 725.506 C519.275 729.536 518.32 745.774 518.32 750 L518.32 757.68 L526 757.68 L772 757.68 L779.68 757.68 L779.68 750 L779.68 725 L779.68 716.752 L771.453 717.34 L757.5 718.336 L757.453 718.34 C714.095 721.133 651.353 678.342 600.133 610.378 L600.128 610.371 L600.123 610.364 L444.371 404.654 L628.338 120.342 C669.663 63.3232 713.329 28.9635 741.236 31.6419 L741.26 31.6443 L751.236 32.6419 L761.567 33.675 L759.531 23.4938 C758.731 19.4936 759.68 5.25572 759.68 0 L759.68 -7.68 L752 -7.68 L474 -7.68 L466.32 -7.68 L466.32 0 L466.32 25 L466.32 33.2481 L474.547 32.6605 L488.511 31.663 L488.547 31.6605 C508.108 30.3641 515.43 36.0503 516.857 50.6233 C518.446 66.8578 510.503 90.7054 491.491 121.923 L365.82 317.093 L238.847 130.677 L238.847 130.677 Z M228.439 142.68 L359.653 335.323 L366.18 344.907 L372.457 335.158 L504.457 130.158 L504.509 130.078 L504.558 129.996 C524.511 97.2537 534.053 68.6282 532.143 49.1267 C530.071 27.9588 512.901 14.6429 487.489 16.337 L487.471 16.3382 L487.453 16.3395 L481.68 16.752 L481.68 7.68 L744.091 7.68 C743.997 10.4421 743.906 13.528 743.895 16.471 L742.764 16.3581 L742.752 16.3569 L742.74 16.3557 C708.672 13.0588 658.408 52.6281 615.78 111.496 L615.662 111.659 L615.552 111.828 L428.552 400.828 L425.629 405.346 L428.877 409.636 L587.867 619.622 L587.877 619.636 C640.637 689.639 709.863 736.836 758.5 733.664 L758.523 733.662 L758.547 733.66 L764.32 733.248 L764.32 742.32 L533.913 742.32 C534.014 739.179 534.108 735.552 534.103 732.17 L542.549 732.667 L542.569 732.668 L542.589 732.669 C605.826 736.057 611.955 680.95 561.276 609.574 L561.262 609.553 L427.276 419.574 L420.714 410.27 L414.545 419.838 L292.067 609.805 L292.045 609.838 C269.111 645.013 257.4 675.711 258.074 696.746 C258.807 719.605 275.85 734.365 302.489 732.664 L302.518 732.663 L302.547 732.66 L308.32 732.248 L308.32 741.32 L46.909 741.32 C47.0032 738.558 47.0935 735.472 47.105 732.529 L48.2358 732.642 L48.2804 732.646 L48.325 732.65 C85.5656 735.936 140.843 688.1 186.433 618.195 L186.439 618.185 L186.446 618.175 L357.446 354.175 L360.304 349.763 L357.225 345.502 L193.225 118.502 L193.146 118.392 L193.062 118.285 C143.297 54.3012 80.0797 12.1562 34.4655 15.3386 L34.4592 15.3391 L34.4528 15.3395 L28.68 15.752 L28.68 6.68 L255.087 6.68 C254.986 9.82086 254.892 13.4476 254.897 16.83 L246.451 16.3333 L246.431 16.3321 L246.411 16.331 C183.168 12.943 177.053 67.9755 225.653 139.324 L227.939 142.68 L228.439 142.68 L228.439 142.68 Z " />
<glyph glyph-name="Y" unicode="Y" horiz-adv-x="764" d="M544.638 607.32 L543.736 607.32 L549.091 618.353 C580.725 683.538 568.529 721.006 514.451 718.333 L514.384 718.33 L497.451 717.333 L487.518 716.749 L489.469 726.506 C490.275 730.536 489.32 746.774 489.32 751 L489.32 758.68 L497 758.68 L753 758.68 L760.68 758.68 L760.68 751 L760.68 726 L760.68 717.752 L752.453 718.34 L738.465 719.339 L738.453 719.34 C698.347 722.129 650.821 686.757 613.599 629.063 L445.68 324.026 L445.68 151 C445.68 75.4607 477.798 29.9362 526.521 32.665 L526.566 32.6677 L542.521 33.665 L552.49 34.2881 L550.531 24.4938 C549.725 20.4637 550.68 4.22569 550.68 0 L550.68 -7.68 L543 -7.68 L233 -7.68 L225.32 -7.68 L225.32 0 L225.32 25 L225.32 33.175 L233.479 32.665 L249.434 31.6677 L249.479 31.665 C298.201 28.9365 330.32 74.4609 330.32 150 L330.32 319.759 L132.624 629.715 C92.2869 686.732 49.6257 721.032 21.7642 718.358 L21.7398 718.356 L11.7642 717.358 L1.4329 716.325 L3.46914 726.506 C4.26919 730.506 3.32 744.744 3.32 750 L3.32 757.68 L11 757.68 L288 757.68 L295.68 757.68 L295.68 750 L295.68 725 L295.68 716.752 L287.453 717.34 L273.511 718.336 L273.453 718.34 C253.091 719.626 245.602 713.257 244.667 697.058 C243.632 679.108 252.957 652.857 274.017 619.064 L428.223 371.761 L544.638 607.32 L544.638 607.32 Z M567.9 622.68 L569.362 622.68 L563.885 611.597 L435.885 352.597 L429.777 340.239 L422.483 351.936 L260.982 610.938 C239.042 646.145 228.118 676.892 229.333 697.942 C230.647 720.727 247.895 735.362 274.489 733.664 L274.518 733.663 L274.547 733.66 L280.32 733.248 L280.32 742.32 L18.909 742.32 C19.0032 739.558 19.0935 736.472 19.105 733.529 L20.2358 733.642 L20.248 733.643 L20.2602 733.644 C54.3751 736.946 103.651 697.311 145.271 638.433 L145.377 638.284 L145.475 638.13 L344.475 326.13 L345.68 324.241 L345.68 322 L345.68 150 C345.68 69.5625 305.818 13.0916 248.566 16.3323 L248.543 16.3335 L248.521 16.335 L240.68 16.825 L240.68 7.68 L535.087 7.68 C534.986 10.8113 534.892 14.4255 534.897 17.799 L527.479 17.335 L527.457 17.3335 L527.434 17.3323 C470.182 14.0916 430.32 70.5625 430.32 151 L430.32 326 L430.32 327.974 L431.272 329.704 L600.272 636.704 L600.4 636.936 L600.543 637.159 C639.296 697.328 693.694 737.86 739.535 734.661 L739.541 734.661 L739.547 734.66 L745.32 734.248 L745.32 743.32 L504.913 743.32 C505.014 740.179 505.108 736.552 505.103 733.17 L513.549 733.667 L513.583 733.669 L513.616 733.67 C576.015 736.79 595.258 688.013 567.9 622.68 L567.9 622.68 Z " />
<glyph glyph-name="Z" unicode="Z" horiz-adv-x="652" d="M650.48 153.308 L650.491 153.306 C631.472 69.2213 617.451 13.1373 617.451 13.1373 L617.436 13.0791 L617.421 13.0212 L613.421 -1.97885 L611.9 -7.68 L606 -7.68 L25 -7.68 L17.32 -7.68 L17.32 0 L17.32 20 L17.32 22.3458 L18.6307 24.2912 L487.433 720.124 L278.103 717.321 L259.206 717.068 L259.217 717.078 C171.918 711.202 107.372 671.735 91.3932 614.921 L91.3602 614.803 L91.3235 614.687 L85.3235 595.687 L83.1475 588.797 L76.1373 590.549 C76.1373 590.549 70.3287 592.002 68.449 592.276 L58.3738 590.444 L48.4851 588.646 L49.3484 598.66 C54.3447 656.617 57.8457 701.629 59.8504 723.683 L59.8515 723.695 L62.3504 751.683 L62.9752 758.68 L70 758.68 L610 758.68 L617.68 758.68 L617.68 751 L617.68 731 L617.68 728.695 L616.411 726.771 L157.436 30.938 L423.636 35.675 C512.844 42.5947 583.897 82.4221 606.869 139.852 L606.895 139.917 L606.922 139.98 L614.922 158.98 L622 156 L629.68 156 C629.68 160.355 628.065 160.663 632.683 160.553 C634.083 160.519 635.313 160.547 636.401 160.635 L643.981 194.148 L650.68 193.4 L650.68 155 C650.68 154.406 650.61 153.842 650.48 153.308 L650.48 153.308 Z M296.794 732.932 L501.897 735.679 L516.567 735.876 L508.369 723.709 L32.68 17.654 L32.68 7.68 L600.1 7.68 L602.564 16.92 C603.046 18.849 615.603 69.2117 632.898 145.187 C632.703 145.189 632.509 145.193 632.317 145.197 C630.618 145.238 628.399 145.459 626.103 145.954 L621.105 134.082 C596.068 71.595 517.244 27.4699 424.589 20.3426 L424.363 20.3252 L424.137 20.3212 L143.137 15.3212 L128.564 15.0619 L136.589 27.2287 L602.32 733.305 L602.32 743.32 L77.025 743.32 L75.1496 722.317 L75.149 722.311 L75.1485 722.305 C73.2693 701.634 70.057 660.538 65.511 607.353 L66.6262 607.556 L67.3075 607.68 L68 607.68 C69.058 607.68 70.887 607.393 72.796 607.024 L76.64 619.199 C95.5647 686.196 177.516 732.16 278.422 733.18 L297.231 733.37 L296.794 732.932 L296.794 732.932 Z " />
<glyph glyph-name="bracketleft" unicode="&#x5b;" horiz-adv-x="295" d="M142.68 717.32 L142.68 -162.32 L345 -162.32 L352.68 -162.32 L352.68 -170 L352.68 -195 L352.68 -202.68 L345 -202.68 L105 -202.68 L97.32 -202.68 L97.32 -195 L97.32 750 L97.32 757.68 L105 757.68 L345 757.68 L352.68 757.68 L352.68 750 L352.68 725 L352.68 717.32 L345 717.32 L142.68 717.32 L142.68 717.32 Z M127.32 725 L127.32 732.68 L135 732.68 L337.32 732.68 L337.32 742.32 L112.68 742.32 L112.68 -187.32 L337.32 -187.32 L337.32 -177.68 L135 -177.68 L127.32 -177.68 L127.32 -170 L127.32 725 L127.32 725 Z " />
<glyph glyph-name="backslash" unicode="&#x5c;" horiz-adv-x="347" d="M19.6559 767.754 L16.6196 777.68 L27 777.68 L77 777.68 L82.6821 777.68 L84.3441 772.246 L344.344 -77.7536 L347.38 -87.68 L337 -87.68 L287 -87.68 L281.318 -87.68 L279.656 -82.2464 L19.6559 767.754 L19.6559 767.754 Z M37.38 762.32 L292.682 -72.32 L326.62 -72.32 L71.318 762.32 L37.38 762.32 L37.38 762.32 Z " />
<glyph glyph-name="bracketright" unicode="&#x5d;" horiz-adv-x="298" d="M150.32 717.32 L-52 717.32 L-59.68 717.32 L-59.68 725 L-59.68 750 L-59.68 757.68 L-52 757.68 L188 757.68 L195.68 757.68 L195.68 750 L195.68 -195 L195.68 -202.68 L188 -202.68 L-52 -202.68 L-59.68 -202.68 L-59.68 -195 L-59.68 -170 L-59.68 -162.32 L-52 -162.32 L150.32 -162.32 L150.32 717.32 L150.32 717.32 Z M158 732.68 L165.68 732.68 L165.68 725 L165.68 -170 L165.68 -177.68 L158 -177.68 L-44.32 -177.68 L-44.32 -187.32 L180.32 -187.32 L180.32 742.32 L-44.32 742.32 L-44.32 732.68 L158 732.68 L158 732.68 Z " />
<glyph glyph-name="asciicircum" unicode="&#x5e;" horiz-adv-x="340" d="M206.39 759.26 L206.422 759.213 L206.452 759.165 L328.452 570.165 L332.14 564.453 L326.917 560.1 L314.917 550.1 L309.548 545.626 L304.589 550.55 L170 684.178 L35.4111 550.55 L30.4519 545.626 L25.0834 550.1 L13.0834 560.1 L7.86018 564.453 L11.5475 570.165 L133.548 759.165 L133.578 759.213 L133.61 759.26 C139.61 768.26 155.89 792.68 170 792.68 C184.11 792.68 200.39 768.26 206.39 759.26 L206.39 759.26 Z M193.578 750.787 C187.569 759.801 175.879 777.32 170 777.32 C164.121 777.32 152.431 759.801 146.422 750.787 L28.14 567.547 L29.548 566.374 L164.589 700.45 L170 705.822 L175.411 700.45 L310.452 566.374 L311.86 567.547 L193.578 750.787 L193.578 750.787 Z " />
<glyph glyph-name="underscore" unicode="&#x5f;" horiz-adv-x="455" d="M-2.68 -50 L-2.68 -42.32 L5 -42.32 L450 -42.32 L457.68 -42.32 L457.68 -50 L457.68 -97 L457.68 -104.68 L450 -104.68 L5 -104.68 L-2.68 -104.68 L-2.68 -97 L-2.68 -50 L-2.68 -50 Z M12.68 -57.68 L12.68 -89.32 L442.32 -89.32 L442.32 -57.68 L12.68 -57.68 L12.68 -57.68 Z " />
<glyph glyph-name="grave" unicode="&#x60;" horiz-adv-x="340" d="M-41.68 746 C-41.68 772.181 -18.1812 795.68 8 795.68 C19.5428 795.68 44.9839 765.819 75.114 725.648 L189.084 577.687 L193.202 572.341 L188.431 567.569 L177.431 556.569 L172.437 551.576 L167.043 556.134 L25.053 676.125 L25.048 676.13 L25.0429 676.134 C-13.0856 708.243 -41.68 734.638 -41.68 746 L-41.68 746 Z M-26.32 746 C-26.32 741.363 -2.91929 719.762 34.947 687.875 L34.9521 687.87 L34.9571 687.866 L171.563 572.424 L172.798 573.659 L62.9157 716.313 L62.8856 716.353 L62.856 716.392 C32.999 756.201 12.4535 780.32 8 780.32 C-11.8188 780.32 -26.32 765.819 -26.32 746 L-26.32 746 Z " />
<glyph glyph-name="a" unicode="a" horiz-adv-x="514" d="M522.373 111.234 L536.164 125.025 L532.069 101.199 C520.664 34.8441 475.235 -11.68 421 -11.68 C367.306 -11.68 325.748 20.541 312.455 68.513 C251.012 7.97573 199.616 -16.68 159 -16.68 C88.1351 -16.68 38.32 26.4931 38.32 89 C38.32 177.09 94.2495 204.712 308.32 270.672 L308.32 386 C308.32 450.468 278.159 476.32 229 476.32 C179.024 476.32 146.68 429.601 146.68 403 C146.68 387.781 166.68 363.781 166.68 343 C166.68 322.523 144.934 292.32 114 292.32 C81.4029 292.32 57.32 321.219 57.32 360 C57.32 416.727 139.345 517.68 259 517.68 C346.841 517.68 407.68 465.532 407.68 355 L407.68 102 C407.68 77.6394 424.741 63.68 455 63.68 C478.819 63.68 495.889 80.7506 501.452 110.415 L503.276 120.146 L512.248 115.959 L522.373 111.234 L522.373 111.234 Z M308.32 236.579 C168.619 193.074 138.68 174.74 138.68 100 C138.68 66.5191 162.853 45.68 204 45.68 C229.813 45.68 263.356 61.7981 308.32 107.148 L308.32 236.579 L308.32 236.579 Z M323.68 246 L323.68 104 L323.68 100.866 L322.416 99.575 L324.594 85.1463 C332.174 34.9276 367.886 3.68 421 3.68 C467.087 3.68 503.683 39.5002 515.715 97.391 L514.23 98.084 C505.336 68.7456 482.319 48.32 455 48.32 C419.259 48.32 392.32 70.3606 392.32 102 L392.32 355 C392.32 458.468 341.159 502.32 259 502.32 C146.655 502.32 72.68 411.273 72.68 360 C72.68 326.781 88.5971 307.68 114 307.68 C137.066 307.68 151.32 327.477 151.32 343 C151.32 358.219 131.32 382.219 131.32 403 C131.32 434.399 170.976 491.68 229 491.68 C283.841 491.68 323.68 457.532 323.68 386 L323.68 265 L323.68 259.326 L318.256 257.659 C100.808 190.828 53.68 168.171 53.68 89 C53.68 33.5069 93.8649 -1.32 159 -1.32 C196.6 -1.32 243.427 21.3319 303.773 81.523 C263.696 45.1081 230.021 30.32 204 30.32 C157.147 30.32 123.32 59.4809 123.32 100 C123.32 185.519 163.97 208.102 313.735 254.338 L323.68 257.409 L323.68 247 L323.68 246 L323.68 246 Z " />
<glyph glyph-name="b" unicode="b" horiz-adv-x="573" d="M75 -7.68 L67.32 -7.68 L67.32 0 L67.32 601 C67.32 662.11 48.353 698.32 20 698.32 L19.617 698.32 L19.2358 698.358 L9.23581 699.358 L1.80764 700.101 L2.33952 707.547 L3.33952 721.547 L3.72243 726.908 L8.89014 728.385 L73.6401 746.885 L73.7683 746.921 L73.8977 746.953 L116.148 757.453 L117.06 757.68 L118 757.68 L160 757.68 L167.68 757.68 L167.68 750 L167.68 457.225 C203.553 491.286 253.556 512.68 301 512.68 C440.418 512.68 535.68 406.95 535.68 253 C535.68 92.0413 436.408 -17.68 291 -17.68 C219.151 -17.68 153.9 8.12587 112.119 50.426 L86.9539 -3.25965 L84.8819 -7.68 L80 -7.68 L75 -7.68 L75 -7.68 Z M82.68 23.812 L103.046 67.2597 L108.054 77.9424 L115.795 69.0395 C154.632 24.3775 217.562 -2.32 291 -2.32 C429.592 -2.32 520.32 97.9587 520.32 253 C520.32 401.05 433.582 497.32 301 497.32 C250.753 497.32 199.79 472.783 165.841 433.014 L152.32 417.175 L152.32 438 L152.32 742.32 L118.94 742.32 L77.732 732.079 L18.277 715.092 L18.192 713.899 L20.401 713.678 C57.8245 713.34 82.68 665.659 82.68 601 L82.68 23.812 L82.68 23.812 Z M167.68 111.949 C191.09 52.7964 239.964 16.68 296 16.68 C373.579 16.68 424.32 104.068 424.32 242 C424.32 376.508 362.083 462.32 266 462.32 C232.64 462.32 195.537 442.784 167.68 410.199 L167.68 111.949 L167.68 111.949 Z M167.68 77.762 L167.68 71.6 L152.32 71.6 L152.32 110 L152.32 110.5 L152.32 148.9 L152.32 413 L152.32 415.768 L154.086 417.9 C184.045 454.057 228.07 477.68 266 477.68 C369.917 477.68 439.68 381.492 439.68 242 C439.68 99.932 382.421 1.32 296 1.32 C244.652 1.32 196.597 30.7929 167.68 77.762 L167.68 77.762 Z " />
<glyph glyph-name="c" unicode="c" horiz-adv-x="503" d="M475.954 135.089 L483.219 132.062 L480.015 124.873 C442.164 39.9648 361.461 -17.68 281 -17.68 C135.725 -17.68 37.32 84.9122 37.32 236 C37.32 402.991 142.625 517.68 297 517.68 C382.127 517.68 456.282 473.187 480.214 407.634 L480.22 407.618 L480.226 407.601 C490.877 378.016 468.181 355.32 431 355.32 C410.827 355.32 390.373 375.766 380.786 402.364 L380.774 402.399 C362.431 452.572 328.057 483.32 292 483.32 C200.885 483.32 140.68 401.479 140.68 273 C140.68 136.619 207.774 49.68 311 49.68 C374.873 49.68 430.943 83.3222 453.961 136.072 L456.982 142.994 L463.954 140.089 L475.954 135.089 L475.954 135.089 Z M446.471 95.337 C414.945 57.7578 364.255 34.32 311 34.32 C200.226 34.32 125.32 131.381 125.32 273 C125.32 406.521 193.115 498.68 292 498.68 C333.934 498.68 375.554 461.442 395.214 407.636 L395.22 407.619 L395.226 407.601 C403.645 384.217 417.181 370.68 431 370.68 C461.803 370.68 473.111 381.972 465.786 402.366 L465.774 402.399 C443.694 462.827 377.858 502.32 297 502.32 C149.375 502.32 52.68 397.009 52.68 236 C52.68 91.0878 142.275 -2.32 281 -2.32 C344.746 -2.32 406.895 34.9632 446.471 95.337 L446.471 95.337 Z " />
<glyph glyph-name="d" unicode="d" horiz-adv-x="600" d="M501.802 3.03441 L500.914 2.82 L500 2.82 L499.5 2.82 C486.472 2.82 470.704 -1.23456 461.435 -5.8692 L459.813 -6.68 L458 -6.68 L415 -6.68 L407.32 -6.68 L407.32 1 L407.32 47.093 C370.44 11.207 313.115 -11.68 257 -11.68 C126.403 -11.68 37.32 95.2195 37.32 252 C37.32 409.612 121.218 518.68 280 518.68 C326.978 518.68 371.35 507.671 407.32 490.513 L407.32 605 C407.32 666.11 388.353 702.32 360 702.32 L359.617 702.32 L359.236 702.358 L349.236 703.358 L341.808 704.101 L342.34 711.547 L343.34 725.547 L343.736 731.1 L349.137 732.451 C381.036 740.425 424.146 752.456 456.359 759.503 L457.26 759.7 L458.183 759.678 L500.183 758.678 L507.68 758.499 L507.68 751 L507.68 143 C507.68 79.7284 531.718 49.8682 569.741 61.3404 L569.777 61.3514 L582.741 65.3404 L595.058 69.1301 L592.531 56.4938 C591.725 52.4637 592.68 36.2257 592.68 32 L592.68 25.9451 L586.792 24.5321 C561.912 18.5608 530.917 10.0621 501.802 3.03441 L501.802 3.03441 Z M499.08 18.179 C525.426 24.5571 553.463 32.1699 577.143 37.994 C577.047 40.8 576.942 44.1725 576.908 47.475 L574.259 46.6596 L574.241 46.6541 L574.223 46.6486 C526.267 32.1504 492.32 74.2914 492.32 143 L492.32 743.501 L458.743 744.3 C428.813 737.708 389.345 726.8 358.264 718.911 L358.192 717.899 L360.401 717.678 C397.825 717.34 422.68 669.659 422.68 605 L422.68 478 L422.68 465.118 L411.348 471.244 C375.114 490.83 329.957 503.32 280 503.32 C128.782 503.32 52.68 404.388 52.68 252 C52.68 100.781 133.597 3.68 257 3.68 C317.346 3.68 376.135 30.2299 408.976 71.7634 L422.68 89.0953 L422.68 67 L422.68 8.68 L456.258 8.68 C467.124 13.6729 484.932 18.0926 499.08 18.179 L499.08 18.179 Z M406.32 374.841 C388.614 431.485 340.535 478.32 289 478.32 C189.193 478.32 138.68 399.744 138.68 275 C138.68 131.286 199.157 38.68 291 38.68 C332.308 38.68 376.331 62.1287 406.32 99.659 L406.32 374.841 L406.32 374.841 Z M421.346 378.241 L421.68 377.145 L421.68 376 L421.68 97 L421.68 94.3724 L420.07 92.2954 C388.08 51.0172 336.946 23.32 291 23.32 C190.843 23.32 123.32 126.714 123.32 275 C123.32 404.256 180.807 493.68 289 493.68 C347.138 493.68 402.775 439.113 421.346 378.241 L421.346 378.241 Z " />
<glyph glyph-name="e" unicode="e" horiz-adv-x="540" d="M146.991 332.32 C143.871 312.371 142.68 290.19 142.68 266 C142.68 136.529 203.875 53.68 298 53.68 C390.252 53.68 460.877 87.5798 479.798 138.667 L482.239 145.259 L489.021 143.409 L500.021 140.409 L508.046 138.221 L505.225 130.396 C473.347 41.961 381.27 -17.68 278 -17.68 C134.747 -17.68 37.32 82.89 37.32 231 C37.32 435.795 144.4 517.68 301 517.68 C410.127 517.68 494.94 466.793 517.558 341.363 L519.189 332.32 L510 332.32 L146.991 332.32 L146.991 332.32 Z M131.458 332.32 L101.6 332.32 L101.6 347.68 L140 347.68 L140.5 347.68 L149.702 347.68 L500.677 347.68 C477.155 459.508 403.163 502.32 301 502.32 C149.6 502.32 52.68 428.205 52.68 231 C52.68 89.11 141.253 -2.32 278 -2.32 C362.226 -2.32 435.676 37.241 474.14 100.747 C439.751 62.3491 374.039 38.32 298 38.32 C196.125 38.32 127.32 131.471 127.32 266 C127.32 289.637 128.481 312.113 131.458 332.32 L131.458 332.32 Z M401.764 371.527 C380.838 453.066 343.431 483.32 296 483.32 C226.01 483.32 176.502 450.856 154.806 367.828 L401.764 371.527 L401.764 371.527 Z M417.558 371.68 L450.4 371.68 L450.511 356.896 L412.115 356.321 L145.115 352.321 L135.36 352.175 L137.509 361.692 C159.169 457.615 218.605 498.68 296 498.68 C349.637 498.68 395.403 460.89 417.558 371.68 L417.558 371.68 Z " />
<glyph glyph-name="f" unicode="f" horiz-adv-x="368" d="M277.68 0 L277.68 -7.7158 L269.964 -7.67992 L54.9643 -6.67992 L47.32 -6.64436 L47.32 1 L47.32 26 L47.32 34.4863 L55.7642 33.6419 L65.6953 32.6485 L65.729 32.645 L65.7642 32.6419 C94.4835 30.0711 112.32 53.6172 112.32 96 L112.32 448.32 L26 448.32 L18.32 448.32 L18.32 456 L18.32 466 L18.32 471.336 L23.3202 473.197 L112.351 506.347 C114.142 658.97 192.827 763.68 340 763.68 C422.99 763.68 482.68 730.519 482.68 681 C482.68 650.819 460.181 628.32 430 628.32 C388.971 628.32 347.971 722.32 310 722.32 C247.454 722.32 213.967 639.782 212.716 508.68 L358 508.68 L365.68 508.68 L365.68 501 L365.68 456 L365.68 448.32 L358 448.32 L212.68 448.32 L212.68 96 C212.68 53.617 230.516 30.0707 259.236 32.6419 L259.271 32.645 L259.305 32.6485 L269.236 33.6419 L279.567 34.675 L277.531 24.4938 C276.725 20.4637 277.68 4.22569 277.68 0 L277.68 0 Z M262.086 7.717 C261.989 10.7385 261.899 14.2055 261.897 17.471 L260.764 17.3581 L260.73 17.3547 L260.695 17.3515 C223.455 13.966 197.32 48.4165 197.32 96 L197.32 456 L197.32 463.68 L205 463.68 L350.32 463.68 L350.32 493.32 L205 493.32 L197.32 493.32 L197.32 501 C197.32 639.449 235.758 737.68 310 737.68 C358.029 737.68 399.029 643.68 430 643.68 C453.819 643.68 467.32 657.181 467.32 681 C467.32 721.481 419.01 748.32 340 748.32 C198.886 748.32 127.68 651.48 127.68 501 L127.68 495.664 L122.68 493.803 L41.779 463.68 L120 463.68 L127.68 463.68 L127.68 456 L127.68 96 C127.68 48.4165 101.545 13.966 64.3047 17.3515 L64.2702 17.3547 L64.2358 17.3581 L62.68 17.514 L62.68 8.644 L262.086 7.717 L262.086 7.717 Z " />
<glyph glyph-name="g" unicode="g" horiz-adv-x="520" d="M548.68 479 C548.68 453.973 530.337 434.32 505 434.32 C480.225 434.32 453.225 469.32 436 469.32 C429.52 469.32 420.668 462.369 410.608 449.128 C430.225 422.641 441.68 388.025 441.68 350 C441.68 249.587 364.954 180.32 254 180.32 C164.422 180.32 110.68 159.719 110.68 130 C110.68 106.421 136.068 91.68 180 91.68 L298 91.68 C435.545 91.68 491.68 25.8292 491.68 -68 C491.68 -168.875 398.529 -237.68 264 -237.68 C129.831 -237.68 36.32 -180.298 36.32 -95 C36.32 -54.5503 67.4913 -17.5623 114.852 3.458 C73.5523 20.8704 47.32 57.7003 47.32 104 C47.32 149.55 89.4545 185.065 155.487 201.561 C100.717 229.624 67.32 283.374 67.32 350 C67.32 449.449 144.08 517.68 255 517.68 C309.4 517.68 356.321 501.144 389.271 472.954 C414.284 511.876 451.827 537.68 486 537.68 C521.969 537.68 548.68 513.397 548.68 479 L548.68 479 Z M533.32 479 C533.32 506.603 516.031 522.32 486 522.32 C454.76 522.32 421.4 498.161 398.235 458.175 C410.159 473.567 424.353 484.68 436 484.68 C460.775 484.68 487.775 449.68 505 449.68 C523.663 449.68 533.32 460.027 533.32 479 L533.32 479 Z M160.911 -6.798 C137.76 -20.9811 123.68 -44.9731 123.68 -75 C123.68 -153.504 180.876 -203.32 270 -203.32 C353.19 -203.32 406.32 -158.434 406.32 -88 C406.32 -38.1162 376.753 -7.68 291 -7.68 L177 -7.68 L176.787 -7.68 L176.574 -7.66818 L160.911 -6.798 L160.911 -6.798 Z M139.947 -3.439 C85.0069 -20.8936 51.68 -55.2096 51.68 -95 C51.68 -171.702 134.169 -222.32 264 -222.32 C393.471 -222.32 476.32 -161.125 476.32 -68 C476.32 20.1708 428.455 76.32 298 76.32 L180 76.32 C131.932 76.32 95.32 97.5786 95.32 130 C95.32 170.281 161.578 195.68 254 195.68 C359.046 195.68 426.32 256.413 426.32 350 C426.32 387.684 415.197 419.2 395.025 444.174 L391.379 448.688 L391.904 449.431 L385.656 455.484 C354.785 485.39 310.58 502.32 255 502.32 C149.92 502.32 82.68 442.551 82.68 350 C82.68 279.497 119.797 228.461 183.527 206.252 L211.901 196.364 L182.263 191.424 C106.056 178.723 62.68 147.095 62.68 104 C62.68 55.8604 91.1812 22.9059 139.759 11.4758 L155.407 7.794 L157.143 8.79502 L159.426 8.66818 L177.213 7.68 L291 7.68 C383.247 7.68 421.68 -31.8838 421.68 -88 C421.68 -165.566 358.81 -218.68 270 -218.68 C175.124 -218.68 108.32 -160.496 108.32 -75 C108.32 -46.7362 120.694 -20.8187 139.947 -3.439 L139.947 -3.439 Z M255 215.68 C307.89 215.68 342.32 267.325 342.32 350 C342.32 431.64 307.93 482.32 255 482.32 C202.07 482.32 167.68 431.64 167.68 350 C167.68 267.325 202.11 215.68 255 215.68 L255 215.68 Z M255 200.32 C193.89 200.32 152.32 262.675 152.32 350 C152.32 436.36 193.93 497.68 255 497.68 C316.07 497.68 357.68 436.36 357.68 350 C357.68 262.675 316.11 200.32 255 200.32 L255 200.32 Z " />
<glyph glyph-name="h" unicode="h" horiz-adv-x="589" d="M125.148 757.453 L125.88 757.635 L126.635 757.671 L168.635 759.671 L176.68 760.054 L176.68 752 L176.68 413.159 C222.599 477.422 295.414 519.68 364 519.68 C454.307 519.68 501.68 442.161 501.68 332 L501.68 97 C501.68 54.617 519.516 31.0707 548.236 33.6419 L548.271 33.645 L548.305 33.6485 L558.236 34.6419 L568.567 35.675 L566.531 25.4938 C565.725 21.4637 566.68 5.22569 566.68 1 L566.68 -6.68 L559 -6.68 L344 -6.68 L336.32 -6.68 L336.32 1 L336.32 26 L336.32 34.4863 L344.764 33.6419 L354.695 32.6485 L354.729 32.645 L354.764 32.6419 C383.483 30.0711 401.32 53.6172 401.32 96 L401.32 331 C401.32 400.675 372.89 443.32 316 443.32 C261.773 443.32 206.925 410.225 176.68 358.929 L176.68 96 C176.68 53.617 194.516 30.0707 223.236 32.6419 L223.271 32.645 L223.305 32.6485 L233.236 33.6419 L243.567 34.675 L241.531 24.4938 C240.725 20.4637 241.68 4.22569 241.68 0 L241.68 -7.68 L234 -7.68 L19 -7.68 L11.32 -7.68 L11.32 0 L11.32 25 L11.32 33.4863 L19.7642 32.6419 L29.6953 31.6485 L29.729 31.645 L29.7642 31.6419 C58.4835 29.0711 76.32 52.6172 76.32 95 L76.32 601 C76.32 662.11 57.353 698.32 29 698.32 L28.617 698.32 L28.2358 698.358 L18.2358 699.358 L10.8076 700.101 L11.3395 707.547 L12.3395 721.547 L12.7224 726.908 L17.8901 728.385 L82.6401 746.885 L82.7683 746.921 L82.8977 746.953 L125.148 757.453 L125.148 757.453 Z M179.48 389.623 C213.818 431.543 266.106 458.68 316 458.68 C381.11 458.68 416.68 405.325 416.68 331 L416.68 96 C416.68 48.4165 390.545 13.966 353.305 17.3515 L353.27 17.3547 L353.236 17.3581 L351.68 17.514 L351.68 8.68 L551.087 8.68 C550.99 11.71 550.899 15.1922 550.897 18.471 L549.764 18.3581 L549.73 18.3547 L549.695 18.3515 C512.455 14.966 486.32 49.4165 486.32 97 L486.32 332 C486.32 437.839 445.693 504.32 364 504.32 C294.373 504.32 222.134 459.333 179.48 389.623 L179.48 389.623 Z M128.12 742.365 L86.732 732.079 L27.277 715.092 L27.192 713.899 L29.401 713.678 C66.8245 713.34 91.68 665.659 91.68 601 L91.68 95 C91.68 47.4165 65.5451 12.966 28.3047 16.3515 L28.2702 16.3547 L28.2358 16.3581 L26.68 16.514 L26.68 7.68 L226.087 7.68 C225.99 10.71 225.899 14.1922 225.897 17.471 L224.764 17.3581 L224.73 17.3547 L224.695 17.3515 C187.455 13.966 161.32 48.4165 161.32 96 L161.32 358.164 L161.32 361 L161.32 363.048 L161.32 387 L161.32 743.946 L128.12 742.365 L128.12 742.365 Z " />
<glyph glyph-name="i" unicode="i" horiz-adv-x="274" d="M137 607.32 C100.819 607.32 74.32 633.819 74.32 670 C74.32 706.181 100.819 732.68 137 732.68 C173.181 732.68 199.68 706.181 199.68 670 C199.68 633.819 173.181 607.32 137 607.32 L137 607.32 Z M137 622.68 C166.819 622.68 184.32 640.181 184.32 670 C184.32 699.819 166.819 717.32 137 717.32 C107.181 717.32 89.68 699.819 89.68 670 C89.68 640.181 107.181 622.68 137 622.68 L137 622.68 Z M135.148 507.453 L135.97 507.658 L136.817 507.678 L178.817 508.678 L186.68 508.865 L186.68 501 L186.68 96 C186.68 53.617 204.516 30.0707 233.236 32.6419 L233.271 32.645 L233.305 32.6485 L243.236 33.6419 L253.567 34.675 L251.531 24.4938 C250.725 20.4637 251.68 4.22569 251.68 0 L251.68 -7.68 L244 -7.68 L29 -7.68 L21.32 -7.68 L21.32 0 L21.32 25 L21.32 33.4863 L29.7642 32.6419 L39.6953 31.6485 L39.729 31.645 L39.7642 31.6419 C68.4835 29.0711 86.32 52.6172 86.32 95 L86.32 351 C86.32 412.11 67.353 448.32 39 448.32 L38.617 448.32 L38.2358 448.358 L28.2358 449.358 L20.8076 450.101 L21.3395 457.547 L22.3395 471.547 L22.7224 476.908 L27.8901 478.385 L92.6401 496.885 L92.7683 496.921 L92.8977 496.953 L135.148 507.453 L135.148 507.453 Z M138.03 492.342 L96.732 482.079 L37.277 465.092 L37.192 463.899 L39.401 463.678 C76.8245 463.34 101.68 415.659 101.68 351 L101.68 95 C101.68 47.4165 75.5451 12.966 38.3047 16.3515 L38.2702 16.3547 L38.2358 16.3581 L36.68 16.514 L36.68 7.68 L236.087 7.68 C235.99 10.71 235.899 14.1922 235.897 17.471 L234.764 17.3581 L234.73 17.3547 L234.695 17.3515 C197.455 13.966 171.32 48.4165 171.32 96 L171.32 493.135 L138.03 492.342 L138.03 492.342 Z " />
<glyph glyph-name="j" unicode="j" horiz-adv-x="270" d="M138 605.32 C101.819 605.32 75.32 631.819 75.32 668 C75.32 704.181 101.819 730.68 138 730.68 C174.181 730.68 200.68 704.181 200.68 668 C200.68 631.819 174.181 605.32 138 605.32 L138 605.32 Z M138 620.68 C167.819 620.68 185.32 638.181 185.32 668 C185.32 697.819 167.819 715.32 138 715.32 C108.181 715.32 90.68 697.819 90.68 668 C90.68 638.181 108.181 620.68 138 620.68 L138 620.68 Z M136.148 507.453 L137.06 507.68 L138 507.68 L180 507.68 L187.68 507.68 L187.68 500 L187.68 50 C187.68 -18.3164 137.418 -93.7184 63.8991 -136.617 L63.8697 -136.634 C8.56529 -169.223 -34.7872 -191.985 -44.574 -192.664 L-44.574 -192.668 C-83.3687 -194.823 -112.68 -172.84 -112.68 -140 C-112.68 -112.551 -89.9199 -92.32 -60 -92.32 C-28.09 -92.32 11.7335 -110.421 40.874 -111.288 C68.3474 -93.2413 87.32 -30.1684 87.32 50 L87.32 351 C87.32 412.11 68.353 448.32 40 448.32 L39.617 448.32 L39.2358 448.358 L29.2358 449.358 L21.8076 450.101 L22.3395 457.547 L23.3395 471.547 L23.7224 476.908 L28.8901 478.385 L93.6401 496.885 L93.7683 496.921 L93.8977 496.953 L136.148 507.453 L136.148 507.453 Z M138.94 492.32 L97.732 482.079 L38.277 465.092 L38.192 463.899 L40.401 463.678 C77.8245 463.34 102.68 415.659 102.68 351 L102.68 50 C102.68 -34.1589 80.4523 -106.134 46.8564 -125.642 L45.068 -126.68 L43 -126.68 C10.307 -126.68 -30.693 -107.68 -60 -107.68 C-84.0801 -107.68 -97.32 -119.449 -97.32 -140 C-97.32 -165.16 -78.6313 -179.177 -45.426 -177.332 L-45.2132 -177.32 L-45 -177.32 C-39.8897 -177.32 0.266342 -156.286 56.1009 -123.383 L56.1156 -123.375 L56.1303 -123.366 C126.595 -82.2615 172.32 -13.6747 172.32 50 L172.32 492.32 L138.94 492.32 L138.94 492.32 Z " />
<glyph glyph-name="k" unicode="k" horiz-adv-x="564" d="M550.68 -2 L550.68 -9.64245 L543.038 -9.67991 L339.038 -10.6799 L331.32 -10.7177 L331.32 -3 L331.32 22 L331.32 30.8551 L340.086 29.6028 L347.001 28.615 C352.691 27.9316 352.64 27.9212 346.444 42.3434 C339.481 58.5489 323.376 82.3469 298.148 112.026 L298.124 112.055 L298.1 112.083 L176.68 257.788 L176.68 94 C176.68 51.617 194.516 28.0707 223.236 30.6419 L223.271 30.645 L223.305 30.6485 L233.236 31.6419 L243.567 32.675 L241.531 22.4938 C240.725 18.4637 241.68 2.22569 241.68 -2 L241.68 -9.68 L234 -9.68 L19 -9.68 L11.32 -9.68 L11.32 -2 L11.32 23 L11.32 31.4863 L19.7642 30.6419 L29.6953 29.6485 L29.729 29.645 L29.7642 29.6419 C58.4835 27.0711 76.32 50.6172 76.32 93 L76.32 599 C76.32 660.11 57.353 696.32 29 696.32 L28.617 696.32 L28.2358 696.358 L18.2358 697.358 L10.8076 698.101 L11.3395 705.547 L12.3395 719.547 L12.7224 724.908 L17.8901 726.385 L82.6401 744.885 L82.7683 744.921 L82.8977 744.953 L125.148 755.453 L126.06 755.68 L127 755.68 L169 755.68 L176.68 755.68 L176.68 748 L176.68 293.658 L257.135 355.947 C300.556 393.467 324.854 422.733 330.772 442.344 C335.709 458.7 328.789 464.69 298.349 463.328 L298.344 463.328 L276.349 462.328 L266.544 461.882 L268.469 471.506 C269.275 475.536 268.32 491.774 268.32 496 L268.32 503.636 L275.956 503.68 L449.456 504.68 L449.478 504.68 L449.5 504.68 L485.5 504.68 L485.57 504.68 L485.641 504.679 L540.141 503.679 L547.68 503.54 L547.68 496 L547.68 471 L547.68 462.653 L539.362 463.347 L527.426 464.342 L527.362 464.347 C489.545 467.122 400.129 419.485 303.698 344.924 L303.663 344.897 L303.628 344.871 L261.056 312.724 L444.704 92.152 C490.095 45.8021 517.966 26.055 541.875 29.5971 L553.236 31.2803 L550.451 20.1373 C549.739 17.2916 550.68 2.23977 550.68 -2 L550.68 -2 Z M161.32 300.213 L161.32 740.32 L127.94 740.32 L86.732 730.079 L27.277 713.092 L27.192 711.899 L29.401 711.678 C66.8245 711.34 91.68 663.659 91.68 599 L91.68 93 C91.68 45.4165 65.5451 10.966 28.3047 14.3515 L28.2702 14.3547 L28.2358 14.3581 L26.68 14.514 L26.68 5.68 L226.087 5.68 C225.99 8.71 225.899 12.1922 225.897 15.471 L224.764 15.3581 L224.73 15.3547 L224.695 15.3515 C187.455 11.966 161.32 46.4165 161.32 94 L161.32 262.342 L161.32 278 L161.32 279 L161.32 300.213 L161.32 300.213 Z M535.079 5.641 C534.994 8.24152 534.917 11.1533 534.911 13.924 C507.08 15.0608 475.31 38.9206 433.511 81.6281 L433.295 81.8487 L433.098 82.0859 L244.098 309.086 L238.944 315.276 L245.372 320.129 L294.302 357.076 L294.372 357.129 C391.861 432.497 486.365 482.824 528.574 479.658 L528.606 479.656 L528.638 479.653 L532.32 479.347 L532.32 488.46 L485.43 489.32 L449.544 489.32 L449.5 489.32 L283.912 488.365 C284.015 485.178 284.111 481.487 284.103 478.056 L297.651 478.672 L297.656 478.672 C334.212 480.309 353.291 463.799 345.478 437.906 C338.653 415.291 311.501 382.603 267.02 344.188 L266.864 344.053 L266.701 343.927 L180.503 277.193 L309.852 121.974 L309.9 121.917 C335.646 91.6206 353.023 65.94 360.556 48.4066 C368.595 29.6953 364.554 12.0917 346.68 13.228 L346.68 4.718 L535.079 5.641 L535.079 5.641 Z " />
<glyph glyph-name="l" unicode="l" horiz-adv-x="264" d="M125.148 757.453 L125.97 757.658 L126.817 757.678 L168.817 758.678 L176.68 758.865 L176.68 751 L176.68 96 C176.68 53.617 194.516 30.0707 223.236 32.6419 L223.271 32.645 L223.305 32.6485 L233.236 33.6419 L243.567 34.675 L241.531 24.4938 C240.725 20.4637 241.68 4.22569 241.68 0 L241.68 -7.68 L234 -7.68 L19 -7.68 L11.32 -7.68 L11.32 0 L11.32 25 L11.32 33.4863 L19.7642 32.6419 L29.6953 31.6485 L29.729 31.645 L29.7642 31.6419 C58.4835 29.0711 76.32 52.6172 76.32 95 L76.32 601 C76.32 662.11 57.353 698.32 29 698.32 L28.617 698.32 L28.2358 698.358 L18.2358 699.358 L10.8076 700.101 L11.3395 707.547 L12.3395 721.547 L12.7224 726.908 L17.8901 728.385 L82.6401 746.885 L82.7683 746.921 L82.8977 746.953 L125.148 757.453 L125.148 757.453 Z M128.03 742.342 L86.732 732.079 L27.277 715.092 L27.192 713.899 L29.401 713.678 C66.8245 713.34 91.68 665.659 91.68 601 L91.68 95 C91.68 47.4165 65.5451 12.966 28.3047 16.3515 L28.2702 16.3547 L28.2358 16.3581 L26.68 16.514 L26.68 7.68 L226.087 7.68 C225.99 10.71 225.899 14.1922 225.897 17.471 L224.764 17.3581 L224.73 17.3547 L224.695 17.3515 C187.455 13.966 161.32 48.4165 161.32 96 L161.32 743.135 L128.03 742.342 L128.03 742.342 Z " />
<glyph glyph-name="m" unicode="m" horiz-adv-x="874" d="M851.68 -2 L851.68 -9.78791 L843.893 -9.67925 L628.893 -6.67925 L621.32 -6.57358 L621.32 1 L621.32 26 L621.32 34.4863 L629.764 33.6419 L639.695 32.6485 L639.729 32.645 L639.764 32.6419 C668.483 30.0711 686.32 53.6172 686.32 96 L686.32 333 C686.32 401.153 665.298 442.32 607 442.32 C557.846 442.32 508.094 414.209 479.855 371.019 C480.788 358.835 481.68 346.355 481.68 333 L481.68 98 C481.68 55.617 499.516 32.0707 528.236 34.6419 L528.271 34.645 L528.305 34.6485 L538.236 35.6419 L548.567 36.675 L546.531 26.4938 C545.725 22.4637 546.68 6.22569 546.68 2 L546.68 -5.68 L539 -5.68 L324 -5.68 L316.32 -5.68 L316.32 2 L316.32 27 L316.32 35.4863 L324.764 34.6419 L334.695 33.6485 L334.729 33.645 L334.764 33.6419 C363.483 31.0711 381.32 54.6172 381.32 97 L381.32 332 C381.32 400.153 360.298 441.32 302 441.32 C253.764 441.32 203.935 411.233 176.68 364.934 L176.68 97 C176.68 54.617 194.516 31.0707 223.236 33.6419 L223.271 33.645 L223.305 33.6485 L233.236 34.6419 L243.567 35.675 L241.531 25.4938 C240.725 21.4637 241.68 5.22569 241.68 1 L241.68 -6.68 L234 -6.68 L19 -6.68 L11.32 -6.68 L11.32 1 L11.32 26 L11.32 34.4863 L19.7642 33.6419 L29.6953 32.6485 L29.729 32.645 L29.7642 32.6419 C58.4835 30.0711 76.32 53.6172 76.32 96 L76.32 352 C76.32 413.11 57.353 449.32 29 449.32 L28.617 449.32 L28.2358 449.358 L18.2358 450.358 L10.8076 451.101 L11.3395 458.547 L12.3395 472.547 L12.7224 477.908 L17.8901 479.385 L82.6401 497.885 L82.7683 497.921 L82.8977 497.953 L125.148 508.453 L126.06 508.68 L127 508.68 L169 508.68 L176.68 508.68 L176.68 501 L176.68 417.14 C219.824 478.286 281.968 518.68 337 518.68 C412.531 518.68 455.537 476.56 472.522 411.044 C516.064 475.624 582.436 518.68 642 518.68 C745.631 518.68 786.68 440.902 786.68 331 L786.68 94 C786.68 51.617 804.516 28.0707 833.236 30.6419 L833.271 30.645 L833.305 30.6485 L843.236 31.6419 L853.567 32.675 L851.531 22.4938 C850.725 18.4637 851.68 2.22569 851.68 -2 L851.68 -2 Z M161.32 369.04 L161.32 391 L161.32 493.32 L127.94 493.32 L86.732 483.079 L27.277 466.092 L27.192 464.899 L29.401 464.678 C66.8245 464.34 91.68 416.659 91.68 352 L91.68 96 C91.68 48.4165 65.5451 13.966 28.3047 17.3515 L28.2702 17.3547 L28.2358 17.3581 L26.68 17.514 L26.68 8.68 L226.087 8.68 C225.99 11.71 225.899 15.1922 225.897 18.471 L224.764 18.3581 L224.73 18.3547 L224.695 18.3515 C187.455 14.966 161.32 49.4165 161.32 97 L161.32 362.592 L161.32 367 L161.32 369.04 L161.32 369.04 Z M464.245 373.681 L461.436 389.671 C448.805 461.57 412.501 503.32 337 503.32 C283.958 503.32 224.641 463.171 183.511 399.915 C214.754 434.48 259.756 456.68 302 456.68 C369.702 456.68 396.68 403.847 396.68 332 L396.68 97 C396.68 49.4165 370.545 14.966 333.305 18.3515 L333.27 18.3547 L333.236 18.3581 L331.68 18.514 L331.68 9.68 L531.087 9.68 C530.99 12.71 530.899 16.1922 530.897 19.471 L529.764 19.3581 L529.73 19.3547 L529.695 19.3515 C492.455 15.966 466.32 50.4165 466.32 98 L466.32 333 C466.32 346.705 465.343 359.411 464.343 372.411 L464.245 373.681 L464.245 373.681 Z M836.083 5.791 C835.987 8.79497 835.898 12.2321 835.897 15.471 L834.764 15.3581 L834.73 15.3547 L834.695 15.3515 C797.455 11.966 771.32 46.4165 771.32 94 L771.32 331 C771.32 437.098 736.369 503.32 642 503.32 C586.745 503.32 526.299 464.068 484.994 402.126 C516.859 435.877 563.048 457.68 607 457.68 C674.702 457.68 701.68 404.847 701.68 333 L701.68 96 C701.68 48.4165 675.545 13.966 638.305 17.3515 L638.27 17.3547 L638.236 17.3581 L636.68 17.514 L636.68 8.574 L836.083 5.791 L836.083 5.791 Z " />
<glyph glyph-name="n" unicode="n" horiz-adv-x="569" d="M125.148 507.453 L125.88 507.635 L126.635 507.671 L168.635 509.671 L176.68 510.054 L176.68 502 L176.68 413.597 C220.688 477.458 283.6 519.68 337 519.68 C431.158 519.68 481.68 442.285 481.68 332 L481.68 97 C481.68 54.617 499.516 31.0707 528.236 33.6419 L528.271 33.645 L528.305 33.6485 L538.236 34.6419 L548.567 35.675 L546.531 25.4938 C545.725 21.4637 546.68 5.22569 546.68 1 L546.68 -6.68 L539 -6.68 L324 -6.68 L316.32 -6.68 L316.32 1 L316.32 26 L316.32 34.4863 L324.764 33.6419 L334.695 32.6485 L334.729 32.645 L334.764 32.6419 C363.483 30.0711 381.32 53.6172 381.32 96 L381.32 331 C381.32 399.455 350.144 441.32 286 441.32 C248.969 441.32 205.873 409.539 176.68 358.96 L176.68 96 C176.68 53.617 194.516 30.0707 223.236 32.6419 L223.271 32.645 L223.305 32.6485 L233.236 33.6419 L243.567 34.675 L241.531 24.4938 C240.725 20.4637 241.68 4.22569 241.68 0 L241.68 -7.68 L234 -7.68 L19 -7.68 L11.32 -7.68 L11.32 0 L11.32 25 L11.32 33.4863 L19.7642 32.6419 L29.6953 31.6485 L29.729 31.645 L29.7642 31.6419 C58.4835 29.0711 76.32 52.6172 76.32 95 L76.32 351 C76.32 412.11 57.353 448.32 29 448.32 L28.617 448.32 L28.2358 448.358 L18.2358 449.358 L10.8076 450.101 L11.3395 457.547 L12.3395 471.547 L12.7224 476.908 L17.8901 478.385 L82.6401 496.885 L82.7683 496.921 L82.8977 496.953 L125.148 507.453 L125.148 507.453 Z M182.905 395.213 C212.924 432.679 251.958 456.68 286 456.68 C357.856 456.68 396.68 404.545 396.68 331 L396.68 96 C396.68 48.4165 370.545 13.966 333.305 17.3515 L333.27 17.3547 L333.236 17.3581 L331.68 17.514 L331.68 8.68 L531.087 8.68 C530.99 11.71 530.899 15.1922 530.897 18.471 L529.764 18.3581 L529.73 18.3547 L529.695 18.3515 C492.455 14.966 466.32 49.4165 466.32 97 L466.32 332 C466.32 437.715 422.842 504.32 337 504.32 C285.55 504.32 225.017 461.914 182.905 395.213 L182.905 395.213 Z M128.12 492.365 L86.732 482.079 L27.277 465.092 L27.192 463.899 L29.401 463.678 C66.8245 463.34 91.68 415.659 91.68 351 L91.68 95 C91.68 47.4165 65.5451 12.966 28.3047 16.3515 L28.2702 16.3547 L28.2358 16.3581 L26.68 16.514 L26.68 7.68 L226.087 7.68 C225.99 10.71 225.899 14.1922 225.897 17.471 L224.764 17.3581 L224.73 17.3547 L224.695 17.3515 C187.455 13.966 161.32 48.4165 161.32 96 L161.32 358.164 L161.32 361 L161.32 363.023 L161.32 387 L161.32 493.946 L128.12 492.365 L128.12 492.365 Z " />
<glyph glyph-name="o" unicode="o" horiz-adv-x="613" d="M37.32 250 C37.32 409.203 146.84 517.68 307 517.68 C467.181 517.68 575.68 409.181 575.68 250 C575.68 90.8188 467.181 -17.68 307 -17.68 C146.84 -17.68 37.32 90.7973 37.32 250 L37.32 250 Z M52.68 250 C52.68 97.2027 153.16 -2.32 307 -2.32 C460.819 -2.32 560.32 97.1812 560.32 250 C560.32 402.819 460.819 502.32 307 502.32 C153.16 502.32 52.68 402.797 52.68 250 L52.68 250 Z M146.68 250 C146.68 112.457 209.957 23.68 307 23.68 C404.043 23.68 467.32 112.457 467.32 250 C467.32 387.543 404.043 476.32 307 476.32 C209.957 476.32 146.68 387.543 146.68 250 L146.68 250 Z M131.32 250 C131.32 392.457 202.043 491.68 307 491.68 C411.957 491.68 482.68 392.457 482.68 250 C482.68 107.543 411.957 8.32 307 8.32 C202.043 8.32 131.32 107.543 131.32 250 L131.32 250 Z " />
<glyph glyph-name="p" unicode="p" horiz-adv-x="571" d="M110.148 507.453 L110.88 507.635 L111.635 507.671 L153.635 509.671 L161.68 510.054 L161.68 502 L161.68 462.337 C196.445 496.887 249.937 518.68 303 518.68 C440.469 518.68 533.68 412.901 533.68 258 C533.68 114.259 430.639 -11.68 278 -11.68 C235.951 -11.68 195.469 -1.63089 161.68 16.633 L161.68 -124 C161.68 -166.383 179.516 -189.929 208.236 -187.358 L208.271 -187.355 L208.305 -187.352 L218.236 -186.358 L228.567 -185.325 L226.531 -195.506 C225.725 -199.536 226.68 -215.774 226.68 -220 L226.68 -227.68 L219 -227.68 L4 -227.68 L-3.68 -227.68 L-3.68 -220 L-3.68 -195 L-3.68 -186.514 L4.76419 -187.358 L14.6953 -188.352 L14.729 -188.355 L14.7642 -188.358 C43.4835 -190.929 61.32 -167.383 61.32 -125 L61.32 351 C61.32 412.11 42.353 448.32 14 448.32 L13.617 448.32 L13.2358 448.358 L3.23581 449.358 L-4.19236 450.101 L-3.66048 457.547 L-2.66048 471.547 L-2.27757 476.908 L2.89014 478.385 L67.6401 496.885 L67.7683 496.921 L67.8977 496.953 L110.148 507.453 L110.148 507.453 Z M113.12 492.365 L71.732 482.079 L12.277 465.092 L12.192 463.899 L14.401 463.678 C51.8245 463.34 76.68 415.659 76.68 351 L76.68 -125 C76.68 -172.583 50.5451 -207.034 13.3047 -203.648 L13.2702 -203.645 L13.2358 -203.642 L11.68 -203.486 L11.68 -212.32 L211.087 -212.32 C210.99 -209.29 210.899 -205.808 210.897 -202.529 L209.764 -202.642 L209.73 -202.645 L209.695 -202.648 C172.455 -206.034 146.32 -171.583 146.32 -124 L146.32 30 L146.32 43.8986 L158.087 36.5022 C192.141 15.0969 233.052 3.68 278 3.68 C423.361 3.68 518.32 119.741 518.32 258 C518.32 407.099 433.531 503.32 303 503.32 C245.7 503.32 190.96 477.838 160.109 437.346 L146.32 419.248 L146.32 442 L146.32 493.946 L113.12 492.365 L113.12 492.365 Z M161.68 132 L161.68 131.601 C182.501 67.1597 229.649 25.68 282 25.68 C367.697 25.68 424.32 118.164 424.32 232 C424.32 376.596 359.981 469.32 262 469.32 C227.812 469.32 189.689 445.164 161.68 405.582 L161.68 132 L161.68 132 Z M146.32 139.68 L146.32 408 L146.32 410.394 L147.68 412.364 C177.554 455.629 222.744 484.68 262 484.68 C368.019 484.68 439.68 381.404 439.68 232 C439.68 113.836 376.303 10.32 282 10.32 C223.069 10.32 167.792 59.6942 146.162 129.734 L143.09 139.68 L146.32 139.68 L146.32 139.68 Z " />
<glyph glyph-name="q" unicode="q" horiz-adv-x="551" d="M553.68 -220 L553.68 -227.716 L545.964 -227.68 L329.964 -226.68 L322.32 -226.645 L322.32 -219 L322.32 -194 L322.32 -185.514 L330.764 -186.358 L340.695 -187.352 L340.729 -187.355 L340.764 -187.358 C369.483 -189.929 387.32 -166.383 387.32 -124 L387.32 43.886 C350.815 9.71859 298.081 -11.68 248 -11.68 C114.456 -11.68 23.32 95.1696 23.32 252 C23.32 409.714 111.331 518.68 279 518.68 C344.075 518.68 405.284 494.766 444.994 453.667 L469.064 504.297 L471.147 508.68 L476 508.68 L481 508.68 L488.68 508.68 L488.68 501 L488.68 -124 C488.68 -166.383 506.516 -189.929 535.236 -187.358 L535.271 -187.355 L535.305 -187.352 L545.236 -186.358 L555.567 -185.325 L553.531 -195.506 C552.725 -199.536 553.68 -215.774 553.68 -220 L553.68 -220 Z M538.086 -212.283 C537.989 -209.262 537.899 -205.795 537.897 -202.529 L536.764 -202.642 L536.73 -202.645 L536.695 -202.648 C499.455 -206.034 473.32 -171.583 473.32 -124 L473.32 477.475 L453.936 436.703 L448.82 425.941 L441.132 435.045 C404.325 478.633 345.455 503.32 279 503.32 C118.669 503.32 38.68 404.286 38.68 252 C38.68 100.83 121.544 3.68 248 3.68 C301.331 3.68 355.264 28.281 389.159 67.9863 L402.68 83.8254 L402.68 63 L402.68 -124 C402.68 -171.583 376.545 -206.034 339.305 -202.648 L339.27 -202.645 L339.236 -202.642 L337.68 -202.486 L337.68 -211.355 L538.086 -212.283 L538.086 -212.283 Z M387.32 389.109 C364.889 448.404 320.903 484.32 273 484.32 C175.288 484.32 125.68 403.824 125.68 276 C125.68 131.345 188.087 38.68 283 38.68 C318.316 38.68 357.455 60.1492 387.32 95.764 L387.32 389.109 L387.32 389.109 Z M387.32 424.652 L387.32 429.4 L402.68 429.4 L402.68 391 L402.68 390.5 L402.68 352.1 L402.68 93 L402.68 90.2647 L400.951 88.1453 C369.024 49.0087 322.998 23.32 283 23.32 C179.913 23.32 110.32 126.655 110.32 276 C110.32 408.176 166.712 499.68 273 499.68 C317.35 499.68 360.321 470.703 387.32 424.652 L387.32 424.652 Z " />
<glyph glyph-name="r" unicode="r" horiz-adv-x="420" d="M126.148 507.453 L126.972 507.658 L127.821 507.678 L170.821 508.678 L178.68 508.861 L178.68 501 L178.68 436.252 C208.367 486.57 259.32 518.68 315 518.68 C374.666 518.68 417.68 484.722 417.68 436 C417.68 402.819 393.181 378.32 360 378.32 C326.819 378.32 302.32 402.819 302.32 436 C302.32 453.819 292.819 463.32 275 463.32 C237.617 463.32 200.21 422.509 177.68 356.729 L177.68 96 C177.68 53.617 195.516 30.0707 224.236 32.6419 L224.271 32.645 L224.305 32.6485 L234.236 33.6419 L244.567 34.675 L242.531 24.4938 C241.725 20.4637 242.68 4.22569 242.68 0 L242.68 -7.68 L235 -7.68 L20 -7.68 L12.32 -7.68 L12.32 0 L12.32 25 L12.32 33.4863 L20.7642 32.6419 L30.6953 31.6485 L30.729 31.645 L30.7642 31.6419 C59.4835 29.0711 77.32 52.6172 77.32 95 L77.32 351 C77.32 412.11 58.353 448.32 30 448.32 L29.617 448.32 L29.2358 448.358 L19.2358 449.358 L11.8076 450.101 L12.3395 457.547 L13.3395 471.547 L13.7224 476.908 L18.8901 478.385 L83.6401 496.885 L83.7683 496.921 L83.8977 496.953 L126.148 507.453 L126.148 507.453 Z M175.736 392.552 C200.645 444.51 237.814 478.68 275 478.68 C299.181 478.68 317.68 460.181 317.68 436 C317.68 409.181 333.181 393.68 360 393.68 C386.819 393.68 402.32 409.181 402.32 436 C402.32 477.278 369.334 503.32 315 503.32 C253.608 503.32 201.453 463.272 178.218 399.375 L175.736 392.552 L175.736 392.552 Z M129.028 492.342 L87.732 482.079 L28.277 465.092 L28.192 463.899 L30.401 463.678 C67.8245 463.34 92.68 415.659 92.68 351 L92.68 95 C92.68 47.4165 66.5451 12.966 29.3047 16.3515 L29.2702 16.3547 L29.2358 16.3581 L27.68 16.514 L27.68 7.68 L227.087 7.68 C226.99 10.71 226.899 14.1922 226.897 17.471 L225.764 17.3581 L225.73 17.3547 L225.695 17.3515 C188.455 13.966 162.32 48.4165 162.32 96 L162.32 358 L162.32 359.264 L162.725 360.461 C163.071 361.485 163.423 362.504 163.778 363.519 L163.32 363.6 L163.32 402 L163.32 493.139 L129.028 492.342 L129.028 492.342 Z " />
<glyph glyph-name="s" unicode="s" horiz-adv-x="428" d="M52.32 -1 L52.32 177 L52.32 215.4 L67.68 215.4 L67.68 183.937 C68.1105 183.932 68.5514 183.93 69 183.93 C69.4486 183.93 69.8895 183.932 70.32 183.937 L70.32 215.4 L82.0047 215.955 L85.6454 177.728 L87.635 156.834 C95.4325 93.696 125.221 49.0388 168.248 28.9595 L168.259 28.9543 L168.27 28.949 C184.499 21.3121 200.843 17.68 218 17.68 C271.819 17.68 305.32 51.1812 305.32 106 C305.32 152.036 269.833 191.163 197.021 210.579 L197.004 210.584 L196.986 210.589 C102.503 236.264 51.32 302.375 51.32 380 C51.32 461.429 114.061 517.68 204 517.68 C243.647 517.68 276.756 516.416 299.593 514.271 C311.102 513.19 320.456 511.826 326.655 510.28 C327.114 510.166 327.582 510.036 328.056 509.891 L328.549 511.863 L336 510 L343.68 510 C343.68 514.934 338.986 516.59 339.919 516.435 C341.165 516.227 342.77 516.109 344.726 516.052 L345.32 516.037 L345.32 547.4 L360.68 547.4 L360.68 509 L360.68 341 L360.68 302.6 L345.32 302.6 L345.32 334.063 C344.889 334.068 344.449 334.07 344 334.07 C343.551 334.07 343.111 334.068 342.68 334.063 L342.68 302.6 L330.995 302.045 L327.355 340.272 L325.368 361.133 C315.668 434.47 268.779 481.32 204 481.32 C156.046 481.32 126.68 453.682 126.68 408 C126.68 353.737 163.382 308.774 238.994 288.417 C334.357 262.782 385.68 200.766 385.68 129 C385.68 46.1288 320.736 -16.5217 226.034 -18.173 L227.346 -19.4849 L207.002 -18.1639 C168.35 -15.6539 135.838 -12.2383 113.231 -8.44936 C101.834 -6.53927 92.4792 -4.4345 86.2028 -2.30352 C85.7778 -2.15923 85.349 -2.00335 84.919 -1.837 L84.4833 -3.72692 L77 -2 L69.32 -2 C69.32 -6.93372 74.0136 -8.59029 73.0812 -8.43488 C71.8352 -8.22722 70.2303 -8.10921 68.2742 -8.05168 L67.68 -8.037 L67.68 -39.4 L52.32 -39.4 L52.32 -1 L52.32 -1 Z M187.517 -1.379 L187.073 -0.934414 L207.526 -2.33802 C306.32 -9.11804 370.32 47.4613 370.32 129 C370.32 195.234 325.641 249.219 235.003 273.584 C154.615 295.227 111.32 348.263 111.32 408 C111.32 460.318 149.954 496.68 204 496.68 C275.181 496.68 330.274 441.587 340.614 363.002 L340.632 362.865 L340.645 362.728 L341.914 349.412 C342.611 349.424 343.313 349.43 344 349.43 C344.436 349.43 344.878 349.428 345.32 349.423 L345.32 500.675 C344.969 500.68 344.619 500.688 344.274 500.698 C343.421 500.723 342.519 500.766 341.623 500.826 L340.49 496.295 C340.458 496.161 340.423 496.026 340.385 495.89 L329.835 458.968 L316.236 462.609 L324.352 495.074 C323.985 495.131 323.521 495.231 322.939 495.376 C317.482 496.737 309.273 497.935 298.157 498.979 C275.744 501.084 243.353 502.32 204 502.32 C119.939 502.32 66.68 454.571 66.68 380 C66.68 307.635 111.485 249.751 200.979 225.421 L201.014 225.411 C278.18 204.823 320.68 157.956 320.68 106 C320.68 44.8188 278.181 2.32 218 2.32 C199.165 2.32 179.518 6.6841 161.752 15.0405 L161.73 15.051 C114.792 36.9666 80.5986 88.2656 72.3775 155.062 L72.3646 155.167 L72.3546 155.272 L71.086 168.588 C70.3895 168.576 69.6874 168.57 69 168.57 C68.5643 168.57 68.1225 168.572 67.68 168.577 L67.68 7.325 C68.0312 7.31951 68.3808 7.31183 68.7258 7.30168 C69.5347 7.27789 70.387 7.23847 71.237 7.183 L72.5167 12.7269 L80 11 L87.6207 10.0474 C87.9579 12.7448 86.2125 13.9144 91.141 12.241 C96.6458 10.372 104.791 8.53927 115.769 6.69936 C133.837 3.67124 158.294 0.89349 187.517 -1.379 L187.517 -1.379 Z " />
<glyph glyph-name="t" unicode="t" horiz-adv-x="378" d="M333 507.68 L340.68 507.68 L340.68 500 L340.68 455 L340.68 447.32 L333 447.32 L187.631 447.32 L185.68 141 L185.68 140.951 C185.692 64.2419 213.12 37.68 258 37.68 C300.579 37.68 336.591 62.8881 350.767 102.583 L353.449 110.092 L360.852 107.131 L370.852 103.131 L377.734 100.378 L375.227 93.4026 C351.461 27.2709 292.597 -17.68 232 -17.68 C147.12 -17.68 87.32 34.5091 87.32 160 L87.32 448.32 L30 448.32 L22.32 448.32 L22.32 456 L22.32 466 L22.32 469.031 L24.3903 471.245 L168.39 625.245 L170.667 627.68 L174 627.68 L180 627.68 L187.68 627.68 L187.68 620 L187.68 507.68 L333 507.68 L333 507.68 Z M325.32 492.32 L180 492.32 L172.32 492.32 L172.32 500 L172.32 606.959 L38.345 463.68 L95 463.68 L102.68 463.68 L102.68 456 L102.68 160 C102.68 41.4909 152.88 -2.32 232 -2.32 C273.046 -2.32 311.749 19.1131 338.093 55.379 C317.06 34.8316 288.228 22.32 258 22.32 C206.89 22.32 170.32 57.7472 170.32 141 L170.32 141.024 L170.32 141.049 L172.32 455.049 L172.369 462.68 L180 462.68 L325.32 462.68 L325.32 492.32 L325.32 492.32 Z " />
<glyph glyph-name="u" unicode="u" horiz-adv-x="560" d="M477.68 4.618 L477.68 1.82 L470 1.82 C457.147 1.82 440.859 -3.15683 431.435 -7.8692 L429.813 -8.68 L428 -8.68 L385 -8.68 L377.32 -8.68 L377.32 -1 L377.32 85.531 C340.326 22.1896 279.405 -18.68 217 -18.68 C131.334 -18.68 72.32 54.2829 72.32 159 L72.32 404 C72.32 446.383 54.4837 469.929 25.7642 467.358 L25.6953 467.352 L15.7642 466.358 L5.4329 465.325 L7.46914 475.506 C8.27517 479.536 7.32 495.774 7.32 500 L7.32 507.68 L15 507.68 L165 507.68 L172.68 507.68 L172.68 500 L172.68 160 C172.68 95.7999 205.576 56.68 257 56.68 C305.977 56.68 351.975 91.3103 377.32 146.659 L377.32 408 C377.32 450.383 359.484 473.929 330.764 471.358 L330.695 471.352 L320.764 470.358 L310.433 469.325 L312.469 479.506 C313.275 483.536 312.32 499.774 312.32 504 L312.32 511.751 L320.071 511.68 L428.071 510.68 L428.127 510.679 L428.183 510.678 L470.183 509.678 L477.68 509.499 L477.68 502 L477.68 144 C477.68 80.527 498.984 50.1114 531.536 60.276 L542.375 64.2176 L555.209 68.8844 L552.531 55.4938 C551.725 51.4637 552.68 35.2257 552.68 31 L552.68 25.134 L547.021 23.5906 C526.634 18.0307 501.922 11.174 477.68 4.618 L477.68 4.618 Z M370.745 105.454 C341.61 66.1379 299.6 41.32 257 41.32 C198.424 41.32 157.32 90.2001 157.32 160 L157.32 492.32 L22.913 492.32 C23.0103 489.29 23.1014 485.808 23.103 482.529 L24.2358 482.642 L24.2702 482.645 L24.3047 482.648 C61.5451 486.034 87.68 451.583 87.68 404 L87.68 159 C87.68 59.7171 138.666 -3.32 217 -3.32 C278.743 -3.32 336.985 38.3529 370.745 105.454 L370.745 105.454 Z M464.335 16.928 L468.003 17.9159 C491.724 24.3023 516.293 31.11 537.149 36.817 C537.057 39.4929 536.955 42.7053 536.915 45.888 L536.625 45.7824 L536.47 45.7261 L536.313 45.6765 C492.95 31.9829 462.32 75.5714 462.32 144 L462.32 494.501 L427.873 495.321 L327.915 496.246 C328.011 493.233 328.101 489.781 328.103 486.529 L329.236 486.642 L329.27 486.645 L329.305 486.648 C366.545 490.034 392.68 455.583 392.68 408 L392.68 155.863 L392.68 145 L392.68 143.357 L392.68 118 L392.68 6.68 L426.246 6.68 C435.746 11.1077 451.039 15.8042 464.335 16.928 L464.335 16.928 Z " />
<glyph glyph-name="v" unicode="v" horiz-adv-x="538" d="M375.726 367.465 L377.887 373.842 C387.12 404.099 390.897 428.743 389.35 446.197 C387.795 463.745 383.482 469.43 372.764 468.358 L363.848 467.367 L353.409 466.207 L355.469 476.506 C356.275 480.536 355.32 496.774 355.32 501 L355.32 508.68 L363 508.68 L523 508.68 L530.68 508.68 L530.68 501 L530.68 476 L530.68 467.514 L522.236 468.358 L512.283 469.354 L512.236 469.358 C484.292 471.926 449.754 430.095 425.221 362.384 L425.217 362.374 L425.214 362.365 L288.214 -12.6354 L286.371 -17.68 L281 -17.68 L256 -17.68 L250.63 -17.68 L248.787 -12.6363 L104.862 381.159 C80.4128 437.789 48.9938 470.968 23.7903 468.361 L23.7772 468.359 L23.7642 468.358 L13.7642 467.358 L3.4329 466.325 L5.46914 476.506 C6.26919 480.506 5.32 494.744 5.32 500 L5.32 507.68 L13 507.68 L227 507.68 L234.68 507.68 L234.68 500 L234.68 475 L234.68 466.419 L226.152 467.367 L217.21 468.361 L217.152 468.367 C207.196 469.375 203.572 464.149 202.797 446.783 C201.965 428.115 207.411 401.099 219.208 367.651 L219.225 367.603 L219.242 367.556 L300.704 146.056 L375.726 367.465 L375.726 367.465 Z M377.796 325.709 L308.274 120.535 L301.296 99.9437 L293.792 120.349 L204.792 362.349 L204.775 362.396 L204.758 362.444 C192.578 396.952 186.536 426.903 187.453 447.467 C188.427 469.317 199.79 485.605 218.79 483.639 L218.819 483.636 L218.848 483.633 L219.32 483.581 L219.32 492.32 L20.909 492.32 C21.0032 489.558 21.0935 486.472 21.105 483.529 L22.2097 483.639 L22.2358 483.642 C54.9972 487.007 93.521 446.273 119.053 387.04 L119.139 386.84 L119.213 386.636 L261.37 -2.32 L275.629 -2.32 L410.779 367.616 L410.786 367.635 C436.24 437.875 477.672 488.026 513.717 484.646 L513.741 484.644 L513.764 484.642 L515.32 484.486 L515.32 493.32 L370.913 493.32 C371.009 490.32 371.1 486.878 371.103 483.628 L371.152 483.633 L371.194 483.638 L371.236 483.642 C390.518 485.57 402.705 469.505 404.65 447.553 C406.486 426.831 401.483 396.679 390.307 362.136 L378.487 325.6 L377.796 325.709 L377.796 325.709 Z " />
<glyph glyph-name="w" unicode="w" horiz-adv-x="810" d="M116.983 351.122 L116.556 350.695 L112.326 361.757 C86.8074 428.499 51.7658 469.933 23.7642 467.358 L23.7169 467.354 L13.7642 466.358 L3.4329 465.325 L5.46914 475.506 C6.26919 479.506 5.32 493.744 5.32 499 L5.32 506.68 L13 506.68 L229 506.68 L236.68 506.68 L236.68 499 L236.68 474 L236.68 465.419 L228.152 466.367 L219.21 467.361 L219.152 467.367 C209.021 468.394 205.173 463.234 204.295 446.107 C203.345 427.588 208.9 400.642 221.687 366.708 L221.694 366.689 L221.701 366.671 L304.873 142.427 L378.835 348.98 L367.851 379.187 C343.382 436.852 312.928 469.961 287.79 467.361 L287.777 467.359 L287.764 467.358 L277.764 466.358 L267.433 465.325 L269.469 475.506 C270.269 479.506 269.32 493.744 269.32 499 L269.32 506.68 L277 506.68 L493 506.68 L500.68 506.68 L500.68 499 L500.68 474 L500.68 465.419 L492.152 466.367 L483.152 467.367 C473.464 468.443 469.771 464.52 467.857 450.697 C465.76 435.549 468.998 413.306 478.271 384.475 L564.017 145.678 L648.737 380.5 C658.521 410.37 662.246 433.68 660.373 449.603 C658.657 464.189 654.895 468.434 644.848 467.367 L644.818 467.364 L635.848 466.367 L625.409 465.207 L627.469 475.506 C628.275 479.536 627.32 495.774 627.32 500 L627.32 507.68 L635 507.68 L795 507.68 L802.68 507.68 L802.68 500 L802.68 475 L802.68 466.419 L794.152 467.367 L785.222 468.359 C757.169 470.924 721.661 429.932 695.163 362.23 L695.152 362.201 L550.163 -12.7698 L548.265 -17.68 L543 -17.68 L518 -17.68 L512.596 -17.68 L510.771 -12.5932 L404.784 282.859 L292.177 -12.734 L290.293 -17.68 L285 -17.68 L260 -17.68 L254.669 -17.68 L252.805 -12.6861 L116.983 351.122 L116.983 351.122 Z M122.302 378.164 L123.017 378.878 L127.195 367.686 L265.331 -2.32 L279.707 -2.32 L397.823 307.734 L405.216 327.141 L412.229 307.593 L523.404 -2.32 L537.735 -2.32 L680.837 367.77 L680.842 367.784 L680.848 367.799 C708.33 438.03 750.784 487.015 786.717 483.646 L786.783 483.64 L786.848 483.633 L787.32 483.581 L787.32 492.32 L642.913 492.32 C643.009 489.32 643.1 485.878 643.103 482.628 L643.152 482.633 L643.167 482.635 L643.182 482.636 C661.113 484.558 673.345 470.797 675.627 451.397 C677.752 433.339 673.487 406.686 663.298 375.607 L663.263 375.5 L663.224 375.394 L571.224 120.394 L563.983 100.322 L556.772 120.405 L463.772 379.405 L463.729 379.525 L463.69 379.646 C453.993 409.757 450.243 435.472 452.643 452.803 C455.229 471.48 467.536 484.557 484.848 482.633 L485.32 482.581 L485.32 491.32 L284.909 491.32 C285.003 488.558 285.094 485.472 285.105 482.529 L286.21 482.639 L286.236 482.642 C319.065 486.014 356.56 445.203 382.071 384.996 L382.149 384.812 L382.218 384.625 L394.218 351.625 L395.165 349.02 L394.23 346.411 L312.23 117.411 L305.127 97.5731 L297.799 117.329 L207.313 361.292 L207.299 361.329 C194.096 396.379 187.905 426.419 188.955 446.893 C190.075 468.733 201.965 484.587 220.79 482.639 L220.819 482.636 L220.848 482.633 L221.32 482.581 L221.32 491.32 L20.909 491.32 C21.0032 488.558 21.0935 485.472 21.105 482.529 L22.2358 482.642 L22.2595 482.644 L22.2831 482.646 C56.351 485.84 95.7429 441.608 122.302 378.164 L122.302 378.164 Z " />
<glyph glyph-name="x" unicode="x" horiz-adv-x="547" d="M395.455 147.316 L395.905 147.766 L401.018 139.562 C443.417 71.5261 489.566 30.0199 517.21 32.639 L517.26 32.6443 L526.152 33.633 L534.68 34.5806 L534.68 26 L534.68 1 L534.68 -6.68 L527 -6.68 L309 -6.68 L301.32 -6.68 L301.32 1 L301.32 26 L301.32 34.6998 L309.953 33.6207 L317.915 32.6253 L317.953 32.6207 C325.051 31.7759 325.978 33.6631 323.322 48.1115 C320.355 64.252 310.149 87.9911 292.415 118.047 L240.618 202.888 L192.361 132.697 L192.329 132.649 C169.57 99.0003 154.851 71.4889 148.818 52.5445 C143.258 35.0857 143.775 32.9137 150.047 33.6207 L150.086 33.625 L150.12 33.6294 L158.047 34.6207 L168.621 35.9423 L166.531 25.4938 C165.725 21.4637 166.68 5.22569 166.68 1 L166.68 -6.68 L159 -6.68 L9 -6.68 L1.32 -6.68 L1.32 1 L1.32 26 L1.32 34.5806 L9.84811 33.633 L18.7903 32.6392 C44.6479 29.9643 91.4752 67.4148 139.908 128.677 L218.721 234.403 L140.482 360.938 L140.468 360.961 C98.0509 429.018 52.3814 470.974 24.79 468.361 L24.7398 468.356 L15.8481 467.367 L7.32 466.419 L7.32 475 L7.32 500 L7.32 507.68 L15 507.68 L233 507.68 L240.68 507.68 L240.68 500 L240.68 475 L240.68 466.3 L232.047 467.379 L224.085 468.375 L224.047 468.379 C216.949 469.224 216.023 467.337 218.678 452.889 C221.645 436.749 231.85 413.012 249.581 382.959 L289.424 317.998 L324.695 368.386 L324.708 368.404 C348.46 402.549 363.409 430.037 369.436 448.844 C374.956 466.064 374.411 468.109 367.953 467.379 L367.88 467.371 L359.953 466.379 L349.379 465.058 L351.469 475.506 C352.275 479.536 351.32 495.774 351.32 500 L351.32 507.68 L359 507.68 L509 507.68 L516.68 507.68 L516.68 500 L516.68 475 L516.68 466.419 L508.152 467.367 L499.182 468.364 L499.152 468.367 C474.175 471.012 429.403 437.443 383.049 381.264 L311.261 284.59 L395.455 147.316 L395.455 147.316 Z M393.161 123.3 L392.545 122.684 L387.453 130.985 L295.453 280.985 L292.739 285.41 L295.834 289.579 L370.834 390.579 L370.95 390.735 L371.075 390.886 C418.658 448.594 469.811 486.958 500.818 483.636 L500.833 483.635 L500.848 483.633 L501.32 483.581 L501.32 492.32 L366.913 492.32 C367.008 489.351 367.098 485.947 367.103 482.726 C385.776 484.228 390.905 465.502 384.064 444.156 C377.593 423.967 361.545 394.46 337.305 359.614 L337.298 359.605 L337.292 359.596 L295.292 299.596 L288.576 290.002 L282.453 299.985 L236.453 374.985 L236.419 375.04 L236.386 375.097 C218.138 406.017 206.853 432.261 203.572 450.111 C200.022 469.419 207.869 485.408 225.32 483.69 L225.32 492.32 L22.68 492.32 L22.68 483.581 L23.1519 483.633 L23.206 483.639 L23.2602 483.644 C57.671 486.974 109.965 438.949 153.518 369.062 L153.525 369.05 L153.532 369.039 L234.532 238.039 L237.279 233.597 L234.157 229.41 L152.157 119.41 L152.093 119.323 L152.025 119.238 C102.482 56.5504 49.3402 14.0369 17.2097 17.3608 L17.1808 17.3638 L17.1519 17.367 L16.68 17.419 L16.68 8.68 L151.087 8.68 C150.992 11.6494 150.902 15.0531 150.897 18.274 C132.057 16.7572 127.38 35.848 134.182 57.2055 C140.646 77.502 156.416 106.974 179.639 141.303 L179.655 141.327 L179.671 141.351 L234.671 221.351 L241.382 231.112 L247.555 221.002 L305.555 126.002 L305.585 125.953 L305.614 125.903 C323.862 94.9826 335.147 68.7392 338.428 50.8885 C341.978 31.5806 334.131 15.5918 316.68 17.31 L316.68 8.68 L519.32 8.68 L519.32 17.419 L518.848 17.367 L518.794 17.361 L518.74 17.3557 C485.728 14.161 435.68 57.8618 393.161 123.3 L393.161 123.3 Z " />
<glyph glyph-name="y" unicode="y" horiz-adv-x="558" d="M117.093 369.46 L116.333 369.08 L113.02 376.296 C85.5842 436.067 51.1122 470.993 24.7642 468.358 L15.8481 467.367 L5.40933 466.207 L7.46914 476.506 C8.26919 480.506 7.32 494.744 7.32 500 L7.32 507.68 L15 507.68 L227 507.68 L234.68 507.68 L234.68 500 L234.68 475 L234.68 466.3 L226.047 467.379 L218.133 468.369 C208.359 469.353 205.195 464.447 205.305 447.174 C205.424 428.496 212.301 401.451 226.078 367.98 L226.102 367.924 L322.123 139.875 L402.66 384.265 C410.939 413.044 413.242 435.219 410.448 450.356 C407.881 464.258 403.679 468.459 393.848 467.367 L384.848 466.367 L374.409 465.207 L376.469 475.506 C377.275 479.536 376.32 495.774 376.32 500 L376.32 507.68 L384 507.68 L544 507.68 L551.68 507.68 L551.68 500 L551.68 475 L551.68 466.514 L543.236 467.358 L533.236 468.358 L533.223 468.359 L533.21 468.361 C508.002 470.968 476.594 437.795 452.145 380.178 L308.211 -12.6423 L308.193 -12.6921 L308.174 -12.7416 L248.191 -169.697 L248.174 -169.742 C226.426 -227.687 176.698 -267.68 148 -267.68 C114.819 -267.68 90.32 -243.181 90.32 -210 C90.32 -179.819 112.819 -157.32 143 -157.32 C157.76 -157.32 167.049 -166.94 173.948 -174.215 C180.847 -181.491 185.343 -186.32 193 -186.32 C193.662 -186.32 204.37 -174.848 212.832 -153.243 L212.848 -153.201 C232.436 -102.271 251.113 -50.2412 271.696 0.941 L117.093 369.46 L117.093 369.46 Z M123.586 389.879 L124.907 390.54 L128.082 382.971 L287.082 3.97109 L288.305 1.05567 L287.121 -1.87588 C266.178 -53.7349 247.2 -106.675 227.168 -158.757 L227.16 -158.778 L227.152 -158.799 C217.617 -183.166 200.337 -201.68 193 -201.68 C178.657 -201.68 169.653 -192.009 162.802 -184.785 C155.951 -177.56 151.24 -172.68 143 -172.68 C119.181 -172.68 105.68 -186.181 105.68 -210 C105.68 -236.819 121.181 -252.32 148 -252.32 C171.295 -252.32 213.548 -218.334 233.809 -164.303 L233.817 -164.281 L233.826 -164.258 L293.807 -7.308 L437.789 385.642 L437.854 385.821 L437.929 385.996 C463.462 446.256 502.003 487.008 534.764 483.642 L534.79 483.639 L536.32 483.486 L536.32 492.32 L391.913 492.32 C392.009 489.32 392.1 485.878 392.103 482.628 L392.152 482.633 C409.321 484.541 422.119 471.742 425.552 453.144 C428.753 435.806 426.068 410.027 417.38 379.874 L417.34 379.734 L417.294 379.596 L330.294 115.596 L323.877 96.1251 L315.922 115.02 L211.922 362.02 L211.91 362.048 L211.898 362.076 C197.691 396.579 190.076 426.514 189.945 447.076 C189.807 468.828 200.447 485.349 219.32 483.684 L219.32 492.32 L22.909 492.32 C23.002 489.589 23.0909 486.541 23.104 483.628 L23.1519 483.633 L23.1938 483.638 L23.2358 483.642 C55.5775 486.876 95.1943 448.14 123.586 389.879 L123.586 389.879 Z " />
<glyph glyph-name="z" unicode="z" horiz-adv-x="475" d="M272.086 467.775 L272.626 467.235 L254.677 466.822 C169.374 464.861 97.6904 430.221 72.841 382.51 L65.8692 368.565 L63.1141 363.055 L57.1373 364.549 C57.1373 364.549 50.9305 366.101 48.452 366.299 L36.1678 364.409 L24.917 362.678 L27.5242 373.759 C35.5364 407.811 42.5437 435.84 47.2882 455.318 C49.4601 464.234 51.1411 471.285 52.233 476.32 L51.1128 476.32 L53.5587 485.9 L65.5587 532.9 L67.3039 539.735 L74.2626 538.576 C79.3628 537.725 92.7261 538.68 100 538.68 L109.368 538.68 L107.531 529.494 L106.531 524.494 L106.495 524.315 L106.451 524.137 C105.55 520.533 108.247 518.022 121.141 513.798 C134.942 509.277 155.484 506.68 182 506.68 L435 506.68 L442.68 506.68 L442.68 499 L442.68 479 L442.68 476.762 L441.478 474.875 L158.249 30.079 L251.659 32.673 C331.958 37.5987 392.751 69.4181 408.744 115.517 L408.756 115.55 L408.767 115.583 L413.767 129.583 L416.109 136.139 L422.863 134.451 C422.863 134.451 429.069 132.899 431.548 132.701 L443.832 134.591 L453.521 136.081 L452.65 126.317 L442.65 14.317 L442.025 7.32 L437.68 7.32 L437.68 0 L437.68 -7.68 L430 -7.68 L40 -7.68 L32.32 -7.68 L32.32 0 L32.32 20 L32.32 22.2506 L33.5347 24.1451 L318.72 468.956 L272.086 467.775 L272.086 467.775 Z M236.837 481.301 L235.914 482.225 L253.806 482.678 L332.806 484.678 L347.28 485.044 L339.465 472.855 L47.68 17.749 L47.68 7.68 L422.32 7.68 L422.32 15 L422.32 22.68 L427.975 22.68 L436.479 117.919 L433.168 117.409 L432.587 117.32 L432 117.32 C430.467 117.32 428.184 117.657 425.965 118.068 L423.256 110.483 L423.233 110.417 C405.199 58.5758 336.07 22.4319 252.467 17.3342 L252.34 17.3265 L252.213 17.323 L144.213 14.323 L129.751 13.9212 L137.522 26.125 L427.32 481.238 L427.32 491.32 L182 491.32 C154.516 491.32 131.558 494.223 116.359 499.202 C102.357 503.788 91.6072 512.694 91.074 523.087 C87.0931 522.957 82.7194 522.833 78.86 522.906 L68.885 483.839 C68.921 483.038 68.8422 481.885 68.7333 481.018 C68.5376 479.462 68.1126 477.165 67.546 474.478 C66.432 469.194 64.5919 461.453 62.2118 451.682 C57.9843 434.327 51.9889 410.296 45.098 381.324 L46.8322 381.591 L47.4127 381.68 L48 381.68 C49.7112 381.68 52.3574 381.261 54.806 380.786 L59.1308 389.435 L59.1581 389.489 L59.1862 389.543 C84.5619 438.343 155.38 474.999 236.837 481.301 L236.837 481.301 Z " />
<glyph glyph-name="bar" unicode="&#x7c;" horiz-adv-x="186" d="M52.32 800 L52.32 807.68 L60 807.68 L126 807.68 L133.68 807.68 L133.68 800 L133.68 -250 L133.68 -257.68 L126 -257.68 L60 -257.68 L52.32 -257.68 L52.32 -250 L52.32 800 L52.32 800 Z M67.68 792.32 L67.68 -242.32 L118.32 -242.32 L118.32 792.32 L67.68 792.32 L67.68 792.32 Z " />
<glyph glyph-name="asciitilde" unicode="&#x7e;" horiz-adv-x="340" d="M37.68 310 L37.68 302.32 L30 302.32 L15 302.32 L7.32 302.32 L7.32 310 C7.32 384.203 40.7434 437.68 91 437.68 C146.048 437.68 215.048 372.68 264 372.68 C288.16 372.68 302.32 391.56 302.32 425 L302.32 432.68 L310 432.68 L325 432.68 L332.68 432.68 L332.68 425 C332.68 350.675 297.11 297.32 244 297.32 C188.952 297.32 119.952 362.32 71 362.32 C50.1102 362.32 37.68 343.675 37.68 310 L37.68 310 Z M22.931 321.52 C26.4477 354.054 44.8842 377.68 71 377.68 C126.048 377.68 195.048 312.68 244 312.68 C286.502 312.68 314.25 350.91 317.081 414.115 C313.371 381.089 292.767 357.32 264 357.32 C208.952 357.32 139.952 422.32 91 422.32 C51.6054 422.32 25.7194 384.448 22.931 321.52 L22.931 321.52 Z " />
<glyph glyph-name="exclamdown" unicode="&#xa1;" horiz-adv-x="244" d="M122 512.68 C161.181 512.68 189.68 484.181 189.68 445 C189.68 405.819 161.181 377.32 122 377.32 C82.8188 377.32 54.32 405.819 54.32 445 C54.32 484.181 82.8188 512.68 122 512.68 L122 512.68 Z M122 497.32 C89.1812 497.32 69.68 477.819 69.68 445 C69.68 412.181 89.1812 392.68 122 392.68 C154.819 392.68 174.32 412.181 174.32 445 C174.32 477.819 154.819 497.32 122 497.32 L122 497.32 Z M122 -262.68 C75.8233 -262.68 56.1766 -214.141 62.3546 -149.272 L62.3717 -149.092 L62.3972 -148.914 C62.3972 -148.914 106.32 158.546 106.32 290 L106.32 297.68 L114 297.68 L130 297.68 L137.68 297.68 L137.68 290 C137.68 158.546 181.603 -148.914 181.603 -148.914 L181.628 -149.092 L181.645 -149.272 C187.823 -214.141 168.177 -262.68 122 -262.68 L122 -262.68 Z M122 -247.32 C157.789 -247.32 172.148 -211.927 166.371 -150.905 C165.192 -142.63 123.943 147.881 122.366 282.32 L121.634 282.32 C120.057 147.881 78.8076 -142.629 77.629 -150.905 C71.8516 -211.927 86.2114 -247.32 122 -247.32 L122 -247.32 Z " />
<glyph glyph-name="cent" unicode="&#xa2;" horiz-adv-x="503" d="M259.32 575 L259.32 582.42 L266.735 582.675 L295.735 583.675 L303.68 583.949 L303.68 576 L303.68 518.559 C385.56 515.974 456.005 472.208 479.214 408.634 L479.22 408.618 L479.226 408.601 C489.877 379.016 467.181 356.32 430 356.32 C409.819 356.32 389.355 376.783 379.774 403.399 C363.819 447.717 334.937 476.594 303.68 483.14 L303.68 51.214 C372.184 48.2184 429.739 83.1965 452.947 137.04 L455.95 144.007 L462.954 141.089 L474.954 136.089 L482.194 133.073 L479.026 125.898 C445.319 49.562 376.408 -4.94381 304.68 -14.829 L304.68 -74 L304.68 -81.68 L297 -81.68 L267 -81.68 L259.32 -81.68 L259.32 -74 L259.32 -16.251 C126.208 -6.90932 37.32 92.6308 37.32 236 C37.32 389.152 126.028 498.581 259.32 515.834 L259.32 575 L259.32 575 Z M274.68 567.58 L274.68 509 L274.68 502.081 L267.798 501.362 C136.91 487.687 52.68 386.228 52.68 236 C52.68 95.9874 136.516 4.53028 267.344 -1.32769 L274.68 -1.65619 L274.68 -9 L274.68 -66.32 L289.32 -66.32 L289.32 -8 L289.32 -1.03046 L296.257 -0.356041 C354.099 5.26754 409.121 40.8769 445.175 95.701 C411.527 55.642 355.677 31.4561 295.379 36.3451 L288.32 36.9175 L288.32 44 L288.32 492 L288.32 500.328 L296.621 499.655 C336.247 496.442 375.585 460.382 394.226 408.601 C402.645 385.217 416.181 371.68 430 371.68 C460.803 371.68 472.111 382.972 464.786 403.366 L464.774 403.399 C442.694 463.827 376.858 503.32 296 503.32 L288.32 503.32 L288.32 511 L288.32 568.051 L274.68 567.58 L274.68 567.58 Z M258.32 59.358 L258.32 481.56 C185.814 463.826 139.68 387.188 139.68 275 C139.68 163.004 184.953 84.3602 258.32 59.358 L258.32 59.358 Z M273.68 49 L273.68 38.9879 L264.01 41.5823 C179.049 64.3768 124.32 153.837 124.32 275 C124.32 396.243 180.352 483.99 264.692 498.568 L273.68 500.121 L273.68 491 L273.68 49 L273.68 49 Z " />
<glyph glyph-name="acute" unicode="&#xb4;" horiz-adv-x="340" d="M182.957 556.134 L177.563 551.576 L172.569 556.569 L161.569 567.569 L156.798 572.341 L160.916 577.687 L274.916 725.687 L274.959 725.743 L275.003 725.798 C307.077 765.89 332.453 795.68 342 795.68 C368.181 795.68 391.68 772.181 391.68 746 C391.68 736.73 363.183 709.329 325.036 676.201 L324.997 676.167 L324.957 676.134 L182.957 556.134 L182.957 556.134 Z M178.437 572.424 L315.003 687.833 C352.833 720.687 376.32 743.271 376.32 746 C376.32 765.819 361.819 780.32 342 780.32 C339.548 780.32 318.942 756.132 287.041 716.257 L177.202 573.659 L178.437 572.424 L178.437 572.424 Z " />
<glyph glyph-name="questiondown" unicode="&#xbf;" horiz-adv-x="299" d="M174 512.68 C213.181 512.68 241.68 484.181 241.68 445 C241.68 405.819 213.181 377.32 174 377.32 C134.819 377.32 106.32 405.819 106.32 445 C106.32 484.181 134.819 512.68 174 512.68 L174 512.68 Z M174 497.32 C141.181 497.32 121.68 477.819 121.68 445 C121.68 412.181 141.181 392.68 174 392.68 C206.819 392.68 226.32 412.181 226.32 445 C226.32 477.819 206.819 497.32 174 497.32 L174 497.32 Z M166.32 290 L166.32 297.68 L174 297.68 L189 297.68 L196.513 297.68 L196.678 290.169 C196.678 290.169 197.927 233.486 200.174 176.427 C201.298 147.898 202.667 119.372 204.253 97.7656 C205.044 86.9901 205.873 78.1245 206.751 71.8011 C207.444 66.819 207.498 66.2008 205.974 66.712 L240.652 53.7079 L240.4 52.32 L202 52.32 C79.3991 52.32 56.5769 36.5201 39.3901 10.7399 L39.3417 10.6673 L39.2917 10.5958 C25.8495 -8.60736 17.68 -30.3926 17.68 -45 C17.68 -117.053 58.4204 -162.32 123 -162.32 C139.943 -162.32 165.943 -147.32 188 -147.32 C219.053 -147.32 241.68 -168.69 241.68 -197 C241.68 -238.746 204.644 -267.68 154 -267.68 C48.3916 -267.68 -23.68 -180.77 -23.68 -55 C-23.68 -13.9715 -11.0815 32.2231 7.60985 60.2601 L7.6294 60.2894 L7.6492 60.3185 C41.0944 109.503 75.8194 145.679 166.32 147.6 L166.32 290 L166.32 290 Z M181.68 274.958 L181.68 140 L181.68 132.32 L174 132.32 C84.2836 132.32 53.9993 101.155 20.3901 51.7399 L20.3508 51.6815 C3.06414 25.7141 -8.32 -16.058 -8.32 -55 C-8.32 -175.23 55.6084 -252.32 154 -252.32 C199.356 -252.32 226.32 -231.254 226.32 -197 C226.32 -175.31 212.947 -162.68 188 -162.68 C170.057 -162.68 144.057 -177.68 123 -177.68 C51.5796 -177.68 2.32 -122.947 2.32 -45 C2.32 -27.6272 12.1276 -1.45244 26.658 19.333 C44.9623 46.75 73.1303 66.5798 191.85 67.636 C191.735 68.3275 191.631 69.0135 191.538 69.6872 C190.612 76.3521 189.737 85.713 188.934 96.6407 C187.333 118.441 185.952 147.227 184.826 175.823 C183.276 215.174 182.2 254.347 181.68 274.958 L181.68 274.958 Z " />
<glyph glyph-name="Agrave" unicode="&#xc0;" horiz-adv-x="796" d="M771.511 38.6644 L772.011 38.6963 L772.511 38.663 L787.511 37.663 L795.969 37.0991 L794.576 28.7374 C793.712 23.5553 794.68 4.19188 794.68 -1 L794.68 -8.68 L787 -8.68 L462 -8.68 L454.32 -8.68 L454.32 -1 L454.32 30 L454.32 37.68 L462 37.68 L481 37.68 L481.177 37.68 L481.354 37.6718 C540.666 34.9343 559.906 89.1542 530.67 182.709 L530.665 182.723 L530.661 182.736 L503.332 271.32 L263.634 271.32 L231.383 168.876 C209.133 83.5651 229.961 35.929 286.629 38.671 L286.814 38.68 L287 38.68 L306 38.68 L315.368 38.68 L313.531 29.4938 C312.715 25.4127 313.68 4.17446 313.68 0 L313.68 -7.68 L306 -7.68 L16 -7.68 L7.22803 -7.68 L8.38737 1.01502 C8.38737 1.01502 10.1574 14.2862 10.31 19.365 L8.44388 29.6262 L6.79773 38.68 L16 38.68 L36 38.68 L36.1719 38.68 L36.3435 38.6723 C100.128 35.8163 161.327 92.2915 192.706 184.404 L192.73 184.475 L365.949 710.108 L363.644 717.793 L361.087 726.316 L369.892 727.6 C416.18 734.35 440.576 750.614 437.434 768.684 L435.869 777.68 L445 777.68 L455 777.68 C460.913 777.68 464.911 769.991 466.812 764.853 C468.637 759.922 470.579 753.338 472.289 747.002 C475.376 735.571 477.947 724.138 478.422 722.004 L649.308 187.36 L649.315 187.338 C679.845 92.8086 728.353 35.9096 771.511 38.6644 L771.511 38.6644 Z M771.971 23.305 C721.274 20.5335 666.055 85.5142 634.692 182.64 L634.688 182.651 L634.685 182.662 L463.685 717.662 L463.576 718.002 L463.499 718.35 C463.499 718.35 460.788 730.673 457.461 742.998 C455.796 749.162 454.051 755.078 452.407 759.522 L452.292 759.832 C447.504 738.627 419.197 721.211 380.856 713.873 L381.356 712.207 L382.051 709.892 L381.294 707.596 L207.294 179.596 L207.282 179.561 L207.27 179.525 C174.669 83.7588 105.97 20.2898 35.831 23.32 L25.202 23.32 L25.5561 21.3738 L25.68 20.6925 L25.68 20 C25.68 17.296 25.1821 12.1846 24.675 7.68 L298.126 7.68 C297.998 12.3666 297.862 18.289 297.912 23.32 L287.182 23.32 C220.029 20.1896 192.919 82.4522 216.57 172.942 L216.618 173.125 L216.674 173.306 L250.674 281.306 L252.366 286.68 L258 286.68 L509 286.68 L514.668 286.68 L516.339 281.264 L545.33 187.291 L545.339 187.264 C576.064 88.9172 551.369 19.1847 480.826 22.32 L469.68 22.32 L469.68 6.68 L779.131 6.68 C778.992 11.5576 778.838 17.6817 778.908 22.842 L771.971 23.305 L771.971 23.305 Z M277.485 311.68 L491.542 311.68 L384.969 651.439 L277.485 311.68 L277.485 311.68 Z M267 296.32 L256.515 296.32 L259.678 306.316 L377.678 679.316 L385.031 702.561 L392.328 679.299 L509.328 306.299 L512.458 296.32 L502 296.32 L267 296.32 L267 296.32 Z M210.32 995 C210.32 1021.18 233.819 1044.68 260 1044.68 C271.543 1044.68 296.984 1014.82 327.114 974.648 L441.084 826.687 L445.202 821.341 L440.431 816.569 L429.431 805.569 L424.437 800.576 L419.043 805.134 L277.053 925.125 L277.048 925.13 L277.043 925.134 C238.914 957.243 210.32 983.638 210.32 995 L210.32 995 Z M225.68 995 C225.68 990.363 249.081 968.762 286.947 936.875 L286.952 936.87 L286.957 936.866 L423.563 821.424 L424.798 822.659 L314.916 965.313 L314.886 965.353 L314.856 965.392 C284.999 1005.2 264.453 1029.32 260 1029.32 C240.181 1029.32 225.68 1014.82 225.68 995 L225.68 995 Z " />
<glyph glyph-name="Aacute" unicode="&#xc1;" horiz-adv-x="796" d="M433.957 806.134 L428.563 801.576 L423.569 806.569 L412.569 817.569 L407.798 822.341 L411.916 827.687 L525.916 975.687 L525.959 975.743 L526.003 975.798 C558.077 1015.89 583.453 1045.68 593 1045.68 C619.181 1045.68 642.68 1022.18 642.68 996 C642.68 986.73 614.183 959.329 576.036 926.201 L575.997 926.167 L575.957 926.134 L433.957 806.134 L433.957 806.134 Z M429.437 822.424 L566.003 937.833 C603.833 970.687 627.32 993.271 627.32 996 C627.32 1015.82 612.819 1030.32 593 1030.32 C590.548 1030.32 569.942 1006.13 538.041 966.257 L428.202 823.659 L429.437 822.424 L429.437 822.424 Z M771.511 38.6644 L772.011 38.6963 L772.511 38.663 L787.511 37.663 L795.969 37.0991 L794.576 28.7374 C793.712 23.5553 794.68 4.19188 794.68 -1 L794.68 -8.68 L787 -8.68 L462 -8.68 L454.32 -8.68 L454.32 -1 L454.32 30 L454.32 37.68 L462 37.68 L481 37.68 L481.177 37.68 L481.354 37.6718 C540.666 34.9343 559.906 89.1542 530.67 182.709 L530.665 182.723 L530.661 182.736 L503.332 271.32 L263.634 271.32 L231.383 168.876 C209.133 83.5651 229.961 35.929 286.629 38.671 L286.814 38.68 L287 38.68 L306 38.68 L315.368 38.68 L313.531 29.4938 C312.715 25.4127 313.68 4.17446 313.68 0 L313.68 -7.68 L306 -7.68 L16 -7.68 L7.22803 -7.68 L8.38737 1.01502 C8.38737 1.01502 10.1574 14.2862 10.31 19.365 L8.44388 29.6262 L6.79773 38.68 L16 38.68 L36 38.68 L36.1719 38.68 L36.3435 38.6723 C100.128 35.8163 161.327 92.2915 192.706 184.404 L192.73 184.475 L365.949 710.108 L363.644 717.793 L361.087 726.316 L369.892 727.6 C416.18 734.35 440.576 750.614 437.434 768.684 L435.869 777.68 L445 777.68 L455 777.68 C460.913 777.68 464.911 769.991 466.812 764.853 C468.637 759.922 470.579 753.338 472.289 747.002 C475.376 735.571 477.947 724.138 478.422 722.004 L649.308 187.36 L649.315 187.338 C679.845 92.8086 728.353 35.9096 771.511 38.6644 L771.511 38.6644 Z M771.971 23.305 C721.274 20.5335 666.055 85.5142 634.692 182.64 L634.688 182.651 L634.685 182.662 L463.685 717.662 L463.576 718.002 L463.499 718.35 C463.499 718.35 460.788 730.673 457.461 742.998 C455.796 749.162 454.051 755.078 452.407 759.522 L452.292 759.832 C447.504 738.627 419.197 721.211 380.856 713.873 L381.356 712.207 L382.051 709.892 L381.294 707.596 L207.294 179.596 L207.282 179.561 L207.27 179.525 C174.669 83.7588 105.97 20.2898 35.831 23.32 L25.202 23.32 L25.5561 21.3738 L25.68 20.6925 L25.68 20 C25.68 17.296 25.1821 12.1846 24.675 7.68 L298.126 7.68 C297.998 12.3666 297.862 18.289 297.912 23.32 L287.182 23.32 C220.029 20.1896 192.919 82.4522 216.57 172.942 L216.618 173.125 L216.674 173.306 L250.674 281.306 L252.366 286.68 L258 286.68 L509 286.68 L514.668 286.68 L516.339 281.264 L545.33 187.291 L545.339 187.264 C576.064 88.9172 551.369 19.1847 480.826 22.32 L469.68 22.32 L469.68 6.68 L779.131 6.68 C778.992 11.5576 778.838 17.6817 778.908 22.842 L771.971 23.305 L771.971 23.305 Z M277.485 311.68 L491.542 311.68 L384.969 651.439 L277.485 311.68 L277.485 311.68 Z M267 296.32 L256.515 296.32 L259.678 306.316 L377.678 679.316 L385.031 702.561 L392.328 679.299 L509.328 306.299 L512.458 296.32 L502 296.32 L267 296.32 L267 296.32 Z " />
<glyph glyph-name="Acircumflex" unicode="&#xc2;" horiz-adv-x="796" d="M771.511 38.6644 L772.011 38.6963 L772.511 38.663 L787.511 37.663 L795.969 37.0991 L794.576 28.7374 C793.712 23.5553 794.68 4.19188 794.68 -1 L794.68 -8.68 L787 -8.68 L462 -8.68 L454.32 -8.68 L454.32 -1 L454.32 30 L454.32 37.68 L462 37.68 L481 37.68 L481.177 37.68 L481.354 37.6718 C540.666 34.9343 559.906 89.1542 530.67 182.709 L530.665 182.723 L530.661 182.736 L503.332 271.32 L263.634 271.32 L231.383 168.876 C209.133 83.5651 229.961 35.929 286.629 38.671 L286.814 38.68 L287 38.68 L306 38.68 L315.368 38.68 L313.531 29.4938 C312.715 25.4127 313.68 4.17446 313.68 0 L313.68 -7.68 L306 -7.68 L16 -7.68 L7.22803 -7.68 L8.38737 1.01502 C8.38737 1.01502 10.1574 14.2862 10.31 19.365 L8.44388 29.6262 L6.79773 38.68 L16 38.68 L36 38.68 L36.1719 38.68 L36.3435 38.6723 C100.128 35.8163 161.327 92.2915 192.706 184.404 L192.73 184.475 L365.949 710.108 L363.644 717.793 L361.087 726.316 L369.892 727.6 C416.18 734.35 440.576 750.614 437.434 768.684 L435.869 777.68 L445 777.68 L455 777.68 C460.913 777.68 464.911 769.991 466.812 764.853 C468.637 759.922 470.579 753.338 472.289 747.002 C475.376 735.571 477.947 724.138 478.422 722.004 L649.308 187.36 L649.315 187.338 C679.845 92.8086 728.353 35.9096 771.511 38.6644 L771.511 38.6644 Z M771.971 23.305 C721.274 20.5335 666.055 85.5142 634.692 182.64 L634.688 182.651 L634.685 182.662 L463.685 717.662 L463.576 718.002 L463.499 718.35 C463.499 718.35 460.788 730.673 457.461 742.998 C455.796 749.162 454.051 755.078 452.407 759.522 L452.292 759.832 C447.504 738.627 419.197 721.211 380.856 713.873 L381.356 712.207 L382.051 709.892 L381.294 707.596 L207.294 179.596 L207.282 179.561 L207.27 179.525 C174.669 83.7588 105.97 20.2898 35.831 23.32 L25.202 23.32 L25.5561 21.3738 L25.68 20.6925 L25.68 20 C25.68 17.296 25.1821 12.1846 24.675 7.68 L298.126 7.68 C297.998 12.3666 297.862 18.289 297.912 23.32 L287.182 23.32 C220.029 20.1896 192.919 82.4522 216.57 172.942 L216.618 173.125 L216.674 173.306 L250.674 281.306 L252.366 286.68 L258 286.68 L509 286.68 L514.668 286.68 L516.339 281.264 L545.33 187.291 L545.339 187.264 C576.064 88.9172 551.369 19.1847 480.826 22.32 L469.68 22.32 L469.68 6.68 L779.131 6.68 C778.992 11.5576 778.838 17.6817 778.908 22.842 L771.971 23.305 L771.971 23.305 Z M277.485 311.68 L491.542 311.68 L384.969 651.439 L277.485 311.68 L277.485 311.68 Z M267 296.32 L256.515 296.32 L259.678 306.316 L377.678 679.316 L385.031 702.561 L392.328 679.299 L509.328 306.299 L512.458 296.32 L502 296.32 L267 296.32 L267 296.32 Z M458.39 1008.26 L458.422 1008.21 L458.452 1008.17 L580.452 819.165 L584.14 813.453 L578.917 809.1 L566.917 799.1 L561.548 794.626 L556.589 799.55 L422 933.178 L287.411 799.55 L282.452 794.626 L277.083 799.1 L265.083 809.1 L259.86 813.453 L263.548 819.165 L385.548 1008.17 L385.578 1008.21 L385.61 1008.26 C391.61 1017.26 407.89 1041.68 422 1041.68 C436.11 1041.68 452.39 1017.26 458.39 1008.26 L458.39 1008.26 Z M445.578 999.787 C439.569 1008.8 427.879 1026.32 422 1026.32 C416.121 1026.32 404.431 1008.8 398.422 999.787 L280.14 816.547 L281.548 815.374 L416.589 949.45 L422 954.822 L427.411 949.45 L562.452 815.374 L563.86 816.547 L445.578 999.787 L445.578 999.787 Z " />
<glyph glyph-name="Atilde" unicode="&#xc3;" horiz-adv-x="796" d="M288.68 870 L288.68 862.32 L281 862.32 L266 862.32 L258.32 862.32 L258.32 870 C258.32 944.203 291.743 997.68 342 997.68 C397.048 997.68 466.048 932.68 515 932.68 C539.16 932.68 553.32 951.56 553.32 985 L553.32 992.68 L561 992.68 L576 992.68 L583.68 992.68 L583.68 985 C583.68 910.675 548.11 857.32 495 857.32 C439.952 857.32 370.952 922.32 322 922.32 C301.11 922.32 288.68 903.675 288.68 870 L288.68 870 Z M273.931 881.52 C277.448 914.054 295.884 937.68 322 937.68 C377.048 937.68 446.048 872.68 495 872.68 C537.502 872.68 565.25 910.91 568.081 974.115 C564.371 941.089 543.767 917.32 515 917.32 C459.952 917.32 390.952 982.32 342 982.32 C302.605 982.32 276.719 944.448 273.931 881.52 L273.931 881.52 Z M771.511 38.6644 L772.011 38.6963 L772.511 38.663 L787.511 37.663 L795.969 37.0991 L794.576 28.7374 C793.712 23.5553 794.68 4.19188 794.68 -1 L794.68 -8.68 L787 -8.68 L462 -8.68 L454.32 -8.68 L454.32 -1 L454.32 30 L454.32 37.68 L462 37.68 L481 37.68 L481.177 37.68 L481.354 37.6718 C540.666 34.9343 559.906 89.1542 530.67 182.709 L530.665 182.723 L530.661 182.736 L503.332 271.32 L263.634 271.32 L231.383 168.876 C209.133 83.5651 229.961 35.929 286.629 38.671 L286.814 38.68 L287 38.68 L306 38.68 L315.368 38.68 L313.531 29.4938 C312.715 25.4127 313.68 4.17446 313.68 0 L313.68 -7.68 L306 -7.68 L16 -7.68 L7.22803 -7.68 L8.38737 1.01502 C8.38737 1.01502 10.1574 14.2862 10.31 19.365 L8.44388 29.6262 L6.79773 38.68 L16 38.68 L36 38.68 L36.1719 38.68 L36.3435 38.6723 C100.128 35.8163 161.327 92.2915 192.706 184.404 L192.73 184.475 L365.949 710.108 L363.644 717.793 L361.087 726.316 L369.892 727.6 C416.18 734.35 440.576 750.614 437.434 768.684 L435.869 777.68 L445 777.68 L455 777.68 C460.913 777.68 464.911 769.991 466.812 764.853 C468.637 759.922 470.579 753.338 472.289 747.002 C475.376 735.571 477.947 724.138 478.422 722.004 L649.308 187.36 L649.315 187.338 C679.845 92.8086 728.353 35.9096 771.511 38.6644 L771.511 38.6644 Z M771.971 23.305 C721.274 20.5335 666.055 85.5142 634.692 182.64 L634.688 182.651 L634.685 182.662 L463.685 717.662 L463.576 718.002 L463.499 718.35 C463.499 718.35 460.788 730.673 457.461 742.998 C455.796 749.162 454.051 755.078 452.407 759.522 L452.292 759.832 C447.504 738.627 419.197 721.211 380.856 713.873 L381.356 712.207 L382.051 709.892 L381.294 707.596 L207.294 179.596 L207.282 179.561 L207.27 179.525 C174.669 83.7588 105.97 20.2898 35.831 23.32 L25.202 23.32 L25.5561 21.3738 L25.68 20.6925 L25.68 20 C25.68 17.296 25.1821 12.1846 24.675 7.68 L298.126 7.68 C297.998 12.3666 297.862 18.289 297.912 23.32 L287.182 23.32 C220.029 20.1896 192.919 82.4522 216.57 172.942 L216.618 173.125 L216.674 173.306 L250.674 281.306 L252.366 286.68 L258 286.68 L509 286.68 L514.668 286.68 L516.339 281.264 L545.33 187.291 L545.339 187.264 C576.064 88.9172 551.369 19.1847 480.826 22.32 L469.68 22.32 L469.68 6.68 L779.131 6.68 C778.992 11.5576 778.838 17.6817 778.908 22.842 L771.971 23.305 L771.971 23.305 Z M277.485 311.68 L491.542 311.68 L384.969 651.439 L277.485 311.68 L277.485 311.68 Z M267 296.32 L256.515 296.32 L259.678 306.316 L377.678 679.316 L385.031 702.561 L392.328 679.299 L509.328 306.299 L512.458 296.32 L502 296.32 L267 296.32 L267 296.32 Z " />
<glyph glyph-name="Adieresis" unicode="&#xc4;" horiz-adv-x="796" d="M496 857.32 C459.819 857.32 433.32 883.819 433.32 920 C433.32 956.181 459.819 982.68 496 982.68 C532.181 982.68 558.68 956.181 558.68 920 C558.68 883.819 532.181 857.32 496 857.32 L496 857.32 Z M496 872.68 C525.819 872.68 543.32 890.181 543.32 920 C543.32 949.819 525.819 967.32 496 967.32 C466.181 967.32 448.68 949.819 448.68 920 C448.68 890.181 466.181 872.68 496 872.68 L496 872.68 Z M346 857.32 C309.819 857.32 283.32 883.819 283.32 920 C283.32 956.181 309.819 982.68 346 982.68 C382.181 982.68 408.68 956.181 408.68 920 C408.68 883.819 382.181 857.32 346 857.32 L346 857.32 Z M346 872.68 C375.819 872.68 393.32 890.181 393.32 920 C393.32 949.819 375.819 967.32 346 967.32 C316.181 967.32 298.68 949.819 298.68 920 C298.68 890.181 316.181 872.68 346 872.68 L346 872.68 Z M771.511 38.6644 L772.011 38.6963 L772.511 38.663 L787.511 37.663 L795.969 37.0991 L794.576 28.7374 C793.712 23.5553 794.68 4.19188 794.68 -1 L794.68 -8.68 L787 -8.68 L462 -8.68 L454.32 -8.68 L454.32 -1 L454.32 30 L454.32 37.68 L462 37.68 L481 37.68 L481.177 37.68 L481.354 37.6718 C540.666 34.9343 559.906 89.1542 530.67 182.709 L530.665 182.723 L530.661 182.736 L503.332 271.32 L263.634 271.32 L231.383 168.876 C209.133 83.5651 229.961 35.929 286.629 38.671 L286.814 38.68 L287 38.68 L306 38.68 L315.368 38.68 L313.531 29.4938 C312.715 25.4127 313.68 4.17446 313.68 0 L313.68 -7.68 L306 -7.68 L16 -7.68 L7.22803 -7.68 L8.38737 1.01502 C8.38737 1.01502 10.1574 14.2862 10.31 19.365 L8.44388 29.6262 L6.79773 38.68 L16 38.68 L36 38.68 L36.1719 38.68 L36.3435 38.6723 C100.128 35.8163 161.327 92.2915 192.706 184.404 L192.73 184.475 L365.949 710.108 L363.644 717.793 L361.087 726.316 L369.892 727.6 C416.18 734.35 440.576 750.614 437.434 768.684 L435.869 777.68 L445 777.68 L455 777.68 C460.913 777.68 464.911 769.991 466.812 764.853 C468.637 759.922 470.579 753.338 472.289 747.002 C475.376 735.571 477.947 724.138 478.422 722.004 L649.308 187.36 L649.315 187.338 C679.845 92.8086 728.353 35.9096 771.511 38.6644 L771.511 38.6644 Z M771.971 23.305 C721.274 20.5335 666.055 85.5142 634.692 182.64 L634.688 182.651 L634.685 182.662 L463.685 717.662 L463.576 718.002 L463.499 718.35 C463.499 718.35 460.788 730.673 457.461 742.998 C455.796 749.162 454.051 755.078 452.407 759.522 L452.292 759.832 C447.504 738.627 419.197 721.211 380.856 713.873 L381.356 712.207 L382.051 709.892 L381.294 707.596 L207.294 179.596 L207.282 179.561 L207.27 179.525 C174.669 83.7588 105.97 20.2898 35.831 23.32 L25.202 23.32 L25.5561 21.3738 L25.68 20.6925 L25.68 20 C25.68 17.296 25.1821 12.1846 24.675 7.68 L298.126 7.68 C297.998 12.3666 297.862 18.289 297.912 23.32 L287.182 23.32 C220.029 20.1896 192.919 82.4522 216.57 172.942 L216.618 173.125 L216.674 173.306 L250.674 281.306 L252.366 286.68 L258 286.68 L509 286.68 L514.668 286.68 L516.339 281.264 L545.33 187.291 L545.339 187.264 C576.064 88.9172 551.369 19.1847 480.826 22.32 L469.68 22.32 L469.68 6.68 L779.131 6.68 C778.992 11.5576 778.838 17.6817 778.908 22.842 L771.971 23.305 L771.971 23.305 Z M277.485 311.68 L491.542 311.68 L384.969 651.439 L277.485 311.68 L277.485 311.68 Z M267 296.32 L256.515 296.32 L259.678 306.316 L377.678 679.316 L385.031 702.561 L392.328 679.299 L509.328 306.299 L512.458 296.32 L502 296.32 L267 296.32 L267 296.32 Z " />
<glyph glyph-name="Aring" unicode="&#xc5;" horiz-adv-x="796" d="M316.32 905 C316.32 965.24 359.877 1007.68 421 1007.68 C483.123 1007.68 526.68 965.24 526.68 905 C526.68 850.768 477.131 802.32 421 802.32 C365.869 802.32 316.32 850.768 316.32 905 L316.32 905 Z M331.68 905 C331.68 857.232 372.131 817.68 421 817.68 C470.869 817.68 511.32 857.232 511.32 905 C511.32 958.76 476.877 992.32 421 992.32 C366.123 992.32 331.68 958.76 331.68 905 L331.68 905 Z M356.68 905 C356.68 868.05 385.314 837.68 421 837.68 C456.819 837.68 486.32 867.181 486.32 905 C486.32 946.895 461.742 972.32 421 972.32 C381.258 972.32 356.68 946.895 356.68 905 L356.68 905 Z M341.32 905 C341.32 953.105 374.742 987.68 421 987.68 C468.258 987.68 501.68 953.105 501.68 905 C501.68 860.819 463.181 822.32 421 822.32 C378.686 822.32 341.32 861.95 341.32 905 L341.32 905 Z M771.511 38.6644 L772.011 38.6963 L772.511 38.663 L787.511 37.663 L795.969 37.0991 L794.576 28.7374 C793.712 23.5553 794.68 4.19188 794.68 -1 L794.68 -8.68 L787 -8.68 L462 -8.68 L454.32 -8.68 L454.32 -1 L454.32 30 L454.32 37.68 L462 37.68 L481 37.68 L481.177 37.68 L481.354 37.6718 C540.666 34.9343 559.906 89.1542 530.67 182.709 L530.665 182.723 L530.661 182.736 L503.332 271.32 L263.634 271.32 L231.383 168.876 C209.133 83.5651 229.961 35.929 286.629 38.671 L286.814 38.68 L287 38.68 L306 38.68 L315.368 38.68 L313.531 29.4938 C312.715 25.4127 313.68 4.17446 313.68 0 L313.68 -7.68 L306 -7.68 L16 -7.68 L7.22803 -7.68 L8.38737 1.01502 C8.38737 1.01502 10.1574 14.2862 10.31 19.365 L8.44388 29.6262 L6.79773 38.68 L16 38.68 L36 38.68 L36.1719 38.68 L36.3435 38.6723 C100.128 35.8163 161.327 92.2915 192.706 184.404 L192.73 184.475 L365.949 710.108 L363.644 717.793 L361.087 726.316 L369.892 727.6 C416.18 734.35 440.576 750.614 437.434 768.684 L435.869 777.68 L445 777.68 L455 777.68 C460.913 777.68 464.911 769.991 466.812 764.853 C468.637 759.922 470.579 753.338 472.289 747.002 C475.376 735.571 477.947 724.138 478.422 722.004 L649.308 187.36 L649.315 187.338 C679.845 92.8086 728.353 35.9096 771.511 38.6644 L771.511 38.6644 Z M771.971 23.305 C721.274 20.5335 666.055 85.5142 634.692 182.64 L634.688 182.651 L634.685 182.662 L463.685 717.662 L463.576 718.002 L463.499 718.35 C463.499 718.35 460.788 730.673 457.461 742.998 C455.796 749.162 454.051 755.078 452.407 759.522 L452.292 759.832 C447.504 738.627 419.197 721.211 380.856 713.873 L381.356 712.207 L382.051 709.892 L381.294 707.596 L207.294 179.596 L207.282 179.561 L207.27 179.525 C174.669 83.7588 105.97 20.2898 35.831 23.32 L25.202 23.32 L25.5561 21.3738 L25.68 20.6925 L25.68 20 C25.68 17.296 25.1821 12.1846 24.675 7.68 L298.126 7.68 C297.998 12.3666 297.862 18.289 297.912 23.32 L287.182 23.32 C220.029 20.1896 192.919 82.4522 216.57 172.942 L216.618 173.125 L216.674 173.306 L250.674 281.306 L252.366 286.68 L258 286.68 L509 286.68 L514.668 286.68 L516.339 281.264 L545.33 187.291 L545.339 187.264 C576.064 88.9172 551.369 19.1847 480.826 22.32 L469.68 22.32 L469.68 6.68 L779.131 6.68 C778.992 11.5576 778.838 17.6817 778.908 22.842 L771.971 23.305 L771.971 23.305 Z M277.485 311.68 L491.542 311.68 L384.969 651.439 L277.485 311.68 L277.485 311.68 Z M267 296.32 L256.515 296.32 L259.678 306.316 L377.678 679.316 L385.031 702.561 L392.328 679.299 L509.328 306.299 L512.458 296.32 L502 296.32 L267 296.32 L267 296.32 Z " />
<glyph glyph-name="Egrave" unicode="&#xc8;" horiz-adv-x="652" d="M139.32 996 C139.32 1022.18 162.819 1045.68 189 1045.68 C200.543 1045.68 225.984 1015.82 256.114 975.648 L370.084 827.687 L374.202 822.341 L369.431 817.569 L358.431 806.569 L353.437 801.576 L348.043 806.134 L206.053 926.125 L206.048 926.13 L206.043 926.134 C167.914 958.243 139.32 984.638 139.32 996 L139.32 996 Z M154.68 996 C154.68 991.363 178.081 969.762 215.947 937.875 L215.952 937.87 L215.957 937.866 L352.563 822.424 L353.798 823.659 L243.916 966.313 L243.886 966.353 L243.856 966.392 C213.999 1006.2 193.453 1030.32 189 1030.32 C169.181 1030.32 154.68 1015.82 154.68 996 L154.68 996 Z M563.369 743.492 L563.828 743.033 L564.131 740.367 C569.125 696.422 576.625 637.922 581.631 593.867 L583.082 581.096 L571.148 585.869 C568.2 587.049 558.693 585.32 553 585.32 L547.286 585.32 L545.644 590.793 L539.644 610.793 L539.634 610.827 L539.624 610.862 C520.413 677.139 454.702 720.32 373 720.32 L252.68 720.32 L252.68 415.68 L310 415.68 C391.526 415.68 450.971 458.406 462.434 524.316 L462.45 524.411 L462.469 524.506 L466.469 544.506 L467.894 551.63 L475.086 550.603 C475.086 550.603 485.075 549.175 488.772 548.78 L492.148 550.131 L502.68 554.344 L502.68 543 L502.68 249 L502.68 237.656 L492.148 241.869 C489.2 243.049 479.693 241.32 474 241.32 L467.704 241.32 L466.469 247.494 L462.469 267.494 L462.45 267.589 L462.434 267.684 C450.971 333.594 391.526 376.32 310 376.32 L252.68 376.32 L252.68 217 C252.68 111.095 269.12 42.4114 411.913 29.717 C491.839 38.6763 551.741 75.3101 570.767 128.583 L570.78 128.619 L570.794 128.655 L577.794 147.655 L579.94 153.481 L586.086 152.603 C586.086 152.603 596.075 151.175 599.772 150.78 L603.148 152.131 L615.878 157.223 L613.57 143.707 C606.561 102.654 596.561 48.6545 589.57 7.70748 L589.552 7.60038 L589.531 7.49383 L587.531 -2.50617 L586.296 -8.68 L580 -8.68 L40 -8.68 L32.32 -8.68 L32.32 -1 L32.32 24 L32.32 32.175 L40.4791 31.665 L56.434 30.6677 L56.4791 30.665 C105.201 27.9365 137.32 73.4609 137.32 149 L137.32 599 C137.32 674.539 105.202 720.064 56.4791 717.335 L56.434 717.332 L40.4791 716.335 L30.5103 715.712 L32.4691 725.506 C33.2752 729.536 32.32 745.774 32.32 750 L32.32 757.68 L40 757.68 L555 757.68 L561.95 757.68 L562.642 750.764 L563.369 743.492 L563.369 743.492 Z M549.173 735.966 L548.631 736.508 L548.358 739.236 L548.05 742.32 L47.913 742.32 C48.0136 739.189 48.1077 735.574 48.103 732.201 L55.5209 732.665 L55.5435 732.666 L55.566 732.668 C112.818 735.908 152.68 679.438 152.68 599 L152.68 149 C152.68 68.5625 112.818 12.0916 55.566 15.3323 L55.5435 15.3335 L55.5209 15.335 L47.68 15.825 L47.68 6.68 L573.704 6.68 L574.448 10.4 C580.867 47.9913 589.787 96.4072 596.609 135.719 C594.592 135.954 592.218 136.261 590.071 136.548 L585.233 123.417 L585.206 123.345 C564.262 64.823 496.502 23.5485 412.838 14.3658 L412.086 14.2833 L411.332 14.3491 C256.823 27.8298 237.32 109.091 237.32 217 L237.32 384 L237.32 391.68 L245 391.68 L310 391.68 C396.435 391.68 464.968 342.45 477.55 270.413 L480.205 257.137 C482.39 257.325 484.848 257.505 487.32 257.539 L487.32 533.528 C485.324 533.738 482.631 534.078 480.114 534.41 L477.55 521.587 C464.968 449.55 396.435 400.32 310 400.32 L245 400.32 L237.32 400.32 L237.32 408 L237.32 728 L237.32 735.68 L245 735.68 L373 735.68 C459.27 735.68 533.539 686.892 554.356 615.207 L558.593 601.083 C560.629 601.262 562.938 601.448 565.291 601.517 C560.449 643.238 553.819 695.346 549.173 735.966 L549.173 735.966 Z " />
<glyph glyph-name="Eacute" unicode="&#xc9;" horiz-adv-x="652" d="M363.957 806.134 L358.563 801.576 L353.569 806.569 L342.569 817.569 L337.798 822.341 L341.916 827.687 L455.916 975.687 L455.959 975.743 L456.003 975.798 C488.077 1015.89 513.453 1045.68 523 1045.68 C549.181 1045.68 572.68 1022.18 572.68 996 C572.68 986.73 544.183 959.329 506.036 926.201 L505.997 926.167 L505.957 926.134 L363.957 806.134 L363.957 806.134 Z M359.437 822.424 L496.003 937.833 C533.833 970.687 557.32 993.271 557.32 996 C557.32 1015.82 542.819 1030.32 523 1030.32 C520.548 1030.32 499.942 1006.13 468.041 966.257 L358.202 823.659 L359.437 822.424 L359.437 822.424 Z M563.369 743.492 L563.828 743.033 L564.131 740.367 C569.125 696.422 576.625 637.922 581.631 593.867 L583.082 581.096 L571.148 585.869 C568.2 587.049 558.693 585.32 553 585.32 L547.286 585.32 L545.644 590.793 L539.644 610.793 L539.634 610.827 L539.624 610.862 C520.413 677.139 454.702 720.32 373 720.32 L252.68 720.32 L252.68 415.68 L310 415.68 C391.526 415.68 450.971 458.406 462.434 524.316 L462.45 524.411 L462.469 524.506 L466.469 544.506 L467.894 551.63 L475.086 550.603 C475.086 550.603 485.075 549.175 488.772 548.78 L492.148 550.131 L502.68 554.344 L502.68 543 L502.68 249 L502.68 237.656 L492.148 241.869 C489.2 243.049 479.693 241.32 474 241.32 L467.704 241.32 L466.469 247.494 L462.469 267.494 L462.45 267.589 L462.434 267.684 C450.971 333.594 391.526 376.32 310 376.32 L252.68 376.32 L252.68 217 C252.68 111.095 269.12 42.4114 411.913 29.717 C491.839 38.6763 551.741 75.3101 570.767 128.583 L570.78 128.619 L570.794 128.655 L577.794 147.655 L579.94 153.481 L586.086 152.603 C586.086 152.603 596.075 151.175 599.772 150.78 L603.148 152.131 L615.878 157.223 L613.57 143.707 C606.561 102.654 596.561 48.6545 589.57 7.70748 L589.552 7.60038 L589.531 7.49383 L587.531 -2.50617 L586.296 -8.68 L580 -8.68 L40 -8.68 L32.32 -8.68 L32.32 -1 L32.32 24 L32.32 32.175 L40.4791 31.665 L56.434 30.6677 L56.4791 30.665 C105.201 27.9365 137.32 73.4609 137.32 149 L137.32 599 C137.32 674.539 105.202 720.064 56.4791 717.335 L56.434 717.332 L40.4791 716.335 L30.5103 715.712 L32.4691 725.506 C33.2752 729.536 32.32 745.774 32.32 750 L32.32 757.68 L40 757.68 L555 757.68 L561.95 757.68 L562.642 750.764 L563.369 743.492 L563.369 743.492 Z M549.173 735.966 L548.631 736.508 L548.358 739.236 L548.05 742.32 L47.913 742.32 C48.0136 739.189 48.1077 735.574 48.103 732.201 L55.5209 732.665 L55.5435 732.666 L55.566 732.668 C112.818 735.908 152.68 679.438 152.68 599 L152.68 149 C152.68 68.5625 112.818 12.0916 55.566 15.3323 L55.5435 15.3335 L55.5209 15.335 L47.68 15.825 L47.68 6.68 L573.704 6.68 L574.448 10.4 C580.867 47.9913 589.787 96.4072 596.609 135.719 C594.592 135.954 592.218 136.261 590.071 136.548 L585.233 123.417 L585.206 123.345 C564.262 64.823 496.502 23.5485 412.838 14.3658 L412.086 14.2833 L411.332 14.3491 C256.823 27.8298 237.32 109.091 237.32 217 L237.32 384 L237.32 391.68 L245 391.68 L310 391.68 C396.435 391.68 464.968 342.45 477.55 270.413 L480.205 257.137 C482.39 257.325 484.848 257.505 487.32 257.539 L487.32 533.528 C485.324 533.738 482.631 534.078 480.114 534.41 L477.55 521.587 C464.968 449.55 396.435 400.32 310 400.32 L245 400.32 L237.32 400.32 L237.32 408 L237.32 728 L237.32 735.68 L245 735.68 L373 735.68 C459.27 735.68 533.539 686.892 554.356 615.207 L558.593 601.083 C560.629 601.262 562.938 601.448 565.291 601.517 C560.449 643.238 553.819 695.346 549.173 735.966 L549.173 735.966 Z " />
<glyph glyph-name="Ecircumflex" unicode="&#xca;" horiz-adv-x="652" d="M387.39 1009.26 L387.422 1009.21 L387.452 1009.17 L509.452 820.165 L513.14 814.453 L507.917 810.1 L495.917 800.1 L490.548 795.626 L485.589 800.55 L351 934.178 L216.411 800.55 L211.452 795.626 L206.083 800.1 L194.083 810.1 L188.86 814.453 L192.548 820.165 L314.548 1009.17 L314.578 1009.21 L314.61 1009.26 C320.61 1018.26 336.89 1042.68 351 1042.68 C365.11 1042.68 381.39 1018.26 387.39 1009.26 L387.39 1009.26 Z M374.578 1000.79 C368.569 1009.8 356.879 1027.32 351 1027.32 C345.121 1027.32 333.431 1009.8 327.422 1000.79 L209.14 817.547 L210.548 816.374 L345.589 950.45 L351 955.822 L356.411 950.45 L491.452 816.374 L492.86 817.547 L374.578 1000.79 L374.578 1000.79 Z M563.369 743.492 L563.828 743.033 L564.131 740.367 C569.125 696.422 576.625 637.922 581.631 593.867 L583.082 581.096 L571.148 585.869 C568.2 587.049 558.693 585.32 553 585.32 L547.286 585.32 L545.644 590.793 L539.644 610.793 L539.634 610.827 L539.624 610.862 C520.413 677.139 454.702 720.32 373 720.32 L252.68 720.32 L252.68 415.68 L310 415.68 C391.526 415.68 450.971 458.406 462.434 524.316 L462.45 524.411 L462.469 524.506 L466.469 544.506 L467.894 551.63 L475.086 550.603 C475.086 550.603 485.075 549.175 488.772 548.78 L492.148 550.131 L502.68 554.344 L502.68 543 L502.68 249 L502.68 237.656 L492.148 241.869 C489.2 243.049 479.693 241.32 474 241.32 L467.704 241.32 L466.469 247.494 L462.469 267.494 L462.45 267.589 L462.434 267.684 C450.971 333.594 391.526 376.32 310 376.32 L252.68 376.32 L252.68 217 C252.68 111.095 269.12 42.4114 411.913 29.717 C491.839 38.6763 551.741 75.3101 570.767 128.583 L570.78 128.619 L570.794 128.655 L577.794 147.655 L579.94 153.481 L586.086 152.603 C586.086 152.603 596.075 151.175 599.772 150.78 L603.148 152.131 L615.878 157.223 L613.57 143.707 C606.561 102.654 596.561 48.6545 589.57 7.70748 L589.552 7.60038 L589.531 7.49383 L587.531 -2.50617 L586.296 -8.68 L580 -8.68 L40 -8.68 L32.32 -8.68 L32.32 -1 L32.32 24 L32.32 32.175 L40.4791 31.665 L56.434 30.6677 L56.4791 30.665 C105.201 27.9365 137.32 73.4609 137.32 149 L137.32 599 C137.32 674.539 105.202 720.064 56.4791 717.335 L56.434 717.332 L40.4791 716.335 L30.5103 715.712 L32.4691 725.506 C33.2752 729.536 32.32 745.774 32.32 750 L32.32 757.68 L40 757.68 L555 757.68 L561.95 757.68 L562.642 750.764 L563.369 743.492 L563.369 743.492 Z M549.173 735.966 L548.631 736.508 L548.358 739.236 L548.05 742.32 L47.913 742.32 C48.0136 739.189 48.1077 735.574 48.103 732.201 L55.5209 732.665 L55.5435 732.666 L55.566 732.668 C112.818 735.908 152.68 679.438 152.68 599 L152.68 149 C152.68 68.5625 112.818 12.0916 55.566 15.3323 L55.5435 15.3335 L55.5209 15.335 L47.68 15.825 L47.68 6.68 L573.704 6.68 L574.448 10.4 C580.867 47.9913 589.787 96.4072 596.609 135.719 C594.592 135.954 592.218 136.261 590.071 136.548 L585.233 123.417 L585.206 123.345 C564.262 64.823 496.502 23.5485 412.838 14.3658 L412.086 14.2833 L411.332 14.3491 C256.823 27.8298 237.32 109.091 237.32 217 L237.32 384 L237.32 391.68 L245 391.68 L310 391.68 C396.435 391.68 464.968 342.45 477.55 270.413 L480.205 257.137 C482.39 257.325 484.848 257.505 487.32 257.539 L487.32 533.528 C485.324 533.738 482.631 534.078 480.114 534.41 L477.55 521.587 C464.968 449.55 396.435 400.32 310 400.32 L245 400.32 L237.32 400.32 L237.32 408 L237.32 728 L237.32 735.68 L245 735.68 L373 735.68 C459.27 735.68 533.539 686.892 554.356 615.207 L558.593 601.083 C560.629 601.262 562.938 601.448 565.291 601.517 C560.449 643.238 553.819 695.346 549.173 735.966 L549.173 735.966 Z " />
</font>
</svg>
