<?xml version="1.0" encoding="UTF-8"?>
<svg xmlns="http://www.w3.org/2000/svg" xmlns:xlink="http://www.w3.org/1999/xlink" version="1.2" >
<font id="Faraz Regular">
<font-face  font-family="Faraz" units-per-em="1024" ascent="975" descent="-300" font-style="normal" font-weight="400" font-stretch="normal" cap-height="1044" x-height="488" underline-position="-125" underline-thickness="50" />
<missing-glyph  horiz-adv-x="100" d="" />
<glyph glyph-name="NULL" d="" />
<glyph glyph-name="CR" unicode="&#xd;" horiz-adv-x="256" d="" />
<glyph glyph-name="space" unicode="&#x20;" horiz-adv-x="250" d="" />
<glyph glyph-name="exclam" unicode="&#x21;" horiz-adv-x="244" d="M122 -5 C158 -5 182 19 182 55 C182 91 158 115 122 115 C86 115 62 91 62 55 C62 19 86 -5 122 -5 L122 -5 Z M122 755 C81 755 64 713 70 650 L114 210 L130 210 L174 650 C180 713 163 755 122 755 L122 755 Z " />
<glyph glyph-name="quotedbl" unicode="&#x22;" horiz-adv-x="325" d="M212 750 C193 750 181 732 187 705 L217 560 L227 560 L257 705 C263 732 252 750 232 750 L212 750 L212 750 Z M92 750 C73 750 61 732 67 705 L97 560 L107 560 L137 705 C143 732 132 750 112 750 L92 750 L92 750 Z " />
<glyph glyph-name="numbersign" unicode="&#x23;" horiz-adv-x="545" d="M390 667 L364 493 L227 493 L253 667 L219 667 L193 493 L67 493 L58 427 L183 427 L154 233 L26 233 L16 167 L144 167 L119 0 L153 0 L178 167 L315 167 L290 0 L324 0 L349 167 L468 167 L478 233 L359 233 L388 427 L516 427 L525 493 L398 493 L424 667 L390 667 L390 667 Z M217 427 L354 427 L325 233 L188 233 L217 427 L217 427 Z " />
<glyph glyph-name="dollar" unicode="&#x24;" horiz-adv-x="551" d="M329 751 L329 825 L299 825 L299 757 C283 759 267 760 250 760 L250 825 L220 825 L220 757 C126 742 65 668 65 563 C65 474 117 393 220 342 L220 37 C157 64 106 128 86 210 L78 242 C78 238 50 239 50 243 L50 3 C50 6 72 6 72 3 L75 26 C78 43 124 38 193 13 C202 9 211 6 220 3 L220 -73 L250 -73 L250 -4 C267 -7 283 -8 301 -8 L301 -73 L331 -73 L331 -6 C441 8 513 86 513 198 C513 293 451 380 331 426 L331 720 C381 696 420 647 437 583 L445 552 C445 556 473 555 473 551 L473 755 C473 752 451 752 451 755 L448 739 C446 726 390 736 332 751 L329 751 L329 751 Z M302 730 L302 437 C284 445 267 453 252 462 L252 736 C270 737 286 735 302 731 L302 730 L302 730 Z M252 28 L252 329 C269 322 287 316 302 309 L302 23 C284 22 266 24 251 27 L252 28 L252 28 Z M331 294 C399 257 433 212 433 168 C433 95 393 42 331 27 L331 294 L331 294 Z M221 481 C171 517 145 560 145 602 C145 666 174 714 221 730 L221 481 L221 481 Z " />
<glyph glyph-name="ampersand" unicode="&#x26;" horiz-adv-x="335" d="M326 465 C424 497 489 555 489 612 C489 701 419 761 315 761 C213 761 145 697 145 600 C145 560 181 509 238 440 C119 401 40 307 40 201 C40 76 122 -8 245 -8 C333 -8 424 40 507 125 C516 114 525 103 535 92 C585 32 651 -8 700 -8 C770 -8 824 54 835 148 L820 153 C813 98 779 61 735 61 C697 61 647 91 609 136 C593 155 578 173 563 190 C628 273 686 379 730 501 L710 501 C667 384 610 285 545 211 C391 394 363 422 326 467 L326 465 L326 465 Z M318 477 C258 550 220 603 220 646 C220 704 258 742 315 742 C378 742 420 692 420 618 C420 555 380 499 319 477 L318 477 L318 477 Z M485 152 C423 100 357 71 293 71 C194 71 128 133 128 226 C128 322 173 402 243 432 C290 375 313 353 483 151 L485 152 L485 152 Z " />
<glyph glyph-name="quotesingle" unicode="&#x27;" horiz-adv-x="204" d="M92 750 C73 750 61 732 67 705 L97 560 L107 560 L137 705 C143 732 132 750 112 750 L92 750 L92 750 Z " />
<glyph glyph-name="parenleft" unicode="&#x28;" horiz-adv-x="470" d="M320 760 C188 671 100 476 100 273 C100 77 185 -118 313 -214 L318 -205 C223 -134 160 58 160 273 C160 492 226 683 325 750 L320 760 L320 760 Z " />
<glyph glyph-name="parenright" unicode="&#x29;" horiz-adv-x="470" d="M25 750 C160 662 250 472 250 273 C250 72 163 -119 32 -204 L37 -214 C201 -108 310 87 310 273 C310 456 198 651 30 760 L25 750 L25 750 Z " />
<glyph glyph-name="asterisk" unicode="&#x2a;" horiz-adv-x="296" d="M241 546 C256 533 272 535 282 552 C292 569 286 584 267 591 C267 591 249 560 241 546 L241 546 Z M267 666 L267 666 C286 673 292 688 282 705 C272 722 256 724 241 711 L241 712 L153 634 L176 751 C180 771 170 784 150 784 C130 784 120 771 124 751 L147 635 L59 713 L33 668 C41 682 59 713 59 713 C44 726 28 724 18 707 C8 689 14 674 33 667 L33 668 L146 630 L33 592 C14 585 8 570 18 553 C28 535 44 533 59 546 L59 547 L147 624 L124 511 C120 491 130 478 150 478 C170 478 180 491 176 511 L153 625 L241 548 L267 593 L157 630 L267 666 L267 666 Z " />
<glyph glyph-name="plus" unicode="&#x2b;" horiz-adv-x="620" d="M277 460 L277 280 L100 280 L100 220 L277 220 L277 40 L343 40 L343 220 L520 220 L520 280 L343 280 L343 460 L277 460 L277 460 Z " />
<glyph glyph-name="comma" unicode="&#x2c;" horiz-adv-x="265" d="M159 9 C160 1 160 -7 160 -15 C160 -63 122 -95 65 -95 L65 -115 C143 -115 195 -63 195 16 C195 75 167 115 125 115 C89 115 65 91 65 55 C65 19 89 -5 125 -5 C139 -5 151 0 160 9 L159 9 L159 9 Z " />
<glyph glyph-name="hyphen" unicode="&#x2d;" horiz-adv-x="430" d="M80 250 L350 250 L350 320 L80 320 L80 250 L80 250 Z " />
<glyph glyph-name="period" unicode="&#x2e;" horiz-adv-x="195" d="M125 -5 C161 -5 185 19 185 55 C185 91 161 115 125 115 C89 115 65 91 65 55 C65 19 89 -5 125 -5 L125 -5 Z " />
<glyph glyph-name="slash" unicode="&#x2f;" horiz-adv-x="389" d="M309 770 L27 -80 L77 -80 L359 770 L309 770 L309 770 Z " />
<glyph glyph-name="zero" unicode="0" horiz-adv-x="610" d="M85 250 C85 372 173 475 305 475 C424 475 525 385 525 250 C525 128 437 25 305 25 C186 25 85 115 85 250 L85 250 Z M45 250 C45 94 165 -10 305 -10 C461 -10 565 110 565 250 C565 406 445 510 305 510 C149 510 45 390 45 250 L45 250 Z " />
<glyph glyph-name="one" unicode="1" horiz-adv-x="365" d="M310 0 C310 4 309 21 310 26 L297 25 C254 22 225 65 225 131 L225 371 C225 437 254 480 297 477 L310 476 C310 481 310 498 310 501 L55 501 C55 497 56 480 55 475 L68 476 C111 479 140 436 140 370 L140 130 C140 64 111 21 68 24 L55 25 C55 20 55 3 55 0 L310 0 L310 0 Z " />
<glyph glyph-name="two" unicode="2" horiz-adv-x="541" d="M506 140 L498 130 C472 97 406 75 331 75 L168 75 C325 167 441 262 441 345 C441 444 373 510 270 510 C160 510 69 424 44 294 L61 290 C79 383 145 445 226 445 C304 445 356 397 356 325 C356 237 261 150 132 72 C123 69 114 63 104 56 C76 40 47 24 17 9 L27 2 C24 1 21 0 18 0 L430 0 L477 75 C491 95 506 116 518 134 C515 135 507 139 506 140 L506 140 Z " />
<glyph glyph-name="three" unicode="3" horiz-adv-x="434" d="M17 -215 L20 -232 C244 -208 394 -113 394 7 C394 106 309 176 177 189 C301 251 379 317 379 386 C379 460 314 510 216 510 C120 510 41 446 19 351 L38 346 C52 408 110 450 182 450 C246 450 288 413 288 357 C288 291 232 236 144 191 C131 191 131 191 123 180 C115 176 107 172 99 169 L99 152 C101 153 103 154 105 155 C103 154 101 153 99 153 C223 136 305 68 305 -17 C305 -118 190 -197 17 -215 L17 -215 Z " />
<glyph glyph-name="four" unicode="4" horiz-adv-x="620" d="M599 33 C604 63 609 101 613 131 C604 131 590 134 588 135 L586 124 C578 89 531 65 468 65 L415 65 L415 530 L404 530 L15 15 L15 0 L330 0 L330 -220 L415 -220 L415 0 L460 0 C523 0 564 -19 563 -47 L562 -55 C568 -55 582 -57 587 -58 C591 -31 596 6 600 33 L599 33 L599 33 Z M92 64 L330 381 L330 65 L93 65 L92 64 L92 64 Z " />
<glyph glyph-name="five" unicode="5" horiz-adv-x="436" d="M366 555 C361 555 347 555 342 555 L340 547 C332 519 284 500 221 500 L87 500 L32 201 L48 187 L86 187 C234 187 332 121 332 21 C332 -102 223 -198 60 -218 L61 -234 C269 -209 407 -95 407 50 C407 186 282 277 95 277 L76 277 L103 424 L344 426 C352 473 360 516 367 555 L366 555 L366 555 Z " />
<glyph glyph-name="six" unicode="6" horiz-adv-x="568" d="M550 750 C250 686 50 503 50 291 C50 110 146 -10 290 -10 C425 -10 515 90 515 239 C515 375 427 466 295 466 C238 466 191 443 160 403 C215 570 359 697 553 738 L550 750 L550 750 Z M135 247 C135 364 195 442 286 442 C372 442 430 363 430 244 C430 107 372 16 285 16 C195 16 135 108 135 247 L135 247 Z " />
<glyph glyph-name="seven" unicode="7" horiz-adv-x="455" d="M215 500 C152 500 115 516 123 540 L126 547 C121 547 108 551 105 554 C93 527 77 492 64 465 L66 465 L55 440 C45 419 34 396 26 378 C33 380 47 373 49 371 L53 380 C71 411 124 431 187 431 L403 431 L112 -220 L177 -220 L452 485 L452 500 L215 500 L215 500 Z " />
<glyph glyph-name="eight" unicode="8" horiz-adv-x="543" d="M218 372 C227 367 237 363 247 359 C360 313 436 271 436 208 C436 89 370 10 271 10 C177 10 114 76 114 174 C114 259 155 334 219 371 L218 372 L218 372 Z M198 382 C102 332 41 253 41 173 C41 63 133 -11 272 -11 C411 -11 504 62 504 172 C504 299 436 364 331 414 C420 460 477 530 477 598 C477 695 394 760 270 760 C148 760 66 688 66 580 C66 499 117 430 198 384 L198 382 L198 382 Z M309 426 C300 430 290 434 280 438 C192 473 134 536 134 613 C134 695 195 749 286 749 C357 749 405 686 405 591 C405 523 368 460 310 426 L309 426 L309 426 Z " />
<glyph glyph-name="nine" unicode="9" horiz-adv-x="568" d="M18 -250 C318 -186 518 -3 518 209 C518 390 422 510 278 510 C143 510 53 410 53 261 C53 125 141 34 273 34 C330 34 377 57 408 97 C353 -70 209 -197 15 -238 L18 -250 L18 -250 Z M433 253 C433 136 373 58 282 58 C196 58 138 137 138 256 C138 393 196 484 283 484 C373 484 433 392 433 253 L433 253 Z " />
<glyph glyph-name="colon" unicode="&#x3a;" horiz-adv-x="135" d="M125 385 C161 385 185 409 185 445 C185 481 161 505 125 505 C89 505 65 481 65 445 C65 409 89 385 125 385 L125 385 Z M125 -5 C161 -5 185 19 185 55 C185 91 161 115 125 115 C89 115 65 91 65 55 C65 19 89 -5 125 -5 L125 -5 Z " />
<glyph glyph-name="semicolon" unicode="&#x3b;" horiz-adv-x="265" d="M125 385 C161 385 185 409 185 445 C185 481 161 505 125 505 C89 505 65 481 65 445 C65 409 89 385 125 385 L125 385 Z M159 9 C160 1 160 -7 160 -15 C160 -63 122 -95 65 -95 L65 -115 C143 -115 195 -63 195 16 C195 75 167 115 125 115 C89 115 65 91 65 55 C65 19 89 -5 125 -5 C139 -5 151 0 160 9 L159 9 L159 9 Z " />
<glyph glyph-name="equal" unicode="&#x3d;" horiz-adv-x="533" d="M83 219 L83 181 L463 181 L463 219 L83 219 L83 219 Z M83 319 L83 281 L463 281 L463 319 L83 319 L83 319 Z " />
<glyph glyph-name="question" unicode="&#x3f;" horiz-adv-x="299" d="M125 -5 C161 -5 185 19 185 55 C185 91 161 115 125 115 C89 115 65 91 65 55 C65 19 89 -5 125 -5 L125 -5 Z M125 210 L125 360 C218 360 251 394 285 444 C303 471 315 515 315 555 C315 678 247 760 145 760 C97 760 65 735 65 697 C65 672 83 655 111 655 C131 655 157 670 176 670 C244 670 289 620 289 545 C289 529 280 505 266 485 C248 458 222 440 97 440 C105 437 110 210 110 210 L125 210 L125 210 Z M97 440 L97 440 L97 440 L97 440 Z " />
<glyph glyph-name="at" unicode="&#x40;" horiz-adv-x="1160" d="M1041 0 C974 -143 794 -238 591 -238 C310 -238 122 -39 122 259 C122 556 305 754 580 754 C855 754 1038 590 1038 343 C1038 141 965 7 855 7 C760 7 716 84 745 200 L815 480 L735 480 L716 403 C699 457 651 490 585 490 C407 490 289 371 289 192 C289 82 360 8 466 8 C548 8 619 49 659 116 C669 31 735 -22 841 -22 C1000 -22 1106 124 1106 343 C1106 604 896 778 581 778 C266 778 56 570 56 259 C56 -48 278 -253 611 -253 C816 -253 999 -152 1070 0 L1041 0 L1041 0 Z M705 356 L666 200 C644 113 582 55 511 55 C434 55 383 116 383 208 C383 363 463 466 584 466 C657 466 705 422 705 356 L705 356 Z " />
<glyph glyph-name="A" unicode="A" horiz-adv-x="796" d="M772 31 C725 28 673 89 642 185 L471 720 C471 720 460 770 455 770 L445 770 C449 747 419 727 371 720 C372 717 373 713 374 710 L200 182 C168 88 103 28 36 31 L16 31 C16 31 18 23 18 20 C18 15 16 0 16 0 L306 0 C306 4 305 26 306 31 L287 31 C225 28 201 83 224 171 L258 279 L509 279 L538 185 C568 89 546 27 481 30 L462 30 C462 25 462 3 462 -1 L787 -1 C787 4 786 24 787 30 L772 31 L772 31 Z M267 304 L385 677 L502 304 L267 304 L267 304 Z " />
<glyph glyph-name="B" unicode="B" horiz-adv-x="685" d="M334 9 L284 9 C261 9 245 97 245 229 L245 385 L325 385 C451 385 535 311 535 201 C535 45 455 9 334 9 L334 9 Z M365 0 C533 0 645 38 645 201 C645 305 570 379 452 398 C554 423 617 486 617 570 C617 678 562 750 330 750 L60 750 C60 746 61 724 60 718 L73 719 C116 722 145 681 145 615 L145 135 C145 69 116 28 73 31 L60 31 C60 26 60 4 60 0 L365 0 L365 0 Z M335 402 L245 402 L245 730 L290 730 C474 730 517 662 517 560 C517 465 444 402 335 402 L335 402 Z " />
<glyph glyph-name="C" unicode="C" horiz-adv-x="740" d="M670 526 C670 530 698 530 698 526 L698 747 C698 744 676 744 676 747 L673 728 C670 711 628 714 567 735 C527 751 478 760 414 760 C196 760 50 606 50 375 C50 144 191 -10 403 -10 C468 -10 521 0 565 18 C627 39 670 40 673 20 L676 -1 C676 2 698 2 698 -1 L698 223 C698 219 670 219 670 223 L662 195 C640 116 578 50 505 25 C477 16 447 11 413 11 C261 11 160 156 160 373 C160 589 266 733 424 733 C454 733 480 730 504 724 C576 703 639 636 662 553 L670 526 L670 526 Z M670 525 L670 525 L670 525 L670 525 Z M683 131 L683 131 L683 131 L683 131 Z M670 223 L670 223 L670 223 Z " />
<glyph glyph-name="D" unicode="D" horiz-adv-x="853" d="M295 20 C250 20 245 99 245 218 L245 730 L285 730 C551 730 688 588 688 375 C688 141 531 20 295 20 L295 20 Z M325 0 C609 0 798 128 798 375 C798 600 651 750 365 750 L60 750 C60 746 61 729 60 724 L73 725 C116 728 145 685 145 619 L145 129 C145 63 116 20 73 23 L60 24 C60 19 60 2 60 -1 L325 0 L325 0 Z " />
<glyph glyph-name="E" unicode="E" horiz-adv-x="652" d="M556 740 L555 750 L40 750 C40 746 41 729 40 724 L56 725 C109 728 145 677 145 599 L145 149 C145 71 109 20 56 23 L40 24 C40 19 40 2 40 -1 L580 -1 L582 9 L582 9 C589 50 599 104 606 145 C606 145 602 143 601 143 C599 143 585 145 585 145 L578 126 C558 70 494 31 412 22 C263 35 245 110 245 217 L245 384 L310 384 C394 384 458 338 470 269 L474 249 C479 249 490 251 495 249 L495 543 C495 543 491 541 490 541 C488 541 474 543 474 543 L470 523 C458 454 394 408 310 408 L245 408 L245 728 L373 728 C457 728 527 682 547 613 L553 593 C558 593 569 595 574 593 C569 637 562 695 557 739 L556 740 L556 740 Z " />
<glyph glyph-name="F" unicode="F" horiz-adv-x="627" d="M484 385 L485 385 L485 409 L484 409 L484 544 C484 544 480 542 479 542 C477 542 463 544 463 544 L459 524 C447 455 383 409 299 409 L245 409 L245 733 L371 733 C456 733 526 687 546 618 L552 598 C557 598 568 600 573 598 C567 641 560 699 555 742 L556 742 L555 750 L40 750 C40 746 41 729 40 724 L56 725 C109 728 145 677 145 599 L145 149 C145 71 109 20 56 23 L40 24 C40 19 40 2 40 -1 L350 -1 C350 3 349 20 350 25 L334 24 C281 21 245 72 245 150 L245 385 L299 385 C383 385 447 339 459 270 L463 250 C468 250 479 252 484 250 L484 385 L484 385 Z " />
<glyph glyph-name="G" unicode="G" horiz-adv-x="817" d="M575 155 L576 155 C576 139 576 124 576 109 C574 49 516 10 429 10 C268 10 161 156 161 375 C161 591 267 735 425 735 C455 735 481 732 505 726 C577 705 640 638 663 555 L671 527 C671 531 699 531 699 527 L699 748 C699 745 677 745 677 748 L674 729 C671 712 629 715 568 736 C528 752 479 761 415 761 C197 761 51 607 51 376 C51 145 196 -9 413 -9 C563 -9 664 19 753 60 L746 75 C724 65 701 56 676 48 L676 157 C676 244 708 299 757 296 L771 295 C771 301 771 323 771 327 L481 327 C481 323 482 301 481 295 L495 296 C544 299 576 244 576 157 L575 155 L575 155 Z M671 528 L671 528 L671 528 L671 528 Z " />
<glyph glyph-name="H" unicode="H" horiz-adv-x="861" d="M801 0 C801 4 800 21 801 26 L788 25 C745 22 716 65 716 131 L716 621 C716 687 745 730 788 727 L801 726 C801 731 801 748 801 751 L531 751 C531 747 532 730 531 725 L544 726 C587 729 616 686 616 620 L616 409 L281 409 L281 620 C281 686 310 729 353 726 L366 725 C366 730 366 747 366 750 L96 750 C96 746 97 729 96 724 L109 725 C152 728 181 685 181 619 L181 129 C181 63 152 20 109 23 L96 24 C96 19 96 2 96 -1 L366 -1 C366 3 365 20 366 25 L353 24 C310 21 281 64 281 130 L281 383 L616 383 L616 130 C616 64 587 21 544 24 L531 25 C531 20 531 3 531 0 L801 0 L801 0 Z " />
<glyph glyph-name="I" unicode="I" horiz-adv-x="385" d="M325 0 C325 4 324 21 325 26 L312 25 C269 22 240 65 240 131 L240 621 C240 687 269 730 312 727 L325 726 C325 731 325 748 325 751 L55 751 C55 747 56 730 55 725 L68 726 C111 729 140 686 140 620 L140 130 C140 64 111 21 68 24 L55 25 C55 20 55 3 55 0 L325 0 L325 0 Z " />
<glyph glyph-name="J" unicode="J" horiz-adv-x="385" d="M140 620 L140 -72 C140 -167 82 -185 40 -185 C-9 -185 15 -105 -35 -105 C-62 -105 -80 -123 -80 -150 C-80 -192 -42 -220 15 -220 C110 -220 240 -166 240 116 L240 620 C240 686 269 729 312 726 L325 725 C325 730 325 747 325 750 L55 750 C55 746 56 729 55 724 L68 725 C111 728 140 685 140 619 L140 620 L140 620 Z " />
<glyph glyph-name="K" unicode="K" horiz-adv-x="775" d="M404 570 L245 375 L245 620 C245 686 274 729 317 726 L330 725 C330 730 330 747 330 750 L60 750 C60 746 61 729 60 724 L73 725 C116 728 145 685 145 619 L145 129 C145 63 116 20 73 23 L60 24 C60 19 60 2 60 -1 L330 -1 C330 3 329 20 330 25 L317 24 C274 21 245 64 245 130 L245 375 L560 0 L754 0 C754 5 753 20 754 25 L742 24 C704 21 647 57 595 113 L323 437 L467 605 C531 680 608 729 659 726 L674 725 C674 730 674 745 674 750 L396 750 C396 746 397 729 396 724 L417 725 C488 728 482 665 403 569 L404 570 L404 570 Z " />
<glyph glyph-name="L" unicode="L" horiz-adv-x="650" d="M577 8 L577 8 C584 48 594 102 601 142 C601 142 597 140 596 140 C594 140 580 142 580 142 L573 123 C553 67 489 28 407 19 C258 32 240 108 240 218 L240 620 C240 686 269 729 312 726 L325 725 C325 730 325 747 325 750 L55 750 C55 746 56 729 55 724 L68 725 C111 728 140 685 140 619 L140 129 C140 63 111 20 68 23 L55 24 C55 19 55 2 55 -1 L575 -1 L577 8 L577 8 Z " />
<glyph glyph-name="M" unicode="M" horiz-adv-x="900" d="M800 130 L784 628 C784 689 811 728 852 725 L865 724 C865 729 865 746 865 749 L685 749 L478 129 L251 749 L56 749 C56 744 57 729 56 724 L69 725 C97 727 127 708 152 676 L135 126 C132 61 102 19 59 22 L47 23 C47 18 47 1 47 -2 L251 -2 C251 2 250 19 251 24 L238 23 C197 20 170 58 168 118 L177 634 C178 633 179 632 180 631 C265 420 350 209 436 -1 L461 -1 L688 655 L702 117 C700 58 673 20 633 23 L620 24 C620 19 620 2 620 -1 L889 -1 C889 3 888 20 889 25 L876 24 C833 21 803 64 801 130 L800 130 L800 130 Z " />
<glyph glyph-name="N" unicode="N" horiz-adv-x="786" d="M611 620 L612 171 C470 364 329 558 188 751 L-3 751 C-3 746 -2 731 -3 726 L10 727 C45 730 95 698 139 647 L138 131 C138 65 109 22 66 25 L53 26 C53 21 53 4 53 1 L253 1 C253 5 252 22 253 27 L240 26 C200 23 171 60 167 119 L164 614 C313 410 462 206 612 2 L632 2 L639 622 C641 687 669 731 712 728 L725 727 C725 732 725 749 725 752 L525 752 C525 748 526 731 525 726 L538 727 C581 730 609 686 610 621 L611 620 L611 620 Z " />
<glyph glyph-name="O" unicode="O" horiz-adv-x="851" d="M159 375 C159 591 261 735 414 735 C578 735 687 591 687 375 C687 159 577 15 413 15 C261 15 159 159 159 375 L159 375 Z M50 375 C50 144 193 -10 408 -10 C641 -10 796 144 796 375 C796 606 645 760 418 760 C197 760 50 606 50 375 L50 375 Z " />
<glyph glyph-name="P" unicode="P" horiz-adv-x="628" d="M355 0 C355 4 354 21 355 26 L342 25 C299 22 270 65 270 131 L270 345 L320 345 C493 345 608 405 608 540 C608 667 513 751 370 751 L85 751 C85 747 86 730 85 725 L98 726 C141 729 170 686 170 620 L170 130 C170 64 141 21 98 24 L85 25 C85 20 85 3 85 0 L355 0 L355 0 Z M270 365 L270 733 L345 733 C447 733 515 662 515 555 C515 424 437 365 320 365 L270 365 L270 365 Z " />
<glyph glyph-name="Q" unicode="Q" horiz-adv-x="846" d="M1146 -41 L1139 -33 C1105 -62 976 -81 818 -81 C630 -81 455 -52 357 -7 C373 -9 390 -10 407 -10 C640 -10 795 144 795 375 C795 606 644 760 417 760 C196 760 49 606 49 375 C49 210 122 84 242 26 L242 26 C408 -88 632 -165 803 -165 C920 -165 1057 -115 1146 -41 L1146 -41 Z M159 375 C159 591 261 735 414 735 C578 735 687 591 687 375 C687 151 566 2 385 2 C249 2 159 151 159 375 L159 375 Z " />
<glyph glyph-name="R" unicode="R" horiz-adv-x="796" d="M786 0 L786 20 C697 20 692 22 651 80 C553 218 480 321 449 364 C549 385 611 441 611 538 C611 665 507 750 350 750 L60 750 C60 746 61 729 60 724 L73 725 C116 728 145 685 145 619 L145 129 C145 63 116 20 73 23 L60 24 C60 19 60 2 60 -1 L330 -1 C330 3 329 20 330 25 L317 24 C274 21 245 64 245 130 L245 355 L346 355 C367 319 437 216 533 81 C588 4 598 1 785 1 L786 0 L786 0 Z M244 381 L244 731 L319 731 C427 731 499 662 499 559 C499 436 439 381 349 381 L244 381 L244 381 Z " />
<glyph glyph-name="S" unicode="S" horiz-adv-x="551" d="M337 748 C312 756 285 760 257 760 C142 760 65 681 65 563 C65 462 132 371 263 323 C375 282 432 224 432 167 C432 70 364 11 264 24 C182 35 111 108 87 208 L79 240 C79 236 51 237 51 241 L51 1 C51 4 73 4 73 1 L76 24 C79 41 125 36 194 11 C226 -2 260 -9 294 -9 C425 -9 513 73 513 197 C513 294 449 383 324 428 C206 471 145 537 145 602 C145 682 190 736 258 736 C342 736 413 674 437 582 L445 551 C445 555 473 554 473 550 L473 754 C473 751 451 751 451 754 L448 738 C446 727 403 731 339 748 L337 748 L337 748 Z " />
<glyph glyph-name="T" unicode="T" horiz-adv-x="775" d="M720 737 L722 737 C721 739 720 741 719 743 L719 751 L716 751 C710 766 703 783 698 796 C698 790 686 795 683 796 L679 789 C665 766 600 751 515 751 L256 751 C171 751 106 766 92 789 L88 796 C87 799 73 788 73 796 C66 779 56 755 49 738 L50 738 C33 697 10 642 -7 601 C-7 601 -2 603 -1 603 C1 603 14 601 14 601 L26 620 C63 684 146 726 233 726 L338 726 L338 131 C338 65 309 22 266 25 L253 26 C253 21 253 4 253 1 L523 1 C523 5 522 22 523 27 L510 26 C467 23 438 66 438 132 L438 727 L535 727 C622 727 705 685 743 621 L755 602 C755 602 768 604 770 604 C771 604 776 602 776 602 C760 643 737 698 720 739 L720 737 L720 737 Z " />
<glyph glyph-name="U" unicode="U" horiz-adv-x="760" d="M110 750 L110 749 L25 749 C25 745 26 728 25 723 L38 724 C81 727 110 684 110 618 L110 219 C110 81 184 -11 294 -11 C401 -11 502 51 545 144 L545 -1 L595 -1 L595 -2 C635 8 689 21 730 31 C730 35 729 52 730 57 L717 53 C674 39 645 75 645 141 L645 750 L545 750 L545 749 L460 749 C460 745 461 728 460 723 L473 724 C516 727 545 684 545 618 L545 189 C507 107 423 53 334 53 C260 53 210 119 210 219 L210 749 L110 750 L110 750 Z " />
<glyph glyph-name="V" unicode="V" horiz-adv-x="806" d="M146 565 C224 373 302 181 380 -11 L400 -11 L628 564 C666 660 721 722 765 719 L779 718 C779 718 777 728 777 731 C777 735 779 750 779 750 L511 750 C511 746 512 724 511 718 L532 719 C603 722 627 661 592 565 L593 565 L434 136 L261 565 C223 660 239 722 302 719 L321 718 C321 724 321 746 321 750 L9 750 C9 745 10 724 9 718 L20 719 C57 722 107 660 146 564 L146 565 L146 565 Z " />
<glyph glyph-name="W" unicode="W" horiz-adv-x="1109" d="M407 719 C446 722 494 669 526 585 L559 499 L414 120 L244 585 L245 585 C214 669 228 722 279 719 L294 718 C294 724 294 746 294 750 L11 750 C11 745 12 724 11 718 L22 719 C56 722 98 679 129 608 C208 402 287 196 366 -10 L391 -10 L576 457 C636 301 696 145 756 -10 L781 -10 L960 594 C986 673 1032 722 1078 719 L1092 718 C1092 718 1090 728 1090 731 C1090 735 1092 750 1092 750 L822 750 C822 746 823 724 822 718 L843 719 C913 722 944 669 921 585 L797 138 L635 585 C605 669 625 722 687 719 L705 718 C705 724 705 746 705 750 L397 750 C397 745 398 724 397 718 L407 719 L407 719 Z " />
<glyph glyph-name="X" unicode="X" horiz-adv-x="789" d="M233 135 L232 135 L366 331 L498 126 C537 62 533 21 488 24 L474 25 C474 20 474 3 474 0 L752 0 C752 5 751 20 752 25 L742 24 C711 21 664 58 622 116 L435 405 L594 615 C646 684 712 729 758 726 L772 725 C772 730 772 745 772 750 L526 750 C526 746 527 729 526 724 L543 725 C599 728 604 683 555 614 L421 424 L298 614 L299 614 C254 683 255 728 302 725 L316 724 C316 729 316 746 316 749 L39 749 C39 744 40 729 39 724 L49 725 C83 728 135 683 180 614 L351 350 L187 123 C138 60 78 20 35 23 L21 24 C21 19 21 4 21 -1 L263 -1 C263 3 262 20 263 25 L246 24 C190 21 184 66 231 135 L233 135 L233 135 Z " />
<glyph glyph-name="Y" unicode="Y" horiz-adv-x="764" d="M557 615 L429 356 L267 615 L268 615 C225 684 227 729 274 726 L288 725 C288 730 288 747 288 750 L11 750 C11 745 12 730 11 725 L21 726 C52 729 98 692 139 634 L338 322 L338 150 C338 72 302 21 249 24 L233 25 C233 20 233 3 233 0 L543 0 C543 4 542 21 543 26 L527 25 C474 22 438 73 438 151 L438 326 L607 633 C645 692 696 730 739 727 L753 726 C753 731 753 746 753 751 L497 751 C497 747 498 730 497 725 L514 726 C574 729 588 683 555 615 L557 615 L557 615 Z " />
<glyph glyph-name="Z" unicode="Z" horiz-adv-x="652" d="M278 725 L502 728 L25 20 L25 0 L606 0 L609 15 L611 15 C611 15 624 71 643 155 C643 152 622 152 622 156 L614 137 C590 77 515 35 424 28 L143 23 L610 731 L610 751 L70 751 L67 723 L68 723 C66 701 62 656 57 598 C57 598 65 600 68 600 C70 600 78 598 78 598 L84 617 C102 681 180 725 279 726 L278 725 L278 725 Z " />
<glyph glyph-name="bracketleft" unicode="&#x5b;" horiz-adv-x="295" d="M135 725 L345 725 L345 750 L105 750 L105 -195 L345 -195 L345 -170 L135 -170 L135 725 L135 725 Z " />
<glyph glyph-name="backslash" unicode="&#x5c;" horiz-adv-x="347" d="M27 770 L287 -80 L337 -80 L77 770 L27 770 L27 770 Z " />
<glyph glyph-name="bracketright" unicode="&#x5d;" horiz-adv-x="298" d="M158 725 L158 -170 L-52 -170 L-52 -195 L188 -195 L188 750 L-52 750 L-52 725 L158 725 L158 725 Z " />
<glyph glyph-name="asciicircum" unicode="&#x5e;" horiz-adv-x="340" d="M200 755 C194 764 180 785 170 785 C160 785 146 764 140 755 L18 566 L30 556 L170 695 L310 556 L322 566 L200 755 L200 755 Z " />
<glyph glyph-name="underscore" unicode="&#x5f;" horiz-adv-x="455" d="M5 -50 L5 -97 L450 -97 L450 -50 L5 -50 L5 -50 Z " />
<glyph glyph-name="grave" unicode="&#x60;" horiz-adv-x="340" d="M-34 746 C-34 738 -8 714 30 682 L172 562 L183 573 L69 721 C39 761 16 788 8 788 C-15 788 -34 769 -34 746 L-34 746 Z " />
<glyph glyph-name="a" unicode="a" horiz-adv-x="514" d="M524 102 L509 109 C503 77 482 56 455 56 C422 56 400 74 400 102 L400 355 C400 462 344 510 259 510 C143 510 65 414 65 360 C65 324 85 300 114 300 C141 300 159 325 159 343 C159 361 139 385 139 403 C139 432 175 484 229 484 C281 484 316 454 316 386 C316 385 316 328 316 265 C98 198 46 173 46 89 C46 30 91 -9 159 -9 C200 -9 252 17 317 84 C325 31 365 -4 421 -4 C472 -4 514 39 525 103 L524 102 L524 102 Z M316 246 C316 175 316 104 316 104 C269 56 232 38 204 38 C160 38 131 63 131 100 C131 181 167 202 316 248 L316 246 L316 246 Z " />
<glyph glyph-name="b" unicode="b" horiz-adv-x="573" d="M75 0 L80 0 L110 64 C150 18 216 -10 291 -10 C433 -10 528 95 528 253 C528 404 437 505 301 505 C249 505 195 479 160 438 L160 750 L118 750 L78 740 L75 740 L75 739 L10 723 C10 723 12 720 12 719 C12 716 10 707 10 707 L20 706 C53 706 75 664 75 601 L75 0 L75 0 Z M160 110 L160 413 C189 448 230 470 266 470 C366 470 432 379 432 242 C432 102 378 9 296 9 C237 9 184 49 160 111 L160 110 L160 110 Z " />
<glyph glyph-name="c" unicode="c" horiz-adv-x="503" d="M473 128 L461 133 C437 78 377 42 311 42 C204 42 133 134 133 273 C133 404 197 491 292 491 C331 491 369 457 388 405 C397 380 414 363 431 363 C465 363 482 380 473 405 C450 468 380 510 297 510 C146 510 45 400 45 236 C45 88 139 -10 281 -10 C359 -10 436 45 473 128 L473 128 Z " />
<glyph glyph-name="d" unicode="d" horiz-adv-x="600" d="M500 10 L500 11 C529 18 560 26 585 32 C585 36 584 53 585 58 L572 54 C529 41 500 77 500 143 L500 751 L458 751 L458 753 C426 746 382 735 350 727 C350 727 352 724 352 723 C352 720 350 711 350 711 L360 710 C393 710 415 668 415 605 L415 478 C378 498 331 511 280 511 C125 511 45 407 45 252 C45 98 130 -4 257 -4 C319 -4 381 24 415 67 L415 1 L458 1 C468 6 485 11 499 11 L500 10 L500 10 Z M414 376 L414 97 C383 57 335 31 291 31 C195 31 131 129 131 275 C131 402 185 486 289 486 C344 486 396 435 414 376 L414 376 Z " />
<glyph glyph-name="e" unicode="e" horiz-adv-x="540" d="M140 340 L510 340 C488 462 408 510 301 510 C147 510 45 432 45 231 C45 86 138 -10 278 -10 C379 -10 467 47 498 133 L487 136 C467 82 392 46 298 46 C200 46 135 134 135 266 C135 293 137 318 141 340 L140 340 L140 340 Z M412 364 L145 360 C166 453 221 491 296 491 C348 491 390 455 411 364 L412 364 L412 364 Z " />
<glyph glyph-name="f" unicode="f" horiz-adv-x="368" d="M270 0 C270 4 269 21 270 26 L260 25 C227 22 205 51 205 96 L205 456 L358 456 L358 501 L205 501 C205 638 241 730 310 730 C353 730 394 636 430 636 C457 636 475 654 475 681 C475 726 421 756 340 756 C195 756 120 654 120 501 L26 466 L26 456 L120 456 L120 96 C120 51 98 22 65 25 L55 26 C55 21 55 4 55 1 L270 0 L270 0 Z " />
<glyph glyph-name="g" unicode="g" horiz-adv-x="520" d="M541 479 C541 510 519 530 486 530 C452 530 415 503 391 461 C359 492 312 510 255 510 C147 510 75 446 75 350 C75 277 115 222 181 199 C103 186 55 151 55 104 C55 53 87 16 138 4 C81 -14 44 -52 44 -95 C44 -176 132 -230 264 -230 C396 -230 484 -165 484 -68 C484 23 432 84 298 84 L180 84 C134 84 103 102 103 130 C103 165 163 188 254 188 C362 188 434 253 434 350 C434 389 422 423 401 449 C413 466 426 477 436 477 C457 477 484 442 505 442 C527 442 541 457 541 479 L541 479 Z M255 208 C198 208 160 265 160 350 C160 434 198 490 255 490 C312 490 350 434 350 350 C350 265 312 208 255 208 L255 208 Z M159 1 C165 0 171 0 177 0 L291 0 C380 0 414 -35 414 -88 C414 -162 356 -211 270 -211 C178 -211 116 -157 116 -75 C116 -42 133 -14 159 1 L159 1 Z " />
<glyph glyph-name="h" unicode="h" horiz-adv-x="589" d="M127 750 L87 740 L84 740 L84 739 L19 723 C19 723 21 720 21 719 C21 716 19 707 19 707 L29 706 C62 706 84 664 84 601 L84 95 C84 50 62 21 29 24 L19 25 C19 20 19 3 19 0 L234 0 C234 4 233 21 234 26 L224 25 C191 22 169 51 169 96 L169 361 C200 415 259 451 316 451 C377 451 409 403 409 331 L409 96 C409 51 387 22 354 25 L344 26 C344 21 344 4 344 1 L559 1 C559 5 558 22 559 27 L549 26 C516 23 494 52 494 97 L494 332 C494 440 450 512 364 512 C290 512 212 462 169 387 L169 752 L127 750 L127 750 Z " />
<glyph glyph-name="i" unicode="i" horiz-adv-x="274" d="M137 615 C170 615 192 637 192 670 C192 703 170 725 137 725 C104 725 82 703 82 670 C82 637 104 615 137 615 L137 615 Z M137 500 L97 490 L94 490 L94 489 L29 473 C29 473 31 470 31 469 C31 466 29 457 29 457 L39 456 C72 456 94 414 94 351 L94 95 C94 50 72 21 39 24 L29 25 C29 20 29 3 29 0 L244 0 C244 4 243 21 244 26 L234 25 C201 22 179 51 179 96 L179 501 L137 500 L137 500 Z " />
<glyph glyph-name="j" unicode="j" horiz-adv-x="270" d="M138 613 C171 613 193 635 193 668 C193 701 171 723 138 723 C105 723 83 701 83 668 C83 635 105 613 138 613 L138 613 Z M138 500 L98 490 L95 490 L95 489 L30 473 C30 473 32 470 32 469 C32 466 30 457 30 457 L40 456 C73 456 95 414 95 351 L95 50 C95 -33 74 -101 43 -119 C12 -119 -29 -100 -60 -100 C-87 -100 -105 -116 -105 -140 C-105 -169 -81 -187 -45 -185 C-38 -185 4 -163 60 -130 C132 -88 180 -16 180 50 L180 500 L138 500 L138 500 Z " />
<glyph glyph-name="k" unicode="k" horiz-adv-x="564" d="M543 -2 C543 2 542 18 543 22 C516 18 485 40 439 87 L250 314 L298 351 L300 351 C397 426 488 475 528 472 L540 471 C540 476 540 491 540 496 L484 496 L487 498 L451 498 L448 496 L276 496 C276 492 277 475 276 470 L298 471 C365 474 350 426 262 350 L169 278 L169 748 L127 748 L87 738 L84 738 L84 737 L19 721 C19 721 21 718 21 717 C21 714 19 705 19 705 L29 704 C62 704 84 662 84 599 L84 93 C84 48 62 19 29 22 L19 23 C19 18 19 1 19 -2 L234 -2 C234 2 233 19 234 24 L224 23 C191 20 169 49 169 94 L169 279 L305 117 L303 117 C354 57 371 18 346 21 L339 22 C339 17 339 0 339 -3 L543 -2 L543 -2 Z M459 -3 L457 -1 L459 -3 L459 -3 Z " />
<glyph glyph-name="l" unicode="l" horiz-adv-x="264" d="M127 750 L87 740 L84 740 L84 739 L19 723 C19 723 21 720 21 719 C21 716 19 707 19 707 L29 706 C62 706 84 664 84 601 L84 95 C84 50 62 21 29 24 L19 25 C19 20 19 3 19 0 L234 0 C234 4 233 21 234 26 L224 25 C191 22 169 51 169 96 L169 751 L127 750 L127 750 Z " />
<glyph glyph-name="m" unicode="m" horiz-adv-x="874" d="M844 -2 C844 2 843 19 844 24 L834 23 C801 20 779 49 779 94 L779 331 C779 439 741 511 642 511 C580 511 511 463 469 391 C456 465 416 511 337 511 C278 511 211 463 169 391 L169 501 L127 501 L87 491 L84 491 L84 490 L19 474 C19 474 21 471 21 470 C21 467 19 458 19 458 L29 457 C62 457 84 415 84 352 L84 96 C84 51 62 22 29 25 L19 26 C19 21 19 4 19 1 L234 1 C234 5 233 22 234 27 L224 26 C191 23 169 52 169 97 L169 367 C197 416 251 449 302 449 C365 449 389 402 389 332 L389 97 C389 52 367 23 334 26 L324 27 C324 22 324 5 324 2 L539 2 C539 6 538 23 539 28 L529 27 C496 24 474 53 474 98 L474 333 C474 347 473 360 472 373 C501 419 555 450 607 450 C670 450 694 403 694 333 L694 96 C694 51 672 22 639 25 L629 26 C629 21 629 4 629 1 L844 -2 L844 -2 Z " />
<glyph glyph-name="n" unicode="n" horiz-adv-x="569" d="M127 500 L87 490 L84 490 L84 489 L19 473 C19 473 21 470 21 469 C21 466 19 457 19 457 L29 456 C62 456 84 414 84 351 L84 95 C84 50 62 21 29 24 L19 25 C19 20 19 3 19 0 L234 0 C234 4 233 21 234 26 L224 25 C191 22 169 51 169 96 L169 361 C199 414 246 449 286 449 C354 449 389 402 389 331 L389 96 C389 51 367 22 334 25 L324 26 C324 21 324 4 324 1 L539 1 C539 5 538 22 539 27 L529 26 C496 23 474 52 474 97 L474 332 C474 440 427 512 337 512 C280 512 212 462 169 387 L169 502 L127 500 L127 500 Z " />
<glyph glyph-name="o" unicode="o" horiz-adv-x="613" d="M139 250 C139 390 206 484 307 484 C408 484 475 390 475 250 C475 110 408 16 307 16 C206 16 139 110 139 250 L139 250 Z M45 250 C45 94 150 -10 307 -10 C464 -10 568 94 568 250 C568 406 464 510 307 510 C150 510 45 406 45 250 L45 250 Z " />
<glyph glyph-name="p" unicode="p" horiz-adv-x="571" d="M112 500 L72 490 L69 490 L69 489 L4 473 C4 473 6 470 6 469 C6 466 4 457 4 457 L14 456 C47 456 69 414 69 351 L69 -125 C69 -170 47 -199 14 -196 L4 -195 C4 -200 4 -217 4 -220 L219 -220 C219 -216 218 -199 219 -194 L209 -195 C176 -198 154 -169 154 -124 L154 30 C189 8 232 -4 278 -4 C427 -4 526 117 526 258 C526 410 437 511 303 511 C244 511 186 484 154 442 L154 502 L112 500 L112 500 Z M154 132 L154 408 C183 450 225 477 262 477 C364 477 432 379 432 232 C432 116 372 18 282 18 C226 18 174 64 153 132 L154 132 L154 132 Z " />
<glyph glyph-name="q" unicode="q" horiz-adv-x="551" d="M546 -220 C546 -216 545 -199 546 -194 L536 -195 C503 -198 481 -169 481 -124 L481 501 L476 501 L448 441 L446 439 C408 484 347 511 279 511 C115 511 31 407 31 252 C31 98 118 -4 248 -4 C303 -4 360 22 395 63 L395 -124 C395 -169 373 -198 340 -195 L330 -194 C330 -199 330 -216 330 -219 L546 -220 L546 -220 Z M395 391 L395 93 C364 55 321 31 283 31 C184 31 118 129 118 276 C118 406 171 492 273 492 C324 492 372 452 395 390 L395 391 L395 391 Z " />
<glyph glyph-name="r" unicode="r" horiz-adv-x="420" d="M128 500 L88 490 L85 490 L85 489 L20 473 C20 473 22 470 22 469 C22 466 20 457 20 457 L30 456 C63 456 85 414 85 351 L85 95 C85 50 63 21 30 24 L20 25 C20 20 20 3 20 0 L235 0 C235 4 234 21 235 26 L225 25 C192 22 170 51 170 96 L170 358 C193 426 234 471 275 471 C296 471 310 457 310 436 C310 406 330 386 360 386 C390 386 410 406 410 436 C410 481 372 511 315 511 C251 511 195 468 171 402 L171 501 L128 500 L128 500 Z " />
<glyph glyph-name="s" unicode="s" horiz-adv-x="428" d="M207 -10 C309 -17 378 44 378 129 C378 198 330 256 237 281 C159 302 119 351 119 408 C119 457 153 489 204 489 C272 489 323 438 333 362 L335 341 C335 342 353 342 353 341 L353 509 C353 508 336 508 336 510 L333 498 C335 505 283 510 204 510 C117 510 59 458 59 380 C59 305 107 243 199 218 C274 198 313 155 313 106 C313 48 275 10 218 10 C200 10 182 14 165 22 C120 43 88 91 80 156 L78 177 C78 176 60 176 60 177 L60 -1 C60 0 77 0 77 -2 L80 11 C79 3 131 -6 208 -11 L207 -10 L207 -10 Z " />
<glyph glyph-name="t" unicode="t" horiz-adv-x="378" d="M333 500 L180 500 L180 620 L174 620 L30 466 L30 456 L95 456 L95 160 C95 38 150 -10 232 -10 C290 -10 345 32 368 96 L358 100 C343 58 303 30 258 30 C210 30 178 61 178 141 L180 455 L333 455 L333 500 L333 500 Z " />
<glyph glyph-name="u" unicode="u" horiz-adv-x="560" d="M470 10 L470 11 C496 18 523 25 545 31 C545 35 544 52 545 57 L534 53 C496 41 470 78 470 144 L470 502 L428 502 L428 504 L320 504 C320 500 321 483 320 478 L330 479 C363 482 385 453 385 408 L385 145 C359 87 309 49 257 49 C202 49 165 93 165 160 L165 500 L15 500 C15 496 16 479 15 474 L25 475 C58 478 80 449 80 404 L80 159 C80 57 135 -11 217 -11 C286 -11 352 40 385 118 L385 -1 L428 -1 C438 4 456 9 470 9 L470 10 L470 10 Z " />
<glyph glyph-name="v" unicode="v" horiz-adv-x="538" d="M383 365 L301 123 L212 365 C188 433 189 479 218 476 L227 475 C227 480 227 497 227 500 L13 500 C13 495 14 480 13 475 L23 476 C52 479 87 442 112 384 L256 -10 L281 -10 L418 365 C443 434 481 480 513 477 L523 476 C523 481 523 496 523 501 L363 501 C363 497 364 480 363 475 L372 476 C402 479 405 432 383 364 L383 365 L383 365 Z " />
<glyph glyph-name="w" unicode="w" horiz-adv-x="810" d="M120 365 L260 -10 L285 -10 L405 305 L518 -10 L543 -10 L688 365 C715 434 754 479 786 476 L795 475 C795 480 795 495 795 500 L635 500 C635 496 636 479 635 474 L644 475 C672 478 676 439 656 378 L564 123 L471 382 C452 441 457 478 484 475 L493 474 C493 479 493 496 493 499 L277 499 C277 494 278 479 277 474 L287 475 C316 478 350 441 375 382 L387 349 L305 120 L214 364 L215 364 C189 433 191 478 220 475 L229 474 C229 479 229 496 229 499 L13 499 C13 494 14 479 13 474 L23 475 C55 478 93 432 119 364 L120 365 L120 365 Z " />
<glyph glyph-name="x" unicode="x" horiz-adv-x="547" d="M394 135 L302 285 L377 386 C424 443 472 479 500 476 L509 475 C509 480 509 495 509 500 L359 500 C359 496 360 479 359 474 L367 475 C393 478 379 433 331 364 L289 304 L243 379 C207 440 200 479 225 476 L233 475 C233 480 233 497 233 500 L15 500 L15 475 L24 476 C55 479 104 434 147 365 L228 234 L146 124 C97 62 47 22 18 25 L9 26 C9 21 9 6 9 1 L159 1 C159 5 158 22 159 27 L151 26 C125 23 140 69 186 137 L241 217 L299 122 C335 61 342 22 317 25 L309 26 C309 21 309 4 309 1 L527 1 L527 26 L518 25 C487 22 438 67 395 136 L394 135 L394 135 Z " />
<glyph glyph-name="y" unicode="y" horiz-adv-x="558" d="M121 380 L280 1 C259 -51 240 -104 220 -156 C211 -179 197 -194 193 -194 C171 -194 166 -165 143 -165 C116 -165 98 -183 98 -210 C98 -240 118 -260 148 -260 C174 -260 220 -223 241 -167 L301 -10 C349 121 397 252 445 383 C470 442 505 479 534 476 L544 475 C544 480 544 495 544 500 L384 500 C384 496 385 479 384 474 L393 475 C420 478 427 441 410 382 L323 118 L219 365 C191 433 190 479 219 476 L227 475 C227 480 227 497 227 500 L15 500 C15 495 16 480 15 475 L24 476 C54 479 91 440 119 379 L121 380 L121 380 Z " />
<glyph glyph-name="z" unicode="z" horiz-adv-x="475" d="M254 475 L333 477 L40 20 L40 0 L430 0 L430 15 L435 15 C435 15 439 60 445 127 C445 127 435 125 432 125 C429 125 421 127 421 127 L416 113 C399 64 334 30 252 25 L144 22 L435 479 L435 499 L182 499 C128 499 95 510 99 526 L100 531 C93 531 79 530 73 531 C69 517 64 498 61 484 C63 484 51 440 35 372 C35 372 45 374 48 374 C51 374 59 372 59 372 L66 386 C92 436 168 472 255 474 L254 475 L254 475 Z " />
<glyph glyph-name="bar" unicode="&#x7c;" horiz-adv-x="186" d="M60 800 L60 -250 L126 -250 L126 800 L60 800 L60 800 Z " />
<glyph glyph-name="asciitilde" unicode="&#x7e;" horiz-adv-x="340" d="M30 310 C30 346 46 370 71 370 C123 370 192 305 244 305 C293 305 325 353 325 425 L310 425 C310 389 292 365 264 365 C212 365 143 430 91 430 C45 430 15 382 15 310 L30 310 L30 310 Z " />
<glyph glyph-name="exclamdown" unicode="&#xa1;" horiz-adv-x="244" d="M122 505 C86 505 62 481 62 445 C62 409 86 385 122 385 C158 385 182 409 182 445 C182 481 158 505 122 505 L122 505 Z M122 -255 C163 -255 180 -213 174 -150 C174 -150 130 158 130 290 L114 290 C114 158 70 -150 70 -150 C64 -213 81 -255 122 -255 L122 -255 Z " />
<glyph glyph-name="cent" unicode="&#xa2;" horiz-adv-x="503" d="M267 575 L267 509 C133 495 45 389 45 236 C45 93 133 -3 267 -9 L267 -74 L297 -74 L297 -8 C369 -1 438 52 472 129 L460 134 C435 76 370 38 296 44 L296 492 C333 489 369 456 387 406 C396 381 413 364 430 364 C464 364 481 381 472 406 C449 469 379 511 296 511 L296 576 L267 575 L267 575 Z M266 49 C184 71 132 156 132 275 C132 394 185 477 266 491 L266 49 L266 49 Z " />
<glyph glyph-name="acute" unicode="&#xb4;" horiz-adv-x="340" d="M178 562 L320 682 C358 715 384 740 384 746 C384 769 365 788 342 788 C336 788 313 761 281 721 L167 573 L178 562 L178 562 Z " />
<glyph glyph-name="questiondown" unicode="&#xbf;" horiz-adv-x="299" d="M174 505 C138 505 114 481 114 445 C114 409 138 385 174 385 C210 385 234 409 234 445 C234 481 210 505 174 505 L174 505 Z M174 290 L174 140 C81 140 48 106 14 56 C-4 29 -16 -15 -16 -55 C-16 -178 52 -260 154 -260 C202 -260 234 -235 234 -197 C234 -172 216 -155 188 -155 C168 -155 142 -170 123 -170 C55 -170 10 -120 10 -45 C10 -29 19 -5 33 15 C51 42 77 60 202 60 C194 63 189 290 189 290 L174 290 L174 290 Z M202 60 L202 60 L202 60 L202 60 Z " />
<glyph glyph-name="Agrave" unicode="&#xc0;" horiz-adv-x="796" d="M772 31 C725 28 673 89 642 185 L471 720 C471 720 460 770 455 770 L445 770 C449 747 419 727 371 720 C372 717 373 713 374 710 L200 182 C168 88 103 28 36 31 L16 31 C16 31 18 23 18 20 C18 15 16 0 16 0 L306 0 C306 4 305 26 306 31 L287 31 C225 28 201 83 224 171 L258 279 L509 279 L538 185 C568 89 546 27 481 30 L462 30 C462 25 462 3 462 -1 L787 -1 C787 4 786 24 787 30 L772 31 L772 31 Z M218 995 C218 987 244 963 282 931 L424 811 L435 822 L321 970 C291 1010 268 1037 260 1037 C237 1037 218 1018 218 995 L218 995 Z M267 304 L385 677 L502 304 L267 304 L267 304 Z " />
<glyph glyph-name="Aacute" unicode="&#xc1;" horiz-adv-x="796" d="M429 812 L571 932 C609 965 635 990 635 996 C635 1019 616 1038 593 1038 C587 1038 564 1011 532 971 L418 823 L429 812 L429 812 Z M772 31 C725 28 673 89 642 185 L471 720 C471 720 460 770 455 770 L445 770 C449 747 419 727 371 720 C372 717 373 713 374 710 L200 182 C168 88 103 28 36 31 L16 31 C16 31 18 23 18 20 C18 15 16 0 16 0 L306 0 C306 4 305 26 306 31 L287 31 C225 28 201 83 224 171 L258 279 L509 279 L538 185 C568 89 546 27 481 30 L462 30 C462 25 462 3 462 -1 L787 -1 C787 4 786 24 787 30 L772 31 L772 31 Z M267 304 L385 677 L502 304 L267 304 L267 304 Z " />
<glyph glyph-name="Acircumflex" unicode="&#xc2;" horiz-adv-x="796" d="M772 31 C725 28 673 89 642 185 L471 720 C471 720 460 770 455 770 L445 770 C449 747 419 727 371 720 C372 717 373 713 374 710 L200 182 C168 88 103 28 36 31 L16 31 C16 31 18 23 18 20 C18 15 16 0 16 0 L306 0 C306 4 305 26 306 31 L287 31 C225 28 201 83 224 171 L258 279 L509 279 L538 185 C568 89 546 27 481 30 L462 30 C462 25 462 3 462 -1 L787 -1 C787 4 786 24 787 30 L772 31 L772 31 Z M452 1004 C446 1013 432 1034 422 1034 C412 1034 398 1013 392 1004 L270 815 L282 805 L422 944 L562 805 L574 815 L452 1004 L452 1004 Z M267 304 L385 677 L502 304 L267 304 L267 304 Z " />
<glyph glyph-name="Atilde" unicode="&#xc3;" horiz-adv-x="796" d="M281 870 C281 906 297 930 322 930 C374 930 443 865 495 865 C544 865 576 913 576 985 L561 985 C561 949 543 925 515 925 C463 925 394 990 342 990 C296 990 266 942 266 870 L281 870 L281 870 Z M772 31 C725 28 673 89 642 185 L471 720 C471 720 460 770 455 770 L445 770 C449 747 419 727 371 720 C372 717 373 713 374 710 L200 182 C168 88 103 28 36 31 L16 31 C16 31 18 23 18 20 C18 15 16 0 16 0 L306 0 C306 4 305 26 306 31 L287 31 C225 28 201 83 224 171 L258 279 L509 279 L538 185 C568 89 546 27 481 30 L462 30 C462 25 462 3 462 -1 L787 -1 C787 4 786 24 787 30 L772 31 L772 31 Z M267 304 L385 677 L502 304 L267 304 L267 304 Z " />
<glyph glyph-name="Adieresis" unicode="&#xc4;" horiz-adv-x="796" d="M496 865 C529 865 551 887 551 920 C551 953 529 975 496 975 C463 975 441 953 441 920 C441 887 463 865 496 865 L496 865 Z M346 865 C379 865 401 887 401 920 C401 953 379 975 346 975 C313 975 291 953 291 920 C291 887 313 865 346 865 L346 865 Z M772 31 C725 28 673 89 642 185 L471 720 C471 720 460 770 455 770 L445 770 C449 747 419 727 371 720 C372 717 373 713 374 710 L200 182 C168 88 103 28 36 31 L16 31 C16 31 18 23 18 20 C18 15 16 0 16 0 L306 0 C306 4 305 26 306 31 L287 31 C225 28 201 83 224 171 L258 279 L509 279 L538 185 C568 89 546 27 481 30 L462 30 C462 25 462 3 462 -1 L787 -1 C787 4 786 24 787 30 L772 31 L772 31 Z M267 304 L385 677 L502 304 L267 304 L267 304 Z " />
<glyph glyph-name="Aring" unicode="&#xc5;" horiz-adv-x="796" d="M349 905 C349 950 378 980 421 980 C465 980 494 950 494 905 C494 864 460 830 421 830 C382 830 349 865 349 905 L349 905 Z M324 905 C324 854 369 810 421 810 C474 810 519 854 519 905 C519 962 480 1000 421 1000 C363 1000 324 962 324 905 L324 905 Z M772 31 C725 28 673 89 642 185 L471 720 C471 720 460 770 455 770 L445 770 C449 747 419 727 371 720 C372 717 373 713 374 710 L200 182 C168 88 103 28 36 31 L16 31 C16 31 18 23 18 20 C18 15 16 0 16 0 L306 0 C306 4 305 26 306 31 L287 31 C225 28 201 83 224 171 L258 279 L509 279 L538 185 C568 89 546 27 481 30 L462 30 C462 25 462 3 462 -1 L787 -1 C787 4 786 24 787 30 L772 31 L772 31 Z M267 304 L385 677 L502 304 L267 304 L267 304 Z " />
<glyph glyph-name="Egrave" unicode="&#xc8;" horiz-adv-x="652" d="M147 996 C147 988 173 964 211 932 L353 812 L364 823 L250 971 C220 1011 197 1038 189 1038 C166 1038 147 1019 147 996 L147 996 Z M556 740 L555 750 L40 750 C40 746 41 729 40 724 L56 725 C109 728 145 677 145 599 L145 149 C145 71 109 20 56 23 L40 24 C40 19 40 2 40 -1 L580 -1 L582 9 L582 9 C589 50 599 104 606 145 C606 145 602 143 601 143 C599 143 585 145 585 145 L578 126 C558 70 494 31 412 22 C263 35 245 110 245 217 L245 384 L310 384 C394 384 458 338 470 269 L474 249 C479 249 490 251 495 249 L495 543 C495 543 491 541 490 541 C488 541 474 543 474 543 L470 523 C458 454 394 408 310 408 L245 408 L245 728 L373 728 C457 728 527 682 547 613 L553 593 C558 593 569 595 574 593 C569 637 562 695 557 739 L556 740 L556 740 Z " />
<glyph glyph-name="Eacute" unicode="&#xc9;" horiz-adv-x="652" d="M359 812 L501 932 C539 965 565 990 565 996 C565 1019 546 1038 523 1038 C517 1038 494 1011 462 971 L348 823 L359 812 L359 812 Z M556 740 L555 750 L40 750 C40 746 41 729 40 724 L56 725 C109 728 145 677 145 599 L145 149 C145 71 109 20 56 23 L40 24 C40 19 40 2 40 -1 L580 -1 L582 9 L582 9 C589 50 599 104 606 145 C606 145 602 143 601 143 C599 143 585 145 585 145 L578 126 C558 70 494 31 412 22 C263 35 245 110 245 217 L245 384 L310 384 C394 384 458 338 470 269 L474 249 C479 249 490 251 495 249 L495 543 C495 543 491 541 490 541 C488 541 474 543 474 543 L470 523 C458 454 394 408 310 408 L245 408 L245 728 L373 728 C457 728 527 682 547 613 L553 593 C558 593 569 595 574 593 C569 637 562 695 557 739 L556 740 L556 740 Z " />
<glyph glyph-name="Ecircumflex" unicode="&#xca;" horiz-adv-x="652" d="M381 1005 C375 1014 361 1035 351 1035 C341 1035 327 1014 321 1005 L199 816 L211 806 L351 945 L491 806 L503 816 L381 1005 L381 1005 Z M556 740 L555 750 L40 750 C40 746 41 729 40 724 L56 725 C109 728 145 677 145 599 L145 149 C145 71 109 20 56 23 L40 24 C40 19 40 2 40 -1 L580 -1 L582 9 L582 9 C589 50 599 104 606 145 C606 145 602 143 601 143 C599 143 585 145 585 145 L578 126 C558 70 494 31 412 22 C263 35 245 110 245 217 L245 384 L310 384 C394 384 458 338 470 269 L474 249 C479 249 490 251 495 249 L495 543 C495 543 491 541 490 541 C488 541 474 543 474 543 L470 523 C458 454 394 408 310 408 L245 408 L245 728 L373 728 C457 728 527 682 547 613 L553 593 C558 593 569 595 574 593 C569 637 562 695 557 739 L556 740 L556 740 Z " />
<glyph glyph-name="Edieresis" unicode="&#xcb;" horiz-adv-x="652" d="M426 865 C459 865 481 887 481 920 C481 953 459 975 426 975 C393 975 371 953 371 920 C371 887 393 865 426 865 L426 865 Z M276 865 C309 865 331 887 331 920 C331 953 309 975 276 975 C243 975 221 953 221 920 C221 887 243 865 276 865 L276 865 Z M556 740 L555 750 L40 750 C40 746 41 729 40 724 L56 725 C109 728 145 677 145 599 L145 149 C145 71 109 20 56 23 L40 24 C40 19 40 2 40 -1 L580 -1 L582 9 L582 9 C589 50 599 104 606 145 C606 145 602 143 601 143 C599 143 585 145 585 145 L578 126 C558 70 494 31 412 22 C263 35 245 110 245 217 L245 384 L310 384 C394 384 458 338 470 269 L474 249 C479 249 490 251 495 249 L495 543 C495 543 491 541 490 541 C488 541 474 543 474 543 L470 523 C458 454 394 408 310 408 L245 408 L245 728 L373 728 C457 728 527 682 547 613 L553 593 C558 593 569 595 574 593 C569 637 562 695 557 739 L556 740 L556 740 Z " />
<glyph glyph-name="Igrave" unicode="&#xcc;" horiz-adv-x="385" d="M-14 996 C-14 988 12 964 50 932 L192 812 L203 823 L89 971 C59 1011 36 1038 28 1038 C5 1038 -14 1019 -14 996 L-14 996 Z M325 0 C325 4 324 21 325 26 L312 25 C269 22 240 65 240 131 L240 621 C240 687 269 730 312 727 L325 726 C325 731 325 748 325 751 L55 751 C55 747 56 730 55 725 L68 726 C111 729 140 686 140 620 L140 130 C140 64 111 21 68 24 L55 25 C55 20 55 3 55 0 L325 0 L325 0 Z " />
<glyph glyph-name="Iacute" unicode="&#xcd;" horiz-adv-x="385" d="M198 812 L340 932 C378 965 404 990 404 996 C404 1019 385 1038 362 1038 C356 1038 333 1011 301 971 L187 823 L198 812 L198 812 Z M325 0 C325 4 324 21 325 26 L312 25 C269 22 240 65 240 131 L240 621 C240 687 269 730 312 727 L325 726 C325 731 325 748 325 751 L55 751 C55 747 56 730 55 725 L68 726 C111 729 140 686 140 620 L140 130 C140 64 111 21 68 24 L55 25 C55 20 55 3 55 0 L325 0 L325 0 Z " />
<glyph glyph-name="Icircumflex" unicode="&#xce;" horiz-adv-x="385" d="M220 1005 C214 1014 200 1035 190 1035 C180 1035 166 1014 160 1005 L38 816 L50 806 L190 945 L330 806 L342 816 L220 1005 L220 1005 Z M325 0 C325 4 324 21 325 26 L312 25 C269 22 240 65 240 131 L240 621 C240 687 269 730 312 727 L325 726 C325 731 325 748 325 751 L55 751 C55 747 56 730 55 725 L68 726 C111 729 140 686 140 620 L140 130 C140 64 111 21 68 24 L55 25 C55 20 55 3 55 0 L325 0 L325 0 Z " />
<glyph glyph-name="Idieresis" unicode="&#xcf;" horiz-adv-x="385" d="M265 865 C298 865 320 887 320 920 C320 953 298 975 265 975 C232 975 210 953 210 920 C210 887 232 865 265 865 L265 865 Z M115 865 C148 865 170 887 170 920 C170 953 148 975 115 975 C82 975 60 953 60 920 C60 887 82 865 115 865 L115 865 Z M325 0 C325 4 324 21 325 26 L312 25 C269 22 240 65 240 131 L240 621 C240 687 269 730 312 727 L325 726 C325 731 325 748 325 751 L55 751 C55 747 56 730 55 725 L68 726 C111 729 140 686 140 620 L140 130 C140 64 111 21 68 24 L55 25 C55 20 55 3 55 0 L325 0 L325 0 Z " />
<glyph glyph-name="Ntilde" unicode="&#xd1;" horiz-adv-x="786" d="M249 870 C249 906 266 930 291 930 C343 930 412 865 464 865 C513 865 545 913 545 985 L530 985 C530 949 512 925 484 925 C432 925 362 990 310 990 C264 990 234 942 234 870 L249 870 L249 870 Z M611 620 L612 171 C470 364 329 558 188 751 L-3 751 C-3 746 -2 731 -3 726 L10 727 C45 730 95 698 139 647 L138 131 C138 65 109 22 66 25 L53 26 C53 21 53 4 53 1 L253 1 C253 5 252 22 253 27 L240 26 C200 23 171 60 167 119 L164 614 C313 410 462 206 612 2 L632 2 L639 622 C641 687 669 731 712 728 L725 727 C725 732 725 749 725 752 L525 752 C525 748 526 731 525 726 L538 727 C581 730 609 686 610 621 L611 620 L611 620 Z " />
<glyph glyph-name="Ograve" unicode="&#xd2;" horiz-adv-x="851" d="M159 375 C159 591 261 735 414 735 C578 735 687 591 687 375 C687 159 577 15 413 15 C261 15 159 159 159 375 L159 375 Z M50 375 C50 144 193 -10 408 -10 C641 -10 796 144 796 375 C796 606 645 760 418 760 C197 760 50 606 50 375 L50 375 Z M214 996 C214 988 240 964 278 932 L420 812 L431 823 L317 971 C287 1011 264 1038 256 1038 C233 1038 214 1019 214 996 L214 996 Z " />
<glyph glyph-name="Oacute" unicode="&#xd3;" horiz-adv-x="851" d="M426 812 L568 932 C606 965 632 990 632 996 C632 1019 613 1038 590 1038 C584 1038 561 1011 529 971 L415 823 L426 812 L426 812 Z M159 375 C159 591 261 735 414 735 C578 735 687 591 687 375 C687 159 577 15 413 15 C261 15 159 159 159 375 L159 375 Z M50 375 C50 144 193 -10 408 -10 C641 -10 796 144 796 375 C796 606 645 760 418 760 C197 760 50 606 50 375 L50 375 Z " />
<glyph glyph-name="Ocircumflex" unicode="&#xd4;" horiz-adv-x="851" d="M159 375 C159 591 261 735 414 735 C578 735 687 591 687 375 C687 159 577 15 413 15 C261 15 159 159 159 375 L159 375 Z M50 375 C50 144 193 -10 408 -10 C641 -10 796 144 796 375 C796 606 645 760 418 760 C197 760 50 606 50 375 L50 375 Z M448 1005 C442 1014 428 1035 418 1035 C408 1035 394 1014 388 1005 L266 816 L278 806 L418 945 L558 806 L570 816 L448 1005 L448 1005 Z " />
<glyph glyph-name="Otilde" unicode="&#xd5;" horiz-adv-x="851" d="M278 870 C278 906 294 930 319 930 C371 930 440 865 492 865 C541 865 573 913 573 985 L558 985 C558 949 540 925 512 925 C460 925 391 990 339 990 C293 990 263 942 263 870 L278 870 L278 870 Z M159 375 C159 591 261 735 414 735 C578 735 687 591 687 375 C687 159 577 15 413 15 C261 15 159 159 159 375 L159 375 Z M50 375 C50 144 193 -10 408 -10 C641 -10 796 144 796 375 C796 606 645 760 418 760 C197 760 50 606 50 375 L50 375 Z " />
<glyph glyph-name="Odieresis" unicode="&#xd6;" horiz-adv-x="851" d="M493 865 C526 865 548 887 548 920 C548 953 526 975 493 975 C460 975 438 953 438 920 C438 887 460 865 493 865 L493 865 Z M343 865 C376 865 398 887 398 920 C398 953 376 975 343 975 C310 975 288 953 288 920 C288 887 310 865 343 865 L343 865 Z M159 375 C159 591 261 735 414 735 C578 735 687 591 687 375 C687 159 577 15 413 15 C261 15 159 159 159 375 L159 375 Z M50 375 C50 144 193 -10 408 -10 C641 -10 796 144 796 375 C796 606 645 760 418 760 C197 760 50 606 50 375 L50 375 Z " />
<glyph glyph-name="Oslash" unicode="&#xd8;" horiz-adv-x="851" d="M66 -26 C66 -26 102 11 167 78 C228 22 311 -10 409 -10 C642 -10 797 144 797 375 C797 481 765 571 709 637 C743 672 778 708 814 745 L782 777 C746 740 711 704 677 669 C612 727 523 760 418 760 C197 760 50 606 50 375 C50 268 81 177 136 111 C70 43 34 6 34 6 L66 -26 L66 -26 Z M625 617 C446 432 299 280 196 174 C172 230 159 298 159 376 C159 592 261 736 414 736 C504 736 577 693 625 618 L625 617 L625 617 Z M648 576 C673 521 687 453 687 376 C687 160 577 16 413 16 C330 16 262 58 217 131 C318 236 466 389 647 576 L648 576 L648 576 Z " />
<glyph glyph-name="Ugrave" unicode="&#xd9;" horiz-adv-x="760" d="M110 750 L110 749 L25 749 C25 745 26 728 25 723 L38 724 C81 727 110 684 110 618 L110 219 C110 81 184 -11 294 -11 C401 -11 502 51 545 144 L545 -1 L595 -1 L595 -2 C635 8 689 21 730 31 C730 35 729 52 730 57 L717 53 C674 39 645 75 645 141 L645 750 L545 750 L545 749 L460 749 C460 745 461 728 460 723 L473 724 C516 727 545 684 545 618 L545 189 C507 107 423 53 334 53 C260 53 210 119 210 219 L210 749 L110 750 L110 750 Z M174 994 C174 986 200 962 238 930 L380 810 L390 821 L277 969 C247 1009 224 1036 216 1036 C193 1036 174 1017 174 994 L174 994 Z " />
<glyph glyph-name="Uacute" unicode="&#xda;" horiz-adv-x="760" d="M385 811 L527 931 C565 964 591 989 591 995 C591 1018 572 1037 549 1037 C543 1037 519 1010 488 970 L375 822 L385 811 L385 811 Z M110 750 L110 749 L25 749 C25 745 26 728 25 723 L38 724 C81 727 110 684 110 618 L110 219 C110 81 184 -11 294 -11 C401 -11 502 51 545 144 L545 -1 L595 -1 L595 -2 C635 8 689 21 730 31 C730 35 729 52 730 57 L717 53 C674 39 645 75 645 141 L645 750 L545 750 L545 749 L460 749 C460 745 461 728 460 723 L473 724 C516 727 545 684 545 618 L545 189 C507 107 423 53 334 53 C260 53 210 119 210 219 L210 749 L110 750 L110 750 Z " />
<glyph glyph-name="Ucircumflex" unicode="&#xdb;" horiz-adv-x="760" d="M110 750 L110 749 L25 749 C25 745 26 728 25 723 L38 724 C81 727 110 684 110 618 L110 219 C110 81 184 -11 294 -11 C401 -11 502 51 545 144 L545 -1 L595 -1 L595 -2 C635 8 689 21 730 31 C730 35 729 52 730 57 L717 53 C674 39 645 75 645 141 L645 750 L545 750 L545 749 L460 749 C460 745 461 728 460 723 L473 724 C516 727 545 684 545 618 L545 189 C507 107 423 53 334 53 C260 53 210 119 210 219 L210 749 L110 750 L110 750 Z M408 1003 C402 1012 388 1033 378 1033 C368 1033 354 1012 348 1003 L226 814 L237 804 L377 943 L518 804 L529 814 L408 1003 L408 1003 Z " />
<glyph glyph-name="Udieresis" unicode="&#xdc;" horiz-adv-x="760" d="M453 864 C486 864 508 886 508 919 C508 952 486 974 453 974 C420 974 398 952 398 919 C398 886 420 864 453 864 L453 864 Z M303 864 C336 864 358 886 358 919 C358 952 336 974 303 974 C270 974 248 952 248 919 C248 886 270 864 303 864 L303 864 Z M110 750 L110 749 L25 749 C25 745 26 728 25 723 L38 724 C81 727 110 684 110 618 L110 219 C110 81 184 -11 294 -11 C401 -11 502 51 545 144 L545 -1 L595 -1 L595 -2 C635 8 689 21 730 31 C730 35 729 52 730 57 L717 53 C674 39 645 75 645 141 L645 750 L545 750 L545 749 L460 749 C460 745 461 728 460 723 L473 724 C516 727 545 684 545 618 L545 189 C507 107 423 53 334 53 C260 53 210 119 210 219 L210 749 L110 750 L110 750 Z " />
<glyph glyph-name="Yacute" unicode="&#xdd;" horiz-adv-x="764" d="M398 812 L540 932 C578 965 604 990 604 996 C604 1019 585 1038 562 1038 C556 1038 533 1011 501 971 L387 823 L398 812 L398 812 Z M557 615 L429 356 L267 615 L268 615 C225 684 227 729 274 726 L288 725 C288 730 288 747 288 750 L11 750 C11 745 12 730 11 725 L21 726 C52 729 98 692 139 634 L338 322 L338 150 C338 72 302 21 249 24 L233 25 C233 20 233 3 233 0 L543 0 C543 4 542 21 543 26 L527 25 C474 22 438 73 438 151 L438 326 L607 633 C645 692 696 730 739 727 L753 726 C753 731 753 746 753 751 L497 751 C497 747 498 730 497 725 L514 726 C574 729 588 683 555 615 L557 615 L557 615 Z " />
<glyph glyph-name="agrave" unicode="&#xe0;" horiz-adv-x="514" d="M524 102 L509 109 C503 77 482 56 455 56 C422 56 400 74 400 102 L400 355 C400 462 344 510 259 510 C143 510 65 414 65 360 C65 324 85 300 114 300 C141 300 159 325 159 343 C159 361 139 385 139 403 C139 432 175 484 229 484 C281 484 316 454 316 386 C316 385 316 328 316 265 C98 198 46 173 46 89 C46 30 91 -9 159 -9 C200 -9 252 17 317 84 C325 31 365 -4 421 -4 C472 -4 514 39 525 103 L524 102 L524 102 Z M56 747 C56 739 82 715 120 683 L262 563 L273 574 L159 722 C129 762 106 789 98 789 C75 789 56 770 56 747 L56 747 Z M316 246 C316 175 316 104 316 104 C269 56 232 38 204 38 C160 38 131 63 131 100 C131 181 167 202 316 248 L316 246 L316 246 Z " />
<glyph glyph-name="aacute" unicode="&#xe1;" horiz-adv-x="514" d="M267 562 L409 682 C447 715 473 740 473 746 C473 769 454 788 431 788 C425 788 402 761 370 721 L256 573 L267 562 L267 562 Z M524 102 L509 109 C503 77 482 56 455 56 C422 56 400 74 400 102 L400 355 C400 462 344 510 259 510 C143 510 65 414 65 360 C65 324 85 300 114 300 C141 300 159 325 159 343 C159 361 139 385 139 403 C139 432 175 484 229 484 C281 484 316 454 316 386 C316 385 316 328 316 265 C98 198 46 173 46 89 C46 30 91 -9 159 -9 C200 -9 252 17 317 84 C325 31 365 -4 421 -4 C472 -4 514 39 525 103 L524 102 L524 102 Z M316 246 C316 175 316 104 316 104 C269 56 232 38 204 38 C160 38 131 63 131 100 C131 181 167 202 316 248 L316 246 L316 246 Z " />
<glyph glyph-name="acircumflex" unicode="&#xe2;" horiz-adv-x="514" d="M524 102 L509 109 C503 77 482 56 455 56 C422 56 400 74 400 102 L400 355 C400 462 344 510 259 510 C143 510 65 414 65 360 C65 324 85 300 114 300 C141 300 159 325 159 343 C159 361 139 385 139 403 C139 432 175 484 229 484 C281 484 316 454 316 386 C316 385 316 328 316 265 C98 198 46 173 46 89 C46 30 91 -9 159 -9 C200 -9 252 17 317 84 C325 31 365 -4 421 -4 C472 -4 514 39 525 103 L524 102 L524 102 Z M290 756 C284 765 270 786 260 786 C250 786 236 765 230 756 L108 567 L120 557 L260 696 L400 557 L412 567 L290 756 L290 756 Z M316 246 C316 175 316 104 316 104 C269 56 232 38 204 38 C160 38 131 63 131 100 C131 181 167 202 316 248 L316 246 L316 246 Z " />
<glyph glyph-name="atilde" unicode="&#xe3;" horiz-adv-x="514" d="M119 620 C119 656 135 680 160 680 C212 680 281 615 333 615 C382 615 414 663 414 735 L399 735 C399 699 381 675 353 675 C301 675 232 740 180 740 C134 740 104 692 104 620 L119 620 L119 620 Z M524 102 L509 109 C503 77 482 56 455 56 C422 56 400 74 400 102 L400 355 C400 462 344 510 259 510 C143 510 65 414 65 360 C65 324 85 300 114 300 C141 300 159 325 159 343 C159 361 139 385 139 403 C139 432 175 484 229 484 C281 484 316 454 316 386 C316 385 316 328 316 265 C98 198 46 173 46 89 C46 30 91 -9 159 -9 C200 -9 252 17 317 84 C325 31 365 -4 421 -4 C472 -4 514 39 525 103 L524 102 L524 102 Z M316 246 C316 175 316 104 316 104 C269 56 232 38 204 38 C160 38 131 63 131 100 C131 181 167 202 316 248 L316 246 L316 246 Z " />
<glyph glyph-name="adieresis" unicode="&#xe4;" horiz-adv-x="514" d="M334 615 C367 615 389 637 389 670 C389 703 367 725 334 725 C301 725 279 703 279 670 C279 637 301 615 334 615 L334 615 Z M184 615 C217 615 239 637 239 670 C239 703 217 725 184 725 C151 725 129 703 129 670 C129 637 151 615 184 615 L184 615 Z M524 102 L509 109 C503 77 482 56 455 56 C422 56 400 74 400 102 L400 355 C400 462 344 510 259 510 C143 510 65 414 65 360 C65 324 85 300 114 300 C141 300 159 325 159 343 C159 361 139 385 139 403 C139 432 175 484 229 484 C281 484 316 454 316 386 C316 385 316 328 316 265 C98 198 46 173 46 89 C46 30 91 -9 159 -9 C200 -9 252 17 317 84 C325 31 365 -4 421 -4 C472 -4 514 39 525 103 L524 102 L524 102 Z M316 246 C316 175 316 104 316 104 C269 56 232 38 204 38 C160 38 131 63 131 100 C131 181 167 202 316 248 L316 246 L316 246 Z " />
<glyph glyph-name="aring" unicode="&#xe5;" horiz-adv-x="514" d="M187 655 C187 700 216 730 259 730 C303 730 332 700 332 655 C332 615 298 580 259 580 C220 580 187 615 187 655 L187 655 Z M162 655 C162 604 207 560 259 560 C312 560 357 604 357 655 C357 712 318 750 259 750 C201 750 162 712 162 655 L162 655 Z M524 102 L509 109 C503 77 482 56 455 56 C422 56 400 74 400 102 L400 355 C400 462 344 510 259 510 C143 510 65 414 65 360 C65 324 85 300 114 300 C141 300 159 325 159 343 C159 361 139 385 139 403 C139 432 175 484 229 484 C281 484 316 454 316 386 C316 385 316 328 316 265 C98 198 46 173 46 89 C46 30 91 -9 159 -9 C200 -9 252 17 317 84 C325 31 365 -4 421 -4 C472 -4 514 39 525 103 L524 102 L524 102 Z M316 246 C316 175 316 104 316 104 C269 56 232 38 204 38 C160 38 131 63 131 100 C131 181 167 202 316 248 L316 246 L316 246 Z " />
<glyph glyph-name="egrave" unicode="&#xe8;" horiz-adv-x="540" d="M97 746 C97 738 123 714 161 682 L303 562 L314 573 L200 721 C170 761 147 788 139 788 C116 788 97 769 97 746 L97 746 Z M140 340 L510 340 C488 462 408 510 301 510 C147 510 45 432 45 231 C45 86 138 -10 278 -10 C379 -10 467 47 498 133 L487 136 C467 82 392 46 298 46 C200 46 135 134 135 266 C135 293 137 318 141 340 L140 340 L140 340 Z M412 364 L145 360 C166 453 221 491 296 491 C348 491 390 455 411 364 L412 364 L412 364 Z " />
<glyph glyph-name="eacute" unicode="&#xe9;" horiz-adv-x="540" d="M309 562 L451 682 C489 715 515 740 515 746 C515 769 496 788 473 788 C467 788 444 761 412 721 L298 573 L309 562 L309 562 Z M140 340 L510 340 C488 462 408 510 301 510 C147 510 45 432 45 231 C45 86 138 -10 278 -10 C379 -10 467 47 498 133 L487 136 C467 82 392 46 298 46 C200 46 135 134 135 266 C135 293 137 318 141 340 L140 340 L140 340 Z M412 364 L145 360 C166 453 221 491 296 491 C348 491 390 455 411 364 L412 364 L412 364 Z " />
<glyph glyph-name="ecircumflex" unicode="&#xea;" horiz-adv-x="540" d="M331 755 C325 764 311 785 301 785 C291 785 277 764 271 755 L149 566 L161 556 L301 695 L441 556 L453 566 L331 755 L331 755 Z M140 340 L510 340 C488 462 408 510 301 510 C147 510 45 432 45 231 C45 86 138 -10 278 -10 C379 -10 467 47 498 133 L487 136 C467 82 392 46 298 46 C200 46 135 134 135 266 C135 293 137 318 141 340 L140 340 L140 340 Z M412 364 L145 360 C166 453 221 491 296 491 C348 491 390 455 411 364 L412 364 L412 364 Z " />
<glyph glyph-name="edieresis" unicode="&#xeb;" horiz-adv-x="540" d="M376 615 C409 615 431 637 431 670 C431 703 409 725 376 725 C343 725 321 703 321 670 C321 637 343 615 376 615 L376 615 Z M226 615 C259 615 281 637 281 670 C281 703 259 725 226 725 C193 725 171 703 171 670 C171 637 193 615 226 615 L226 615 Z M140 340 L510 340 C488 462 408 510 301 510 C147 510 45 432 45 231 C45 86 138 -10 278 -10 C379 -10 467 47 498 133 L487 136 C467 82 392 46 298 46 C200 46 135 134 135 266 C135 293 137 318 141 340 L140 340 L140 340 Z M412 364 L145 360 C166 453 221 491 296 491 C348 491 390 455 411 364 L412 364 L412 364 Z " />
<glyph glyph-name="igrave" unicode="&#xec;" horiz-adv-x="320" d="M-36 744 C-36 736 -10 712 28 680 L170 560 L180 571 L67 719 C37 759 14 786 6 786 C-17 786 -36 767 -36 744 L-36 744 Z M168 500 L128 490 L125 490 L125 489 L60 473 C60 469 61 452 60 447 L70 450 C103 461 125 437 125 392 L125 94 C125 49 103 20 70 23 L60 24 C60 19 60 2 60 -1 L275 -1 C275 3 274 20 275 25 L265 24 C232 21 210 50 210 95 L210 500 L168 500 L168 500 Z " />
<glyph glyph-name="iacute" unicode="&#xed;" horiz-adv-x="320" d="M-36 744 C-36 736 -10 712 28 680 L170 560 L180 571 L67 719 C37 759 14 786 6 786 C-17 786 -36 767 -36 744 L-36 744 Z M168 500 L128 490 L125 490 L125 489 L60 473 C60 469 61 452 60 447 L70 450 C103 461 125 437 125 392 L125 94 C125 49 103 20 70 23 L60 24 C60 19 60 2 60 -1 L275 -1 C275 3 274 20 275 25 L265 24 C232 21 210 50 210 95 L210 500 L168 500 L168 500 Z " />
<glyph glyph-name="icircumflex" unicode="&#xee;" horiz-adv-x="320" d="M198 753 C192 762 178 783 168 783 C158 783 144 762 138 753 L16 564 L27 554 L167 693 L308 554 L319 564 L198 753 L198 753 Z M168 500 L128 490 L125 490 L125 489 L60 473 C60 469 61 452 60 447 L70 450 C103 461 125 437 125 392 L125 94 C125 49 103 20 70 23 L60 24 C60 19 60 2 60 -1 L275 -1 C275 3 274 20 275 25 L265 24 C232 21 210 50 210 95 L210 500 L168 500 L168 500 Z " />
<glyph glyph-name="idieresis" unicode="&#xef;" horiz-adv-x="320" d="M243 613 C276 613 298 635 298 668 C298 701 276 723 243 723 C210 723 188 701 188 668 C188 635 210 613 243 613 L243 613 Z M93 613 C126 613 148 635 148 668 C148 701 126 723 93 723 C60 723 38 701 38 668 C38 635 60 613 93 613 L93 613 Z M168 500 L128 490 L125 490 L125 489 L60 473 C60 469 61 452 60 447 L70 450 C103 461 125 437 125 392 L125 94 C125 49 103 20 70 23 L60 24 C60 19 60 2 60 -1 L275 -1 C275 3 274 20 275 25 L265 24 C232 21 210 50 210 95 L210 500 L168 500 L168 500 Z " />
<glyph glyph-name="ntilde" unicode="&#xf1;" horiz-adv-x="569" d="M139 618 C139 654 155 678 180 678 C232 678 301 613 353 613 C402 613 434 661 434 733 L419 733 C419 697 401 673 373 673 C321 673 252 738 200 738 C154 738 124 690 124 618 L139 618 L139 618 Z M127 500 L87 490 L84 490 L84 489 L19 473 C19 473 21 470 21 469 C21 466 19 457 19 457 L29 456 C62 456 84 414 84 351 L84 95 C84 50 62 21 29 24 L19 25 C19 20 19 3 19 0 L234 0 C234 4 233 21 234 26 L224 25 C191 22 169 51 169 96 L169 361 C199 414 246 449 286 449 C354 449 389 402 389 331 L389 96 C389 51 367 22 334 25 L324 26 C324 21 324 4 324 1 L539 1 C539 5 538 22 539 27 L529 26 C496 23 474 52 474 97 L474 332 C474 440 427 512 337 512 C280 512 212 462 169 387 L169 502 L127 500 L127 500 Z " />
<glyph glyph-name="ograve" unicode="&#xf2;" horiz-adv-x="613" d="M139 250 C139 390 206 484 307 484 C408 484 475 390 475 250 C475 110 408 16 307 16 C206 16 139 110 139 250 L139 250 Z M45 250 C45 94 150 -10 307 -10 C464 -10 568 94 568 250 C568 406 464 510 307 510 C150 510 45 406 45 250 L45 250 Z M103 746 C103 738 129 714 167 682 L309 562 L320 573 L206 721 C176 761 153 788 145 788 C122 788 103 769 103 746 L103 746 Z " />
<glyph glyph-name="oacute" unicode="&#xf3;" horiz-adv-x="613" d="M315 562 L457 682 C495 715 521 740 521 746 C521 769 502 788 479 788 C473 788 450 761 418 721 L304 573 L315 562 L315 562 Z M139 250 C139 390 206 484 307 484 C408 484 475 390 475 250 C475 110 408 16 307 16 C206 16 139 110 139 250 L139 250 Z M45 250 C45 94 150 -10 307 -10 C464 -10 568 94 568 250 C568 406 464 510 307 510 C150 510 45 406 45 250 L45 250 Z " />
<glyph glyph-name="ocircumflex" unicode="&#xf4;" horiz-adv-x="613" d="M139 250 C139 390 206 484 307 484 C408 484 475 390 475 250 C475 110 408 16 307 16 C206 16 139 110 139 250 L139 250 Z M45 250 C45 94 150 -10 307 -10 C464 -10 568 94 568 250 C568 406 464 510 307 510 C150 510 45 406 45 250 L45 250 Z M337 755 C331 764 317 785 307 785 C297 785 283 764 277 755 L155 566 L167 556 L307 695 L447 556 L459 566 L337 755 L337 755 Z " />
<glyph glyph-name="otilde" unicode="&#xf5;" horiz-adv-x="613" d="M167 620 C167 656 183 680 208 680 C260 680 329 615 381 615 C430 615 462 663 462 735 L447 735 C447 699 429 675 401 675 C349 675 280 740 228 740 C182 740 152 692 152 620 L167 620 L167 620 Z M139 250 C139 390 206 484 307 484 C408 484 475 390 475 250 C475 110 408 16 307 16 C206 16 139 110 139 250 L139 250 Z M45 250 C45 94 150 -10 307 -10 C464 -10 568 94 568 250 C568 406 464 510 307 510 C150 510 45 406 45 250 L45 250 Z " />
<glyph glyph-name="odieresis" unicode="&#xf6;" horiz-adv-x="613" d="M382 615 C415 615 437 637 437 670 C437 703 415 725 382 725 C349 725 327 703 327 670 C327 637 349 615 382 615 L382 615 Z M232 615 C265 615 287 637 287 670 C287 703 265 725 232 725 C199 725 177 703 177 670 C177 637 199 615 232 615 L232 615 Z M139 250 C139 390 206 484 307 484 C408 484 475 390 475 250 C475 110 408 16 307 16 C206 16 139 110 139 250 L139 250 Z M45 250 C45 94 150 -10 307 -10 C464 -10 568 94 568 250 C568 406 464 510 307 510 C150 510 45 406 45 250 L45 250 Z " />
<glyph glyph-name="oslash" unicode="&#xf8;" horiz-adv-x="613" d="M56 -21 C56 -21 82 5 129 52 C174 13 235 -9 307 -9 C464 -9 568 95 568 251 C568 323 546 384 507 429 C530 452 554 476 579 501 L557 523 C532 498 508 474 485 451 C440 490 379 512 307 512 C150 512 45 408 45 252 C45 180 67 119 106 74 C59 28 33 3 33 3 L56 -21 L56 -21 Z M438 406 C324 292 229 197 160 128 C146 163 138 205 138 252 C138 392 205 486 306 486 C363 486 409 456 438 405 L438 406 L438 406 Z M452 375 C466 340 474 298 474 251 C474 111 407 17 306 17 C249 17 203 47 174 98 C242 166 337 261 452 375 L452 375 Z " />
<glyph glyph-name="ugrave" unicode="&#xf9;" horiz-adv-x="560" d="M71 748 C71 740 97 716 135 684 L277 564 L288 575 L174 723 C144 763 121 790 113 790 C90 790 71 771 71 748 L71 748 Z M470 10 L470 11 C496 18 523 25 545 31 C545 35 544 52 545 57 L534 53 C496 41 470 78 470 144 L470 502 L428 502 L428 504 L320 504 C320 500 321 483 320 478 L330 479 C363 482 385 453 385 408 L385 145 C359 87 309 49 257 49 C202 49 165 93 165 160 L165 500 L15 500 C15 496 16 479 15 474 L25 475 C58 478 80 449 80 404 L80 159 C80 57 135 -11 217 -11 C286 -11 352 40 385 118 L385 -1 L428 -1 C438 4 456 9 470 9 L470 10 L470 10 Z " />
<glyph glyph-name="uacute" unicode="&#xfa;" horiz-adv-x="560" d="M283 564 L425 684 C463 717 489 742 489 748 C489 771 470 790 447 790 C441 790 418 763 386 723 L272 575 L283 564 L283 564 Z M470 10 L470 11 C496 18 523 25 545 31 C545 35 544 52 545 57 L534 53 C496 41 470 78 470 144 L470 502 L428 502 L428 504 L320 504 C320 500 321 483 320 478 L330 479 C363 482 385 453 385 408 L385 145 C359 87 309 49 257 49 C202 49 165 93 165 160 L165 500 L15 500 C15 496 16 479 15 474 L25 475 C58 478 80 449 80 404 L80 159 C80 57 135 -11 217 -11 C286 -11 352 40 385 118 L385 -1 L428 -1 C438 4 456 9 470 9 L470 10 L470 10 Z " />
<glyph glyph-name="ucircumflex" unicode="&#xfb;" horiz-adv-x="560" d="M305 757 C299 766 285 787 275 787 C265 787 251 766 245 757 L123 568 L135 558 L275 697 L415 558 L427 568 L305 757 L305 757 Z M470 10 L470 11 C496 18 523 25 545 31 C545 35 544 52 545 57 L534 53 C496 41 470 78 470 144 L470 502 L428 502 L428 504 L320 504 C320 500 321 483 320 478 L330 479 C363 482 385 453 385 408 L385 145 C359 87 309 49 257 49 C202 49 165 93 165 160 L165 500 L15 500 C15 496 16 479 15 474 L25 475 C58 478 80 449 80 404 L80 159 C80 57 135 -11 217 -11 C286 -11 352 40 385 118 L385 -1 L428 -1 C438 4 456 9 470 9 L470 10 L470 10 Z " />
<glyph glyph-name="udieresis" unicode="&#xfc;" horiz-adv-x="560" d="M350 617 C383 617 405 639 405 672 C405 705 383 727 350 727 C317 727 295 705 295 672 C295 639 317 617 350 617 L350 617 Z M200 617 C233 617 255 639 255 672 C255 705 233 727 200 727 C167 727 145 705 145 672 C145 639 167 617 200 617 L200 617 Z M470 10 L470 11 C496 18 523 25 545 31 C545 35 544 52 545 57 L534 53 C496 41 470 78 470 144 L470 502 L428 502 L428 504 L320 504 C320 500 321 483 320 478 L330 479 C363 482 385 453 385 408 L385 145 C359 87 309 49 257 49 C202 49 165 93 165 160 L165 500 L15 500 C15 496 16 479 15 474 L25 475 C58 478 80 449 80 404 L80 159 C80 57 135 -11 217 -11 C286 -11 352 40 385 118 L385 -1 L428 -1 C438 4 456 9 470 9 L470 10 L470 10 Z " />
<glyph glyph-name="ydieresis" unicode="&#xff;" horiz-adv-x="558" d="M381 615 C414 615 436 637 436 670 C436 703 414 725 381 725 C348 725 326 703 326 670 C326 637 348 615 381 615 L381 615 Z M231 615 C264 615 286 637 286 670 C286 703 264 725 231 725 C198 725 176 703 176 670 C176 637 198 615 231 615 L231 615 Z M121 380 L280 1 C259 -51 240 -104 220 -156 C211 -179 197 -194 193 -194 C171 -194 166 -165 143 -165 C116 -165 98 -183 98 -210 C98 -240 118 -260 148 -260 C174 -260 220 -223 241 -167 L301 -10 C349 121 397 252 445 383 C470 442 505 479 534 476 L544 475 C544 480 544 495 544 500 L384 500 C384 496 385 479 384 474 L393 475 C420 478 427 441 410 382 L323 118 L219 365 C191 433 190 479 219 476 L227 475 C227 480 227 497 227 500 L15 500 C15 495 16 480 15 475 L24 476 C54 479 91 440 119 379 L121 380 L121 380 Z " />
<glyph glyph-name="Amacron" unicode="&#x100;" horiz-adv-x="796" d="M271 895 L571 895 L571 954 L271 954 L271 895 L271 895 Z M772 31 C725 28 673 89 642 185 L471 720 C471 720 460 770 455 770 L445 770 C449 747 419 727 371 720 C372 717 373 713 374 710 L200 182 C168 88 103 28 36 31 L16 31 C16 31 18 23 18 20 C18 15 16 0 16 0 L306 0 C306 4 305 26 306 31 L287 31 C225 28 201 83 224 171 L258 279 L509 279 L538 185 C568 89 546 27 481 30 L462 30 C462 25 462 3 462 -1 L787 -1 C787 4 786 24 787 30 L772 31 L772 31 Z M267 304 L385 677 L502 304 L267 304 L267 304 Z " />
<glyph glyph-name="amacron" unicode="&#x101;" horiz-adv-x="514" d="M109 645 L409 645 L409 704 L109 704 L109 645 L109 645 Z M524 102 L509 109 C503 77 482 56 455 56 C422 56 400 74 400 102 L400 355 C400 462 344 510 259 510 C143 510 65 414 65 360 C65 324 85 300 114 300 C141 300 159 325 159 343 C159 361 139 385 139 403 C139 432 175 484 229 484 C281 484 316 454 316 386 C316 385 316 328 316 265 C98 198 46 173 46 89 C46 30 91 -9 159 -9 C200 -9 252 17 317 84 C325 31 365 -4 421 -4 C472 -4 514 39 525 103 L524 102 L524 102 Z M316 246 C316 175 316 104 316 104 C269 56 232 38 204 38 C160 38 131 63 131 100 C131 181 167 202 316 248 L316 246 L316 246 Z " />
<glyph glyph-name="Abreve" unicode="&#x102;" horiz-adv-x="796" d="M287 994 C294 920 347 870 421 870 C496 870 550 919 556 992 L538 995 C535 956 488 930 421 930 C354 930 308 957 304 997 L287 994 L287 994 Z M772 31 C725 28 673 89 642 185 L471 720 C471 720 460 770 455 770 L445 770 C449 747 419 727 371 720 C372 717 373 713 374 710 L200 182 C168 88 103 28 36 31 L16 31 C16 31 18 23 18 20 C18 15 16 0 16 0 L306 0 C306 4 305 26 306 31 L287 31 C225 28 201 83 224 171 L258 279 L509 279 L538 185 C568 89 546 27 481 30 L462 30 C462 25 462 3 462 -1 L787 -1 C787 4 786 24 787 30 L772 31 L772 31 Z M267 304 L385 677 L502 304 L267 304 L267 304 Z " />
<glyph glyph-name="abreve" unicode="&#x103;" horiz-adv-x="514" d="M125 744 C132 670 185 620 259 620 C334 620 388 669 394 742 L376 745 C373 706 326 680 259 680 C192 680 146 707 142 747 L125 744 L125 744 Z M524 102 L509 109 C503 77 482 56 455 56 C422 56 400 74 400 102 L400 355 C400 462 344 510 259 510 C143 510 65 414 65 360 C65 324 85 300 114 300 C141 300 159 325 159 343 C159 361 139 385 139 403 C139 432 175 484 229 484 C281 484 316 454 316 386 C316 385 316 328 316 265 C98 198 46 173 46 89 C46 30 91 -9 159 -9 C200 -9 252 17 317 84 C325 31 365 -4 421 -4 C472 -4 514 39 525 103 L524 102 L524 102 Z M316 246 C316 175 316 104 316 104 C269 56 232 38 204 38 C160 38 131 63 131 100 C131 181 167 202 316 248 L316 246 L316 246 Z " />
<glyph glyph-name="Cacute" unicode="&#x106;" horiz-adv-x="740" d="M422 812 L564 932 C602 965 628 990 628 996 C628 1019 609 1038 586 1038 C580 1038 557 1011 525 971 L411 823 L422 812 L422 812 Z M670 526 C670 530 698 530 698 526 L698 747 C698 744 676 744 676 747 L673 728 C670 711 628 714 567 735 C527 751 478 760 414 760 C196 760 50 606 50 375 C50 144 191 -10 403 -10 C468 -10 521 0 565 18 C627 39 670 40 673 20 L676 -1 C676 2 698 2 698 -1 L698 223 C698 219 670 219 670 223 L662 195 C640 116 578 50 505 25 C477 16 447 11 413 11 C261 11 160 156 160 373 C160 589 266 733 424 733 C454 733 480 730 504 724 C576 703 639 636 662 553 L670 526 L670 526 Z M670 525 L670 525 L670 525 L670 525 Z M683 131 L683 131 L683 131 L683 131 Z M670 223 L670 223 L670 223 Z " />
<glyph glyph-name="Ccircumflex" unicode="&#x108;" horiz-adv-x="740" d="M444 1005 C438 1014 424 1035 414 1035 C404 1035 390 1014 384 1005 L262 816 L274 806 L414 945 L554 806 L566 816 L444 1005 L444 1005 Z M670 526 C670 530 698 530 698 526 L698 747 C698 744 676 744 676 747 L673 728 C670 711 628 714 567 735 C527 751 478 760 414 760 C196 760 50 606 50 375 C50 144 191 -10 403 -10 C468 -10 521 0 565 18 C627 39 670 40 673 20 L676 -1 C676 2 698 2 698 -1 L698 223 C698 219 670 219 670 223 L662 195 C640 116 578 50 505 25 C477 16 447 11 413 11 C261 11 160 156 160 373 C160 589 266 733 424 733 C454 733 480 730 504 724 C576 703 639 636 662 553 L670 526 L670 526 Z M670 525 L670 525 L670 525 L670 525 Z M683 131 L683 131 L683 131 L683 131 Z M670 223 L670 223 L670 223 Z " />
<glyph glyph-name="Cdot" unicode="&#x10a;" horiz-adv-x="740" d="M414 865 C447 865 469 887 469 920 C469 953 447 975 414 975 C381 975 359 953 359 920 C359 887 381 865 414 865 L414 865 Z M670 526 C670 530 698 530 698 526 L698 747 C698 744 676 744 676 747 L673 728 C670 711 628 714 567 735 C527 751 478 760 414 760 C196 760 50 606 50 375 C50 144 191 -10 403 -10 C468 -10 521 0 565 18 C627 39 670 40 673 20 L676 -1 C676 2 698 2 698 -1 L698 223 C698 219 670 219 670 223 L662 195 C640 116 578 50 505 25 C477 16 447 11 413 11 C261 11 160 156 160 373 C160 589 266 733 424 733 C454 733 480 730 504 724 C576 703 639 636 662 553 L670 526 L670 526 Z M670 525 L670 525 L670 525 L670 525 Z M683 131 L683 131 L683 131 L683 131 Z M670 223 L670 223 L670 223 Z " />
<glyph glyph-name="cdot" unicode="&#x10b;" horiz-adv-x="503" d="M297 615 C330 615 352 637 352 670 C352 703 330 725 297 725 C264 725 242 703 242 670 C242 637 264 615 297 615 L297 615 Z M473 128 L461 133 C437 78 377 42 311 42 C204 42 133 134 133 273 C133 404 197 491 292 491 C331 491 369 457 388 405 C397 380 414 363 431 363 C465 363 482 380 473 405 C450 468 380 510 297 510 C146 510 45 400 45 236 C45 88 139 -10 281 -10 C359 -10 436 45 473 128 L473 128 Z " />
<glyph glyph-name="Ccaron" unicode="&#x10c;" horiz-adv-x="740" d="M554 1044 L414 905 L274 1044 L262 1034 L384 845 C390 836 404 815 414 815 C424 815 438 836 444 845 L566 1034 L554 1044 L554 1044 Z M670 526 C670 530 698 530 698 526 L698 747 C698 744 676 744 676 747 L673 728 C670 711 628 714 567 735 C527 751 478 760 414 760 C196 760 50 606 50 375 C50 144 191 -10 403 -10 C468 -10 521 0 565 18 C627 39 670 40 673 20 L676 -1 C676 2 698 2 698 -1 L698 223 C698 219 670 219 670 223 L662 195 C640 116 578 50 505 25 C477 16 447 11 413 11 C261 11 160 156 160 373 C160 589 266 733 424 733 C454 733 480 730 504 724 C576 703 639 636 662 553 L670 526 L670 526 Z M670 525 L670 525 L670 525 L670 525 Z M683 131 L683 131 L683 131 L683 131 Z M670 223 L670 223 L670 223 Z " />
<glyph glyph-name="ccaron" unicode="&#x10d;" horiz-adv-x="503" d="M437 794 L297 655 L157 794 L145 784 L267 595 C273 586 287 565 297 565 C307 565 321 586 327 595 L449 784 L437 794 L437 794 Z M473 128 L461 133 C437 78 377 42 311 42 C204 42 133 134 133 273 C133 404 197 491 292 491 C331 491 369 457 388 405 C397 380 414 363 431 363 C465 363 482 380 473 405 C450 468 380 510 297 510 C146 510 45 400 45 236 C45 88 139 -10 281 -10 C359 -10 436 45 473 128 L473 128 Z " />
<glyph glyph-name="Dcaron" unicode="&#x10e;" horiz-adv-x="853" d="M557 1044 L416 905 L276 1044 L265 1034 L387 845 C393 836 407 815 417 815 C427 815 441 836 447 845 L568 1034 L557 1044 L557 1044 Z M295 20 C250 20 245 99 245 218 L245 730 L285 730 C551 730 688 588 688 375 C688 141 531 20 295 20 L295 20 Z M325 0 C609 0 798 128 798 375 C798 600 651 750 365 750 L60 750 C60 746 61 729 60 724 L73 725 C116 728 145 685 145 619 L145 129 C145 63 116 20 73 23 L60 24 C60 19 60 2 60 -1 L325 0 L325 0 Z " />
<glyph glyph-name="dcaron" unicode="&#x10f;" horiz-adv-x="600" d="M587 759 C570 759 560 696 556 651 L546 540 L561 537 L600 642 C615 681 625 723 625 747 C625 756 610 759 587 759 L587 759 Z M500 10 L500 11 C529 18 560 26 585 32 C585 36 584 53 585 58 L572 54 C529 41 500 77 500 143 L500 751 L458 751 L458 753 C426 746 382 735 350 727 C350 727 352 724 352 723 C352 720 350 711 350 711 L360 710 C393 710 415 668 415 605 L415 478 C378 498 331 511 280 511 C125 511 45 407 45 252 C45 98 130 -4 257 -4 C319 -4 381 24 415 67 L415 1 L458 1 C468 6 485 11 499 11 L500 10 L500 10 Z M414 376 L414 97 C383 57 335 31 291 31 C195 31 131 129 131 275 C131 402 185 486 289 486 C344 486 396 435 414 376 L414 376 Z " />
<glyph glyph-name="Emacron" unicode="&#x112;" horiz-adv-x="652" d="M201 895 L501 895 L501 954 L201 954 L201 895 L201 895 Z M556 740 L555 750 L40 750 C40 746 41 729 40 724 L56 725 C109 728 145 677 145 599 L145 149 C145 71 109 20 56 23 L40 24 C40 19 40 2 40 -1 L580 -1 L582 9 L582 9 C589 50 599 104 606 145 C606 145 602 143 601 143 C599 143 585 145 585 145 L578 126 C558 70 494 31 412 22 C263 35 245 110 245 217 L245 384 L310 384 C394 384 458 338 470 269 L474 249 C479 249 490 251 495 249 L495 543 C495 543 491 541 490 541 C488 541 474 543 474 543 L470 523 C458 454 394 408 310 408 L245 408 L245 728 L373 728 C457 728 527 682 547 613 L553 593 C558 593 569 595 574 593 C569 637 562 695 557 739 L556 740 L556 740 Z " />
<glyph glyph-name="emacron" unicode="&#x113;" horiz-adv-x="540" d="M151 645 L451 645 L451 704 L151 704 L151 645 L151 645 Z M140 340 L510 340 C488 462 408 510 301 510 C147 510 45 432 45 231 C45 86 138 -10 278 -10 C379 -10 467 47 498 133 L487 136 C467 82 392 46 298 46 C200 46 135 134 135 266 C135 293 137 318 141 340 L140 340 L140 340 Z M412 364 L145 360 C166 453 221 491 296 491 C348 491 390 455 411 364 L412 364 L412 364 Z " />
<glyph glyph-name="Ebreve" unicode="&#x114;" horiz-adv-x="652" d="M217 994 C224 920 277 870 351 870 C426 870 480 919 486 992 L468 995 C465 956 418 930 351 930 C284 930 238 957 234 997 L217 994 L217 994 Z M556 740 L555 750 L40 750 C40 746 41 729 40 724 L56 725 C109 728 145 677 145 599 L145 149 C145 71 109 20 56 23 L40 24 C40 19 40 2 40 -1 L580 -1 L582 9 L582 9 C589 50 599 104 606 145 C606 145 602 143 601 143 C599 143 585 145 585 145 L578 126 C558 70 494 31 412 22 C263 35 245 110 245 217 L245 384 L310 384 C394 384 458 338 470 269 L474 249 C479 249 490 251 495 249 L495 543 C495 543 491 541 490 541 C488 541 474 543 474 543 L470 523 C458 454 394 408 310 408 L245 408 L245 728 L373 728 C457 728 527 682 547 613 L553 593 C558 593 569 595 574 593 C569 637 562 695 557 739 L556 740 L556 740 Z " />
<glyph glyph-name="ebreve" unicode="&#x115;" horiz-adv-x="540" d="M167 744 C174 670 227 620 301 620 C376 620 430 669 436 742 L418 745 C415 706 368 680 301 680 C234 680 188 707 184 747 L167 744 L167 744 Z M140 340 L510 340 C488 462 408 510 301 510 C147 510 45 432 45 231 C45 86 138 -10 278 -10 C379 -10 467 47 498 133 L487 136 C467 82 392 46 298 46 C200 46 135 134 135 266 C135 293 137 318 141 340 L140 340 L140 340 Z M412 364 L145 360 C166 453 221 491 296 491 C348 491 390 455 411 364 L412 364 L412 364 Z " />
<glyph glyph-name="Edot" unicode="&#x116;" horiz-adv-x="652" d="M351 865 C384 865 406 887 406 920 C406 953 384 975 351 975 C318 975 296 953 296 920 C296 887 318 865 351 865 L351 865 Z M556 740 L555 750 L40 750 C40 746 41 729 40 724 L56 725 C109 728 145 677 145 599 L145 149 C145 71 109 20 56 23 L40 24 C40 19 40 2 40 -1 L580 -1 L582 9 L582 9 C589 50 599 104 606 145 C606 145 602 143 601 143 C599 143 585 145 585 145 L578 126 C558 70 494 31 412 22 C263 35 245 110 245 217 L245 384 L310 384 C394 384 458 338 470 269 L474 249 C479 249 490 251 495 249 L495 543 C495 543 491 541 490 541 C488 541 474 543 474 543 L470 523 C458 454 394 408 310 408 L245 408 L245 728 L373 728 C457 728 527 682 547 613 L553 593 C558 593 569 595 574 593 C569 637 562 695 557 739 L556 740 L556 740 Z " />
<glyph glyph-name="edot" unicode="&#x117;" horiz-adv-x="540" d="M301 615 C334 615 356 637 356 670 C356 703 334 725 301 725 C268 725 246 703 246 670 C246 637 268 615 301 615 L301 615 Z M140 340 L510 340 C488 462 408 510 301 510 C147 510 45 432 45 231 C45 86 138 -10 278 -10 C379 -10 467 47 498 133 L487 136 C467 82 392 46 298 46 C200 46 135 134 135 266 C135 293 137 318 141 340 L140 340 L140 340 Z M412 364 L145 360 C166 453 221 491 296 491 C348 491 390 455 411 364 L412 364 L412 364 Z " />
<glyph glyph-name="Ecaron" unicode="&#x11a;" horiz-adv-x="652" d="M491 1044 L351 905 L211 1044 L199 1034 L321 845 C327 836 341 815 351 815 C361 815 375 836 381 845 L503 1034 L491 1044 L491 1044 Z M556 740 L555 750 L40 750 C40 746 41 729 40 724 L56 725 C109 728 145 677 145 599 L145 149 C145 71 109 20 56 23 L40 24 C40 19 40 2 40 -1 L580 -1 L582 9 L582 9 C589 50 599 104 606 145 C606 145 602 143 601 143 C599 143 585 145 585 145 L578 126 C558 70 494 31 412 22 C263 35 245 110 245 217 L245 384 L310 384 C394 384 458 338 470 269 L474 249 C479 249 490 251 495 249 L495 543 C495 543 491 541 490 541 C488 541 474 543 474 543 L470 523 C458 454 394 408 310 408 L245 408 L245 728 L373 728 C457 728 527 682 547 613 L553 593 C558 593 569 595 574 593 C569 637 562 695 557 739 L556 740 L556 740 Z " />
<glyph glyph-name="ecaron" unicode="&#x11b;" horiz-adv-x="540" d="M441 794 L301 655 L161 794 L149 784 L271 595 C277 586 291 565 301 565 C311 565 325 586 331 595 L453 784 L441 794 L441 794 Z M140 340 L510 340 C488 462 408 510 301 510 C147 510 45 432 45 231 C45 86 138 -10 278 -10 C379 -10 467 47 498 133 L487 136 C467 82 392 46 298 46 C200 46 135 134 135 266 C135 293 137 318 141 340 L140 340 L140 340 Z M412 364 L145 360 C166 453 221 491 296 491 C348 491 390 455 411 364 L412 364 L412 364 Z " />
<glyph glyph-name="Gcircumflex" unicode="&#x11c;" horiz-adv-x="817" d="M575 155 L576 155 C576 139 576 124 576 109 C574 49 516 10 429 10 C268 10 161 156 161 375 C161 591 267 735 425 735 C455 735 481 732 505 726 C577 705 640 638 663 555 L671 527 C671 531 699 531 699 527 L699 748 C699 745 677 745 677 748 L674 729 C671 712 629 715 568 736 C528 752 479 761 415 761 C197 761 51 607 51 376 C51 145 196 -9 413 -9 C563 -9 664 19 753 60 L746 75 C724 65 701 56 676 48 L676 157 C676 244 708 299 757 296 L771 295 C771 301 771 323 771 327 L481 327 C481 323 482 301 481 295 L495 296 C544 299 576 244 576 157 L575 155 L575 155 Z M445 1007 C439 1016 425 1037 415 1037 C405 1037 391 1016 385 1007 L263 818 L275 808 L415 947 L555 808 L567 818 L445 1007 L445 1007 Z M671 528 L671 528 L671 528 L671 528 Z " />
<glyph glyph-name="Gbreve" unicode="&#x11e;" horiz-adv-x="817" d="M280 994 C287 920 340 870 414 870 C489 870 543 919 549 992 L531 995 C528 956 481 930 414 930 C347 930 301 957 297 997 L280 994 L280 994 Z M575 155 L576 155 C576 139 576 124 576 109 C574 49 516 10 429 10 C268 10 161 156 161 375 C161 591 267 735 425 735 C455 735 481 732 505 726 C577 705 640 638 663 555 L671 527 C671 531 699 531 699 527 L699 748 C699 745 677 745 677 748 L674 729 C671 712 629 715 568 736 C528 752 479 761 415 761 C197 761 51 607 51 376 C51 145 196 -9 413 -9 C563 -9 664 19 753 60 L746 75 C724 65 701 56 676 48 L676 157 C676 244 708 299 757 296 L771 295 C771 301 771 323 771 327 L481 327 C481 323 482 301 481 295 L495 296 C544 299 576 244 576 157 L575 155 L575 155 Z M671 528 L671 528 L671 528 L671 528 Z " />
<glyph glyph-name="gbreve" unicode="&#x11f;" horiz-adv-x="520" d="M121 744 C128 670 181 620 255 620 C330 620 384 669 390 742 L372 745 C369 706 322 680 255 680 C188 680 142 707 138 747 L121 744 L121 744 Z M541 479 C541 510 519 530 486 530 C452 530 415 503 391 461 C359 492 312 510 255 510 C147 510 75 446 75 350 C75 277 115 222 181 199 C103 186 55 151 55 104 C55 53 87 16 138 4 C81 -14 44 -52 44 -95 C44 -176 132 -230 264 -230 C396 -230 484 -165 484 -68 C484 23 432 84 298 84 L180 84 C134 84 103 102 103 130 C103 165 163 188 254 188 C362 188 434 253 434 350 C434 389 422 423 401 449 C413 466 426 477 436 477 C457 477 484 442 505 442 C527 442 541 457 541 479 L541 479 Z M255 208 C198 208 160 265 160 350 C160 434 198 490 255 490 C312 490 350 434 350 350 C350 265 312 208 255 208 L255 208 Z M159 1 C165 0 171 0 177 0 L291 0 C380 0 414 -35 414 -88 C414 -162 356 -211 270 -211 C178 -211 116 -157 116 -75 C116 -42 133 -14 159 1 L159 1 Z " />
<glyph glyph-name="Gdot" unicode="&#x120;" horiz-adv-x="817" d="M414 865 C447 865 469 887 469 920 C469 953 447 975 414 975 C381 975 359 953 359 920 C359 887 381 865 414 865 L414 865 Z M575 155 L576 155 C576 139 576 124 576 109 C574 49 516 10 429 10 C268 10 161 156 161 375 C161 591 267 735 425 735 C455 735 481 732 505 726 C577 705 640 638 663 555 L671 527 C671 531 699 531 699 527 L699 748 C699 745 677 745 677 748 L674 729 C671 712 629 715 568 736 C528 752 479 761 415 761 C197 761 51 607 51 376 C51 145 196 -9 413 -9 C563 -9 664 19 753 60 L746 75 C724 65 701 56 676 48 L676 157 C676 244 708 299 757 296 L771 295 C771 301 771 323 771 327 L481 327 C481 323 482 301 481 295 L495 296 C544 299 576 244 576 157 L575 155 L575 155 Z M671 528 L671 528 L671 528 L671 528 Z " />
<glyph glyph-name="gdot" unicode="&#x121;" horiz-adv-x="520" d="M255 615 C288 615 310 637 310 670 C310 703 288 725 255 725 C222 725 200 703 200 670 C200 637 222 615 255 615 L255 615 Z M541 479 C541 510 519 530 486 530 C452 530 415 503 391 461 C359 492 312 510 255 510 C147 510 75 446 75 350 C75 277 115 222 181 199 C103 186 55 151 55 104 C55 53 87 16 138 4 C81 -14 44 -52 44 -95 C44 -176 132 -230 264 -230 C396 -230 484 -165 484 -68 C484 23 432 84 298 84 L180 84 C134 84 103 102 103 130 C103 165 163 188 254 188 C362 188 434 253 434 350 C434 389 422 423 401 449 C413 466 426 477 436 477 C457 477 484 442 505 442 C527 442 541 457 541 479 L541 479 Z M255 208 C198 208 160 265 160 350 C160 434 198 490 255 490 C312 490 350 434 350 350 C350 265 312 208 255 208 L255 208 Z M159 1 C165 0 171 0 177 0 L291 0 C380 0 414 -35 414 -88 C414 -162 356 -211 270 -211 C178 -211 116 -157 116 -75 C116 -42 133 -14 159 1 L159 1 Z " />
<glyph glyph-name="Hcircumflex" unicode="&#x124;" horiz-adv-x="861" d="M479 1005 C473 1014 459 1035 449 1035 C439 1035 425 1014 419 1005 L297 816 L308 806 L448 945 L589 806 L600 816 L479 1005 L479 1005 Z M801 0 C801 4 800 21 801 26 L788 25 C745 22 716 65 716 131 L716 621 C716 687 745 730 788 727 L801 726 C801 731 801 748 801 751 L531 751 C531 747 532 730 531 725 L544 726 C587 729 616 686 616 620 L616 409 L281 409 L281 620 C281 686 310 729 353 726 L366 725 C366 730 366 747 366 750 L96 750 C96 746 97 729 96 724 L109 725 C152 728 181 685 181 619 L181 129 C181 63 152 20 109 23 L96 24 C96 19 96 2 96 -1 L366 -1 C366 3 365 20 366 25 L353 24 C310 21 281 64 281 130 L281 383 L616 383 L616 130 C616 64 587 21 544 24 L531 25 C531 20 531 3 531 0 L801 0 L801 0 Z " />
<glyph glyph-name="Itilde" unicode="&#x128;" horiz-adv-x="385" d="M50 870 C50 906 66 930 91 930 C143 930 212 865 264 865 C313 865 345 913 345 985 L330 985 C330 949 312 925 284 925 C232 925 163 990 111 990 C65 990 35 942 35 870 L50 870 L50 870 Z M325 0 C325 4 324 21 325 26 L312 25 C269 22 240 65 240 131 L240 621 C240 687 269 730 312 727 L325 726 C325 731 325 748 325 751 L55 751 C55 747 56 730 55 725 L68 726 C111 729 140 686 140 620 L140 130 C140 64 111 21 68 24 L55 25 C55 20 55 3 55 0 L325 0 L325 0 Z " />
<glyph glyph-name="itilde" unicode="&#x129;" horiz-adv-x="320" d="M27 618 C27 654 44 678 69 678 C121 678 190 613 242 613 C291 613 323 661 323 733 L308 733 C308 697 290 673 262 673 C210 673 140 738 88 738 C42 738 12 690 12 618 L27 618 L27 618 Z M168 500 L128 490 L125 490 L125 489 L60 473 C60 469 61 452 60 447 L70 450 C103 461 125 437 125 392 L125 94 C125 49 103 20 70 23 L60 24 C60 19 60 2 60 -1 L275 -1 C275 3 274 20 275 25 L265 24 C232 21 210 50 210 95 L210 500 L168 500 L168 500 Z " />
<glyph glyph-name="Imacron" unicode="&#x12a;" horiz-adv-x="385" d="M40 895 L340 895 L340 954 L40 954 L40 895 L40 895 Z M325 0 C325 4 324 21 325 26 L312 25 C269 22 240 65 240 131 L240 621 C240 687 269 730 312 727 L325 726 C325 731 325 748 325 751 L55 751 C55 747 56 730 55 725 L68 726 C111 729 140 686 140 620 L140 130 C140 64 111 21 68 24 L55 25 C55 20 55 3 55 0 L325 0 L325 0 Z " />
<glyph glyph-name="imacron" unicode="&#x12b;" horiz-adv-x="320" d="M18 643 L318 643 L318 702 L18 702 L18 643 L18 643 Z M168 500 L128 490 L125 490 L125 489 L60 473 C60 469 61 452 60 447 L70 450 C103 461 125 437 125 392 L125 94 C125 49 103 20 70 23 L60 24 C60 19 60 2 60 -1 L275 -1 C275 3 274 20 275 25 L265 24 C232 21 210 50 210 95 L210 500 L168 500 L168 500 Z " />
<glyph glyph-name="Ibreve" unicode="&#x12c;" horiz-adv-x="385" d="M56 994 C63 920 116 870 190 870 C265 870 319 919 325 992 L307 995 C304 956 257 930 190 930 C123 930 77 957 73 997 L56 994 L56 994 Z M325 0 C325 4 324 21 325 26 L312 25 C269 22 240 65 240 131 L240 621 C240 687 269 730 312 727 L325 726 C325 731 325 748 325 751 L55 751 C55 747 56 730 55 725 L68 726 C111 729 140 686 140 620 L140 130 C140 64 111 21 68 24 L55 25 C55 20 55 3 55 0 L325 0 L325 0 Z " />
<glyph glyph-name="ibreve" unicode="&#x12d;" horiz-adv-x="320" d="M33 742 C40 668 94 618 168 618 C242 618 296 667 302 740 L284 743 C281 704 234 678 168 678 C101 678 55 705 51 745 L33 742 L33 742 Z M168 500 L128 490 L125 490 L125 489 L60 473 C60 469 61 452 60 447 L70 450 C103 461 125 437 125 392 L125 94 C125 49 103 20 70 23 L60 24 C60 19 60 2 60 -1 L275 -1 C275 3 274 20 275 25 L265 24 C232 21 210 50 210 95 L210 500 L168 500 L168 500 Z " />
<glyph glyph-name="Idot" unicode="&#x130;" horiz-adv-x="385" d="M190 865 C223 865 245 887 245 920 C245 953 223 975 190 975 C157 975 135 953 135 920 C135 887 157 865 190 865 L190 865 Z M325 0 C325 4 324 21 325 26 L312 25 C269 22 240 65 240 131 L240 621 C240 687 269 730 312 727 L325 726 C325 731 325 748 325 751 L55 751 C55 747 56 730 55 725 L68 726 C111 729 140 686 140 620 L140 130 C140 64 111 21 68 24 L55 25 C55 20 55 3 55 0 L325 0 L325 0 Z " />
<glyph glyph-name="dotlessi" unicode="&#x131;" horiz-adv-x="320" d="M168 500 L128 490 L125 490 L125 489 L60 473 C60 469 61 452 60 447 L70 450 C103 461 125 437 125 392 L125 94 C125 49 103 20 70 23 L60 24 C60 19 60 2 60 -1 L275 -1 C275 3 274 20 275 25 L265 24 C232 21 210 50 210 95 L210 500 L168 500 L168 500 Z " />
<glyph glyph-name="Jcircumflex" unicode="&#x134;" horiz-adv-x="385" d="M220 1005 C214 1014 200 1035 190 1035 C180 1035 166 1014 160 1005 L38 816 L50 806 L190 945 L330 806 L342 816 L220 1005 L220 1005 Z M140 620 L140 -72 C140 -167 82 -185 40 -185 C-9 -185 15 -105 -35 -105 C-62 -105 -80 -123 -80 -150 C-80 -192 -42 -220 15 -220 C110 -220 240 -166 240 116 L240 620 C240 686 269 729 312 726 L325 725 C325 730 325 747 325 750 L55 750 C55 746 56 729 55 724 L68 725 C111 728 140 685 140 619 L140 620 L140 620 Z " />
<glyph glyph-name="Lacute" unicode="&#x139;" horiz-adv-x="650" d="M199 812 L341 932 C379 965 405 990 405 996 C405 1019 386 1038 363 1038 C357 1038 334 1011 302 971 L188 823 L199 812 L199 812 Z M577 8 L577 8 C584 48 594 102 601 142 C601 142 597 140 596 140 C594 140 580 142 580 142 L573 123 C553 67 489 28 407 19 C258 32 240 108 240 218 L240 620 C240 686 269 729 312 726 L325 725 C325 730 325 747 325 750 L55 750 C55 746 56 729 55 724 L68 725 C111 728 140 685 140 619 L140 129 C140 63 111 20 68 23 L55 24 C55 19 55 2 55 -1 L575 -1 L577 8 L577 8 Z " />
<glyph glyph-name="Lcaron" unicode="&#x13d;" horiz-adv-x="650" d="M428 808 C411 808 401 745 397 700 L387 589 L402 586 L441 691 C456 730 466 772 466 796 C466 805 451 808 428 808 L428 808 Z M577 8 L577 8 C584 48 594 102 601 142 C601 142 597 140 596 140 C594 140 580 142 580 142 L573 123 C553 67 489 28 407 19 C258 32 240 108 240 218 L240 620 C240 686 269 729 312 726 L325 725 C325 730 325 747 325 750 L55 750 C55 746 56 729 55 724 L68 725 C111 728 140 685 140 619 L140 129 C140 63 111 20 68 23 L55 24 C55 19 55 2 55 -1 L575 -1 L577 8 L577 8 Z " />
<glyph glyph-name="lcaron" unicode="&#x13e;" horiz-adv-x="264" d="M256 756 C239 756 229 693 225 648 L215 537 L230 534 L269 639 C284 678 294 720 294 744 C294 753 279 756 256 756 L256 756 Z M127 750 L87 740 L84 740 L84 739 L19 723 C19 723 21 720 21 719 C21 716 19 707 19 707 L29 706 C62 706 84 664 84 601 L84 95 C84 50 62 21 29 24 L19 25 C19 20 19 3 19 0 L234 0 C234 4 233 21 234 26 L224 25 C191 22 169 51 169 96 L169 751 L127 750 L127 750 Z " />
<glyph glyph-name="Nacute" unicode="&#x143;" horiz-adv-x="786" d="M297 812 L439 932 C477 965 503 990 503 996 C503 1019 484 1038 461 1038 C455 1038 431 1011 400 971 L287 823 L297 812 L297 812 Z M611 620 L612 171 C470 364 329 558 188 751 L-3 751 C-3 746 -2 731 -3 726 L10 727 C45 730 95 698 139 647 L138 131 C138 65 109 22 66 25 L53 26 C53 21 53 4 53 1 L253 1 C253 5 252 22 253 27 L240 26 C200 23 171 60 167 119 L164 614 C313 410 462 206 612 2 L632 2 L639 622 C641 687 669 731 712 728 L725 727 C725 732 725 749 725 752 L525 752 C525 748 526 731 525 726 L538 727 C581 730 609 686 610 621 L611 620 L611 620 Z " />
<glyph glyph-name="Ncaron" unicode="&#x147;" horiz-adv-x="786" d="M530 1044 L389 905 L249 1044 L238 1034 L360 845 C366 836 380 815 390 815 C400 815 414 836 420 845 L541 1034 L530 1044 L530 1044 Z M611 620 L612 171 C470 364 329 558 188 751 L-3 751 C-3 746 -2 731 -3 726 L10 727 C45 730 95 698 139 647 L138 131 C138 65 109 22 66 25 L53 26 C53 21 53 4 53 1 L253 1 C253 5 252 22 253 27 L240 26 C200 23 171 60 167 119 L164 614 C313 410 462 206 612 2 L632 2 L639 622 C641 687 669 731 712 728 L725 727 C725 732 725 749 725 752 L525 752 C525 748 526 731 525 726 L538 727 C581 730 609 686 610 621 L611 620 L611 620 Z " />
<glyph glyph-name="ncaron" unicode="&#x148;" horiz-adv-x="569" d="M419 792 L279 653 L139 792 L127 782 L249 593 C255 584 269 563 279 563 C289 563 303 584 309 593 L431 782 L419 792 L419 792 Z M127 500 L87 490 L84 490 L84 489 L19 473 C19 473 21 470 21 469 C21 466 19 457 19 457 L29 456 C62 456 84 414 84 351 L84 95 C84 50 62 21 29 24 L19 25 C19 20 19 3 19 0 L234 0 C234 4 233 21 234 26 L224 25 C191 22 169 51 169 96 L169 361 C199 414 246 449 286 449 C354 449 389 402 389 331 L389 96 C389 51 367 22 334 25 L324 26 C324 21 324 4 324 1 L539 1 C539 5 538 22 539 27 L529 26 C496 23 474 52 474 97 L474 332 C474 440 427 512 337 512 C280 512 212 462 169 387 L169 502 L127 500 L127 500 Z " />
<glyph glyph-name="Omacron" unicode="&#x14c;" horiz-adv-x="851" d="M268 895 L568 895 L568 954 L268 954 L268 895 L268 895 Z M159 375 C159 591 261 735 414 735 C578 735 687 591 687 375 C687 159 577 15 413 15 C261 15 159 159 159 375 L159 375 Z M50 375 C50 144 193 -10 408 -10 C641 -10 796 144 796 375 C796 606 645 760 418 760 C197 760 50 606 50 375 L50 375 Z " />
<glyph glyph-name="omacron" unicode="&#x14d;" horiz-adv-x="613" d="M157 645 L457 645 L457 704 L157 704 L157 645 L157 645 Z M139 250 C139 390 206 484 307 484 C408 484 475 390 475 250 C475 110 408 16 307 16 C206 16 139 110 139 250 L139 250 Z M45 250 C45 94 150 -10 307 -10 C464 -10 568 94 568 250 C568 406 464 510 307 510 C150 510 45 406 45 250 L45 250 Z " />
<glyph glyph-name="Obreve" unicode="&#x14e;" horiz-adv-x="851" d="M284 994 C291 920 344 870 418 870 C493 870 547 919 553 992 L535 995 C532 956 485 930 418 930 C351 930 305 957 301 997 L284 994 L284 994 Z M159 375 C159 591 261 735 414 735 C578 735 687 591 687 375 C687 159 577 15 413 15 C261 15 159 159 159 375 L159 375 Z M50 375 C50 144 193 -10 408 -10 C641 -10 796 144 796 375 C796 606 645 760 418 760 C197 760 50 606 50 375 L50 375 Z " />
<glyph glyph-name="obreve" unicode="&#x14f;" horiz-adv-x="613" d="M173 744 C180 670 233 620 307 620 C382 620 436 669 442 742 L424 745 C421 706 374 680 307 680 C240 680 194 707 190 747 L173 744 L173 744 Z M139 250 C139 390 206 484 307 484 C408 484 475 390 475 250 C475 110 408 16 307 16 C206 16 139 110 139 250 L139 250 Z M45 250 C45 94 150 -10 307 -10 C464 -10 568 94 568 250 C568 406 464 510 307 510 C150 510 45 406 45 250 L45 250 Z " />
<glyph glyph-name="Racute" unicode="&#x154;" horiz-adv-x="796" d="M330 812 L472 932 C510 965 536 990 536 996 C536 1019 517 1038 494 1038 C488 1038 464 1011 433 971 L320 823 L330 812 L330 812 Z M786 0 L786 20 C697 20 692 22 651 80 C553 218 480 321 449 364 C549 385 611 441 611 538 C611 665 507 750 350 750 L60 750 C60 746 61 729 60 724 L73 725 C116 728 145 685 145 619 L145 129 C145 63 116 20 73 23 L60 24 C60 19 60 2 60 -1 L330 -1 C330 3 329 20 330 25 L317 24 C274 21 245 64 245 130 L245 355 L346 355 C367 319 437 216 533 81 C588 4 598 1 785 1 L786 0 L786 0 Z M244 381 L244 731 L319 731 C427 731 499 662 499 559 C499 436 439 381 349 381 L244 381 L244 381 Z " />
<glyph glyph-name="Rcaron" unicode="&#x158;" horiz-adv-x="796" d="M463 1044 L322 905 L182 1044 L171 1034 L293 845 C299 836 313 815 323 815 C333 815 347 836 353 845 L474 1034 L463 1044 L463 1044 Z M786 0 L786 20 C697 20 692 22 651 80 C553 218 480 321 449 364 C549 385 611 441 611 538 C611 665 507 750 350 750 L60 750 C60 746 61 729 60 724 L73 725 C116 728 145 685 145 619 L145 129 C145 63 116 20 73 23 L60 24 C60 19 60 2 60 -1 L330 -1 C330 3 329 20 330 25 L317 24 C274 21 245 64 245 130 L245 355 L346 355 C367 319 437 216 533 81 C588 4 598 1 785 1 L786 0 L786 0 Z M244 381 L244 731 L319 731 C427 731 499 662 499 559 C499 436 439 381 349 381 L244 381 L244 381 Z " />
<glyph glyph-name="rcaron" unicode="&#x159;" horiz-adv-x="420" d="M380 792 L240 653 L100 792 L88 782 L210 593 C216 584 230 563 240 563 C250 563 264 584 270 593 L392 782 L380 792 L380 792 Z M128 500 L88 490 L85 490 L85 489 L20 473 C20 473 22 470 22 469 C22 466 20 457 20 457 L30 456 C63 456 85 414 85 351 L85 95 C85 50 63 21 30 24 L20 25 C20 20 20 3 20 0 L235 0 C235 4 234 21 235 26 L225 25 C192 22 170 51 170 96 L170 358 C193 426 234 471 275 471 C296 471 310 457 310 436 C310 406 330 386 360 386 C390 386 410 406 410 436 C410 481 372 511 315 511 C251 511 195 468 171 402 L171 501 L128 500 L128 500 Z " />
<glyph glyph-name="Sacute" unicode="&#x15a;" horiz-adv-x="551" d="M282 812 L424 932 C462 965 488 990 488 996 C488 1019 469 1038 446 1038 C440 1038 417 1011 385 971 L271 823 L282 812 L282 812 Z M337 748 C312 756 285 760 257 760 C142 760 65 681 65 563 C65 462 132 371 263 323 C375 282 432 224 432 167 C432 70 364 11 264 24 C182 35 111 108 87 208 L79 240 C79 236 51 237 51 241 L51 1 C51 4 73 4 73 1 L76 24 C79 41 125 36 194 11 C226 -2 260 -9 294 -9 C425 -9 513 73 513 197 C513 294 449 383 324 428 C206 471 145 537 145 602 C145 682 190 736 258 736 C342 736 413 674 437 582 L445 551 C445 555 473 554 473 550 L473 754 C473 751 451 751 451 754 L448 738 C446 727 403 731 339 748 L337 748 L337 748 Z " />
<glyph glyph-name="Scircumflex" unicode="&#x15c;" horiz-adv-x="551" d="M304 1005 C298 1014 284 1035 274 1035 C264 1035 250 1014 244 1005 L122 816 L134 806 L274 945 L414 806 L426 816 L304 1005 L304 1005 Z M337 748 C312 756 285 760 257 760 C142 760 65 681 65 563 C65 462 132 371 263 323 C375 282 432 224 432 167 C432 70 364 11 264 24 C182 35 111 108 87 208 L79 240 C79 236 51 237 51 241 L51 1 C51 4 73 4 73 1 L76 24 C79 41 125 36 194 11 C226 -2 260 -9 294 -9 C425 -9 513 73 513 197 C513 294 449 383 324 428 C206 471 145 537 145 602 C145 682 190 736 258 736 C342 736 413 674 437 582 L445 551 C445 555 473 554 473 550 L473 754 C473 751 451 751 451 754 L448 738 C446 727 403 731 339 748 L337 748 L337 748 Z " />
<glyph glyph-name="Scaron" unicode="&#x160;" horiz-adv-x="551" d="M414 1044 L274 905 L134 1044 L122 1034 L244 845 C250 836 264 815 274 815 C284 815 298 836 304 845 L426 1034 L414 1044 L414 1044 Z M337 748 C312 756 285 760 257 760 C142 760 65 681 65 563 C65 462 132 371 263 323 C375 282 432 224 432 167 C432 70 364 11 264 24 C182 35 111 108 87 208 L79 240 C79 236 51 237 51 241 L51 1 C51 4 73 4 73 1 L76 24 C79 41 125 36 194 11 C226 -2 260 -9 294 -9 C425 -9 513 73 513 197 C513 294 449 383 324 428 C206 471 145 537 145 602 C145 682 190 736 258 736 C342 736 413 674 437 582 L445 551 C445 555 473 554 473 550 L473 754 C473 751 451 751 451 754 L448 738 C446 727 403 731 339 748 L337 748 L337 748 Z " />
<glyph glyph-name="scaron" unicode="&#x161;" horiz-adv-x="428" d="M358 794 L218 655 L78 794 L66 784 L188 595 C194 586 208 565 218 565 C228 565 242 586 248 595 L370 784 L358 794 L358 794 Z M207 -10 C309 -17 378 44 378 129 C378 198 330 256 237 281 C159 302 119 351 119 408 C119 457 153 489 204 489 C272 489 323 438 333 362 L335 341 C335 342 353 342 353 341 L353 509 C353 508 336 508 336 510 L333 498 C335 505 283 510 204 510 C117 510 59 458 59 380 C59 305 107 243 199 218 C274 198 313 155 313 106 C313 48 275 10 218 10 C200 10 182 14 165 22 C120 43 88 91 80 156 L78 177 C78 176 60 176 60 177 L60 -1 C60 0 77 0 77 -2 L80 11 C79 3 131 -6 208 -11 L207 -10 L207 -10 Z " />
<glyph glyph-name="Tcaron" unicode="&#x164;" horiz-adv-x="775" d="M524 1044 L384 905 L244 1044 L232 1034 L354 845 C360 836 374 815 384 815 C394 815 408 836 414 845 L536 1034 L524 1044 L524 1044 Z M720 737 L722 737 C721 739 720 741 719 743 L719 751 L716 751 C710 766 703 783 698 796 C698 790 686 795 683 796 L679 789 C665 766 600 751 515 751 L256 751 C171 751 106 766 92 789 L88 796 C87 799 73 788 73 796 C66 779 56 755 49 738 L50 738 C33 697 10 642 -7 601 C-7 601 -2 603 -1 603 C1 603 14 601 14 601 L26 620 C63 684 146 726 233 726 L338 726 L338 131 C338 65 309 22 266 25 L253 26 C253 21 253 4 253 1 L523 1 C523 5 522 22 523 27 L510 26 C467 23 438 66 438 132 L438 727 L535 727 C622 727 705 685 743 621 L755 602 C755 602 768 604 770 604 C771 604 776 602 776 602 C760 643 737 698 720 739 L720 737 L720 737 Z " />
<glyph glyph-name="tcaron" unicode="&#x165;" horiz-adv-x="378" d="M333 500 L180 500 L180 620 L174 620 L30 466 L30 456 L95 456 L95 160 C95 38 150 -10 232 -10 C290 -10 345 32 368 96 L358 100 C343 58 303 30 258 30 C210 30 178 61 178 141 L180 455 L333 455 L333 500 L333 500 Z M425 758 C408 758 398 695 394 650 L384 539 L399 536 L438 641 C453 680 463 722 463 746 C463 755 448 758 425 758 L425 758 Z " />
<glyph glyph-name="Utilde" unicode="&#x168;" horiz-adv-x="760" d="M237 869 C237 905 254 929 279 929 C331 929 400 864 452 864 C501 864 533 912 533 984 L518 984 C518 948 500 924 472 924 C420 924 350 989 298 989 C252 989 222 941 222 869 L237 869 L237 869 Z M110 750 L110 749 L25 749 C25 745 26 728 25 723 L38 724 C81 727 110 684 110 618 L110 219 C110 81 184 -11 294 -11 C401 -11 502 51 545 144 L545 -1 L595 -1 L595 -2 C635 8 689 21 730 31 C730 35 729 52 730 57 L717 53 C674 39 645 75 645 141 L645 750 L545 750 L545 749 L460 749 C460 745 461 728 460 723 L473 724 C516 727 545 684 545 618 L545 189 C507 107 423 53 334 53 C260 53 210 119 210 219 L210 749 L110 750 L110 750 Z " />
<glyph glyph-name="utilde" unicode="&#x169;" horiz-adv-x="560" d="M135 622 C135 658 151 682 176 682 C228 682 297 617 349 617 C398 617 430 665 430 737 L415 737 C415 701 397 677 369 677 C317 677 248 742 196 742 C150 742 120 694 120 622 L135 622 L135 622 Z M470 10 L470 11 C496 18 523 25 545 31 C545 35 544 52 545 57 L534 53 C496 41 470 78 470 144 L470 502 L428 502 L428 504 L320 504 C320 500 321 483 320 478 L330 479 C363 482 385 453 385 408 L385 145 C359 87 309 49 257 49 C202 49 165 93 165 160 L165 500 L15 500 C15 496 16 479 15 474 L25 475 C58 478 80 449 80 404 L80 159 C80 57 135 -11 217 -11 C286 -11 352 40 385 118 L385 -1 L428 -1 C438 4 456 9 470 9 L470 10 L470 10 Z " />
<glyph glyph-name="Umacron" unicode="&#x16a;" horiz-adv-x="760" d="M228 894 L528 894 L528 953 L228 953 L228 894 L228 894 Z M110 750 L110 749 L25 749 C25 745 26 728 25 723 L38 724 C81 727 110 684 110 618 L110 219 C110 81 184 -11 294 -11 C401 -11 502 51 545 144 L545 -1 L595 -1 L595 -2 C635 8 689 21 730 31 C730 35 729 52 730 57 L717 53 C674 39 645 75 645 141 L645 750 L545 750 L545 749 L460 749 C460 745 461 728 460 723 L473 724 C516 727 545 684 545 618 L545 189 C507 107 423 53 334 53 C260 53 210 119 210 219 L210 749 L110 750 L110 750 Z " />
<glyph glyph-name="umacron" unicode="&#x16b;" horiz-adv-x="560" d="M125 647 L425 647 L425 706 L125 706 L125 647 L125 647 Z M470 10 L470 11 C496 18 523 25 545 31 C545 35 544 52 545 57 L534 53 C496 41 470 78 470 144 L470 502 L428 502 L428 504 L320 504 C320 500 321 483 320 478 L330 479 C363 482 385 453 385 408 L385 145 C359 87 309 49 257 49 C202 49 165 93 165 160 L165 500 L15 500 C15 496 16 479 15 474 L25 475 C58 478 80 449 80 404 L80 159 C80 57 135 -11 217 -11 C286 -11 352 40 385 118 L385 -1 L428 -1 C438 4 456 9 470 9 L470 10 L470 10 Z " />
<glyph glyph-name="Ubreve" unicode="&#x16c;" horiz-adv-x="760" d="M243 993 C250 919 304 869 378 869 C452 869 506 918 512 991 L494 994 C491 955 444 929 378 929 C311 929 265 956 261 996 L243 993 L243 993 Z M110 750 L110 749 L25 749 C25 745 26 728 25 723 L38 724 C81 727 110 684 110 618 L110 219 C110 81 184 -11 294 -11 C401 -11 502 51 545 144 L545 -1 L595 -1 L595 -2 C635 8 689 21 730 31 C730 35 729 52 730 57 L717 53 C674 39 645 75 645 141 L645 750 L545 750 L545 749 L460 749 C460 745 461 728 460 723 L473 724 C516 727 545 684 545 618 L545 189 C507 107 423 53 334 53 C260 53 210 119 210 219 L210 749 L110 750 L110 750 Z " />
<glyph glyph-name="ubreve" unicode="&#x16d;" horiz-adv-x="560" d="M141 746 C148 672 201 622 275 622 C350 622 404 671 410 744 L392 747 C389 708 342 682 275 682 C208 682 162 709 158 749 L141 746 L141 746 Z M470 10 L470 11 C496 18 523 25 545 31 C545 35 544 52 545 57 L534 53 C496 41 470 78 470 144 L470 502 L428 502 L428 504 L320 504 C320 500 321 483 320 478 L330 479 C363 482 385 453 385 408 L385 145 C359 87 309 49 257 49 C202 49 165 93 165 160 L165 500 L15 500 C15 496 16 479 15 474 L25 475 C58 478 80 449 80 404 L80 159 C80 57 135 -11 217 -11 C286 -11 352 40 385 118 L385 -1 L428 -1 C438 4 456 9 470 9 L470 10 L470 10 Z " />
<glyph glyph-name="Uring" unicode="&#x16e;" horiz-adv-x="760" d="M305 904 C305 949 334 979 378 979 C421 979 450 949 450 904 C450 864 417 829 378 829 C339 829 305 864 305 904 L305 904 Z M280 904 C280 853 325 809 378 809 C430 809 475 853 475 904 C475 961 436 999 378 999 C319 999 280 961 280 904 L280 904 Z M110 750 L110 749 L25 749 C25 745 26 728 25 723 L38 724 C81 727 110 684 110 618 L110 219 C110 81 184 -11 294 -11 C401 -11 502 51 545 144 L545 -1 L595 -1 L595 -2 C635 8 689 21 730 31 C730 35 729 52 730 57 L717 53 C674 39 645 75 645 141 L645 750 L545 750 L545 749 L460 749 C460 745 461 728 460 723 L473 724 C516 727 545 684 545 618 L545 189 C507 107 423 53 334 53 C260 53 210 119 210 219 L210 749 L110 750 L110 750 Z " />
<glyph glyph-name="uring" unicode="&#x16f;" horiz-adv-x="560" d="M203 657 C203 702 232 732 275 732 C319 732 348 702 348 657 C348 617 314 582 275 582 C236 582 203 617 203 657 L203 657 Z M178 657 C178 606 223 562 275 562 C328 562 373 606 373 657 C373 714 334 752 275 752 C217 752 178 714 178 657 L178 657 Z M470 10 L470 11 C496 18 523 25 545 31 C545 35 544 52 545 57 L534 53 C496 41 470 78 470 144 L470 502 L428 502 L428 504 L320 504 C320 500 321 483 320 478 L330 479 C363 482 385 453 385 408 L385 145 C359 87 309 49 257 49 C202 49 165 93 165 160 L165 500 L15 500 C15 496 16 479 15 474 L25 475 C58 478 80 449 80 404 L80 159 C80 57 135 -11 217 -11 C286 -11 352 40 385 118 L385 -1 L428 -1 C438 4 456 9 470 9 L470 10 L470 10 Z " />
<glyph glyph-name="Wcircumflex" unicode="&#x174;" horiz-adv-x="1109" d="M407 719 C446 722 494 669 526 585 L559 499 L414 120 L244 585 L245 585 C214 669 228 722 279 719 L294 718 C294 724 294 746 294 750 L11 750 C11 745 12 724 11 718 L22 719 C56 722 98 679 129 608 C208 402 287 196 366 -10 L391 -10 L576 457 C636 301 696 145 756 -10 L781 -10 L960 594 C986 673 1032 722 1078 719 L1092 718 C1092 718 1090 728 1090 731 C1090 735 1092 750 1092 750 L822 750 C822 746 823 724 822 718 L843 719 C913 722 944 669 921 585 L797 138 L635 585 C605 669 625 722 687 719 L705 718 C705 724 705 746 705 750 L397 750 C397 745 398 724 397 718 L407 719 L407 719 Z M571 1005 C565 1014 551 1035 541 1035 C531 1035 517 1014 511 1005 L389 816 L400 806 L540 945 L681 806 L692 816 L571 1005 L571 1005 Z " />
<glyph glyph-name="Ycircumflex" unicode="&#x176;" horiz-adv-x="764" d="M557 615 L429 356 L267 615 L268 615 C225 684 227 729 274 726 L288 725 C288 730 288 747 288 750 L11 750 C11 745 12 730 11 725 L21 726 C52 729 98 692 139 634 L338 322 L338 150 C338 72 302 21 249 24 L233 25 C233 20 233 3 233 0 L543 0 C543 4 542 21 543 26 L527 25 C474 22 438 73 438 151 L438 326 L607 633 C645 692 696 730 739 727 L753 726 C753 731 753 746 753 751 L497 751 C497 747 498 730 497 725 L514 726 C574 729 588 683 555 615 L557 615 L557 615 Z M418 1005 C412 1014 398 1035 388 1035 C378 1035 364 1014 358 1005 L236 816 L248 806 L388 945 L528 806 L540 816 L418 1005 L418 1005 Z " />
<glyph glyph-name="Ydieresis" unicode="&#x178;" horiz-adv-x="764" d="M465 865 C498 865 520 887 520 920 C520 953 498 975 465 975 C432 975 410 953 410 920 C410 887 432 865 465 865 L465 865 Z M315 865 C348 865 370 887 370 920 C370 953 348 975 315 975 C282 975 260 953 260 920 C260 887 282 865 315 865 L315 865 Z M557 615 L429 356 L267 615 L268 615 C225 684 227 729 274 726 L288 725 C288 730 288 747 288 750 L11 750 C11 745 12 730 11 725 L21 726 C52 729 98 692 139 634 L338 322 L338 150 C338 72 302 21 249 24 L233 25 C233 20 233 3 233 0 L543 0 C543 4 542 21 543 26 L527 25 C474 22 438 73 438 151 L438 326 L607 633 C645 692 696 730 739 727 L753 726 C753 731 753 746 753 751 L497 751 C497 747 498 730 497 725 L514 726 C574 729 588 683 555 615 L557 615 L557 615 Z " />
<glyph glyph-name="Zacute" unicode="&#x179;" horiz-adv-x="652" d="M351 812 L493 932 C531 965 557 990 557 996 C557 1019 538 1038 515 1038 C509 1038 486 1011 454 971 L340 823 L351 812 L351 812 Z M278 725 L502 728 L25 20 L25 0 L606 0 L609 15 L611 15 C611 15 624 71 643 155 C643 152 622 152 622 156 L614 137 C590 77 515 35 424 28 L143 23 L610 731 L610 751 L70 751 L67 723 L68 723 C66 701 62 656 57 598 C57 598 65 600 68 600 C70 600 78 598 78 598 L84 617 C102 681 180 725 279 726 L278 725 L278 725 Z " />
<glyph glyph-name="Zdot" unicode="&#x17b;" horiz-adv-x="652" d="M343 865 C376 865 398 887 398 920 C398 953 376 975 343 975 C310 975 288 953 288 920 C288 887 310 865 343 865 L343 865 Z M278 725 L502 728 L25 20 L25 0 L606 0 L609 15 L611 15 C611 15 624 71 643 155 C643 152 622 152 622 156 L614 137 C590 77 515 35 424 28 L143 23 L610 731 L610 751 L70 751 L67 723 L68 723 C66 701 62 656 57 598 C57 598 65 600 68 600 C70 600 78 598 78 598 L84 617 C102 681 180 725 279 726 L278 725 L278 725 Z " />
<glyph glyph-name="zdot" unicode="&#x17c;" horiz-adv-x="475" d="M254 615 C287 615 309 637 309 670 C309 703 287 725 254 725 C221 725 199 703 199 670 C199 637 221 615 254 615 L254 615 Z M254 475 L333 477 L40 20 L40 0 L430 0 L430 15 L435 15 C435 15 439 60 445 127 C445 127 435 125 432 125 C429 125 421 127 421 127 L416 113 C399 64 334 30 252 25 L144 22 L435 479 L435 499 L182 499 C128 499 95 510 99 526 L100 531 C93 531 79 530 73 531 C69 517 64 498 61 484 C63 484 51 440 35 372 C35 372 45 374 48 374 C51 374 59 372 59 372 L66 386 C92 436 168 472 255 474 L254 475 L254 475 Z " />
<glyph glyph-name="Zcaron" unicode="&#x17d;" horiz-adv-x="652" d="M483 1044 L343 905 L203 1044 L191 1034 L313 845 C319 836 333 815 343 815 C353 815 367 836 373 845 L495 1034 L483 1044 L483 1044 Z M278 725 L502 728 L25 20 L25 0 L606 0 L609 15 L611 15 C611 15 624 71 643 155 C643 152 622 152 622 156 L614 137 C590 77 515 35 424 28 L143 23 L610 731 L610 751 L70 751 L67 723 L68 723 C66 701 62 656 57 598 C57 598 65 600 68 600 C70 600 78 598 78 598 L84 617 C102 681 180 725 279 726 L278 725 L278 725 Z " />
<glyph glyph-name="zcaron" unicode="&#x17e;" horiz-adv-x="475" d="M394 794 L253 655 L113 794 L102 784 L224 595 C230 586 244 565 254 565 C264 565 278 586 284 595 L405 784 L394 794 L394 794 Z M254 475 L333 477 L40 20 L40 0 L430 0 L430 15 L435 15 C435 15 439 60 445 127 C445 127 435 125 432 125 C429 125 421 127 421 127 L416 113 C399 64 334 30 252 25 L144 22 L435 479 L435 499 L182 499 C128 499 95 510 99 526 L100 531 C93 531 79 530 73 531 C69 517 64 498 61 484 C63 484 51 440 35 372 C35 372 45 374 48 374 C51 374 59 372 59 372 L66 386 C92 436 168 472 255 474 L254 475 L254 475 Z " />
<glyph glyph-name="oogonek" unicode="&#x1eb;" horiz-adv-x="759" d="M984 -43 L978 -35 C944 -64 835 -83 706 -83 C556 -83 406 -54 314 -7 C330 -9 347 -10 365 -10 C571 -10 708 111 708 292 C708 473 575 593 375 593 C181 593 52 473 52 292 C52 167 112 70 211 22 C373 -86 565 -158 692 -158 C784 -158 901 -112 983 -43 L984 -43 L984 -43 Z M149 292 C149 459 238 571 371 571 C515 571 611 459 611 292 C611 117 504 0 344 0 C227 0 149 117 149 292 L149 292 Z " />
<glyph glyph-name="Adotabove" unicode="&#x226;" horiz-adv-x="796" d="M421 865 C454 865 476 887 476 920 C476 953 454 975 421 975 C388 975 366 953 366 920 C366 887 388 865 421 865 L421 865 Z M772 31 C725 28 673 89 642 185 L471 720 C471 720 460 770 455 770 L445 770 C449 747 419 727 371 720 C372 717 373 713 374 710 L200 182 C168 88 103 28 36 31 L16 31 C16 31 18 23 18 20 C18 15 16 0 16 0 L306 0 C306 4 305 26 306 31 L287 31 C225 28 201 83 224 171 L258 279 L509 279 L538 185 C568 89 546 27 481 30 L462 30 C462 25 462 3 462 -1 L787 -1 C787 4 786 24 787 30 L772 31 L772 31 Z M267 304 L385 677 L502 304 L267 304 L267 304 Z " />
<glyph glyph-name="G_sc" unicode="&#x262;" horiz-adv-x="732" d="M500 86 C493 39 449 8 385 8 C245 8 151 122 151 292 C151 472 250 585 411 570 C490 559 555 500 577 418 L585 389 C585 393 613 392 613 388 L613 607 C613 604 591 604 591 607 L588 587 C585 571 540 568 475 581 C446 588 411 592 368 592 C178 592 52 472 52 291 C52 110 179 -11 370 -11 C445 -11 510 1 571 21 L590 26 L590 28 C617 37 643 48 669 60 L662 73 C639 62 615 52 591 43 L591 82 C591 169 623 224 672 221 L686 220 C686 226 686 248 686 252 L406 252 C406 248 407 226 406 220 L420 221 C468 224 500 170 501 85 L500 86 L500 86 Z " />
<glyph glyph-name="I_sc" unicode="&#x26a;" horiz-adv-x="380" d="M320 0 C320 4 319 21 320 26 L307 25 C264 22 235 65 235 131 L235 454 C235 520 264 563 307 560 L320 559 C320 564 320 581 320 584 L60 584 C60 580 61 563 60 558 L73 559 C116 562 145 519 145 453 L145 130 C145 64 116 21 73 24 L60 25 C60 20 60 3 60 0 L320 0 L320 0 Z " />
<glyph glyph-name="N_sc" unicode="&#x274;" horiz-adv-x="705" d="M533 453 L534 453 L536 111 C419 269 301 426 183 583 L6 583 C6 578 7 563 6 558 L18 559 C50 561 95 535 139 492 L138 129 C138 63 109 19 66 22 L53 23 C53 18 53 1 53 -2 L250 -2 C250 2 249 19 250 24 L237 23 C197 20 168 57 164 116 L162 467 C164 464 166 461 168 458 C290 305 412 152 533 -2 L551 -2 L556 451 C558 516 586 560 629 557 L642 556 C642 561 642 578 642 581 L445 581 C445 577 446 560 445 555 L458 556 C501 559 530 516 530 450 L533 453 L533 453 Z " />
<glyph glyph-name="R_sc" unicode="&#x280;" horiz-adv-x="660" d="M650 0 L650 18 C582 18 577 20 546 62 C468 166 409 245 383 280 C472 297 527 341 527 418 C527 517 433 583 293 583 L63 583 C63 579 64 562 63 557 L76 558 C119 561 148 518 148 452 L148 129 C148 63 119 20 76 23 L63 24 C63 19 63 2 63 -1 L323 -1 C323 3 322 20 323 25 L310 24 C267 21 238 64 238 130 L238 273 L290 273 C308 243 364 164 440 61 C484 1 493 -1 649 -1 L650 0 L650 0 Z M237 295 L237 564 L265 564 C362 564 427 512 427 434 C427 338 373 295 292 295 L237 295 L237 295 Z " />
<glyph glyph-name="Y_sc" unicode="&#x28f;" horiz-adv-x="676" d="M470 448 L381 277 L266 448 C219 517 219 562 266 559 L280 558 C280 563 280 580 280 583 L15 583 C15 578 16 563 15 558 L25 559 C56 562 105 524 150 464 L300 248 L300 150 C300 72 264 21 211 24 L195 25 C195 20 195 3 195 0 L495 0 C495 4 494 21 495 26 L479 25 C426 22 390 73 390 151 L390 252 L513 460 C553 523 607 563 652 560 L666 559 C666 564 666 579 666 584 L416 584 C416 580 417 563 416 558 L433 559 C491 562 505 516 470 448 L470 448 Z " />
<glyph glyph-name="B_sc" unicode="&#x299;" horiz-adv-x="587" d="M330 9 L280 9 C255 9 238 97 238 229 L238 299 L325 299 C399 299 448 243 448 158 C448 37 401 9 330 9 L330 9 Z M358 0 C471 0 547 30 547 158 C547 240 497 298 420 312 C483 334 522 382 522 445 C522 528 479 584 298 584 L63 584 C63 580 64 558 63 552 L76 553 C119 556 148 515 148 449 L148 136 C148 70 119 29 76 32 L63 32 C63 27 63 5 63 1 L358 0 L358 0 Z M329 316 L238 316 L238 566 L261 566 C400 566 433 514 433 435 C433 364 391 316 329 316 L329 316 Z " />
<glyph glyph-name="H_sc" unicode="&#x29c;" horiz-adv-x="781" d="M721 0 C721 4 720 21 721 26 L708 25 C665 22 636 65 636 131 L636 454 C636 520 665 563 708 560 L721 559 C721 564 721 581 721 584 L461 584 C461 580 462 563 461 558 L474 559 C517 562 546 519 546 453 L546 321 L274 321 L274 453 C274 519 303 562 346 559 L359 558 C359 563 359 580 359 583 L99 583 C99 579 100 562 99 557 L112 558 C155 561 184 518 184 452 L184 129 C184 63 155 20 112 23 L99 24 C99 19 99 2 99 -1 L359 -1 C359 3 358 20 359 25 L346 24 C303 21 274 64 274 130 L274 298 L546 298 L546 130 C546 64 517 21 474 24 L461 25 C461 20 461 3 461 0 L721 0 L721 0 Z " />
<glyph glyph-name="L_sc" unicode="&#x29f;" horiz-adv-x="570" d="M497 7 L497 7 C504 47 513 100 520 140 C520 140 516 138 515 138 C513 138 499 140 499 140 L492 121 C475 73 426 38 361 23 C249 46 234 118 234 217 L234 452 C234 518 263 561 306 558 L319 557 C319 562 319 579 319 582 L59 582 C59 578 60 561 59 556 L72 557 C115 560 144 517 144 451 L144 128 C144 62 115 19 72 22 L59 23 C59 18 59 1 59 -2 L494 -2 L497 7 L497 7 Z " />
<glyph glyph-name="circumflex" unicode="&#x2c6;" horiz-adv-x="340" d="M200 755 C194 764 180 785 170 785 C160 785 146 764 140 755 L18 566 L30 556 L170 695 L310 556 L322 566 L200 755 L200 755 Z " />
<glyph glyph-name="caron" unicode="&#x2c7;" horiz-adv-x="340" d="M310 794 L170 655 L30 794 L18 784 L140 595 C146 586 160 565 170 565 C180 565 194 586 200 595 L322 784 L310 794 L310 794 Z " />
<glyph glyph-name="firsttonechinese" unicode="&#x2c9;" horiz-adv-x="340" d="M20 645 L320 645 L320 704 L20 704 L20 645 L20 645 Z " />
<glyph glyph-name="breve" unicode="&#x2d8;" horiz-adv-x="340" d="M36 744 C43 670 96 620 170 620 C245 620 299 669 305 742 L287 745 C284 706 237 680 170 680 C103 680 57 707 53 747 L36 744 L36 744 Z " />
<glyph glyph-name="dotaccent" unicode="&#x2d9;" horiz-adv-x="340" d="M170 615 C203 615 225 637 225 670 C225 703 203 725 170 725 C137 725 115 703 115 670 C115 637 137 615 170 615 L170 615 Z " />
<glyph glyph-name="ring" unicode="&#x2da;" horiz-adv-x="340" d="M98 655 C98 700 127 730 170 730 C214 730 243 700 243 655 C243 615 209 580 170 580 C131 580 98 615 98 655 L98 655 Z M73 655 C73 604 118 560 170 560 C223 560 268 604 268 655 C268 712 229 750 170 750 C112 750 73 712 73 655 L73 655 Z " />
<glyph glyph-name="A_sc" unicode="&#x1d00;" horiz-adv-x="715" d="M556 185 L425 562 C425 562 415 603 411 603 L402 603 C405 585 378 568 335 562 L338 552 L338 552 L206 185 C171 90 103 28 35 31 L15 31 C15 31 17 23 17 20 C17 15 15 0 15 0 L301 0 C301 4 300 26 301 31 L282 31 C221 28 199 82 225 169 L240 213 L453 213 L463 184 C496 88 474 27 410 30 L391 30 C391 25 391 3 391 -1 L704 -1 C704 4 703 24 704 30 L690 30 C643 27 589 88 556 184 L556 185 L556 185 Z M249 237 L348 525 L446 237 L249 237 L249 237 Z " />
<glyph glyph-name="C_sc" unicode="&#x1d04;" horiz-adv-x="656" d="M585 195 L585 195 L577 167 C553 81 480 19 394 12 C244 0 151 113 151 292 C151 472 250 585 411 570 L585 195 L585 195 Z M475 583 C446 590 411 594 368 594 C178 594 52 474 52 293 C52 112 175 -9 359 -9 C398 -9 432 -5 462 2 C534 17 586 15 589 -5 L592 -26 C592 -23 614 -23 614 -26 L614 93 L475 583 L475 583 Z " />
<glyph glyph-name="D_sc" unicode="&#x1d05;" horiz-adv-x="768" d="M267 18 C241 18 238 98 238 218 L238 565 L250 565 C490 565 614 456 614 292 C614 111 475 18 267 18 L267 18 Z M294 0 C545 0 713 99 713 292 C713 467 580 583 322 583 L63 583 C63 579 64 562 63 557 L76 558 C119 561 148 518 148 452 L148 129 C148 63 119 20 76 23 L63 24 C63 19 63 2 63 -1 L294 0 L294 0 Z " />
<glyph glyph-name="E_sc" unicode="&#x1d07;" horiz-adv-x="585" d="M488 583 L43 583 C43 579 44 562 43 557 L59 558 C112 561 148 510 148 432 L148 149 C148 71 112 20 59 23 L43 24 C43 19 43 2 43 -1 L513 -1 L515 9 L514 9 C521 49 531 102 538 143 C538 143 534 141 533 141 C531 141 517 143 517 143 L510 124 C492 75 440 39 372 25 C253 46 238 118 238 217 L238 298 C325 300 390 254 402 184 L406 164 C411 164 422 166 427 164 L427 456 C427 456 423 454 422 454 C420 454 406 456 406 456 L402 436 C390 366 325 320 238 322 L238 565 L305 565 C389 565 459 519 479 450 L485 430 C490 430 501 432 506 430 C501 478 494 538 489 584 L488 583 L488 583 Z " />
<glyph glyph-name="J_sc" unicode="&#x1d0a;" horiz-adv-x="380" d="M145 453 L145 -63 C145 -168 93 -188 56 -188 C12 -188 33 -116 -11 -116 C-36 -116 -52 -132 -52 -156 C-52 -194 -18 -220 34 -220 C118 -220 235 -168 235 107 L235 453 C235 519 264 562 307 559 L320 558 C320 563 320 580 320 583 L60 583 C60 579 61 562 60 557 L73 558 C116 561 145 518 145 452 L145 453 L145 453 Z " />
<glyph glyph-name="K_sc" unicode="&#x1d0b;" horiz-adv-x="682" d="M327 403 L327 403 L238 292 L238 453 C238 519 267 562 310 559 C311 559 317 559 317 558 L321 558 L323 558 L323 558 L338 559 C409 562 404 499 327 403 L327 403 Z M63 583 C63 579 64 562 63 557 L76 558 C119 561 148 518 148 452 L148 129 C148 63 119 20 76 23 L63 24 C63 19 63 2 63 -1 L323 -1 C323 3 322 20 323 25 L310 24 C267 21 238 64 238 130 L238 292 L489 0 L661 0 C661 5 660 20 661 25 L649 24 C612 21 555 57 503 113 L307 349 L395 452 C456 519 527 562 575 559 L591 558 C591 563 591 578 591 583 L63 583 L63 583 Z " />
<glyph glyph-name="M_sc" unicode="&#x1d0d;" horiz-adv-x="816" d="M715 130 L701 466 C702 524 728 561 768 558 L781 557 C781 562 781 579 781 582 L611 582 L442 121 L240 582 L58 582 C58 577 59 562 58 557 L71 558 C97 560 126 544 151 515 L136 121 C132 60 102 21 61 24 L48 25 C48 20 48 3 48 0 L249 0 C249 4 248 21 249 26 L236 25 C193 22 166 65 167 131 L175 485 C180 477 185 468 189 459 C258 306 327 153 397 1 L420 1 L614 507 L627 121 C626 61 600 22 559 25 L546 26 C546 21 546 4 546 1 L805 1 C805 5 804 22 805 27 L792 26 C749 23 720 67 716 132 L715 130 L715 130 Z " />
<glyph glyph-name="O_sc" unicode="&#x1d0f;" horiz-adv-x="764" d="M150 292 C150 459 239 571 372 571 C516 571 612 459 612 292 C612 125 515 13 370 13 C238 13 150 125 150 292 L150 292 Z M53 292 C53 111 178 -10 366 -10 C572 -10 709 111 709 292 C709 473 576 593 376 593 C182 593 53 473 53 292 L53 292 Z " />
<glyph glyph-name="P_sc" unicode="&#x1d18;" horiz-adv-x="522" d="M345 0 C345 4 344 21 345 26 L332 25 C289 22 260 65 260 131 L260 266 L295 266 C419 266 502 314 502 420 C502 518 433 584 330 584 L85 584 C85 580 86 563 85 558 L98 559 C141 562 170 519 170 453 L170 130 C170 64 141 21 98 24 L85 25 C85 20 85 3 85 0 L345 0 L345 0 Z M260 284 L260 568 L307 568 C373 568 417 514 417 433 C417 330 368 284 295 284 L260 284 L260 284 Z " />
<glyph glyph-name="T_sc" unicode="&#x1d1b;" horiz-adv-x="715" d="M660 578 L660 583 L658 583 C652 598 645 615 639 629 C639 623 627 628 624 629 L620 622 C606 599 541 584 456 584 L255 584 C170 584 105 599 91 622 L87 629 C86 632 72 621 72 629 C46 567 18 499 -8 437 C-8 437 -3 439 -2 439 C0 439 13 437 13 437 L25 456 C63 520 146 562 233 562 L311 562 L311 131 C311 65 282 22 239 25 L226 26 C226 21 226 4 226 1 L486 1 C486 5 485 22 486 27 L473 26 C430 23 401 66 401 132 L401 563 L474 563 C561 563 644 521 682 457 L694 438 C694 438 707 440 709 440 C710 440 715 438 715 438 C698 481 674 536 658 580 L660 578 L660 578 Z " />
<glyph glyph-name="U_sc" unicode="&#x1d1c;" horiz-adv-x="671" d="M511 0 C515 1 556 9 556 11 C585 18 616 25 641 31 C641 35 640 52 641 57 L628 53 C585 39 556 75 556 141 L556 583 L381 583 C381 579 382 562 381 557 L394 558 C437 561 466 518 466 452 L466 167 C432 95 360 47 285 47 C236 47 203 109 203 201 L203 582 L28 582 C28 578 29 561 28 556 L41 557 C84 560 113 517 113 451 L113 200 C113 73 167 -12 249 -12 C341 -12 427 43 466 126 L466 -2 L511 0 L511 0 Z " />
<glyph glyph-name="V_sc" unicode="&#x1d20;" horiz-adv-x="720" d="M504 398 L398 136 L269 398 L270 398 C223 494 233 555 295 552 L313 551 C313 557 313 579 313 583 L13 583 C13 578 14 557 13 551 L24 552 C59 555 108 501 150 414 C213 273 276 132 340 -9 L358 -9 L535 399 C576 495 634 556 678 553 L691 552 C691 558 691 579 691 584 L429 584 C429 580 430 558 429 552 L450 553 C522 556 543 494 505 399 L504 398 L504 398 Z " />
<glyph glyph-name="W_sc" unicode="&#x1d21;" horiz-adv-x="977" d="M350 552 C389 555 439 502 474 418 C478 408 482 398 486 389 L373 108 L240 426 C209 505 220 554 269 551 L284 550 C284 556 284 578 284 582 L13 582 C13 582 15 567 15 563 C15 560 13 550 13 550 L24 551 C59 554 104 507 138 431 C200 284 262 136 324 -11 L347 -11 L499 352 C550 231 601 110 652 -11 L675 -11 L822 433 C851 508 898 554 943 551 L957 550 C957 550 955 560 955 563 C955 567 957 582 957 582 L692 582 C692 578 693 556 692 550 L713 551 C780 554 809 505 788 426 L694 123 L572 416 C538 499 554 553 615 550 L633 549 C633 555 633 577 633 581 L337 581 C337 576 338 555 337 549 L350 552 L350 552 Z " />
<glyph glyph-name="Z_sc" unicode="&#x1d22;" horiz-adv-x="592" d="M84 452 C101 516 179 560 278 561 L451 564 L25 18 L25 0 L546 0 L549 13 C549 13 562 69 581 152 C581 149 560 149 560 153 L552 134 C527 74 451 31 360 25 L134 21 L551 566 L551 584 L71 584 L70 572 C70 572 65 517 58 434 C58 434 66 436 69 436 C71 436 79 434 79 434 L84 452 L84 452 Z " />
<glyph glyph-name="Wgrave" unicode="&#x1e80;" horiz-adv-x="1109" d="M407 719 C446 722 494 669 526 585 L559 499 L414 120 L244 585 L245 585 C214 669 228 722 279 719 L294 718 C294 724 294 746 294 750 L11 750 C11 745 12 724 11 718 L22 719 C56 722 98 679 129 608 C208 402 287 196 366 -10 L391 -10 L576 457 C636 301 696 145 756 -10 L781 -10 L960 594 C986 673 1032 722 1078 719 L1092 718 C1092 718 1090 728 1090 731 C1090 735 1092 750 1092 750 L822 750 C822 746 823 724 822 718 L843 719 C913 722 944 669 921 585 L797 138 L635 585 C605 669 625 722 687 719 L705 718 C705 724 705 746 705 750 L397 750 C397 745 398 724 397 718 L407 719 L407 719 Z M337 996 C337 988 363 964 401 932 L543 812 L553 823 L440 971 C410 1011 387 1038 379 1038 C356 1038 337 1019 337 996 L337 996 Z " />
<glyph glyph-name="Wacute" unicode="&#x1e82;" horiz-adv-x="1109" d="M546 812 L688 932 C726 965 752 990 752 996 C752 1019 733 1038 710 1038 C704 1038 680 1011 649 971 L536 823 L546 812 L546 812 Z M407 719 C446 722 494 669 526 585 L559 499 L414 120 L244 585 L245 585 C214 669 228 722 279 719 L294 718 C294 724 294 746 294 750 L11 750 C11 745 12 724 11 718 L22 719 C56 722 98 679 129 608 C208 402 287 196 366 -10 L391 -10 L576 457 C636 301 696 145 756 -10 L781 -10 L960 594 C986 673 1032 722 1078 719 L1092 718 C1092 718 1090 728 1090 731 C1090 735 1092 750 1092 750 L822 750 C822 746 823 724 822 718 L843 719 C913 722 944 669 921 585 L797 138 L635 585 C605 669 625 722 687 719 L705 718 C705 724 705 746 705 750 L397 750 C397 745 398 724 397 718 L407 719 L407 719 Z " />
<glyph glyph-name="Wdieresis" unicode="&#x1e84;" horiz-adv-x="1109" d="M614 865 C647 865 669 887 669 920 C669 953 647 975 614 975 C581 975 559 953 559 920 C559 887 581 865 614 865 L614 865 Z M464 865 C497 865 519 887 519 920 C519 953 497 975 464 975 C431 975 409 953 409 920 C409 887 431 865 464 865 L464 865 Z M407 719 C446 722 494 669 526 585 L559 499 L414 120 L244 585 L245 585 C214 669 228 722 279 719 L294 718 C294 724 294 746 294 750 L11 750 C11 745 12 724 11 718 L22 719 C56 722 98 679 129 608 C208 402 287 196 366 -10 L391 -10 L576 457 C636 301 696 145 756 -10 L781 -10 L960 594 C986 673 1032 722 1078 719 L1092 718 C1092 718 1090 728 1090 731 C1090 735 1092 750 1092 750 L822 750 C822 746 823 724 822 718 L843 719 C913 722 944 669 921 585 L797 138 L635 585 C605 669 625 722 687 719 L705 718 C705 724 705 746 705 750 L397 750 C397 745 398 724 397 718 L407 719 L407 719 Z " />
<glyph glyph-name="Etilde" unicode="&#x1ebc;" horiz-adv-x="652" d="M211 870 C211 906 227 930 252 930 C304 930 373 865 425 865 C474 865 506 913 506 985 L491 985 C491 949 473 925 445 925 C393 925 324 990 272 990 C226 990 196 942 196 870 L211 870 L211 870 Z M556 740 L555 750 L40 750 C40 746 41 729 40 724 L56 725 C109 728 145 677 145 599 L145 149 C145 71 109 20 56 23 L40 24 C40 19 40 2 40 -1 L580 -1 L582 9 L582 9 C589 50 599 104 606 145 C606 145 602 143 601 143 C599 143 585 145 585 145 L578 126 C558 70 494 31 412 22 C263 35 245 110 245 217 L245 384 L310 384 C394 384 458 338 470 269 L474 249 C479 249 490 251 495 249 L495 543 C495 543 491 541 490 541 C488 541 474 543 474 543 L470 523 C458 454 394 408 310 408 L245 408 L245 728 L373 728 C457 728 527 682 547 613 L553 593 C558 593 569 595 574 593 C569 637 562 695 557 739 L556 740 L556 740 Z " />
<glyph glyph-name="Ygrave" unicode="&#x1ef2;" horiz-adv-x="764" d="M557 615 L429 356 L267 615 L268 615 C225 684 227 729 274 726 L288 725 C288 730 288 747 288 750 L11 750 C11 745 12 730 11 725 L21 726 C52 729 98 692 139 634 L338 322 L338 150 C338 72 302 21 249 24 L233 25 C233 20 233 3 233 0 L543 0 C543 4 542 21 543 26 L527 25 C474 22 438 73 438 151 L438 326 L607 633 C645 692 696 730 739 727 L753 726 C753 731 753 746 753 751 L497 751 C497 747 498 730 497 725 L514 726 C574 729 588 683 555 615 L557 615 L557 615 Z M184 996 C184 988 210 964 248 932 L390 812 L401 823 L287 971 C257 1011 234 1038 226 1038 C203 1038 184 1019 184 996 L184 996 Z " />
<glyph glyph-name="quoteleft" unicode="&#x2018;" horiz-adv-x="578" d="M90 640 C80 640 72 636 66 628 C64 690 92 739 130 749 L120 760 C72 747 40 689 40 614 C40 582 60 560 90 560 C142 560 142 640 90 640 L90 640 Z " />
<glyph glyph-name="quoteright" unicode="&#x2019;" horiz-adv-x="118" d="M102 692 C101 628 77 580 42 570 L53 559 C98 571 128 631 128 710 C128 739 108 759 78 759 C26 759 26 679 78 679 C88 679 96 683 102 691 L102 692 L102 692 Z " />
<glyph glyph-name="quotedblleft" unicode="&#x201c;" horiz-adv-x="578" d="M217 640 C207 640 199 636 193 628 C191 690 219 739 257 749 L247 760 C199 747 167 689 167 614 C167 582 187 560 217 560 C269 560 269 640 217 640 L217 640 Z M78 640 C68 640 60 636 54 628 C52 690 80 739 118 749 L108 760 C60 747 28 689 28 614 C28 582 48 560 78 560 C130 560 130 640 78 640 L78 640 Z " />
<glyph glyph-name="quotedblright" unicode="&#x201d;" horiz-adv-x="578" d="M241 692 C240 628 216 580 181 570 L192 559 C237 571 267 631 267 710 C267 739 247 759 217 759 C165 759 165 679 217 679 C227 679 235 683 241 691 L241 692 L241 692 Z M102 691 C101 627 77 579 42 569 L53 558 C98 570 128 630 128 709 C128 738 108 758 78 758 C26 758 26 678 78 678 C88 678 96 682 102 690 L102 691 L102 691 Z " />
<glyph glyph-name="Euro" unicode="&#x20ac;" horiz-adv-x="790" d="M614 736 C575 752 527 761 464 761 C274 761 139 644 107 462 L64 462 L55 401 L101 401 C100 385 100 368 101 352 L55 352 L46 291 L107 291 C138 109 269 -8 453 -8 C515 -8 566 1 609 18 C676 44 723 47 726 24 L729 2 C729 4 748 4 748 3 L748 122 L733 134 L733 134 L748 121 L748 226 C748 222 722 222 722 226 L715 199 C693 117 624 48 545 26 C520 19 492 15 462 15 C331 15 238 123 215 291 L511 291 L520 352 L209 352 C208 368 208 385 209 401 L520 401 L528 462 L215 462 C240 629 337 736 473 736 C501 736 526 733 549 727 C625 708 692 638 715 554 L722 527 C722 531 748 531 748 527 L748 748 C748 747 729 747 729 749 L726 728 C723 709 678 714 614 738 L614 736 L614 736 Z " />
<glyph glyph-name="F_sc" unicode="&#xa730;" horiz-adv-x="560" d="M488 583 L43 583 C43 579 44 562 43 557 L59 558 C112 561 148 510 148 432 L148 149 C148 71 112 20 59 23 L43 24 C43 19 43 2 43 -1 L343 -1 C343 3 342 20 343 25 L327 24 C274 21 238 72 238 150 L238 299 C320 297 382 251 394 183 L398 163 C403 163 414 165 419 163 L419 455 C419 455 415 453 414 453 C412 453 398 455 398 455 L394 435 C382 367 320 321 238 319 L238 566 L305 566 C389 566 459 520 479 451 L485 431 C490 431 501 433 506 431 C501 477 495 536 489 581 L488 583 L488 583 Z " />
<glyph glyph-name="S_sc" unicode="&#xa731;" horiz-adv-x="489" d="M384 595 C382 584 333 582 262 591 C146 605 66 541 66 436 C66 360 122 287 232 245 C328 208 377 164 377 126 C377 62 330 19 259 19 C178 19 109 81 86 174 L78 206 C78 202 50 203 50 207 L50 -32 C50 -29 72 -29 72 -32 L75 -8 C77 10 131 12 209 -4 C225 -7 242 -9 259 -9 C373 -9 449 56 449 153 C449 227 394 298 286 339 C188 377 137 427 137 472 C137 532 174 572 229 572 C295 572 352 519 373 440 L381 410 C381 414 409 413 409 409 L409 612 C409 609 387 609 387 612 L384 595 L384 595 Z " />
<glyph glyph-name="X_sc" unicode="&#xf078;" horiz-adv-x="704" d="M656 24 C623 21 568 66 520 135 L393 317 L514 463 C568 524 630 562 674 559 L687 558 C687 563 687 578 687 583 L447 583 C447 579 448 562 447 557 L463 558 C519 561 522 516 469 447 L469 447 L382 332 L300 449 C254 517 254 561 299 558 L313 557 C313 562 313 579 313 582 L49 582 C49 577 50 562 49 557 L59 558 C92 561 147 516 195 447 L318 271 L202 125 C149 62 86 21 42 24 L28 25 C28 20 28 5 28 0 L264 0 C264 4 263 21 264 26 L247 25 C191 22 189 68 240 137 L330 257 L415 135 C461 67 461 23 416 26 L402 27 C402 22 402 5 402 2 L666 2 C666 7 665 22 666 27 L656 24 L656 24 Z " />
</font>
</svg>
