<?xml version="1.0" encoding="UTF-8"?>
<svg xmlns="http://www.w3.org/2000/svg" xmlns:xlink="http://www.w3.org/1999/xlink" version="1.2" >
<font id="Faraz Round">
<font-face  font-family="Faraz" units-per-em="1024" ascent="975" descent="-300" font-style="normal" font-weight="400" font-stretch="normal" cap-height="1044" x-height="488" underline-position="-125" underline-thickness="50" />
<missing-glyph  horiz-adv-x="100" d="" />
<glyph glyph-name="NULL" d="" />
<glyph glyph-name="CR" unicode="&#xd;" horiz-adv-x="256" d="" />
<glyph glyph-name="space" unicode="&#x20;" horiz-adv-x="250" d="" />
<glyph glyph-name="exclam" unicode="&#x21;" horiz-adv-x="244" d="M122 -5 C158 -5 182 19 182 55 C182 91 158 115 122 115 C86 115 62 91 62 55 C62 19 86 -5 122 -5 L122 -5 Z M122 755 C81 755 64 713 70 650 L113.204 217.96 C113.641 213.588 117.606 210 122 210 C126.394 210 130.359 213.588 130.796 217.96 L174 650 C180 713 163 755 122 755 L122 755 Z " />
<glyph glyph-name="quotedbl" unicode="&#x22;" horiz-adv-x="325" d="M212 750 C193 750 181 732 187 705 L215.987 564.896 C216.535 562.25 219.297 560 222 560 C224.703 560 227.465 562.25 228.013 564.896 L257 705 C263 732 252 750 232 750 L212 750 L212 750 Z M92 750 C73 750 61 732 67 705 L95.987 564.896 C96.5345 562.25 99.2974 560 102 560 C104.703 560 107.465 562.25 108.013 564.896 L137 705 C143 732 132 750 112 750 L92 750 L92 750 Z " />
<glyph glyph-name="numbersign" unicode="&#x23;" horiz-adv-x="545" d="M387.488 650.187 L372.476 549.723 C367.849 518.758 337.956 493 306.647 493 L295.5 493 C258.105 493 231.597 523.764 237.123 560.748 L250.488 650.187 C251.859 659.365 245.28 667 236 667 C226.72 667 217.859 659.365 216.488 650.187 L201.476 549.723 C196.849 518.758 166.956 493 135.647 493 L100.305 493 C82.0904 493 64.9611 478.048 62.5 460 C60.0389 441.952 73.0904 427 91.3054 427 L120.5 427 C154.619 427 178.804 398.931 173.76 365.187 L162.479 289.72 C157.85 258.756 127.958 233 96.6501 233 L59.3766 233 C41.1616 233 23.7287 218.009 21 200 C18.2713 181.991 31.1616 167 49.3766 167 L80 167 C114.937 167 139.697 138.257 134.525 103.705 L121.517 16.8127 C120.143 7.63484 126.72 0 136 0 C145.28 0 154.143 7.63484 155.517 16.8127 L169.511 110.294 C174.145 141.249 204.038 167 235.338 167 L246.5 167 C283.893 167 310.395 136.236 304.859 99.2549 L292.517 16.8127 C291.143 7.63484 297.72 0 307 0 C316.28 0 325.143 7.63484 326.517 16.8127 L340.511 110.294 C345.145 141.249 375.038 167 406.338 167 L434.623 167 C452.838 167 470.271 181.991 473 200 C475.729 218.009 462.838 233 444.623 233 L418.5 233 C386.019 233 362.994 259.722 367.797 291.846 L379.521 370.28 C384.15 401.244 414.042 427 445.35 427 L482.695 427 C500.91 427 518.039 441.952 520.5 460 C522.961 478.048 509.91 493 491.695 493 L461.5 493 C426.835 493 402.261 521.518 407.384 555.803 L421.488 650.187 C422.859 659.365 416.28 667 407 667 C397.72 667 388.859 659.365 387.488 650.187 L387.488 650.187 Z M274.35 427 L285.5 427 C322.894 427 349.401 396.236 343.873 359.253 L333.479 289.72 C328.85 258.756 298.958 233 267.65 233 L256.5 233 C219.106 233 192.599 263.764 198.127 300.747 L208.521 370.28 C213.15 401.244 243.042 427 274.35 427 L274.35 427 Z " />
<glyph glyph-name="dollar" unicode="&#x24;" horiz-adv-x="551" d="M329 780.954 L329 810 C329 818.28 322.28 825 314 825 C305.72 825 299 818.28 299 810 L299 765.062 C299 760.739 294.151 757.6 289.85 758.034 C279.923 759.036 269.923 759.655 259.612 759.891 C255.029 759.996 250 763.916 250 768.5 L250 810 C250 818.28 243.28 825 235 825 C226.72 825 220 818.28 220 810 L220 791 C220 776.149 200.396 753.49 186.352 748.664 C111.703 723.016 65 654.875 65 563 C65 485.125 104.813 413.375 183.768 362.488 C197.919 353.367 220 317.521 220 300.684 L220 71.271 C220 51.8103 204.25 43.5713 188.129 54.4725 C140.099 86.9512 102.5 142.35 86 210 L78 242 C78 238 50 239 50 243 L50 3 C50 6 72 6 72 3 L75 26 C78 43 124 38 193 13 C200.5 9.66667 208 7.02778 215.5 4.50463 C217.845 3.71567 220 0.730889 220 -1.74342 L220 -58 C220 -66.2796 226.72 -73 235 -73 C243.28 -73 250 -66.2796 250 -58 L250 -12.6313 C250 -8.08867 254.691 -4.82401 259.192 -5.44403 C269.841 -6.91134 280.307 -7.64237 291.362 -7.89482 C296.215 -8.00564 301 -12.1457 301 -17 L301 -58 C301 -66.2796 307.72 -73 316 -73 C324.28 -73 331 -66.2796 331 -58 L331 -39.5 C331 -23.7825 347.613 -3.86009 362.826 0.09 C454.68 23.94 513 97.2 513 198 C513 281.125 465.531 358.125 373.273 406.893 C355.972 416.038 331 452.198 331 471.768 L331 692.269 C331 707.467 343.778 713.94 356.18 705.157 C393.976 678.391 422.975 635.8 437 583 L445 552 C445 556 473 555 473 551 L473 755 C473 752 451 752 451 755 L448 739 C446.35 728.275 406.925 733.204 360.609 743.681 C344.377 747.353 329 764.311 329 780.954 L329 780.954 Z M302 721.754 L302 446.849 C302 441.853 297.635 438.935 293.088 441.005 C281.329 446.356 270.088 451.782 259.662 457.579 C255.831 459.709 252 466.363 252 470.746 L252 726.986 C252 732.308 256.31 736.274 261.632 736.21 C272.666 736.079 283.037 734.677 293.261 732.521 C297.788 731.566 302 726.38 302 721.754 L302 721.754 Z M252 35.6485 L252 319.808 C252 324.439 256.624 327.11 260.939 325.428 C272.174 321.05 283.539 316.95 293.923 312.572 C297.965 310.868 302 305.11 302 300.724 L302 32.0139 C302 26.703 297.554 22.7317 292.243 22.7836 C280.947 22.8941 270 24.201 259.918 25.9313 C255.701 26.655 252 31.3699 252 35.6485 L252 35.6485 Z M363.576 273.888 C409.859 241.281 433 204.3 433 168 C433 107.775 405.775 61.1625 361.432 38.2698 C343.476 28.9993 331 38.6858 331 58.8944 L331 255.293 C331 275.304 347.217 285.414 363.576 273.888 L363.576 273.888 Z M196.966 500.5 C162.696 532.019 145 567.35 145 602 C145 654.8 164.738 696.71 198.038 718.746 C210.733 727.147 221 720.399 221 705.176 L221 511.806 C221 497.2 207.716 490.613 196.966 500.5 L196.966 500.5 Z " />
<glyph glyph-name="ampersand" unicode="&#x26;" horiz-adv-x="335" d="M354.378 475.353 C436.35 508.59 489 560.7 489 612 C489 701 419 761 315 761 C213 761 145 697 145 600 C145 567 169.503 526.513 210.085 474.609 C222.681 458.498 213.759 431.737 195.326 422.881 C100.484 377.313 40 293.75 40 201 C40 76 122 -8 245 -8 C330.8 -8 419.452 37.63 500.76 118.695 C503.484 121.41 508.827 122.763 511.267 119.789 C518.867 110.526 526.579 101.263 535 92 C585 32 651 -8 700 -8 C768.25 -8 821.29 50.9387 834.095 141.01 C834.714 145.369 831.676 149.108 827.5 150.5 C823.617 151.794 819.481 148.914 818.75 144.887 C809.575 94.3925 776.8 61 735 61 C697 61 647 91 609 136 C595.581 151.935 582.865 167.168 570.262 181.696 C566.317 186.244 564.194 191.493 567.862 196.268 C629.275 276.206 684.213 376.744 726.674 491.88 C728.48 496.776 725.218 501 720 501 C714.877 501 708.554 497.054 706.749 492.259 C671.792 399.382 627.971 318.138 578.358 252.109 C561.197 229.271 530.871 227.807 512.419 249.616 C410.525 370.05 373.81 410.075 345.322 443.096 C335.849 454.077 340.939 469.904 354.378 475.353 L354.378 475.353 Z M296.563 503.457 C249.094 563.094 220 608.375 220 646 C220 704 258 742 315 742 C378 742 420 692 420 618 C420 566.025 392.435 518.814 348.534 491.529 C329.49 479.692 310.527 485.913 296.563 503.457 L296.563 503.457 Z M452.115 126.845 C399.961 90.7381 345.8 71 293 71 C194 71 128 133 128 226 C128 307.6 160.512 377.64 213.255 415.24 C233.374 429.582 250.336 422.893 266.468 404.179 C300.665 364.507 338.811 323.453 459.574 180.473 C475.336 161.811 472.199 140.75 452.115 126.845 L452.115 126.845 Z " />
<glyph glyph-name="quotesingle" unicode="&#x27;" horiz-adv-x="204" d="M92 750 C73 750 61 732 67 705 L95.987 564.896 C96.5345 562.25 99.2974 560 102 560 C104.703 560 107.465 562.25 108.013 564.896 L137 705 C143 732 132 750 112 750 L92 750 L92 750 Z " />
<glyph glyph-name="parenleft" unicode="&#x28;" horiz-adv-x="470" d="M310.183 753.128 C183.655 661.245 100 470.925 100 273 C100 77 185 -118 313 -214 C315.252 -215.689 314.133 -211.961 315.5 -209.5 C316.793 -207.172 312.99 -201.143 310.935 -199.45 C219.889 -124.386 160 63.375 160 273 C160 486.525 222.741 673.432 317.637 744.744 C319.945 746.478 323.791 752.418 322.5 755 C321.09 757.82 312.735 754.981 310.183 753.128 L310.183 753.128 Z " />
<glyph glyph-name="parenright" unicode="&#x29;" horiz-adv-x="470" d="M35.0399 743.21 C164.444 652.494 250 467.025 250 273 C250 72 163 -119 32 -204 C29.4277 -205.669 33.1287 -206.257 34.5 -209 C35.9042 -211.808 46.6053 -207.659 49.196 -205.885 C206.382 -98.2556 310 91.65 310 273 C310 456 198 651 30 760 C27.4277 761.669 28.8713 757.743 27.5 755 C26.1808 752.362 32.6245 744.904 35.0399 743.21 L35.0399 743.21 Z " />
<glyph glyph-name="asterisk" unicode="&#x2a;" horiz-adv-x="296" d="M248.551 540.75 C261.167 534.083 273.667 537.833 282 552 C290.333 566.167 287.556 578.944 275.403 586.861 C269.546 590.677 265.432 588.286 261.935 582.234 L245.965 554.593 C242.521 548.633 242.465 543.966 248.551 540.75 L248.551 540.75 Z M267 666 C286 673 292 688 282 705 C272 722 256 724.5 241 711.5 L197 672.75 C182.212 659.727 160.508 672.195 164.309 691.53 L176 751 C180 771 170 784 150 784 C130 784 120 771 124 751 L135.565 692.674 C139.384 673.412 117.695 660.975 103 674 L78.4462 695.764 C67.9293 705.085 53.0307 702.669 46 690.5 L37.0334 674.981 C37.0227 674.962 36.797 674.619 36.8076 674.637 C45.6231 689.962 59 713 59 713 C59 713 57.301 715.158 51.4491 718.25 C38.8333 724.917 26.3333 721.167 18 707 C8 689 14 674.5 33 667.5 L89.5 648.75 C108.245 642.529 108.295 617.32 89.5751 611.025 L33 592 C14 585 8 570 18 553 C28 535 44 533.5 59 546.5 L103.73 585.893 C118.145 598.588 139.331 586.323 135.5 567.5 L124 511 C120 491 130 478 150 478 C170 478 180 491 176 511 L164.5 568 C160.644 587.113 182.088 599.548 196.761 586.709 L221.444 565.112 C232.034 555.845 246.96 558.316 254 570.5 C261.033 582.673 255.696 596.802 242.37 601.285 L211.851 611.55 C193.752 617.638 193.852 642.061 212 648 L267 666 L267 666 Z " />
<glyph glyph-name="plus" unicode="&#x2b;" horiz-adv-x="620" d="M277 427 L277 346.56 C277 309.821 247.179 280 210.44 280 L130 280 C113.441 280 100 266.559 100 250 C100 233.441 113.441 220 130 220 L210.44 220 C247.179 220 277 190.179 277 153.44 L277 73 C277 54.785 291.785 40 310 40 C328.215 40 343 54.785 343 73 L343 153.44 C343 190.179 372.821 220 409.56 220 L490 220 C506.559 220 520 233.441 520 250 C520 266.559 506.559 280 490 280 L409.56 280 C372.821 280 343 309.821 343 346.56 L343 427 C343 445.215 328.215 460 310 460 C291.785 460 277 445.215 277 427 L277 427 Z " />
<glyph glyph-name="comma" unicode="&#x2c;" horiz-adv-x="265" d="M159.488 4.2 C160 -2.2 160 -8.6 160 -15 C160 -60.6 125.705 -91.76 73.4051 -94.762 C68.2103 -95.0602 65 -99.7966 65 -105 C65 -110.895 70.6202 -115.014 76.5018 -114.613 C148.07 -109.732 195 -59.05 195 16 C195 75 167 115 125 115 C89 115 65 91 65 55 C65 19 89 -5 125 -5 C137.353 -5 147.76 -1.10727 156.22 5.99125 C157.537 7.09617 159.351 5.91354 159.488 4.2 L159.488 4.2 Z " />
<glyph glyph-name="hyphen" unicode="&#x2d;" horiz-adv-x="430" d="M115 250 L315 250 C334.319 250 350 265.681 350 285 C350 304.319 334.319 320 315 320 L115 320 C95.681 320 80 304.319 80 285 C80 265.681 95.681 250 115 250 L115 250 Z " />
<glyph glyph-name="period" unicode="&#x2e;" horiz-adv-x="195" d="M125 -5 C161 -5 185 19 185 55 C185 91 161 115 125 115 C89 115 65 91 65 55 C65 19 89 -5 125 -5 L125 -5 Z " />
<glyph glyph-name="slash" unicode="&#x2f;" horiz-adv-x="389" d="M301.128 746.272 L34.8722 -56.2718 C30.748 -68.7028 38.9027 -80 52 -80 C65.0973 -80 80.748 -68.7028 84.8722 -56.2718 L351.128 746.272 C355.252 758.703 347.097 770 334 770 C320.903 770 305.252 758.703 301.128 746.272 L301.128 746.272 Z " />
<glyph glyph-name="zero" unicode="0" horiz-adv-x="610" d="M85 250 C85 372 173 475 305 475 C424 475 525 385 525 250 C525 128 437 25 305 25 C186 25 85 115 85 250 L85 250 Z M45 250 C45 94 165 -10 305 -10 C461 -10 565 110 565 250 C565 406 445 510 305 510 C149 510 45 390 45 250 L45 250 Z " />
<glyph glyph-name="one" unicode="1" horiz-adv-x="365" d="M310 0 C310 3.42857 309.265 16.4082 309.685 23.1953 C309.76 24.4063 308.668 25.8975 307.458 25.8045 L297 25 C254 22 225 65 225 131 L225 371 C225 437 254 480 297 477 L303.5 476.5 C307.077 476.225 310 478.931 310 482.519 L310 488.5 C310 495.4 304.4 501 297.5 501 L55 501 C55 497.571 55.7347 484.592 55.3149 477.805 C55.24 476.594 56.3323 475.102 57.542 475.196 L68 476 C111 479 140 436 140 370 L140 130 C140 64 111 21 68 24 L61.5 24.5 C57.9228 24.7752 55 22.0686 55 18.4808 L55 12.5 C55 5.60037 60.6004 0 67.5 0 L310 0 L310 0 Z " />
<glyph glyph-name="two" unicode="2" horiz-adv-x="541" d="M502 135 L498 130 C472 97 406 75 331 75 L249.5 75 C227.04 75 216.775 104.348 235.629 116.552 C357.19 195.23 441 274.45 441 345 C441 444 373 510 270 510 C162.75 510 73.5619 428.246 45.998 303.667 C44.9275 298.829 47.6766 293.135 52.5 292 C57.0613 290.927 61.4201 292.343 62.4395 296.916 C82.3094 386.061 147.025 445 226 445 C304 445 356 397 356 325 C356 237 261 150 132 72 C131.793 71.875 128.363 70.6306 128.14 70.5364 C121.052 67.5379 113.877 62.8637 106.128 57.484 C106.01 57.402 102.023 54.8713 101.898 54.8 C75.9519 40.0006 49.15 25.2226 21.4925 11.2574 C18.8545 9.92536 19.579 7.19471 22 5.5 L23.2235 4.64353 C24.7609 3.56737 24.3319 1.40709 22.5 1 C21.9612 0.880261 22.0578 0 22.6098 0 L393.161 0 C410.391 0 440.412 16.6155 449.562 31.2157 L477 75 C489.645 93.0645 503.106 111.945 514.435 128.694 C516.506 131.755 515.306 135.347 512 137 L511.727 137.136 C508.636 138.682 504.159 137.699 502 135 L502 135 Z " />
<glyph glyph-name="three" unicode="3" horiz-adv-x="434" d="M18.5 -223.5 C19.3416 -228.269 31.8547 -230.668 36.6601 -230.068 C251.406 -203.234 394 -110 394 7 C394 88.675 336.147 150.612 241.778 177.088 C224.586 181.912 222.341 212.808 237.702 221.912 C325.911 274.192 379 329.075 379 386 C379 460 314 510 216 510 C122.4 510 44.9606 449.16 20.7563 358.066 C19.3183 352.655 23.085 349.925 28.5 348.5 C33.3629 347.22 38.9562 350.338 40.4262 355.147 C57.835 412.095 113.6 450 182 450 C246 450 288 413 288 357 C288 292.65 234.765 238.757 150.54 194.394 C149.369 193.777 138.548 190.971 137.227 190.892 C131.832 190.567 129.949 189.268 126 184.073 C125.362 183.233 119.581 178.293 118.636 177.824 C113.545 175.3 108.455 172.849 103.364 170.73 C101.43 169.924 99 166.823 99 164.728 L99 155.354 C99 153.698 100.519 152.759 102 153.5 L102.172 153.586 C102.392 153.696 102.234 154.078 102 154 C101.272 153.757 107.463 151.751 108.221 151.63 C227.049 132.589 305 65.875 305 -17 C305 -115.475 195.678 -193.036 29.8654 -213.536 C25.234 -214.109 17.689 -218.904 18.5 -223.5 L18.5 -223.5 Z " />
<glyph glyph-name="four" unicode="4" horiz-adv-x="620" d="M599 33 C603.75 61.5 608.5 97.22 612.393 126.442 C612.695 128.712 610.836 131.014 608.553 131.195 C599.976 131.876 589.692 134.154 588 135 L586 124 C578 89 531 65 468 65 L441.5 65 C426.873 65 415 76.8728 415 91.5 L415 524.5 C415 527.536 412.536 530 409.5 530 C407.078 530 402.145 527.544 400.685 525.611 L19.5204 20.9846 C18.0165 18.9936 15 9.99514 15 7.5 C15 3.36022 18.3602 0 22.5 0 L263.44 0 C300.179 0 330 -29.8209 330 -66.56 L330 -177.5 C330 -200.959 349.041 -220 372.5 -220 C395.959 -220 415 -200.959 415 -177.5 L415 -22.5 C415 -10.0807 425.081 0 437.5 0 L460 0 C521.425 0 561.936 -18.0619 562.997 -44.917 C563.016 -45.4085 562.695 -49.4415 562.634 -49.9296 L562.372 -52.0232 C562.181 -53.5509 564.052 -55.0435 565.588 -55.1528 C571.051 -55.5417 578.81 -56.5972 583.829 -57.4306 C585.174 -57.654 587.111 -57.2532 587.309 -55.9037 C591.23 -29.1091 595.603 6.69231 599.5 33 L599 33 Z M163.298 158.964 L235.136 254.648 C266.575 296.522 330 275.362 330 223 L330 131.42 C330 94.7582 300.242 64.9374 263.58 64.8602 L211.25 64.75 C158.916 64.6398 131.876 117.113 163.298 158.964 L163.298 158.964 Z " />
<glyph glyph-name="five" unicode="5" horiz-adv-x="436" d="M354 555 L346.123 555 C343.915 555 341.535 553.142 341 551 L340 547 C332 519 284 500 221 500 L142.433 500 C112.341 500 82.4156 475.078 76.9715 445.481 L33.9231 211.455 C33.011 206.496 36.2056 197.32 40 194 C42.9078 191.456 54.7664 187 58.6301 187 L86 187 C234 187 332 121 332 21 C332 -98.925 228.382 -193.183 72.1229 -216.358 C67.8707 -216.989 60.2319 -221.71 60.5 -226 C60.7816 -230.505 71.9996 -232.602 76.4677 -231.959 C275.814 -203.281 407 -91.375 407 50 C407 186 282 277 95 277 L85.5 277 C80.3426 277 76.7845 281.271 77.7162 286.344 L93.0674 369.923 C98.4513 399.235 128.179 424.209 157.98 424.456 L320.163 425.802 C333.094 425.909 345.967 437.562 348.154 450.307 C353.827 483.367 359.237 514.325 364.385 543.18 C365.529 549.592 360.514 555 354 555 L354 555 Z " />
<glyph glyph-name="six" unicode="6" horiz-adv-x="568" d="M527.689 744.978 C240.125 676.832 50 497.7 50 291 C50 110 146 -10 290 -10 C425 -10 515 90 515 239 C515 375 427 466 295 466 C247.975 466 207.756 450.346 177.713 422.406 C174.364 419.291 167.244 423.486 168.913 427.744 C229.525 582.485 368.7 699.05 553 738 C556.338 738.705 552.327 740.69 551.5 744 C550.653 747.387 531.086 745.783 527.689 744.978 L527.689 744.978 Z M135 247 C135 364 195 442 286 442 C372 442 430 363 430 244 C430 107 372 16 285 16 C195 16 135 108 135 247 L135 247 Z " />
<glyph glyph-name="seven" unicode="7" horiz-adv-x="455" d="M215 500 C152 500 115 516 123 540 L126 547 C121 547 108 551 105 554 C93 527 78 492 65 465 L55 440 C45.6667 420.4 35.4622 399.058 27.6388 381.665 C27.1135 380.497 28.3797 378.399 29.6586 378.335 C37.0237 377.964 47.3077 372.692 49 371 L51.541 376.717 C51.7242 377.13 54.1698 381.926 54.4152 382.304 C73.6562 411.988 125.575 431 187 431 L300.34 431 C352.072 431 382.217 384.506 361.106 337.278 L125.263 -190.329 C118.58 -205.281 128.123 -220 144.5 -220 C161.213 -220 182.737 -205.292 188.811 -189.722 L449.274 478.013 C449.821 479.414 452 490.996 452 492.5 C452 496.64 448.64 500 444.5 500 L215 500 L215 500 Z " />
<glyph glyph-name="eight" unicode="8" horiz-adv-x="543" d="M221.915 369.915 C229.857 365.857 238.429 362.429 247 359 C360 313 436 271 436 208 C436 89 370 10 271 10 C177 10 114 76 114 174 C114 256.875 152.5 330.719 213.744 368.653 C215.801 369.927 219.761 371.016 221.915 369.915 L221.915 369.915 Z M157.25 357.637 C85.0725 308.277 41 241 41 173 C41 63 133 -11 272 -11 C411 -11 504 62 504 172 C504 279.95 454.87 343.105 375.648 390.329 C358.995 400.255 358.738 429.143 374.651 440.216 C438.204 484.439 477 541.9 477 598 C477 695 394 760 270 760 C148 760 66 688 66 580 C66 513.175 100.712 453.837 158.344 409.285 C172.818 398.096 172.351 367.964 157.25 357.637 L157.25 357.637 Z M294.5 432 L280 438 C192 473 134 536 134 613 C134 695 195 749 286 749 C357 749 405 686 405 591 C405 528.1 372.914 469.478 322.197 434.129 C315.612 429.54 301.916 428.931 294.5 432 L294.5 432 Z " />
<glyph glyph-name="nine" unicode="9" horiz-adv-x="568" d="M40.3109 -244.978 C327.875 -176.832 518 2.3 518 209 C518 390 422 510 278 510 C143 510 53 410 53 261 C53 125 141 34 273 34 C320.025 34 360.244 49.6544 390.287 77.594 C393.636 80.7088 400.756 76.5145 399.087 72.2557 C338.475 -82.485 199.3 -199.05 15 -238 C11.6623 -238.705 15.6726 -240.69 16.5 -244 C17.3467 -247.387 36.9138 -245.783 40.3109 -244.978 L40.3109 -244.978 Z M433 253 C433 136 373 58 282 58 C196 58 138 137 138 256 C138 393 196 484 283 484 C373 484 433 392 433 253 L433 253 Z " />
<glyph glyph-name="colon" unicode="&#x3a;" horiz-adv-x="135" d="M125 385 C161 385 185 409 185 445 C185 481 161 505 125 505 C89 505 65 481 65 445 C65 409 89 385 125 385 L125 385 Z M125 -5 C161 -5 185 19 185 55 C185 91 161 115 125 115 C89 115 65 91 65 55 C65 19 89 -5 125 -5 L125 -5 Z " />
<glyph glyph-name="semicolon" unicode="&#x3b;" horiz-adv-x="265" d="M125 385 C161 385 185 409 185 445 C185 481 161 505 125 505 C89 505 65 481 65 445 C65 409 89 385 125 385 L125 385 Z M159.488 4.2 C160 -2.2 160 -8.6 160 -15 C160 -60.6 125.705 -91.76 73.4051 -94.762 C68.2103 -95.0602 65 -99.7966 65 -105 C65 -110.895 70.6202 -115.014 76.5018 -114.613 C148.07 -109.732 195 -59.05 195 16 C195 75 167 115 125 115 C89 115 65 91 65 55 C65 19 89 -5 125 -5 C137.353 -5 147.76 -1.10727 156.22 5.99125 C157.537 7.09617 159.351 5.91354 159.488 4.2 L159.488 4.2 Z " />
<glyph glyph-name="equal" unicode="&#x3d;" horiz-adv-x="533" d="M83 200 C83 189.513 91.5126 181 102 181 L444 181 C454.487 181 463 189.513 463 200 C463 210.487 454.487 219 444 219 L102 219 C91.5126 219 83 210.487 83 200 L83 200 Z M83 300 C83 289.513 91.5126 281 102 281 L444 281 C454.487 281 463 289.513 463 300 C463 310.487 454.487 319 444 319 L102 319 C91.5126 319 83 310.487 83 300 L83 300 Z " />
<glyph glyph-name="question" unicode="&#x3f;" horiz-adv-x="299" d="M125 -5 C161 -5 185 19 185 55 C185 91 161 115 125 115 C89 115 65 91 65 55 C65 19 89 -5 125 -5 L125 -5 Z M125 217.5 L125 313.5 C125 335.269 147.123 359.722 168.639 363.027 C229.581 372.39 256.95 402.75 285 444 C303 471 315 515 315 555 C315 678 247 760 145 760 C97 760 65 735 65 697 C65 672 83 655 111 655 C131 655 157 670 176 670 C244 670 289 620 289 545 C289 529 280 505 266 485 C248 458 222 440 97 440 C96.4432 440 98.009 438.457 98.1772 437.926 C105.488 414.867 110 210 110 210 C110 210 113.268 210 117.5 210 C121.64 210 125 213.36 125 217.5 L125 217.5 Z M97 440 L97 440 L97 440 L97 440 Z " />
<glyph glyph-name="at" unicode="&#x40;" horiz-adv-x="1160" d="M1035.76 -10.6343 C964.986 -147.691 788.925 -238 591 -238 C310 -238 122 -39 122 259 C122 556 305 754 580 754 C855 754 1038 590 1038 343 C1038 141 965 7 855 7 C760 7 716 84 745 200 L805.299 441.194 C810.494 461.974 796.42 480 775 480 L774.655 480 C753.404 480 730.591 462.132 725.5 441.5 L722.781 430.482 C720.983 423.194 708.126 422.9 704.297 429.356 C681.649 467.539 639.45 490 585 490 C407 490 289 371 289 192 C289 82 360 8 466 8 C533.65 8 593.813 35.9056 635.259 83.2941 C642.443 91.5086 663.595 90.2719 667.226 79.9809 C689.7 16.2925 750.9 -22 841 -22 C1000 -22 1106 124 1106 343 C1106 604 896 778 581 778 C266 778 56 570 56 259 C56 -48 278 -253 611 -253 C810.875 -253 989.836 -156.987 1064.47 -11.3036 C1067.85 -4.70129 1062.92 0 1055.5 0 C1048.69 0 1038.89 -4.58149 1035.76 -10.6343 L1035.76 -10.6343 Z M703.013 348.051 L666 200 C644 113 582 55 511 55 C434 55 383 116 383 208 C383 363 463 466 584 466 C653.35 466 700.138 426.29 704.643 365.732 C704.781 363.881 703.463 349.852 703.013 348.051 L703.013 348.051 Z " />
<glyph glyph-name="A" unicode="A" horiz-adv-x="796" d="M768.466 30.8945 C722.413 31.0719 672.225 91.4 642 185 L471.941 717.056 C471.894 717.202 471.012 719.947 470.979 720.097 C470.44 722.531 459.872 770 455 770 L450 770 C447.783 770 445.432 767.095 445.333 764.88 C444.424 744.635 416.947 727.429 374.566 720.549 C371.792 720.099 371.692 717.692 372.5 715 C372.974 713.419 372.883 706.609 372.366 705.042 L200 182 C168 88 103 28 36 31 L21.5902 31 C18.5543 31 16.4569 28.4869 17 25.5 L18 20 C18 15 16 0 16 0 C16 0 19.9099 0 23.5664 0 L306 0 C306 3.52941 305.221 21.0727 305.725 28.5864 C305.808 29.8145 304.681 31 303.45 31 L287 31 C225 28 201 83 224 171 L243.338 232.427 C251.058 256.948 281.119 279 306.826 279 L459.879 279 C485.787 279 515.843 256.819 523.481 232.062 L538 185 C568 89 546 27 481 30 L471.5 30 C466.256 30 462 25.7437 462 20.5 L462 14.5 C462 5.94446 468.944 -1 477.5 -1 L787 -1 C787 3.375 786.234 19.2344 786.713 27.1504 C786.804 28.6591 785.474 30.1018 783.965 30.2023 L776.333 30.7111 C776.261 30.7159 768.538 30.8943 768.466 30.8945 L768.466 30.8945 Z M294.408 390.636 L326.045 490.643 C344.696 549.599 424.993 549.501 443.5 490.5 L474.873 390.481 C489.16 344.934 459.099 304 411.364 304 L357.868 304 C310.047 304 279.984 345.043 294.408 390.636 L294.408 390.636 Z " />
<glyph glyph-name="B" unicode="B" horiz-adv-x="685" d="M334 9 L284 9 C261 9 245 97 245 229 L245 345 C245 367.079 262.921 385 285 385 L325 385 C451 385 535 311 535 201 C535 45 455 9 334 9 L334 9 Z M365 0 C533 0 645 38 645 201 C645 289.4 590.813 356.125 502.089 385.822 C492.367 389.076 492.423 410.465 501.838 414.525 C574.121 445.693 617 500.7 617 570 C617 678 562 750 330 750 L60 750 C60 746.471 60.7785 728.927 60.2748 720.727 C60.1831 719.234 61.5409 718.119 63.0324 718.233 L73 719 C116 722 145 681 145 615 L145 135 C145 69 116 28 73 31 L66.5 31 C62.9122 31 60 28.0878 60 24.5 L60 15.5 C60 6.94446 66.9445 0 75.5 0 L365 0 L365 0 Z M335 402 L290 402 C265.161 402 245 422.161 245 447 L245 707.5 C245 719.919 255.081 730 267.5 730 L290 730 C474 730 517 662 517 560 C517 465 444 402 335 402 L335 402 Z " />
<glyph glyph-name="C" unicode="C" horiz-adv-x="740" d="M670 526 C670 530 698 530 698 526 L698 747 C698 744 676 744 676 747 L673 728 C670 711 628 714 567 735 C527 751 478 760 414 760 C196 760 50 606 50 375 C50 144 191 -10 403 -10 C468 -10 521 0 565 18 C627 39 670 40 673 20 L676 -1 C676 2 698 2 698 -1 L698 223 C698 219 670 219 670 223 L662 195 C640 116 578 50 505 25 C477 16 447 11 413 11 C261 11 160 156 160 373 C160 589 266 733 424 733 C454 733 480 730 504 724 C576 703 639 636 662 553 L670 526 L670 526 Z M670 525 L670 525 L670 525 L670 525 Z M683 131 L683 131 L683 131 L683 131 Z M670 223 L670 223 L670 223 Z " />
<glyph glyph-name="D" unicode="D" horiz-adv-x="853" d="M295 20 C250 20 245 99 245 218 L245 710 C245 721.039 253.961 730 265 730 L285 730 C551 730 688 588 688 375 C688 141 531 20 295 20 L295 20 Z M325 0 C609 0 798 128 798 375 C798 600 651 750 365 750 L60 750 C60 746.571 60.7347 733.592 60.3149 726.805 C60.24 725.594 61.3323 724.102 62.542 724.196 L73 725 C116 728 145 685 145 619 L145 129 C145 63 116 20 73 23 L66.5 23.5 C62.9228 23.7752 60 21.0686 60 17.4808 L60 11.5 C60 4.60042 65.6004 -0.978866 72.4999 -0.952831 L325 0 L325 0 Z " />
<glyph glyph-name="E" unicode="E" horiz-adv-x="652" d="M556 740 L555.5 745 C555.225 747.746 552.735 750 549.975 750 L40 750 C40 746.571 40.7347 733.592 40.3149 726.805 C40.2398 725.591 41.3308 724.083 42.5445 724.159 L56 725 C109 728 145 677 145 599 L145 149 C145 71 109 20 56 23 L48 23.5 C43.5928 23.7754 40 20.4002 40 15.9844 L40 11.5 C40 4.60037 45.6004 -1 52.5 -1 L574.901 -1 C577.661 -1 580.459 1.29374 581 4 L582 9 C589 50 599 104 606 145 C606.213 146.249 604.677 144.471 603.5 144 L601 143 C599 143 585 145 585 145 C585 145 584.225 142.895 582.555 138.365 L578 126 C558.5 71.4 497.173 32.9606 418.116 22.731 C417.063 22.5947 402.124 22.9717 401.069 23.0908 C262.111 38.77 245 112.675 245 217 L245 351.5 C245 369.439 259.561 384 277.5 384 L310 384 C394 384 458 338 470 269 L474 249 C478.5 249 487.86 250.62 493.332 249.486 C494.517 249.24 495 250.482 495 251.693 L495 540.307 C495 541.687 493.781 542.512 492.5 542 L490 541 C488 541 474 543 474 543 C474 543 473.422 540.112 472.613 536.066 L470 523 C458 454 394 408 310 408 L277.5 408 C259.561 408 245 422.561 245 440.5 L245 664 C245 699.326 273.674 728 309 728 L373 728 C457 728 527 682 547 613 L553 593 C557.5 593 566.86 594.62 572.332 593.486 C573.474 593.249 573.743 595.254 573.611 596.413 C568.617 639.99 561.372 696.628 556.5 739.5 L556 740 Z " />
<glyph glyph-name="F" unicode="F" horiz-adv-x="627" d="M484.5 385 L484.5 409 L484.01 541.307 C484.005 542.689 482.783 543.513 481.5 543 L479 542 C477 542 463 544 463 544 C463 544 462.422 541.112 461.613 537.066 L459 524 C447 455 383 409 299 409 L272 409 C257.097 409 245 421.097 245 436 L245 670 C245 704.774 273.226 733 308 733 L371 733 C456 733 526 687 546 618 L552 598 C556.5 598 565.86 599.62 571.332 598.486 C572.459 598.252 572.706 600.112 572.549 601.253 C566.676 643.891 560.375 700.075 555.5 742 L555.25 746 C555.112 748.204 553.2 750 550.992 750 L40 750 C40 746.571 40.7347 733.592 40.3149 726.805 C40.2398 725.591 41.3308 724.083 42.5445 724.159 L56 725 C109 728 145 677 145 599 L145 149 C145 71 109 20 56 23 L48 23.5 C43.5928 23.7754 40 20.4002 40 15.9844 L40 11.5 C40 4.60037 45.6004 -1 52.5 -1 L350 -1 C350 2.42857 349.265 15.4082 349.685 22.1953 C349.76 23.4091 348.669 24.9168 347.455 24.841 L334 24 C281 21 245 72 245 150 L245 358 C245 372.903 257.097 385 272 385 L299 385 C383 385 447 339 459 270 L463 250 C467.5 250 476.86 251.62 482.332 250.486 C483.517 250.24 484 251.482 484 252.693 L484 385 L484.5 385 Z " />
<glyph glyph-name="G" unicode="G" horiz-adv-x="817" d="M575.5 155 C575.5 139 576 124 576 109 C574 49 516 10 429 10 C268 10 161 156 161 375 C161 591 267 735 425 735 C455 735 481 732 505 726 C577 705 640 638 663 555 L671 527 C671 531 699 531 699 527 L699 748 C699 745 677 745 677 748 L674 729 C671 712 629 715 568 736 C528 752 479 761 415 761 C197 761 51 607 51 376 C51 145 196 -9 413 -9 C559.25 -9 658.919 17.6175 746.302 56.9496 C750.504 58.841 751.449 63.3242 749.5 67.5 C747.594 71.5833 742.081 73.2169 737.954 71.4077 C722.442 64.607 706.384 58.292 689.444 52.4628 C682.817 50.1824 676 54.1158 676 61.1244 L676 157 C676 244 708 299 757 296 L764 295.5 C767.854 295.225 771 298.154 771 302.018 L771 311 C771 319.832 763.832 327 755 327 L481 327 C481 323.471 481.779 305.927 481.275 297.727 C481.183 296.232 482.54 295.11 484.034 295.217 L495 296 C544 299 575.5 243 575.5 156 L575.5 155 Z M671 528 L671 528 L671 528 L671 528 Z " />
<glyph glyph-name="H" unicode="H" horiz-adv-x="861" d="M801 0 C801 3.42857 800.265 16.4082 800.685 23.1953 C800.76 24.4063 799.668 25.8975 798.458 25.8045 L788 25 C745 22 716 65 716 131 L716 621 C716 687 745 730 788 727 L794.5 726.5 C798.077 726.225 801 728.931 801 732.519 L801 738.5 C801 745.4 795.4 751 788.5 751 L531 751 C531 747.571 531.735 734.592 531.315 727.805 C531.24 726.594 532.332 725.102 533.542 725.196 L544 726 C587 729 616 686 616 620 L616 475.56 C616 438.821 586.179 409 549.44 409 L347.56 409 C310.821 409 281 438.821 281 475.56 L281 620 C281 686 310 729 353 726 L359.5 725.5 C363.077 725.225 366 727.931 366 731.519 L366 737.5 C366 744.4 360.4 750 353.5 750 L96 750 C96 746.571 96.7347 733.592 96.3149 726.805 C96.24 725.594 97.3323 724.102 98.542 724.196 L109 725 C152 728 181 685 181 619 L181 129 C181 63 152 20 109 23 L102.5 23.5 C98.9228 23.7752 96 21.0686 96 17.4808 L96 11.5 C96 4.60037 101.6 -1 108.5 -1 L366 -1 C366 2.42857 365.265 15.4082 365.685 22.1953 C365.76 23.4063 364.668 24.8975 363.458 24.8045 L353 24 C310 21 281 64 281 130 L281 316.44 C281 353.179 310.821 383 347.56 383 L549.44 383 C586.179 383 616 353.179 616 316.44 L616 130 C616 64 587 21 544 24 L537.5 24.5 C533.923 24.7752 531 22.0686 531 18.4808 L531 12.5 C531 5.60037 536.6 0 543.5 0 L801 0 L801 0 Z " />
<glyph glyph-name="I" unicode="I" horiz-adv-x="385" d="M325 0 C325 3.42857 324.265 16.4082 324.685 23.1953 C324.76 24.4063 323.668 25.8975 322.458 25.8045 L312 25 C269 22 240 65 240 131 L240 621 C240 687 269 730 312 727 L318.5 726.5 C322.077 726.225 325 728.931 325 732.519 L325 738.5 C325 745.4 319.4 751 312.5 751 L55 751 C55 747.571 55.7347 734.592 55.3149 727.805 C55.24 726.594 56.3323 725.102 57.542 725.196 L68 726 C111 729 140 686 140 620 L140 130 C140 64 111 21 68 24 L61.5 24.5 C57.9228 24.7752 55 22.0686 55 18.4808 L55 12.5 C55 5.60037 60.6004 0 67.5 0 L325 0 L325 0 Z " />
<glyph glyph-name="J" unicode="J" horiz-adv-x="385" d="M140 620 L140 -72 C140 -167 82 -185 40 -185 C-9 -185 15 -105 -35 -105 C-62 -105 -80 -123 -80 -150 C-80 -192 -42 -220 15 -220 C110 -220 240 -166 240 116 L240 620 C240 686 269 729 312 726 L318.5 725.5 C322.077 725.225 325 727.931 325 731.519 L325 737.5 C325 744.4 319.4 750 312.5 750 L55 750 C55 746.571 55.7347 733.592 55.3149 726.805 C55.24 725.594 56.3323 724.102 57.542 724.196 L68 725 C111 728 140 685.5 140 619.5 L140 620 Z " />
<glyph glyph-name="K" unicode="K" horiz-adv-x="775" d="M404 570 L322.412 469.94 C295.41 436.824 245 454.771 245 497.5 L245 620 C245 686 274 729 317 726 L323.5 725.5 C327.077 725.225 330 727.931 330 731.519 L330 737.5 C330 744.4 324.4 750 317.5 750 L60 750 C60 746.571 60.7347 733.592 60.3149 726.805 C60.24 725.594 61.3323 724.102 62.542 724.196 L73 725 C116 728 145 685 145 619 L145 129 C145 63 116 20 73 23 L66.5 23.5 C62.9228 23.7752 60 21.0686 60 17.4808 L60 11.5 C60 4.60037 65.6004 -1 72.5 -1 L330 -1 C330 2.42857 329.265 15.4082 329.685 22.1953 C329.76 23.4063 328.668 24.8975 327.458 24.8045 L317 24 C274 21 245 64 245 130 L245 252.5 C245 295.99 295.818 314.502 323.791 281.201 L540.051 23.7491 C548.482 13.7117 577.907 0 591.016 0 L754 0 C754 4.16667 753.306 15.2778 753.653 21.7593 C753.717 22.9608 752.658 24.8882 751.459 24.7883 L742 24 C704 21 647 57 595 113 L359.303 393.756 C339.533 417.306 339.734 456.523 359.745 479.869 L467 605 C531 680 608 729 659 726 L666.5 725.5 C670.631 725.225 674 728.377 674 732.517 L674 737.5 C674 744.4 668.4 750 661.5 750 L396 750 C396 746.571 396.735 733.592 396.315 726.805 C396.24 725.588 397.329 724.063 398.547 724.121 L417 725 C488 728 482.5 665.5 403.5 569.5 L404 570 Z " />
<glyph glyph-name="L" unicode="L" horiz-adv-x="650" d="M577 8 C584 48 594 102 601 142 C601.218 143.245 599.674 141.469 598.5 141 L596 140 C594 140 580 142 580 142 C580 142 579.225 139.895 577.555 135.365 L573 123 C553.5 68.4 492.173 29.9606 413.116 19.731 C412.059 19.5944 397.127 19.9729 396.069 20.0927 C257.111 35.8212 240 110.75 240 218 L240 620 C240 686 269 729 312 726 L318.5 725.5 C322.077 725.225 325 727.931 325 731.519 L325 737.5 C325 744.4 319.4 750 312.5 750 L55 750 C55 746.571 55.7347 733.592 55.3149 726.805 C55.24 725.594 56.3323 724.102 57.542 724.196 L68 725 C111 728 140 685 140 619 L140 129 C140 63 111 20 68 23 L61.5 23.5 C57.9228 23.7752 55 21.0686 55 17.4808 L55 11.5 C55 4.60037 60.6004 -1 67.5 -1 L570.39 -1 C572.874 -1 575.461 1.07528 576 3.5 L577 8 L577 8 Z " />
<glyph glyph-name="M" unicode="M" horiz-adv-x="900" d="M800 130 L784 628 C784 689 811 728 852 725 L858.5 724.5 C862.077 724.225 865 726.931 865 730.519 L865 736.5 C865 743.4 859.4 749 852.5 749 L732.949 749 C707.845 749 677.765 727.331 669.815 703.519 L538.239 309.425 C517.508 247.332 435.109 246.148 412.602 307.62 L266.991 705.324 C258.703 727.962 228.596 749 204.489 749 L56 749 C56 744.833 56.6944 733.722 56.3472 727.241 C56.2828 726.038 57.341 724.103 58.542 724.196 L69 725 C92.1 726.65 116.561 714.007 138.453 691.563 C145.075 684.774 151.666 665.184 151.373 655.706 L135 126 C132 61 102 19 59 22 L53 22.5 C49.6996 22.775 47 20.291 47 16.9792 L47 10.5 C47 3.60037 52.6004 -2 59.5 -2 L251 -2 C251 1.42857 250.265 14.4082 250.685 21.1953 C250.76 22.4063 249.668 23.8975 248.458 23.8045 L238 23 C197 20 170 58 168 118 L176.179 518.785 C176.682 543.416 214.019 544.449 223.252 521.609 C291.623 352.487 360.73 182.853 429.549 14.7546 C431.969 8.84473 442.114 -1 448.5 -1 C455.02 -1 462.955 4.65095 465.088 10.8128 L600.004 400.703 C617.076 450.039 693.642 438.188 695 386 L702 117 C700 58 673 20 633 23 L626.5 23.5 C622.923 23.7752 620 21.0686 620 17.4808 L620 11.5 C620 4.60037 625.6 -1 632.5 -1 L889 -1 C889 2.42857 888.265 15.4082 888.685 22.1953 C888.76 23.4063 887.668 24.8975 886.458 24.8045 L876 24 C833 21 802.5 64 800.5 130 L800 130 Z " />
<glyph glyph-name="N" unicode="N" horiz-adv-x="786" d="M611 620 L611.733 290.805 C611.82 251.711 560.648 240.876 537.537 272.406 C427.734 422.205 318.427 572.394 209.15 722.043 C200.261 734.216 169.269 751 154.196 751 L-3 751 C-3 746.833 -2.30556 735.722 -2.65278 729.241 C-2.71722 728.038 -1.65902 726.103 -0.458 726.196 L10 727 C40.625 729.625 82.7344 705.453 122.26 665.203 C129.67 657.657 138.972 632.758 138.952 622.183 L138 131 C138 65 109 22 66 25 L59.5 25.5 C55.9228 25.7752 53 23.0686 53 19.4808 L53 13.5 C53 6.60037 58.6004 1 65.5 1 L253 1 C253 4.42857 252.265 17.4082 252.685 24.1953 C252.76 25.4063 251.668 26.8975 250.458 26.8045 L240 26 C200 23 171 60 167 119 L164.766 487.692 C164.518 528.47 218.175 539.828 242.23 506.9 C361.455 343.7 480.791 180.5 600.752 17.3 C603.386 13.7158 617.552 2 622 2 C627.519 2 632.051 6.48037 632.113 11.9994 L639 622 C641 687 669 731 712 728 L718.5 727.5 C722.077 727.225 725 729.931 725 733.519 L725 739.5 C725 746.4 719.4 752 712.5 752 L525 752 C525 748.571 525.735 735.592 525.315 728.805 C525.24 727.594 526.332 726.102 527.542 726.196 L538 727 C581 730 609.5 685.5 610.5 620.5 L611 620 Z " />
<glyph glyph-name="O" unicode="O" horiz-adv-x="851" d="M159 375 C159 591 261 735 414 735 C578 735 687 591 687 375 C687 159 577 15 413 15 C261 15 159 159 159 375 L159 375 Z M50 375 C50 144 193 -10 408 -10 C641 -10 796 144 796 375 C796 606 645 760 418 760 C197 760 50 606 50 375 L50 375 Z " />
<glyph glyph-name="P" unicode="P" horiz-adv-x="628" d="M355 0 C355 3.42857 354.265 16.4082 354.685 23.1953 C354.76 24.4063 353.668 25.8975 352.458 25.8045 L342 25 C299 22 270 65 270 131 L270 320 C270 333.799 281.201 345 295 345 L320 345 C493 345 608 405 608 540 C608 667 513 751 370 751 L85 751 C85 747.571 85.7347 734.592 85.3149 727.805 C85.24 726.594 86.3323 725.102 87.542 725.196 L98 726 C141 729 170 686 170 620 L170 130 C170 64 141 21 98 24 L91.5 24.5 C87.9228 24.7752 85 22.0686 85 18.4808 L85 12.5 C85 5.60037 90.6004 0 97.5 0 L355 0 L355 0 Z M270 390 L270 695.5 C270 716.199 286.801 733 307.5 733 L345 733 C447 733 515 662 515 555 C515 424 437 365 320 365 L295 365 C281.201 365 270 376.201 270 390 L270 390 Z " />
<glyph glyph-name="Q" unicode="Q" horiz-adv-x="846" d="M1142.5 -37 C1140.71 -34.9523 1138.46 -33.543 1136.27 -35.1561 C1098.53 -62.9381 972.05 -81 818 -81 C634.7 -81 463.758 -53.4319 364.493 -10.3448 C363.264 -9.81112 364.487 -7.8581 365.82 -7.99174 C379.182 -9.33058 393.091 -10 407 -10 C640 -10 795 144 795 375 C795 606 644 760 417 760 C196 760 49 606 49 375 C49 214.125 118.396 90.3244 233.089 30.477 C233.269 30.3829 254.387 17.6326 254.557 17.52 C419.167 -91.8019 636.275 -165 803 -165 C917.075 -165 1050.16 -117.469 1139.24 -46.5046 C1141.58 -44.6398 1144.47 -39.2522 1142.5 -37 L1142.5 -37 Z M159 375 C159 591 261 735 414 735 C578 735 687 591 687 375 C687 151 566 2 385 2 C249 2 159 151 159 375 L159 375 Z " />
<glyph glyph-name="R" unicode="R" horiz-adv-x="796" d="M786 10 C786 15.4968 778.762 19.999 773.265 20.0217 C696.41 20.34 689.95 24.9 651 80 C567.7 197.3 502.463 289.312 465.728 340.684 C458.426 350.896 465.827 367.7 477.836 371.356 C560.78 396.61 611 450.7 611 538 C611 665 507 750 350 750 L60 750 C60 746.571 60.7347 733.592 60.3149 726.805 C60.24 725.594 61.3323 724.102 62.542 724.196 L73 725 C116 728 145 685 145 619 L145 129 C145 63 116 20 73 23 L66.5 23.5 C62.9228 23.7752 60 21.0686 60 17.4808 L60 11.5 C60 4.60037 65.6004 -1 72.5 -1 L330 -1 C330 2.42857 329.265 15.4082 329.685 22.1953 C329.76 23.4063 328.668 24.8975 327.458 24.8045 L317 24 C274 21 245 64 245 130 L245 304.5 C245 332.374 267.626 355 295.5 355 L325.161 355 C334.512 355 351.142 346.339 356.127 338.428 C384.906 292.75 449 199.125 533 81 C586.625 5.925 597.947 0.720938 771.802 0.507656 C777.329 0.500877 786 4.47353 786 10 L786 10 Z M244 433.5 L244 693.5 C244 714.199 260.801 731 281.5 731 L319 731 C427 731 499 662 499 559 C499 436 439 381 349 381 L296.5 381 C267.522 381 244 404.522 244 433.5 L244 433.5 Z " />
<glyph glyph-name="S" unicode="S" horiz-adv-x="551" d="M337 748 C312 756 285 760 257 760 C142 760 65 681 65 563 C65 462 132 371 263 323 C375 282 432 224 432 167 C432 70 364 11 264 24 C182 35 111 108 87 208 L79 240 C79 236 51 237 51 241 L51 1 C51 4 73 4 73 1 L76 24 C79 41 125 36 194 11 C226 -2 260 -9 294 -9 C425 -9 513 73 513 197 C513 294 449 383 324 428 C206 471 145 537 145 602 C145 682 190 736 258 736 C342 736 413 674 437 582 L445 551 C445 555 473 554 473 550 L473 754 C473 751 451 751 451 754 L448 738 C446 727 402 731 338 748 L337 748 Z " />
<glyph glyph-name="T" unicode="T" horiz-adv-x="775" d="M721 737 L720 740 C719.925 740.225 718.461 745.875 718.417 746.108 L718.25 747 C718.156 747.502 715.92 754.864 715.723 755.335 C710.218 768.472 703.297 782.659 698.737 794.116 C698.599 794.464 697.245 793.938 696.936 793.728 C693.934 791.686 685.455 795.182 683 796 L679 789 C665 766 600 751 515 751 L256 751 C171 751 106 766 92 789 L88 796 C87.1333 798.6 76.5022 790.684 73.6827 793.735 C73.2663 794.186 71.7283 792.861 71.4979 792.293 L49.5 738 C32.5 697 10 642 -7 601 C-7.5049 599.782 -5.25057 601.583 -4 602 L-1 603 C1 603 14 601 14 601 C14 601 14.5536 601.876 17.5118 606.56 L26 620 C63 684 146 726 233 726 L285.5 726 C314.478 726 338 702.478 338 673.5 L338 131 C338 65 309 22 266 25 L259.5 25.5 C255.923 25.7752 253 23.0686 253 19.4808 L253 13.5 C253 6.60037 258.6 1 265.5 1 L523 1 C523 4.42857 522.265 17.4082 522.685 24.1953 C522.76 25.4063 521.668 26.8975 520.458 26.8045 L510 26 C467 23 438 66 438 132 L438 678.5 C438 705.271 459.729 727 486.5 727 L535 727 C622 727 705 685 743 621 L750.96 608.397 C752.986 605.189 758.738 602.498 762.5 603 L766.865 603.582 C767.625 603.683 772.273 603.242 773 603 C774.274 602.575 775.278 603.849 774.787 605.099 C758.854 645.692 736.575 698.025 720 738 L721 737 Z " />
<glyph glyph-name="U" unicode="U" horiz-adv-x="760" d="M110 749.5 L25 749 C25 745.571 25.7347 732.592 25.3149 725.805 C25.24 724.594 26.3323 723.102 27.542 723.196 L38 724 C81 727 110 684 110 618 L110 219 C110 81 184 -11 294 -11 C382.275 -11 466.466 31.1987 517.375 98.1893 C524.136 107.086 545 103.944 545 92.7701 L545 24.0012 C545 10.202 556.201 -1.11201 570 -1.25 L586.468 -1.41468 C587.627 -1.42627 603.1 0.512559 604.225 0.790078 C643.027 10.3609 692.075 21.75 730 31 C730 34.4286 729.265 47.4082 729.685 54.1953 C729.755 55.3275 728.647 56.5838 727.563 56.2502 L717 53 C674 39 645 75 645 141 L645 699.999 C645 727.598 622.598 749.888 595 749.75 L545 749.5 L460 749 C460 745.571 460.735 732.592 460.315 725.805 C460.24 724.594 461.332 723.102 462.542 723.196 L473 724 C516 727 545 684 545 618 L545 203.673 C545 199.301 541.029 180.765 538.96 176.913 C498.587 101.735 418.55 53 334 53 C260 53 210 119 210 219 L210 698.998 C210 726.596 187.597 749.224 160 749.5 L110 750 L110 749.5 Z " />
<glyph glyph-name="V" unicode="V" horiz-adv-x="806" d="M146 565 L376.236 -1.73533 C378.161 -6.47312 384.886 -11 390 -11 C395.131 -11 401.795 -6.47388 403.686 -1.70413 L628 564 C666 660 721 722 765 719 L772.44 718.469 C775.971 718.216 778.538 721.002 778 724.5 L777 731 C777 735 779 750 779 750 C779 750 775.09 750 771.434 750 L511 750 C511 746.471 511.779 728.927 511.275 720.727 C511.183 719.227 512.537 718.073 514.038 718.145 L532 719 C603 722 627.5 661 592.5 565 L493.719 297.637 C471.56 237.661 393.467 236.512 369.554 295.811 L261 565 C223 660 239 722 302 719 L311.5 718.5 C316.736 718.224 321 722.269 321 727.513 L321 734 C321 742.832 313.832 750 305 750 L9 750 C9 745.588 9.77855 728.72 9.27478 720.69 C9.18123 719.199 10.5409 718.14 12.0289 718.275 L20 719 C57 722 107 660.5 146 564.5 L146 565 Z " />
<glyph glyph-name="W" unicode="W" horiz-adv-x="1109" d="M407 719 C446 722 494 669 526 585 L549.864 522.81 C553.233 514.028 553.248 483.966 549.887 475.181 L477.674 286.43 C454.633 226.205 375.056 226.836 352.973 287.419 L244.5 585 C213.5 669 228 722 279 719 L286.5 718.5 C290.631 718.225 294 721.377 294 725.517 L294 734 C294 742.832 286.832 750 278 750 L11 750 C11 745.588 11.7785 728.72 11.2748 720.69 C11.1812 719.199 12.5409 718.14 14.0289 718.275 L22 719 C56 722 98 679 129 608 L361.524 1.6712 C363.831 -4.34381 372.058 -10 378.5 -10 C384.915 -10 393.241 -4.34239 395.604 1.62134 L545.221 379.304 C556.731 408.358 596.28 404.273 607.5 375.105 C655.5 250.33 703.5 125.666 751.5 1.62686 C753.822 -4.37482 762.065 -10 768.5 -10 C775.115 -10 782.672 -4.35779 784.552 1.98478 L960 594 C986 673 1032 722 1078 719 L1085.44 718.469 C1088.97 718.216 1091.54 721.002 1091 724.5 L1090 731 C1090 735 1092 750 1092 750 C1092 750 1088.09 750 1084.43 750 L822 750 C822 746.471 822.779 728.927 822.275 720.727 C822.183 719.227 823.537 718.073 825.038 718.145 L843 719 C913 722 944 669 921 585 L852.707 338.816 C834.884 274.565 748.711 271.242 725.992 333.929 L635 585 C605 669 625 722 687 719 L696 718.5 C700.96 718.224 705 722.046 705 727.014 L705 734 C705 742.832 697.832 750 689 750 L397 750 C397 745.588 397.779 728.72 397.275 720.69 C397.181 719.201 398.542 718.154 400.026 718.303 L407 719 L407 719 Z " />
<glyph glyph-name="X" unicode="X" horiz-adv-x="789" d="M232.5 135 L309.43 247.945 C338.18 290.156 392.754 289.45 420.403 246.51 L498 126 C537 62 533 21 488 24 L481 24.5 C477.146 24.7753 474 21.846 474 17.9822 L474 12.5 C474 5.60037 479.6 0 486.5 0 L752 0 C752 4.16667 751.306 15.2778 751.653 21.7593 C751.717 22.9573 750.657 24.8657 749.463 24.7463 L742 24 C711 21 664 58 622 116 L460.336 365.845 C447.191 386.159 448.547 422.892 463.152 442.182 L594 615 C646 684 712 729 758 726 L765 725.5 C768.854 725.225 772 728.154 772 732.018 L772 737.5 C772 744.4 766.4 750 759.5 750 L526 750 C526 746.571 526.735 733.592 526.315 726.805 C526.24 725.59 527.33 724.078 528.545 724.15 L543 725 C599 728 604 683 555 614 L477.868 504.633 C448.763 463.365 394.897 464.486 367.533 506.928 L298.5 614 C253.5 683 255 728 302 725 L309 724.5 C312.854 724.225 316 727.154 316 731.018 L316 736.5 C316 743.4 310.4 749 303.5 749 L39 749 C39 744.833 39.6944 733.722 39.3472 727.241 C39.283 726.043 40.3431 724.134 41.5369 724.254 L49 725 C83 728 135 683 180 614 L326.233 388.236 C338.977 368.562 338.048 332.073 324.321 313.072 L187 123 C138 60 78 20 35 23 L28 23.5 C24.146 23.7753 21 20.846 21 16.9822 L21 11.5 C21 4.60037 26.6004 -1 33.5 -1 L263 -1 C263 2.42857 262.265 15.4082 262.685 22.1953 C262.76 23.4098 261.67 24.9217 260.455 24.8503 L246 24 C190 21 185 66 232 135 L232.5 135 Z " />
<glyph glyph-name="Y" unicode="Y" horiz-adv-x="764" d="M557 615 L481.934 463.109 C457.09 412.838 395.454 409.798 365.784 457.381 L267.5 615 C224.5 684 227 729 274 726 L281 725.5 C284.854 725.225 288 728.154 288 732.018 L288 737.5 C288 744.4 282.4 750 275.5 750 L11 750 C11 745.833 11.6944 734.722 11.3472 728.241 C11.283 727.043 12.3431 725.134 13.5369 725.254 L21 726 C52 729 98 692 139 634 L327.557 338.373 C330.657 333.513 338 308.344 338 302.58 L338 150 C338 72 302 21 249 24 L241 24.5 C236.593 24.7754 233 21.4002 233 16.9844 L233 12.5 C233 5.60037 238.6 0 245.5 0 L543 0 C543 3.42857 542.265 16.4082 542.685 23.1953 C542.76 24.4091 541.669 25.9168 540.455 25.841 L527 25 C474 22 438 73 438 151 L438 308.89 C438 313.445 444.055 336.999 446.251 340.989 L607 633 C645 692 696 730 739 727 L746 726.5 C749.854 726.225 753 729.154 753 733.018 L753 738.5 C753 745.4 747.4 751 740.5 751 L497 751 C497 747.571 497.735 734.592 497.315 727.805 C497.24 726.59 498.33 725.078 499.545 725.15 L514 726 C574 729 589 683 556 615 L557 615 Z " />
<glyph glyph-name="Z" unicode="Z" horiz-adv-x="652" d="M278 725 L390 726.5 C440.803 727.18 467.803 677.242 439.415 635.106 L30.5875 28.2934 C28.8642 25.7356 25 13.0841 25 10 C25 4.4803 29.4803 0 35 0 L598.238 0 C602.378 0 606.933 3.5 608 7.5 L610 15 C610 15 624 71 643 155 C643 152 622 152 622 156 L614 137 C590 77 515 35 424 28 L269.298 25.2473 C211.797 24.2241 180.886 80.4379 212.552 128.446 L604.494 722.652 C606.167 725.189 610 737.961 610 741 C610 746.52 605.52 751 600 751 L84.0557 751 C76.3281 751 69.4372 744.697 68.75 737 L67.5 723 C65.55 701.55 62.1741 658.236 57.3722 602.325 C57.1175 599.36 59.5715 598.468 62.5 599 L68 600 C70 600 78 598 78 598 C78 598 78.5132 599.625 79.2416 601.932 L84 617 C102 681 179.5 724.5 278.5 725.5 L278 725 Z " />
<glyph glyph-name="bracketleft" unicode="&#x5b;" horiz-adv-x="295" d="M201.56 725 L332.5 725 C339.4 725 345 730.6 345 737.5 C345 744.4 339.4 750 332.5 750 L171.56 750 C134.821 750 105 720.179 105 683.44 L105 -128.44 C105 -165.179 134.821 -195 171.56 -195 L332.5 -195 C339.4 -195 345 -189.4 345 -182.5 C345 -175.6 339.4 -170 332.5 -170 L201.56 -170 C164.821 -170 135 -140.179 135 -103.44 L135 658.44 C135 695.179 164.821 725 201.56 725 L201.56 725 Z " />
<glyph glyph-name="backslash" unicode="&#x5c;" horiz-adv-x="347" d="M34.3126 746.093 L279.687 -56.0934 C283.547 -68.712 298.804 -80 312 -80 C325.196 -80 333.547 -68.712 329.687 -56.0934 L84.3126 746.093 C80.4528 758.712 65.1957 770 52 770 C38.8043 770 30.4528 758.712 34.3126 746.093 L34.3126 746.093 Z " />
<glyph glyph-name="bracketright" unicode="&#x5d;" horiz-adv-x="298" d="M158 658.44 L158 -103.44 C158 -140.179 128.179 -170 91.44 -170 L-39.5 -170 C-46.3996 -170 -52 -175.6 -52 -182.5 C-52 -189.4 -46.3996 -195 -39.5 -195 L121.44 -195 C158.179 -195 188 -165.179 188 -128.44 L188 683.44 C188 720.179 158.179 750 121.44 750 L-39.5 750 C-46.3996 750 -52 744.4 -52 737.5 C-52 730.6 -46.3996 725 -39.5 725 L91.44 725 C128.179 725 158 695.179 158 658.44 L158 658.44 Z " />
<glyph glyph-name="asciicircum" unicode="&#x5e;" horiz-adv-x="340" d="M200 755 C194 764 180 785 170 785 C160 785 146 764 140 755 L22.2357 572.562 C19.915 568.967 20.7126 563.739 24 561 C27.2971 558.252 32.4968 558.479 35.5424 561.503 L123.104 648.439 C148.989 674.139 191.011 674.139 216.896 648.439 L304.458 561.503 C307.503 558.479 312.703 558.252 316 561 C319.287 563.739 320.085 568.967 317.764 572.562 L200 755 L200 755 Z " />
<glyph glyph-name="underscore" unicode="&#x5f;" horiz-adv-x="455" d="M5 -73.5 C5 -86.4713 15.5287 -97 28.5 -97 L426.5 -97 C439.471 -97 450 -86.4713 450 -73.5 C450 -60.5287 439.471 -50 426.5 -50 L28.5 -50 C15.5287 -50 5 -60.5287 5 -73.5 L5 -73.5 Z " />
<glyph glyph-name="grave" unicode="&#x60;" horiz-adv-x="340" d="M-34 746 C-34 738 -8 714 30 682 L166.059 567.02 C169.327 564.259 174.475 564.475 177.5 567.5 C180.511 570.511 180.852 575.789 178.254 579.162 L69 721 C39 761 16 788 8 788 C-15 788 -34 769 -34 746 L-34 746 Z " />
<glyph glyph-name="a" unicode="a" horiz-adv-x="514" d="M516.5 105.5 C512.745 107.252 508.444 105.813 507.353 101.815 C499.734 73.8935 479.923 56 455 56 C422 56 400 74 400 102 L400 355 C400 462 344 510 259 510 C143 510 65 414 65 360 C65 324 85 300 114 300 C141 300 159 325 159 343 C159 361 139 385 139 403 C139 432 175 484 229 484 C281 484 316 454 316 386 L316 314.176 C316 288.515 294.17 258.329 269.703 250.591 C90.4925 193.918 46 166.7 46 89 C46 30 91 -9 159 -9 C195.9 -9 241.71 12.06 297.888 65.115 C305.153 71.9763 320.302 67.1815 324.054 57.9199 C339.49 19.8219 374.8 -4 421 -4 C469.45 -4 509.326 34.3562 522.624 93.0639 C523.665 97.6599 520.77 103.507 516.5 105.5 L516.5 105.5 Z M316 175 L316 131.161 C316 118.878 304.687 92.5608 295.522 84.3845 C258.102 51.005 227.8 38 204 38 C160 38 131 63 131 100 C131 166.825 155.503 192.132 247.744 224.772 C284.098 237.636 316 213.562 316 175 L316 175 Z " />
<glyph glyph-name="b" unicode="b" horiz-adv-x="573" d="M75 0 L80 0 L97.0635 36.4021 C102.83 48.7043 122.745 50.1149 133.298 41.5573 C173.376 9.0575 229.125 -10 291 -10 C433 -10 528 95 528 253 C528 404 437 505 301 505 C258.1 505 213.839 487.304 180.008 458.088 C173.142 452.158 160 455.881 160 464.954 L160 729 C160 740.591 150.591 750 139 750 L126.147 750 C125.062 750 111.146 748.297 110.094 748.035 L75.75 739.5 L17.7478 722.928 C14.2485 721.928 10.7593 717.63 10.5 714 L10.358 712.012 C10.1605 709.247 12.2413 706.776 15 706.5 L16.6968 706.33 C16.7197 706.328 22.4312 705.923 22.4542 705.922 C54.0862 703.887 75 662.425 75 601 L75 0 L75 0 Z M160 122.433 L160 390.273 C160 401.466 168.013 422.539 176.236 430.132 C203.197 455.026 236.3 470 266 470 C366 470 432 379 432 242 C432 102 378 9 296 9 C241.425 9 191.984 42.7972 165.88 96.9369 C164.296 100.221 160 118.787 160 122.433 L160 122.433 Z " />
<glyph glyph-name="c" unicode="c" horiz-adv-x="503" d="M467 130.5 C463.802 131.832 460.625 132.038 459.133 128.911 C433.996 76.2225 375.35 42 311 42 C204 42 133 134 133 273 C133 404 197 491 292 491 C331 491 369 457 388 405 C397 380 414 363 431 363 C465 363 482 380 473 405 C450 468 380 510 297 510 C146 510 45 400 45 236 C45 88 139 -10 281 -10 C357.05 -10 432.149 42.2844 470.151 121.828 C471.736 125.147 470.396 129.085 467 130.5 L467 130.5 Z " />
<glyph glyph-name="d" unicode="d" horiz-adv-x="600" d="M506.902 12.184 C533.857 18.8265 561.974 26.4737 585 32 C585 35.4286 584.265 48.4082 584.685 55.1953 C584.755 56.3275 583.647 57.5838 582.563 57.2502 L572 54 C529 41 500 77 500 143 L500 729.994 C500 741.585 490.588 751.224 479 751.5 L465.995 751.81 C464.858 751.837 451.733 750.599 450.624 750.344 C422.126 743.8 386.874 734.131 358.376 726.864 C354.832 725.96 350.761 721.648 350.5 718 L350.358 716.012 C350.16 713.247 352.241 710.776 355 710.5 L356.697 710.33 C356.72 710.328 362.431 709.923 362.454 709.922 C394.086 707.887 415 666.425 415 605 L415 499.03 C415 489.371 403.559 484.004 394.688 487.825 C361.427 502.152 322.075 511 280 511 C125 511 45 407 45 252 C45 98 130 -4 257 -4 C309.7 -4 362.4 16.23 397.904 48.7064 C404.404 54.6511 415 48.3989 415 39.5911 L415 22.5 C415 10.6326 424.633 1 436.5 1 L452.41 1 C453.312 1 462.415 2.98596 463.254 3.31528 C471.529 6.56007 482.502 9.27511 492.65 10.1792 C493.027 10.2127 506.535 12.0935 506.902 12.184 L506.902 12.184 Z M414 366.073 L414 119.773 C414 108.977 406.618 87.6091 398.973 79.9855 C368.69 49.785 328.4 31 291 31 C195 31 131 129 131 275 C131 402 185 486 289 486 C341.25 486 390.793 439.973 411.049 384.785 C411.824 382.673 414 368.322 414 366.073 L414 366.073 Z " />
<glyph glyph-name="e" unicode="e" horiz-adv-x="540" d="M151.18 340 L448.016 340 C487.835 340 508.917 360.767 493.287 397.391 C459.173 477.33 389.275 510 301 510 C147 510 45 432 45 231 C45 86 138 -10 278 -10 C376.475 -10 462.592 44.1856 495.569 126.605 C496.771 129.61 495.623 133.648 492.5 134.5 C489.64 135.28 486.564 134.709 485.397 131.984 C463.238 80.2225 389.65 46 298 46 C200 46 135 134 135 266 C135 288.781 136.068 310.139 138.804 329.472 C139.695 335.767 144.822 340 151.18 340 L151.18 340 Z M365.309 363.301 L192.665 360.714 C163.375 360.275 147.339 377.023 159.074 403.863 C185.862 465.136 234.125 491 296 491 C338.9 491 375.334 466.498 398.564 406.824 C408.751 380.654 393.389 363.721 365.309 363.301 L365.309 363.301 Z " />
<glyph glyph-name="f" unicode="f" horiz-adv-x="368" d="M270 0 C270 3.42857 269.265 16.4082 269.685 23.1953 C269.76 24.4013 268.665 25.8665 267.463 25.7463 L260 25 C227 22 205 51 205 96 L205 389.44 C205 426.179 234.821 456 271.56 456 L335.5 456 C347.919 456 358 466.081 358 478.5 C358 490.919 347.919 501 335.5 501 L271.56 501 C231.006 501 204.081 528.204 208.291 568.539 C218.611 667.382 253.075 730 310 730 C353 730 394 636 430 636 C457 636 475 654 475 681 C475 726 421 756 340 756 C209.5 756 135.7 673.38 122.245 545.319 C120.114 525.039 95.7756 491.98 76.6653 484.865 L30.6857 467.745 C28.2619 466.842 26 463.586 26 461 C26 458.24 28.2402 456 31 456 L73 456 C98.9426 456 120 434.943 120 409 L120 96 C120 51 98 22 65 25 L60 25.5 C57.2538 25.7746 55 23.7349 55 20.9751 L55 13.5 C55 6.60045 60.6004 0.973952 67.4999 0.941861 L270 0 L270 0 Z " />
<glyph glyph-name="g" unicode="g" horiz-adv-x="520" d="M541 479 C541 510 519 530 486 530 C457.1 530 426.033 510.493 402.623 478.847 C397.061 471.327 380.48 470.644 372.849 476.054 C342.244 497.749 302.025 510 255 510 C147 510 75 446 75 350 C75 289.775 102.225 241.801 148.814 213.94 C155.95 209.673 155.987 193.959 147.986 191.699 C89.68 175.23 55 143.95 55 104 C55 61.925 76.78 29.3788 113.04 12.5379 C118.969 9.78429 119.679 -2.63097 113.757 -5.39937 C70.7325 -25.5125 44 -58.45 44 -95 C44 -176 132 -230 264 -230 C396 -230 484 -165 484 -68 C484 23 432 84 298 84 L180 84 C134 84 103 102 103 130 C103 165 163 188 254 188 C362 188 434 253 434 350 C434 385.1 424.28 416.15 407.027 440.963 C403.835 445.553 404.038 453.356 407.621 457.648 C417.628 469.636 427.818 477 436 477 C457 477 484 442 505 442 C527 442 541 457 541 479 L541 479 Z M255 208 C198 208 160 265 160 350 C160 434 198 490 255 490 C312 490 350 434 350 350 C350 265 312 208 255 208 L255 208 Z M168 0.5 L177 0 L291 0 C380 0 414 -35 414 -88 C414 -162 356 -211 270 -211 C178 -211 116 -157 116 -75 C116 -45.3 129.77 -19.65 151.478 -3.882 C154.517 -1.67475 164.25 0.708334 168 0.5 L168 0.5 Z " />
<glyph glyph-name="h" unicode="h" horiz-adv-x="589" d="M120.649 748.422 L84.75 739.5 L26.7478 722.928 C23.2485 721.928 19.7593 717.63 19.5 714 L19.358 712.012 C19.1605 709.247 21.2413 706.776 24 706.5 L25.6968 706.33 C25.7197 706.328 31.4312 705.923 31.4542 705.922 C63.0862 703.887 84 662.425 84 601 L84 95 C84 50 62 21 29 24 L24 24.5 C21.2538 24.7746 19 22.7349 19 19.9751 L19 12.5 C19 5.60037 24.6004 0 31.5 0 L234 0 C234 3.42857 233.265 16.4082 233.685 23.1953 C233.76 24.4013 232.665 25.8665 231.463 25.7463 L224 25 C191 22 169 51 169 96 L169 343.253 C169 350.217 175.03 370.998 179.11 376.642 C211.78 421.84 264.7 451 316 451 C377 451 409 403 409 331 L409 96 C409 51 387 22 354 25 L349 25.5 C346.254 25.7746 344 23.7349 344 20.9751 L344 13.5 C344 6.60037 349.6 1 356.5 1 L559 1 C559 4.42857 558.265 17.4082 558.685 24.1953 C558.76 25.4013 557.665 26.8665 556.463 26.7463 L549 26 C516 23 494 52 494 97 L494 332 C494 440 450 512 364 512 C302.95 512 239.178 477.969 194.582 423.944 C187.417 415.264 169 418.971 169 430.226 L169 730.976 C169 742.568 159.578 751.551 148 751 L133.537 750.311 C132.834 750.278 121.332 748.591 120.649 748.422 L120.649 748.422 Z " />
<glyph glyph-name="i" unicode="i" horiz-adv-x="274" d="M137 615 C170 615 192 637 192 670 C192 703 170 725 137 725 C104 725 82 703 82 670 C82 637 104 615 137 615 L137 615 Z M129.873 498.229 L94.75 489.5 L36.7478 472.928 C33.2485 471.928 29.7593 467.63 29.5 464 L29.358 462.012 C29.1605 459.247 31.2413 456.776 34 456.5 L35.6968 456.33 C35.7197 456.328 41.4312 455.923 41.4542 455.922 C73.0863 453.887 94 412.425 94 351 L94 95 C94 50 72 21 39 24 L34 24.5 C31.2538 24.7746 29 22.7349 29 19.9751 L29 12.5 C29 5.60037 34.6004 0 41.5 0 L244 0 C244 3.42857 243.265 16.4082 243.685 23.1953 C243.76 24.4013 242.665 25.8665 241.463 25.7463 L234 25 C201 22 179 51 179 96 L179 479.994 C179 491.585 169.588 500.776 158 500.5 L144.342 500.175 C143.458 500.154 130.731 498.442 129.873 498.229 L129.873 498.229 Z " />
<glyph glyph-name="j" unicode="j" horiz-adv-x="270" d="M138 613 C171 613 193 635 193 668 C193 701 171 723 138 723 C105 723 83 701 83 668 C83 635 105 613 138 613 L138 613 Z M130.094 498.035 L95.75 489.5 L37.7478 472.928 C34.2485 471.928 30.7593 467.63 30.5 464 L30.358 462.012 C30.1605 459.247 32.2413 456.776 35 456.5 L36.6968 456.33 C36.7197 456.328 42.4312 455.923 42.4542 455.922 C74.0862 453.887 95 412.425 95 351 L95 50 C95 -22.625 78.9219 -83.7656 54.1348 -109.975 C44.8341 -119.809 41.4465 -119.761 28.0551 -117.789 C-0.378698 -113.604 -33.7692 -100 -60 -100 C-87 -100 -105 -116 -105 -140 C-105 -169 -81 -187 -45 -185 C-38 -185 4 -163 60 -130 C132 -88 180 -16 180 50 L180 479 C180 490.591 170.591 500 159 500 L146.147 500 C145.062 500 131.146 498.297 130.094 498.035 L130.094 498.035 Z " />
<glyph glyph-name="k" unicode="k" horiz-adv-x="564" d="M543 -2 C543 2 542 18 543 22 C516 18 485 40 439 87 L269.644 290.407 C258.813 303.415 260.992 322.3 274.5 332.5 L299 351 C396 426 488 475 528 472 L534 471.5 C537.3 471.225 540 473.709 540 477.021 L540 483.5 C540 490.398 534.399 496.103 527.502 496.229 L485.5 497 L449.5 497 L276 496 C276 492.571 276.735 479.592 276.315 472.805 C276.24 471.588 277.329 470.06 278.547 470.116 L298 471 C365 474 350 426 262 350 L215.5 314 C195.205 298.288 169 311.14 169 336.807 L169 727 C169 738.591 159.591 748 148 748 L135.147 748 C134.062 748 120.146 746.297 119.094 746.035 L84.75 737.5 L26.7478 720.928 C23.2485 719.928 19.7593 715.63 19.5 712 L19.358 710.012 C19.1605 707.247 21.2413 704.776 24 704.5 L25.6968 704.33 C25.7197 704.328 31.4312 703.923 31.4542 703.922 C63.0862 701.887 84 660.425 84 599 L84 93 C84 48 62 19 29 22 L24 22.5 C21.2538 22.7746 19 20.7349 19 17.9751 L19 10.5 C19 3.60037 24.6004 -2 31.5 -2 L234 -2 C234 1.42857 233.265 14.4082 233.685 21.1953 C233.76 22.4013 232.665 23.8665 231.463 23.7463 L224 23 C191 20 169 49 169 94 L169 186.5 C169 219.186 207.292 233.05 228.217 207.94 L304 117 C355 57 371 18 346 21 L342.5 21.5 C340.588 21.7732 339 20.3964 339 18.4645 L339 9.5 C339 2.60046 344.6 -2.97255 351.5 -2.93873 L543 -2 L543 -2 Z M459 -3 L457 -1 L459 -3 L459 -3 Z " />
<glyph glyph-name="l" unicode="l" horiz-adv-x="264" d="M119.873 748.229 L84.75 739.5 L26.7478 722.928 C23.2485 721.928 19.7593 717.63 19.5 714 L19.358 712.012 C19.1605 709.247 21.2413 706.776 24 706.5 L25.6968 706.33 C25.7197 706.328 31.4312 705.923 31.4542 705.922 C63.0862 703.887 84 662.425 84 601 L84 95 C84 50 62 21 29 24 L24 24.5 C21.2538 24.7746 19 22.7349 19 19.9751 L19 12.5 C19 5.60037 24.6004 0 31.5 0 L234 0 C234 3.42857 233.265 16.4082 233.685 23.1953 C233.76 24.4013 232.665 25.8665 231.463 25.7463 L224 25 C191 22 169 51 169 96 L169 729.994 C169 741.585 159.588 750.776 148 750.5 L134.342 750.175 C133.458 750.154 120.731 748.442 119.873 748.229 L119.873 748.229 Z " />
<glyph glyph-name="m" unicode="m" horiz-adv-x="874" d="M844 -2 C844 1.42857 843.265 14.4082 843.685 21.1953 C843.76 22.4013 842.665 23.8665 841.463 23.7463 L834 23 C801 20 779 49 779 94 L779 331 C779 439 741 511 642 511 C589.3 511 531.543 476.32 489.608 421.699 C482.482 412.418 463.579 416.166 459.63 427.181 C440.806 479.691 402.175 511 337 511 C288.325 511 234.205 478.33 193.17 426.466 C186.285 417.764 169 421.581 169 432.677 L169 480 C169 491.591 159.591 501 148 501 L135.147 501 C134.062 501 120.146 499.297 119.094 499.035 L84.75 490.5 L26.7478 473.928 C23.2485 472.928 19.7593 468.63 19.5 465 L19.358 463.012 C19.1605 460.247 21.2413 457.776 24 457.5 L25.6968 457.33 C25.7197 457.328 31.4312 456.923 31.4542 456.922 C63.0862 454.887 84 413.425 84 352 L84 96 C84 51 62 22 29 25 L24 25.5 C21.2538 25.7746 19 23.7349 19 20.9751 L19 13.5 C19 6.60037 24.6004 1 31.5 1 L234 1 C234 4.42857 233.265 17.4082 233.685 24.1953 C233.76 25.4013 232.665 26.8665 231.463 26.7463 L224 26 C191 23 169 52 169 97 L169 349.324 C169 356.266 174.09 375.573 178.151 381.203 C207.77 422.27 256.1 449 302 449 C365 449 389 402 389 332 L389 97 C389 52 367 23 334 26 L329 26.5 C326.254 26.7746 324 24.7349 324 21.9751 L324 14.5 C324 7.60037 329.6 2 336.5 2 L539 2 C539 5.42857 538.265 18.4082 538.685 25.1953 C538.76 26.4013 537.665 27.8665 536.463 27.7463 L529 27 C496 24 474 53 474 98 L474 333 C474 344.529 473.322 355.381 472.524 366.112 C472.34 368.59 475.1 377.757 476.534 379.785 C506.395 422.022 557.6 450 607 450 C670 450 694 403 694 333 L694 96 C694 51 672 22 639 25 L634 25.5 C631.254 25.7746 629 23.7349 629 20.9751 L629 13.5 C629 6.60105 634.601 0.921853 641.499 0.825598 L844 -2 L844 -2 Z " />
<glyph glyph-name="n" unicode="n" horiz-adv-x="569" d="M120.649 498.422 L84.75 489.5 L26.7478 472.928 C23.2485 471.928 19.7593 467.63 19.5 464 L19.358 462.012 C19.1605 459.247 21.2413 456.776 24 456.5 L25.6968 456.33 C25.7197 456.328 31.4312 455.923 31.4542 455.922 C63.0862 453.887 84 412.425 84 351 L84 95 C84 50 62 21 29 24 L24 24.5 C21.2538 24.7746 19 22.7349 19 19.9751 L19 12.5 C19 5.60037 24.6004 0 31.5 0 L234 0 C234 3.42857 233.265 16.4082 233.685 23.1953 C233.76 24.4013 232.665 25.8665 231.463 25.7463 L224 25 C191 22 169 51 169 96 L169 343.469 C169 349.737 174.984 371.145 178.486 376.343 C208.33 420.65 250 449 286 449 C354 449 389 402 389 331 L389 96 C389 51 367 22 334 25 L329 25.5 C326.254 25.7746 324 23.7349 324 20.9751 L324 13.5 C324 6.60037 329.6 1 336.5 1 L539 1 C539 4.42857 538.265 17.4082 538.685 24.1953 C538.76 25.4013 537.665 26.8665 536.463 26.7463 L529 26 C496 23 474 52 474 97 L474 332 C474 440 427 512 337 512 C289.975 512 235.463 477.969 193.679 423.944 C186.716 414.941 169 418.845 169 430.226 L169 480.976 C169 492.568 159.578 501.551 148 501 L133.537 500.311 C132.834 500.278 121.332 498.591 120.649 498.422 L120.649 498.422 Z " />
<glyph glyph-name="o" unicode="o" horiz-adv-x="613" d="M139 250 C139 390 206 484 307 484 C408 484 475 390 475 250 C475 110 408 16 307 16 C206 16 139 110 139 250 L139 250 Z M45 250 C45 94 150 -10 307 -10 C464 -10 568 94 568 250 C568 406 464 510 307 510 C150 510 45 406 45 250 L45 250 Z " />
<glyph glyph-name="p" unicode="p" horiz-adv-x="571" d="M105.649 498.422 L69.75 489.5 L11.7478 472.928 C8.24853 471.928 4.75929 467.63 4.5 464 L4.35801 462.012 C4.16048 459.247 6.24126 456.776 9 456.5 L10.6968 456.33 C10.7197 456.328 16.4312 455.923 16.4542 455.922 C48.0863 453.887 69 412.425 69 351 L69 -125 C69 -170 47 -199 14 -196 L9 -195.5 C6.25385 -195.225 4 -197.265 4 -200.025 L4 -207.5 C4 -214.4 9.60037 -220 16.5 -220 L219 -220 C219 -216.571 218.265 -203.592 218.685 -196.805 C218.76 -195.599 217.665 -194.133 216.463 -194.254 L209 -195 C176 -198 154 -169 154 -124 L154 9.32997 C154 18.4075 164.931 23.3723 173.083 19.3795 C204.142 4.1675 240.05 -4 278 -4 C427 -4 526 117 526 258 C526 410 437 511 303 511 C254.325 511 206.331 492.623 173.055 462.608 C166.956 457.106 154 460.187 154 468.401 L154 480.976 C154 492.568 144.578 501.551 133 501 L118.537 500.311 C117.834 500.278 106.332 498.591 105.649 498.422 L105.649 498.422 Z M154 142.044 L154 387.253 C154 395.86 159.914 416.433 165.449 423.023 C193.422 456.328 229.625 477 262 477 C364 477 432 379 432 232 C432 116 372 18 282 18 C228.8 18 179.661 59.515 156.875 121.968 C156.113 124.059 154 139.818 154 142.044 L154 142.044 Z " />
<glyph glyph-name="q" unicode="q" horiz-adv-x="551" d="M546 -220 C546 -216.571 545.265 -203.592 545.685 -196.805 C545.76 -195.599 544.665 -194.133 543.463 -194.254 L536 -195 C503 -198 481 -169 481 -124 L481 501 L476 501 L459.644 466.596 C454.033 454.793 434.989 453.484 424.941 461.842 C387.116 493.304 335.1 511 279 511 C115 511 31 407 31 252 C31 98 118 -4 248 -4 C293.375 -4 340.111 13.6962 374.732 42.9121 C381.63 48.7325 395 45.0714 395 36.0463 L395 -124 C395 -169 373 -198 340 -195 L335 -194.5 C332.254 -194.225 330 -196.265 330 -199.025 L330 -206.5 C330 -213.4 335.6 -219.026 342.5 -219.058 L546 -220 L546 -220 Z M395 379.052 L395 116.706 C395 105.698 388.155 84.5885 380.297 76.8787 C351.212 48.34 315.3 31 283 31 C184 31 118 129 118 276 C118 406 171 492 273 492 C321.45 492 367.193 456.351 391.365 399.629 C392.518 396.923 395 381.993 395 379.052 L395 379.052 Z " />
<glyph glyph-name="r" unicode="r" horiz-adv-x="420" d="M120.855 498.224 L85.75 489.5 L27.7478 472.928 C24.2485 471.928 20.7593 467.63 20.5 464 L20.358 462.012 C20.1605 459.247 22.2413 456.776 25 456.5 L26.6968 456.33 C26.7197 456.328 32.4312 455.923 32.4542 455.922 C64.0862 453.887 85 412.425 85 351 L85 95 C85 50 63 21 30 24 L25 24.5 C22.2538 24.7746 20 22.7349 20 19.9751 L20 12.5 C20 5.60037 25.6004 0 32.5 0 L235 0 C235 3.42857 234.265 16.4082 234.685 23.1953 C234.76 24.4013 233.665 25.8665 232.463 25.7463 L225 25 C192 22 170 51 170 96 L170 347.048 C170 349.411 172.749 365.814 173.583 368.025 C197.1 430.387 236.05 471 275 471 C296 471 310 457 310 436 C310 406 330 386 360 386 C390 386 410 406 410 436 C410 481 372 511 315 511 C262.2 511 214.845 481.733 186.411 434.43 C183.144 428.995 171 430.773 171 437.114 L171 479.494 C171 491.362 161.364 500.776 149.5 500.5 L135.361 500.171 C134.473 500.151 121.717 498.438 120.855 498.224 L120.855 498.224 Z " />
<glyph glyph-name="s" unicode="s" horiz-adv-x="428" d="M207 -10 C309 -17 378 44 378 129 C378 198 330 256 237 281 C159 302 119 351 119 408 C119 457 153 489 204 489 C272 489 323 438 333 362 L335 341 C335 342 353 342 353 341 L353 509 C353 508 336 508 336 510 L333.883 501.531 C333.87 501.481 332.585 499.501 332.55 499.54 C327.048 505.722 277.075 510 204 510 C117 510 59 458 59 380 C59 305 107 243 199 218 C274 198 313 155 313 106 C313 48 275 10 218 10 C200 10 182 14 165 22 C120 43 88 91 80 156 L78 177 C78 176 60 176 60 177 L60 -1 C60 0 77 0 77 -2 L79.0936 7.0721 C79.1313 7.23567 81.1216 8.69941 81.248 8.589 C89.555 1.335 138.2 -6 207.5 -10.5 L207 -10 Z " />
<glyph glyph-name="t" unicode="t" horiz-adv-x="378" d="M310.5 500 L240 500 C206.882 500 180 526.882 180 560 L180 617 C180 618.656 178.656 620 177 620 C175.79 620 172.777 618.692 171.951 617.809 L33.415 469.652 C32.1276 468.275 30 462.885 30 461 C30 458.24 32.2402 456 35 456 L62.5 456 C80.439 456 95 441.439 95 423.5 L95 160 C95 38 150 -10 232 -10 C288.55 -10 342.248 29.9262 366.215 91.2416 C367.328 94.0875 365.837 96.8652 363 98 C360.41 99.036 356.667 96.3691 355.565 93.8067 C338.987 55.27 300.75 30 258 30 C210 30 178 61 178 141 L179.579 388.864 C179.811 425.368 209.632 455 246.137 455 L310.5 455 C322.919 455 333 465.081 333 477.5 C333 489.919 322.919 500 310.5 500 L310.5 500 Z " />
<glyph glyph-name="u" unicode="u" horiz-adv-x="560" d="M476.902 12.3632 C500.726 18.8119 524.941 25.5294 545 31 C545 34.4286 544.265 47.4082 544.685 54.1953 C544.753 55.3005 543.645 56.5071 542.604 56.1287 L534 53 C496 41 470 78 470 144 L470 480.994 C470 492.585 460.588 502.224 449 502.5 L428 503 L320 504 C320 500.571 320.735 487.592 320.315 480.805 C320.24 479.599 321.335 478.133 322.537 478.254 L330 479 C363 482 385 453 385 408 L385 159.236 C385 154.866 380.822 136.146 378.754 132.295 C351.489 81.5138 305.1 49 257 49 C202 49 165 93 165 160 L165 433.44 C165 470.179 135.179 500 98.44 500 L15 500 C15 496.571 15.7347 483.592 15.3149 476.805 C15.2403 475.599 16.3346 474.133 17.5369 474.254 L25 475 C58 478 80 449 80 404 L80 159 C80 57 135 -11 217 -11 C273.925 -11 328.808 23.7119 364.804 79.6593 C369.527 86.9995 385 84.3815 385 75.6532 L385 20.5 C385 8.63264 394.633 -1 406.5 -1 L422.41 -1 C423.385 -1 432.385 1.0125 433.288 1.3822 C441.654 4.80894 452.878 8.02624 463.116 9.11226 C463.481 9.15097 476.547 12.2674 476.902 12.3632 L476.902 12.3632 Z " />
<glyph glyph-name="v" unicode="v" horiz-adv-x="538" d="M383 365 L342 244 C327.785 202.05 272.191 201.335 256.902 242.906 L212 365 C188 433 189 479 218 476 L222.5 475.5 C224.969 475.226 227 477.044 227 479.528 L227 487.5 C227 494.4 221.4 500 214.5 500 L13 500 C13 495.833 13.6944 484.722 13.3472 478.241 C13.283 477.043 14.3431 475.134 15.5369 475.254 L23 476 C52 479 87 442 112 384 L251.709 1.74044 C253.934 -4.34615 262.02 -10 268.5 -10 C274.981 -10 283.066 -4.34617 285.289 1.74101 L418 365 C443 434 481 480 513 477 L518 476.5 C520.746 476.225 523 478.265 523 481.025 L523 488.5 C523 495.4 517.4 501 510.5 501 L363 501 C363 497.571 363.735 484.592 363.315 477.805 C363.24 476.601 364.336 475.148 365.534 475.282 L372 476 C402 479 405 432.5 383 364.5 L383 365 Z " />
<glyph glyph-name="w" unicode="w" horiz-adv-x="810" d="M120 365 L255.628 1.71052 C257.889 -4.34509 266.036 -10 272.5 -10 C278.948 -10 287.155 -4.34412 289.45 1.6811 L345.432 148.634 C366.825 204.79 441.209 204.062 461.5 147.5 L513.779 1.76585 C515.972 -4.34712 524.006 -10 530.5 -10 C536.935 -10 545.187 -4.34344 547.508 1.65879 L688 365 C715 434 754 479 786 476 L790.5 475.5 C792.969 475.226 795 477.044 795 479.528 L795 487.5 C795 494.4 789.4 500 782.5 500 L635 500 C635 496.571 635.735 483.592 635.315 476.805 C635.24 475.601 636.336 474.148 637.534 474.282 L644 475 C672 478 676 439 656 378 L610 250.5 C593.819 205.65 534.307 205.695 518.193 250.57 L471 382 C452 441 457 478 484 475 L488.5 474.5 C490.969 474.226 493 476.044 493 478.528 L493 486.5 C493 493.4 487.4 499 480.5 499 L277 499 C277 494.833 277.694 483.722 277.347 477.241 C277.283 476.043 278.343 474.134 279.537 474.254 L287 475 C316 478 350 441 375 382 L381 365.5 C383.115 359.684 383.167 338.297 381.081 332.471 L346 234.5 C331.438 193.832 277.728 193.528 262.707 234.029 L214.5 364 C188.5 433 191 478 220 475 L224.5 474.5 C226.969 474.226 229 476.044 229 478.528 L229 486.5 C229 493.4 223.4 499 216.5 499 L13 499 C13 494.833 13.6944 483.722 13.3472 477.241 C13.283 476.043 14.3431 474.134 15.5369 474.254 L23 475 C55 478 93.5 432.5 119.5 364.5 L120 365 Z " />
<glyph glyph-name="x" unicode="x" horiz-adv-x="547" d="M394 135 L325.525 246.644 C313.475 266.29 315.085 302.622 328.825 321.125 L377 386 C424 443 472 479 500 476 L504.5 475.5 C506.969 475.226 509 477.044 509 479.528 L509 487.5 C509 494.4 503.4 500 496.5 500 L359 500 C359 496.571 359.735 483.592 359.315 476.805 C359.241 475.605 360.337 474.167 361.53 474.316 L367 475 C393 478 379 433 331 364 L310 334 C299.369 318.813 279.547 319.413 269.854 335.216 L243 379 C207 440 200 479 225 476 L229 475.5 C231.191 475.226 233 476.823 233 479.031 L233 487.5 C233 494.4 227.4 500 220.5 500 L27.5 500 C20.6004 500 15 494.4 15 487.5 L15 479.528 C15 477.044 17.0313 475.226 19.5 475.5 L24 476 C55 479 104 434 147 365 L204.197 272.497 C216.415 252.736 214.835 216.339 200.949 197.712 L146 124 C97 62 47 22 18 25 L13.5 25.5 C11.0313 25.7743 9 23.9562 9 21.4723 L9 13.5 C9 6.60037 14.6004 1 21.5 1 L159 1 C159 4.42857 158.265 17.4082 158.685 24.1953 C158.759 25.395 157.663 26.8329 156.47 26.6838 L151 26 C125 23 140 69 186 137 L213.5 177 C227.358 197.156 253.548 196.447 266.294 175.57 L299 122 C335 61 342 22 317 25 L313 25.5 C310.809 25.7739 309 24.1768 309 21.9689 L309 13.5 C309 6.60037 314.6 1 321.5 1 L514.5 1 C521.4 1 527 6.60037 527 13.5 L527 21.4723 C527 23.9562 524.969 25.7743 522.5 25.5 L518 25 C487 22 437.5 66.5 394.5 135.5 L394 135 Z " />
<glyph glyph-name="y" unicode="y" horiz-adv-x="558" d="M121 380 L269.4 26.2669 C273.4 16.7321 272.9 -16.7479 269.143 -26.3812 C252.319 -69.5194 236.5 -113.1 220 -156 C211 -179 197 -194 193 -194 C171 -194 166 -165 143 -165 C116 -165 98 -183 98 -210 C98 -240 118 -260 148 -260 C174 -260 220 -223 241 -167 L301 -10 L445 383 C470 442 505 479 534 476 L539 475.5 C541.746 475.225 544 477.265 544 480.025 L544 487.5 C544 494.4 538.4 500 531.5 500 L384 500 C384 496.571 384.735 483.592 384.315 476.805 C384.24 475.601 385.336 474.148 386.534 474.282 L393 475 C420 478 427 441 410 382 L364.941 245.268 C349.731 199.114 289.858 196.712 271 241.5 L219 365 C191 433 190 479 219 476 L223 475.5 C225.191 475.226 227 476.823 227 479.031 L227 487.5 C227 494.4 221.4 500 214.5 500 L15 500 C15 495.833 15.6944 484.722 15.3472 478.241 C15.2832 477.045 16.344 475.149 17.5339 475.282 L24 476 C54 479 92 440.5 120 379.5 L121 380 Z " />
<glyph glyph-name="z" unicode="z" horiz-adv-x="475" d="M254 475 L293.5 476 C311.551 476.457 321.419 458.937 311.674 443.737 L45.3973 28.4184 C43.7894 25.9104 40 12.9792 40 10 C40 4.4803 44.4803 0 50 0 L422.5 0 C426.64 0 430 3.36022 430 7.5 L430 15 L435 15 L444.415 120.45 C444.729 123.96 441.984 126.536 438.5 126 L432 125 C429 125 421 127 421 127 C421 127 420.458 125.481 419.613 123.117 L416 113 C399 64 334 30 252 25 L198 23.5 C173.312 22.8142 159.75 46.7347 173.015 67.5671 L429.629 470.565 C431.221 473.066 435 486.035 435 489 C435 494.52 430.52 499 425 499 L182 499 C128 499 95 510 99 526 L99.5 528.5 C99.7744 529.872 99.6661 531.007 98.2672 530.984 C92.1224 530.879 82.5184 530.319 76.2827 530.67 C74.8095 530.752 72.6126 529.483 72.2476 528.053 L61 484 C62.95 484 51.5913 442.173 36.1923 377.055 C35.4171 373.777 38.1706 372.488 41.5 373 L48 374 C51 374 59 372 59 372 C59 372 59.5751 373.15 60.8439 375.688 L66 386 C92 436 167.5 472.5 254.5 474.5 L254 475 Z " />
<glyph glyph-name="bar" unicode="&#x7c;" horiz-adv-x="186" d="M60 767 L60 -217 C60 -235.215 74.785 -250 93 -250 C111.215 -250 126 -235.215 126 -217 L126 767 C126 785.215 111.215 800 93 800 C74.785 800 60 785.215 60 767 L60 767 Z " />
<glyph glyph-name="asciitilde" unicode="&#x7e;" horiz-adv-x="340" d="M30.2808 318.089 C32.5148 349.55 47.9231 370 71 370 C123 370 192 305 244 305 C291.775 305 323.389 350.63 324.94 419.645 C325.035 423.877 321.733 425 317.5 425 C313.681 425 309.996 420.915 309.7 417.108 C307.244 385.535 289.9 365 264 365 C212 365 143 430 91 430 C46.15 430 16.51 384.37 15.056 315.355 C14.967 311.129 18.273 310 22.5 310 C26.3466 310 30.0084 314.252 30.2808 318.089 L30.2808 318.089 Z " />
<glyph glyph-name="exclamdown" unicode="&#xa1;" horiz-adv-x="244" d="M122 505 C86 505 62 481 62 445 C62 409 86 385 122 385 C158 385 182 409 182 445 C182 481 158 505 122 505 L122 505 Z M122 -255 C163 -255 180 -213 174 -150 C174 -150 132.173 142.792 130.081 279.778 C130.015 284.125 126.348 290 122 290 C117.652 290 113.985 284.125 113.919 279.778 C111.827 142.792 70 -150 70 -150 C64 -213 81 -255 122 -255 L122 -255 Z " />
<glyph glyph-name="cent" unicode="&#xa2;" horiz-adv-x="503" d="M267 560.491 L267 542 C267 526.073 253.209 507.696 237.644 504.316 C120.295 478.836 45 377.525 45 236 C45 103.725 120.295 11.6644 237.644 -6.14939 C253.408 -8.5424 267 -25.5553 267 -41.5 L267 -59 C267 -67.2796 273.72 -74 282 -74 C290.28 -74 297 -67.2796 297 -59 L297 -41 C297 -26.4921 315.15 -5.84083 329.089 -1.81925 C387.153 14.9324 439.908 60.7467 469.385 123.27 C470.952 126.593 469.391 130.087 466 131.5 C462.806 132.831 459.531 132.815 458.05 129.688 C436.466 84.0999 389.777 51.6959 333.857 44.7639 C309.095 41.6943 296 56.1696 296 81.1214 L296 473.439 C296 485.786 300.774 492.457 312.525 488.669 C343.395 478.717 371.7 448.5 387 406 C396 381 413 364 430 364 C464 364 481 381 472 406 C451.875 461.125 395.766 500.172 326.449 509.072 C310.922 511.066 296 527.846 296 543.5 L296 561.491 C296 569.495 289.499 575.776 281.5 575.5 C273.501 575.224 267 568.495 267 560.491 L267 560.491 Z M225.824 66.1827 C167.392 101.791 132 176.825 132 275 C132 373.175 168.073 446.848 226.181 477.487 C250.959 490.552 266 477.91 266 449.9 L266 91.45 C266 64.1235 249.159 51.9623 225.824 66.1827 L225.824 66.1827 Z " />
<glyph glyph-name="acute" unicode="&#xb4;" horiz-adv-x="340" d="M183.941 567.02 L320 682 C358 715 384 740 384 746 C384 769 365 788 342 788 C336 788 313 761 281 721 L171.746 579.162 C169.148 575.789 169.489 570.511 172.5 567.5 C175.525 564.475 180.673 564.259 183.941 567.02 L183.941 567.02 Z " />
<glyph glyph-name="questiondown" unicode="&#xbf;" horiz-adv-x="299" d="M174 505 C138 505 114 481 114 445 C114 409 138 385 174 385 C210 385 234 409 234 445 C234 481 210 505 174 505 L174 505 Z M174 282.5 L174 186.5 C174 164.731 151.877 140.278 130.361 136.973 C69.4194 127.61 42.05 97.25 14 56 C-4 29 -16 -15 -16 -55 C-16 -178 52 -260 154 -260 C202 -260 234 -235 234 -197 C234 -172 216 -155 188 -155 C168 -155 142 -170 123 -170 C55 -170 10 -120 10 -45 C10 -29 19 -5 33 15 C51 42 77 60 202 60 C202.557 60 200.991 61.5429 200.823 62.0736 C193.512 85.1325 189 290 189 290 C189 290 185.732 290 181.5 290 C177.36 290 174 286.64 174 282.5 L174 282.5 Z M202 60 L202 60 L202 60 L202 60 Z " />
<glyph glyph-name="Agrave" unicode="&#xc0;" horiz-adv-x="796" d="M768.466 30.8945 C722.413 31.0719 672.225 91.4 642 185 L471.941 717.056 C471.894 717.202 471.012 719.947 470.979 720.097 C470.44 722.531 459.872 770 455 770 L450 770 C447.783 770 445.432 767.095 445.333 764.88 C444.424 744.635 416.947 727.429 374.566 720.549 C371.792 720.099 371.692 717.692 372.5 715 C372.974 713.419 372.883 706.609 372.366 705.042 L200 182 C168 88 103 28 36 31 L21.5902 31 C18.5543 31 16.4569 28.4869 17 25.5 L18 20 C18 15 16 0 16 0 C16 0 19.9099 0 23.5664 0 L306 0 C306 3.52941 305.221 21.0727 305.725 28.5864 C305.808 29.8145 304.681 31 303.45 31 L287 31 C225 28 201 83 224 171 L243.338 232.427 C251.058 256.948 281.119 279 306.826 279 L459.879 279 C485.787 279 515.843 256.819 523.481 232.062 L538 185 C568 89 546 27 481 30 L471.5 30 C466.256 30 462 25.7437 462 20.5 L462 14.5 C462 5.94446 468.944 -1 477.5 -1 L787 -1 C787 3.375 786.234 19.2344 786.713 27.1504 C786.804 28.6591 785.474 30.1018 783.965 30.2023 L776.333 30.7111 C776.261 30.7159 768.538 30.8943 768.466 30.8945 L768.466 30.8945 Z M218 995 C218 987 244 963 282 931 L418.059 816.02 C421.327 813.259 426.475 813.475 429.5 816.5 C432.511 819.511 432.852 824.789 430.254 828.162 L321 970 C291 1010 268 1037 260 1037 C237 1037 218 1018 218 995 L218 995 Z M294.408 390.636 L326.045 490.643 C344.696 549.599 424.993 549.501 443.5 490.5 L474.873 390.481 C489.16 344.934 459.099 304 411.364 304 L357.868 304 C310.047 304 279.984 345.043 294.408 390.636 L294.408 390.636 Z " />
<glyph glyph-name="Aacute" unicode="&#xc1;" horiz-adv-x="796" d="M434.941 817.02 L571 932 C609 965 635 990 635 996 C635 1019 616 1038 593 1038 C587 1038 564 1011 532 971 L422.746 829.162 C420.148 825.789 420.489 820.511 423.5 817.5 C426.525 814.475 431.673 814.259 434.941 817.02 L434.941 817.02 Z M768.466 30.8945 C722.413 31.0719 672.225 91.4 642 185 L471.941 717.056 C471.894 717.202 471.012 719.947 470.979 720.097 C470.44 722.531 459.872 770 455 770 L450 770 C447.783 770 445.432 767.095 445.333 764.88 C444.424 744.635 416.947 727.429 374.566 720.549 C371.792 720.099 371.692 717.692 372.5 715 C372.974 713.419 372.883 706.609 372.366 705.042 L200 182 C168 88 103 28 36 31 L21.5902 31 C18.5543 31 16.4569 28.4869 17 25.5 L18 20 C18 15 16 0 16 0 C16 0 19.9099 0 23.5664 0 L306 0 C306 3.52941 305.221 21.0727 305.725 28.5864 C305.808 29.8145 304.681 31 303.45 31 L287 31 C225 28 201 83 224 171 L243.338 232.427 C251.058 256.948 281.119 279 306.826 279 L459.879 279 C485.787 279 515.843 256.819 523.481 232.062 L538 185 C568 89 546 27 481 30 L471.5 30 C466.256 30 462 25.7437 462 20.5 L462 14.5 C462 5.94446 468.944 -1 477.5 -1 L787 -1 C787 3.375 786.234 19.2344 786.713 27.1504 C786.804 28.6591 785.474 30.1018 783.965 30.2023 L776.333 30.7111 C776.261 30.7159 768.538 30.8943 768.466 30.8945 L768.466 30.8945 Z M294.408 390.636 L326.045 490.643 C344.696 549.599 424.993 549.501 443.5 490.5 L474.873 390.481 C489.16 344.934 459.099 304 411.364 304 L357.868 304 C310.047 304 279.984 345.043 294.408 390.636 L294.408 390.636 Z " />
<glyph glyph-name="Acircumflex" unicode="&#xc2;" horiz-adv-x="796" d="M768.466 30.8945 C722.413 31.0719 672.225 91.4 642 185 L471.941 717.056 C471.894 717.202 471.012 719.947 470.979 720.097 C470.44 722.531 459.872 770 455 770 L450 770 C447.783 770 445.432 767.095 445.333 764.88 C444.424 744.635 416.947 727.429 374.566 720.549 C371.792 720.099 371.692 717.692 372.5 715 C372.974 713.419 372.883 706.609 372.366 705.042 L200 182 C168 88 103 28 36 31 L21.5902 31 C18.5543 31 16.4569 28.4869 17 25.5 L18 20 C18 15 16 0 16 0 C16 0 19.9099 0 23.5664 0 L306 0 C306 3.52941 305.221 21.0727 305.725 28.5864 C305.808 29.8145 304.681 31 303.45 31 L287 31 C225 28 201 83 224 171 L243.338 232.427 C251.058 256.948 281.119 279 306.826 279 L459.879 279 C485.787 279 515.843 256.819 523.481 232.062 L538 185 C568 89 546 27 481 30 L471.5 30 C466.256 30 462 25.7437 462 20.5 L462 14.5 C462 5.94446 468.944 -1 477.5 -1 L787 -1 C787 3.375 786.234 19.2344 786.713 27.1504 C786.804 28.6591 785.474 30.1018 783.965 30.2023 L776.333 30.7111 C776.261 30.7159 768.538 30.8943 768.466 30.8945 L768.466 30.8945 Z M452 1004 C446 1013 432 1034 422 1034 C412 1034 398 1013 392 1004 L274.236 821.562 C271.915 817.967 272.713 812.739 276 810 C279.297 807.252 284.497 807.479 287.542 810.503 L375.104 897.439 C400.989 923.139 443.011 923.139 468.896 897.439 L556.458 810.503 C559.503 807.479 564.703 807.252 568 810 C571.287 812.739 572.085 817.967 569.764 821.562 L452 1004 L452 1004 Z M294.408 390.636 L326.045 490.643 C344.696 549.599 424.993 549.501 443.5 490.5 L474.873 390.481 C489.16 344.934 459.099 304 411.364 304 L357.868 304 C310.047 304 279.984 345.043 294.408 390.636 L294.408 390.636 Z " />
<glyph glyph-name="Atilde" unicode="&#xc3;" horiz-adv-x="796" d="M281.281 878.089 C283.515 909.55 298.923 930 322 930 C374 930 443 865 495 865 C542.775 865 574.389 910.63 575.94 979.645 C576.035 983.877 572.733 985 568.5 985 C564.681 985 560.996 980.915 560.7 977.108 C558.244 945.535 540.9 925 515 925 C463 925 394 990 342 990 C297.15 990 267.51 944.37 266.056 875.355 C265.967 871.129 269.273 870 273.5 870 C277.347 870 281.008 874.252 281.281 878.089 L281.281 878.089 Z M768.466 30.8945 C722.413 31.0719 672.225 91.4 642 185 L471.941 717.056 C471.894 717.202 471.012 719.947 470.979 720.097 C470.44 722.531 459.872 770 455 770 L450 770 C447.783 770 445.432 767.095 445.333 764.88 C444.424 744.635 416.947 727.429 374.566 720.549 C371.792 720.099 371.692 717.692 372.5 715 C372.974 713.419 372.883 706.609 372.366 705.042 L200 182 C168 88 103 28 36 31 L21.5902 31 C18.5543 31 16.4569 28.4869 17 25.5 L18 20 C18 15 16 0 16 0 C16 0 19.9099 0 23.5664 0 L306 0 C306 3.52941 305.221 21.0727 305.725 28.5864 C305.808 29.8145 304.681 31 303.45 31 L287 31 C225 28 201 83 224 171 L243.338 232.427 C251.058 256.948 281.119 279 306.826 279 L459.879 279 C485.787 279 515.843 256.819 523.481 232.062 L538 185 C568 89 546 27 481 30 L471.5 30 C466.256 30 462 25.7437 462 20.5 L462 14.5 C462 5.94446 468.944 -1 477.5 -1 L787 -1 C787 3.375 786.234 19.2344 786.713 27.1504 C786.804 28.6591 785.474 30.1018 783.965 30.2023 L776.333 30.7111 C776.261 30.7159 768.538 30.8943 768.466 30.8945 L768.466 30.8945 Z M294.408 390.636 L326.045 490.643 C344.696 549.599 424.993 549.501 443.5 490.5 L474.873 390.481 C489.16 344.934 459.099 304 411.364 304 L357.868 304 C310.047 304 279.984 345.043 294.408 390.636 L294.408 390.636 Z " />
<glyph glyph-name="Adieresis" unicode="&#xc4;" horiz-adv-x="796" d="M496 865 C529 865 551 887 551 920 C551 953 529 975 496 975 C463 975 441 953 441 920 C441 887 463 865 496 865 L496 865 Z M346 865 C379 865 401 887 401 920 C401 953 379 975 346 975 C313 975 291 953 291 920 C291 887 313 865 346 865 L346 865 Z M768.466 30.8945 C722.413 31.0719 672.225 91.4 642 185 L471.941 717.056 C471.894 717.202 471.012 719.947 470.979 720.097 C470.44 722.531 459.872 770 455 770 L450 770 C447.783 770 445.432 767.095 445.333 764.88 C444.424 744.635 416.947 727.429 374.566 720.549 C371.792 720.099 371.692 717.692 372.5 715 C372.974 713.419 372.883 706.609 372.366 705.042 L200 182 C168 88 103 28 36 31 L21.5902 31 C18.5543 31 16.4569 28.4869 17 25.5 L18 20 C18 15 16 0 16 0 C16 0 19.9099 0 23.5664 0 L306 0 C306 3.52941 305.221 21.0727 305.725 28.5864 C305.808 29.8145 304.681 31 303.45 31 L287 31 C225 28 201 83 224 171 L243.338 232.427 C251.058 256.948 281.119 279 306.826 279 L459.879 279 C485.787 279 515.843 256.819 523.481 232.062 L538 185 C568 89 546 27 481 30 L471.5 30 C466.256 30 462 25.7437 462 20.5 L462 14.5 C462 5.94446 468.944 -1 477.5 -1 L787 -1 C787 3.375 786.234 19.2344 786.713 27.1504 C786.804 28.6591 785.474 30.1018 783.965 30.2023 L776.333 30.7111 C776.261 30.7159 768.538 30.8943 768.466 30.8945 L768.466 30.8945 Z M294.408 390.636 L326.045 490.643 C344.696 549.599 424.993 549.501 443.5 490.5 L474.873 390.481 C489.16 344.934 459.099 304 411.364 304 L357.868 304 C310.047 304 279.984 345.043 294.408 390.636 L294.408 390.636 Z " />
<glyph glyph-name="Aring" unicode="&#xc5;" horiz-adv-x="796" d="M349 905 C349 950 378 980 421 980 C465 980 494 950 494 905 C494 864 460 830 421 830 C382 830 349 865 349 905 L349 905 Z M324 905 C324 854 369 810 421 810 C474 810 519 854 519 905 C519 962 480 1000 421 1000 C363 1000 324 962 324 905 L324 905 Z M768.466 30.8945 C722.413 31.0719 672.225 91.4 642 185 L471.941 717.056 C471.894 717.202 471.012 719.947 470.979 720.097 C470.44 722.531 459.872 770 455 770 L450 770 C447.783 770 445.432 767.095 445.333 764.88 C444.424 744.635 416.947 727.429 374.566 720.549 C371.792 720.099 371.692 717.692 372.5 715 C372.974 713.419 372.883 706.609 372.366 705.042 L200 182 C168 88 103 28 36 31 L21.5902 31 C18.5543 31 16.4569 28.4869 17 25.5 L18 20 C18 15 16 0 16 0 C16 0 19.9099 0 23.5664 0 L306 0 C306 3.52941 305.221 21.0727 305.725 28.5864 C305.808 29.8145 304.681 31 303.45 31 L287 31 C225 28 201 83 224 171 L243.338 232.427 C251.058 256.948 281.119 279 306.826 279 L459.879 279 C485.787 279 515.843 256.819 523.481 232.062 L538 185 C568 89 546 27 481 30 L471.5 30 C466.256 30 462 25.7437 462 20.5 L462 14.5 C462 5.94446 468.944 -1 477.5 -1 L787 -1 C787 3.375 786.234 19.2344 786.713 27.1504 C786.804 28.6591 785.474 30.1018 783.965 30.2023 L776.333 30.7111 C776.261 30.7159 768.538 30.8943 768.466 30.8945 L768.466 30.8945 Z M294.408 390.636 L326.045 490.643 C344.696 549.599 424.993 549.501 443.5 490.5 L474.873 390.481 C489.16 344.934 459.099 304 411.364 304 L357.868 304 C310.047 304 279.984 345.043 294.408 390.636 L294.408 390.636 Z " />
<glyph glyph-name="Egrave" unicode="&#xc8;" horiz-adv-x="652" d="M147 996 C147 988 173 964 211 932 L347.059 817.02 C350.327 814.259 355.475 814.475 358.5 817.5 C361.511 820.511 361.852 825.789 359.254 829.162 L250 971 C220 1011 197 1038 189 1038 C166 1038 147 1019 147 996 L147 996 Z M556 740 L555.5 745 C555.225 747.746 552.735 750 549.975 750 L40 750 C40 746.571 40.7347 733.592 40.3149 726.805 C40.2398 725.591 41.3308 724.083 42.5445 724.159 L56 725 C109 728 145 677 145 599 L145 149 C145 71 109 20 56 23 L48 23.5 C43.5928 23.7754 40 20.4002 40 15.9844 L40 11.5 C40 4.60037 45.6004 -1 52.5 -1 L574.901 -1 C577.661 -1 580.459 1.29374 581 4 L582 9 C589 50 599 104 606 145 C606.213 146.249 604.677 144.471 603.5 144 L601 143 C599 143 585 145 585 145 C585 145 584.225 142.895 582.555 138.365 L578 126 C558.5 71.4 497.173 32.9606 418.116 22.731 C417.063 22.5947 402.124 22.9717 401.069 23.0908 C262.111 38.77 245 112.675 245 217 L245 351.5 C245 369.439 259.561 384 277.5 384 L310 384 C394 384 458 338 470 269 L474 249 C478.5 249 487.86 250.62 493.332 249.486 C494.517 249.24 495 250.482 495 251.693 L495 540.307 C495 541.687 493.781 542.512 492.5 542 L490 541 C488 541 474 543 474 543 C474 543 473.422 540.112 472.613 536.066 L470 523 C458 454 394 408 310 408 L277.5 408 C259.561 408 245 422.561 245 440.5 L245 664 C245 699.326 273.674 728 309 728 L373 728 C457 728 527 682 547 613 L553 593 C557.5 593 566.86 594.62 572.332 593.486 C573.474 593.249 573.743 595.254 573.611 596.413 C568.617 639.99 561.372 696.628 556.5 739.5 L556 740 Z " />
<glyph glyph-name="Eacute" unicode="&#xc9;" horiz-adv-x="652" d="M364.941 817.02 L501 932 C539 965 565 990 565 996 C565 1019 546 1038 523 1038 C517 1038 494 1011 462 971 L352.746 829.162 C350.148 825.789 350.489 820.511 353.5 817.5 C356.525 814.475 361.673 814.259 364.941 817.02 L364.941 817.02 Z M556 740 L555.5 745 C555.225 747.746 552.735 750 549.975 750 L40 750 C40 746.571 40.7347 733.592 40.3149 726.805 C40.2398 725.591 41.3308 724.083 42.5445 724.159 L56 725 C109 728 145 677 145 599 L145 149 C145 71 109 20 56 23 L48 23.5 C43.5928 23.7754 40 20.4002 40 15.9844 L40 11.5 C40 4.60037 45.6004 -1 52.5 -1 L574.901 -1 C577.661 -1 580.459 1.29374 581 4 L582 9 C589 50 599 104 606 145 C606.213 146.249 604.677 144.471 603.5 144 L601 143 C599 143 585 145 585 145 C585 145 584.225 142.895 582.555 138.365 L578 126 C558.5 71.4 497.173 32.9606 418.116 22.731 C417.063 22.5947 402.124 22.9717 401.069 23.0908 C262.111 38.77 245 112.675 245 217 L245 351.5 C245 369.439 259.561 384 277.5 384 L310 384 C394 384 458 338 470 269 L474 249 C478.5 249 487.86 250.62 493.332 249.486 C494.517 249.24 495 250.482 495 251.693 L495 540.307 C495 541.687 493.781 542.512 492.5 542 L490 541 C488 541 474 543 474 543 C474 543 473.422 540.112 472.613 536.066 L470 523 C458 454 394 408 310 408 L277.5 408 C259.561 408 245 422.561 245 440.5 L245 664 C245 699.326 273.674 728 309 728 L373 728 C457 728 527 682 547 613 L553 593 C557.5 593 566.86 594.62 572.332 593.486 C573.474 593.249 573.743 595.254 573.611 596.413 C568.617 639.99 561.372 696.628 556.5 739.5 L556 740 Z " />
<glyph glyph-name="Ecircumflex" unicode="&#xca;" horiz-adv-x="652" d="M381 1005 C375 1014 361 1035 351 1035 C341 1035 327 1014 321 1005 L203.236 822.562 C200.915 818.967 201.713 813.739 205 811 C208.297 808.252 213.497 808.479 216.542 811.503 L304.104 898.439 C329.989 924.139 372.011 924.139 397.896 898.439 L485.458 811.503 C488.503 808.479 493.703 808.252 497 811 C500.287 813.739 501.085 818.967 498.764 822.562 L381 1005 L381 1005 Z M556 740 L555.5 745 C555.225 747.746 552.735 750 549.975 750 L40 750 C40 746.571 40.7347 733.592 40.3149 726.805 C40.2398 725.591 41.3308 724.083 42.5445 724.159 L56 725 C109 728 145 677 145 599 L145 149 C145 71 109 20 56 23 L48 23.5 C43.5928 23.7754 40 20.4002 40 15.9844 L40 11.5 C40 4.60037 45.6004 -1 52.5 -1 L574.901 -1 C577.661 -1 580.459 1.29374 581 4 L582 9 C589 50 599 104 606 145 C606.213 146.249 604.677 144.471 603.5 144 L601 143 C599 143 585 145 585 145 C585 145 584.225 142.895 582.555 138.365 L578 126 C558.5 71.4 497.173 32.9606 418.116 22.731 C417.063 22.5947 402.124 22.9717 401.069 23.0908 C262.111 38.77 245 112.675 245 217 L245 351.5 C245 369.439 259.561 384 277.5 384 L310 384 C394 384 458 338 470 269 L474 249 C478.5 249 487.86 250.62 493.332 249.486 C494.517 249.24 495 250.482 495 251.693 L495 540.307 C495 541.687 493.781 542.512 492.5 542 L490 541 C488 541 474 543 474 543 C474 543 473.422 540.112 472.613 536.066 L470 523 C458 454 394 408 310 408 L277.5 408 C259.561 408 245 422.561 245 440.5 L245 664 C245 699.326 273.674 728 309 728 L373 728 C457 728 527 682 547 613 L553 593 C557.5 593 566.86 594.62 572.332 593.486 C573.474 593.249 573.743 595.254 573.611 596.413 C568.617 639.99 561.372 696.628 556.5 739.5 L556 740 Z " />
<glyph glyph-name="Edieresis" unicode="&#xcb;" horiz-adv-x="652" d="M426 865 C459 865 481 887 481 920 C481 953 459 975 426 975 C393 975 371 953 371 920 C371 887 393 865 426 865 L426 865 Z M276 865 C309 865 331 887 331 920 C331 953 309 975 276 975 C243 975 221 953 221 920 C221 887 243 865 276 865 L276 865 Z M556 740 L555.5 745 C555.225 747.746 552.735 750 549.975 750 L40 750 C40 746.571 40.7347 733.592 40.3149 726.805 C40.2398 725.591 41.3308 724.083 42.5445 724.159 L56 725 C109 728 145 677 145 599 L145 149 C145 71 109 20 56 23 L48 23.5 C43.5928 23.7754 40 20.4002 40 15.9844 L40 11.5 C40 4.60037 45.6004 -1 52.5 -1 L574.901 -1 C577.661 -1 580.459 1.29374 581 4 L582 9 C589 50 599 104 606 145 C606.213 146.249 604.677 144.471 603.5 144 L601 143 C599 143 585 145 585 145 C585 145 584.225 142.895 582.555 138.365 L578 126 C558.5 71.4 497.173 32.9606 418.116 22.731 C417.063 22.5947 402.124 22.9717 401.069 23.0908 C262.111 38.77 245 112.675 245 217 L245 351.5 C245 369.439 259.561 384 277.5 384 L310 384 C394 384 458 338 470 269 L474 249 C478.5 249 487.86 250.62 493.332 249.486 C494.517 249.24 495 250.482 495 251.693 L495 540.307 C495 541.687 493.781 542.512 492.5 542 L490 541 C488 541 474 543 474 543 C474 543 473.422 540.112 472.613 536.066 L470 523 C458 454 394 408 310 408 L277.5 408 C259.561 408 245 422.561 245 440.5 L245 664 C245 699.326 273.674 728 309 728 L373 728 C457 728 527 682 547 613 L553 593 C557.5 593 566.86 594.62 572.332 593.486 C573.474 593.249 573.743 595.254 573.611 596.413 C568.617 639.99 561.372 696.628 556.5 739.5 L556 740 Z " />
<glyph glyph-name="Igrave" unicode="&#xcc;" horiz-adv-x="385" d="M-14 996 C-14 988 12 964 50 932 L186.059 817.02 C189.327 814.259 194.475 814.475 197.5 817.5 C200.511 820.511 200.852 825.789 198.254 829.162 L89 971 C59 1011 36 1038 28 1038 C5 1038 -14 1019 -14 996 L-14 996 Z M325 0 C325 3.42857 324.265 16.4082 324.685 23.1953 C324.76 24.4063 323.668 25.8975 322.458 25.8045 L312 25 C269 22 240 65 240 131 L240 621 C240 687 269 730 312 727 L318.5 726.5 C322.077 726.225 325 728.931 325 732.519 L325 738.5 C325 745.4 319.4 751 312.5 751 L55 751 C55 747.571 55.7347 734.592 55.3149 727.805 C55.24 726.594 56.3323 725.102 57.542 725.196 L68 726 C111 729 140 686 140 620 L140 130 C140 64 111 21 68 24 L61.5 24.5 C57.9228 24.7752 55 22.0686 55 18.4808 L55 12.5 C55 5.60037 60.6004 0 67.5 0 L325 0 L325 0 Z " />
<glyph glyph-name="Iacute" unicode="&#xcd;" horiz-adv-x="385" d="M203.941 817.02 L340 932 C378 965 404 990 404 996 C404 1019 385 1038 362 1038 C356 1038 333 1011 301 971 L191.746 829.162 C189.148 825.789 189.489 820.511 192.5 817.5 C195.525 814.475 200.673 814.259 203.941 817.02 L203.941 817.02 Z M325 0 C325 3.42857 324.265 16.4082 324.685 23.1953 C324.76 24.4063 323.668 25.8975 322.458 25.8045 L312 25 C269 22 240 65 240 131 L240 621 C240 687 269 730 312 727 L318.5 726.5 C322.077 726.225 325 728.931 325 732.519 L325 738.5 C325 745.4 319.4 751 312.5 751 L55 751 C55 747.571 55.7347 734.592 55.3149 727.805 C55.24 726.594 56.3323 725.102 57.542 725.196 L68 726 C111 729 140 686 140 620 L140 130 C140 64 111 21 68 24 L61.5 24.5 C57.9228 24.7752 55 22.0686 55 18.4808 L55 12.5 C55 5.60037 60.6004 0 67.5 0 L325 0 L325 0 Z " />
<glyph glyph-name="Icircumflex" unicode="&#xce;" horiz-adv-x="385" d="M220 1005 C214 1014 200 1035 190 1035 C180 1035 166 1014 160 1005 L42.2357 822.562 C39.915 818.967 40.7126 813.739 44 811 C47.2971 808.252 52.4968 808.479 55.5424 811.503 L143.104 898.439 C168.989 924.139 211.011 924.139 236.896 898.439 L324.458 811.503 C327.503 808.479 332.703 808.252 336 811 C339.287 813.739 340.085 818.967 337.764 822.562 L220 1005 L220 1005 Z M325 0 C325 3.42857 324.265 16.4082 324.685 23.1953 C324.76 24.4063 323.668 25.8975 322.458 25.8045 L312 25 C269 22 240 65 240 131 L240 621 C240 687 269 730 312 727 L318.5 726.5 C322.077 726.225 325 728.931 325 732.519 L325 738.5 C325 745.4 319.4 751 312.5 751 L55 751 C55 747.571 55.7347 734.592 55.3149 727.805 C55.24 726.594 56.3323 725.102 57.542 725.196 L68 726 C111 729 140 686 140 620 L140 130 C140 64 111 21 68 24 L61.5 24.5 C57.9228 24.7752 55 22.0686 55 18.4808 L55 12.5 C55 5.60037 60.6004 0 67.5 0 L325 0 L325 0 Z " />
<glyph glyph-name="Idieresis" unicode="&#xcf;" horiz-adv-x="385" d="M265 865 C298 865 320 887 320 920 C320 953 298 975 265 975 C232 975 210 953 210 920 C210 887 232 865 265 865 L265 865 Z M115 865 C148 865 170 887 170 920 C170 953 148 975 115 975 C82 975 60 953 60 920 C60 887 82 865 115 865 L115 865 Z M325 0 C325 3.42857 324.265 16.4082 324.685 23.1953 C324.76 24.4063 323.668 25.8975 322.458 25.8045 L312 25 C269 22 240 65 240 131 L240 621 C240 687 269 730 312 727 L318.5 726.5 C322.077 726.225 325 728.931 325 732.519 L325 738.5 C325 745.4 319.4 751 312.5 751 L55 751 C55 747.571 55.7347 734.592 55.3149 727.805 C55.24 726.594 56.3323 725.102 57.542 725.196 L68 726 C111 729 140 686 140 620 L140 130 C140 64 111 21 68 24 L61.5 24.5 C57.9228 24.7752 55 22.0686 55 18.4808 L55 12.5 C55 5.60037 60.6004 0 67.5 0 L325 0 L325 0 Z " />
<glyph glyph-name="Ntilde" unicode="&#xd1;" horiz-adv-x="786" d="M249.283 877.892 C251.595 909.465 267.875 930 291 930 C343 930 412 865 464 865 C511.775 865 543.389 910.63 544.94 979.645 C545.035 983.877 541.733 985 537.5 985 C533.681 985 529.996 980.915 529.7 977.108 C527.244 945.535 509.9 925 484 925 C432 925 362 990 310 990 C265.15 990 235.51 944.37 234.056 875.355 C233.967 871.129 237.273 870 241.5 870 C245.337 870 249.003 874.065 249.283 877.892 L249.283 877.892 Z M611 620 L611.733 290.805 C611.82 251.711 560.648 240.876 537.537 272.406 C427.734 422.205 318.427 572.394 209.15 722.043 C200.261 734.216 169.269 751 154.196 751 L-3 751 C-3 746.833 -2.30556 735.722 -2.65278 729.241 C-2.71722 728.038 -1.65902 726.103 -0.458 726.196 L10 727 C40.625 729.625 82.7344 705.453 122.26 665.203 C129.67 657.657 138.972 632.758 138.952 622.183 L138 131 C138 65 109 22 66 25 L59.5 25.5 C55.9228 25.7752 53 23.0686 53 19.4808 L53 13.5 C53 6.60037 58.6004 1 65.5 1 L253 1 C253 4.42857 252.265 17.4082 252.685 24.1953 C252.76 25.4063 251.668 26.8975 250.458 26.8045 L240 26 C200 23 171 60 167 119 L164.766 487.692 C164.518 528.47 218.175 539.828 242.23 506.9 C361.455 343.7 480.791 180.5 600.752 17.3 C603.386 13.7158 617.552 2 622 2 C627.519 2 632.051 6.48037 632.113 11.9994 L639 622 C641 687 669 731 712 728 L718.5 727.5 C722.077 727.225 725 729.931 725 733.519 L725 739.5 C725 746.4 719.4 752 712.5 752 L525 752 C525 748.571 525.735 735.592 525.315 728.805 C525.24 727.594 526.332 726.102 527.542 726.196 L538 727 C581 730 609.5 685.5 610.5 620.5 L611 620 Z " />
<glyph glyph-name="Ograve" unicode="&#xd2;" horiz-adv-x="851" d="M159 375 C159 591 261 735 414 735 C578 735 687 591 687 375 C687 159 577 15 413 15 C261 15 159 159 159 375 L159 375 Z M50 375 C50 144 193 -10 408 -10 C641 -10 796 144 796 375 C796 606 645 760 418 760 C197 760 50 606 50 375 L50 375 Z M214 996 C214 988 240 964 278 932 L414.059 817.02 C417.327 814.259 422.475 814.475 425.5 817.5 C428.511 820.511 428.852 825.789 426.254 829.162 L317 971 C287 1011 264 1038 256 1038 C233 1038 214 1019 214 996 L214 996 Z " />
<glyph glyph-name="Oacute" unicode="&#xd3;" horiz-adv-x="851" d="M431.941 817.02 L568 932 C606 965 632 990 632 996 C632 1019 613 1038 590 1038 C584 1038 561 1011 529 971 L419.746 829.162 C417.148 825.789 417.489 820.511 420.5 817.5 C423.525 814.475 428.673 814.259 431.941 817.02 L431.941 817.02 Z M159 375 C159 591 261 735 414 735 C578 735 687 591 687 375 C687 159 577 15 413 15 C261 15 159 159 159 375 L159 375 Z M50 375 C50 144 193 -10 408 -10 C641 -10 796 144 796 375 C796 606 645 760 418 760 C197 760 50 606 50 375 L50 375 Z " />
<glyph glyph-name="Ocircumflex" unicode="&#xd4;" horiz-adv-x="851" d="M159 375 C159 591 261 735 414 735 C578 735 687 591 687 375 C687 159 577 15 413 15 C261 15 159 159 159 375 L159 375 Z M50 375 C50 144 193 -10 408 -10 C641 -10 796 144 796 375 C796 606 645 760 418 760 C197 760 50 606 50 375 L50 375 Z M448 1005 C442 1014 428 1035 418 1035 C408 1035 394 1014 388 1005 L270.236 822.562 C267.915 818.967 268.713 813.739 272 811 C275.297 808.252 280.497 808.479 283.542 811.503 L371.104 898.439 C396.989 924.139 439.011 924.139 464.896 898.439 L552.458 811.503 C555.503 808.479 560.703 808.252 564 811 C567.287 813.739 568.085 818.967 565.764 822.562 L448 1005 L448 1005 Z " />
<glyph glyph-name="Otilde" unicode="&#xd5;" horiz-adv-x="851" d="M278.281 878.089 C280.515 909.55 295.923 930 319 930 C371 930 440 865 492 865 C539.775 865 571.389 910.63 572.94 979.645 C573.035 983.877 569.733 985 565.5 985 C561.681 985 557.996 980.915 557.7 977.108 C555.244 945.535 537.9 925 512 925 C460 925 391 990 339 990 C294.15 990 264.51 944.37 263.056 875.355 C262.967 871.129 266.273 870 270.5 870 C274.347 870 278.008 874.252 278.281 878.089 L278.281 878.089 Z M159 375 C159 591 261 735 414 735 C578 735 687 591 687 375 C687 159 577 15 413 15 C261 15 159 159 159 375 L159 375 Z M50 375 C50 144 193 -10 408 -10 C641 -10 796 144 796 375 C796 606 645 760 418 760 C197 760 50 606 50 375 L50 375 Z " />
<glyph glyph-name="Odieresis" unicode="&#xd6;" horiz-adv-x="851" d="M493 865 C526 865 548 887 548 920 C548 953 526 975 493 975 C460 975 438 953 438 920 C438 887 460 865 493 865 L493 865 Z M343 865 C376 865 398 887 398 920 C398 953 376 975 343 975 C310 975 288 953 288 920 C288 887 310 865 343 865 L343 865 Z M159 375 C159 591 261 735 414 735 C578 735 687 591 687 375 C687 159 577 15 413 15 C261 15 159 159 159 375 L159 375 Z M50 375 C50 144 193 -10 408 -10 C641 -10 796 144 796 375 C796 606 645 760 418 760 C197 760 50 606 50 375 L50 375 Z " />
<glyph glyph-name="Oslash" unicode="&#xd8;" horiz-adv-x="851" d="M81.7642 -9.76759 L138.155 48.298 C151.827 62.3768 184.867 62.0095 201.009 50.8479 C257.509 11.78 328.15 -10 409 -10 C642 -10 797 144 797 375 C797 462.45 775.22 539.01 736.152 600.188 C725.242 617.272 725.038 653.496 739.168 668.03 L798.227 728.776 C806.932 737.73 806.831 752.169 798 761 C789.169 769.831 774.932 769.73 766.227 760.776 L707.363 700.23 C693.021 685.479 657.806 685.66 640.713 697.11 C580.36 737.539 504.625 760 418 760 C197 760 50 606 50 375 C50 286.725 71.0994 209.34 109.368 147.899 C119.948 130.911 118.08 92.5382 104.138 78.1803 C58.5025 31.1831 34 6 34 6 C34 6 41.0467 -1.04667 50 -10 C58.8306 -18.8306 73.0638 -18.7264 81.7642 -9.76759 L81.7642 -9.76759 Z M598.391 589.499 C444.593 430.54 315.753 297.344 219.912 198.621 C208.514 186.88 189.606 188.971 184.421 204.492 C167.848 254.106 159 311.65 159 376 C159 592 261 736 414 736 C488.25 736 550.929 706.393 597.546 653.917 C616.626 632.438 618.369 610.147 598.391 589.499 L598.391 589.499 Z M660.098 545.952 C677.471 496.924 687 439.525 687 376 C687 160 577 16 413 16 C344.525 16 286.259 44.5862 242.695 95.5821 C224.771 116.564 229.557 144.059 248.71 163.926 C342.507 261.217 469.54 392.176 620.596 548.207 C632.007 559.994 654.619 561.416 660.098 545.952 L660.098 545.952 Z " />
<glyph glyph-name="Ugrave" unicode="&#xd9;" horiz-adv-x="760" d="M110 749.5 L25 749 C25 745.571 25.7347 732.592 25.3149 725.805 C25.24 724.594 26.3323 723.102 27.542 723.196 L38 724 C81 727 110 684 110 618 L110 219 C110 81 184 -11 294 -11 C382.275 -11 466.466 31.1987 517.375 98.1893 C524.136 107.086 545 103.944 545 92.7701 L545 24.0012 C545 10.202 556.201 -1.11201 570 -1.25 L586.468 -1.41468 C587.627 -1.42627 603.1 0.512559 604.225 0.790078 C643.027 10.3609 692.075 21.75 730 31 C730 34.4286 729.265 47.4082 729.685 54.1953 C729.755 55.3275 728.647 56.5838 727.563 56.2502 L717 53 C674 39 645 75 645 141 L645 699.999 C645 727.598 622.598 749.888 595 749.75 L545 749.5 L460 749 C460 745.571 460.735 732.592 460.315 725.805 C460.24 724.594 461.332 723.102 462.542 723.196 L473 724 C516 727 545 684 545 618 L545 203.673 C545 199.301 541.029 180.765 538.96 176.913 C498.587 101.735 418.55 53 334 53 C260 53 210 119 210 219 L210 698.998 C210 726.596 187.597 749.224 160 749.5 L110 750 L110 749.5 Z M174 994 C174 986 200 962 238 930 L374.323 814.798 C377.454 812.151 382.242 812.466 385 815.5 C387.715 818.486 387.938 823.7 385.489 826.908 L277 969 C247 1009 224 1036 216 1036 C193 1036 174 1017 174 994 L174 994 Z " />
<glyph glyph-name="Uacute" unicode="&#xda;" horiz-adv-x="760" d="M390.677 815.798 L527 931 C565 964 591 989 591 995 C591 1018 572 1037 549 1037 C543 1037 519 1010 488 970 L379.511 827.908 C377.062 824.7 377.285 819.486 380 816.5 C382.758 813.466 387.546 813.151 390.677 815.798 L390.677 815.798 Z M110 749.5 L25 749 C25 745.571 25.7347 732.592 25.3149 725.805 C25.24 724.594 26.3323 723.102 27.542 723.196 L38 724 C81 727 110 684 110 618 L110 219 C110 81 184 -11 294 -11 C382.275 -11 466.466 31.1987 517.375 98.1893 C524.136 107.086 545 103.944 545 92.7701 L545 24.0012 C545 10.202 556.201 -1.11201 570 -1.25 L586.468 -1.41468 C587.627 -1.42627 603.1 0.512559 604.225 0.790078 C643.027 10.3609 692.075 21.75 730 31 C730 34.4286 729.265 47.4082 729.685 54.1953 C729.755 55.3275 728.647 56.5838 727.563 56.2502 L717 53 C674 39 645 75 645 141 L645 699.999 C645 727.598 622.598 749.888 595 749.75 L545 749.5 L460 749 C460 745.571 460.735 732.592 460.315 725.805 C460.24 724.594 461.332 723.102 462.542 723.196 L473 724 C516 727 545 684 545 618 L545 203.673 C545 199.301 541.029 180.765 538.96 176.913 C498.587 101.735 418.55 53 334 53 C260 53 210 119 210 219 L210 698.998 C210 726.596 187.597 749.224 160 749.5 L110 750 L110 749.5 Z " />
<glyph glyph-name="Ucircumflex" unicode="&#xdb;" horiz-adv-x="760" d="M110 749.5 L25 749 C25 745.571 25.7347 732.592 25.3149 725.805 C25.24 724.594 26.3323 723.102 27.542 723.196 L38 724 C81 727 110 684 110 618 L110 219 C110 81 184 -11 294 -11 C382.275 -11 466.466 31.1987 517.375 98.1893 C524.136 107.086 545 103.944 545 92.7701 L545 24.0012 C545 10.202 556.201 -1.11201 570 -1.25 L586.468 -1.41468 C587.627 -1.42627 603.1 0.512559 604.225 0.790078 C643.027 10.3609 692.075 21.75 730 31 C730 34.4286 729.265 47.4082 729.685 54.1953 C729.755 55.3275 728.647 56.5838 727.563 56.2502 L717 53 C674 39 645 75 645 141 L645 699.999 C645 727.598 622.598 749.888 595 749.75 L545 749.5 L460 749 C460 745.571 460.735 732.592 460.315 725.805 C460.24 724.594 461.332 723.102 462.542 723.196 L473 724 C516 727 545 684 545 618 L545 203.673 C545 199.301 541.029 180.765 538.96 176.913 C498.587 101.735 418.55 53 334 53 C260 53 210 119 210 219 L210 698.998 C210 726.596 187.597 749.224 160 749.5 L110 750 L110 749.5 Z M408 1003 C402 1012 388 1033 378 1033 C368 1033 354 1012 348 1003 L230.031 820.245 C227.836 816.845 228.505 811.723 231.5 809 C234.532 806.244 239.367 806.35 242.275 809.237 L330.271 896.604 C356.062 922.212 398.012 922.287 423.894 896.771 L512.707 809.218 C515.624 806.342 520.469 806.244 523.5 809 C526.493 811.721 527.173 816.854 524.992 820.26 L408 1003 L408 1003 Z " />
<glyph glyph-name="Udieresis" unicode="&#xdc;" horiz-adv-x="760" d="M453 864 C486 864 508 886 508 919 C508 952 486 974 453 974 C420 974 398 952 398 919 C398 886 420 864 453 864 L453 864 Z M303 864 C336 864 358 886 358 919 C358 952 336 974 303 974 C270 974 248 952 248 919 C248 886 270 864 303 864 L303 864 Z M110 749.5 L25 749 C25 745.571 25.7347 732.592 25.3149 725.805 C25.24 724.594 26.3323 723.102 27.542 723.196 L38 724 C81 727 110 684 110 618 L110 219 C110 81 184 -11 294 -11 C382.275 -11 466.466 31.1987 517.375 98.1893 C524.136 107.086 545 103.944 545 92.7701 L545 24.0012 C545 10.202 556.201 -1.11201 570 -1.25 L586.468 -1.41468 C587.627 -1.42627 603.1 0.512559 604.225 0.790078 C643.027 10.3609 692.075 21.75 730 31 C730 34.4286 729.265 47.4082 729.685 54.1953 C729.755 55.3275 728.647 56.5838 727.563 56.2502 L717 53 C674 39 645 75 645 141 L645 699.999 C645 727.598 622.598 749.888 595 749.75 L545 749.5 L460 749 C460 745.571 460.735 732.592 460.315 725.805 C460.24 724.594 461.332 723.102 462.542 723.196 L473 724 C516 727 545 684 545 618 L545 203.673 C545 199.301 541.029 180.765 538.96 176.913 C498.587 101.735 418.55 53 334 53 C260 53 210 119 210 219 L210 698.998 C210 726.596 187.597 749.224 160 749.5 L110 750 L110 749.5 Z " />
<glyph glyph-name="Yacute" unicode="&#xdd;" horiz-adv-x="764" d="M403.941 817.02 L540 932 C578 965 604 990 604 996 C604 1019 585 1038 562 1038 C556 1038 533 1011 501 971 L391.746 829.162 C389.148 825.789 389.489 820.511 392.5 817.5 C395.525 814.475 400.673 814.259 403.941 817.02 L403.941 817.02 Z M557 615 L481.934 463.109 C457.09 412.838 395.454 409.798 365.784 457.381 L267.5 615 C224.5 684 227 729 274 726 L281 725.5 C284.854 725.225 288 728.154 288 732.018 L288 737.5 C288 744.4 282.4 750 275.5 750 L11 750 C11 745.833 11.6944 734.722 11.3472 728.241 C11.283 727.043 12.3431 725.134 13.5369 725.254 L21 726 C52 729 98 692 139 634 L327.557 338.373 C330.657 333.513 338 308.344 338 302.58 L338 150 C338 72 302 21 249 24 L241 24.5 C236.593 24.7754 233 21.4002 233 16.9844 L233 12.5 C233 5.60037 238.6 0 245.5 0 L543 0 C543 3.42857 542.265 16.4082 542.685 23.1953 C542.76 24.4091 541.669 25.9168 540.455 25.841 L527 25 C474 22 438 73 438 151 L438 308.89 C438 313.445 444.055 336.999 446.251 340.989 L607 633 C645 692 696 730 739 727 L746 726.5 C749.854 726.225 753 729.154 753 733.018 L753 738.5 C753 745.4 747.4 751 740.5 751 L497 751 C497 747.571 497.735 734.592 497.315 727.805 C497.24 726.59 498.33 725.078 499.545 725.15 L514 726 C574 729 589 683 556 615 L557 615 Z " />
<glyph glyph-name="agrave" unicode="&#xe0;" horiz-adv-x="514" d="M516.5 105.5 C512.745 107.252 508.444 105.813 507.353 101.815 C499.734 73.8935 479.923 56 455 56 C422 56 400 74 400 102 L400 355 C400 462 344 510 259 510 C143 510 65 414 65 360 C65 324 85 300 114 300 C141 300 159 325 159 343 C159 361 139 385 139 403 C139 432 175 484 229 484 C281 484 316 454 316 386 L316 314.176 C316 288.515 294.17 258.329 269.703 250.591 C90.4925 193.918 46 166.7 46 89 C46 30 91 -9 159 -9 C195.9 -9 241.71 12.06 297.888 65.115 C305.153 71.9763 320.302 67.1815 324.054 57.9199 C339.49 19.8219 374.8 -4 421 -4 C469.45 -4 509.326 34.3562 522.624 93.0639 C523.665 97.6599 520.77 103.507 516.5 105.5 L516.5 105.5 Z M56 747 C56 739 82 715 120 683 L256.059 568.02 C259.327 565.259 264.475 565.475 267.5 568.5 C270.511 571.511 270.852 576.789 268.254 580.162 L159 722 C129 762 106 789 98 789 C75 789 56 770 56 747 L56 747 Z M316 175 L316 131.161 C316 118.878 304.687 92.5608 295.522 84.3845 C258.102 51.005 227.8 38 204 38 C160 38 131 63 131 100 C131 166.825 155.503 192.132 247.744 224.772 C284.098 237.636 316 213.562 316 175 L316 175 Z " />
<glyph glyph-name="aacute" unicode="&#xe1;" horiz-adv-x="514" d="M272.941 567.02 L409 682 C447 715 473 740 473 746 C473 769 454 788 431 788 C425 788 402 761 370 721 L260.746 579.162 C258.148 575.789 258.489 570.511 261.5 567.5 C264.525 564.475 269.673 564.259 272.941 567.02 L272.941 567.02 Z M516.5 105.5 C512.745 107.252 508.444 105.813 507.353 101.815 C499.734 73.8935 479.923 56 455 56 C422 56 400 74 400 102 L400 355 C400 462 344 510 259 510 C143 510 65 414 65 360 C65 324 85 300 114 300 C141 300 159 325 159 343 C159 361 139 385 139 403 C139 432 175 484 229 484 C281 484 316 454 316 386 L316 314.176 C316 288.515 294.17 258.329 269.703 250.591 C90.4925 193.918 46 166.7 46 89 C46 30 91 -9 159 -9 C195.9 -9 241.71 12.06 297.888 65.115 C305.153 71.9763 320.302 67.1815 324.054 57.9199 C339.49 19.8219 374.8 -4 421 -4 C469.45 -4 509.326 34.3562 522.624 93.0639 C523.665 97.6599 520.77 103.507 516.5 105.5 L516.5 105.5 Z M316 175 L316 131.161 C316 118.878 304.687 92.5608 295.522 84.3845 C258.102 51.005 227.8 38 204 38 C160 38 131 63 131 100 C131 166.825 155.503 192.132 247.744 224.772 C284.098 237.636 316 213.562 316 175 L316 175 Z " />
<glyph glyph-name="acircumflex" unicode="&#xe2;" horiz-adv-x="514" d="M516.5 105.5 C512.745 107.252 508.444 105.813 507.353 101.815 C499.734 73.8935 479.923 56 455 56 C422 56 400 74 400 102 L400 355 C400 462 344 510 259 510 C143 510 65 414 65 360 C65 324 85 300 114 300 C141 300 159 325 159 343 C159 361 139 385 139 403 C139 432 175 484 229 484 C281 484 316 454 316 386 L316 314.176 C316 288.515 294.17 258.329 269.703 250.591 C90.4925 193.918 46 166.7 46 89 C46 30 91 -9 159 -9 C195.9 -9 241.71 12.06 297.888 65.115 C305.153 71.9763 320.302 67.1815 324.054 57.9199 C339.49 19.8219 374.8 -4 421 -4 C469.45 -4 509.326 34.3562 522.624 93.0639 C523.665 97.6599 520.77 103.507 516.5 105.5 L516.5 105.5 Z M290 756 C284 765 270 786 260 786 C250 786 236 765 230 756 L112.236 573.562 C109.915 569.967 110.713 564.739 114 562 C117.297 559.252 122.497 559.479 125.542 562.503 L213.104 649.439 C238.989 675.139 281.011 675.139 306.896 649.439 L394.458 562.503 C397.503 559.479 402.703 559.252 406 562 C409.287 564.739 410.085 569.967 407.764 573.562 L290 756 L290 756 Z M316 175 L316 131.161 C316 118.878 304.687 92.5608 295.522 84.3845 C258.102 51.005 227.8 38 204 38 C160 38 131 63 131 100 C131 166.825 155.503 192.132 247.744 224.772 C284.098 237.636 316 213.562 316 175 L316 175 Z " />
<glyph glyph-name="atilde" unicode="&#xe3;" horiz-adv-x="514" d="M119.281 628.089 C121.515 659.55 136.923 680 160 680 C212 680 281 615 333 615 C380.775 615 412.389 660.63 413.94 729.645 C414.035 733.877 410.733 735 406.5 735 C402.681 735 398.996 730.915 398.7 727.108 C396.244 695.535 378.9 675 353 675 C301 675 232 740 180 740 C135.15 740 105.51 694.37 104.056 625.355 C103.967 621.129 107.273 620 111.5 620 C115.347 620 119.008 624.252 119.281 628.089 L119.281 628.089 Z M516.5 105.5 C512.745 107.252 508.444 105.813 507.353 101.815 C499.734 73.8935 479.923 56 455 56 C422 56 400 74 400 102 L400 355 C400 462 344 510 259 510 C143 510 65 414 65 360 C65 324 85 300 114 300 C141 300 159 325 159 343 C159 361 139 385 139 403 C139 432 175 484 229 484 C281 484 316 454 316 386 L316 314.176 C316 288.515 294.17 258.329 269.703 250.591 C90.4925 193.918 46 166.7 46 89 C46 30 91 -9 159 -9 C195.9 -9 241.71 12.06 297.888 65.115 C305.153 71.9763 320.302 67.1815 324.054 57.9199 C339.49 19.8219 374.8 -4 421 -4 C469.45 -4 509.326 34.3562 522.624 93.0639 C523.665 97.6599 520.77 103.507 516.5 105.5 L516.5 105.5 Z M316 175 L316 131.161 C316 118.878 304.687 92.5608 295.522 84.3845 C258.102 51.005 227.8 38 204 38 C160 38 131 63 131 100 C131 166.825 155.503 192.132 247.744 224.772 C284.098 237.636 316 213.562 316 175 L316 175 Z " />
<glyph glyph-name="adieresis" unicode="&#xe4;" horiz-adv-x="514" d="M334 615 C367 615 389 637 389 670 C389 703 367 725 334 725 C301 725 279 703 279 670 C279 637 301 615 334 615 L334 615 Z M184 615 C217 615 239 637 239 670 C239 703 217 725 184 725 C151 725 129 703 129 670 C129 637 151 615 184 615 L184 615 Z M516.5 105.5 C512.745 107.252 508.444 105.813 507.353 101.815 C499.734 73.8935 479.923 56 455 56 C422 56 400 74 400 102 L400 355 C400 462 344 510 259 510 C143 510 65 414 65 360 C65 324 85 300 114 300 C141 300 159 325 159 343 C159 361 139 385 139 403 C139 432 175 484 229 484 C281 484 316 454 316 386 L316 314.176 C316 288.515 294.17 258.329 269.703 250.591 C90.4925 193.918 46 166.7 46 89 C46 30 91 -9 159 -9 C195.9 -9 241.71 12.06 297.888 65.115 C305.153 71.9763 320.302 67.1815 324.054 57.9199 C339.49 19.8219 374.8 -4 421 -4 C469.45 -4 509.326 34.3562 522.624 93.0639 C523.665 97.6599 520.77 103.507 516.5 105.5 L516.5 105.5 Z M316 175 L316 131.161 C316 118.878 304.687 92.5608 295.522 84.3845 C258.102 51.005 227.8 38 204 38 C160 38 131 63 131 100 C131 166.825 155.503 192.132 247.744 224.772 C284.098 237.636 316 213.562 316 175 L316 175 Z " />
<glyph glyph-name="aring" unicode="&#xe5;" horiz-adv-x="514" d="M187 655 C187 700 216 730 259 730 C303 730 332 700 332 655 C332 615 298 580 259 580 C220 580 187 615 187 655 L187 655 Z M162 655 C162 604 207 560 259 560 C312 560 357 604 357 655 C357 712 318 750 259 750 C201 750 162 712 162 655 L162 655 Z M516.5 105.5 C512.745 107.252 508.444 105.813 507.353 101.815 C499.734 73.8935 479.923 56 455 56 C422 56 400 74 400 102 L400 355 C400 462 344 510 259 510 C143 510 65 414 65 360 C65 324 85 300 114 300 C141 300 159 325 159 343 C159 361 139 385 139 403 C139 432 175 484 229 484 C281 484 316 454 316 386 L316 314.176 C316 288.515 294.17 258.329 269.703 250.591 C90.4925 193.918 46 166.7 46 89 C46 30 91 -9 159 -9 C195.9 -9 241.71 12.06 297.888 65.115 C305.153 71.9763 320.302 67.1815 324.054 57.9199 C339.49 19.8219 374.8 -4 421 -4 C469.45 -4 509.326 34.3562 522.624 93.0639 C523.665 97.6599 520.77 103.507 516.5 105.5 L516.5 105.5 Z M316 175 L316 131.161 C316 118.878 304.687 92.5608 295.522 84.3845 C258.102 51.005 227.8 38 204 38 C160 38 131 63 131 100 C131 166.825 155.503 192.132 247.744 224.772 C284.098 237.636 316 213.562 316 175 L316 175 Z " />
<glyph glyph-name="egrave" unicode="&#xe8;" horiz-adv-x="540" d="M97 746 C97 738 123 714 161 682 L297.059 567.02 C300.327 564.259 305.475 564.475 308.5 567.5 C311.511 570.511 311.852 575.789 309.254 579.162 L200 721 C170 761 147 788 139 788 C116 788 97 769 97 746 L97 746 Z M151.18 340 L448.016 340 C487.835 340 508.917 360.767 493.287 397.391 C459.173 477.33 389.275 510 301 510 C147 510 45 432 45 231 C45 86 138 -10 278 -10 C376.475 -10 462.592 44.1856 495.569 126.605 C496.771 129.61 495.623 133.648 492.5 134.5 C489.64 135.28 486.564 134.709 485.397 131.984 C463.238 80.2225 389.65 46 298 46 C200 46 135 134 135 266 C135 288.781 136.068 310.139 138.804 329.472 C139.695 335.767 144.822 340 151.18 340 L151.18 340 Z M365.309 363.301 L192.665 360.714 C163.375 360.275 147.339 377.023 159.074 403.863 C185.862 465.136 234.125 491 296 491 C338.9 491 375.334 466.498 398.564 406.824 C408.751 380.654 393.389 363.721 365.309 363.301 L365.309 363.301 Z " />
<glyph glyph-name="eacute" unicode="&#xe9;" horiz-adv-x="540" d="M314.941 567.02 L451 682 C489 715 515 740 515 746 C515 769 496 788 473 788 C467 788 444 761 412 721 L302.746 579.162 C300.148 575.789 300.489 570.511 303.5 567.5 C306.525 564.475 311.673 564.259 314.941 567.02 L314.941 567.02 Z M151.18 340 L448.016 340 C487.835 340 508.917 360.767 493.287 397.391 C459.173 477.33 389.275 510 301 510 C147 510 45 432 45 231 C45 86 138 -10 278 -10 C376.475 -10 462.592 44.1856 495.569 126.605 C496.771 129.61 495.623 133.648 492.5 134.5 C489.64 135.28 486.564 134.709 485.397 131.984 C463.238 80.2225 389.65 46 298 46 C200 46 135 134 135 266 C135 288.781 136.068 310.139 138.804 329.472 C139.695 335.767 144.822 340 151.18 340 L151.18 340 Z M365.309 363.301 L192.665 360.714 C163.375 360.275 147.339 377.023 159.074 403.863 C185.862 465.136 234.125 491 296 491 C338.9 491 375.334 466.498 398.564 406.824 C408.751 380.654 393.389 363.721 365.309 363.301 L365.309 363.301 Z " />
<glyph glyph-name="ecircumflex" unicode="&#xea;" horiz-adv-x="540" d="M331 755 C325 764 311 785 301 785 C291 785 277 764 271 755 L153.236 572.562 C150.915 568.967 151.713 563.739 155 561 C158.297 558.252 163.497 558.479 166.542 561.503 L254.104 648.439 C279.989 674.139 322.011 674.139 347.896 648.439 L435.458 561.503 C438.503 558.479 443.703 558.252 447 561 C450.287 563.739 451.085 568.967 448.764 572.562 L331 755 L331 755 Z M151.18 340 L448.016 340 C487.835 340 508.917 360.767 493.287 397.391 C459.173 477.33 389.275 510 301 510 C147 510 45 432 45 231 C45 86 138 -10 278 -10 C376.475 -10 462.592 44.1856 495.569 126.605 C496.771 129.61 495.623 133.648 492.5 134.5 C489.64 135.28 486.564 134.709 485.397 131.984 C463.238 80.2225 389.65 46 298 46 C200 46 135 134 135 266 C135 288.781 136.068 310.139 138.804 329.472 C139.695 335.767 144.822 340 151.18 340 L151.18 340 Z M365.309 363.301 L192.665 360.714 C163.375 360.275 147.339 377.023 159.074 403.863 C185.862 465.136 234.125 491 296 491 C338.9 491 375.334 466.498 398.564 406.824 C408.751 380.654 393.389 363.721 365.309 363.301 L365.309 363.301 Z " />
<glyph glyph-name="edieresis" unicode="&#xeb;" horiz-adv-x="540" d="M376 615 C409 615 431 637 431 670 C431 703 409 725 376 725 C343 725 321 703 321 670 C321 637 343 615 376 615 L376 615 Z M226 615 C259 615 281 637 281 670 C281 703 259 725 226 725 C193 725 171 703 171 670 C171 637 193 615 226 615 L226 615 Z M151.18 340 L448.016 340 C487.835 340 508.917 360.767 493.287 397.391 C459.173 477.33 389.275 510 301 510 C147 510 45 432 45 231 C45 86 138 -10 278 -10 C376.475 -10 462.592 44.1856 495.569 126.605 C496.771 129.61 495.623 133.648 492.5 134.5 C489.64 135.28 486.564 134.709 485.397 131.984 C463.238 80.2225 389.65 46 298 46 C200 46 135 134 135 266 C135 288.781 136.068 310.139 138.804 329.472 C139.695 335.767 144.822 340 151.18 340 L151.18 340 Z M365.309 363.301 L192.665 360.714 C163.375 360.275 147.339 377.023 159.074 403.863 C185.862 465.136 234.125 491 296 491 C338.9 491 375.334 466.498 398.564 406.824 C408.751 380.654 393.389 363.721 365.309 363.301 L365.309 363.301 Z " />
<glyph glyph-name="igrave" unicode="&#xec;" horiz-adv-x="320" d="M-36 744 C-36 736 -10 712 28 680 L164.323 564.798 C167.454 562.151 172.242 562.466 175 565.5 C177.715 568.486 177.938 573.7 175.489 576.908 L67 719 C37 759 14 786 6 786 C-17 786 -36 767 -36 744 L-36 744 Z M160.094 498.035 L125.75 489.5 L60 473 C60 469.571 60.7347 456.592 60.3149 449.805 C60.2446 448.669 61.3521 447.406 62.442 447.733 L70 450 C103 461 125 437 125 392 L125 94 C125 49 103 20 70 23 L65 23.5 C62.2538 23.7746 60 21.7349 60 18.9751 L60 11.5 C60 4.60037 65.6004 -1 72.5 -1 L275 -1 C275 2.42857 274.265 15.4082 274.685 22.1953 C274.76 23.4013 273.665 24.8665 272.463 24.7463 L265 24 C232 21 210 50 210 95 L210 479 C210 490.591 200.591 500 189 500 L176.147 500 C175.062 500 161.146 498.297 160.094 498.035 L160.094 498.035 Z " />
<glyph glyph-name="iacute" unicode="&#xed;" horiz-adv-x="320" d="M-36 744 C-36 736 -10 712 28 680 L164.323 564.798 C167.454 562.151 172.242 562.466 175 565.5 C177.715 568.486 177.938 573.7 175.489 576.908 L67 719 C37 759 14 786 6 786 C-17 786 -36 767 -36 744 L-36 744 Z M160.094 498.035 L125.75 489.5 L60 473 C60 469.571 60.7347 456.592 60.3149 449.805 C60.2446 448.669 61.3521 447.406 62.442 447.733 L70 450 C103 461 125 437 125 392 L125 94 C125 49 103 20 70 23 L65 23.5 C62.2538 23.7746 60 21.7349 60 18.9751 L60 11.5 C60 4.60037 65.6004 -1 72.5 -1 L275 -1 C275 2.42857 274.265 15.4082 274.685 22.1953 C274.76 23.4013 273.665 24.8665 272.463 24.7463 L265 24 C232 21 210 50 210 95 L210 479 C210 490.591 200.591 500 189 500 L176.147 500 C175.062 500 161.146 498.297 160.094 498.035 L160.094 498.035 Z " />
<glyph glyph-name="icircumflex" unicode="&#xee;" horiz-adv-x="320" d="M198 753 C192 762 178 783 168 783 C158 783 144 762 138 753 L20.0312 570.245 C17.8362 566.845 18.5052 561.723 21.5 559 C24.5319 556.244 29.3671 556.35 32.2748 559.237 L120.271 646.604 C146.062 672.212 188.012 672.287 213.894 646.771 L302.707 559.218 C305.624 556.342 310.469 556.244 313.5 559 C316.493 561.721 317.173 566.854 314.992 570.26 L198 753 L198 753 Z M160.094 498.035 L125.75 489.5 L60 473 C60 469.571 60.7347 456.592 60.3149 449.805 C60.2446 448.669 61.3521 447.406 62.442 447.733 L70 450 C103 461 125 437 125 392 L125 94 C125 49 103 20 70 23 L65 23.5 C62.2538 23.7746 60 21.7349 60 18.9751 L60 11.5 C60 4.60037 65.6004 -1 72.5 -1 L275 -1 C275 2.42857 274.265 15.4082 274.685 22.1953 C274.76 23.4013 273.665 24.8665 272.463 24.7463 L265 24 C232 21 210 50 210 95 L210 479 C210 490.591 200.591 500 189 500 L176.147 500 C175.062 500 161.146 498.297 160.094 498.035 L160.094 498.035 Z " />
<glyph glyph-name="idieresis" unicode="&#xef;" horiz-adv-x="320" d="M243 613 C276 613 298 635 298 668 C298 701 276 723 243 723 C210 723 188 701 188 668 C188 635 210 613 243 613 L243 613 Z M93 613 C126 613 148 635 148 668 C148 701 126 723 93 723 C60 723 38 701 38 668 C38 635 60 613 93 613 L93 613 Z M160.094 498.035 L125.75 489.5 L60 473 C60 469.571 60.7347 456.592 60.3149 449.805 C60.2446 448.669 61.3521 447.406 62.442 447.733 L70 450 C103 461 125 437 125 392 L125 94 C125 49 103 20 70 23 L65 23.5 C62.2538 23.7746 60 21.7349 60 18.9751 L60 11.5 C60 4.60037 65.6004 -1 72.5 -1 L275 -1 C275 2.42857 274.265 15.4082 274.685 22.1953 C274.76 23.4013 273.665 24.8665 272.463 24.7463 L265 24 C232 21 210 50 210 95 L210 479 C210 490.591 200.591 500 189 500 L176.147 500 C175.062 500 161.146 498.297 160.094 498.035 L160.094 498.035 Z " />
<glyph glyph-name="ntilde" unicode="&#xf1;" horiz-adv-x="569" d="M139.281 626.089 C141.515 657.55 156.923 678 180 678 C232 678 301 613 353 613 C400.775 613 432.389 658.63 433.94 727.645 C434.035 731.877 430.733 733 426.5 733 C422.681 733 418.996 728.915 418.7 725.108 C416.244 693.535 398.9 673 373 673 C321 673 252 738 200 738 C155.15 738 125.51 692.37 124.056 623.355 C123.967 619.129 127.273 618 131.5 618 C135.347 618 139.008 622.252 139.281 626.089 L139.281 626.089 Z M120.649 498.422 L84.75 489.5 L26.7478 472.928 C23.2485 471.928 19.7593 467.63 19.5 464 L19.358 462.012 C19.1605 459.247 21.2413 456.776 24 456.5 L25.6968 456.33 C25.7197 456.328 31.4312 455.923 31.4542 455.922 C63.0862 453.887 84 412.425 84 351 L84 95 C84 50 62 21 29 24 L24 24.5 C21.2538 24.7746 19 22.7349 19 19.9751 L19 12.5 C19 5.60037 24.6004 0 31.5 0 L234 0 C234 3.42857 233.265 16.4082 233.685 23.1953 C233.76 24.4013 232.665 25.8665 231.463 25.7463 L224 25 C191 22 169 51 169 96 L169 343.469 C169 349.737 174.984 371.145 178.486 376.343 C208.33 420.65 250 449 286 449 C354 449 389 402 389 331 L389 96 C389 51 367 22 334 25 L329 25.5 C326.254 25.7746 324 23.7349 324 20.9751 L324 13.5 C324 6.60037 329.6 1 336.5 1 L539 1 C539 4.42857 538.265 17.4082 538.685 24.1953 C538.76 25.4013 537.665 26.8665 536.463 26.7463 L529 26 C496 23 474 52 474 97 L474 332 C474 440 427 512 337 512 C289.975 512 235.463 477.969 193.679 423.944 C186.716 414.941 169 418.845 169 430.226 L169 480.976 C169 492.568 159.578 501.551 148 501 L133.537 500.311 C132.834 500.278 121.332 498.591 120.649 498.422 L120.649 498.422 Z " />
<glyph glyph-name="ograve" unicode="&#xf2;" horiz-adv-x="613" d="M139 250 C139 390 206 484 307 484 C408 484 475 390 475 250 C475 110 408 16 307 16 C206 16 139 110 139 250 L139 250 Z M45 250 C45 94 150 -10 307 -10 C464 -10 568 94 568 250 C568 406 464 510 307 510 C150 510 45 406 45 250 L45 250 Z M103 746 C103 738 129 714 167 682 L303.059 567.02 C306.327 564.259 311.475 564.475 314.5 567.5 C317.511 570.511 317.852 575.789 315.254 579.162 L206 721 C176 761 153 788 145 788 C122 788 103 769 103 746 L103 746 Z " />
<glyph glyph-name="oacute" unicode="&#xf3;" horiz-adv-x="613" d="M320.941 567.02 L457 682 C495 715 521 740 521 746 C521 769 502 788 479 788 C473 788 450 761 418 721 L308.746 579.162 C306.148 575.789 306.489 570.511 309.5 567.5 C312.525 564.475 317.673 564.259 320.941 567.02 L320.941 567.02 Z M139 250 C139 390 206 484 307 484 C408 484 475 390 475 250 C475 110 408 16 307 16 C206 16 139 110 139 250 L139 250 Z M45 250 C45 94 150 -10 307 -10 C464 -10 568 94 568 250 C568 406 464 510 307 510 C150 510 45 406 45 250 L45 250 Z " />
<glyph glyph-name="ocircumflex" unicode="&#xf4;" horiz-adv-x="613" d="M139 250 C139 390 206 484 307 484 C408 484 475 390 475 250 C475 110 408 16 307 16 C206 16 139 110 139 250 L139 250 Z M45 250 C45 94 150 -10 307 -10 C464 -10 568 94 568 250 C568 406 464 510 307 510 C150 510 45 406 45 250 L45 250 Z M337 755 C331 764 317 785 307 785 C297 785 283 764 277 755 L159.236 572.562 C156.915 568.967 157.713 563.739 161 561 C164.297 558.252 169.497 558.479 172.542 561.503 L260.104 648.439 C285.989 674.139 328.011 674.139 353.896 648.439 L441.458 561.503 C444.503 558.479 449.703 558.252 453 561 C456.287 563.739 457.085 568.967 454.764 572.562 L337 755 L337 755 Z " />
<glyph glyph-name="otilde" unicode="&#xf5;" horiz-adv-x="613" d="M167.281 628.089 C169.515 659.55 184.923 680 208 680 C260 680 329 615 381 615 C428.775 615 460.389 660.63 461.94 729.645 C462.035 733.877 458.733 735 454.5 735 C450.681 735 446.996 730.915 446.7 727.108 C444.244 695.535 426.9 675 401 675 C349 675 280 740 228 740 C183.15 740 153.51 694.37 152.056 625.355 C151.967 621.129 155.273 620 159.5 620 C163.347 620 167.008 624.252 167.281 628.089 L167.281 628.089 Z M139 250 C139 390 206 484 307 484 C408 484 475 390 475 250 C475 110 408 16 307 16 C206 16 139 110 139 250 L139 250 Z M45 250 C45 94 150 -10 307 -10 C464 -10 568 94 568 250 C568 406 464 510 307 510 C150 510 45 406 45 250 L45 250 Z " />
<glyph glyph-name="odieresis" unicode="&#xf6;" horiz-adv-x="613" d="M382 615 C415 615 437 637 437 670 C437 703 415 725 382 725 C349 725 327 703 327 670 C327 637 349 615 382 615 L382 615 Z M232 615 C265 615 287 637 287 670 C287 703 265 725 232 725 C199 725 177 703 177 670 C177 637 199 615 232 615 L232 615 Z M139 250 C139 390 206 484 307 484 C408 484 475 390 475 250 C475 110 408 16 307 16 C206 16 139 110 139 250 L139 250 Z M45 250 C45 94 150 -10 307 -10 C464 -10 568 94 568 250 C568 406 464 510 307 510 C150 510 45 406 45 250 L45 250 Z " />
<glyph glyph-name="oslash" unicode="&#xf8;" horiz-adv-x="613" d="M67.7527 -9.24734 L107.946 30.9465 C117.855 40.8554 142.33 40.7681 154.068 33.1137 C195.687 5.97375 247.6 -9 307 -9 C464 -9 568 95 568 251 C568 310.4 553.026 362.313 525.886 403.932 C518.232 415.67 518.145 440.145 528.054 450.054 L568 490 C574.072 496.072 574.072 505.928 568 512 C561.928 518.072 552.072 518.072 546 512 L506.054 472.054 C496.145 462.145 471.67 462.232 459.932 469.886 C418.313 497.026 366.4 512 307 512 C150 512 45 408 45 252 C45 192.6 59.9738 140.687 87.1137 99.0682 C94.8022 87.278 93.357 61.6294 83.2812 51.8008 C50.6962 20.0156 33 3 33 3 C33 3 38.1417 -2.3653 44.5 -9 C50.8462 -15.6221 61.267 -15.733 67.7527 -9.24734 L67.7527 -9.24734 Z M417.258 385.258 L173.328 141.328 C166.242 134.242 156.237 137.455 153.212 147.007 C143.445 177.853 138 213.225 138 252 C138 392 205 486 306 486 C353.025 486 392.563 465.922 421.245 430.257 C433.123 415.487 430.66 398.66 417.258 385.258 L417.258 385.258 Z M458.788 355.993 C468.555 325.147 474 289.775 474 251 C474 111 407 17 306 17 C258.975 17 219.437 37.4187 190.755 73.2026 C178.921 87.966 181.823 105.824 195.203 119.202 C257.534 181.524 338.866 262.775 434.901 358.043 C442.031 365.117 455.756 365.567 458.788 355.993 L458.788 355.993 Z " />
<glyph glyph-name="ugrave" unicode="&#xf9;" horiz-adv-x="560" d="M71 748 C71 740 97 716 135 684 L271.059 569.02 C274.327 566.259 279.475 566.475 282.5 569.5 C285.511 572.511 285.852 577.789 283.254 581.162 L174 723 C144 763 121 790 113 790 C90 790 71 771 71 748 L71 748 Z M476.902 12.3632 C500.726 18.8119 524.941 25.5294 545 31 C545 34.4286 544.265 47.4082 544.685 54.1953 C544.753 55.3005 543.645 56.5071 542.604 56.1287 L534 53 C496 41 470 78 470 144 L470 480.994 C470 492.585 460.588 502.224 449 502.5 L428 503 L320 504 C320 500.571 320.735 487.592 320.315 480.805 C320.24 479.599 321.335 478.133 322.537 478.254 L330 479 C363 482 385 453 385 408 L385 159.236 C385 154.866 380.822 136.146 378.754 132.295 C351.489 81.5138 305.1 49 257 49 C202 49 165 93 165 160 L165 433.44 C165 470.179 135.179 500 98.44 500 L15 500 C15 496.571 15.7347 483.592 15.3149 476.805 C15.2403 475.599 16.3346 474.133 17.5369 474.254 L25 475 C58 478 80 449 80 404 L80 159 C80 57 135 -11 217 -11 C273.925 -11 328.808 23.7119 364.804 79.6593 C369.527 86.9995 385 84.3815 385 75.6532 L385 20.5 C385 8.63264 394.633 -1 406.5 -1 L422.41 -1 C423.385 -1 432.385 1.0125 433.288 1.3822 C441.654 4.80894 452.878 8.02624 463.116 9.11226 C463.481 9.15097 476.547 12.2674 476.902 12.3632 L476.902 12.3632 Z " />
<glyph glyph-name="uacute" unicode="&#xfa;" horiz-adv-x="560" d="M288.941 569.02 L425 684 C463 717 489 742 489 748 C489 771 470 790 447 790 C441 790 418 763 386 723 L276.746 581.162 C274.148 577.789 274.489 572.511 277.5 569.5 C280.525 566.475 285.673 566.259 288.941 569.02 L288.941 569.02 Z M476.902 12.3632 C500.726 18.8119 524.941 25.5294 545 31 C545 34.4286 544.265 47.4082 544.685 54.1953 C544.753 55.3005 543.645 56.5071 542.604 56.1287 L534 53 C496 41 470 78 470 144 L470 480.994 C470 492.585 460.588 502.224 449 502.5 L428 503 L320 504 C320 500.571 320.735 487.592 320.315 480.805 C320.24 479.599 321.335 478.133 322.537 478.254 L330 479 C363 482 385 453 385 408 L385 159.236 C385 154.866 380.822 136.146 378.754 132.295 C351.489 81.5138 305.1 49 257 49 C202 49 165 93 165 160 L165 433.44 C165 470.179 135.179 500 98.44 500 L15 500 C15 496.571 15.7347 483.592 15.3149 476.805 C15.2403 475.599 16.3346 474.133 17.5369 474.254 L25 475 C58 478 80 449 80 404 L80 159 C80 57 135 -11 217 -11 C273.925 -11 328.808 23.7119 364.804 79.6593 C369.527 86.9995 385 84.3815 385 75.6532 L385 20.5 C385 8.63264 394.633 -1 406.5 -1 L422.41 -1 C423.385 -1 432.385 1.0125 433.288 1.3822 C441.654 4.80894 452.878 8.02624 463.116 9.11226 C463.481 9.15097 476.547 12.2674 476.902 12.3632 L476.902 12.3632 Z " />
<glyph glyph-name="ucircumflex" unicode="&#xfb;" horiz-adv-x="560" d="M305 757 C299 766 285 787 275 787 C265 787 251 766 245 757 L127.236 574.562 C124.915 570.967 125.713 565.739 129 563 C132.297 560.252 137.497 560.479 140.542 563.503 L228.104 650.439 C253.989 676.139 296.011 676.139 321.896 650.439 L409.458 563.503 C412.503 560.479 417.703 560.252 421 563 C424.287 565.739 425.085 570.967 422.764 574.562 L305 757 L305 757 Z M476.902 12.3632 C500.726 18.8119 524.941 25.5294 545 31 C545 34.4286 544.265 47.4082 544.685 54.1953 C544.753 55.3005 543.645 56.5071 542.604 56.1287 L534 53 C496 41 470 78 470 144 L470 480.994 C470 492.585 460.588 502.224 449 502.5 L428 503 L320 504 C320 500.571 320.735 487.592 320.315 480.805 C320.24 479.599 321.335 478.133 322.537 478.254 L330 479 C363 482 385 453 385 408 L385 159.236 C385 154.866 380.822 136.146 378.754 132.295 C351.489 81.5138 305.1 49 257 49 C202 49 165 93 165 160 L165 433.44 C165 470.179 135.179 500 98.44 500 L15 500 C15 496.571 15.7347 483.592 15.3149 476.805 C15.2403 475.599 16.3346 474.133 17.5369 474.254 L25 475 C58 478 80 449 80 404 L80 159 C80 57 135 -11 217 -11 C273.925 -11 328.808 23.7119 364.804 79.6593 C369.527 86.9995 385 84.3815 385 75.6532 L385 20.5 C385 8.63264 394.633 -1 406.5 -1 L422.41 -1 C423.385 -1 432.385 1.0125 433.288 1.3822 C441.654 4.80894 452.878 8.02624 463.116 9.11226 C463.481 9.15097 476.547 12.2674 476.902 12.3632 L476.902 12.3632 Z " />
<glyph glyph-name="udieresis" unicode="&#xfc;" horiz-adv-x="560" d="M350 617 C383 617 405 639 405 672 C405 705 383 727 350 727 C317 727 295 705 295 672 C295 639 317 617 350 617 L350 617 Z M200 617 C233 617 255 639 255 672 C255 705 233 727 200 727 C167 727 145 705 145 672 C145 639 167 617 200 617 L200 617 Z M476.902 12.3632 C500.726 18.8119 524.941 25.5294 545 31 C545 34.4286 544.265 47.4082 544.685 54.1953 C544.753 55.3005 543.645 56.5071 542.604 56.1287 L534 53 C496 41 470 78 470 144 L470 480.994 C470 492.585 460.588 502.224 449 502.5 L428 503 L320 504 C320 500.571 320.735 487.592 320.315 480.805 C320.24 479.599 321.335 478.133 322.537 478.254 L330 479 C363 482 385 453 385 408 L385 159.236 C385 154.866 380.822 136.146 378.754 132.295 C351.489 81.5138 305.1 49 257 49 C202 49 165 93 165 160 L165 433.44 C165 470.179 135.179 500 98.44 500 L15 500 C15 496.571 15.7347 483.592 15.3149 476.805 C15.2403 475.599 16.3346 474.133 17.5369 474.254 L25 475 C58 478 80 449 80 404 L80 159 C80 57 135 -11 217 -11 C273.925 -11 328.808 23.7119 364.804 79.6593 C369.527 86.9995 385 84.3815 385 75.6532 L385 20.5 C385 8.63264 394.633 -1 406.5 -1 L422.41 -1 C423.385 -1 432.385 1.0125 433.288 1.3822 C441.654 4.80894 452.878 8.02624 463.116 9.11226 C463.481 9.15097 476.547 12.2674 476.902 12.3632 L476.902 12.3632 Z " />
<glyph glyph-name="ydieresis" unicode="&#xff;" horiz-adv-x="558" d="M381 615 C414 615 436 637 436 670 C436 703 414 725 381 725 C348 725 326 703 326 670 C326 637 348 615 381 615 L381 615 Z M231 615 C264 615 286 637 286 670 C286 703 264 725 231 725 C198 725 176 703 176 670 C176 637 198 615 231 615 L231 615 Z M121 380 L269.4 26.2669 C273.4 16.7321 272.9 -16.7479 269.143 -26.3812 C252.319 -69.5194 236.5 -113.1 220 -156 C211 -179 197 -194 193 -194 C171 -194 166 -165 143 -165 C116 -165 98 -183 98 -210 C98 -240 118 -260 148 -260 C174 -260 220 -223 241 -167 L301 -10 L445 383 C470 442 505 479 534 476 L539 475.5 C541.746 475.225 544 477.265 544 480.025 L544 487.5 C544 494.4 538.4 500 531.5 500 L384 500 C384 496.571 384.735 483.592 384.315 476.805 C384.24 475.601 385.336 474.148 386.534 474.282 L393 475 C420 478 427 441 410 382 L364.941 245.268 C349.731 199.114 289.858 196.712 271 241.5 L219 365 C191 433 190 479 219 476 L223 475.5 C225.191 475.226 227 476.823 227 479.031 L227 487.5 C227 494.4 221.4 500 214.5 500 L15 500 C15 495.833 15.6944 484.722 15.3472 478.241 C15.2832 477.045 16.344 475.149 17.5339 475.282 L24 476 C54 479 92 440.5 120 379.5 L121 380 Z " />
<glyph glyph-name="Amacron" unicode="&#x100;" horiz-adv-x="796" d="M300.5 895 L541.5 895 C557.783 895 571 908.217 571 924.5 C571 940.783 557.783 954 541.5 954 L300.5 954 C284.217 954 271 940.783 271 924.5 C271 908.217 284.217 895 300.5 895 L300.5 895 Z M768.466 30.8945 C722.413 31.0719 672.225 91.4 642 185 L471.941 717.056 C471.894 717.202 471.012 719.947 470.979 720.097 C470.44 722.531 459.872 770 455 770 L450 770 C447.783 770 445.432 767.095 445.333 764.88 C444.424 744.635 416.947 727.429 374.566 720.549 C371.792 720.099 371.692 717.692 372.5 715 C372.974 713.419 372.883 706.609 372.366 705.042 L200 182 C168 88 103 28 36 31 L21.5902 31 C18.5543 31 16.4569 28.4869 17 25.5 L18 20 C18 15 16 0 16 0 C16 0 19.9099 0 23.5664 0 L306 0 C306 3.52941 305.221 21.0727 305.725 28.5864 C305.808 29.8145 304.681 31 303.45 31 L287 31 C225 28 201 83 224 171 L243.338 232.427 C251.058 256.948 281.119 279 306.826 279 L459.879 279 C485.787 279 515.843 256.819 523.481 232.062 L538 185 C568 89 546 27 481 30 L471.5 30 C466.256 30 462 25.7437 462 20.5 L462 14.5 C462 5.94446 468.944 -1 477.5 -1 L787 -1 C787 3.375 786.234 19.2344 786.713 27.1504 C786.804 28.6591 785.474 30.1018 783.965 30.2023 L776.333 30.7111 C776.261 30.7159 768.538 30.8943 768.466 30.8945 L768.466 30.8945 Z M294.408 390.636 L326.045 490.643 C344.696 549.599 424.993 549.501 443.5 490.5 L474.873 390.481 C489.16 344.934 459.099 304 411.364 304 L357.868 304 C310.047 304 279.984 345.043 294.408 390.636 L294.408 390.636 Z " />
<glyph glyph-name="amacron" unicode="&#x101;" horiz-adv-x="514" d="M138.5 645 L379.5 645 C395.783 645 409 658.217 409 674.5 C409 690.783 395.783 704 379.5 704 L138.5 704 C122.217 704 109 690.783 109 674.5 C109 658.217 122.217 645 138.5 645 L138.5 645 Z M516.5 105.5 C512.745 107.252 508.444 105.813 507.353 101.815 C499.734 73.8935 479.923 56 455 56 C422 56 400 74 400 102 L400 355 C400 462 344 510 259 510 C143 510 65 414 65 360 C65 324 85 300 114 300 C141 300 159 325 159 343 C159 361 139 385 139 403 C139 432 175 484 229 484 C281 484 316 454 316 386 L316 314.176 C316 288.515 294.17 258.329 269.703 250.591 C90.4925 193.918 46 166.7 46 89 C46 30 91 -9 159 -9 C195.9 -9 241.71 12.06 297.888 65.115 C305.153 71.9763 320.302 67.1815 324.054 57.9199 C339.49 19.8219 374.8 -4 421 -4 C469.45 -4 509.326 34.3562 522.624 93.0639 C523.665 97.6599 520.77 103.507 516.5 105.5 L516.5 105.5 Z M316 175 L316 131.161 C316 118.878 304.687 92.5608 295.522 84.3845 C258.102 51.005 227.8 38 204 38 C160 38 131 63 131 100 C131 166.825 155.503 192.132 247.744 224.772 C284.098 237.636 316 213.562 316 175 L316 175 Z " />
<glyph glyph-name="Abreve" unicode="&#x102;" horiz-adv-x="796" d="M288.392 983.083 C299.352 915.125 350.7 870 421 870 C492.25 870 544.548 914.222 554.743 981.233 C555.555 986.568 552.323 992.613 547 993.5 C542.841 994.193 537.638 990.535 536.593 986.45 C527.837 952.246 482.975 930 421 930 C359.025 930 315.018 953.102 305.6 988.225 C304.555 992.122 299.473 996.201 295.5 995.5 C290.49 994.616 287.582 988.105 288.392 983.083 L288.392 983.083 Z M768.466 30.8945 C722.413 31.0719 672.225 91.4 642 185 L471.941 717.056 C471.894 717.202 471.012 719.947 470.979 720.097 C470.44 722.531 459.872 770 455 770 L450 770 C447.783 770 445.432 767.095 445.333 764.88 C444.424 744.635 416.947 727.429 374.566 720.549 C371.792 720.099 371.692 717.692 372.5 715 C372.974 713.419 372.883 706.609 372.366 705.042 L200 182 C168 88 103 28 36 31 L21.5902 31 C18.5543 31 16.4569 28.4869 17 25.5 L18 20 C18 15 16 0 16 0 C16 0 19.9099 0 23.5664 0 L306 0 C306 3.52941 305.221 21.0727 305.725 28.5864 C305.808 29.8145 304.681 31 303.45 31 L287 31 C225 28 201 83 224 171 L243.338 232.427 C251.058 256.948 281.119 279 306.826 279 L459.879 279 C485.787 279 515.843 256.819 523.481 232.062 L538 185 C568 89 546 27 481 30 L471.5 30 C466.256 30 462 25.7437 462 20.5 L462 14.5 C462 5.94446 468.944 -1 477.5 -1 L787 -1 C787 3.375 786.234 19.2344 786.713 27.1504 C786.804 28.6591 785.474 30.1018 783.965 30.2023 L776.333 30.7111 C776.261 30.7159 768.538 30.8943 768.466 30.8945 L768.466 30.8945 Z M294.408 390.636 L326.045 490.643 C344.696 549.599 424.993 549.501 443.5 490.5 L474.873 390.481 C489.16 344.934 459.099 304 411.364 304 L357.868 304 C310.047 304 279.984 345.043 294.408 390.636 L294.408 390.636 Z " />
<glyph glyph-name="abreve" unicode="&#x103;" horiz-adv-x="514" d="M126.392 733.083 C137.352 665.125 188.7 620 259 620 C330.25 620 382.548 664.222 392.743 731.233 C393.555 736.568 390.323 742.613 385 743.5 C380.841 744.193 375.638 740.535 374.593 736.45 C365.838 702.246 320.975 680 259 680 C197.025 680 153.018 703.102 143.6 738.225 C142.555 742.122 137.473 746.201 133.5 745.5 C128.49 744.616 125.582 738.105 126.392 733.083 L126.392 733.083 Z M516.5 105.5 C512.745 107.252 508.444 105.813 507.353 101.815 C499.734 73.8935 479.923 56 455 56 C422 56 400 74 400 102 L400 355 C400 462 344 510 259 510 C143 510 65 414 65 360 C65 324 85 300 114 300 C141 300 159 325 159 343 C159 361 139 385 139 403 C139 432 175 484 229 484 C281 484 316 454 316 386 L316 314.176 C316 288.515 294.17 258.329 269.703 250.591 C90.4925 193.918 46 166.7 46 89 C46 30 91 -9 159 -9 C195.9 -9 241.71 12.06 297.888 65.115 C305.153 71.9763 320.302 67.1815 324.054 57.9199 C339.49 19.8219 374.8 -4 421 -4 C469.45 -4 509.326 34.3562 522.624 93.0639 C523.665 97.6599 520.77 103.507 516.5 105.5 L516.5 105.5 Z M316 175 L316 131.161 C316 118.878 304.687 92.5608 295.522 84.3845 C258.102 51.005 227.8 38 204 38 C160 38 131 63 131 100 C131 166.825 155.503 192.132 247.744 224.772 C284.098 237.636 316 213.562 316 175 L316 175 Z " />
<glyph glyph-name="Cacute" unicode="&#x106;" horiz-adv-x="740" d="M427.941 817.02 L564 932 C602 965 628 990 628 996 C628 1019 609 1038 586 1038 C580 1038 557 1011 525 971 L415.746 829.162 C413.148 825.789 413.489 820.511 416.5 817.5 C419.525 814.475 424.673 814.259 427.941 817.02 L427.941 817.02 Z M670 526 C670 530 698 530 698 526 L698 747 C698 744 676 744 676 747 L673 728 C670 711 628 714 567 735 C527 751 478 760 414 760 C196 760 50 606 50 375 C50 144 191 -10 403 -10 C468 -10 521 0 565 18 C627 39 670 40 673 20 L676 -1 C676 2 698 2 698 -1 L698 223 C698 219 670 219 670 223 L662 195 C640 116 578 50 505 25 C477 16 447 11 413 11 C261 11 160 156 160 373 C160 589 266 733 424 733 C454 733 480 730 504 724 C576 703 639 636 662 553 L670 526 L670 526 Z M670 525 L670 525 L670 525 L670 525 Z M683 131 L683 131 L683 131 L683 131 Z M670 223 L670 223 L670 223 Z " />
<glyph glyph-name="Ccircumflex" unicode="&#x108;" horiz-adv-x="740" d="M444 1005 C438 1014 424 1035 414 1035 C404 1035 390 1014 384 1005 L266.236 822.562 C263.915 818.967 264.713 813.739 268 811 C271.297 808.252 276.497 808.479 279.542 811.503 L367.104 898.439 C392.989 924.139 435.011 924.139 460.896 898.439 L548.458 811.503 C551.503 808.479 556.703 808.252 560 811 C563.287 813.739 564.085 818.967 561.764 822.562 L444 1005 L444 1005 Z M670 526 C670 530 698 530 698 526 L698 747 C698 744 676 744 676 747 L673 728 C670 711 628 714 567 735 C527 751 478 760 414 760 C196 760 50 606 50 375 C50 144 191 -10 403 -10 C468 -10 521 0 565 18 C627 39 670 40 673 20 L676 -1 C676 2 698 2 698 -1 L698 223 C698 219 670 219 670 223 L662 195 C640 116 578 50 505 25 C477 16 447 11 413 11 C261 11 160 156 160 373 C160 589 266 733 424 733 C454 733 480 730 504 724 C576 703 639 636 662 553 L670 526 L670 526 Z M670 525 L670 525 L670 525 L670 525 Z M683 131 L683 131 L683 131 L683 131 Z M670 223 L670 223 L670 223 Z " />
<glyph glyph-name="Cdot" unicode="&#x10a;" horiz-adv-x="740" d="M414 865 C447 865 469 887 469 920 C469 953 447 975 414 975 C381 975 359 953 359 920 C359 887 381 865 414 865 L414 865 Z M670 526 C670 530 698 530 698 526 L698 747 C698 744 676 744 676 747 L673 728 C670 711 628 714 567 735 C527 751 478 760 414 760 C196 760 50 606 50 375 C50 144 191 -10 403 -10 C468 -10 521 0 565 18 C627 39 670 40 673 20 L676 -1 C676 2 698 2 698 -1 L698 223 C698 219 670 219 670 223 L662 195 C640 116 578 50 505 25 C477 16 447 11 413 11 C261 11 160 156 160 373 C160 589 266 733 424 733 C454 733 480 730 504 724 C576 703 639 636 662 553 L670 526 L670 526 Z M670 525 L670 525 L670 525 L670 525 Z M683 131 L683 131 L683 131 L683 131 Z M670 223 L670 223 L670 223 Z " />
<glyph glyph-name="cdot" unicode="&#x10b;" horiz-adv-x="503" d="M297 615 C330 615 352 637 352 670 C352 703 330 725 297 725 C264 725 242 703 242 670 C242 637 264 615 297 615 L297 615 Z M467 130.5 C463.802 131.832 460.625 132.038 459.133 128.911 C433.996 76.2225 375.35 42 311 42 C204 42 133 134 133 273 C133 404 197 491 292 491 C331 491 369 457 388 405 C397 380 414 363 431 363 C465 363 482 380 473 405 C450 468 380 510 297 510 C146 510 45 400 45 236 C45 88 139 -10 281 -10 C357.05 -10 432.149 42.2844 470.151 121.828 C471.736 125.147 470.396 129.085 467 130.5 L467 130.5 Z " />
<glyph glyph-name="Ccaron" unicode="&#x10c;" horiz-adv-x="740" d="M548.458 1038.5 L460.896 951.561 C435.011 925.861 392.989 925.861 367.104 951.561 L279.542 1038.5 C276.497 1041.52 271.297 1041.75 268 1039 C264.713 1036.26 263.915 1031.03 266.236 1027.44 L384 845 C390 836 404 815 414 815 C424 815 438 836 444 845 L561.764 1027.44 C564.085 1031.03 563.287 1036.26 560 1039 C556.703 1041.75 551.503 1041.52 548.458 1038.5 L548.458 1038.5 Z M670 526 C670 530 698 530 698 526 L698 747 C698 744 676 744 676 747 L673 728 C670 711 628 714 567 735 C527 751 478 760 414 760 C196 760 50 606 50 375 C50 144 191 -10 403 -10 C468 -10 521 0 565 18 C627 39 670 40 673 20 L676 -1 C676 2 698 2 698 -1 L698 223 C698 219 670 219 670 223 L662 195 C640 116 578 50 505 25 C477 16 447 11 413 11 C261 11 160 156 160 373 C160 589 266 733 424 733 C454 733 480 730 504 724 C576 703 639 636 662 553 L670 526 L670 526 Z M670 525 L670 525 L670 525 L670 525 Z M683 131 L683 131 L683 131 L683 131 Z M670 223 L670 223 L670 223 Z " />
<glyph glyph-name="ccaron" unicode="&#x10d;" horiz-adv-x="503" d="M431.458 788.497 L343.896 701.561 C318.011 675.861 275.989 675.861 250.104 701.561 L162.542 788.497 C159.497 791.521 154.297 791.748 151 789 C147.713 786.261 146.915 781.033 149.236 777.438 L267 595 C273 586 287 565 297 565 C307 565 321 586 327 595 L444.764 777.438 C447.085 781.033 446.287 786.261 443 789 C439.703 791.748 434.503 791.521 431.458 788.497 L431.458 788.497 Z M467 130.5 C463.802 131.832 460.625 132.038 459.133 128.911 C433.996 76.2225 375.35 42 311 42 C204 42 133 134 133 273 C133 404 197 491 292 491 C331 491 369 457 388 405 C397 380 414 363 431 363 C465 363 482 380 473 405 C450 468 380 510 297 510 C146 510 45 400 45 236 C45 88 139 -10 281 -10 C357.05 -10 432.149 42.2844 470.151 121.828 C471.736 125.147 470.396 129.085 467 130.5 L467 130.5 Z " />
<glyph glyph-name="Dcaron" unicode="&#x10e;" horiz-adv-x="853" d="M551.707 1038.78 L462.894 951.229 C437.012 925.713 395.062 925.788 369.271 951.396 L281.275 1038.76 C278.367 1041.65 273.532 1041.76 270.5 1039 C267.505 1036.28 266.836 1031.16 269.031 1027.76 L387 845 C393 836 407 815 417 815 C427 815 441 836 447 845 L563.992 1027.74 C566.173 1031.15 565.493 1036.28 562.5 1039 C559.469 1041.76 554.624 1041.66 551.707 1038.78 L551.707 1038.78 Z M295 20 C250 20 245 99 245 218 L245 710 C245 721.039 253.961 730 265 730 L285 730 C551 730 688 588 688 375 C688 141 531 20 295 20 L295 20 Z M325 0 C609 0 798 128 798 375 C798 600 651 750 365 750 L60 750 C60 746.571 60.7347 733.592 60.3149 726.805 C60.24 725.594 61.3323 724.102 62.542 724.196 L73 725 C116 728 145 685 145 619 L145 129 C145 63 116 20 73 23 L66.5 23.5 C62.9228 23.7752 60 21.0686 60 17.4808 L60 11.5 C60 4.60042 65.6004 -0.978866 72.4999 -0.952831 L325 0 L325 0 Z " />
<glyph glyph-name="dcaron" unicode="&#x10f;" horiz-adv-x="600" d="M587 759 C570 759 560 696 556 651 L546.686 547.618 C546.31 543.437 549.384 539.323 553.5 538.5 C557.588 537.682 562.212 540.262 563.663 544.17 L600 642 C615 681 625 723 625 747 C625 756 610 759 587 759 L587 759 Z M506.902 12.184 C533.857 18.8265 561.974 26.4737 585 32 C585 35.4286 584.265 48.4082 584.685 55.1953 C584.755 56.3275 583.647 57.5838 582.563 57.2502 L572 54 C529 41 500 77 500 143 L500 729.994 C500 741.585 490.588 751.224 479 751.5 L465.995 751.81 C464.858 751.837 451.733 750.599 450.624 750.344 C422.126 743.8 386.874 734.131 358.376 726.864 C354.832 725.96 350.761 721.648 350.5 718 L350.358 716.012 C350.16 713.247 352.241 710.776 355 710.5 L356.697 710.33 C356.72 710.328 362.431 709.923 362.454 709.922 C394.086 707.887 415 666.425 415 605 L415 499.03 C415 489.371 403.559 484.004 394.688 487.825 C361.427 502.152 322.075 511 280 511 C125 511 45 407 45 252 C45 98 130 -4 257 -4 C309.7 -4 362.4 16.23 397.904 48.7064 C404.404 54.6511 415 48.3989 415 39.5911 L415 22.5 C415 10.6326 424.633 1 436.5 1 L452.41 1 C453.312 1 462.415 2.98596 463.254 3.31528 C471.529 6.56007 482.502 9.27511 492.65 10.1792 C493.027 10.2127 506.535 12.0935 506.902 12.184 L506.902 12.184 Z M414 366.073 L414 119.773 C414 108.977 406.618 87.6091 398.973 79.9855 C368.69 49.785 328.4 31 291 31 C195 31 131 129 131 275 C131 402 185 486 289 486 C341.25 486 390.793 439.973 411.049 384.785 C411.824 382.673 414 368.322 414 366.073 L414 366.073 Z " />
<glyph glyph-name="Emacron" unicode="&#x112;" horiz-adv-x="652" d="M230.5 895 L471.5 895 C487.783 895 501 908.217 501 924.5 C501 940.783 487.783 954 471.5 954 L230.5 954 C214.217 954 201 940.783 201 924.5 C201 908.217 214.217 895 230.5 895 L230.5 895 Z M556 740 L555.5 745 C555.225 747.746 552.735 750 549.975 750 L40 750 C40 746.571 40.7347 733.592 40.3149 726.805 C40.2398 725.591 41.3308 724.083 42.5445 724.159 L56 725 C109 728 145 677 145 599 L145 149 C145 71 109 20 56 23 L48 23.5 C43.5928 23.7754 40 20.4002 40 15.9844 L40 11.5 C40 4.60037 45.6004 -1 52.5 -1 L574.901 -1 C577.661 -1 580.459 1.29374 581 4 L582 9 C589 50 599 104 606 145 C606.213 146.249 604.677 144.471 603.5 144 L601 143 C599 143 585 145 585 145 C585 145 584.225 142.895 582.555 138.365 L578 126 C558.5 71.4 497.173 32.9606 418.116 22.731 C417.063 22.5947 402.124 22.9717 401.069 23.0908 C262.111 38.77 245 112.675 245 217 L245 351.5 C245 369.439 259.561 384 277.5 384 L310 384 C394 384 458 338 470 269 L474 249 C478.5 249 487.86 250.62 493.332 249.486 C494.517 249.24 495 250.482 495 251.693 L495 540.307 C495 541.687 493.781 542.512 492.5 542 L490 541 C488 541 474 543 474 543 C474 543 473.422 540.112 472.613 536.066 L470 523 C458 454 394 408 310 408 L277.5 408 C259.561 408 245 422.561 245 440.5 L245 664 C245 699.326 273.674 728 309 728 L373 728 C457 728 527 682 547 613 L553 593 C557.5 593 566.86 594.62 572.332 593.486 C573.474 593.249 573.743 595.254 573.611 596.413 C568.617 639.99 561.372 696.628 556.5 739.5 L556 740 Z " />
<glyph glyph-name="emacron" unicode="&#x113;" horiz-adv-x="540" d="M180.5 645 L421.5 645 C437.783 645 451 658.217 451 674.5 C451 690.783 437.783 704 421.5 704 L180.5 704 C164.217 704 151 690.783 151 674.5 C151 658.217 164.217 645 180.5 645 L180.5 645 Z M151.18 340 L448.016 340 C487.835 340 508.917 360.767 493.287 397.391 C459.173 477.33 389.275 510 301 510 C147 510 45 432 45 231 C45 86 138 -10 278 -10 C376.475 -10 462.592 44.1856 495.569 126.605 C496.771 129.61 495.623 133.648 492.5 134.5 C489.64 135.28 486.564 134.709 485.397 131.984 C463.238 80.2225 389.65 46 298 46 C200 46 135 134 135 266 C135 288.781 136.068 310.139 138.804 329.472 C139.695 335.767 144.822 340 151.18 340 L151.18 340 Z M365.309 363.301 L192.665 360.714 C163.375 360.275 147.339 377.023 159.074 403.863 C185.862 465.136 234.125 491 296 491 C338.9 491 375.334 466.498 398.564 406.824 C408.751 380.654 393.389 363.721 365.309 363.301 L365.309 363.301 Z " />
<glyph glyph-name="Ebreve" unicode="&#x114;" horiz-adv-x="652" d="M218.392 983.083 C229.352 915.125 280.7 870 351 870 C422.25 870 474.548 914.222 484.743 981.233 C485.555 986.568 482.323 992.613 477 993.5 C472.841 994.193 467.638 990.535 466.593 986.45 C457.838 952.246 412.975 930 351 930 C289.025 930 245.018 953.102 235.6 988.225 C234.555 992.122 229.473 996.201 225.5 995.5 C220.49 994.616 217.582 988.105 218.392 983.083 L218.392 983.083 Z M556 740 L555.5 745 C555.225 747.746 552.735 750 549.975 750 L40 750 C40 746.571 40.7347 733.592 40.3149 726.805 C40.2398 725.591 41.3308 724.083 42.5445 724.159 L56 725 C109 728 145 677 145 599 L145 149 C145 71 109 20 56 23 L48 23.5 C43.5928 23.7754 40 20.4002 40 15.9844 L40 11.5 C40 4.60037 45.6004 -1 52.5 -1 L574.901 -1 C577.661 -1 580.459 1.29374 581 4 L582 9 C589 50 599 104 606 145 C606.213 146.249 604.677 144.471 603.5 144 L601 143 C599 143 585 145 585 145 C585 145 584.225 142.895 582.555 138.365 L578 126 C558.5 71.4 497.173 32.9606 418.116 22.731 C417.063 22.5947 402.124 22.9717 401.069 23.0908 C262.111 38.77 245 112.675 245 217 L245 351.5 C245 369.439 259.561 384 277.5 384 L310 384 C394 384 458 338 470 269 L474 249 C478.5 249 487.86 250.62 493.332 249.486 C494.517 249.24 495 250.482 495 251.693 L495 540.307 C495 541.687 493.781 542.512 492.5 542 L490 541 C488 541 474 543 474 543 C474 543 473.422 540.112 472.613 536.066 L470 523 C458 454 394 408 310 408 L277.5 408 C259.561 408 245 422.561 245 440.5 L245 664 C245 699.326 273.674 728 309 728 L373 728 C457 728 527 682 547 613 L553 593 C557.5 593 566.86 594.62 572.332 593.486 C573.474 593.249 573.743 595.254 573.611 596.413 C568.617 639.99 561.372 696.628 556.5 739.5 L556 740 Z " />
<glyph glyph-name="ebreve" unicode="&#x115;" horiz-adv-x="540" d="M168.392 733.083 C179.352 665.125 230.7 620 301 620 C372.25 620 424.548 664.222 434.743 731.233 C435.555 736.568 432.323 742.613 427 743.5 C422.841 744.193 417.638 740.535 416.593 736.45 C407.838 702.246 362.975 680 301 680 C239.025 680 195.018 703.102 185.6 738.225 C184.555 742.122 179.473 746.201 175.5 745.5 C170.49 744.616 167.582 738.105 168.392 733.083 L168.392 733.083 Z M151.18 340 L448.016 340 C487.835 340 508.917 360.767 493.287 397.391 C459.173 477.33 389.275 510 301 510 C147 510 45 432 45 231 C45 86 138 -10 278 -10 C376.475 -10 462.592 44.1856 495.569 126.605 C496.771 129.61 495.623 133.648 492.5 134.5 C489.64 135.28 486.564 134.709 485.397 131.984 C463.238 80.2225 389.65 46 298 46 C200 46 135 134 135 266 C135 288.781 136.068 310.139 138.804 329.472 C139.695 335.767 144.822 340 151.18 340 L151.18 340 Z M365.309 363.301 L192.665 360.714 C163.375 360.275 147.339 377.023 159.074 403.863 C185.862 465.136 234.125 491 296 491 C338.9 491 375.334 466.498 398.564 406.824 C408.751 380.654 393.389 363.721 365.309 363.301 L365.309 363.301 Z " />
<glyph glyph-name="Edot" unicode="&#x116;" horiz-adv-x="652" d="M351 865 C384 865 406 887 406 920 C406 953 384 975 351 975 C318 975 296 953 296 920 C296 887 318 865 351 865 L351 865 Z M556 740 L555.5 745 C555.225 747.746 552.735 750 549.975 750 L40 750 C40 746.571 40.7347 733.592 40.3149 726.805 C40.2398 725.591 41.3308 724.083 42.5445 724.159 L56 725 C109 728 145 677 145 599 L145 149 C145 71 109 20 56 23 L48 23.5 C43.5928 23.7754 40 20.4002 40 15.9844 L40 11.5 C40 4.60037 45.6004 -1 52.5 -1 L574.901 -1 C577.661 -1 580.459 1.29374 581 4 L582 9 C589 50 599 104 606 145 C606.213 146.249 604.677 144.471 603.5 144 L601 143 C599 143 585 145 585 145 C585 145 584.225 142.895 582.555 138.365 L578 126 C558.5 71.4 497.173 32.9606 418.116 22.731 C417.063 22.5947 402.124 22.9717 401.069 23.0908 C262.111 38.77 245 112.675 245 217 L245 351.5 C245 369.439 259.561 384 277.5 384 L310 384 C394 384 458 338 470 269 L474 249 C478.5 249 487.86 250.62 493.332 249.486 C494.517 249.24 495 250.482 495 251.693 L495 540.307 C495 541.687 493.781 542.512 492.5 542 L490 541 C488 541 474 543 474 543 C474 543 473.422 540.112 472.613 536.066 L470 523 C458 454 394 408 310 408 L277.5 408 C259.561 408 245 422.561 245 440.5 L245 664 C245 699.326 273.674 728 309 728 L373 728 C457 728 527 682 547 613 L553 593 C557.5 593 566.86 594.62 572.332 593.486 C573.474 593.249 573.743 595.254 573.611 596.413 C568.617 639.99 561.372 696.628 556.5 739.5 L556 740 Z " />
<glyph glyph-name="edot" unicode="&#x117;" horiz-adv-x="540" d="M301 615 C334 615 356 637 356 670 C356 703 334 725 301 725 C268 725 246 703 246 670 C246 637 268 615 301 615 L301 615 Z M151.18 340 L448.016 340 C487.835 340 508.917 360.767 493.287 397.391 C459.173 477.33 389.275 510 301 510 C147 510 45 432 45 231 C45 86 138 -10 278 -10 C376.475 -10 462.592 44.1856 495.569 126.605 C496.771 129.61 495.623 133.648 492.5 134.5 C489.64 135.28 486.564 134.709 485.397 131.984 C463.238 80.2225 389.65 46 298 46 C200 46 135 134 135 266 C135 288.781 136.068 310.139 138.804 329.472 C139.695 335.767 144.822 340 151.18 340 L151.18 340 Z M365.309 363.301 L192.665 360.714 C163.375 360.275 147.339 377.023 159.074 403.863 C185.862 465.136 234.125 491 296 491 C338.9 491 375.334 466.498 398.564 406.824 C408.751 380.654 393.389 363.721 365.309 363.301 L365.309 363.301 Z " />
<glyph glyph-name="Ecaron" unicode="&#x11a;" horiz-adv-x="652" d="M485.458 1038.5 L397.896 951.561 C372.011 925.861 329.989 925.861 304.104 951.561 L216.542 1038.5 C213.497 1041.52 208.297 1041.75 205 1039 C201.713 1036.26 200.915 1031.03 203.236 1027.44 L321 845 C327 836 341 815 351 815 C361 815 375 836 381 845 L498.764 1027.44 C501.085 1031.03 500.287 1036.26 497 1039 C493.703 1041.75 488.503 1041.52 485.458 1038.5 L485.458 1038.5 Z M556 740 L555.5 745 C555.225 747.746 552.735 750 549.975 750 L40 750 C40 746.571 40.7347 733.592 40.3149 726.805 C40.2398 725.591 41.3308 724.083 42.5445 724.159 L56 725 C109 728 145 677 145 599 L145 149 C145 71 109 20 56 23 L48 23.5 C43.5928 23.7754 40 20.4002 40 15.9844 L40 11.5 C40 4.60037 45.6004 -1 52.5 -1 L574.901 -1 C577.661 -1 580.459 1.29374 581 4 L582 9 C589 50 599 104 606 145 C606.213 146.249 604.677 144.471 603.5 144 L601 143 C599 143 585 145 585 145 C585 145 584.225 142.895 582.555 138.365 L578 126 C558.5 71.4 497.173 32.9606 418.116 22.731 C417.063 22.5947 402.124 22.9717 401.069 23.0908 C262.111 38.77 245 112.675 245 217 L245 351.5 C245 369.439 259.561 384 277.5 384 L310 384 C394 384 458 338 470 269 L474 249 C478.5 249 487.86 250.62 493.332 249.486 C494.517 249.24 495 250.482 495 251.693 L495 540.307 C495 541.687 493.781 542.512 492.5 542 L490 541 C488 541 474 543 474 543 C474 543 473.422 540.112 472.613 536.066 L470 523 C458 454 394 408 310 408 L277.5 408 C259.561 408 245 422.561 245 440.5 L245 664 C245 699.326 273.674 728 309 728 L373 728 C457 728 527 682 547 613 L553 593 C557.5 593 566.86 594.62 572.332 593.486 C573.474 593.249 573.743 595.254 573.611 596.413 C568.617 639.99 561.372 696.628 556.5 739.5 L556 740 Z " />
<glyph glyph-name="ecaron" unicode="&#x11b;" horiz-adv-x="540" d="M435.458 788.497 L347.896 701.561 C322.011 675.861 279.989 675.861 254.104 701.561 L166.542 788.497 C163.497 791.521 158.297 791.748 155 789 C151.713 786.261 150.915 781.033 153.236 777.438 L271 595 C277 586 291 565 301 565 C311 565 325 586 331 595 L448.764 777.438 C451.085 781.033 450.287 786.261 447 789 C443.703 791.748 438.503 791.521 435.458 788.497 L435.458 788.497 Z M151.18 340 L448.016 340 C487.835 340 508.917 360.767 493.287 397.391 C459.173 477.33 389.275 510 301 510 C147 510 45 432 45 231 C45 86 138 -10 278 -10 C376.475 -10 462.592 44.1856 495.569 126.605 C496.771 129.61 495.623 133.648 492.5 134.5 C489.64 135.28 486.564 134.709 485.397 131.984 C463.238 80.2225 389.65 46 298 46 C200 46 135 134 135 266 C135 288.781 136.068 310.139 138.804 329.472 C139.695 335.767 144.822 340 151.18 340 L151.18 340 Z M365.309 363.301 L192.665 360.714 C163.375 360.275 147.339 377.023 159.074 403.863 C185.862 465.136 234.125 491 296 491 C338.9 491 375.334 466.498 398.564 406.824 C408.751 380.654 393.389 363.721 365.309 363.301 L365.309 363.301 Z " />
<glyph glyph-name="Gcircumflex" unicode="&#x11c;" horiz-adv-x="817" d="M575.5 155 C575.5 139 576 124 576 109 C574 49 516 10 429 10 C268 10 161 156 161 375 C161 591 267 735 425 735 C455 735 481 732 505 726 C577 705 640 638 663 555 L671 527 C671 531 699 531 699 527 L699 748 C699 745 677 745 677 748 L674 729 C671 712 629 715 568 736 C528 752 479 761 415 761 C197 761 51 607 51 376 C51 145 196 -9 413 -9 C559.25 -9 658.919 17.6175 746.302 56.9496 C750.504 58.841 751.449 63.3242 749.5 67.5 C747.594 71.5833 742.081 73.2169 737.954 71.4077 C722.442 64.607 706.384 58.292 689.444 52.4628 C682.817 50.1824 676 54.1158 676 61.1244 L676 157 C676 244 708 299 757 296 L764 295.5 C767.854 295.225 771 298.154 771 302.018 L771 311 C771 319.832 763.832 327 755 327 L481 327 C481 323.471 481.779 305.927 481.275 297.727 C481.183 296.232 482.54 295.11 484.034 295.217 L495 296 C544 299 575.5 243 575.5 156 L575.5 155 Z M445 1007 C439 1016 425 1037 415 1037 C405 1037 391 1016 385 1007 L267.236 824.562 C264.915 820.967 265.713 815.739 269 813 C272.297 810.252 277.497 810.479 280.542 813.503 L368.104 900.439 C393.989 926.139 436.011 926.139 461.896 900.439 L549.458 813.503 C552.503 810.479 557.703 810.252 561 813 C564.287 815.739 565.085 820.967 562.764 824.562 L445 1007 L445 1007 Z M671 528 L671 528 L671 528 L671 528 Z " />
<glyph glyph-name="Gbreve" unicode="&#x11e;" horiz-adv-x="817" d="M281.392 983.083 C292.353 915.125 343.7 870 414 870 C485.25 870 537.548 914.222 547.743 981.233 C548.555 986.568 545.323 992.613 540 993.5 C535.841 994.193 530.638 990.535 529.593 986.45 C520.838 952.246 475.975 930 414 930 C352.025 930 308.018 953.102 298.6 988.225 C297.555 992.122 292.473 996.201 288.5 995.5 C283.49 994.616 280.582 988.105 281.392 983.083 L281.392 983.083 Z M575.5 155 C575.5 139 576 124 576 109 C574 49 516 10 429 10 C268 10 161 156 161 375 C161 591 267 735 425 735 C455 735 481 732 505 726 C577 705 640 638 663 555 L671 527 C671 531 699 531 699 527 L699 748 C699 745 677 745 677 748 L674 729 C671 712 629 715 568 736 C528 752 479 761 415 761 C197 761 51 607 51 376 C51 145 196 -9 413 -9 C559.25 -9 658.919 17.6175 746.302 56.9496 C750.504 58.841 751.449 63.3242 749.5 67.5 C747.594 71.5833 742.081 73.2169 737.954 71.4077 C722.442 64.607 706.384 58.292 689.444 52.4628 C682.817 50.1824 676 54.1158 676 61.1244 L676 157 C676 244 708 299 757 296 L764 295.5 C767.854 295.225 771 298.154 771 302.018 L771 311 C771 319.832 763.832 327 755 327 L481 327 C481 323.471 481.779 305.927 481.275 297.727 C481.183 296.232 482.54 295.11 484.034 295.217 L495 296 C544 299 575.5 243 575.5 156 L575.5 155 Z M671 528 L671 528 L671 528 L671 528 Z " />
<glyph glyph-name="gbreve" unicode="&#x11f;" horiz-adv-x="520" d="M122.392 733.083 C133.352 665.125 184.7 620 255 620 C326.25 620 378.547 664.222 388.743 731.233 C389.555 736.568 386.323 742.613 381 743.5 C376.841 744.193 371.638 740.535 370.593 736.45 C361.837 702.246 316.975 680 255 680 C193.025 680 149.018 703.102 139.6 738.225 C138.555 742.122 133.473 746.201 129.5 745.5 C124.49 744.616 121.582 738.105 122.392 733.083 L122.392 733.083 Z M541 479 C541 510 519 530 486 530 C457.1 530 426.033 510.493 402.623 478.847 C397.061 471.327 380.48 470.644 372.849 476.054 C342.244 497.749 302.025 510 255 510 C147 510 75 446 75 350 C75 289.775 102.225 241.801 148.814 213.94 C155.95 209.673 155.987 193.959 147.986 191.699 C89.68 175.23 55 143.95 55 104 C55 61.925 76.78 29.3788 113.04 12.5379 C118.969 9.78429 119.679 -2.63097 113.757 -5.39937 C70.7325 -25.5125 44 -58.45 44 -95 C44 -176 132 -230 264 -230 C396 -230 484 -165 484 -68 C484 23 432 84 298 84 L180 84 C134 84 103 102 103 130 C103 165 163 188 254 188 C362 188 434 253 434 350 C434 385.1 424.28 416.15 407.027 440.963 C403.835 445.553 404.038 453.356 407.621 457.648 C417.628 469.636 427.818 477 436 477 C457 477 484 442 505 442 C527 442 541 457 541 479 L541 479 Z M255 208 C198 208 160 265 160 350 C160 434 198 490 255 490 C312 490 350 434 350 350 C350 265 312 208 255 208 L255 208 Z M168 0.5 L177 0 L291 0 C380 0 414 -35 414 -88 C414 -162 356 -211 270 -211 C178 -211 116 -157 116 -75 C116 -45.3 129.77 -19.65 151.478 -3.882 C154.517 -1.67475 164.25 0.708334 168 0.5 L168 0.5 Z " />
<glyph glyph-name="Gdot" unicode="&#x120;" horiz-adv-x="817" d="M414 865 C447 865 469 887 469 920 C469 953 447 975 414 975 C381 975 359 953 359 920 C359 887 381 865 414 865 L414 865 Z M575.5 155 C575.5 139 576 124 576 109 C574 49 516 10 429 10 C268 10 161 156 161 375 C161 591 267 735 425 735 C455 735 481 732 505 726 C577 705 640 638 663 555 L671 527 C671 531 699 531 699 527 L699 748 C699 745 677 745 677 748 L674 729 C671 712 629 715 568 736 C528 752 479 761 415 761 C197 761 51 607 51 376 C51 145 196 -9 413 -9 C559.25 -9 658.919 17.6175 746.302 56.9496 C750.504 58.841 751.449 63.3242 749.5 67.5 C747.594 71.5833 742.081 73.2169 737.954 71.4077 C722.442 64.607 706.384 58.292 689.444 52.4628 C682.817 50.1824 676 54.1158 676 61.1244 L676 157 C676 244 708 299 757 296 L764 295.5 C767.854 295.225 771 298.154 771 302.018 L771 311 C771 319.832 763.832 327 755 327 L481 327 C481 323.471 481.779 305.927 481.275 297.727 C481.183 296.232 482.54 295.11 484.034 295.217 L495 296 C544 299 575.5 243 575.5 156 L575.5 155 Z M671 528 L671 528 L671 528 L671 528 Z " />
<glyph glyph-name="gdot" unicode="&#x121;" horiz-adv-x="520" d="M255 615 C288 615 310 637 310 670 C310 703 288 725 255 725 C222 725 200 703 200 670 C200 637 222 615 255 615 L255 615 Z M541 479 C541 510 519 530 486 530 C457.1 530 426.033 510.493 402.623 478.847 C397.061 471.327 380.48 470.644 372.849 476.054 C342.244 497.749 302.025 510 255 510 C147 510 75 446 75 350 C75 289.775 102.225 241.801 148.814 213.94 C155.95 209.673 155.987 193.959 147.986 191.699 C89.68 175.23 55 143.95 55 104 C55 61.925 76.78 29.3788 113.04 12.5379 C118.969 9.78429 119.679 -2.63097 113.757 -5.39937 C70.7325 -25.5125 44 -58.45 44 -95 C44 -176 132 -230 264 -230 C396 -230 484 -165 484 -68 C484 23 432 84 298 84 L180 84 C134 84 103 102 103 130 C103 165 163 188 254 188 C362 188 434 253 434 350 C434 385.1 424.28 416.15 407.027 440.963 C403.835 445.553 404.038 453.356 407.621 457.648 C417.628 469.636 427.818 477 436 477 C457 477 484 442 505 442 C527 442 541 457 541 479 L541 479 Z M255 208 C198 208 160 265 160 350 C160 434 198 490 255 490 C312 490 350 434 350 350 C350 265 312 208 255 208 L255 208 Z M168 0.5 L177 0 L291 0 C380 0 414 -35 414 -88 C414 -162 356 -211 270 -211 C178 -211 116 -157 116 -75 C116 -45.3 129.77 -19.65 151.478 -3.882 C154.517 -1.67475 164.25 0.708334 168 0.5 L168 0.5 Z " />
<glyph glyph-name="Hcircumflex" unicode="&#x124;" horiz-adv-x="861" d="M479 1005 C473 1014 459 1035 449 1035 C439 1035 425 1014 419 1005 L301.031 822.245 C298.836 818.845 299.505 813.723 302.5 811 C305.532 808.244 310.367 808.35 313.275 811.237 L401.271 898.604 C427.062 924.212 469.012 924.287 494.894 898.771 L583.707 811.218 C586.624 808.342 591.469 808.244 594.5 811 C597.493 813.721 598.173 818.854 595.992 822.26 L479 1005 L479 1005 Z M801 0 C801 3.42857 800.265 16.4082 800.685 23.1953 C800.76 24.4063 799.668 25.8975 798.458 25.8045 L788 25 C745 22 716 65 716 131 L716 621 C716 687 745 730 788 727 L794.5 726.5 C798.077 726.225 801 728.931 801 732.519 L801 738.5 C801 745.4 795.4 751 788.5 751 L531 751 C531 747.571 531.735 734.592 531.315 727.805 C531.24 726.594 532.332 725.102 533.542 725.196 L544 726 C587 729 616 686 616 620 L616 475.56 C616 438.821 586.179 409 549.44 409 L347.56 409 C310.821 409 281 438.821 281 475.56 L281 620 C281 686 310 729 353 726 L359.5 725.5 C363.077 725.225 366 727.931 366 731.519 L366 737.5 C366 744.4 360.4 750 353.5 750 L96 750 C96 746.571 96.7347 733.592 96.3149 726.805 C96.24 725.594 97.3323 724.102 98.542 724.196 L109 725 C152 728 181 685 181 619 L181 129 C181 63 152 20 109 23 L102.5 23.5 C98.9228 23.7752 96 21.0686 96 17.4808 L96 11.5 C96 4.60037 101.6 -1 108.5 -1 L366 -1 C366 2.42857 365.265 15.4082 365.685 22.1953 C365.76 23.4063 364.668 24.8975 363.458 24.8045 L353 24 C310 21 281 64 281 130 L281 316.44 C281 353.179 310.821 383 347.56 383 L549.44 383 C586.179 383 616 353.179 616 316.44 L616 130 C616 64 587 21 544 24 L537.5 24.5 C533.923 24.7752 531 22.0686 531 18.4808 L531 12.5 C531 5.60037 536.6 0 543.5 0 L801 0 L801 0 Z " />
<glyph glyph-name="Itilde" unicode="&#x128;" horiz-adv-x="385" d="M50.2808 878.089 C52.5148 909.55 67.9231 930 91 930 C143 930 212 865 264 865 C311.775 865 343.389 910.63 344.94 979.645 C345.035 983.877 341.733 985 337.5 985 C333.681 985 329.996 980.915 329.7 977.108 C327.244 945.535 309.9 925 284 925 C232 925 163 990 111 990 C66.15 990 36.51 944.37 35.056 875.355 C34.967 871.129 38.273 870 42.5 870 C46.3466 870 50.0084 874.252 50.2808 878.089 L50.2808 878.089 Z M325 0 C325 3.42857 324.265 16.4082 324.685 23.1953 C324.76 24.4063 323.668 25.8975 322.458 25.8045 L312 25 C269 22 240 65 240 131 L240 621 C240 687 269 730 312 727 L318.5 726.5 C322.077 726.225 325 728.931 325 732.519 L325 738.5 C325 745.4 319.4 751 312.5 751 L55 751 C55 747.571 55.7347 734.592 55.3149 727.805 C55.24 726.594 56.3323 725.102 57.542 725.196 L68 726 C111 729 140 686 140 620 L140 130 C140 64 111 21 68 24 L61.5 24.5 C57.9228 24.7752 55 22.0686 55 18.4808 L55 12.5 C55 5.60037 60.6004 0 67.5 0 L325 0 L325 0 Z " />
<glyph glyph-name="itilde" unicode="&#x129;" horiz-adv-x="320" d="M27.2831 625.892 C29.595 657.465 45.875 678 69 678 C121 678 190 613 242 613 C289.775 613 321.389 658.63 322.94 727.645 C323.035 731.877 319.733 733 315.5 733 C311.681 733 307.996 728.915 307.7 725.108 C305.244 693.535 287.9 673 262 673 C210 673 140 738 88 738 C43.15 738 13.51 692.37 12.056 623.355 C11.967 619.129 15.273 618 19.5 618 C23.3374 618 27.0028 622.065 27.2831 625.892 L27.2831 625.892 Z M160.094 498.035 L125.75 489.5 L60 473 C60 469.571 60.7347 456.592 60.3149 449.805 C60.2446 448.669 61.3521 447.406 62.442 447.733 L70 450 C103 461 125 437 125 392 L125 94 C125 49 103 20 70 23 L65 23.5 C62.2538 23.7746 60 21.7349 60 18.9751 L60 11.5 C60 4.60037 65.6004 -1 72.5 -1 L275 -1 C275 2.42857 274.265 15.4082 274.685 22.1953 C274.76 23.4013 273.665 24.8665 272.463 24.7463 L265 24 C232 21 210 50 210 95 L210 479 C210 490.591 200.591 500 189 500 L176.147 500 C175.062 500 161.146 498.297 160.094 498.035 L160.094 498.035 Z " />
<glyph glyph-name="Imacron" unicode="&#x12a;" horiz-adv-x="385" d="M69.5 895 L310.5 895 C326.783 895 340 908.217 340 924.5 C340 940.783 326.783 954 310.5 954 L69.5 954 C53.2169 954 40 940.783 40 924.5 C40 908.217 53.2169 895 69.5 895 L69.5 895 Z M325 0 C325 3.42857 324.265 16.4082 324.685 23.1953 C324.76 24.4063 323.668 25.8975 322.458 25.8045 L312 25 C269 22 240 65 240 131 L240 621 C240 687 269 730 312 727 L318.5 726.5 C322.077 726.225 325 728.931 325 732.519 L325 738.5 C325 745.4 319.4 751 312.5 751 L55 751 C55 747.571 55.7347 734.592 55.3149 727.805 C55.24 726.594 56.3323 725.102 57.542 725.196 L68 726 C111 729 140 686 140 620 L140 130 C140 64 111 21 68 24 L61.5 24.5 C57.9228 24.7752 55 22.0686 55 18.4808 L55 12.5 C55 5.60037 60.6004 0 67.5 0 L325 0 L325 0 Z " />
<glyph glyph-name="imacron" unicode="&#x12b;" horiz-adv-x="320" d="M47.5 643 L288.5 643 C304.783 643 318 656.217 318 672.5 C318 688.783 304.783 702 288.5 702 L47.5 702 C31.2169 702 18 688.783 18 672.5 C18 656.217 31.2169 643 47.5 643 L47.5 643 Z M160.094 498.035 L125.75 489.5 L60 473 C60 469.571 60.7347 456.592 60.3149 449.805 C60.2446 448.669 61.3521 447.406 62.442 447.733 L70 450 C103 461 125 437 125 392 L125 94 C125 49 103 20 70 23 L65 23.5 C62.2538 23.7746 60 21.7349 60 18.9751 L60 11.5 C60 4.60037 65.6004 -1 72.5 -1 L275 -1 C275 2.42857 274.265 15.4082 274.685 22.1953 C274.76 23.4013 273.665 24.8665 272.463 24.7463 L265 24 C232 21 210 50 210 95 L210 479 C210 490.591 200.591 500 189 500 L176.147 500 C175.062 500 161.146 498.297 160.094 498.035 L160.094 498.035 Z " />
<glyph glyph-name="Ibreve" unicode="&#x12c;" horiz-adv-x="385" d="M57.3919 983.083 C68.3525 915.125 119.7 870 190 870 C261.25 870 313.548 914.222 323.743 981.233 C324.555 986.568 321.323 992.613 316 993.5 C311.841 994.193 306.638 990.535 305.593 986.45 C296.838 952.246 251.975 930 190 930 C128.025 930 84.0181 953.102 74.5999 988.225 C73.555 992.122 68.4729 996.201 64.5 995.5 C59.4903 994.616 56.5819 988.105 57.3919 983.083 L57.3919 983.083 Z M325 0 C325 3.42857 324.265 16.4082 324.685 23.1953 C324.76 24.4063 323.668 25.8975 322.458 25.8045 L312 25 C269 22 240 65 240 131 L240 621 C240 687 269 730 312 727 L318.5 726.5 C322.077 726.225 325 728.931 325 732.519 L325 738.5 C325 745.4 319.4 751 312.5 751 L55 751 C55 747.571 55.7347 734.592 55.3149 727.805 C55.24 726.594 56.3323 725.102 57.542 725.196 L68 726 C111 729 140 686 140 620 L140 130 C140 64 111 21 68 24 L61.5 24.5 C57.9228 24.7752 55 22.0686 55 18.4808 L55 12.5 C55 5.60037 60.6004 0 67.5 0 L325 0 L325 0 Z " />
<glyph glyph-name="ibreve" unicode="&#x12d;" horiz-adv-x="320" d="M34.3991 731.083 C45.45 663.125 97.7 618 168 618 C238.3 618 290.55 662.223 300.743 729.233 C301.555 734.568 298.322 740.613 293 741.5 C288.84 742.193 283.638 738.535 282.593 734.45 C273.843 700.246 229.05 678 168 678 C106.025 678 62.0181 701.102 52.5999 736.225 C51.4964 740.341 46.2028 744.2 42 743.5 C36.6884 742.615 33.5348 736.398 34.3991 731.083 L34.3991 731.083 Z M160.094 498.035 L125.75 489.5 L60 473 C60 469.571 60.7347 456.592 60.3149 449.805 C60.2446 448.669 61.3521 447.406 62.442 447.733 L70 450 C103 461 125 437 125 392 L125 94 C125 49 103 20 70 23 L65 23.5 C62.2538 23.7746 60 21.7349 60 18.9751 L60 11.5 C60 4.60037 65.6004 -1 72.5 -1 L275 -1 C275 2.42857 274.265 15.4082 274.685 22.1953 C274.76 23.4013 273.665 24.8665 272.463 24.7463 L265 24 C232 21 210 50 210 95 L210 479 C210 490.591 200.591 500 189 500 L176.147 500 C175.062 500 161.146 498.297 160.094 498.035 L160.094 498.035 Z " />
<glyph glyph-name="Idot" unicode="&#x130;" horiz-adv-x="385" d="M190 865 C223 865 245 887 245 920 C245 953 223 975 190 975 C157 975 135 953 135 920 C135 887 157 865 190 865 L190 865 Z M325 0 C325 3.42857 324.265 16.4082 324.685 23.1953 C324.76 24.4063 323.668 25.8975 322.458 25.8045 L312 25 C269 22 240 65 240 131 L240 621 C240 687 269 730 312 727 L318.5 726.5 C322.077 726.225 325 728.931 325 732.519 L325 738.5 C325 745.4 319.4 751 312.5 751 L55 751 C55 747.571 55.7347 734.592 55.3149 727.805 C55.24 726.594 56.3323 725.102 57.542 725.196 L68 726 C111 729 140 686 140 620 L140 130 C140 64 111 21 68 24 L61.5 24.5 C57.9228 24.7752 55 22.0686 55 18.4808 L55 12.5 C55 5.60037 60.6004 0 67.5 0 L325 0 L325 0 Z " />
<glyph glyph-name="dotlessi" unicode="&#x131;" horiz-adv-x="320" d="M160.094 498.035 L125.75 489.5 L60 473 C60 469.571 60.7347 456.592 60.3149 449.805 C60.2446 448.669 61.3521 447.406 62.442 447.733 L70 450 C103 461 125 437 125 392 L125 94 C125 49 103 20 70 23 L65 23.5 C62.2538 23.7746 60 21.7349 60 18.9751 L60 11.5 C60 4.60037 65.6004 -1 72.5 -1 L275 -1 C275 2.42857 274.265 15.4082 274.685 22.1953 C274.76 23.4013 273.665 24.8665 272.463 24.7463 L265 24 C232 21 210 50 210 95 L210 479 C210 490.591 200.591 500 189 500 L176.147 500 C175.062 500 161.146 498.297 160.094 498.035 L160.094 498.035 Z " />
<glyph glyph-name="Jcircumflex" unicode="&#x134;" horiz-adv-x="385" d="M220 1005 C214 1014 200 1035 190 1035 C180 1035 166 1014 160 1005 L42.2357 822.562 C39.915 818.967 40.7126 813.739 44 811 C47.2971 808.252 52.4968 808.479 55.5424 811.503 L143.104 898.439 C168.989 924.139 211.011 924.139 236.896 898.439 L324.458 811.503 C327.503 808.479 332.703 808.252 336 811 C339.287 813.739 340.085 818.967 337.764 822.562 L220 1005 L220 1005 Z M140 620 L140 -72 C140 -167 82 -185 40 -185 C-9 -185 15 -105 -35 -105 C-62 -105 -80 -123 -80 -150 C-80 -192 -42 -220 15 -220 C110 -220 240 -166 240 116 L240 620 C240 686 269 729 312 726 L318.5 725.5 C322.077 725.225 325 727.931 325 731.519 L325 737.5 C325 744.4 319.4 750 312.5 750 L55 750 C55 746.571 55.7347 733.592 55.3149 726.805 C55.24 725.594 56.3323 724.102 57.542 724.196 L68 725 C111 728 140 685.5 140 619.5 L140 620 Z " />
<glyph glyph-name="Lacute" unicode="&#x139;" horiz-adv-x="650" d="M204.941 817.02 L341 932 C379 965 405 990 405 996 C405 1019 386 1038 363 1038 C357 1038 334 1011 302 971 L192.746 829.162 C190.148 825.789 190.489 820.511 193.5 817.5 C196.525 814.475 201.673 814.259 204.941 817.02 L204.941 817.02 Z M577 8 C584 48 594 102 601 142 C601.218 143.245 599.674 141.469 598.5 141 L596 140 C594 140 580 142 580 142 C580 142 579.225 139.895 577.555 135.365 L573 123 C553.5 68.4 492.173 29.9606 413.116 19.731 C412.059 19.5944 397.127 19.9729 396.069 20.0927 C257.111 35.8212 240 110.75 240 218 L240 620 C240 686 269 729 312 726 L318.5 725.5 C322.077 725.225 325 727.931 325 731.519 L325 737.5 C325 744.4 319.4 750 312.5 750 L55 750 C55 746.571 55.7347 733.592 55.3149 726.805 C55.24 725.594 56.3323 724.102 57.542 724.196 L68 725 C111 728 140 685 140 619 L140 129 C140 63 111 20 68 23 L61.5 23.5 C57.9228 23.7752 55 21.0686 55 17.4808 L55 11.5 C55 4.60037 60.6004 -1 67.5 -1 L570.39 -1 C572.874 -1 575.461 1.07528 576 3.5 L577 8 L577 8 Z " />
<glyph glyph-name="Lcaron" unicode="&#x13d;" horiz-adv-x="650" d="M428 808 C411 808 401 745 397 700 L387.686 596.618 C387.31 592.437 390.384 588.323 394.5 587.5 C398.588 586.682 403.212 589.262 404.663 593.17 L441 691 C456 730 466 772 466 796 C466 805 451 808 428 808 L428 808 Z M577 8 C584 48 594 102 601 142 C601.218 143.245 599.674 141.469 598.5 141 L596 140 C594 140 580 142 580 142 C580 142 579.225 139.895 577.555 135.365 L573 123 C553.5 68.4 492.173 29.9606 413.116 19.731 C412.059 19.5944 397.127 19.9729 396.069 20.0927 C257.111 35.8212 240 110.75 240 218 L240 620 C240 686 269 729 312 726 L318.5 725.5 C322.077 725.225 325 727.931 325 731.519 L325 737.5 C325 744.4 319.4 750 312.5 750 L55 750 C55 746.571 55.7347 733.592 55.3149 726.805 C55.24 725.594 56.3323 724.102 57.542 724.196 L68 725 C111 728 140 685 140 619 L140 129 C140 63 111 20 68 23 L61.5 23.5 C57.9228 23.7752 55 21.0686 55 17.4808 L55 11.5 C55 4.60037 60.6004 -1 67.5 -1 L570.39 -1 C572.874 -1 575.461 1.07528 576 3.5 L577 8 L577 8 Z " />
<glyph glyph-name="lcaron" unicode="&#x13e;" horiz-adv-x="264" d="M256 756 C239 756 229 693 225 648 L215.686 544.618 C215.31 540.437 218.384 536.323 222.5 535.5 C226.588 534.682 231.212 537.262 232.663 541.17 L269 639 C284 678 294 720 294 744 C294 753 279 756 256 756 L256 756 Z M119.873 748.229 L84.75 739.5 L26.7478 722.928 C23.2485 721.928 19.7593 717.63 19.5 714 L19.358 712.012 C19.1605 709.247 21.2413 706.776 24 706.5 L25.6968 706.33 C25.7197 706.328 31.4312 705.923 31.4542 705.922 C63.0862 703.887 84 662.425 84 601 L84 95 C84 50 62 21 29 24 L24 24.5 C21.2538 24.7746 19 22.7349 19 19.9751 L19 12.5 C19 5.60037 24.6004 0 31.5 0 L234 0 C234 3.42857 233.265 16.4082 233.685 23.1953 C233.76 24.4013 232.665 25.8665 231.463 25.7463 L224 25 C191 22 169 51 169 96 L169 729.994 C169 741.585 159.588 750.776 148 750.5 L134.342 750.175 C133.458 750.154 120.731 748.442 119.873 748.229 L119.873 748.229 Z " />
<glyph glyph-name="Nacute" unicode="&#x143;" horiz-adv-x="786" d="M302.677 816.798 L439 932 C477 965 503 990 503 996 C503 1019 484 1038 461 1038 C455 1038 431 1011 400 971 L291.511 828.908 C289.062 825.7 289.285 820.486 292 817.5 C294.758 814.466 299.546 814.151 302.677 816.798 L302.677 816.798 Z M611 620 L611.733 290.805 C611.82 251.711 560.648 240.876 537.537 272.406 C427.734 422.205 318.427 572.394 209.15 722.043 C200.261 734.216 169.269 751 154.196 751 L-3 751 C-3 746.833 -2.30556 735.722 -2.65278 729.241 C-2.71722 728.038 -1.65902 726.103 -0.458 726.196 L10 727 C40.625 729.625 82.7344 705.453 122.26 665.203 C129.67 657.657 138.972 632.758 138.952 622.183 L138 131 C138 65 109 22 66 25 L59.5 25.5 C55.9228 25.7752 53 23.0686 53 19.4808 L53 13.5 C53 6.60037 58.6004 1 65.5 1 L253 1 C253 4.42857 252.265 17.4082 252.685 24.1953 C252.76 25.4063 251.668 26.8975 250.458 26.8045 L240 26 C200 23 171 60 167 119 L164.766 487.692 C164.518 528.47 218.175 539.828 242.23 506.9 C361.455 343.7 480.791 180.5 600.752 17.3 C603.386 13.7158 617.552 2 622 2 C627.519 2 632.051 6.48037 632.113 11.9994 L639 622 C641 687 669 731 712 728 L718.5 727.5 C722.077 727.225 725 729.931 725 733.519 L725 739.5 C725 746.4 719.4 752 712.5 752 L525 752 C525 748.571 525.735 735.592 525.315 728.805 C525.24 727.594 526.332 726.102 527.542 726.196 L538 727 C581 730 609.5 685.5 610.5 620.5 L611 620 Z " />
<glyph glyph-name="Ncaron" unicode="&#x147;" horiz-adv-x="786" d="M524.707 1038.78 L435.894 951.229 C410.012 925.713 368.062 925.788 342.271 951.396 L254.275 1038.76 C251.367 1041.65 246.532 1041.76 243.5 1039 C240.505 1036.28 239.836 1031.16 242.031 1027.76 L360 845 C366 836 380 815 390 815 C400 815 414 836 420 845 L536.992 1027.74 C539.173 1031.15 538.493 1036.28 535.5 1039 C532.469 1041.76 527.624 1041.66 524.707 1038.78 L524.707 1038.78 Z M611 620 L611.733 290.805 C611.82 251.711 560.648 240.876 537.537 272.406 C427.734 422.205 318.427 572.394 209.15 722.043 C200.261 734.216 169.269 751 154.196 751 L-3 751 C-3 746.833 -2.30556 735.722 -2.65278 729.241 C-2.71722 728.038 -1.65902 726.103 -0.458 726.196 L10 727 C40.625 729.625 82.7344 705.453 122.26 665.203 C129.67 657.657 138.972 632.758 138.952 622.183 L138 131 C138 65 109 22 66 25 L59.5 25.5 C55.9228 25.7752 53 23.0686 53 19.4808 L53 13.5 C53 6.60037 58.6004 1 65.5 1 L253 1 C253 4.42857 252.265 17.4082 252.685 24.1953 C252.76 25.4063 251.668 26.8975 250.458 26.8045 L240 26 C200 23 171 60 167 119 L164.766 487.692 C164.518 528.47 218.175 539.828 242.23 506.9 C361.455 343.7 480.791 180.5 600.752 17.3 C603.386 13.7158 617.552 2 622 2 C627.519 2 632.051 6.48037 632.113 11.9994 L639 622 C641 687 669 731 712 728 L718.5 727.5 C722.077 727.225 725 729.931 725 733.519 L725 739.5 C725 746.4 719.4 752 712.5 752 L525 752 C525 748.571 525.735 735.592 525.315 728.805 C525.24 727.594 526.332 726.102 527.542 726.196 L538 727 C581 730 609.5 685.5 610.5 620.5 L611 620 Z " />
<glyph glyph-name="ncaron" unicode="&#x148;" horiz-adv-x="569" d="M413.458 786.497 L325.896 699.561 C300.011 673.861 257.989 673.861 232.104 699.561 L144.542 786.497 C141.497 789.521 136.297 789.748 133 787 C129.713 784.261 128.915 779.033 131.236 775.438 L249 593 C255 584 269 563 279 563 C289 563 303 584 309 593 L426.764 775.438 C429.085 779.033 428.287 784.261 425 787 C421.703 789.748 416.503 789.521 413.458 786.497 L413.458 786.497 Z M120.649 498.422 L84.75 489.5 L26.7478 472.928 C23.2485 471.928 19.7593 467.63 19.5 464 L19.358 462.012 C19.1605 459.247 21.2413 456.776 24 456.5 L25.6968 456.33 C25.7197 456.328 31.4312 455.923 31.4542 455.922 C63.0862 453.887 84 412.425 84 351 L84 95 C84 50 62 21 29 24 L24 24.5 C21.2538 24.7746 19 22.7349 19 19.9751 L19 12.5 C19 5.60037 24.6004 0 31.5 0 L234 0 C234 3.42857 233.265 16.4082 233.685 23.1953 C233.76 24.4013 232.665 25.8665 231.463 25.7463 L224 25 C191 22 169 51 169 96 L169 343.469 C169 349.737 174.984 371.145 178.486 376.343 C208.33 420.65 250 449 286 449 C354 449 389 402 389 331 L389 96 C389 51 367 22 334 25 L329 25.5 C326.254 25.7746 324 23.7349 324 20.9751 L324 13.5 C324 6.60037 329.6 1 336.5 1 L539 1 C539 4.42857 538.265 17.4082 538.685 24.1953 C538.76 25.4013 537.665 26.8665 536.463 26.7463 L529 26 C496 23 474 52 474 97 L474 332 C474 440 427 512 337 512 C289.975 512 235.463 477.969 193.679 423.944 C186.716 414.941 169 418.845 169 430.226 L169 480.976 C169 492.568 159.578 501.551 148 501 L133.537 500.311 C132.834 500.278 121.332 498.591 120.649 498.422 L120.649 498.422 Z " />
<glyph glyph-name="Omacron" unicode="&#x14c;" horiz-adv-x="851" d="M297.5 895 L538.5 895 C554.783 895 568 908.217 568 924.5 C568 940.783 554.783 954 538.5 954 L297.5 954 C281.217 954 268 940.783 268 924.5 C268 908.217 281.217 895 297.5 895 L297.5 895 Z M159 375 C159 591 261 735 414 735 C578 735 687 591 687 375 C687 159 577 15 413 15 C261 15 159 159 159 375 L159 375 Z M50 375 C50 144 193 -10 408 -10 C641 -10 796 144 796 375 C796 606 645 760 418 760 C197 760 50 606 50 375 L50 375 Z " />
<glyph glyph-name="omacron" unicode="&#x14d;" horiz-adv-x="613" d="M186.5 645 L427.5 645 C443.783 645 457 658.217 457 674.5 C457 690.783 443.783 704 427.5 704 L186.5 704 C170.217 704 157 690.783 157 674.5 C157 658.217 170.217 645 186.5 645 L186.5 645 Z M139 250 C139 390 206 484 307 484 C408 484 475 390 475 250 C475 110 408 16 307 16 C206 16 139 110 139 250 L139 250 Z M45 250 C45 94 150 -10 307 -10 C464 -10 568 94 568 250 C568 406 464 510 307 510 C150 510 45 406 45 250 L45 250 Z " />
<glyph glyph-name="Obreve" unicode="&#x14e;" horiz-adv-x="851" d="M285.392 983.083 C296.353 915.125 347.7 870 418 870 C489.25 870 541.548 914.222 551.743 981.233 C552.555 986.568 549.323 992.613 544 993.5 C539.841 994.193 534.638 990.535 533.593 986.45 C524.838 952.246 479.975 930 418 930 C356.025 930 312.018 953.102 302.6 988.225 C301.555 992.122 296.473 996.201 292.5 995.5 C287.49 994.616 284.582 988.105 285.392 983.083 L285.392 983.083 Z M159 375 C159 591 261 735 414 735 C578 735 687 591 687 375 C687 159 577 15 413 15 C261 15 159 159 159 375 L159 375 Z M50 375 C50 144 193 -10 408 -10 C641 -10 796 144 796 375 C796 606 645 760 418 760 C197 760 50 606 50 375 L50 375 Z " />
<glyph glyph-name="obreve" unicode="&#x14f;" horiz-adv-x="613" d="M174.392 733.083 C185.352 665.125 236.7 620 307 620 C378.25 620 430.547 664.222 440.743 731.233 C441.555 736.568 438.323 742.613 433 743.5 C428.841 744.193 423.638 740.535 422.593 736.45 C413.838 702.246 368.975 680 307 680 C245.025 680 201.018 703.102 191.6 738.225 C190.555 742.122 185.473 746.201 181.5 745.5 C176.49 744.616 173.582 738.105 174.392 733.083 L174.392 733.083 Z M139 250 C139 390 206 484 307 484 C408 484 475 390 475 250 C475 110 408 16 307 16 C206 16 139 110 139 250 L139 250 Z M45 250 C45 94 150 -10 307 -10 C464 -10 568 94 568 250 C568 406 464 510 307 510 C150 510 45 406 45 250 L45 250 Z " />
<glyph glyph-name="Racute" unicode="&#x154;" horiz-adv-x="796" d="M335.677 816.798 L472 932 C510 965 536 990 536 996 C536 1019 517 1038 494 1038 C488 1038 464 1011 433 971 L324.511 828.908 C322.062 825.7 322.285 820.486 325 817.5 C327.758 814.466 332.546 814.151 335.677 816.798 L335.677 816.798 Z M786 10 C786 15.4968 778.762 19.999 773.265 20.0217 C696.41 20.34 689.95 24.9 651 80 C567.7 197.3 502.463 289.312 465.728 340.684 C458.426 350.896 465.827 367.7 477.836 371.356 C560.78 396.61 611 450.7 611 538 C611 665 507 750 350 750 L60 750 C60 746.571 60.7347 733.592 60.3149 726.805 C60.24 725.594 61.3323 724.102 62.542 724.196 L73 725 C116 728 145 685 145 619 L145 129 C145 63 116 20 73 23 L66.5 23.5 C62.9228 23.7752 60 21.0686 60 17.4808 L60 11.5 C60 4.60037 65.6004 -1 72.5 -1 L330 -1 C330 2.42857 329.265 15.4082 329.685 22.1953 C329.76 23.4063 328.668 24.8975 327.458 24.8045 L317 24 C274 21 245 64 245 130 L245 304.5 C245 332.374 267.626 355 295.5 355 L325.161 355 C334.512 355 351.142 346.339 356.127 338.428 C384.906 292.75 449 199.125 533 81 C586.625 5.925 597.947 0.720938 771.802 0.507656 C777.329 0.500877 786 4.47353 786 10 L786 10 Z M244 433.5 L244 693.5 C244 714.199 260.801 731 281.5 731 L319 731 C427 731 499 662 499 559 C499 436 439 381 349 381 L296.5 381 C267.522 381 244 404.522 244 433.5 L244 433.5 Z " />
<glyph glyph-name="Rcaron" unicode="&#x158;" horiz-adv-x="796" d="M457.707 1038.78 L368.894 951.229 C343.012 925.713 301.062 925.788 275.271 951.396 L187.275 1038.76 C184.367 1041.65 179.532 1041.76 176.5 1039 C173.505 1036.28 172.836 1031.16 175.031 1027.76 L293 845 C299 836 313 815 323 815 C333 815 347 836 353 845 L469.992 1027.74 C472.173 1031.15 471.493 1036.28 468.5 1039 C465.469 1041.76 460.624 1041.66 457.707 1038.78 L457.707 1038.78 Z M786 10 C786 15.4968 778.762 19.999 773.265 20.0217 C696.41 20.34 689.95 24.9 651 80 C567.7 197.3 502.463 289.312 465.728 340.684 C458.426 350.896 465.827 367.7 477.836 371.356 C560.78 396.61 611 450.7 611 538 C611 665 507 750 350 750 L60 750 C60 746.571 60.7347 733.592 60.3149 726.805 C60.24 725.594 61.3323 724.102 62.542 724.196 L73 725 C116 728 145 685 145 619 L145 129 C145 63 116 20 73 23 L66.5 23.5 C62.9228 23.7752 60 21.0686 60 17.4808 L60 11.5 C60 4.60037 65.6004 -1 72.5 -1 L330 -1 C330 2.42857 329.265 15.4082 329.685 22.1953 C329.76 23.4063 328.668 24.8975 327.458 24.8045 L317 24 C274 21 245 64 245 130 L245 304.5 C245 332.374 267.626 355 295.5 355 L325.161 355 C334.512 355 351.142 346.339 356.127 338.428 C384.906 292.75 449 199.125 533 81 C586.625 5.925 597.947 0.720938 771.802 0.507656 C777.329 0.500877 786 4.47353 786 10 L786 10 Z M244 433.5 L244 693.5 C244 714.199 260.801 731 281.5 731 L319 731 C427 731 499 662 499 559 C499 436 439 381 349 381 L296.5 381 C267.522 381 244 404.522 244 433.5 L244 433.5 Z " />
<glyph glyph-name="rcaron" unicode="&#x159;" horiz-adv-x="420" d="M374.458 786.497 L286.896 699.561 C261.011 673.861 218.989 673.861 193.104 699.561 L105.542 786.497 C102.497 789.521 97.2971 789.748 94 787 C90.7126 784.261 89.915 779.033 92.2357 775.438 L210 593 C216 584 230 563 240 563 C250 563 264 584 270 593 L387.764 775.438 C390.085 779.033 389.287 784.261 386 787 C382.703 789.748 377.503 789.521 374.458 786.497 L374.458 786.497 Z M120.855 498.224 L85.75 489.5 L27.7478 472.928 C24.2485 471.928 20.7593 467.63 20.5 464 L20.358 462.012 C20.1605 459.247 22.2413 456.776 25 456.5 L26.6968 456.33 C26.7197 456.328 32.4312 455.923 32.4542 455.922 C64.0862 453.887 85 412.425 85 351 L85 95 C85 50 63 21 30 24 L25 24.5 C22.2538 24.7746 20 22.7349 20 19.9751 L20 12.5 C20 5.60037 25.6004 0 32.5 0 L235 0 C235 3.42857 234.265 16.4082 234.685 23.1953 C234.76 24.4013 233.665 25.8665 232.463 25.7463 L225 25 C192 22 170 51 170 96 L170 347.048 C170 349.411 172.749 365.814 173.583 368.025 C197.1 430.387 236.05 471 275 471 C296 471 310 457 310 436 C310 406 330 386 360 386 C390 386 410 406 410 436 C410 481 372 511 315 511 C262.2 511 214.845 481.733 186.411 434.43 C183.144 428.995 171 430.773 171 437.114 L171 479.494 C171 491.362 161.364 500.776 149.5 500.5 L135.361 500.171 C134.473 500.151 121.717 498.438 120.855 498.224 L120.855 498.224 Z " />
<glyph glyph-name="Sacute" unicode="&#x15a;" horiz-adv-x="551" d="M287.941 817.02 L424 932 C462 965 488 990 488 996 C488 1019 469 1038 446 1038 C440 1038 417 1011 385 971 L275.746 829.162 C273.148 825.789 273.489 820.511 276.5 817.5 C279.525 814.475 284.673 814.259 287.941 817.02 L287.941 817.02 Z M337 748 C312 756 285 760 257 760 C142 760 65 681 65 563 C65 462 132 371 263 323 C375 282 432 224 432 167 C432 70 364 11 264 24 C182 35 111 108 87 208 L79 240 C79 236 51 237 51 241 L51 1 C51 4 73 4 73 1 L76 24 C79 41 125 36 194 11 C226 -2 260 -9 294 -9 C425 -9 513 73 513 197 C513 294 449 383 324 428 C206 471 145 537 145 602 C145 682 190 736 258 736 C342 736 413 674 437 582 L445 551 C445 555 473 554 473 550 L473 754 C473 751 451 751 451 754 L448 738 C446 727 402 731 338 748 L337 748 Z " />
<glyph glyph-name="Scircumflex" unicode="&#x15c;" horiz-adv-x="551" d="M304 1005 C298 1014 284 1035 274 1035 C264 1035 250 1014 244 1005 L126.236 822.562 C123.915 818.967 124.713 813.739 128 811 C131.297 808.252 136.497 808.479 139.542 811.503 L227.104 898.439 C252.989 924.139 295.011 924.139 320.896 898.439 L408.458 811.503 C411.503 808.479 416.703 808.252 420 811 C423.287 813.739 424.085 818.967 421.764 822.562 L304 1005 L304 1005 Z M337 748 C312 756 285 760 257 760 C142 760 65 681 65 563 C65 462 132 371 263 323 C375 282 432 224 432 167 C432 70 364 11 264 24 C182 35 111 108 87 208 L79 240 C79 236 51 237 51 241 L51 1 C51 4 73 4 73 1 L76 24 C79 41 125 36 194 11 C226 -2 260 -9 294 -9 C425 -9 513 73 513 197 C513 294 449 383 324 428 C206 471 145 537 145 602 C145 682 190 736 258 736 C342 736 413 674 437 582 L445 551 C445 555 473 554 473 550 L473 754 C473 751 451 751 451 754 L448 738 C446 727 402 731 338 748 L337 748 Z " />
<glyph glyph-name="Scaron" unicode="&#x160;" horiz-adv-x="551" d="M408.458 1038.5 L320.896 951.561 C295.011 925.861 252.989 925.861 227.104 951.561 L139.542 1038.5 C136.497 1041.52 131.297 1041.75 128 1039 C124.713 1036.26 123.915 1031.03 126.236 1027.44 L244 845 C250 836 264 815 274 815 C284 815 298 836 304 845 L421.764 1027.44 C424.085 1031.03 423.287 1036.26 420 1039 C416.703 1041.75 411.503 1041.52 408.458 1038.5 L408.458 1038.5 Z M337 748 C312 756 285 760 257 760 C142 760 65 681 65 563 C65 462 132 371 263 323 C375 282 432 224 432 167 C432 70 364 11 264 24 C182 35 111 108 87 208 L79 240 C79 236 51 237 51 241 L51 1 C51 4 73 4 73 1 L76 24 C79 41 125 36 194 11 C226 -2 260 -9 294 -9 C425 -9 513 73 513 197 C513 294 449 383 324 428 C206 471 145 537 145 602 C145 682 190 736 258 736 C342 736 413 674 437 582 L445 551 C445 555 473 554 473 550 L473 754 C473 751 451 751 451 754 L448 738 C446 727 402 731 338 748 L337 748 Z " />
<glyph glyph-name="scaron" unicode="&#x161;" horiz-adv-x="428" d="M352.458 788.497 L264.896 701.561 C239.011 675.861 196.989 675.861 171.104 701.561 L83.5424 788.497 C80.4968 791.521 75.2971 791.748 72 789 C68.7126 786.261 67.915 781.033 70.2357 777.438 L188 595 C194 586 208 565 218 565 C228 565 242 586 248 595 L365.764 777.438 C368.085 781.033 367.287 786.261 364 789 C360.703 791.748 355.503 791.521 352.458 788.497 L352.458 788.497 Z M207 -10 C309 -17 378 44 378 129 C378 198 330 256 237 281 C159 302 119 351 119 408 C119 457 153 489 204 489 C272 489 323 438 333 362 L335 341 C335 342 353 342 353 341 L353 509 C353 508 336 508 336 510 L333.883 501.531 C333.87 501.481 332.585 499.501 332.55 499.54 C327.048 505.722 277.075 510 204 510 C117 510 59 458 59 380 C59 305 107 243 199 218 C274 198 313 155 313 106 C313 48 275 10 218 10 C200 10 182 14 165 22 C120 43 88 91 80 156 L78 177 C78 176 60 176 60 177 L60 -1 C60 0 77 0 77 -2 L79.0936 7.0721 C79.1313 7.23567 81.1216 8.69941 81.248 8.589 C89.555 1.335 138.2 -6 207.5 -10.5 L207 -10 Z " />
<glyph glyph-name="Tcaron" unicode="&#x164;" horiz-adv-x="775" d="M518.458 1038.5 L430.896 951.561 C405.011 925.861 362.989 925.861 337.104 951.561 L249.542 1038.5 C246.497 1041.52 241.297 1041.75 238 1039 C234.713 1036.26 233.915 1031.03 236.236 1027.44 L354 845 C360 836 374 815 384 815 C394 815 408 836 414 845 L531.764 1027.44 C534.085 1031.03 533.287 1036.26 530 1039 C526.703 1041.75 521.503 1041.52 518.458 1038.5 L518.458 1038.5 Z M721 737 L720 740 C719.925 740.225 718.461 745.875 718.417 746.108 L718.25 747 C718.156 747.502 715.92 754.864 715.723 755.335 C710.218 768.472 703.297 782.659 698.737 794.116 C698.599 794.464 697.245 793.938 696.936 793.728 C693.934 791.686 685.455 795.182 683 796 L679 789 C665 766 600 751 515 751 L256 751 C171 751 106 766 92 789 L88 796 C87.1333 798.6 76.5022 790.684 73.6827 793.735 C73.2663 794.186 71.7283 792.861 71.4979 792.293 L49.5 738 C32.5 697 10 642 -7 601 C-7.5049 599.782 -5.25057 601.583 -4 602 L-1 603 C1 603 14 601 14 601 C14 601 14.5536 601.876 17.5118 606.56 L26 620 C63 684 146 726 233 726 L285.5 726 C314.478 726 338 702.478 338 673.5 L338 131 C338 65 309 22 266 25 L259.5 25.5 C255.923 25.7752 253 23.0686 253 19.4808 L253 13.5 C253 6.60037 258.6 1 265.5 1 L523 1 C523 4.42857 522.265 17.4082 522.685 24.1953 C522.76 25.4063 521.668 26.8975 520.458 26.8045 L510 26 C467 23 438 66 438 132 L438 678.5 C438 705.271 459.729 727 486.5 727 L535 727 C622 727 705 685 743 621 L750.96 608.397 C752.986 605.189 758.738 602.498 762.5 603 L766.865 603.582 C767.625 603.683 772.273 603.242 773 603 C774.274 602.575 775.278 603.849 774.787 605.099 C758.854 645.692 736.575 698.025 720 738 L721 737 Z " />
<glyph glyph-name="tcaron" unicode="&#x165;" horiz-adv-x="378" d="M310.5 500 L240 500 C206.882 500 180 526.882 180 560 L180 617 C180 618.656 178.656 620 177 620 C175.79 620 172.777 618.692 171.951 617.809 L33.415 469.652 C32.1276 468.275 30 462.885 30 461 C30 458.24 32.2402 456 35 456 L62.5 456 C80.439 456 95 441.439 95 423.5 L95 160 C95 38 150 -10 232 -10 C288.55 -10 342.248 29.9262 366.215 91.2416 C367.328 94.0875 365.837 96.8652 363 98 C360.41 99.036 356.667 96.3691 355.565 93.8067 C338.987 55.27 300.75 30 258 30 C210 30 178 61 178 141 L179.579 388.864 C179.811 425.368 209.632 455 246.137 455 L310.5 455 C322.919 455 333 465.081 333 477.5 C333 489.919 322.919 500 310.5 500 L310.5 500 Z M425 758 C408 758 398 695 394 650 L384.686 546.618 C384.31 542.437 387.384 538.323 391.5 537.5 C395.588 536.682 400.212 539.262 401.663 543.17 L438 641 C453 680 463 722 463 746 C463 755 448 758 425 758 L425 758 Z " />
<glyph glyph-name="Utilde" unicode="&#x168;" horiz-adv-x="760" d="M237.283 876.892 C239.595 908.465 255.875 929 279 929 C331 929 400 864 452 864 C499.775 864 531.389 909.63 532.94 978.645 C533.035 982.877 529.733 984 525.5 984 C521.681 984 517.996 979.915 517.7 976.108 C515.244 944.535 497.9 924 472 924 C420 924 350 989 298 989 C253.15 989 223.51 943.37 222.056 874.355 C221.967 870.129 225.273 869 229.5 869 C233.337 869 237.003 873.065 237.283 876.892 L237.283 876.892 Z M110 749.5 L25 749 C25 745.571 25.7347 732.592 25.3149 725.805 C25.24 724.594 26.3323 723.102 27.542 723.196 L38 724 C81 727 110 684 110 618 L110 219 C110 81 184 -11 294 -11 C382.275 -11 466.466 31.1987 517.375 98.1893 C524.136 107.086 545 103.944 545 92.7701 L545 24.0012 C545 10.202 556.201 -1.11201 570 -1.25 L586.468 -1.41468 C587.627 -1.42627 603.1 0.512559 604.225 0.790078 C643.027 10.3609 692.075 21.75 730 31 C730 34.4286 729.265 47.4082 729.685 54.1953 C729.755 55.3275 728.647 56.5838 727.563 56.2502 L717 53 C674 39 645 75 645 141 L645 699.999 C645 727.598 622.598 749.888 595 749.75 L545 749.5 L460 749 C460 745.571 460.735 732.592 460.315 725.805 C460.24 724.594 461.332 723.102 462.542 723.196 L473 724 C516 727 545 684 545 618 L545 203.673 C545 199.301 541.029 180.765 538.96 176.913 C498.587 101.735 418.55 53 334 53 C260 53 210 119 210 219 L210 698.998 C210 726.596 187.597 749.224 160 749.5 L110 750 L110 749.5 Z " />
<glyph glyph-name="utilde" unicode="&#x169;" horiz-adv-x="560" d="M135.281 630.089 C137.515 661.55 152.923 682 176 682 C228 682 297 617 349 617 C396.775 617 428.389 662.63 429.94 731.645 C430.035 735.877 426.733 737 422.5 737 C418.681 737 414.996 732.915 414.7 729.108 C412.244 697.535 394.9 677 369 677 C317 677 248 742 196 742 C151.15 742 121.51 696.37 120.056 627.355 C119.967 623.129 123.273 622 127.5 622 C131.347 622 135.008 626.252 135.281 630.089 L135.281 630.089 Z M476.902 12.3632 C500.726 18.8119 524.941 25.5294 545 31 C545 34.4286 544.265 47.4082 544.685 54.1953 C544.753 55.3005 543.645 56.5071 542.604 56.1287 L534 53 C496 41 470 78 470 144 L470 480.994 C470 492.585 460.588 502.224 449 502.5 L428 503 L320 504 C320 500.571 320.735 487.592 320.315 480.805 C320.24 479.599 321.335 478.133 322.537 478.254 L330 479 C363 482 385 453 385 408 L385 159.236 C385 154.866 380.822 136.146 378.754 132.295 C351.489 81.5138 305.1 49 257 49 C202 49 165 93 165 160 L165 433.44 C165 470.179 135.179 500 98.44 500 L15 500 C15 496.571 15.7347 483.592 15.3149 476.805 C15.2403 475.599 16.3346 474.133 17.5369 474.254 L25 475 C58 478 80 449 80 404 L80 159 C80 57 135 -11 217 -11 C273.925 -11 328.808 23.7119 364.804 79.6593 C369.527 86.9995 385 84.3815 385 75.6532 L385 20.5 C385 8.63264 394.633 -1 406.5 -1 L422.41 -1 C423.385 -1 432.385 1.0125 433.288 1.3822 C441.654 4.80894 452.878 8.02624 463.116 9.11226 C463.481 9.15097 476.547 12.2674 476.902 12.3632 L476.902 12.3632 Z " />
<glyph glyph-name="Umacron" unicode="&#x16a;" horiz-adv-x="760" d="M257.5 894 L498.5 894 C514.783 894 528 907.217 528 923.5 C528 939.783 514.783 953 498.5 953 L257.5 953 C241.217 953 228 939.783 228 923.5 C228 907.217 241.217 894 257.5 894 L257.5 894 Z M110 749.5 L25 749 C25 745.571 25.7347 732.592 25.3149 725.805 C25.24 724.594 26.3323 723.102 27.542 723.196 L38 724 C81 727 110 684 110 618 L110 219 C110 81 184 -11 294 -11 C382.275 -11 466.466 31.1987 517.375 98.1893 C524.136 107.086 545 103.944 545 92.7701 L545 24.0012 C545 10.202 556.201 -1.11201 570 -1.25 L586.468 -1.41468 C587.627 -1.42627 603.1 0.512559 604.225 0.790078 C643.027 10.3609 692.075 21.75 730 31 C730 34.4286 729.265 47.4082 729.685 54.1953 C729.755 55.3275 728.647 56.5838 727.563 56.2502 L717 53 C674 39 645 75 645 141 L645 699.999 C645 727.598 622.598 749.888 595 749.75 L545 749.5 L460 749 C460 745.571 460.735 732.592 460.315 725.805 C460.24 724.594 461.332 723.102 462.542 723.196 L473 724 C516 727 545 684 545 618 L545 203.673 C545 199.301 541.029 180.765 538.96 176.913 C498.587 101.735 418.55 53 334 53 C260 53 210 119 210 219 L210 698.998 C210 726.596 187.597 749.224 160 749.5 L110 750 L110 749.5 Z " />
</font>
</svg>
