<?xml version="1.0" encoding="UTF-8"?>
<svg xmlns="http://www.w3.org/2000/svg" xmlns:xlink="http://www.w3.org/1999/xlink" version="1.2" >
<font id="glamour luxury Bold">
<font-face  font-family="glamour luxury" units-per-em="1024" ascent="936" descent="-280" font-style="normal" font-weight="700" font-stretch="normal" cap-height="966" x-height="468" underline-position="-125" underline-thickness="50" />
<missing-glyph  horiz-adv-x="100" d="" />
<glyph glyph-name="NULL" d="" />
<glyph glyph-name="CR" unicode="&#xd;" horiz-adv-x="256" d="" />
<glyph glyph-name="space" unicode="&#x20;" horiz-adv-x="229" d="" />
<glyph glyph-name="exclam" unicode="&#x21;" horiz-adv-x="247" d="M132 -5 C175 -5 204 24 204 67 C204 110 175 139 132 139 C89 139 60 110 60 67 C60 24 89 -5 132 -5 L132 -5 Z M187 608 C192 651 168 680 126 680 C83 680 58 651 65 608 C65 490 126 214 126 214 L139 214 C139 214 187 490 187 608 L187 608 Z " />
<glyph glyph-name="quotedbl" unicode="&#x22;" horiz-adv-x="365" d="M197 675 L253 415 L269 415 L325 675 L197 675 L197 675 Z M39 675 L95 415 L112 415 L167 675 L39 675 L39 675 Z " />
<glyph glyph-name="numbersign" unicode="&#x23;" horiz-adv-x="457" d="M329 661 L304 499 L221 499 L246 661 L208 661 L183 499 L70 499 L59 421 L172 421 L144 239 L27 239 L17 161 L132 161 L108 0 L146 0 L170 161 L253 161 L229 0 L267 0 L291 161 L379 161 L390 239 L303 239 L331 421 L427 421 L437 499 L342 499 L367 661 L329 661 L329 661 Z M210 421 L293 421 L265 239 L182 239 L210 421 L210 421 Z " />
<glyph glyph-name="dollar" unicode="&#x24;" horiz-adv-x="430" d="M40 200 L40 42 L50 59 L50 59 L40 42 C75 22 118 7 157 0 L157 -75 L191 -75 L191 -5 C207 -6 222 -5 237 -3 L237 -76 L271 -76 L271 5 C341 30 385 96 385 185 C385 253 340 322 271 364 L271 616 C283 602 293 584 300 564 C309 537 322 502 331 475 L344 475 L344 633 C319 647 294 659 272 667 L272 749 L238 749 L238 677 C222 680 207 679 191 677 L191 749 L157 749 L157 669 C86 643 42 572 42 476 C42 408 88 339 157 301 L157 35 C120 56 86 102 65 162 C61 173 56 188 52 199 L40 200 L40 200 Z M190 23 L190 283 C207 273 222 262 236 251 L236 26 C223 22 207 19 191 21 L190 23 L190 23 Z M191 409 L191 647 C211 652 218 651 238 642 L238 379 C221 388 206 398 192 408 L191 409 L191 409 Z M158 438 C134 464 120 492 120 518 C120 566 134 604 158 626 L158 438 L158 438 Z M272 216 C295 190 308 162 308 136 C308 96 295 64 272 43 L272 216 L272 216 Z " />
<glyph glyph-name="percent" unicode="&#x25;" horiz-adv-x="721" d="M129 550 C129 638 137 696 150 696 C181 696 202 622 202 510 C202 431 190 378 172 378 C146 378 129 447 129 550 L129 550 Z M30 530 C30 419 83 345 163 345 C243 345 296 425 296 544 C296 653 243 725 163 725 C83 725 30 647 30 530 L30 530 Z M522 198 C522 286 534 345 551 345 C589 345 615 270 615 158 C615 80 599 28 574 28 C543 28 522 96 522 198 L522 198 Z M424 179 C424 69 480 -5 565 -5 C651 -5 709 74 709 192 C709 302 651 375 565 375 C480 375 424 297 424 179 L424 179 Z M186 -13 L610 707 L565 733 L141 13 L186 -13 L186 -13 Z " />
<glyph glyph-name="ampersand" unicode="&#x26;" horiz-adv-x="687" d="M590 307 L418 307 L418 292 L429 292 C467 292 493 266 493 227 L493 196 C493 180 491 165 486 151 C461 178 433 210 401 248 C364 292 331 341 304 387 C375 412 421 480 421 563 C421 635 368 683 289 683 C210 683 157 615 157 513 C157 485 177 428 211 364 C112 317 49 241 49 162 C49 64 124 -2 237 -2 C328 -2 403 22 452 64 C543 -7 611 -10 686 4 L686 21 C648 14 605 27 502 135 C510 155 514 177 514 200 L514 231 C514 270 540 296 578 296 L589 296 L590 307 L590 307 Z M234 559 C234 621 253 663 282 663 C319 663 343 621 343 559 C343 488 324 432 293 407 C256 473 234 531 234 558 L234 559 L234 559 Z M431 81 C397 57 350 43 294 43 C204 43 144 106 144 200 C144 258 174 311 223 345 C252 293 289 238 330 189 C368 144 402 109 433 82 L431 81 L431 81 Z " />
<glyph glyph-name="quotesingle" unicode="&#x27;" horiz-adv-x="207" d="M39 675 L95 415 L112 415 L167 675 L39 675 L39 675 Z " />
<glyph glyph-name="parenleft" unicode="&#x28;" horiz-adv-x="234" d="M212 705 C120 615 59 494 59 278 C59 61 120 -60 212 -150 L224 -138 C172 -87 137 20 137 278 C137 535 172 642 224 693 L212 705 L212 705 Z " />
<glyph glyph-name="parenright" unicode="&#x29;" horiz-adv-x="234" d="M10 -150 C102 -60 163 61 163 277 C163 494 102 615 10 705 L-2 693 C50 642 85 535 85 277 C85 20 50 -87 -2 -138 L10 -150 L10 -150 Z " />
<glyph glyph-name="asterisk" unicode="&#x2a;" horiz-adv-x="300" d="M271 587 L271 587 L270 588 C291 594 297 612 286 632 C274 652 256 655 240 640 L240 641 L154 561 L181 675 C186 696 174 710 150 710 C127 710 114 696 119 675 L145 565 L62 642 C46 657 28 654 16 633 C4 613 10 595 31 589 L31 588 L141 554 L32 521 C11 515 5 498 17 477 C28 457 47 453 63 468 L63 467 L144 543 L119 435 C114 414 127 400 150 400 C174 400 186 414 181 435 L155 546 L238 468 L238 468 L269 522 L163 554 L270 587 L270 586 L271 587 L271 587 Z M238 467 L237 469 L238 468 C239 468 239 468 239 468 L238 467 L238 467 Z M239 469 C255 456 273 460 285 479 C297 499 291 516 270 522 L239 469 L239 469 Z " />
<glyph glyph-name="plus" unicode="&#x2b;" horiz-adv-x="474" d="M210 410 L210 272 L75 272 L75 228 L210 228 L210 91 L259 91 L259 228 L394 228 L394 272 L259 272 L259 410 L210 410 L210 410 Z " />
<glyph glyph-name="comma" unicode="&#x2c;" horiz-adv-x="267" d="M132 139 C89 139 60 110 60 67 C60 24 89 -5 132 -5 C139 -5 147 2 155 12 C170 -58 132 -125 86 -145 L86 -161 C165 -127 218 -48 218 36 C218 86 187 139 133 139 L132 139 L132 139 Z " />
<glyph glyph-name="hyphen" unicode="&#x2d;" horiz-adv-x="174" d="M20 196 L154 196 L154 274 L20 274 L20 196 L20 196 Z " />
<glyph glyph-name="period" unicode="&#x2e;" horiz-adv-x="257" d="M125 -5 C168 -5 197 24 197 67 C197 110 168 139 125 139 C82 139 53 110 53 67 C53 24 82 -5 125 -5 L125 -5 Z " />
<glyph glyph-name="slash" unicode="&#x2f;" horiz-adv-x="354" d="M0 -145 L44 -145 L354 725 L310 725 L0 -145 L0 -145 Z " />
<glyph glyph-name="zero" unicode="0" horiz-adv-x="532" d="M161 250 C161 390 203 483 266 483 C328 483 370 390 370 250 C370 110 328 17 266 17 C203 17 161 110 161 250 L161 250 Z M50 250 C50 97 136 -5 266 -5 C396 -5 482 97 482 250 C482 403 396 505 266 505 C136 505 50 403 50 250 L50 250 Z " />
<glyph glyph-name="one" unicode="1" horiz-adv-x="360" d="M305 15 L294 15 C256 15 230 41 230 80 L230 420 C230 459 256 485 294 485 L305 485 L305 500 L55 500 L55 485 L66 485 C104 485 130 459 130 420 L130 80 C130 41 104 15 66 15 L55 15 L55 0 L305 0 L305 15 L305 15 Z " />
<glyph glyph-name="two" unicode="2" horiz-adv-x="405" d="M364 175 L363 164 C359 126 331 100 292 100 L162 100 C283 189 358 253 358 355 C358 446 306 506 229 506 C170 506 106 448 71 360 L83 352 C102 400 141 432 179 432 C219 432 246 387 246 320 C246 147 158 123 26 23 L26 1 L365 1 L370 51 L371 51 C374 88 378 138 381 176 L364 175 L364 175 Z " />
<glyph glyph-name="three" unicode="3" horiz-adv-x="386" d="M74 170 C168 170 231 116 231 36 C231 -98 148 -193 23 -202 L24 -215 C211 -201 336 -99 336 41 C336 133 262 197 148 208 C244 257 302 318 302 374 C302 453 256 505 188 505 C114 505 42 453 8 375 L21 370 C37 406 83 430 135 430 C175 430 202 395 202 342 C202 285 150 228 68 192 C55 187 39 181 21 174 L21 157 C35 161 61 169 73 169 L74 170 L74 170 Z " />
<glyph glyph-name="four" unicode="4" horiz-adv-x="370" d="M287 489 L278 505 C278 505 209 382 197 312 C138 211 67 97 33 43 L32 43 L32 42 C20 23 13 12 13 12 L13 -1 L195 -1 L195 -151 L295 -151 L295 -1 L360 -1 L360 43 L295 43 L295 442 C306 468 308 481 295 474 L295 504 L289 504 C290 501 289 495 287 487 L287 489 L287 489 Z M60 42 C92 92 146 178 195 260 L195 42 L60 42 L60 42 Z M289 503 L278 503 C284 506 288 506 289 503 L289 503 Z " />
<glyph glyph-name="five" unicode="5" horiz-adv-x="372" d="M65 184 L81 184 C165 184 221 130 221 49 C221 -74 145 -161 30 -167 L31 -182 C206 -172 322 -67 322 82 C322 203 246 283 131 283 L97 283 C99 317 101 356 103 393 L276 393 L310 499 C318 525 327 552 334 574 L319 574 L315 563 C302 525 268 499 229 499 L76 499 C76 404 64 183 64 183 L65 184 L65 184 Z M91 210 C90 194 89 182 88 182 C88 182 89 192 90 209 L91 210 L91 210 Z " />
<glyph glyph-name="six" unicode="6" horiz-adv-x="488" d="M412 715 C199 708 57 540 57 295 C57 115 133 -5 247 -5 C369 -5 445 83 438 216 C438 345 374 431 278 431 C229 431 194 400 173 347 C178 554 273 694 412 699 L412 715 L412 715 Z M262 404 C305 404 333 327 333 212 C339 99 309 24 258 24 C206 24 171 95 171 201 C173 323 203 404 262 404 L262 404 Z " />
<glyph glyph-name="seven" unicode="7" horiz-adv-x="361" d="M30 323 L31 334 C35 372 63 398 102 398 L311 398 L81 -140 L192 -140 C245 70 298 280 351 490 L344 500 L30 500 L26 449 L26 449 C23 411 19 361 16 323 L30 323 L30 323 Z " />
<glyph glyph-name="eight" unicode="8" horiz-adv-x="458" d="M298 365 C346 389 376 451 376 531 L375 531 C375 620 317 680 229 680 C140 680 80 609 80 502 C80 434 105 373 147 333 C88 308 52 247 52 166 C52 64 123 -4 230 -4 C337 -4 408 71 408 183 C408 256 366 324 298 366 L298 365 L298 365 Z M280 377 C269 383 258 388 246 392 C197 410 165 470 165 542 C165 612 189 659 224 659 C266 659 294 602 294 516 C294 450 289 400 281 376 L280 377 L280 377 Z M149 181 C149 238 159 284 176 312 C187 304 199 298 212 293 C274 270 316 212 316 148 C316 69 284 17 237 17 C184 17 149 83 149 181 L149 181 Z " />
<glyph glyph-name="nine" unicode="9" horiz-adv-x="488" d="M76 -215 C289 -208 431 -40 431 205 C431 385 355 505 241 505 C119 505 43 417 50 284 C50 155 114 69 210 69 C259 69 294 100 315 153 C310 -54 215 -194 76 -199 L76 -215 L76 -215 Z M226 96 C183 96 155 173 155 288 C149 401 179 476 230 476 C282 476 317 405 317 299 C315 177 285 96 226 96 L226 96 Z " />
<glyph glyph-name="colon" unicode="&#x3a;" horiz-adv-x="257" d="M125 403 C168 403 197 432 197 475 C197 518 168 547 125 547 C82 547 53 518 53 475 C53 432 82 403 125 403 L125 403 Z M125 -5 C168 -5 197 24 197 67 C197 110 168 139 125 139 C82 139 53 110 53 67 C53 24 82 -5 125 -5 L125 -5 Z " />
<glyph glyph-name="semicolon" unicode="&#x3b;" horiz-adv-x="267" d="M132 402 C175 402 204 431 204 475 C204 518 175 547 132 547 C89 547 60 518 60 475 C60 431 89 402 132 402 L132 402 Z M132 139 C89 139 60 110 60 67 C60 24 89 -5 132 -5 C139 -5 147 2 155 12 C170 -58 132 -125 86 -145 L86 -161 C165 -127 218 -48 218 36 C218 86 187 139 133 139 L132 139 L132 139 Z " />
<glyph glyph-name="less" unicode="&#x3c;" horiz-adv-x="459" d="M384 500 L50 304 C47 304 43 298 40 298 L40 252 C154 184 269 118 384 51 L384 101 L76 276 L384 451 L384 500 L384 500 Z " />
<glyph glyph-name="equal" unicode="&#x3d;" horiz-adv-x="454" d="M86 222 L86 178 L384 178 L384 222 L86 222 L86 222 Z M86 322 L86 278 L384 278 L384 322 L86 322 L86 322 Z " />
<glyph glyph-name="greater" unicode="&#x3e;" horiz-adv-x="449" d="M75 50 C186 118 298 185 409 253 L409 297 C406 297 401 304 398 304 L75 500 L75 450 L373 275 L76 100 L75 50 L75 50 Z " />
<glyph glyph-name="question" unicode="&#x3f;" horiz-adv-x="290" d="M115 -5 C158 -5 187 24 187 67 C187 110 158 139 115 139 C72 139 43 110 43 67 C43 24 72 -5 115 -5 L115 -5 Z M96 680 C96 680 96 680 96 679 L96 680 L96 680 Z M96 680 C61 680 37 654 37 615 C37 589 54 571 80 571 C94 571 113 602 127 602 C190 602 232 539 232 444 C232 422 217 383 136 383 L101 383 C91 383 85 377 86 368 L108 221 L122 221 L135 307 L170 307 C241 307 255 388 255 433 C255 581 191 680 96 680 L96 680 Z " />
<glyph glyph-name="at" unicode="&#x40;" horiz-adv-x="1047" d="M919 0 C853 -141 703 -235 543 -235 C297 -235 133 -37 133 259 C133 555 289 753 524 753 C759 753 915 589 915 343 C915 143 849 9 749 9 C672 9 640 85 669 200 L739 480 L644 480 L627 412 C612 460 575 490 526 490 C363 490 254 370 254 190 C254 80 313 6 401 6 C469 6 529 43 566 104 C576 23 635 -26 730 -26 C887 -26 991 122 991 343 C991 606 804 781 523 781 C242 781 55 572 55 259 C55 -54 250 -263 542 -263 C714 -263 877 -158 951 0 L919 0 L919 0 Z M612 356 L573 200 C552 117 504 61 452 61 C399 61 364 120 364 209 C364 361 428 462 524 462 C577 462 612 419 612 356 L612 356 Z " />
<glyph glyph-name="A" unicode="A" horiz-adv-x="610" d="M-3 0 L215 0 L215 15 L189 15 C141 15 118 47 132 95 L132 95 L172 238 L346 238 C363 185 380 132 396 80 C409 41 391 15 352 15 L317 15 L317 0 L604 0 L604 15 C562 15 532 36 516 80 L516 80 L299 690 L271 690 L89 73 C75 38 44 15 8 15 L-4 15 L-3 0 L-3 0 Z M336 267 L180 267 L253 525 L336 267 L336 267 Z " />
<glyph glyph-name="B" unicode="B" horiz-adv-x="565" d="M37 660 L48 660 C86 660 112 634 112 595 L112 80 C112 41 86 15 48 15 L37 15 L37 0 L302 0 C448 0 545 75 545 187 C545 282 472 349 357 364 C439 386 490 441 490 515 C490 610 407 674 283 674 L37 674 L37 660 L37 660 Z M223 370 L223 646 L283 646 C341 646 379 594 379 515 C379 427 336 369 271 369 L223 370 L223 370 Z M223 345 L271 345 C366 345 429 281 429 186 C429 91 374 27 291 27 L223 27 L223 345 L223 345 Z " />
<glyph glyph-name="C" unicode="C" horiz-adv-x="636" d="M569 67 L569 67 L569 67 Z M563 204 C559 193 554 178 550 167 C520 81 446 23 366 23 C248 23 169 149 169 338 C169 526 248 652 366 652 C378 652 391 651 404 649 C466 638 523 582 549 508 C553 497 558 482 562 471 L575 471 L575 621 C514 656 430 680 365 680 C173 680 45 543 45 338 C45 132 173 -5 365 -5 C430 -5 514 19 575 54 L575 204 L563 204 L563 204 Z " />
<glyph glyph-name="D" unicode="D" horiz-adv-x="660" d="M37 660 L48 660 C86 660 112 634 112 595 L112 80 C112 41 86 15 48 15 L37 15 L37 0 L308 0 C489 0 610 135 610 338 C610 540 481 675 287 675 L37 675 L37 660 L37 660 Z M223 28 L223 647 L287 647 C414 647 499 523 499 338 C499 152 423 28 308 28 L223 28 L223 28 Z " />
<glyph glyph-name="E" unicode="E" horiz-adv-x="575" d="M395 261 L395 449 L383 449 L379 438 C367 400 326 374 275 374 L226 374 L226 647 L308 647 C368 647 421 607 441 547 L452 512 L463 512 L463 675 L40 675 L40 660 L51 660 C89 660 115 634 115 595 L115 80 C115 41 89 15 51 15 L40 15 L40 0 L465 0 L467 14 C475 59 485 118 493 163 L482 163 L465 128 C435 68 375 28 315 28 L226 28 L226 346 L275 346 C326 346 367 317 379 274 L383 261 L395 261 L395 261 Z " />
<glyph glyph-name="F" unicode="F" horiz-adv-x="490" d="M40 660 L51 660 C89 660 115 634 115 595 L115 80 C115 41 89 15 51 15 L40 15 L40 0 L311 0 L311 15 L291 15 C252 15 226 41 226 80 L226 341 L265 341 C316 341 357 312 369 269 L373 256 L385 256 L385 444 L373 444 L369 433 C357 395 316 369 265 369 L226 369 L226 647 L338 647 C398 647 451 607 471 547 L482 512 L493 512 L493 675 L40 675 L40 660 L40 660 Z " />
<glyph glyph-name="G" unicode="G" horiz-adv-x="732" d="M556 471 L556 621 C495 656 415 680 356 680 C170 680 46 543 46 338 C46 132 170 -5 356 -5 C418 -5 501 19 562 54 L562 237 C562 276 588 302 626 302 L637 302 L637 317 L387 317 L387 302 L398 302 C436 302 462 276 462 237 L462 42 C425 30 387 23 356 23 C244 23 169 149 169 338 C169 526 244 652 356 652 C357 652 373 652 373 651 C439 646 502 589 530 509 C534 498 539 482 543 471 L556 471 L556 471 Z " />
<glyph glyph-name="H" unicode="H" horiz-adv-x="702" d="M662 15 L651 15 C613 15 587 41 587 80 L587 595 C587 634 613 660 651 660 L662 660 L662 675 L400 675 L400 660 L411 660 C449 660 475 634 475 595 L475 369 L226 369 L226 595 C226 634 252 660 290 660 L301 660 L301 675 L40 675 L40 660 L51 660 C89 660 115 634 115 595 L115 80 C115 41 89 15 51 15 L40 15 L40 0 L301 0 L301 15 L290 15 C252 15 226 41 226 80 L226 341 L475 341 L475 80 C475 41 449 15 411 15 L400 15 L400 0 L662 0 L662 15 L662 15 Z " />
<glyph glyph-name="I" unicode="I" horiz-adv-x="341" d="M301 15 L290 15 C252 15 226 41 226 80 L226 595 C226 634 252 660 290 660 L301 660 L301 675 L40 675 L40 660 L51 660 C89 660 115 634 115 595 L115 80 C115 41 89 15 51 15 L40 15 L40 0 L301 0 L301 15 L301 15 Z " />
<glyph glyph-name="J" unicode="J" horiz-adv-x="377" d="M337 675 L76 675 L76 660 L87 660 C125 660 151 634 151 595 L151 205 C151 66 145 12 129 12 C111 12 97 30 94 56 C91 82 71 100 44 100 C15 100 -3 82 0 56 C4 16 45 -10 101 -10 C218 -10 263 76 263 298 C262 299 262 487 262 597 C263 635 289 660 326 660 L337 660 L337 675 L337 675 Z " />
<glyph glyph-name="K" unicode="K" horiz-adv-x="589" d="M298 675 L37 675 L37 660 L48 660 C86 660 112 634 112 595 L112 80 C112 41 86 15 48 15 L37 15 L37 0 L298 0 L298 15 L287 15 C249 15 223 41 223 80 L223 363 C223 363 275 265 354 117 C401 29 453 -5 540 -5 L579 -5 L579 17 C532 17 491 68 415 210 C361 311 320 389 299 428 C335 484 371 540 408 595 C433 634 476 660 514 660 L525 660 L525 675 L354 675 L354 660 L364 660 C397 660 402 634 376 595 L376 595 L284 456 L284 456 L223 363 L223 595 C223 634 249 660 287 660 L298 660 L298 675 L298 675 Z " />
<glyph glyph-name="L" unicode="L" horiz-adv-x="575" d="M477 178 L451 118 C428 64 378 28 324 28 L226 28 L226 595 C226 634 252 660 290 660 L301 660 L301 675 L40 675 L40 660 L51 660 C89 660 115 634 115 595 L115 80 C115 41 89 15 51 15 L40 15 L40 0 L464 0 L466 14 L467 14 C476 61 487 123 495 170 C489 173 477 178 477 178 L477 178 Z " />
<glyph glyph-name="M" unicode="M" horiz-adv-x="799" d="M35 0 L252 0 L252 15 L223 15 C175 15 144 47 146 95 L146 95 L162 527 C227 350 292 172 357 -5 L385 -5 L588 572 L602 73 C600 38 576 15 540 15 L529 15 L529 0 L789 0 L789 15 L778 15 C743 15 717 37 712 71 C705 245 696 420 689 594 C687 633 711 659 748 659 L759 659 L759 674 L585 674 L408 145 L221 674 L60 674 L60 659 L71 659 C109 659 133 633 132 594 L113 75 C110 38 84 14 47 14 L36 14 L35 0 L35 0 Z M408 145 L408 145 L408 145 Z " />
<glyph glyph-name="N" unicode="N" horiz-adv-x="637" d="M39 660 L50 660 C88 660 114 634 114 595 L114 80 C114 41 88 15 50 15 L39 15 L39 0 L222 0 L222 15 L211 15 C173 15 147 41 147 80 L147 567 C256 371 364 175 474 -20 L522 -20 L522 595 C522 634 548 660 586 660 L597 660 L597 675 L414 675 L414 660 L425 660 C463 660 489 634 489 595 L489 172 L213 675 L39 675 L39 660 L39 660 Z " />
<glyph glyph-name="O" unicode="O" horiz-adv-x="677" d="M169 338 C169 508 226 652 337 652 C448 652 505 508 505 338 C505 168 448 23 337 23 C226 23 169 168 169 338 L169 338 Z M46 338 C46 153 145 -5 337 -5 C528 -5 627 153 627 338 C627 523 528 680 337 680 C145 680 46 523 46 338 L46 338 Z " />
<glyph glyph-name="P" unicode="P" horiz-adv-x="518" d="M298 15 L287 15 C249 15 223 41 223 80 L223 301 L272 301 C408 301 498 376 498 488 C498 600 412 675 284 675 L37 675 L37 660 L48 660 C86 660 112 634 112 595 L112 80 C112 41 86 15 48 15 L37 15 L37 0 L298 0 L298 15 L298 15 Z M223 329 L223 647 L284 647 C343 647 382 583 382 488 C382 393 338 329 272 329 L223 329 L223 329 Z " />
<glyph glyph-name="Q" unicode="Q" horiz-adv-x="677" d="M683 -42 L673 -34 C659 -53 608 -65 544 -65 C456 -65 392 -41 348 -5 C532 1 627 156 627 337 C627 522 528 679 337 679 C145 679 46 522 46 337 C46 162 135 11 307 -5 C390 -86 469 -138 532 -138 C580 -138 641 -100 683 -43 L683 -42 L683 -42 Z M169 337 C169 507 226 651 337 651 C448 651 505 507 505 337 C505 167 448 22 337 22 C226 22 169 167 169 337 L169 337 Z " />
<glyph glyph-name="R" unicode="R" horiz-adv-x="591" d="M37 660 L48 660 C86 660 112 634 112 595 L112 80 C112 41 86 15 48 15 L37 15 L37 0 L298 0 L298 15 L287 15 C249 15 223 41 223 80 L223 320 L244 320 C266 281 308 205 362 106 C418 4 426 0 552 0 L591 0 L591 22 C549 22 548 23 514 85 C442 216 389 304 370 336 C448 362 496 422 496 501 C496 606 411 676 284 676 L38 676 L37 660 L37 660 Z M272 349 L224 349 L224 648 L284 648 C342 648 380 589 380 501 C380 410 337 349 272 349 L272 349 Z " />
<glyph glyph-name="S" unicode="S" horiz-adv-x="430" d="M344 475 L344 633 C295 661 245 680 219 680 C113 680 42 599 42 477 C42 406 92 334 167 297 C251 256 307 194 307 141 C307 70 265 23 202 23 C150 23 95 79 66 163 C62 174 57 189 53 200 L40 200 L40 42 L50 59 L50 59 L40 42 C89 14 154 -5 202 -5 C312 -5 385 71 385 186 C385 261 330 338 247 378 C170 415 119 473 119 522 C119 601 157 653 214 653 C218 653 226 650 237 645 C263 631 286 601 299 563 C308 536 321 501 330 474 L344 475 L344 475 Z " />
<glyph glyph-name="T" unicode="T" horiz-adv-x="539" d="M139 0 L400 0 L400 15 L389 15 C351 15 325 41 325 80 L325 647 L388 647 C436 647 482 615 501 567 L529 497 L541 497 C537 546 531 612 527 661 L526 675 L13 675 L12 661 C8 612 2 546 -2 497 L10 497 L38 567 C57 615 103 647 151 647 L214 647 L214 80 C214 41 188 15 150 15 L139 15 L139 0 L139 0 Z " />
<glyph glyph-name="U" unicode="U" horiz-adv-x="607" d="M587 675 L379 675 L379 660 L394 660 C437 660 466 633 469 591 L468 195 C468 98 427 34 322 34 C244 34 213 98 213 193 L213 595 C213 634 239 660 277 660 L288 660 L288 675 L27 675 L27 660 L38 660 C76 660 102 634 102 595 L102 215 C102 83 159 -5 306 -5 C447 -5 502 71 502 184 L502 585 C502 630 531 660 574 660 L587 660 L587 675 L587 675 Z " />
<glyph glyph-name="V" unicode="V" horiz-adv-x="649" d="M274 675 L-3 675 L-3 660 C35 660 64 639 80 595 L80 595 L305 -15 L333 -15 L509 601 C521 637 553 661 589 661 L601 661 L601 676 L377 676 L377 661 L398 661 C455 661 482 623 466 566 L466 566 L348 142 L198 601 C189 637 207 660 244 660 L274 660 L274 675 L274 675 Z " />
<glyph glyph-name="W" unicode="W" horiz-adv-x="851" d="M267 675 L-1 675 L-1 660 C37 660 64 639 78 595 L78 595 L262 -15 L290 -15 L461 685 L433 685 L303 153 L195 601 C190 636 210 659 247 659 L268 659 L267 675 L267 675 Z M828 674 L619 674 L619 659 L656 659 C692 659 712 637 708 603 L565 -16 L593 -16 L738 594 C747 633 779 659 817 659 L828 659 L828 674 L828 674 Z M565 -16 L606 163 L462 684 L416 494 L565 -16 L565 -16 Z " />
<glyph glyph-name="X" unicode="X" horiz-adv-x="598" d="M298 675 L23 675 L23 660 C58 660 84 643 106 604 L247 320 L128 75 C108 39 71 15 34 15 L22 15 L22 0 L232 0 L232 15 L209 15 C162 15 145 45 164 91 L259 295 C294 224 330 152 365 81 C384 42 372 16 333 16 L305 16 L305 1 L580 1 L580 16 C545 16 519 33 497 72 L342 384 L440 605 C459 639 494 661 529 661 L540 661 L540 676 L329 676 L329 661 L368 661 C407 661 421 635 405 596 L405 596 L328 412 C298 473 267 535 237 596 C218 635 230 661 269 661 L297 661 L298 675 L298 675 Z " />
<glyph glyph-name="Y" unicode="Y" horiz-adv-x="574" d="M275 675 L4 675 L4 660 C38 660 66 641 87 601 L230 299 L230 80 C230 41 204 15 166 15 L155 15 L155 0 L416 0 L416 15 L405 15 C367 15 341 41 341 80 L341 343 L479 601 C503 642 535 661 576 661 L576 676 L376 676 L376 661 L393 661 C441 661 459 631 439 586 L321 360 L216 604 C204 639 220 662 256 662 L275 662 L275 675 L275 675 Z " />
<glyph glyph-name="Z" unicode="Z" horiz-adv-x="511" d="M434 179 L408 119 C385 65 335 29 281 29 L173 29 L448 675 L92 675 L88 661 L87 661 C77 621 63 567 52 527 L64 527 L91 567 C123 615 177 647 225 647 L310 647 L37 0 L421 0 L424 14 L425 14 C433 61 444 124 452 171 C446 174 434 179 434 179 L434 179 Z " />
<glyph glyph-name="bracketleft" unicode="&#x5b;" horiz-adv-x="260" d="M145 653 L250 653 L250 675 L68 675 L68 -120 L250 -120 L250 -98 L145 -98 L145 653 L145 653 Z " />
<glyph glyph-name="backslash" unicode="&#x5c;" horiz-adv-x="260" d="M225 -145 L260 -145 L-25 725 L-60 725 L225 -145 L225 -145 Z " />
<glyph glyph-name="bracketright" unicode="&#x5d;" horiz-adv-x="257" d="M109 653 L109 -98 L4 -98 L4 -120 L187 -120 L187 675 L4 675 L4 653 L109 653 L109 653 Z " />
<glyph glyph-name="asciicircum" unicode="&#x5e;" horiz-adv-x="238" d="M151 717 C148 725 137 745 119 745 C102 745 92 725 88 717 C88 717 -11 511 14 540 L25 532 C64 579 97 619 119 646 C157 601 214 533 214 533 L224 541 C224 541 214 589 151 718 L151 717 L151 717 Z " />
<glyph glyph-name="underscore" unicode="&#x5f;" horiz-adv-x="272" d="M5 -50 L5 -106 L267 -106 L267 -50 L5 -50 L5 -50 Z " />
<glyph glyph-name="grave" unicode="&#x60;" horiz-adv-x="238" d="M35 704 C35 697 50 679 73 655 C105 615 191 530 191 530 L203 539 C203 539 156 654 124 695 C109 726 97 746 92 746 C75 746 35 717 35 704 L35 704 Z " />
<glyph glyph-name="a" unicode="a" horiz-adv-x="424" d="M402 55 C393 45 380 38 355 38 C325 38 316 64 316 103 C316 256 315 354 315 354 C315 445 273 505 210 505 C129 505 66 460 53 392 L153 392 C163 443 177 477 189 477 C202 477 210 437 210 376 L210 257 C198 254 185 251 172 248 C90 228 35 170 35 104 C35 39 67 -5 115 -5 C147 -5 183 12 215 40 C224 9 245 -10 286 -10 C351 -10 387 10 413 41 L402 55 L402 55 Z M209 226 L209 92 C209 85 209 79 209 73 C194 67 178 64 162 64 C145 64 134 92 134 133 C134 177 150 211 174 217 C188 220 200 223 210 226 L209 226 L209 226 Z " />
<glyph glyph-name="b" unicode="b" horiz-adv-x="519" d="M17 664 L28 662 C82 651 92 638 92 583 L92 0 L103 0 C113 18 132 30 152 30 C187 30 220 -5 267 -5 C385 -5 464 97 464 250 C464 403 404 505 314 505 C256 505 207 488 192 462 L192 720 L172 720 L17 673 L17 664 L17 664 Z M267 23 C222 23 192 81 192 167 L192 446 C197 455 215 461 237 461 C310 461 358 360 358 208 C358 97 322 23 267 23 L267 23 Z " />
<glyph glyph-name="c" unicode="c" horiz-adv-x="430" d="M379 70 L370 81 C352 66 323 56 298 56 C213 56 156 141 156 269 C156 394 188 477 235 477 C261 477 281 448 285 404 C288 374 308 354 335 354 C362 354 380 372 380 399 C374 463 321 505 246 505 C128 505 50 395 50 230 C50 89 116 -5 215 -5 C260 -5 325 25 379 70 L379 70 Z " />
<glyph glyph-name="d" unicode="d" horiz-adv-x="526" d="M241 664 L252 662 C306 651 316 638 316 583 L316 470 C295 491 270 505 245 505 C130 505 54 391 54 220 C54 85 114 -5 205 -5 C233 -5 276 19 316 56 L316 0 L336 0 L491 47 L491 56 L480 58 C426 69 416 82 416 137 L416 720 L396 720 L241 673 L241 664 L241 664 Z M316 71 C303 62 282 56 261 56 C200 56 160 137 160 259 C160 390 192 478 241 478 C269 478 298 456 317 426 L316 71 L316 71 Z " />
<glyph glyph-name="e" unicode="e" horiz-adv-x="436" d="M385 70 L376 81 C358 66 328 56 301 56 C214 56 156 141 156 269 C156 283 156 296 157 309 L386 309 C386 427 325 505 234 505 C124 505 50 395 50 230 C50 89 117 -5 218 -5 C265 -5 331 25 385 70 L385 70 Z M292 393 C292 365 274 344 246 340 L158 328 C166 419 192 476 228 476 C266 476 292 442 292 392 L292 393 L292 393 Z " />
<glyph glyph-name="f" unicode="f" horiz-adv-x="378" d="M262 15 L251 15 C213 15 187 41 187 80 L187 461 L267 461 L267 500 L187 500 L187 533 C187 632 229 698 247 698 C263 698 276 680 278 654 C280 627 300 609 328 609 C355 609 373 627 373 654 C370 694 330 720 275 720 C166 720 93 654 93 555 C89 555 87 500 87 500 L45 500 L45 461 L87 461 L87 80 C87 41 61 15 23 15 L12 15 L12 0 L262 0 L262 15 L262 15 Z " />
<glyph glyph-name="g" unicode="g" horiz-adv-x="395" d="M395 500 L268 481 C247 496 221 504 192 504 C111 504 57 441 57 346 C57 277 85 225 132 202 C77 192 43 151 43 94 C43 46 72 10 119 -4 C58 -36 18 -85 18 -130 L85 -118 C85 -69 107 -27 141 -9 C149 -10 157 -11 166 -11 C166 -11 211 -8 192 -8 C259 -8 303 -39 303 -86 C303 -164 244 -216 156 -216 C113 -216 85 -177 85 -119 L18 -130 C18 -198 69 -244 145 -244 C283 -244 375 -160 375 -35 C375 38 313 87 219 87 L161 83 C131 83 111 103 111 132 C111 165 130 187 159 187 L192 187 C272 187 326 250 326 345 C326 382 318 414 303 440 L395 441 L395 500 L395 500 Z M192 208 C168 208 152 262 152 344 C152 426 168 480 192 480 C216 480 232 426 232 344 C232 262 216 208 192 208 L192 208 Z " />
<glyph glyph-name="h" unicode="h" horiz-adv-x="551" d="M511 15 L500 15 C462 15 436 41 436 80 L436 338 C436 438 412 505 352 505 C300 505 249 482 219 446 L219 720 L199 720 L44 673 L44 664 L55 662 C109 651 119 638 119 583 L119 80 C119 41 93 15 55 15 L44 15 L44 0 L511 0 L511 15 L511 15 Z M277 15 C242 17 218 42 218 79 L218 428 C230 434 250 437 273 437 C318 437 335 393 335 326 L335 79 C335 42 311 17 276 15 L277 15 L277 15 Z " />
<glyph glyph-name="i" unicode="i" horiz-adv-x="340" d="M164 570 C204 570 231 597 231 637 C231 677 204 703 164 703 C124 703 98 677 98 637 C98 597 124 570 164 570 L164 570 Z M295 15 L284 15 C246 15 220 41 220 80 L220 500 L200 500 L45 453 L45 444 L56 442 C110 431 120 418 120 363 L120 80 C120 41 94 15 56 15 L45 15 L45 0 L295 0 L295 15 L295 15 Z " />
<glyph glyph-name="j" unicode="j" horiz-adv-x="284" d="M148 570 C188 570 215 597 215 637 C215 677 188 703 148 703 C108 703 82 677 82 637 C82 597 108 570 148 570 L148 570 Z M29 444 L40 442 C92 431 103 418 104 367 C104 227 104 -1 103 0 C103 -155 87 -195 38 -225 L48 -238 C165 -165 204 -114 204 28 L204 499 L184 499 L29 452 L29 444 L29 444 Z " />
<glyph glyph-name="k" unicode="k" horiz-adv-x="493" d="M459 500 L277 500 L277 485 L287 485 C341 485 295 420 295 420 L192 275 L192 720 L172 720 L17 673 L17 664 L28 662 C82 651 92 638 92 583 L92 80 C92 41 66 15 28 15 L17 15 L17 0 L524 0 L524 15 L513 15 C475 15 434 41 412 80 L264 338 C286 365 308 393 331 420 C363 459 410 485 448 485 L459 485 L459 500 L459 500 Z M256 15 C218 15 192 41 192 80 L192 275 L297 73 C312 38 302 15 269 15 L256 15 L256 15 Z " />
<glyph glyph-name="l" unicode="l" horiz-adv-x="340" d="M295 15 L284 15 C246 15 220 41 220 80 L220 720 L200 720 L45 673 L45 664 L56 662 C110 651 120 638 120 583 L120 80 C120 41 94 15 56 15 L45 15 L45 0 L295 0 L295 15 L295 15 Z " />
<glyph glyph-name="m" unicode="m" horiz-adv-x="788" d="M748 15 L737 15 C699 15 673 41 673 80 L673 338 C673 438 634 505 582 505 C513 505 459 478 431 438 C415 480 389 505 358 505 C297 505 248 482 219 447 L219 501 L199 501 L44 454 L44 445 L55 443 C109 432 119 419 119 364 L119 81 C119 42 93 16 55 16 L44 16 L44 1 L748 1 L748 15 L748 15 Z M510 16 C472 16 446 42 446 81 L446 339 C446 370 442 398 435 422 C446 432 470 439 503 439 C542 439 572 395 572 328 L572 81 C572 42 546 16 508 16 L510 16 L510 16 Z M281 16 C243 16 217 42 217 81 L217 432 C230 440 251 445 279 445 C317 445 345 398 345 328 L345 81 C345 42 319 16 281 16 L281 16 Z " />
<glyph glyph-name="n" unicode="n" horiz-adv-x="543" d="M511 15 L500 15 C462 15 436 41 436 80 L436 338 C436 438 412 505 352 505 C300 505 249 482 219 446 L219 500 L199 500 L44 453 L44 444 L55 442 C109 431 119 418 119 363 L119 80 C119 41 93 15 55 15 L44 15 L44 0 L511 0 L511 15 L511 15 Z M277 15 C242 17 218 42 218 79 L218 428 C230 434 250 437 273 437 C318 437 335 393 335 326 L335 79 C335 42 311 17 276 15 L277 15 L277 15 Z " />
<glyph glyph-name="o" unicode="o" horiz-adv-x="498" d="M137 250 C137 390 177 483 237 483 C296 483 336 390 336 250 C336 110 296 17 237 17 C177 17 137 110 137 250 L137 250 Z M26 250 C26 97 110 -5 237 -5 C364 -5 448 97 448 250 C448 403 364 505 237 505 C110 505 26 403 26 250 L26 250 Z " />
<glyph glyph-name="p" unicode="p" horiz-adv-x="523" d="M270 -215 L259 -215 C221 -215 195 -189 195 -150 L195 12 C218 1 245 -5 275 -5 C402 -5 486 104 486 267 C486 410 426 505 336 505 C274 505 221 481 195 442 L195 500 L175 500 L20 453 L20 444 L31 442 C85 431 95 418 95 363 L95 -150 C95 -189 69 -215 31 -215 L20 -215 L20 -230 L270 -230 L270 -215 L270 -215 Z M195 135 L195 419 C208 430 230 437 256 437 C332 437 383 339 383 191 C383 90 339 22 273 22 C231 22 200 67 194 134 L195 135 L195 135 Z " />
<glyph glyph-name="q" unicode="q" horiz-adv-x="501" d="M472 -215 L461 -215 C423 -215 397 -189 397 -150 L397 500 L386 500 C376 482 352 470 324 470 C294 470 264 505 223 505 C111 505 36 391 36 220 C36 85 92 -5 175 -5 C206 -5 253 21 297 61 L297 -151 C297 -190 271 -216 233 -216 L222 -216 L222 -231 L472 -231 L472 -215 L472 -215 Z M297 78 C280 64 253 55 229 55 C175 55 139 136 139 258 C139 389 172 476 222 476 C266 476 296 418 296 332 L297 78 L297 78 Z " />
<glyph glyph-name="r" unicode="r" horiz-adv-x="399" d="M28 444 L39 442 C93 431 103 418 103 363 L103 80 C103 41 77 15 39 15 L28 15 L28 0 L278 0 L278 15 L267 15 C229 15 203 41 203 80 L203 421 C212 427 226 431 241 431 C271 431 311 392 341 392 C370 392 389 411 389 440 C389 479 370 505 320 505 C273 505 229 480 203 441 L203 500 L183 500 L28 453 L28 444 L28 444 Z " />
<glyph glyph-name="s" unicode="s" horiz-adv-x="341" d="M268 359 L268 465 C226 489 196 505 191 505 C109 505 54 449 54 366 C54 315 90 254 143 215 C181 187 207 145 207 112 C207 56 184 18 150 18 C147 18 141 20 132 24 C111 37 87 72 68 119 C65 127 60 138 57 146 L46 146 L46 30 C82 9 122 -5 144 -5 C232 -5 291 57 291 149 C291 196 260 251 214 285 C164 322 131 368 131 400 C131 450 155 483 191 483 C184 483 184 479 190 473 L190 483 C196 483 204 476 212 463 C208 464 204 464 200 464 C205 460 211 456 219 451 C231 430 247 391 255 359 L268 359 L268 359 Z M190 473 C193 471 196 468 200 465 C197 465 194 465 191 465 L190 473 L190 473 Z " />
<glyph glyph-name="t" unicode="t" horiz-adv-x="339" d="M307 500 L172 500 L172 640 L155 640 C111 546 59 479 25 472 L25 461 L72 461 L72 118 C72 22 94 -5 173 -5 C238 -5 281 16 319 48 L312 57 C300 47 276 40 222 40 C182 40 171 53 171 100 C171 208 172 461 172 461 L307 461 L307 500 L307 500 Z " />
<glyph glyph-name="u" unicode="u" horiz-adv-x="500" d="M481 56 L470 58 C416 69 406 82 406 137 L406 500 L231 500 L231 485 L242 485 C280 485 306 459 306 420 L306 82 C292 69 279 61 267 61 C216 61 189 103 189 165 L189 500 L14 500 L14 485 L25 485 C63 485 89 459 89 420 L89 420 L90 154 C90 59 124 -5 189 -5 C219 -5 261 23 306 66 L306 0 L326 0 L481 47 L481 56 L481 56 Z " />
<glyph glyph-name="v" unicode="v" horiz-adv-x="521" d="M247 500 L-13 500 L-13 485 L-1 485 C37 485 71 459 85 420 L85 420 L238 -10 L254 -10 C303 133 351 277 400 420 C413 459 448 485 486 485 L497 485 L497 500 L319 500 L319 485 L330 485 C365 485 381 459 369 420 L369 420 L282 136 L193 429 C186 463 202 485 235 485 L246 485 L247 500 L247 500 Z " />
<glyph glyph-name="w" unicode="w" horiz-adv-x="760" d="M506 500 L10 500 L10 485 C49 485 77 464 93 420 L93 420 L246 -10 L263 -10 L356 331 L477 -10 L493 -10 C542 133 590 277 639 420 C652 459 687 485 725 485 L736 485 L736 500 L528 500 L528 485 L563 485 C602 485 620 459 608 420 L608 420 L521 136 L432 428 C425 463 444 485 480 485 L505 485 L506 500 L506 500 Z M254 485 C282 485 309 459 323 420 L323 420 C329 402 336 384 342 367 L283 137 C256 231 229 326 203 420 C191 463 212 485 255 485 L254 485 L254 485 Z " />
<glyph glyph-name="x" unicode="x" horiz-adv-x="482" d="M449 500 L17 500 L17 485 C56 485 87 464 108 420 L108 420 L198 232 L120 80 C100 41 61 15 22 15 L2 15 L2 0 L224 0 L224 15 L177 15 C138 15 125 41 144 80 L209 210 L276 71 C289 37 277 15 245 15 L235 15 L235 0 L475 0 L475 15 C441 15 415 36 394 80 L394 80 L277 325 L340 428 C364 462 402 484 438 484 L449 484 L449 500 L449 500 Z M265 484 L283 484 C321 484 334 462 318 427 L269 341 L228 426 C214 461 229 484 266 484 L265 484 L265 484 Z " />
<glyph glyph-name="y" unicode="y" horiz-adv-x="489" d="M263 500 L3 500 L3 485 L15 485 C53 485 87 459 101 420 L101 420 L248 6 C243 -8 234 -33 224 -64 C199 -137 181 -165 158 -165 C158 -165 108 -140 86 -140 C56 -140 36 -157 36 -182 C36 -211 60 -231 96 -231 C168 -231 211 -187 250 -73 C309 94 361 253 418 419 C431 458 466 484 504 484 L515 484 L515 499 L337 499 L337 484 L348 484 C383 484 399 458 387 419 L387 419 L300 135 L211 428 C204 462 220 484 253 484 L264 484 L263 500 L263 500 Z " />
<glyph glyph-name="z" unicode="z" horiz-adv-x="403" d="M340 173 L314 113 C291 59 241 23 187 23 L187 22 L167 22 L352 500 L70 500 L67 489 L67 489 C59 458 48 418 40 387 L52 387 L63 401 C99 447 156 477 204 477 L204 478 L227 478 L41 0 L327 0 L329 11 L330 11 C338 57 349 119 357 165 C351 168 339 173 339 173 L340 173 L340 173 Z " />
<glyph glyph-name="braceleft" unicode="&#x7b;" horiz-adv-x="197" d="M182 -120 L182 -103 L164 -103 C135 -103 116 -69 116 -18 L116 155 C116 220 90 266 49 277 C90 288 116 336 116 403 L116 572 C116 623 135 657 164 657 L182 657 L182 674 L142 674 C80 674 38 633 38 572 L38 347 C38 308 26 285 5 285 L5 268 C26 268 38 246 38 209 L38 -19 C38 -80 80 -121 142 -121 L182 -120 L182 -120 Z " />
<glyph glyph-name="bar" unicode="&#x7c;" horiz-adv-x="198" d="M60 770 L60 -234 L138 -234 L138 770 L60 770 L60 770 Z " />
<glyph glyph-name="braceright" unicode="&#x7d;" horiz-adv-x="197" d="M5 675 L5 658 L23 658 C52 658 71 624 71 573 L71 400 C71 335 97 289 138 278 C97 267 71 219 71 152 L71 -17 C71 -68 52 -102 23 -102 L5 -102 L5 -119 L45 -119 C107 -119 149 -78 149 -17 L149 208 C149 247 161 270 182 270 L182 287 C161 287 149 309 149 346 L149 574 C149 635 107 676 45 676 L5 675 L5 675 Z " />
<glyph glyph-name="asciitilde" unicode="&#x7e;" horiz-adv-x="238" d="M36 310 C36 345 44 368 56 368 C86 368 126 306 156 306 C194 306 219 357 219 433 L202 433 C202 396 192 372 177 372 C147 372 108 435 78 435 C43 435 20 385 20 310 L36 310 L36 310 Z " />
<glyph glyph-name="nbspace" unicode="&#xa0;" horiz-adv-x="130" d="" />
<glyph glyph-name="exclamdown" unicode="&#xa1;" horiz-adv-x="247" d="M115 505 C72 505 43 476 43 433 C43 390 72 361 115 361 C158 361 187 390 187 433 C187 476 158 505 115 505 L115 505 Z M60 -108 C55 -151 79 -180 121 -180 C164 -180 189 -151 182 -108 C182 128 121 286 121 286 L108 286 C108 286 60 128 60 -108 L60 -108 Z " />
<glyph glyph-name="cent" unicode="&#xa2;" horiz-adv-x="430" d="M214 575 L214 502 C114 484 50 380 50 230 C50 89 116 -5 214 -6 L214 -76 L248 -76 L248 -2 C289 8 337 34 379 69 L370 80 C339 54 288 47 248 66 L248 473 C267 465 281 439 284 403 C287 373 307 353 334 353 C361 353 379 371 379 398 C373 461 321 503 247 504 L247 574 L214 575 L214 575 Z M213 90 C177 126 155 188 155 267 C155 372 178 448 213 469 L213 90 L213 90 Z " />
<glyph glyph-name="guillemotleft" unicode="&#xab;" horiz-adv-x="316" d="M204 222 L204 222 L204 222 L204 222 Z M214 252 C238 320 292 479 268 455 L257 466 C207 416 122 255 122 255 L122 244 C151 172 260 34 260 34 L271 45 C271 45 272 104 215 252 L214 252 L214 252 Z M103 222 L103 222 L103 222 L103 222 Z M113 252 C137 320 191 479 167 455 L156 466 C106 416 21 255 21 255 L21 244 C50 172 159 34 159 34 L170 45 C170 45 171 104 114 252 L113 252 L113 252 Z " />
<glyph glyph-name="acute" unicode="&#xb4;" horiz-adv-x="238" d="M43 530 C43 530 127 615 158 655 C180 680 195 698 195 704 C195 717 155 746 138 746 C134 746 122 726 107 695 C76 655 32 539 32 539 L43 530 L43 530 Z " />
<glyph glyph-name="guillemotright" unicode="&#xbb;" horiz-adv-x="316" d="M56 34 C56 34 165 172 194 244 L194 255 C194 255 109 416 59 466 L48 455 C24 479 78 320 102 252 C45 104 46 45 46 45 L56 34 L56 34 Z M159 34 C159 34 268 172 297 244 L297 255 C297 255 212 416 162 466 L151 455 C127 479 181 320 205 252 C148 104 149 45 149 45 L159 34 L159 34 Z M114 222 L114 222 L114 222 L114 222 Z M216 222 L216 222 L216 222 L216 222 Z " />
<glyph glyph-name="onequarter" unicode="&#xbc;" horiz-adv-x="754" d="M293 646 C293 647 293 648 293 649 L294 649 L293 646 L293 646 Z M331 689 L251 689 L251 681 L250 681 L250 685 L170 685 L170 679 C188 679 199 675 205 662 L205 471 C205 449 190 439 168 439 L168 433 L205 433 L205 431 L290 431 L290 433 L329 433 L329 442 C307 442 292 452 292 475 L291 473 L290 473 L290 649 L293 649 C294 671 309 680 331 680 L331 689 L331 689 Z M143 -21 L657 664 L612 698 L97 13 L143 -21 L143 -21 Z M473 59 L521 59 L521 7 L606 7 L606 59 L639 59 L639 97 L606 97 L606 277 C609 285 609 289 605 287 L605 312 L595 312 C595 311 595 309 594 307 L591 312 L590 312 C590 312 552 248 532 194 C510 158 487 122 472 99 L471 99 L471 98 C464 87 457 74 455 74 L455 63 L470 63 L471 62 C471 62 471 62 470 63 L471 63 L473 59 L473 59 Z M496 99 C503 110 511 122 519 135 L519 99 L496 99 L496 99 Z M594 313 L590 313 L589 314 C592 316 593 316 593 314 L594 313 L594 313 Z " />
<glyph glyph-name="onehalf" unicode="&#xbd;" horiz-adv-x="754" d="M293 646 C293 647 293 648 293 649 L294 649 L293 646 L293 646 Z M331 689 L251 689 L251 681 L250 681 L250 685 L170 685 L170 679 C188 679 199 675 205 662 L205 471 C205 449 190 439 168 439 L168 433 L205 433 L205 431 L290 431 L290 433 L329 433 L329 442 C307 442 292 452 292 475 L291 473 L290 473 L290 649 L293 649 C294 671 309 680 331 680 L331 689 L331 689 Z M143 -21 L657 664 L612 698 L97 13 L143 -21 L143 -21 Z M638 134 C638 112 625 97 604 97 L602 95 L578 95 C616 127 638 154 638 189 C638 233 610 262 569 262 C539 262 506 228 485 177 L496 171 C510 206 545 217 545 163 C545 70 513 68 465 32 L465 13 L463 9 C465 10 467 11 469 12 L635 12 L642 94 C642 94 645 131 645 133 L638 134 L638 134 Z M470 12 C485 24 499 35 513 45 C498 29 483 15 470 13 L470 12 L470 12 Z " />
<glyph glyph-name="threequarters" unicode="&#xbe;" horiz-adv-x="754" d="M125 355 C224 363 290 410 290 473 C290 506 265 531 223 542 C262 566 285 593 285 618 C285 659 260 686 222 686 C183 686 143 653 122 604 L134 599 C140 613 158 623 179 623 C193 623 202 611 202 592 C202 576 195 561 183 548 C178 548 173 548 168 548 C174 548 178 548 181 547 C168 534 150 523 128 516 L128 513 C126 512 124 511 122 510 L122 496 C132 500 142 503 148 503 C178 503 199 489 199 468 C199 410 169 370 124 367 L125 356 L125 355 L125 355 Z M141 -25 L655 660 L610 694 L95 9 L141 -25 L141 -25 Z M473 54 L521 54 L521 2 L606 2 L606 54 L639 54 L639 92 L606 92 L606 272 C609 280 609 284 605 282 L605 307 L595 307 C595 306 595 304 594 302 L591 307 L590 307 C590 307 552 243 532 189 C510 153 487 117 472 94 L471 94 L471 93 C464 82 457 69 455 69 L455 58 L470 58 L471 57 C471 57 471 57 470 58 L471 58 L473 54 L473 54 Z M496 94 C503 105 511 117 519 130 L519 94 L496 94 L496 94 Z M594 308 L590 308 L589 309 C592 311 593 311 593 309 L594 308 L594 308 Z " />
<glyph glyph-name="questiondown" unicode="&#xbf;" horiz-adv-x="290" d="M175 505 C132 505 103 476 103 433 C103 390 132 361 175 361 C218 361 247 390 247 433 C247 476 218 505 175 505 L175 505 Z M194 -180 C194 -180 194 -180 194 -179 L194 -180 L194 -180 Z M194 -180 C229 -180 253 -154 253 -115 C253 -89 236 -71 210 -71 C196 -71 177 -102 163 -102 C100 -102 58 -39 58 56 C58 78 73 117 154 117 L189 117 C199 117 205 123 204 132 L182 279 L168 279 L155 193 L120 193 C49 193 35 112 35 67 C35 -81 99 -180 194 -180 L194 -180 Z " />
<glyph glyph-name="Agrave" unicode="&#xc0;" horiz-adv-x="610" d="M-3 0 L215 0 L215 15 L189 15 C141 15 118 47 132 95 L132 95 L172 238 L346 238 C363 185 380 132 396 80 C409 41 391 15 352 15 L317 15 L317 0 L604 0 L604 15 C562 15 532 36 516 80 L516 80 L299 690 L271 690 L89 73 C75 38 44 15 8 15 L-4 15 L-3 0 L-3 0 Z M201 879 C201 872 216 854 239 830 C271 790 357 705 357 705 L368 714 C368 714 322 830 290 870 C275 901 263 921 258 921 C241 921 201 892 201 879 L201 879 Z M336 267 L180 267 L253 525 L336 267 L336 267 Z " />
<glyph glyph-name="Aacute" unicode="&#xc1;" horiz-adv-x="610" d="M225 705 C225 705 309 790 340 830 C362 855 377 873 377 879 C377 892 337 921 320 921 C316 921 304 901 289 870 C258 830 214 714 214 714 L225 705 L225 705 Z M-3 0 L215 0 L215 15 L189 15 C141 15 118 47 132 95 L132 95 L172 238 L346 238 C363 185 380 132 396 80 C409 41 391 15 352 15 L317 15 L317 0 L604 0 L604 15 C562 15 532 36 516 80 L516 80 L299 690 L271 690 L89 73 C75 38 44 15 8 15 L-4 15 L-3 0 L-3 0 Z M336 267 L180 267 L253 525 L336 267 L336 267 Z " />
<glyph glyph-name="Acircumflex" unicode="&#xc2;" horiz-adv-x="610" d="M-3 0 L215 0 L215 15 L189 15 C141 15 118 47 132 95 L132 95 L172 238 L346 238 C363 185 380 132 396 80 C409 41 391 15 352 15 L317 15 L317 0 L604 0 L604 15 C562 15 532 36 516 80 L516 80 L299 690 L271 690 L89 73 C75 38 44 15 8 15 L-4 15 L-3 0 L-3 0 Z M317 892 C314 900 303 920 285 920 C267 920 256 900 253 892 C253 892 154 684 180 715 L190 707 C230 754 263 794 285 821 C323 776 380 708 380 708 L390 716 C390 716 380 764 317 893 L317 892 L317 892 Z M336 268 L180 268 L253 526 L336 268 L336 268 Z " />
<glyph glyph-name="Atilde" unicode="&#xc3;" horiz-adv-x="610" d="M203 770 C203 805 211 828 223 828 C253 828 292 766 322 766 C360 766 386 817 386 893 L369 893 C369 856 359 832 343 832 C314 832 274 895 245 895 C210 895 186 845 186 770 L203 770 L203 770 Z M-3 0 L215 0 L215 15 L189 15 C141 15 118 47 132 95 L132 95 L172 238 L346 238 C363 185 380 132 396 80 C409 41 391 15 352 15 L317 15 L317 0 L604 0 L604 15 C562 15 532 36 516 80 L516 80 L299 690 L271 690 L89 73 C75 38 44 15 8 15 L-4 15 L-3 0 L-3 0 Z M336 267 L180 267 L253 525 L336 267 L336 267 Z " />
<glyph glyph-name="Adieresis" unicode="&#xc4;" horiz-adv-x="610" d="M376 745 C413 745 438 769 438 806 C438 843 413 867 376 867 C339 867 315 843 315 806 C315 769 339 745 376 745 L376 745 Z M196 745 C233 745 257 769 257 806 C257 843 233 867 196 867 C159 867 134 843 134 806 C134 769 159 745 196 745 L196 745 Z M-3 0 L215 0 L215 15 L189 15 C141 15 118 47 132 95 L132 95 L172 238 L346 238 C363 185 380 132 396 80 C409 41 391 15 352 15 L317 15 L317 0 L604 0 L604 15 C562 15 532 36 516 80 L516 80 L299 690 L271 690 L89 73 C75 38 44 15 8 15 L-4 15 L-3 0 L-3 0 Z M336 267 L180 267 L253 525 L336 267 L336 267 Z " />
<glyph glyph-name="Aring" unicode="&#xc5;" horiz-adv-x="610" d="M218 803 C218 845 245 873 286 873 C327 873 354 845 354 803 C354 765 323 732 286 732 C249 732 218 765 218 803 L218 803 Z M190 803 C190 753 234 710 286 710 C338 710 382 753 382 803 C382 858 344 895 286 895 C228 895 190 858 190 803 L190 803 Z M-3 0 L215 0 L215 15 L189 15 C141 15 118 47 132 95 L132 95 L172 238 L346 238 C363 185 380 132 396 80 C409 41 391 15 352 15 L317 15 L317 0 L604 0 L604 15 C562 15 532 36 516 80 L516 80 L299 690 L271 690 L89 73 C75 38 44 15 8 15 L-4 15 L-3 0 L-3 0 Z M336 267 L180 267 L253 525 L336 267 L336 267 Z " />
<glyph glyph-name="Ccedilla" unicode="&#xc7;" horiz-adv-x="636" d="M563 204 C559 193 554 178 550 167 C520 81 446 23 366 23 C248 23 169 149 169 338 C169 526 248 652 366 652 C378 652 391 651 404 649 C466 638 523 582 549 508 C553 497 558 482 562 471 L575 471 L575 621 C514 656 430 680 365 680 C173 680 45 543 45 338 C45 135 169 -1 356 -5 C353 -16 344 -48 331 -91 L338 -93 C347 -84 355 -78 360 -78 C373 -78 381 -100 381 -134 C381 -168 365 -191 340 -191 C325 -191 311 -185 304 -177 L300 -189 C316 -208 340 -220 360 -220 C409 -220 442 -186 442 -134 C442 -88 418 -58 383 -58 C368 -58 353 -64 345 -72 C359 -30 371 -13 379 -6 C442 -3 519 20 576 53 L569 66 L569 66 L576 53 L576 203 L563 204 L563 204 Z M385 -2 C389 -1 391 -2 391 -2 L385 -2 L385 -2 Z " />
<glyph glyph-name="Egrave" unicode="&#xc8;" horiz-adv-x="575" d="M184 879 C184 872 199 854 222 830 C254 790 340 705 340 705 L351 714 C351 714 305 830 273 870 C258 901 246 921 241 921 C224 921 184 892 184 879 L184 879 Z M395 261 L395 449 L383 449 L379 438 C367 400 326 374 275 374 L226 374 L226 647 L308 647 C368 647 421 607 441 547 L452 512 L463 512 L463 675 L40 675 L40 660 L51 660 C89 660 115 634 115 595 L115 80 C115 41 89 15 51 15 L40 15 L40 0 L465 0 L467 14 C475 59 485 118 493 163 L482 163 L465 128 C435 68 375 28 315 28 L226 28 L226 346 L275 346 C326 346 367 317 379 274 L383 261 L395 261 L395 261 Z " />
<glyph glyph-name="Eacute" unicode="&#xc9;" horiz-adv-x="575" d="M253 705 C253 705 337 790 368 830 C390 855 405 873 405 879 C405 892 365 921 348 921 C344 921 332 901 317 870 C286 830 242 714 242 714 L253 705 L253 705 Z M395 261 L395 449 L383 449 L379 438 C367 400 326 374 275 374 L226 374 L226 647 L308 647 C368 647 421 607 441 547 L452 512 L463 512 L463 675 L40 675 L40 660 L51 660 C89 660 115 634 115 595 L115 80 C115 41 89 15 51 15 L40 15 L40 0 L465 0 L467 14 C475 59 485 118 493 163 L482 163 L465 128 C435 68 375 28 315 28 L226 28 L226 346 L275 346 C326 346 367 317 379 274 L383 261 L395 261 L395 261 Z " />
<glyph glyph-name="Ecircumflex" unicode="&#xca;" horiz-adv-x="575" d="M315 892 C312 900 302 920 284 920 C266 920 255 900 252 892 C252 892 153 684 179 715 L189 707 C228 754 261 794 283 821 C320 776 377 708 377 708 L387 716 C387 716 377 764 314 893 L315 892 L315 892 Z M394 262 L394 450 L382 450 L378 439 C366 401 325 375 274 375 L225 375 L225 648 L307 648 C367 648 420 608 440 548 L451 513 L462 513 L462 676 L39 676 L39 661 L50 661 C88 661 114 635 114 596 L114 81 C114 42 88 16 50 16 L39 16 L39 1 L464 1 L466 15 C474 60 484 119 492 164 L481 164 L464 129 C434 69 374 29 314 29 L225 29 L225 347 L274 347 C325 347 366 318 378 275 L382 262 L394 262 L394 262 Z " />
<glyph glyph-name="Edieresis" unicode="&#xcb;" horiz-adv-x="575" d="M374 745 C411 745 435 769 435 806 C435 843 411 867 374 867 C337 867 313 843 313 806 C313 769 337 745 374 745 L374 745 Z M193 745 C230 745 254 769 254 806 C254 843 230 867 193 867 C156 867 132 843 132 806 C132 769 156 745 193 745 L193 745 Z M395 261 L395 449 L383 449 L379 438 C367 400 326 374 275 374 L226 374 L226 647 L308 647 C368 647 421 607 441 547 L452 512 L463 512 L463 675 L40 675 L40 660 L51 660 C89 660 115 634 115 595 L115 80 C115 41 89 15 51 15 L40 15 L40 0 L465 0 L467 14 C475 59 485 118 493 163 L482 163 L465 128 C435 68 375 28 315 28 L226 28 L226 346 L275 346 C326 346 367 317 379 274 L383 261 L395 261 L395 261 Z " />
<glyph glyph-name="Igrave" unicode="&#xcc;" horiz-adv-x="341" d="M87 879 C87 872 102 854 125 830 C157 790 243 705 243 705 L254 714 C254 714 208 830 176 870 C161 901 149 921 144 921 C127 921 87 892 87 879 L87 879 Z M301 15 L290 15 C252 15 226 41 226 80 L226 595 C226 634 252 660 290 660 L301 660 L301 675 L40 675 L40 660 L51 660 C89 660 115 634 115 595 L115 80 C115 41 89 15 51 15 L40 15 L40 0 L301 0 L301 15 L301 15 Z " />
<glyph glyph-name="Iacute" unicode="&#xcd;" horiz-adv-x="341" d="M110 705 C110 705 194 790 225 830 C247 855 262 873 262 879 C262 892 222 921 205 921 C201 921 189 901 174 870 C143 830 99 714 99 714 L110 705 L110 705 Z M301 15 L290 15 C252 15 226 41 226 80 L226 595 C226 634 252 660 290 660 L301 660 L301 675 L40 675 L40 660 L51 660 C89 660 115 634 115 595 L115 80 C115 41 89 15 51 15 L40 15 L40 0 L301 0 L301 15 L301 15 Z " />
<glyph glyph-name="Icircumflex" unicode="&#xce;" horiz-adv-x="341" d="M203 892 C200 900 189 920 171 920 C153 920 142 900 139 892 C139 892 40 684 66 715 L76 707 C116 754 149 794 171 821 C209 776 266 708 266 708 L276 716 C276 716 266 764 203 893 L203 892 L203 892 Z M301 16 L290 16 C252 16 226 42 226 81 L226 596 C226 635 252 661 290 661 L301 661 L301 676 L40 676 L40 661 L51 661 C89 661 115 635 115 596 L115 81 C115 42 89 16 51 16 L40 16 L40 1 L301 1 L301 16 L301 16 Z " />
<glyph glyph-name="Idieresis" unicode="&#xcf;" horiz-adv-x="341" d="M261 745 C298 745 323 769 323 806 C323 843 298 867 261 867 C224 867 200 843 200 806 C200 769 224 745 261 745 L261 745 Z M81 745 C118 745 142 769 142 806 C142 843 118 867 81 867 C44 867 19 843 19 806 C19 769 44 745 81 745 L81 745 Z M301 15 L290 15 C252 15 226 41 226 80 L226 595 C226 634 252 660 290 660 L301 660 L301 675 L40 675 L40 660 L51 660 C89 660 115 634 115 595 L115 80 C115 41 89 15 51 15 L40 15 L40 0 L301 0 L301 15 L301 15 Z " />
<glyph glyph-name="Ntilde" unicode="&#xd1;" horiz-adv-x="637" d="M235 770 C235 805 243 828 255 828 C285 828 324 766 354 766 C392 766 418 817 418 893 L401 893 C401 856 391 832 375 832 C346 832 306 895 277 895 C242 895 218 845 218 770 L235 770 L235 770 Z M39 660 L50 660 C88 660 114 634 114 595 L114 80 C114 41 88 15 50 15 L39 15 L39 0 L222 0 L222 15 L211 15 C173 15 147 41 147 80 L147 567 C256 371 364 175 474 -20 L522 -20 L522 595 C522 634 548 660 586 660 L597 660 L597 675 L414 675 L414 660 L425 660 C463 660 489 634 489 595 L489 172 L213 675 L39 675 L39 660 L39 660 Z " />
<glyph glyph-name="Ograve" unicode="&#xd2;" horiz-adv-x="677" d="M169 338 C169 508 226 652 337 652 C448 652 505 508 505 338 C505 168 448 23 337 23 C226 23 169 168 169 338 L169 338 Z M46 338 C46 153 145 -5 337 -5 C528 -5 627 153 627 338 C627 523 528 680 337 680 C145 680 46 523 46 338 L46 338 Z M253 879 C253 872 268 854 291 830 C323 790 409 705 409 705 L420 714 C420 714 374 830 342 870 C327 901 315 921 310 921 C293 921 253 892 253 879 L253 879 Z " />
<glyph glyph-name="Oacute" unicode="&#xd3;" horiz-adv-x="677" d="M313 705 C313 705 397 790 428 830 C450 855 465 873 465 879 C465 892 425 921 408 921 C404 921 392 901 377 870 C346 830 302 714 302 714 L313 705 L313 705 Z M169 338 C169 508 226 652 337 652 C448 652 505 508 505 338 C505 168 448 23 337 23 C226 23 169 168 169 338 L169 338 Z M46 338 C46 153 145 -5 337 -5 C528 -5 627 153 627 338 C627 523 528 680 337 680 C145 680 46 523 46 338 L46 338 Z " />
<glyph glyph-name="Ocircumflex" unicode="&#xd4;" horiz-adv-x="677" d="M169 338 C169 508 226 652 337 652 C448 652 505 508 505 338 C505 168 448 23 337 23 C226 23 169 168 169 338 L169 338 Z M46 338 C46 153 145 -5 337 -5 C528 -5 627 153 627 338 C627 523 528 680 337 680 C145 680 46 523 46 338 L46 338 Z M368 892 C365 900 355 920 337 920 C319 920 308 900 305 892 C305 892 206 684 232 715 L242 707 C281 754 314 794 336 821 C373 776 430 708 430 708 L440 716 C440 716 430 764 367 893 L368 892 L368 892 Z " />
<glyph glyph-name="Otilde" unicode="&#xd5;" horiz-adv-x="677" d="M254 770 C254 805 262 828 274 828 C304 828 343 766 373 766 C411 766 436 817 436 893 L419 893 C419 856 409 832 394 832 C364 832 325 895 295 895 C260 895 237 845 237 770 L254 770 L254 770 Z M169 338 C169 508 226 652 337 652 C448 652 505 508 505 338 C505 168 448 23 337 23 C226 23 169 168 169 338 L169 338 Z M46 338 C46 153 145 -5 337 -5 C528 -5 627 153 627 338 C627 523 528 680 337 680 C145 680 46 523 46 338 L46 338 Z " />
<glyph glyph-name="Odieresis" unicode="&#xd6;" horiz-adv-x="677" d="M427 745 C464 745 488 769 488 806 C488 843 464 867 427 867 C390 867 366 843 366 806 C366 769 390 745 427 745 L427 745 Z M246 745 C283 745 307 769 307 806 C307 843 283 867 246 867 C209 867 185 843 185 806 C185 769 209 745 246 745 L246 745 Z M169 338 C169 508 226 652 337 652 C448 652 505 508 505 338 C505 168 448 23 337 23 C226 23 169 168 169 338 L169 338 Z M46 338 C46 153 145 -5 337 -5 C528 -5 627 153 627 338 C627 523 528 680 337 680 C145 680 46 523 46 338 L46 338 Z " />
<glyph glyph-name="Oslash" unicode="&#xd8;" horiz-adv-x="677" d="M65 -21 L143 71 C191 24 256 -5 338 -5 C529 -5 628 153 628 338 C628 424 606 504 563 565 L646 663 L608 695 L530 604 C483 651 418 679 337 679 C145 679 46 522 46 337 C46 250 68 169 111 108 L28 10 L65 -21 L65 -21 Z M474 535 L186 195 C176 238 171 286 171 337 C171 507 228 651 339 651 C401 651 446 605 474 535 L474 535 Z M491 479 C501 436 506 388 506 337 C506 167 449 22 338 22 C275 22 230 68 202 139 L491 479 L491 479 Z " />
<glyph glyph-name="Ugrave" unicode="&#xd9;" horiz-adv-x="607" d="M218 879 C218 872 233 854 256 830 C288 790 374 705 374 705 L385 714 C385 714 339 830 307 870 C292 901 280 921 275 921 C258 921 218 892 218 879 L218 879 Z M587 675 L379 675 L379 660 L394 660 C437 660 466 633 469 591 L468 195 C468 98 427 34 322 34 C244 34 213 98 213 193 L213 595 C213 634 239 660 277 660 L288 660 L288 675 L27 675 L27 660 L38 660 C76 660 102 634 102 595 L102 215 C102 83 159 -5 306 -5 C447 -5 502 71 502 184 L502 585 C502 630 531 660 574 660 L587 660 L587 675 L587 675 Z " />
<glyph glyph-name="Uacute" unicode="&#xda;" horiz-adv-x="607" d="M302 705 C302 705 386 790 417 830 C439 855 454 873 454 879 C454 892 414 921 397 921 C393 921 381 901 366 870 C335 830 291 714 291 714 L302 705 L302 705 Z M587 675 L379 675 L379 660 L394 660 C437 660 466 633 469 591 L468 195 C468 98 427 34 322 34 C244 34 213 98 213 193 L213 595 C213 634 239 660 277 660 L288 660 L288 675 L27 675 L27 660 L38 660 C76 660 102 634 102 595 L102 215 C102 83 159 -5 306 -5 C447 -5 502 71 502 184 L502 585 C502 630 531 660 574 660 L587 660 L587 675 L587 675 Z " />
<glyph glyph-name="Ucircumflex" unicode="&#xdb;" horiz-adv-x="607" d="M334 892 C331 900 320 920 302 920 C284 920 273 900 270 892 C270 892 171 684 197 715 L207 707 C247 754 280 794 302 821 C340 776 397 708 397 708 L407 716 C407 716 397 764 334 893 L334 892 L334 892 Z M587 676 L379 676 L379 661 L394 661 C437 661 466 634 469 592 L468 196 C468 99 427 35 322 35 C244 35 213 99 213 194 L213 596 C213 635 239 661 277 661 L288 661 L288 676 L27 676 L27 661 L38 661 C76 661 102 635 102 596 L102 216 C102 84 159 -4 306 -4 C447 -4 502 72 502 185 L502 586 C502 631 531 661 574 661 L587 661 L587 676 L587 676 Z " />
<glyph glyph-name="Udieresis" unicode="&#xdc;" horiz-adv-x="607" d="M392 745 C429 745 454 769 454 806 C454 843 429 867 392 867 C355 867 331 843 331 806 C331 769 355 745 392 745 L392 745 Z M212 745 C249 745 273 769 273 806 C273 843 249 867 212 867 C175 867 150 843 150 806 C150 769 175 745 212 745 L212 745 Z M587 675 L379 675 L379 660 L394 660 C437 660 466 633 469 591 L468 195 C468 98 427 34 322 34 C244 34 213 98 213 193 L213 595 C213 634 239 660 277 660 L288 660 L288 675 L27 675 L27 660 L38 660 C76 660 102 634 102 595 L102 215 C102 83 159 -5 306 -5 C447 -5 502 71 502 184 L502 585 C502 630 531 660 574 660 L587 660 L587 675 L587 675 Z " />
<glyph glyph-name="Yacute" unicode="&#xdd;" horiz-adv-x="574" d="M286 705 C286 705 370 790 401 830 C423 855 438 873 438 879 C438 892 398 921 381 921 C377 921 365 901 350 870 C319 830 275 714 275 714 L286 705 L286 705 Z M275 675 L4 675 L4 660 C38 660 66 641 87 601 L230 299 L230 80 C230 41 204 15 166 15 L155 15 L155 0 L416 0 L416 15 L405 15 C367 15 341 41 341 80 L341 343 L479 601 C503 642 535 661 576 661 L576 676 L376 676 L376 661 L393 661 C441 661 459 631 439 586 L321 360 L216 604 C204 639 220 662 256 662 L275 662 L275 675 L275 675 Z " />
<glyph glyph-name="agrave" unicode="&#xe0;" horiz-adv-x="424" d="M402 55 C393 45 380 38 355 38 C325 38 316 64 316 103 C316 256 315 354 315 354 C315 445 273 505 210 505 C129 505 66 460 53 392 L153 392 C163 443 177 477 189 477 C202 477 210 437 210 376 L210 257 C198 254 185 251 172 248 C90 228 35 170 35 104 C35 39 67 -5 115 -5 C147 -5 183 12 215 40 C224 9 245 -10 286 -10 C351 -10 387 10 413 41 L402 55 L402 55 Z M99 704 C99 697 114 679 137 655 C169 615 255 530 255 530 L266 539 C266 539 220 655 188 695 C173 726 161 746 156 746 C139 746 99 717 99 704 L99 704 Z M209 226 L209 92 C209 85 209 79 209 73 C194 67 178 64 162 64 C145 64 134 92 134 133 C134 177 150 211 174 217 C188 220 200 223 210 226 L209 226 L209 226 Z " />
<glyph glyph-name="aacute" unicode="&#xe1;" horiz-adv-x="424" d="M154 530 C154 530 238 615 269 655 C291 680 306 698 306 704 C306 717 266 746 249 746 C245 746 233 726 218 695 C187 655 143 539 143 539 L154 530 L154 530 Z M402 55 C393 45 380 38 355 38 C325 38 316 64 316 103 C316 256 315 354 315 354 C315 445 273 505 210 505 C129 505 66 460 53 392 L153 392 C163 443 177 477 189 477 C202 477 210 437 210 376 L210 257 C198 254 185 251 172 248 C90 228 35 170 35 104 C35 39 67 -5 115 -5 C147 -5 183 12 215 40 C224 9 245 -10 286 -10 C351 -10 387 10 413 41 L402 55 L402 55 Z M209 226 L209 92 C209 85 209 79 209 73 C194 67 178 64 162 64 C145 64 134 92 134 133 C134 177 150 211 174 217 C188 220 200 223 210 226 L209 226 L209 226 Z " />
<glyph glyph-name="acircumflex" unicode="&#xe2;" horiz-adv-x="424" d="M402 55 C393 45 380 38 355 38 C325 38 316 64 316 103 C316 256 315 354 315 354 C315 445 273 505 210 505 C129 505 66 460 53 392 L153 392 C163 443 177 477 189 477 C202 477 210 437 210 376 L210 257 C198 254 185 251 172 248 C90 228 35 170 35 104 C35 39 67 -5 115 -5 C147 -5 183 12 215 40 C224 9 245 -10 286 -10 C351 -10 387 10 413 41 L402 55 L402 55 Z M215 717 C212 725 201 745 183 745 C165 745 154 725 151 717 C151 717 52 509 78 540 L88 532 C128 579 161 619 183 646 C221 601 278 533 278 533 L288 541 C288 541 278 589 215 718 L215 717 L215 717 Z M209 227 L209 93 C209 86 209 80 209 74 C194 68 178 65 162 65 C145 65 134 93 134 134 C134 178 150 212 174 218 C188 221 200 224 210 227 L209 227 L209 227 Z " />
<glyph glyph-name="atilde" unicode="&#xe3;" horiz-adv-x="424" d="M101 595 C101 630 109 653 121 653 C151 653 190 591 220 591 C258 591 284 642 284 718 L267 718 C267 681 257 657 241 657 C212 657 172 720 143 720 C108 720 84 670 84 595 L101 595 L101 595 Z M402 55 C393 45 380 38 355 38 C325 38 316 64 316 103 C316 256 315 354 315 354 C315 445 273 505 210 505 C129 505 66 460 53 392 L153 392 C163 443 177 477 189 477 C202 477 210 437 210 376 L210 257 C198 254 185 251 172 248 C90 228 35 170 35 104 C35 39 67 -5 115 -5 C147 -5 183 12 215 40 C224 9 245 -10 286 -10 C351 -10 387 10 413 41 L402 55 L402 55 Z M209 226 L209 92 C209 85 209 79 209 73 C194 67 178 64 162 64 C145 64 134 92 134 133 C134 177 150 211 174 217 C188 220 200 223 210 226 L209 226 L209 226 Z " />
<glyph glyph-name="adieresis" unicode="&#xe4;" horiz-adv-x="424" d="M274 570 C311 570 336 594 336 631 C336 668 311 692 274 692 C237 692 213 668 213 631 C213 594 237 570 274 570 L274 570 Z M94 570 C131 570 155 594 155 631 C155 668 131 692 94 692 C57 692 32 668 32 631 C32 594 57 570 94 570 L94 570 Z M402 55 C393 45 380 38 355 38 C325 38 316 64 316 103 C316 256 315 354 315 354 C315 445 273 505 210 505 C129 505 66 460 53 392 L153 392 C163 443 177 477 189 477 C202 477 210 437 210 376 L210 257 C198 254 185 251 172 248 C90 228 35 170 35 104 C35 39 67 -5 115 -5 C147 -5 183 12 215 40 C224 9 245 -10 286 -10 C351 -10 387 10 413 41 L402 55 L402 55 Z M209 226 L209 92 C209 85 209 79 209 73 C194 67 178 64 162 64 C145 64 134 92 134 133 C134 177 150 211 174 217 C188 220 200 223 210 226 L209 226 L209 226 Z " />
<glyph glyph-name="aring" unicode="&#xe5;" horiz-adv-x="424" d="M116 628 C116 670 143 698 184 698 C225 698 252 670 252 628 C252 590 221 557 184 557 C147 557 116 590 116 628 L116 628 Z M88 628 C88 578 132 535 184 535 C236 535 280 578 280 628 C280 683 242 720 184 720 C126 720 88 683 88 628 L88 628 Z M402 55 C393 45 380 38 355 38 C325 38 316 64 316 103 C316 256 315 354 315 354 C315 445 273 505 210 505 C129 505 66 460 53 392 L153 392 C163 443 177 477 189 477 C202 477 210 437 210 376 L210 257 C198 254 185 251 172 248 C90 228 35 170 35 104 C35 39 67 -5 115 -5 C147 -5 183 12 215 40 C224 9 245 -10 286 -10 C351 -10 387 10 413 41 L402 55 L402 55 Z M209 226 L209 92 C209 85 209 79 209 73 C194 67 178 64 162 64 C145 64 134 92 134 133 C134 177 150 211 174 217 C188 220 200 223 210 226 L209 226 L209 226 Z " />
<glyph glyph-name="ccedilla" unicode="&#xe7;" horiz-adv-x="430" d="M195 -71 C209 -28 221 -11 229 -4 C273 1 331 29 380 70 L371 81 C353 66 324 56 299 56 C214 56 157 141 157 269 C157 394 189 477 236 477 C262 477 282 448 286 404 C289 374 309 354 336 354 C363 354 381 372 381 399 C375 463 322 505 247 505 C129 505 51 395 51 230 C51 93 113 0 207 -6 C204 -17 195 -50 182 -93 L189 -95 C198 -86 206 -80 211 -80 C224 -80 232 -102 232 -136 C232 -170 216 -193 191 -193 C176 -193 162 -187 155 -179 L151 -191 C167 -210 191 -222 211 -222 C260 -222 293 -188 293 -136 C293 -90 269 -60 234 -60 C219 -60 204 -66 196 -74 L195 -71 L195 -71 Z M235 -4 C239 -3 241 -4 241 -4 L235 -4 L235 -4 Z " />
<glyph glyph-name="egrave" unicode="&#xe8;" horiz-adv-x="436" d="M385 70 L376 81 C358 66 328 56 301 56 C214 56 156 141 156 269 C156 283 156 296 157 309 L386 309 C386 427 325 505 234 505 C124 505 50 395 50 230 C50 89 117 -5 218 -5 C265 -5 331 25 385 70 L385 70 Z M150 704 C150 697 165 679 188 655 C220 615 306 530 306 530 L317 539 C317 539 271 655 239 695 C224 726 212 746 207 746 C190 746 150 717 150 704 L150 704 Z M292 393 C292 365 274 344 246 340 L158 328 C166 419 192 476 228 476 C266 476 292 442 292 392 L292 393 L292 393 Z " />
<glyph glyph-name="eacute" unicode="&#xe9;" horiz-adv-x="436" d="M204 530 C204 530 288 615 319 655 C341 680 356 698 356 704 C356 717 316 746 299 746 C295 746 283 726 268 695 C237 655 193 539 193 539 L204 530 L204 530 Z M385 70 L376 81 C358 66 328 56 301 56 C214 56 156 141 156 269 C156 283 156 296 157 309 L386 309 C386 427 325 505 234 505 C124 505 50 395 50 230 C50 89 117 -5 218 -5 C265 -5 331 25 385 70 L385 70 Z M292 393 C292 365 274 344 246 340 L158 328 C166 419 192 476 228 476 C266 476 292 442 292 392 L292 393 L292 393 Z " />
<glyph glyph-name="ecircumflex" unicode="&#xea;" horiz-adv-x="436" d="M385 70 L376 81 C358 66 328 56 301 56 C214 56 156 141 156 269 C156 283 156 296 157 309 L386 309 C386 427 325 505 234 505 C124 505 50 395 50 230 C50 89 117 -5 218 -5 C265 -5 331 25 385 70 L385 70 Z M266 717 C263 725 252 745 234 745 C216 745 205 725 202 717 C202 717 103 509 129 540 L139 532 C179 579 212 619 234 646 C272 601 329 533 329 533 L339 541 C339 541 329 589 266 718 L266 717 L266 717 Z M292 394 C292 366 274 345 246 341 L158 329 C166 420 192 477 228 477 C266 477 292 443 292 393 L292 394 L292 394 Z " />
<glyph glyph-name="edieresis" unicode="&#xeb;" horiz-adv-x="436" d="M324 570 C361 570 386 594 386 631 C386 668 361 692 324 692 C287 692 263 668 263 631 C263 594 287 570 324 570 L324 570 Z M144 570 C181 570 205 594 205 631 C205 668 181 692 144 692 C107 692 82 668 82 631 C82 594 107 570 144 570 L144 570 Z M385 70 L376 81 C358 66 328 56 301 56 C214 56 156 141 156 269 C156 283 156 296 157 309 L386 309 C386 427 325 505 234 505 C124 505 50 395 50 230 C50 89 117 -5 218 -5 C265 -5 331 25 385 70 L385 70 Z M292 393 C292 365 274 344 246 340 L158 328 C166 419 192 476 228 476 C266 476 292 442 292 392 L292 393 L292 393 Z " />
<glyph glyph-name="igrave" unicode="&#xec;" horiz-adv-x="340" d="M86 704 C86 697 101 679 124 655 C156 615 242 530 242 530 L253 539 C253 539 207 655 175 695 C160 726 148 746 143 746 C126 746 86 717 86 704 L86 704 Z M295 15 L284 15 C246 15 220 41 220 80 L220 500 L200 500 L45 453 L45 444 L56 442 C110 431 120 418 120 363 L120 80 C120 41 94 15 56 15 L45 15 L45 0 L295 0 L295 15 L295 15 Z " />
<glyph glyph-name="iacute" unicode="&#xed;" horiz-adv-x="340" d="M94 530 C94 530 178 615 209 655 C231 680 246 698 246 704 C246 717 206 746 189 746 C185 746 173 726 158 695 C127 655 83 539 83 539 L94 530 L94 530 Z M295 15 L284 15 C246 15 220 41 220 80 L220 500 L200 500 L45 453 L45 444 L56 442 C110 431 120 418 120 363 L120 80 C120 41 94 15 56 15 L45 15 L45 0 L295 0 L295 15 L295 15 Z " />
<glyph glyph-name="icircumflex" unicode="&#xee;" horiz-adv-x="340" d="M202 717 C199 725 188 745 170 745 C152 745 141 725 138 717 C138 717 39 509 65 540 L75 532 C115 579 148 619 170 646 C208 601 265 533 265 533 L275 541 C275 541 265 589 202 718 L202 717 L202 717 Z M295 16 L284 16 C246 16 220 42 220 81 L220 501 L200 501 L45 454 L45 445 L56 443 C110 432 120 419 120 364 L120 81 C120 42 94 16 56 16 L45 16 L45 1 L295 1 L295 16 L295 16 Z " />
<glyph glyph-name="idieresis" unicode="&#xef;" horiz-adv-x="340" d="M260 570 C297 570 322 594 322 631 C322 668 297 692 260 692 C223 692 199 668 199 631 C199 594 223 570 260 570 L260 570 Z M80 570 C117 570 141 594 141 631 C141 668 117 692 80 692 C43 692 18 668 18 631 C18 594 43 570 80 570 L80 570 Z M295 15 L284 15 C246 15 220 41 220 80 L220 500 L200 500 L45 453 L45 444 L56 442 C110 431 120 418 120 363 L120 80 C120 41 94 15 56 15 L45 15 L45 0 L295 0 L295 15 L295 15 Z " />
<glyph glyph-name="ntilde" unicode="&#xf1;" horiz-adv-x="551" d="M195 595 C195 630 203 653 215 653 C245 653 284 591 314 591 C352 591 377 642 377 718 L360 718 C360 681 350 657 335 657 C305 657 266 720 236 720 C201 720 178 670 178 595 L195 595 L195 595 Z M511 15 L500 15 C462 15 436 41 436 80 L436 338 C436 438 412 505 352 505 C300 505 249 482 219 446 L219 500 L199 500 L44 453 L44 444 L55 442 C109 431 119 418 119 363 L119 80 C119 41 93 15 55 15 L44 15 L44 0 L511 0 L511 15 L511 15 Z M277 15 C242 17 218 42 218 79 L218 428 C230 434 250 437 273 437 C318 437 335 393 335 326 L335 79 C335 42 311 17 276 15 L277 15 L277 15 Z " />
<glyph glyph-name="ograve" unicode="&#xf2;" horiz-adv-x="522" d="M161 250 C161 390 201 483 261 483 C320 483 360 390 360 250 C360 110 320 17 261 17 C201 17 161 110 161 250 L161 250 Z M50 250 C50 97 134 -5 261 -5 C388 -5 472 97 472 250 C472 403 388 505 261 505 C134 505 50 403 50 250 L50 250 Z M177 704 C177 697 192 679 215 655 C247 615 333 530 333 530 L344 539 C344 539 298 655 266 695 C251 726 239 746 234 746 C217 746 177 717 177 704 L177 704 Z " />
<glyph glyph-name="oacute" unicode="&#xf3;" horiz-adv-x="522" d="M231 530 C231 530 315 615 346 655 C368 680 383 698 383 704 C383 717 343 746 326 746 C322 746 310 726 295 695 C264 655 220 539 220 539 L231 530 L231 530 Z M161 250 C161 390 201 483 261 483 C320 483 360 390 360 250 C360 110 320 17 261 17 C201 17 161 110 161 250 L161 250 Z M50 250 C50 97 134 -5 261 -5 C388 -5 472 97 472 250 C472 403 388 505 261 505 C134 505 50 403 50 250 L50 250 Z " />
<glyph glyph-name="ocircumflex" unicode="&#xf4;" horiz-adv-x="522" d="M161 250 C161 390 201 483 261 483 C320 483 360 390 360 250 C360 110 320 17 261 17 C201 17 161 110 161 250 L161 250 Z M50 250 C50 97 134 -5 261 -5 C388 -5 472 97 472 250 C472 403 388 505 261 505 C134 505 50 403 50 250 L50 250 Z M293 717 C290 725 279 745 261 745 C243 745 232 725 229 717 C229 717 130 509 156 540 L166 532 C206 579 239 619 261 646 C299 601 356 533 356 533 L366 541 C366 541 356 589 293 718 L293 717 L293 717 Z " />
<glyph glyph-name="otilde" unicode="&#xf5;" horiz-adv-x="522" d="M178 595 C178 630 186 653 198 653 C228 653 267 591 297 591 C335 591 361 642 361 718 L344 718 C344 681 334 657 318 657 C289 657 249 720 220 720 C185 720 161 670 161 595 L178 595 L178 595 Z M161 250 C161 390 201 483 261 483 C320 483 360 390 360 250 C360 110 320 17 261 17 C201 17 161 110 161 250 L161 250 Z M50 250 C50 97 134 -5 261 -5 C388 -5 472 97 472 250 C472 403 388 505 261 505 C134 505 50 403 50 250 L50 250 Z " />
<glyph glyph-name="odieresis" unicode="&#xf6;" horiz-adv-x="522" d="M351 570 C388 570 413 594 413 631 C413 668 388 692 351 692 C314 692 290 668 290 631 C290 594 314 570 351 570 L351 570 Z M171 570 C208 570 232 594 232 631 C232 668 208 692 171 692 C134 692 109 668 109 631 C109 594 134 570 171 570 L171 570 Z M161 250 C161 390 201 483 261 483 C320 483 360 390 360 250 C360 110 320 17 261 17 C201 17 161 110 161 250 L161 250 Z M50 250 C50 97 134 -5 261 -5 C388 -5 472 97 472 250 C472 403 388 505 261 505 C134 505 50 403 50 250 L50 250 Z " />
<glyph glyph-name="oslash" unicode="&#xf8;" horiz-adv-x="522" d="M63 -16 L119 52 C155 15 203 -6 260 -6 C387 -6 471 96 471 249 C471 318 454 377 424 421 L484 494 L458 516 L402 448 C366 485 318 506 261 506 C134 506 50 404 50 251 C50 182 67 123 97 79 L37 6 L63 -16 L63 -16 Z M346 379 L167 163 C163 189 161 218 161 250 C161 390 201 483 261 483 C299 483 329 444 346 379 L346 379 Z M354 336 C358 310 360 281 360 250 C360 110 320 17 261 17 C222 17 192 55 175 120 L354 336 L354 336 Z " />
<glyph glyph-name="ugrave" unicode="&#xf9;" horiz-adv-x="516" d="M481 56 L470 58 C416 69 406 82 406 137 L406 500 L231 500 L231 485 L242 485 C280 485 306 459 306 420 L306 82 C292 69 279 61 267 61 C216 61 189 103 189 165 L189 500 L14 500 L14 485 L25 485 C63 485 89 459 89 420 L89 420 L90 154 C90 59 124 -5 189 -5 C219 -5 261 23 306 66 L306 0 L326 0 L481 47 L481 56 L481 56 Z M164 704 C164 697 179 679 202 655 C234 615 320 530 320 530 L331 539 C331 539 285 655 253 695 C238 726 226 746 221 746 C204 746 164 717 164 704 L164 704 Z " />
<glyph glyph-name="uacute" unicode="&#xfa;" horiz-adv-x="516" d="M217 530 C217 530 301 615 332 655 C354 680 369 698 369 704 C369 717 329 746 312 746 C308 746 296 726 281 695 C250 655 206 539 206 539 L217 530 L217 530 Z M481 56 L470 58 C416 69 406 82 406 137 L406 500 L231 500 L231 485 L242 485 C280 485 306 459 306 420 L306 82 C292 69 279 61 267 61 C216 61 189 103 189 165 L189 500 L14 500 L14 485 L25 485 C63 485 89 459 89 420 L89 420 L90 154 C90 59 124 -5 189 -5 C219 -5 261 23 306 66 L306 0 L326 0 L481 47 L481 56 L481 56 Z " />
<glyph glyph-name="ucircumflex" unicode="&#xfb;" horiz-adv-x="516" d="M481 56 L470 58 C416 69 406 82 406 137 L406 500 L231 500 L231 485 L242 485 C280 485 306 459 306 420 L306 82 C292 69 279 61 267 61 C216 61 189 103 189 165 L189 500 L14 500 L14 485 L25 485 C63 485 89 459 89 420 L89 420 L90 154 C90 59 124 -5 189 -5 C219 -5 261 23 306 66 L306 0 L326 0 L481 47 L481 56 L481 56 Z M279 717 C276 725 266 745 248 745 C230 745 219 725 216 717 C216 717 117 509 143 540 L153 532 C192 579 225 619 247 646 C284 601 341 533 341 533 L351 541 C351 541 341 589 278 718 L279 717 L279 717 Z " />
<glyph glyph-name="udieresis" unicode="&#xfc;" horiz-adv-x="516" d="M338 570 C375 570 399 594 399 631 C399 668 375 692 338 692 C301 692 277 668 277 631 C277 594 301 570 338 570 L338 570 Z M157 570 C194 570 218 594 218 631 C218 668 194 692 157 692 C120 692 96 668 96 631 C96 594 120 570 157 570 L157 570 Z M481 56 L470 58 C416 69 406 82 406 137 L406 500 L231 500 L231 485 L242 485 C280 485 306 459 306 420 L306 82 C292 69 279 61 267 61 C216 61 189 103 189 165 L189 500 L14 500 L14 485 L25 485 C63 485 89 459 89 420 L89 420 L90 154 C90 59 124 -5 189 -5 C219 -5 261 23 306 66 L306 0 L326 0 L481 47 L481 56 L481 56 Z " />
<glyph glyph-name="ydieresis" unicode="&#xff;" horiz-adv-x="441" d="M333 570 C370 570 394 594 394 631 C394 668 370 692 333 692 C296 692 272 668 272 631 C272 594 296 570 333 570 L333 570 Z M152 570 C189 570 213 594 213 631 C213 668 189 692 152 692 C115 692 91 668 91 631 C91 594 115 570 152 570 L152 570 Z M247 500 L-13 500 L-13 485 L-1 485 C37 485 71 459 85 420 L85 420 L232 6 C227 -8 218 -33 208 -64 C183 -137 165 -165 142 -165 C142 -165 92 -140 70 -140 C40 -140 20 -157 20 -182 C20 -211 44 -231 80 -231 C152 -231 195 -187 234 -73 C293 94 345 253 402 419 C415 458 450 484 488 484 L499 484 L499 499 L321 499 L321 484 L332 484 C367 484 383 458 371 419 L371 419 L284 135 L195 428 C188 462 204 484 237 484 L248 484 L247 500 L247 500 Z " />
<glyph glyph-name="Amacron" unicode="&#x100;" horiz-adv-x="610" d="M177 778 L395 778 L395 834 L177 834 L177 778 L177 778 Z M-3 0 L215 0 L215 15 L189 15 C141 15 118 47 132 95 L132 95 L172 238 L346 238 C363 185 380 132 396 80 C409 41 391 15 352 15 L317 15 L317 0 L604 0 L604 15 C562 15 532 36 516 80 L516 80 L299 690 L271 690 L89 73 C75 38 44 15 8 15 L-4 15 L-3 0 L-3 0 Z M336 267 L180 267 L253 525 L336 267 L336 267 Z " />
<glyph glyph-name="amacron" unicode="&#x101;" horiz-adv-x="424" d="M75 603 L293 603 L293 659 L75 659 L75 603 L75 603 Z M402 55 C393 45 380 38 355 38 C325 38 316 64 316 103 C316 256 315 354 315 354 C315 445 273 505 210 505 C129 505 66 460 53 392 L153 392 C163 443 177 477 189 477 C202 477 210 437 210 376 L210 257 C198 254 185 251 172 248 C90 228 35 170 35 104 C35 39 67 -5 115 -5 C147 -5 183 12 215 40 C224 9 245 -10 286 -10 C351 -10 387 10 413 41 L402 55 L402 55 Z M209 226 L209 92 C209 85 209 79 209 73 C194 67 178 64 162 64 C145 64 134 92 134 133 C134 177 150 211 174 217 C188 220 200 223 210 226 L209 226 L209 226 Z " />
<glyph glyph-name="Abreve" unicode="&#x102;" horiz-adv-x="610" d="M199 885 C227 809 262 758 286 758 C310 758 345 809 373 886 L356 892 C341 852 313 825 286 825 C259 825 231 852 216 892 L199 885 L199 885 Z M-3 0 L215 0 L215 15 L189 15 C141 15 118 47 132 95 L132 95 L172 238 L346 238 C363 185 380 132 396 80 C409 41 391 15 352 15 L317 15 L317 0 L604 0 L604 15 C562 15 532 36 516 80 L516 80 L299 690 L271 690 L89 73 C75 38 44 15 8 15 L-4 15 L-3 0 L-3 0 Z M336 267 L180 267 L253 525 L336 267 L336 267 Z " />
<glyph glyph-name="abreve" unicode="&#x103;" horiz-adv-x="424" d="M97 680 C125 604 160 553 184 553 C208 553 243 604 271 681 L254 687 C239 647 211 620 184 620 C157 620 129 647 114 687 L97 680 L97 680 Z M402 55 C393 45 380 38 355 38 C325 38 316 64 316 103 C316 256 315 354 315 354 C315 445 273 505 210 505 C129 505 66 460 53 392 L153 392 C163 443 177 477 189 477 C202 477 210 437 210 376 L210 257 C198 254 185 251 172 248 C90 228 35 170 35 104 C35 39 67 -5 115 -5 C147 -5 183 12 215 40 C224 9 245 -10 286 -10 C351 -10 387 10 413 41 L402 55 L402 55 Z M209 226 L209 92 C209 85 209 79 209 73 C194 67 178 64 162 64 C145 64 134 92 134 133 C134 177 150 211 174 217 C188 220 200 223 210 226 L209 226 L209 226 Z " />
<glyph glyph-name="Aogonek" unicode="&#x104;" horiz-adv-x="610" d="M-3 0 L215 0 L215 15 L189 15 C141 15 118 47 132 95 L132 95 L172 238 L346 238 C363 185 380 132 396 80 C409 41 391 15 352 15 L317 15 L317 0 L380 0 C325 -35 255 -101 255 -155 C255 -204 307 -236 385 -236 C420 -236 454 -223 470 -204 L463 -196 C457 -203 435 -208 407 -208 C352 -208 316 -182 316 -144 C316 -81 390 -11 421 0 L603 0 L603 15 C561 15 531 36 515 80 L515 80 L298 690 L270 690 L88 73 C74 38 43 15 7 15 L-5 15 L-3 0 L-3 0 Z M335 267 L179 267 L252 525 L335 267 L335 267 Z " />
<glyph glyph-name="aogonek" unicode="&#x105;" horiz-adv-x="424" d="M364 3 L364 3 C385 12 401 25 414 41 L402 55 C393 45 380 38 355 38 C325 38 316 64 316 103 C316 256 315 354 315 354 C315 445 273 505 210 505 C129 505 66 460 53 392 L153 392 C163 443 177 477 189 477 C202 477 210 437 210 376 L210 257 C198 254 185 251 172 248 C90 228 35 170 35 104 C35 39 67 -5 115 -5 C147 -5 183 12 215 40 C226 3 253 -12 303 -9 C252 -46 197 -104 197 -153 C197 -203 249 -236 327 -236 C362 -236 396 -223 412 -204 L405 -196 C399 -203 377 -208 349 -208 C294 -208 258 -182 258 -142 C258 -78 332 -8 363 3 L364 3 L364 3 Z M209 226 L209 92 C209 85 209 79 209 73 C194 67 178 64 162 64 C145 64 134 92 134 133 C134 177 150 211 174 217 C188 220 200 223 210 226 L209 226 L209 226 Z " />
<glyph glyph-name="Cacute" unicode="&#x106;" horiz-adv-x="636" d="M320 705 C320 705 404 790 435 830 C457 855 472 873 472 879 C472 892 432 921 415 921 C411 921 399 901 384 870 C353 830 309 714 309 714 L320 705 L320 705 Z M569 67 L569 67 L569 67 Z M563 204 C559 193 554 178 550 167 C520 81 446 23 366 23 C248 23 169 149 169 338 C169 526 248 652 366 652 C378 652 391 651 404 649 C466 638 523 582 549 508 C553 497 558 482 562 471 L575 471 L575 621 C514 656 430 680 365 680 C173 680 45 543 45 338 C45 132 173 -5 365 -5 C430 -5 514 19 575 54 L575 204 L563 204 L563 204 Z " />
<glyph glyph-name="cacute" unicode="&#x107;" horiz-adv-x="430" d="M170 530 C170 530 254 615 285 655 C307 680 322 698 322 704 C322 717 282 746 265 746 C261 746 249 726 234 695 C203 655 159 539 159 539 L170 530 L170 530 Z M379 70 L370 81 C352 66 323 56 298 56 C213 56 156 141 156 269 C156 394 188 477 235 477 C261 477 281 448 285 404 C288 374 308 354 335 354 C362 354 380 372 380 399 C374 463 321 505 246 505 C128 505 50 395 50 230 C50 89 116 -5 215 -5 C260 -5 325 25 379 70 L379 70 Z " />
<glyph glyph-name="Ccircumflex" unicode="&#x108;" horiz-adv-x="636" d="M398 892 C395 900 384 920 366 920 C348 920 337 900 334 892 C334 892 235 684 261 715 L271 707 C311 754 344 794 366 821 C404 776 461 708 461 708 L471 716 C471 716 461 764 398 893 L398 892 L398 892 Z M569 68 L569 68 L569 68 Z M563 205 C559 194 554 179 550 168 C520 82 446 24 366 24 C248 24 169 150 169 339 C169 527 248 653 366 653 C378 653 391 652 404 650 C466 639 523 583 549 509 C553 498 558 483 562 472 L575 472 L575 622 C514 657 430 681 365 681 C173 681 45 544 45 339 C45 133 173 -4 365 -4 C430 -4 514 20 575 55 L575 205 L563 205 L563 205 Z " />
<glyph glyph-name="Cdot" unicode="&#x10a;" horiz-adv-x="636" d="M366 745 C403 745 427 769 427 806 C427 843 403 867 366 867 C329 867 305 843 305 806 C305 769 329 745 366 745 L366 745 Z M569 67 L569 67 L569 67 Z M563 204 C559 193 554 178 550 167 C520 81 446 23 366 23 C248 23 169 149 169 338 C169 526 248 652 366 652 C378 652 391 651 404 649 C466 638 523 582 549 508 C553 497 558 482 562 471 L575 471 L575 621 C514 656 430 680 365 680 C173 680 45 543 45 338 C45 132 173 -5 365 -5 C430 -5 514 19 575 54 L575 204 L563 204 L563 204 Z " />
<glyph glyph-name="cdot" unicode="&#x10b;" horiz-adv-x="430" d="M246 570 C283 570 307 594 307 631 C307 668 283 692 246 692 C209 692 185 668 185 631 C185 594 209 570 246 570 L246 570 Z M379 70 L370 81 C352 66 323 56 298 56 C213 56 156 141 156 269 C156 394 188 477 235 477 C261 477 281 448 285 404 C288 374 308 354 335 354 C362 354 380 372 380 399 C374 463 321 505 246 505 C128 505 50 395 50 230 C50 89 116 -5 215 -5 C260 -5 325 25 379 70 L379 70 Z " />
<glyph glyph-name="Ccaron" unicode="&#x10c;" horiz-adv-x="636" d="M461 943 C461 943 404 875 366 830 C344 857 311 897 271 944 L261 936 C235 967 334 759 334 759 C337 751 348 731 366 731 C384 731 395 751 398 759 C461 888 471 936 471 936 L461 943 L461 943 Z M569 68 L569 68 L569 68 Z M563 205 C559 194 554 179 550 168 C520 82 446 24 366 24 C248 24 169 150 169 339 C169 527 248 653 366 653 C378 653 391 652 404 650 C466 639 523 583 549 509 C553 498 558 483 562 472 L575 472 L575 622 C514 657 430 681 365 681 C173 681 45 544 45 339 C45 133 173 -4 365 -4 C430 -4 514 20 575 55 L575 205 L563 205 L563 205 Z " />
<glyph glyph-name="ccaron" unicode="&#x10d;" horiz-adv-x="430" d="M341 768 C341 768 284 700 246 655 C224 682 191 722 151 769 L141 761 C115 792 214 584 214 584 C217 576 228 556 246 556 C264 556 275 576 278 584 C341 713 351 761 351 761 L341 768 L341 768 Z M379 71 L370 82 C352 67 323 57 298 57 C213 57 156 142 156 270 C156 395 188 478 235 478 C261 478 281 449 285 405 C288 375 308 355 335 355 C362 355 380 373 380 400 C374 464 321 506 246 506 C128 506 50 396 50 231 C50 90 116 -4 215 -4 C260 -4 325 26 379 71 L379 71 Z " />
<glyph glyph-name="Dcaron" unicode="&#x10e;" horiz-adv-x="660" d="M400 943 C400 943 343 875 306 830 C284 857 251 897 212 944 L202 936 C176 967 275 759 275 759 C278 751 289 731 307 731 C325 731 335 751 338 759 C401 888 411 936 411 936 L400 943 L400 943 Z M38 661 L49 661 C87 661 113 635 113 596 L113 81 C113 42 87 16 49 16 L38 16 L38 1 L309 1 C490 1 611 136 611 339 C611 541 482 676 288 676 L38 676 L38 661 L38 661 Z M224 29 L224 648 L288 648 C415 648 500 524 500 339 C500 153 424 29 309 29 L224 29 L224 29 Z " />
<glyph glyph-name="dcaron" unicode="&#x10f;" horiz-adv-x="526" d="M511 752 C491 752 480 689 477 644 L463 479 L476 475 L540 621 C560 666 574 719 574 729 C574 746 530 752 511 752 L511 752 Z M241 664 L252 662 C306 651 316 638 316 583 L316 470 C295 491 270 505 245 505 C130 505 54 391 54 220 C54 85 114 -5 205 -5 C233 -5 276 19 316 56 L316 0 L336 0 L491 47 L491 56 L480 58 C426 69 416 82 416 137 L416 720 L396 720 L241 673 L241 664 L241 664 Z M316 71 C303 62 282 56 261 56 C200 56 160 137 160 259 C160 390 192 478 241 478 C269 478 298 456 317 426 L316 71 L316 71 Z " />
<glyph glyph-name="Emacron" unicode="&#x112;" horiz-adv-x="575" d="M174 778 L393 778 L393 834 L174 834 L174 778 L174 778 Z M395 261 L395 449 L383 449 L379 438 C367 400 326 374 275 374 L226 374 L226 647 L308 647 C368 647 421 607 441 547 L452 512 L463 512 L463 675 L40 675 L40 660 L51 660 C89 660 115 634 115 595 L115 80 C115 41 89 15 51 15 L40 15 L40 0 L465 0 L467 14 C475 59 485 118 493 163 L482 163 L465 128 C435 68 375 28 315 28 L226 28 L226 346 L275 346 C326 346 367 317 379 274 L383 261 L395 261 L395 261 Z " />
<glyph glyph-name="emacron" unicode="&#x113;" horiz-adv-x="436" d="M125 603 L343 603 L343 659 L125 659 L125 603 L125 603 Z M385 70 L376 81 C358 66 328 56 301 56 C214 56 156 141 156 269 C156 283 156 296 157 309 L386 309 C386 427 325 505 234 505 C124 505 50 395 50 230 C50 89 117 -5 218 -5 C265 -5 331 25 385 70 L385 70 Z M292 393 C292 365 274 344 246 340 L158 328 C166 419 192 476 228 476 C266 476 292 442 292 392 L292 393 L292 393 Z " />
<glyph glyph-name="Ebreve" unicode="&#x114;" horiz-adv-x="575" d="M197 885 C225 809 260 758 284 758 C308 758 343 809 371 886 L354 892 C339 852 311 825 284 825 C256 825 228 852 213 892 L197 885 L197 885 Z M395 261 L395 449 L383 449 L379 438 C367 400 326 374 275 374 L226 374 L226 647 L308 647 C368 647 421 607 441 547 L452 512 L463 512 L463 675 L40 675 L40 660 L51 660 C89 660 115 634 115 595 L115 80 C115 41 89 15 51 15 L40 15 L40 0 L465 0 L467 14 C475 59 485 118 493 163 L482 163 L465 128 C435 68 375 28 315 28 L226 28 L226 346 L275 346 C326 346 367 317 379 274 L383 261 L395 261 L395 261 Z " />
<glyph glyph-name="ebreve" unicode="&#x115;" horiz-adv-x="436" d="M147 710 C175 634 210 583 234 583 C258 583 293 634 321 711 L304 717 C289 677 261 650 234 650 C207 650 179 677 164 717 L147 710 L147 710 Z M385 70 L376 81 C358 66 328 56 301 56 C214 56 156 141 156 269 C156 283 156 296 157 309 L386 309 C386 427 325 505 234 505 C124 505 50 395 50 230 C50 89 117 -5 218 -5 C265 -5 331 25 385 70 L385 70 Z M292 393 C292 365 274 344 246 340 L158 328 C166 419 192 476 228 476 C266 476 292 442 292 392 L292 393 L292 393 Z " />
<glyph glyph-name="Edot" unicode="&#x116;" horiz-adv-x="575" d="M284 745 C321 745 345 769 345 806 C345 843 321 867 284 867 C247 867 222 843 222 806 C222 769 247 745 284 745 L284 745 Z M395 261 L395 449 L383 449 L379 438 C367 400 326 374 275 374 L226 374 L226 647 L308 647 C368 647 421 607 441 547 L452 512 L463 512 L463 675 L40 675 L40 660 L51 660 C89 660 115 634 115 595 L115 80 C115 41 89 15 51 15 L40 15 L40 0 L465 0 L467 14 C475 59 485 118 493 163 L482 163 L465 128 C435 68 375 28 315 28 L226 28 L226 346 L275 346 C326 346 367 317 379 274 L383 261 L395 261 L395 261 Z " />
<glyph glyph-name="edot" unicode="&#x117;" horiz-adv-x="436" d="M234 570 C271 570 295 594 295 631 C295 668 271 692 234 692 C197 692 173 668 173 631 C173 594 197 570 234 570 L234 570 Z M385 70 L376 81 C358 66 328 56 301 56 C214 56 156 141 156 269 C156 283 156 296 157 309 L386 309 C386 427 325 505 234 505 C124 505 50 395 50 230 C50 89 117 -5 218 -5 C265 -5 331 25 385 70 L385 70 Z M292 393 C292 365 274 344 246 340 L158 328 C166 419 192 476 228 476 C266 476 292 442 292 392 L292 393 L292 393 Z " />
<glyph glyph-name="Eogonek" unicode="&#x118;" horiz-adv-x="575" d="M395 261 L395 449 L383 449 L379 438 C367 400 326 374 275 374 L226 374 L226 647 L308 647 C368 647 421 607 441 547 L452 512 L463 512 L463 675 L40 675 L40 660 L51 660 C89 660 115 634 115 595 L115 80 C115 41 89 15 51 15 L40 15 L40 0 L419 0 C364 -35 294 -101 294 -155 C294 -204 346 -236 424 -236 C459 -236 493 -223 509 -204 L502 -196 C496 -203 474 -208 446 -208 C391 -208 355 -182 355 -144 C355 -81 429 -11 460 0 L464 0 L466 14 C474 59 484 118 492 163 L481 163 L464 128 C434 68 374 28 314 28 L225 28 L225 346 L274 346 C325 346 366 317 378 274 L382 261 L395 261 L395 261 Z " />
<glyph glyph-name="eogonek" unicode="&#x119;" horiz-adv-x="436" d="M292 393 C292 365 274 344 246 340 L158 328 C166 419 192 476 228 476 C266 476 292 442 292 392 L292 393 L292 393 Z M157 308 L386 308 C386 426 325 504 234 504 C124 504 50 394 50 229 C50 88 117 -6 218 -6 C225 -6 233 -5 241 -4 C197 -42 155 -93 155 -138 C155 -197 207 -237 285 -237 C320 -237 354 -224 370 -205 L363 -197 C357 -204 335 -209 307 -209 C252 -209 216 -176 216 -127 C216 -68 270 -6 305 18 C332 31 360 49 385 70 L376 81 C358 66 328 56 301 56 C214 56 156 141 156 269 C156 283 156 296 157 309 L157 308 L157 308 Z " />
<glyph glyph-name="Ecaron" unicode="&#x11a;" horiz-adv-x="575" d="M378 943 C378 943 321 875 284 830 C262 857 229 897 190 944 L180 936 C154 967 253 759 253 759 C256 751 267 731 285 731 C303 731 313 751 316 759 C379 888 389 936 389 936 L378 943 L378 943 Z M396 262 L396 450 L384 450 L380 439 C368 401 327 375 276 375 L227 375 L227 648 L309 648 C369 648 422 608 442 548 L453 513 L464 513 L464 676 L41 676 L41 661 L52 661 C90 661 116 635 116 596 L116 81 C116 42 90 16 52 16 L41 16 L41 1 L466 1 L468 15 C476 60 486 119 494 164 L483 164 L466 129 C436 69 376 29 316 29 L227 29 L227 347 L276 347 C327 347 368 318 380 275 L384 262 L396 262 L396 262 Z " />
<glyph glyph-name="ecaron" unicode="&#x11b;" horiz-adv-x="436" d="M329 768 C329 768 272 700 234 655 C212 682 179 722 139 769 L129 761 C103 792 202 584 202 584 C205 576 216 556 234 556 C252 556 263 576 266 584 C329 713 339 761 339 761 L329 768 L329 768 Z M385 71 L376 82 C358 67 328 57 301 57 C214 57 156 142 156 270 C156 284 156 297 157 310 L386 310 C386 428 325 506 234 506 C124 506 50 396 50 231 C50 90 117 -4 218 -4 C265 -4 331 26 385 71 L385 71 Z M292 394 C292 366 274 345 246 341 L158 329 C166 420 192 477 228 477 C266 477 292 443 292 393 L292 394 L292 394 Z " />
<glyph glyph-name="Gcircumflex" unicode="&#x11c;" horiz-adv-x="732" d="M388 892 C385 900 374 920 356 920 C338 920 327 900 324 892 C324 892 225 684 251 715 L261 707 C301 754 334 794 356 821 C394 776 451 708 451 708 L461 716 C461 716 451 764 388 893 L388 892 L388 892 Z M556 472 L556 622 C495 657 415 681 356 681 C170 681 46 544 46 339 C46 133 170 -4 356 -4 C418 -4 501 20 562 55 L562 238 C562 277 588 303 626 303 L637 303 L637 318 L387 318 L387 303 L398 303 C436 303 462 277 462 238 L462 43 C425 31 387 24 356 24 C244 24 169 150 169 339 C169 527 244 653 356 653 C357 653 373 653 373 652 C439 647 502 590 530 510 C534 499 539 483 543 472 L556 472 L556 472 Z " />
<glyph glyph-name="Gbreve" unicode="&#x11e;" horiz-adv-x="732" d="M269 885 C297 809 332 758 356 758 C380 758 415 809 443 886 L426 892 C411 852 383 825 356 825 C329 825 301 852 286 892 L269 885 L269 885 Z M556 471 L556 621 C495 656 415 680 356 680 C170 680 46 543 46 338 C46 132 170 -5 356 -5 C418 -5 501 19 562 54 L562 237 C562 276 588 302 626 302 L637 302 L637 317 L387 317 L387 302 L398 302 C436 302 462 276 462 237 L462 42 C425 30 387 23 356 23 C244 23 169 149 169 338 C169 526 244 652 356 652 C357 652 373 652 373 651 C439 646 502 589 530 509 C534 498 539 482 543 471 L556 471 L556 471 Z " />
<glyph glyph-name="gbreve" unicode="&#x11f;" horiz-adv-x="395" d="M105 710 C133 634 168 583 192 583 C216 583 251 634 279 711 L262 717 C247 677 219 650 192 650 C165 650 137 677 122 717 L105 710 L105 710 Z M395 500 L268 481 C247 496 221 504 192 504 C111 504 57 441 57 346 C57 277 85 225 132 202 C77 192 43 151 43 94 C43 46 72 10 119 -4 C58 -36 18 -85 18 -130 L85 -118 C85 -69 107 -27 141 -9 C149 -10 157 -11 166 -11 C166 -11 211 -8 192 -8 C259 -8 303 -39 303 -86 C303 -164 244 -216 156 -216 C113 -216 85 -177 85 -119 L18 -130 C18 -198 69 -244 145 -244 C283 -244 375 -160 375 -35 C375 38 313 87 219 87 L161 83 C131 83 111 103 111 132 C111 165 130 187 159 187 L192 187 C272 187 326 250 326 345 C326 382 318 414 303 440 L395 441 L395 500 L395 500 Z M192 208 C168 208 152 262 152 344 C152 426 168 480 192 480 C216 480 232 426 232 344 C232 262 216 208 192 208 L192 208 Z " />
<glyph glyph-name="Gdot" unicode="&#x120;" horiz-adv-x="732" d="M356 745 C393 745 417 769 417 806 C417 843 393 867 356 867 C319 867 295 843 295 806 C295 769 319 745 356 745 L356 745 Z M556 471 L556 621 C495 656 415 680 356 680 C170 680 46 543 46 338 C46 132 170 -5 356 -5 C418 -5 501 19 562 54 L562 237 C562 276 588 302 626 302 L637 302 L637 317 L387 317 L387 302 L398 302 C436 302 462 276 462 237 L462 42 C425 30 387 23 356 23 C244 23 169 149 169 338 C169 526 244 652 356 652 C357 652 373 652 373 651 C439 646 502 589 530 509 C534 498 539 482 543 471 L556 471 L556 471 Z " />
<glyph glyph-name="gdot" unicode="&#x121;" horiz-adv-x="395" d="M192 570 C229 570 253 594 253 631 C253 668 229 692 192 692 C155 692 131 668 131 631 C131 594 155 570 192 570 L192 570 Z M395 500 L268 481 C247 496 221 504 192 504 C111 504 57 441 57 346 C57 277 85 225 132 202 C77 192 43 151 43 94 C43 46 72 10 119 -4 C58 -36 18 -85 18 -130 L85 -118 C85 -69 107 -27 141 -9 C149 -10 157 -11 166 -11 C166 -11 211 -8 192 -8 C259 -8 303 -39 303 -86 C303 -164 244 -216 156 -216 C113 -216 85 -177 85 -119 L18 -130 C18 -198 69 -244 145 -244 C283 -244 375 -160 375 -35 C375 38 313 87 219 87 L161 83 C131 83 111 103 111 132 C111 165 130 187 159 187 L192 187 C272 187 326 250 326 345 C326 382 318 414 303 440 L395 441 L395 500 L395 500 Z M192 208 C168 208 152 262 152 344 C152 426 168 480 192 480 C216 480 232 426 232 344 C232 262 216 208 192 208 L192 208 Z " />
<glyph glyph-name="Hcircumflex" unicode="&#x124;" horiz-adv-x="702" d="M383 892 C380 900 369 920 351 920 C333 920 322 900 319 892 C319 892 220 684 246 715 L256 707 C296 754 329 794 351 821 C389 776 446 708 446 708 L456 716 C456 716 446 764 383 893 L383 892 L383 892 Z M662 16 L651 16 C613 16 587 42 587 81 L587 596 C587 635 613 661 651 661 L662 661 L662 676 L400 676 L400 661 L411 661 C449 661 475 635 475 596 L475 370 L226 370 L226 596 C226 635 252 661 290 661 L301 661 L301 676 L40 676 L40 661 L51 661 C89 661 115 635 115 596 L115 81 C115 42 89 16 51 16 L40 16 L40 1 L301 1 L301 16 L290 16 C252 16 226 42 226 81 L226 342 L475 342 L475 81 C475 42 449 16 411 16 L400 16 L400 1 L662 1 L662 16 L662 16 Z " />
<glyph glyph-name="Itilde" unicode="&#x128;" horiz-adv-x="341" d="M88 770 C88 805 96 828 108 828 C138 828 177 766 207 766 C245 766 271 817 271 893 L254 893 C254 856 244 832 228 832 C199 832 159 895 130 895 C95 895 71 845 71 770 L88 770 L88 770 Z M301 15 L290 15 C252 15 226 41 226 80 L226 595 C226 634 252 660 290 660 L301 660 L301 675 L40 675 L40 660 L51 660 C89 660 115 634 115 595 L115 80 C115 41 89 15 51 15 L40 15 L40 0 L301 0 L301 15 L301 15 Z " />
<glyph glyph-name="itilde" unicode="&#x129;" horiz-adv-x="340" d="M87 595 C87 630 95 653 107 653 C137 653 176 591 206 591 C244 591 270 642 270 718 L253 718 C253 681 243 657 227 657 C198 657 158 720 129 720 C94 720 70 670 70 595 L87 595 L87 595 Z M295 15 L284 15 C246 15 220 41 220 80 L220 500 L200 500 L45 453 L45 444 L56 442 C110 431 120 418 120 363 L120 80 C120 41 94 15 56 15 L45 15 L45 0 L295 0 L295 15 L295 15 Z " />
<glyph glyph-name="Imacron" unicode="&#x12a;" horiz-adv-x="341" d="M62 778 L280 778 L280 834 L62 834 L62 778 L62 778 Z M301 15 L290 15 C252 15 226 41 226 80 L226 595 C226 634 252 660 290 660 L301 660 L301 675 L40 675 L40 660 L51 660 C89 660 115 634 115 595 L115 80 C115 41 89 15 51 15 L40 15 L40 0 L301 0 L301 15 L301 15 Z " />
<glyph glyph-name="imacron" unicode="&#x12b;" horiz-adv-x="340" d="M61 603 L279 603 L279 659 L61 659 L61 603 L61 603 Z M295 15 L284 15 C246 15 220 41 220 80 L220 500 L200 500 L45 453 L45 444 L56 442 C110 431 120 418 120 363 L120 80 C120 41 94 15 56 15 L45 15 L45 0 L295 0 L295 15 L295 15 Z " />
<glyph glyph-name="Ibreve" unicode="&#x12c;" horiz-adv-x="341" d="M84 885 C112 809 147 758 171 758 C195 758 230 809 258 886 L241 892 C226 852 198 825 171 825 C144 825 116 852 101 892 L84 885 L84 885 Z M301 15 L290 15 C252 15 226 41 226 80 L226 595 C226 634 252 660 290 660 L301 660 L301 675 L40 675 L40 660 L51 660 C89 660 115 634 115 595 L115 80 C115 41 89 15 51 15 L40 15 L40 0 L301 0 L301 15 L301 15 Z " />
<glyph glyph-name="ibreve" unicode="&#x12d;" horiz-adv-x="340" d="M83 710 C111 634 146 583 170 583 C194 583 229 634 257 711 L240 717 C225 677 197 650 170 650 C143 650 115 677 100 717 L83 710 L83 710 Z M295 15 L284 15 C246 15 220 41 220 80 L220 500 L200 500 L45 453 L45 444 L56 442 C110 431 120 418 120 363 L120 80 C120 41 94 15 56 15 L45 15 L45 0 L295 0 L295 15 L295 15 Z " />
<glyph glyph-name="Idot" unicode="&#x130;" horiz-adv-x="341" d="M171 745 C208 745 232 769 232 806 C232 843 208 867 171 867 C134 867 110 843 110 806 C110 769 134 745 171 745 L171 745 Z M301 15 L290 15 C252 15 226 41 226 80 L226 595 C226 634 252 660 290 660 L301 660 L301 675 L40 675 L40 660 L51 660 C89 660 115 634 115 595 L115 80 C115 41 89 15 51 15 L40 15 L40 0 L301 0 L301 15 L301 15 Z " />
<glyph glyph-name="dotlessi" unicode="&#x131;" horiz-adv-x="340" d="M295 15 L284 15 C246 15 220 41 220 80 L220 500 L200 500 L45 453 L45 444 L56 442 C110 431 120 418 120 363 L120 80 C120 41 94 15 56 15 L45 15 L45 0 L295 0 L295 15 L295 15 Z " />
<glyph glyph-name="Jcircumflex" unicode="&#x134;" horiz-adv-x="377" d="M238 892 C235 900 225 920 207 920 C189 920 178 900 175 892 C175 892 76 684 102 715 L112 707 C151 754 184 794 206 821 C243 776 300 708 300 708 L310 716 C310 716 300 764 237 893 L238 892 L238 892 Z M336 676 L75 676 L75 661 L86 661 C124 661 150 635 150 596 L150 206 C150 67 144 13 128 13 C110 13 96 31 93 57 C90 83 70 101 43 101 C14 101 -4 83 -1 57 C3 17 44 -9 100 -9 C217 -9 262 77 262 299 C261 300 261 488 261 598 C262 636 288 661 325 661 L336 661 L336 676 L336 676 Z " />
<glyph glyph-name="Lacute" unicode="&#x139;" horiz-adv-x="575" d="M147 705 C147 705 231 790 262 830 C284 855 299 873 299 879 C299 892 259 921 242 921 C238 921 226 901 211 870 C180 830 136 714 136 714 L147 705 L147 705 Z M477 178 L451 118 C428 64 378 28 324 28 L226 28 L226 595 C226 634 252 660 290 660 L301 660 L301 675 L40 675 L40 660 L51 660 C89 660 115 634 115 595 L115 80 C115 41 89 15 51 15 L40 15 L40 0 L464 0 L466 14 L467 14 C476 61 487 123 495 170 C489 173 477 178 477 178 L477 178 Z " />
<glyph glyph-name="Lcaron" unicode="&#x13d;" horiz-adv-x="575" d="M396 707 C376 707 365 644 362 599 L348 434 L361 430 L425 576 C445 621 459 674 459 684 C459 701 415 707 396 707 L396 707 Z M477 178 L451 118 C428 64 378 28 324 28 L226 28 L226 595 C226 634 252 660 290 660 L301 660 L301 675 L40 675 L40 660 L51 660 C89 660 115 634 115 595 L115 80 C115 41 89 15 51 15 L40 15 L40 0 L464 0 L466 14 L467 14 C476 61 487 123 495 170 C489 173 477 178 477 178 L477 178 Z " />
<glyph glyph-name="lcaron" unicode="&#x13e;" horiz-adv-x="340" d="M315 722 C295 722 284 659 281 614 L267 449 L280 445 L344 591 C364 636 378 689 378 699 C378 716 334 722 315 722 L315 722 Z M295 15 L284 15 C246 15 220 41 220 80 L220 720 L200 720 L45 673 L45 664 L56 662 C110 651 120 638 120 583 L120 80 C120 41 94 15 56 15 L45 15 L45 0 L295 0 L295 15 L295 15 Z " />
<glyph glyph-name="Lslash" unicode="&#x141;" horiz-adv-x="575" d="M40 0 L464 0 L466 14 L467 14 C476 61 487 123 495 170 C489 173 477 178 477 178 L451 118 C428 64 378 28 324 28 L226 28 L226 329 L343 371 L343 404 L226 362 L226 595 C226 634 252 660 290 660 L301 660 L301 675 L40 675 L40 660 L51 660 C89 660 115 634 115 595 L115 322 L65 304 L65 271 L115 289 L115 80 C115 41 89 15 51 15 L40 15 L40 0 L40 0 Z " />
<glyph glyph-name="lslash" unicode="&#x142;" horiz-adv-x="340" d="M45 0 L295 0 L295 15 L284 15 C246 15 220 41 220 80 L220 360 L320 393 L320 427 L220 394 L220 720 L200 720 L45 673 L45 664 L56 662 C110 651 120 638 120 583 L120 360 L20 327 L20 293 L120 326 L120 80 C120 41 94 15 56 15 L45 15 L45 0 L45 0 Z " />
<glyph glyph-name="Nacute" unicode="&#x143;" horiz-adv-x="637" d="M288 705 C288 705 372 790 403 830 C425 855 440 873 440 879 C440 892 400 921 383 921 C379 921 367 901 352 870 C321 830 277 714 277 714 L288 705 L288 705 Z M39 660 L50 660 C88 660 114 634 114 595 L114 80 C114 41 88 15 50 15 L39 15 L39 0 L222 0 L222 15 L211 15 C173 15 147 41 147 80 L147 567 C256 371 364 175 474 -20 L522 -20 L522 595 C522 634 548 660 586 660 L597 660 L597 675 L414 675 L414 660 L425 660 C463 660 489 634 489 595 L489 172 L213 675 L39 675 L39 660 L39 660 Z " />
<glyph glyph-name="nacute" unicode="&#x144;" horiz-adv-x="551" d="M201 530 C201 530 285 615 316 655 C338 680 353 698 353 704 C353 717 313 746 296 746 C292 746 280 726 265 695 C234 655 190 539 190 539 L201 530 L201 530 Z M511 15 L500 15 C462 15 436 41 436 80 L436 338 C436 438 412 505 352 505 C300 505 249 482 219 446 L219 500 L199 500 L44 453 L44 444 L55 442 C109 431 119 418 119 363 L119 80 C119 41 93 15 55 15 L44 15 L44 0 L511 0 L511 15 L511 15 Z M277 15 C242 17 218 42 218 79 L218 428 C230 434 250 437 273 437 C318 437 335 393 335 326 L335 79 C335 42 311 17 276 15 L277 15 L277 15 Z " />
<glyph glyph-name="Ncaron" unicode="&#x147;" horiz-adv-x="637" d="M413 943 C413 943 356 875 318 830 C296 857 263 897 223 944 L213 936 C187 967 286 759 286 759 C289 751 300 731 318 731 C336 731 347 751 350 759 C413 888 423 936 423 936 L413 943 L413 943 Z M39 661 L50 661 C88 661 114 635 114 596 L114 81 C114 42 88 16 50 16 L39 16 L39 1 L222 1 L222 16 L211 16 C173 16 147 42 147 81 L147 568 C256 372 364 176 474 -19 L522 -19 L522 596 C522 635 548 661 586 661 L597 661 L597 676 L414 676 L414 661 L425 661 C463 661 489 635 489 596 L489 173 L213 676 L39 676 L39 661 L39 661 Z " />
<glyph glyph-name="ncaron" unicode="&#x148;" horiz-adv-x="551" d="M372 768 C372 768 315 700 278 655 C256 682 223 722 184 769 L174 761 C148 792 247 584 247 584 C250 576 261 556 279 556 C297 556 307 576 310 584 C373 713 383 761 383 761 L372 768 L372 768 Z M512 16 L501 16 C463 16 437 42 437 81 L437 339 C437 439 413 506 353 506 C301 506 250 483 220 447 L220 501 L200 501 L45 454 L45 445 L56 443 C110 432 120 419 120 364 L120 81 C120 42 94 16 56 16 L45 16 L45 1 L512 1 L512 16 L512 16 Z M278 16 C243 18 219 43 219 80 L219 429 C231 435 251 438 274 438 C319 438 336 394 336 327 L336 80 C336 43 312 18 277 16 L278 16 L278 16 Z " />
<glyph glyph-name="Omacron" unicode="&#x14c;" horiz-adv-x="677" d="M227 778 L446 778 L446 834 L227 834 L227 778 L227 778 Z M169 338 C169 508 226 652 337 652 C448 652 505 508 505 338 C505 168 448 23 337 23 C226 23 169 168 169 338 L169 338 Z M46 338 C46 153 145 -5 337 -5 C528 -5 627 153 627 338 C627 523 528 680 337 680 C145 680 46 523 46 338 L46 338 Z " />
<glyph glyph-name="omacron" unicode="&#x14d;" horiz-adv-x="522" d="M152 603 L370 603 L370 659 L152 659 L152 603 L152 603 Z M161 250 C161 390 201 483 261 483 C320 483 360 390 360 250 C360 110 320 17 261 17 C201 17 161 110 161 250 L161 250 Z M50 250 C50 97 134 -5 261 -5 C388 -5 472 97 472 250 C472 403 388 505 261 505 C134 505 50 403 50 250 L50 250 Z " />
<glyph glyph-name="Obreve" unicode="&#x14e;" horiz-adv-x="677" d="M250 885 C278 809 313 758 337 758 C361 758 396 809 424 886 L407 892 C392 852 364 825 337 825 C309 825 281 852 266 892 L250 885 L250 885 Z M169 338 C169 508 226 652 337 652 C448 652 505 508 505 338 C505 168 448 23 337 23 C226 23 169 168 169 338 L169 338 Z M46 338 C46 153 145 -5 337 -5 C528 -5 627 153 627 338 C627 523 528 680 337 680 C145 680 46 523 46 338 L46 338 Z " />
<glyph glyph-name="obreve" unicode="&#x14f;" horiz-adv-x="522" d="M174 710 C202 634 237 583 261 583 C285 583 320 634 348 711 L331 717 C316 677 288 650 261 650 C234 650 206 677 191 717 L174 710 L174 710 Z M161 250 C161 390 201 483 261 483 C320 483 360 390 360 250 C360 110 320 17 261 17 C201 17 161 110 161 250 L161 250 Z M50 250 C50 97 134 -5 261 -5 C388 -5 472 97 472 250 C472 403 388 505 261 505 C134 505 50 403 50 250 L50 250 Z " />
<glyph glyph-name="Racute" unicode="&#x154;" horiz-adv-x="591" d="M227 705 C227 705 311 790 342 830 C364 855 379 873 379 879 C379 892 339 921 322 921 C318 921 306 901 291 870 C260 830 216 714 216 714 L227 705 L227 705 Z M37 660 L48 660 C86 660 112 634 112 595 L112 80 C112 41 86 15 48 15 L37 15 L37 0 L298 0 L298 15 L287 15 C249 15 223 41 223 80 L223 320 L244 320 C266 281 308 205 362 106 C418 4 426 0 552 0 L591 0 L591 22 C549 22 548 23 514 85 C442 216 389 304 370 336 C448 362 496 422 496 501 C496 606 411 676 284 676 L38 676 L37 660 L37 660 Z M272 349 L224 349 L224 648 L284 648 C342 648 380 589 380 501 C380 410 337 349 272 349 L272 349 Z " />
<glyph glyph-name="Rcaron" unicode="&#x158;" horiz-adv-x="591" d="M398 943 C398 943 341 875 304 830 C282 857 249 897 210 944 L200 936 C174 967 273 759 273 759 C276 751 287 731 305 731 C323 731 333 751 336 759 C399 888 409 936 409 936 L398 943 L398 943 Z M38 661 L49 661 C87 661 113 635 113 596 L113 81 C113 42 87 16 49 16 L38 16 L38 1 L299 1 L299 16 L288 16 C250 16 224 42 224 81 L224 321 L245 321 C267 282 309 206 363 107 C419 5 427 1 553 1 L592 1 L592 23 C550 23 549 24 515 86 C443 217 390 305 371 337 C449 363 497 423 497 502 C497 607 412 677 285 677 L39 677 L38 661 L38 661 Z M273 350 L225 350 L225 649 L285 649 C343 649 381 590 381 502 C381 411 338 350 273 350 L273 350 Z " />
<glyph glyph-name="rcaron" unicode="&#x159;" horiz-adv-x="415" d="M322 768 C322 768 265 700 228 655 C206 682 173 722 134 769 L124 761 C98 792 197 584 197 584 C200 576 211 556 229 556 C247 556 257 576 260 584 C323 713 333 761 333 761 L322 768 L322 768 Z M45 445 L56 443 C110 432 120 419 120 364 L120 81 C120 42 94 16 56 16 L45 16 L45 1 L295 1 L295 16 L284 16 C246 16 220 42 220 81 L220 422 C229 428 243 432 258 432 C288 432 328 393 358 393 C387 393 406 412 406 441 C406 480 387 506 337 506 C290 506 246 481 220 442 L220 501 L200 501 L45 454 L45 445 L45 445 Z " />
<glyph glyph-name="Sacute" unicode="&#x15a;" horiz-adv-x="430" d="M168 705 C168 705 252 790 283 830 C305 855 320 873 320 879 C320 892 280 921 263 921 C259 921 247 901 232 870 C201 830 157 714 157 714 L168 705 L168 705 Z M344 475 L344 633 C295 661 245 680 219 680 C113 680 42 599 42 477 C42 406 92 334 167 297 C251 256 307 194 307 141 C307 70 265 23 202 23 C150 23 95 79 66 163 C62 174 57 189 53 200 L40 200 L40 42 L50 59 L50 59 L40 42 C89 14 154 -5 202 -5 C312 -5 385 71 385 186 C385 261 330 338 247 378 C170 415 119 473 119 522 C119 601 157 653 214 653 C218 653 226 650 237 645 C263 631 286 601 299 563 C308 536 321 501 330 474 L344 475 L344 475 Z " />
<glyph glyph-name="sacute" unicode="&#x15b;" horiz-adv-x="341" d="M115 530 C115 530 199 615 230 655 C252 680 267 698 267 704 C267 717 227 746 210 746 C206 746 194 726 179 695 C148 655 104 539 104 539 L115 530 L115 530 Z M268 359 L268 465 C226 489 196 505 191 505 C109 505 54 449 54 366 C54 315 90 254 143 215 C181 187 207 145 207 112 C207 56 184 18 150 18 C147 18 141 20 132 24 C111 37 87 72 68 119 C65 127 60 138 57 146 L46 146 L46 30 C82 9 122 -5 144 -5 C232 -5 291 57 291 149 C291 196 260 251 214 285 C164 322 131 368 131 400 C131 450 155 483 191 483 C184 483 184 479 190 473 L190 483 C196 483 204 476 212 463 C208 464 204 464 200 464 C205 460 211 456 219 451 C231 430 247 391 255 359 L268 359 L268 359 Z M190 473 C193 471 196 468 200 465 C197 465 194 465 191 465 L190 473 L190 473 Z " />
<glyph glyph-name="Scircumflex" unicode="&#x15c;" horiz-adv-x="430" d="M246 892 C243 900 232 920 214 920 C196 920 185 900 182 892 C182 892 83 684 109 715 L119 707 C159 754 192 794 214 821 C252 776 309 708 309 708 L319 716 C319 716 309 764 246 893 L246 892 L246 892 Z M344 476 L344 634 C295 662 245 681 219 681 C113 681 42 600 42 478 C42 407 92 335 167 298 C251 257 307 195 307 142 C307 71 265 24 202 24 C150 24 95 80 66 164 C62 175 57 190 53 201 L40 201 L40 43 L50 60 L50 60 L40 43 C89 15 154 -4 202 -4 C312 -4 385 72 385 187 C385 262 330 339 247 379 C170 416 119 474 119 523 C119 602 157 654 214 654 C218 654 226 651 237 646 C263 632 286 602 299 564 C308 537 321 502 330 475 L344 476 L344 476 Z " />
<glyph glyph-name="Scedilla" unicode="&#x15e;" horiz-adv-x="430" d="M344 475 L344 633 C295 661 245 680 219 680 C113 680 42 599 42 477 C42 406 92 334 167 297 C251 256 307 194 307 141 C307 70 265 23 202 23 C150 23 95 79 66 163 C62 174 57 189 53 200 L40 200 L40 42 L50 59 L50 59 L40 42 C86 16 146 -2 193 -4 C190 -15 181 -47 168 -90 L175 -92 C184 -83 192 -77 197 -77 C210 -77 218 -99 218 -133 C218 -167 202 -190 177 -190 C162 -190 148 -184 141 -176 L137 -188 C153 -207 177 -219 197 -219 C246 -219 279 -185 279 -133 C279 -87 255 -57 220 -57 C205 -57 190 -63 182 -71 C196 -29 208 -12 216 -5 C319 1 386 75 386 185 C386 260 331 337 248 377 C171 414 120 472 120 521 C120 600 158 652 215 652 C219 652 227 649 238 644 C264 630 287 600 300 562 C309 535 322 500 331 473 L344 475 L344 475 Z M221 -3 C225 -2 227 -3 227 -3 L221 -3 L221 -3 Z " />
<glyph glyph-name="scedilla" unicode="&#x15f;" horiz-adv-x="341" d="M268 359 L268 465 C226 489 196 505 191 505 C109 505 54 449 54 366 C54 315 90 254 143 215 C181 187 207 145 207 112 C207 56 184 18 150 18 C147 18 141 20 132 24 C111 37 87 72 68 119 C65 127 60 138 57 146 L46 146 L46 30 C78 12 113 -1 136 -4 C133 -14 124 -47 111 -91 L118 -93 C127 -84 135 -78 140 -78 C153 -78 161 -100 161 -134 C161 -168 145 -191 120 -191 C105 -191 91 -185 84 -177 L80 -189 C96 -208 120 -220 140 -220 C189 -220 222 -186 222 -134 C222 -88 198 -58 163 -58 C148 -58 133 -64 125 -72 C139 -29 151 -12 159 -5 C239 1 292 61 292 148 C292 195 261 250 215 284 C165 321 132 367 132 399 C132 449 156 482 192 482 C185 482 185 478 191 472 L191 482 C197 482 205 475 213 462 C209 463 205 463 201 463 C206 459 212 455 220 450 C232 429 248 390 256 358 L268 359 L268 359 Z M163 -2 C167 -1 169 -2 169 -2 L163 -2 L163 -2 Z M191 472 C194 470 197 467 201 464 C198 464 195 464 192 464 L191 472 L191 472 Z " />
<glyph glyph-name="Scaron" unicode="&#x160;" horiz-adv-x="430" d="M309 943 C309 943 252 875 214 830 C192 857 159 897 119 944 L109 936 C83 967 182 759 182 759 C185 751 196 731 214 731 C232 731 243 751 246 759 C309 888 319 936 319 936 L309 943 L309 943 Z M344 476 L344 634 C295 662 245 681 219 681 C113 681 42 600 42 478 C42 407 92 335 167 298 C251 257 307 195 307 142 C307 71 265 24 202 24 C150 24 95 80 66 164 C62 175 57 190 53 201 L40 201 L40 43 L50 60 L50 60 L40 43 C89 15 154 -4 202 -4 C312 -4 385 72 385 187 C385 262 330 339 247 379 C170 416 119 474 119 523 C119 602 157 654 214 654 C218 654 226 651 237 646 C263 632 286 602 299 564 C308 537 321 502 330 475 L344 476 L344 476 Z " />
<glyph glyph-name="scaron" unicode="&#x161;" horiz-adv-x="341" d="M286 768 C286 768 229 700 191 655 C169 682 136 722 96 769 L86 761 C60 792 159 584 159 584 C162 576 173 556 191 556 C209 556 220 576 223 584 C286 713 296 761 296 761 L286 768 L286 768 Z M268 360 L268 466 C226 490 196 506 191 506 C109 506 54 450 54 367 C54 316 90 255 143 216 C181 188 207 146 207 113 C207 57 184 19 150 19 C147 19 141 21 132 25 C111 38 87 73 68 120 C65 128 60 139 57 147 L46 147 L46 31 C82 10 122 -4 144 -4 C232 -4 291 58 291 150 C291 197 260 252 214 286 C164 323 131 369 131 401 C131 451 155 484 191 484 C184 484 184 480 190 474 L190 484 C196 484 204 477 212 464 C208 465 204 465 200 465 C205 461 211 457 219 452 C231 431 247 392 255 360 L268 360 L268 360 Z M190 474 C193 472 196 469 200 466 C197 466 194 466 191 466 L190 474 L190 474 Z " />
<glyph glyph-name="Tcaron" unicode="&#x164;" horiz-adv-x="539" d="M365 943 C365 943 308 875 270 830 C248 857 215 897 175 944 L165 936 C139 967 238 759 238 759 C241 751 252 731 270 731 C288 731 299 751 302 759 C365 888 375 936 375 936 L365 943 L365 943 Z M139 1 L400 1 L400 16 L389 16 C351 16 325 42 325 81 L325 648 L388 648 C436 648 482 616 501 568 L529 498 L541 498 C537 547 531 613 527 662 L526 676 L13 676 L12 662 C8 613 2 547 -2 498 L10 498 L38 568 C57 616 103 648 151 648 L214 648 L214 81 C214 42 188 16 150 16 L139 16 L139 1 L139 1 Z " />
<glyph glyph-name="tcaron" unicode="&#x165;" horiz-adv-x="339" d="M307 500 L172 500 L172 640 L155 640 C111 546 59 479 25 472 L25 461 L72 461 L72 118 C72 22 94 -5 173 -5 C238 -5 281 16 319 48 L312 57 C300 47 276 40 222 40 C182 40 171 53 171 100 C171 208 172 461 172 461 L307 461 L307 500 L307 500 Z M402 722 C382 722 371 659 368 614 L354 449 L367 445 L431 591 C451 636 465 689 465 699 C465 716 421 722 402 722 L402 722 Z " />
<glyph glyph-name="Utilde" unicode="&#x168;" horiz-adv-x="607" d="M219 770 C219 805 227 828 239 828 C269 828 308 766 338 766 C376 766 402 817 402 893 L385 893 C385 856 375 832 359 832 C330 832 290 895 261 895 C226 895 202 845 202 770 L219 770 L219 770 Z M587 675 L379 675 L379 660 L394 660 C437 660 466 633 469 591 L468 195 C468 98 427 34 322 34 C244 34 213 98 213 193 L213 595 C213 634 239 660 277 660 L288 660 L288 675 L27 675 L27 660 L38 660 C76 660 102 634 102 595 L102 215 C102 83 159 -5 306 -5 C447 -5 502 71 502 184 L502 585 C502 630 531 660 574 660 L587 660 L587 675 L587 675 Z " />
<glyph glyph-name="utilde" unicode="&#x169;" horiz-adv-x="516" d="M165 595 C165 630 173 653 185 653 C215 653 254 591 284 591 C322 591 347 642 347 718 L330 718 C330 681 320 657 305 657 C275 657 236 720 206 720 C171 720 148 670 148 595 L165 595 L165 595 Z M481 56 L470 58 C416 69 406 82 406 137 L406 500 L231 500 L231 485 L242 485 C280 485 306 459 306 420 L306 82 C292 69 279 61 267 61 C216 61 189 103 189 165 L189 500 L14 500 L14 485 L25 485 C63 485 89 459 89 420 L89 420 L90 154 C90 59 124 -5 189 -5 C219 -5 261 23 306 66 L306 0 L326 0 L481 47 L481 56 L481 56 Z " />
<glyph glyph-name="Umacron" unicode="&#x16a;" horiz-adv-x="607" d="M193 778 L411 778 L411 834 L193 834 L193 778 L193 778 Z M587 675 L379 675 L379 660 L394 660 C437 660 466 633 469 591 L468 195 C468 98 427 34 322 34 C244 34 213 98 213 193 L213 595 C213 634 239 660 277 660 L288 660 L288 675 L27 675 L27 660 L38 660 C76 660 102 634 102 595 L102 215 C102 83 159 -5 306 -5 C447 -5 502 71 502 184 L502 585 C502 630 531 660 574 660 L587 660 L587 675 L587 675 Z " />
<glyph glyph-name="umacron" unicode="&#x16b;" horiz-adv-x="516" d="M138 603 L357 603 L357 659 L138 659 L138 603 L138 603 Z M481 56 L470 58 C416 69 406 82 406 137 L406 500 L231 500 L231 485 L242 485 C280 485 306 459 306 420 L306 82 C292 69 279 61 267 61 C216 61 189 103 189 165 L189 500 L14 500 L14 485 L25 485 C63 485 89 459 89 420 L89 420 L90 154 C90 59 124 -5 189 -5 C219 -5 261 23 306 66 L306 0 L326 0 L481 47 L481 56 L481 56 Z " />
<glyph glyph-name="Ubreve" unicode="&#x16c;" horiz-adv-x="607" d="M215 885 C243 809 278 758 302 758 C326 758 361 809 389 886 L372 892 C357 852 329 825 302 825 C275 825 247 852 232 892 L215 885 L215 885 Z M587 675 L379 675 L379 660 L394 660 C437 660 466 633 469 591 L468 195 C468 98 427 34 322 34 C244 34 213 98 213 193 L213 595 C213 634 239 660 277 660 L288 660 L288 675 L27 675 L27 660 L38 660 C76 660 102 634 102 595 L102 215 C102 83 159 -5 306 -5 C447 -5 502 71 502 184 L502 585 C502 630 531 660 574 660 L587 660 L587 675 L587 675 Z " />
<glyph glyph-name="ubreve" unicode="&#x16d;" horiz-adv-x="516" d="M161 710 C189 634 224 583 248 583 C272 583 307 634 335 711 L318 717 C303 677 275 650 248 650 C220 650 192 677 177 717 L161 710 L161 710 Z M481 56 L470 58 C416 69 406 82 406 137 L406 500 L231 500 L231 485 L242 485 C280 485 306 459 306 420 L306 82 C292 69 279 61 267 61 C216 61 189 103 189 165 L189 500 L14 500 L14 485 L25 485 C63 485 89 459 89 420 L89 420 L90 154 C90 59 124 -5 189 -5 C219 -5 261 23 306 66 L306 0 L326 0 L481 47 L481 56 L481 56 Z " />
<glyph glyph-name="Uring" unicode="&#x16e;" horiz-adv-x="607" d="M234 803 C234 845 261 873 302 873 C343 873 370 845 370 803 C370 765 339 732 302 732 C265 732 234 765 234 803 L234 803 Z M206 803 C206 753 250 710 302 710 C354 710 398 753 398 803 C398 858 360 895 302 895 C244 895 206 858 206 803 L206 803 Z M587 675 L379 675 L379 660 L394 660 C437 660 466 633 469 591 L468 195 C468 98 427 34 322 34 C244 34 213 98 213 193 L213 595 C213 634 239 660 277 660 L288 660 L288 675 L27 675 L27 660 L38 660 C76 660 102 634 102 595 L102 215 C102 83 159 -5 306 -5 C447 -5 502 71 502 184 L502 585 C502 630 531 660 574 660 L587 660 L587 675 L587 675 Z " />
<glyph glyph-name="uring" unicode="&#x16f;" horiz-adv-x="516" d="M180 628 C180 670 207 698 248 698 C288 698 315 670 315 628 C315 590 284 557 248 557 C211 557 180 590 180 628 L180 628 Z M152 628 C152 578 196 535 248 535 C299 535 343 578 343 628 C343 683 305 720 248 720 C190 720 152 683 152 628 L152 628 Z M481 56 L470 58 C416 69 406 82 406 137 L406 500 L231 500 L231 485 L242 485 C280 485 306 459 306 420 L306 82 C292 69 279 61 267 61 C216 61 189 103 189 165 L189 500 L14 500 L14 485 L25 485 C63 485 89 459 89 420 L89 420 L90 154 C90 59 124 -5 189 -5 C219 -5 261 23 306 66 L306 0 L326 0 L481 47 L481 56 L481 56 Z " />
<glyph glyph-name="Wcircumflex" unicode="&#x174;" horiz-adv-x="831" d="M267 675 L-1 675 L-1 660 C37 660 64 639 78 595 L78 595 L262 -15 L290 -15 L461 685 L433 685 L303 153 L195 601 C190 636 210 659 247 659 L268 659 L267 675 L267 675 Z M480 891 C477 899 466 919 448 919 C430 919 419 899 416 891 C416 891 317 683 343 714 L353 706 C393 753 426 793 448 820 C486 775 543 707 543 707 L553 715 C553 715 543 763 480 892 L480 891 L480 891 Z M828 675 L619 675 L619 660 L656 660 C692 660 712 638 708 604 L565 -15 L593 -15 L738 595 C747 634 779 660 817 660 L828 660 L828 675 L828 675 Z M565 -15 L606 164 L462 685 L416 495 L565 -15 L565 -15 Z " />
<glyph glyph-name="Ycircumflex" unicode="&#x176;" horiz-adv-x="574" d="M318 892 C315 900 304 920 286 920 C268 920 257 900 254 892 C254 892 155 684 181 715 L191 707 C231 754 264 794 286 821 C324 776 381 708 381 708 L391 716 C391 716 381 764 318 893 L318 892 L318 892 Z M275 676 L4 676 L4 661 C38 661 66 642 87 602 L230 300 L230 81 C230 42 204 16 166 16 L155 16 L155 1 L416 1 L416 16 L405 16 C367 16 341 42 341 81 L341 344 L479 602 C503 643 535 662 576 662 L576 677 L376 677 L376 662 L393 662 C441 662 459 632 439 587 L321 361 L216 605 C204 640 220 663 256 663 L275 663 L275 676 L275 676 Z " />
<glyph glyph-name="Ydieresis" unicode="&#x178;" horiz-adv-x="574" d="M376 745 C413 745 438 769 438 806 C438 843 413 867 376 867 C339 867 315 843 315 806 C315 769 339 745 376 745 L376 745 Z M196 745 C233 745 257 769 257 806 C257 843 233 867 196 867 C159 867 134 843 134 806 C134 769 159 745 196 745 L196 745 Z M275 675 L4 675 L4 660 C38 660 66 641 87 601 L230 299 L230 80 C230 41 204 15 166 15 L155 15 L155 0 L416 0 L416 15 L405 15 C367 15 341 41 341 80 L341 343 L479 601 C503 642 535 661 576 661 L576 676 L376 676 L376 661 L393 661 C441 661 459 631 439 586 L321 360 L216 604 C204 639 220 662 256 662 L275 662 L275 675 L275 675 Z " />
<glyph glyph-name="Zacute" unicode="&#x179;" horiz-adv-x="511" d="M282 705 C282 705 366 790 397 830 C419 855 434 873 434 879 C434 892 394 921 377 921 C373 921 361 901 346 870 C315 830 271 714 271 714 L282 705 L282 705 Z M434 179 L408 119 C385 65 335 29 281 29 L173 29 L448 675 L92 675 L88 661 L87 661 C77 621 63 567 52 527 L64 527 L91 567 C123 615 177 647 225 647 L310 647 L37 0 L421 0 L424 14 L425 14 C433 61 444 124 452 171 C446 174 434 179 434 179 L434 179 Z " />
<glyph glyph-name="zacute" unicode="&#x17a;" horiz-adv-x="403" d="M148 530 C148 530 232 615 263 655 C285 680 300 698 300 704 C300 717 260 746 243 746 C239 746 227 726 212 695 C181 655 137 539 137 539 L148 530 L148 530 Z M340 173 L314 113 C291 59 241 23 187 23 L187 22 L167 22 L352 500 L70 500 L67 489 L67 489 C59 458 48 418 40 387 L52 387 L63 401 C99 447 156 477 204 477 L204 478 L227 478 L41 0 L327 0 L329 11 L330 11 C338 57 349 119 357 165 C351 168 339 173 339 173 L340 173 L340 173 Z " />
<glyph glyph-name="Zdot" unicode="&#x17b;" horiz-adv-x="511" d="M283 745 C320 745 344 769 344 806 C344 843 320 867 283 867 C246 867 221 843 221 806 C221 769 246 745 283 745 L283 745 Z M434 179 L408 119 C385 65 335 29 281 29 L173 29 L448 675 L92 675 L88 661 L87 661 C77 621 63 567 52 527 L64 527 L91 567 C123 615 177 647 225 647 L310 647 L37 0 L421 0 L424 14 L425 14 C433 61 444 124 452 171 C446 174 434 179 434 179 L434 179 Z " />
<glyph glyph-name="zdot" unicode="&#x17c;" horiz-adv-x="403" d="M225 570 C262 570 286 594 286 631 C286 668 262 692 225 692 C188 692 163 668 163 631 C163 594 188 570 225 570 L225 570 Z M340 173 L314 113 C291 59 241 23 187 23 L187 22 L167 22 L352 500 L70 500 L67 489 L67 489 C59 458 48 418 40 387 L52 387 L63 401 C99 447 156 477 204 477 L204 478 L227 478 L41 0 L327 0 L329 11 L330 11 C338 57 349 119 357 165 C351 168 339 173 339 173 L340 173 L340 173 Z " />
<glyph glyph-name="Zcaron" unicode="&#x17d;" horiz-adv-x="511" d="M377 943 C377 943 320 875 283 830 C261 857 228 897 189 944 L179 936 C153 967 252 759 252 759 C255 751 266 731 284 731 C302 731 312 751 315 759 C378 888 388 936 388 936 L377 943 L377 943 Z M435 180 L409 120 C386 66 336 30 282 30 L174 30 L449 676 L93 676 L89 662 L88 662 C78 622 64 568 53 528 L65 528 L92 568 C124 616 178 648 226 648 L311 648 L38 1 L422 1 L425 15 L426 15 C434 62 445 125 453 172 C447 175 435 180 435 180 L435 180 Z " />
<glyph glyph-name="zcaron" unicode="&#x17e;" horiz-adv-x="403" d="M319 768 C319 768 262 700 225 655 C203 682 170 722 131 769 L121 761 C95 792 194 584 194 584 C197 576 208 556 226 556 C244 556 254 576 257 584 C320 713 330 761 330 761 L319 768 L319 768 Z M341 174 L315 114 C292 60 242 24 188 24 L188 23 L168 23 L353 501 L71 501 L68 490 L68 490 C60 459 49 419 41 388 L53 388 L64 402 C100 448 157 478 205 478 L205 479 L228 479 L42 1 L328 1 L330 12 L331 12 C339 58 350 120 358 166 C352 169 340 174 340 174 L341 174 L341 174 Z " />
<glyph glyph-name="oogonek" unicode="&#x1eb;" horiz-adv-x="643" d="M633 -52 L623 -44 C610 -60 564 -70 508 -70 C436 -70 378 -45 333 -5 C505 0 593 129 593 279 C593 432 501 563 322 563 C142 563 50 432 50 279 C50 133 133 7 296 -5 C377 -84 449 -136 498 -136 C537 -136 591 -103 633 -53 L633 -52 L633 -52 Z M160 278 C160 418 215 537 322 537 C428 537 483 418 483 278 C483 138 428 19 322 19 C215 19 160 138 160 278 L160 278 Z " />
<glyph glyph-name="Adotabove" unicode="&#x226;" horiz-adv-x="610" d="M286 745 C323 745 347 769 347 806 C347 843 323 867 286 867 C249 867 225 843 225 806 C225 769 249 745 286 745 L286 745 Z M-3 0 L215 0 L215 15 L189 15 C141 15 118 47 132 95 L132 95 L172 238 L346 238 C363 185 380 132 396 80 C409 41 391 15 352 15 L317 15 L317 0 L604 0 L604 15 C562 15 532 36 516 80 L516 80 L299 690 L271 690 L89 73 C75 38 44 15 8 15 L-4 15 L-3 0 L-3 0 Z M336 267 L180 267 L253 525 L336 267 L336 267 Z " />
<glyph glyph-name="G_sc" unicode="&#x262;" horiz-adv-x="687" d="M511 356 L511 504 L505 493 L505 493 L511 504 C450 539 377 563 329 563 C162 563 50 449 50 279 C50 109 162 -5 329 -5 C379 -5 455 19 517 55 L517 182 C517 221 543 247 581 247 L592 247 L592 262 L352 262 L352 247 L363 247 C401 247 427 221 427 182 L427 41 C391 28 356 20 329 20 C228 20 160 124 160 279 C160 434 228 538 329 538 C394 538 456 480 485 394 C489 383 494 367 498 356 L511 356 L511 356 Z " />
<glyph glyph-name="I_sc" unicode="&#x26a;" horiz-adv-x="336" d="M296 15 L285 15 C247 15 221 41 221 80 L221 478 C221 517 247 543 285 543 L296 543 L296 558 L46 558 L46 543 L57 543 C95 543 121 517 121 478 L121 80 C121 41 95 15 57 15 L46 15 L46 0 L296 0 L296 15 L296 15 Z " />
<glyph glyph-name="N_sc" unicode="&#x274;" horiz-adv-x="599" d="M40 543 L51 543 C89 543 115 517 115 478 L115 80 C115 41 89 15 51 15 L40 15 L40 0 L220 0 L220 15 L209 15 C171 15 145 41 145 80 L145 464 C245 303 345 142 445 -20 L484 -20 L484 478 C484 517 510 543 548 543 L559 543 L559 558 L379 558 L379 543 L390 543 C428 543 454 517 454 478 L454 149 L204 558 L40 558 L40 543 L40 543 Z M145 517 L145 517 L145 517 Z " />
<glyph glyph-name="R_sc" unicode="&#x280;" horiz-adv-x="542" d="M40 543 L51 543 C89 543 115 517 115 478 L115 80 C115 41 89 15 51 15 L40 15 L40 0 L290 0 L290 15 L279 15 C241 15 215 41 215 80 L215 264 L223 264 C242 234 277 178 323 106 C388 4 395 0 507 0 L542 0 L542 20 C503 20 503 20 460 87 C398 184 352 251 334 277 C401 300 442 350 442 416 C442 501 367 558 254 558 L39 558 L40 543 L40 543 Z M246 289 L214 289 L214 533 L254 533 C304 533 337 486 337 416 C337 340 301 289 246 289 L246 289 Z " />
<glyph glyph-name="Y_sc" unicode="&#x28f;" horiz-adv-x="528" d="M265 558 L8 558 L8 543 C44 543 74 521 96 478 L214 248 L214 80 C214 41 188 15 150 15 L139 15 L139 0 L389 0 L389 15 L378 15 C340 15 314 41 314 80 L314 285 L431 487 C457 526 489 544 529 544 L529 559 L333 559 L333 544 L349 544 C400 544 415 510 386 459 L386 459 L292 294 L207 487 C195 522 210 545 247 545 L265 545 L265 558 L265 558 Z " />
<glyph glyph-name="B_sc" unicode="&#x299;" horiz-adv-x="513" d="M40 543 L51 543 C89 543 115 517 115 478 L115 80 C115 41 89 15 51 15 L40 15 L40 0 L271 0 C404 0 493 62 493 156 C493 234 429 289 329 303 C396 322 437 366 437 425 C437 505 364 558 254 558 L39 558 L40 543 L40 543 Z M214 307 L214 533 L254 533 C304 533 337 490 337 425 C337 354 301 307 246 307 L214 307 L214 307 Z M214 286 L247 286 C331 286 387 234 387 156 C387 77 336 25 260 25 L214 25 L214 286 L214 286 Z " />
<glyph glyph-name="H_sc" unicode="&#x29c;" horiz-adv-x="666" d="M626 15 L615 15 C577 15 551 41 551 80 L551 478 C551 517 577 543 615 543 L626 543 L626 558 L376 558 L376 543 L387 543 C425 543 451 517 451 478 L451 308 L218 308 L218 478 C218 517 244 543 282 543 L293 543 L293 558 L43 558 L43 543 L54 543 C92 543 118 517 118 478 L118 80 C118 41 92 15 54 15 L43 15 L43 0 L293 0 L293 15 L282 15 C244 15 218 41 218 80 L218 283 L451 283 L451 80 C451 41 425 15 387 15 L376 15 L376 0 L626 0 L626 15 L626 15 Z " />
<glyph glyph-name="L_sc" unicode="&#x29f;" horiz-adv-x="540" d="M440 175 L414 115 C391 61 341 25 287 25 L218 25 L218 478 C218 517 244 543 282 543 L293 543 L293 558 L43 558 L43 543 L54 543 C92 543 118 517 118 478 L118 80 C118 41 92 15 54 15 L43 15 L43 0 L428 0 L430 12 L431 12 C439 58 450 120 458 167 C452 170 440 175 440 175 L440 175 Z " />
<glyph glyph-name="circumflex" unicode="&#x2c6;" horiz-adv-x="238" d="M151 717 C148 725 137 745 119 745 C102 745 92 725 88 717 C88 717 -11 511 14 540 L25 532 C64 579 97 619 119 646 C157 601 214 533 214 533 L224 541 C224 541 214 589 151 718 L151 717 L151 717 Z " />
<glyph glyph-name="caron" unicode="&#x2c7;" horiz-adv-x="238" d="M214 768 C214 768 157 700 119 655 C97 682 64 722 25 769 L14 761 C-11 790 88 584 88 584 C92 576 102 556 119 556 C137 556 148 576 151 584 C214 713 224 761 224 761 L214 768 L214 768 Z " />
<glyph glyph-name="firsttonechinese" unicode="&#x2c9;" horiz-adv-x="238" d="M10 603 L229 603 L229 659 L10 659 L10 603 L10 603 Z " />
<glyph glyph-name="breve" unicode="&#x2d8;" horiz-adv-x="238" d="M32 710 C60 634 95 583 119 583 C143 583 178 634 206 711 L189 717 C174 677 146 650 119 650 C92 650 64 677 49 717 L32 710 L32 710 Z " />
<glyph glyph-name="dotaccent" unicode="&#x2d9;" horiz-adv-x="238" d="M119 570 C156 570 180 594 180 631 C180 668 156 692 119 692 C82 692 58 668 58 631 C58 594 82 570 119 570 L119 570 Z " />
<glyph glyph-name="ring" unicode="&#x2da;" horiz-adv-x="238" d="M51 628 C51 670 78 698 119 698 C160 698 187 670 187 628 C187 590 156 557 119 557 C82 557 51 590 51 628 L51 628 Z M23 628 C23 578 67 535 119 535 C171 535 215 578 215 628 C215 683 177 720 119 720 C61 720 23 683 23 628 L23 628 Z " />
<glyph glyph-name="A_sc" unicode="&#x1d00;" horiz-adv-x="562" d="M283 0 L557 0 L557 15 C516 15 487 33 469 74 L277 571 L252 571 L92 71 C78 37 46 15 10 15 L-1 15 L-1 0 L212 0 L212 15 L187 15 C141 15 118 45 130 90 L163 198 L318 198 C332 159 347 119 360 80 C374 41 358 15 319 15 L284 15 L283 0 L283 0 Z M309 222 L171 222 L235 430 L309 222 L309 222 Z " />
<glyph glyph-name="C_sc" unicode="&#x1d04;" horiz-adv-x="591" d="M531 54 L524 66 L524 66 L531 54 L531 54 Z M517 202 C513 191 508 175 504 164 C474 78 408 20 338 20 C231 20 159 124 159 279 C159 440 235 550 358 537 C420 528 477 473 504 395 C508 384 513 368 517 357 L530 357 L530 505 L524 494 L524 494 L530 505 C469 540 392 564 338 564 C165 564 49 450 49 280 C49 110 165 -4 338 -4 C392 -4 469 20 530 55 L530 203 L517 202 L517 202 Z " />
<glyph glyph-name="D_sc" unicode="&#x1d05;" horiz-adv-x="608" d="M40 543 L51 543 C89 543 115 517 115 478 L115 80 C115 41 89 15 51 15 L40 15 L40 0 L278 0 C446 0 558 112 558 279 C558 446 440 558 262 558 L40 558 L40 543 L40 543 Z M215 25 L215 533 L262 533 C380 533 458 431 458 279 C458 127 386 25 278 25 L215 25 L215 25 Z " />
<glyph glyph-name="E_sc" unicode="&#x1d07;" horiz-adv-x="540" d="M360 200 L360 385 L348 385 L344 374 C332 336 291 310 240 310 L218 310 L218 533 L272 533 C332 533 385 493 405 433 L416 398 L427 398 L427 558 L43 558 L43 543 L54 543 C92 543 118 517 118 478 L118 80 C118 41 92 15 54 15 L43 15 L43 0 L429 0 L431 12 L431 12 C438 56 449 116 457 160 L446 160 L429 125 C398 65 338 25 278 25 L218 25 L218 285 L240 285 C291 285 332 256 344 213 L348 200 L360 200 L360 200 Z " />
<glyph glyph-name="J_sc" unicode="&#x1d0a;" horiz-adv-x="342" d="M302 558 L52 558 L52 543 L63 543 C101 543 127 517 127 478 L127 169 C127 55 123 10 112 10 C97 10 86 26 85 50 C84 74 66 90 40 90 C15 90 -1 74 0 50 C1 14 36 -10 87 -10 C188 -10 227 64 227 253 L227 478 C227 517 253 543 291 543 L302 543 L302 558 L302 558 Z " />
<glyph glyph-name="K_sc" unicode="&#x1d0b;" horiz-adv-x="544" d="M290 558 L40 558 L40 543 L51 543 C89 543 115 517 115 478 L115 80 C115 41 89 15 51 15 L40 15 L40 0 L290 0 L290 15 L279 15 C241 15 215 41 215 80 L215 300 C215 300 253 231 311 127 C364 32 416 -5 499 -5 L534 -5 L534 15 C488 15 447 67 367 210 C329 277 300 330 284 359 C311 399 338 439 365 479 C391 518 435 544 473 544 L484 544 L484 559 L320 559 L320 544 L330 544 C383 544 339 479 339 479 L272 382 C271 383 271 384 271 384 L215 301 L215 479 C215 518 241 544 279 544 L290 544 L290 558 L290 558 Z " />
<glyph glyph-name="M_sc" unicode="&#x1d0d;" horiz-adv-x="752" d="M712 559 L593 559 L593 558 L548 558 L388 122 L212 558 L60 558 L60 543 L71 543 C109 543 133 517 131 478 L131 478 L113 72 C108 37 82 14 47 14 L36 14 L36 -1 L250 -1 L250 14 L221 14 C175 14 145 43 144 87 L159 431 C220 286 281 140 342 -5 C357 37 372 80 388 122 L342 -4 L367 -4 L551 476 C556 345 561 213 565 82 C566 43 542 17 504 17 L493 17 L493 2 L742 2 L742 17 L731 17 C693 17 666 43 664 82 L664 82 L642 487 C643 522 666 545 701 545 L712 545 L712 559 L712 559 Z " />
<glyph glyph-name="O_sc" unicode="&#x1d0f;" horiz-adv-x="643" d="M160 279 C160 419 215 538 322 538 C428 538 483 419 483 279 C483 139 428 20 322 20 C215 20 160 139 160 279 L160 279 Z M50 279 C50 126 142 -5 322 -5 C501 -5 593 126 593 279 C593 432 501 563 322 563 C142 563 50 432 50 279 L50 279 Z " />
<glyph glyph-name="P_sc" unicode="&#x1d18;" horiz-adv-x="477" d="M290 15 L279 15 C241 15 215 41 215 80 L215 249 L250 249 C374 249 457 311 457 404 C457 496 378 558 259 558 L40 558 L40 543 L51 543 C89 543 115 517 115 478 L115 80 C115 41 89 15 51 15 L40 15 L40 0 L290 0 L290 15 L290 15 Z M215 274 L215 533 L259 533 C315 533 352 481 352 404 C352 326 311 274 250 274 L215 274 L215 274 Z " />
<glyph glyph-name="T_sc" unicode="&#x1d1b;" horiz-adv-x="503" d="M127 0 L377 0 L377 15 L366 15 C328 15 302 41 302 80 L302 533 L349 533 C397 533 443 501 462 453 L490 383 L502 383 C498 432 492 497 488 546 L487 558 L16 558 L15 546 C13 546 2 395 1 383 L13 383 L41 453 C60 501 106 533 154 533 L202 533 L202 80 C202 41 176 15 138 15 L127 15 L127 0 L127 0 Z " />
<glyph glyph-name="U_sc" unicode="&#x1d1c;" horiz-adv-x="563" d="M543 558 L338 558 L338 543 L353 543 C398 543 428 513 428 468 L428 159 C428 82 392 30 300 30 C232 30 205 80 205 155 L205 478 C205 517 231 543 269 543 L280 543 L280 558 L30 558 L30 543 L41 543 C79 543 105 517 105 478 L105 174 C105 67 155 -5 285 -5 C410 -5 458 57 458 149 L458 468 C458 513 487 543 530 543 L543 543 L543 558 L543 558 Z " />
<glyph glyph-name="V_sc" unicode="&#x1d20;" horiz-adv-x="555" d="M265 558 L1 558 L1 543 C40 543 69 522 87 478 L87 478 L285 -15 L310 -15 C360 149 410 314 461 478 C473 517 506 543 544 543 L555 543 L555 558 L335 558 L335 543 L356 543 C413 543 439 505 422 448 L422 448 L323 113 L190 487 C182 521 199 543 235 543 L265 543 L265 558 L265 558 Z " />
<glyph glyph-name="W_sc" unicode="&#x1d21;" horiz-adv-x="746" d="M742 558 L536 558 L536 543 L572 543 C608 543 628 520 623 485 L502 -15 L527 -15 C568 149 609 314 651 478 C661 517 693 543 731 543 L742 543 L742 558 L742 558 Z M502 -15 L537 131 L412 568 L387 568 L239 -15 L264 -15 L412 568 L373 412 L502 -15 L502 -15 Z M255 558 L0 558 L0 543 C37 543 62 525 78 485 L239 -15 L273 123 C244 241 214 360 185 478 C175 517 195 543 234 543 L255 543 L255 558 L255 558 Z " />
<glyph glyph-name="Z_sc" unicode="&#x1d22;" horiz-adv-x="476" d="M399 176 L373 116 C350 62 300 26 246 26 L164 26 L413 558 L96 558 L93 546 L92 546 C81 506 67 453 56 413 L68 413 L95 453 C127 501 181 533 229 533 L287 533 L40 0 L386 0 L388 13 L390 13 C398 59 409 121 417 168 C411 171 399 176 399 176 L399 176 Z " />
<glyph glyph-name="Wgrave" unicode="&#x1e80;" horiz-adv-x="831" d="M267 675 L-1 675 L-1 660 C37 660 64 639 78 595 L78 595 L262 -15 L290 -15 L461 685 L433 685 L303 153 L195 601 C190 636 210 659 247 659 L268 659 L267 675 L267 675 Z M364 878 C364 871 379 853 402 829 C434 789 520 704 520 704 L531 713 C531 713 485 829 453 869 C438 900 426 920 421 920 C404 920 364 891 364 878 L364 878 Z M828 674 L619 674 L619 659 L656 659 C692 659 712 637 708 603 L565 -16 L593 -16 L738 594 C747 633 779 659 817 659 L828 659 L828 674 L828 674 Z M565 -16 L606 163 L462 684 L416 494 L565 -16 L565 -16 Z " />
<glyph glyph-name="Wacute" unicode="&#x1e82;" horiz-adv-x="831" d="M386 705 C386 705 470 790 501 830 C523 855 538 873 538 879 C538 892 498 921 481 921 C477 921 465 901 450 870 C419 830 375 714 375 714 L386 705 L386 705 Z M267 675 L-1 675 L-1 660 C37 660 64 639 78 595 L78 595 L262 -15 L290 -15 L461 685 L433 685 L303 153 L195 601 C190 636 210 659 247 659 L268 659 L267 675 L267 675 Z M828 674 L619 674 L619 659 L656 659 C692 659 712 637 708 603 L565 -16 L593 -16 L738 594 C747 633 779 659 817 659 L828 659 L828 674 L828 674 Z M565 -16 L606 163 L462 684 L416 494 L565 -16 L565 -16 Z " />
<glyph glyph-name="Wdieresis" unicode="&#x1e84;" horiz-adv-x="831" d="M537 745 C574 745 599 769 599 806 C599 843 574 867 537 867 C500 867 476 843 476 806 C476 769 500 745 537 745 L537 745 Z M357 745 C394 745 418 769 418 806 C418 843 394 867 357 867 C320 867 295 843 295 806 C295 769 320 745 357 745 L357 745 Z M267 675 L-1 675 L-1 660 C37 660 64 639 78 595 L78 595 L262 -15 L290 -15 L461 685 L433 685 L303 153 L195 601 C190 636 210 659 247 659 L268 659 L267 675 L267 675 Z M828 674 L619 674 L619 659 L656 659 C692 659 712 637 708 603 L565 -16 L593 -16 L738 594 C747 633 779 659 817 659 L828 659 L828 674 L828 674 Z M565 -16 L606 163 L462 684 L416 494 L565 -16 L565 -16 Z " />
<glyph glyph-name="Etilde" unicode="&#x1ebc;" horiz-adv-x="575" d="M201 770 C201 805 209 828 221 828 C251 828 290 766 320 766 C358 766 383 817 383 893 L366 893 C366 856 356 832 341 832 C311 832 272 895 242 895 C207 895 184 845 184 770 L201 770 L201 770 Z M395 261 L395 449 L383 449 L379 438 C367 400 326 374 275 374 L226 374 L226 647 L308 647 C368 647 421 607 441 547 L452 512 L463 512 L463 675 L40 675 L40 660 L51 660 C89 660 115 634 115 595 L115 80 C115 41 89 15 51 15 L40 15 L40 0 L465 0 L467 14 C475 59 485 118 493 163 L482 163 L465 128 C435 68 375 28 315 28 L226 28 L226 346 L275 346 C326 346 367 317 379 274 L383 261 L395 261 L395 261 Z " />
<glyph glyph-name="Ygrave" unicode="&#x1ef2;" horiz-adv-x="574" d="M202 879 C202 872 217 854 240 830 C272 790 358 705 358 705 L369 714 C369 714 323 830 291 870 C276 901 264 921 259 921 C242 921 202 892 202 879 L202 879 Z M275 675 L4 675 L4 660 C38 660 66 641 87 601 L230 299 L230 80 C230 41 204 15 166 15 L155 15 L155 0 L416 0 L416 15 L405 15 C367 15 341 41 341 80 L341 343 L479 601 C503 642 535 661 576 661 L576 676 L376 676 L376 661 L393 661 C441 661 459 631 439 586 L321 360 L216 604 C204 639 220 662 256 662 L275 662 L275 675 L275 675 Z " />
<glyph glyph-name="quoteleft" unicode="&#x2018;" horiz-adv-x="267" d="M132 384 C175 384 204 413 204 456 C204 506 161 541 108 525 C101 590 137 649 185 670 L178 685 C100 651 48 573 48 488 C48 438 79 385 133 385 L132 384 L132 384 Z " />
<glyph glyph-name="quoteright" unicode="&#x2019;" horiz-adv-x="267" d="M132 680 C89 680 60 651 60 608 C60 558 103 523 156 539 C163 474 127 415 79 394 L86 379 C164 413 216 491 216 576 C216 626 185 679 131 679 L132 680 L132 680 Z " />
<glyph glyph-name="quotedblleft" unicode="&#x201c;" horiz-adv-x="474" d="M339 384 C382 384 411 413 411 456 C411 506 368 541 315 525 C308 590 344 649 392 670 L385 685 C307 651 255 573 255 488 C255 438 286 385 340 385 L339 384 L339 384 Z M133 385 C176 385 205 414 205 457 C205 507 162 542 109 526 C102 591 138 650 186 671 L179 686 C101 652 49 574 49 489 C49 439 80 386 134 386 L133 385 L133 385 Z " />
<glyph glyph-name="quotedblright" unicode="&#x201d;" horiz-adv-x="474" d="M339 680 C296 680 267 651 267 608 C267 558 310 523 363 539 C370 474 334 415 286 394 L293 379 C371 413 423 491 423 576 C423 626 392 679 338 679 L339 680 L339 680 Z M131 679 C88 679 59 650 59 607 C59 557 102 522 155 538 C162 473 126 414 78 393 L85 378 C163 412 215 490 215 575 C215 625 184 678 130 678 L131 679 L131 679 Z " />
<glyph glyph-name="ellipsis" unicode="&#x2026;" horiz-adv-x="600" d="M500 0 C543 0 572 29 572 72 C572 115 543 144 500 144 C457 144 428 115 428 72 C428 29 457 0 500 0 L500 0 Z M300 0 C343 0 372 29 372 72 C372 115 343 144 300 144 C257 144 228 115 228 72 C228 29 257 0 300 0 L300 0 Z M100 0 C143 0 172 29 172 72 C172 115 143 144 100 144 C57 144 28 115 28 72 C28 29 57 0 100 0 L100 0 Z " />
<glyph glyph-name="perthousand" unicode="&#x2030;" horiz-adv-x="1008" d="M828 198 C828 287 837 346 850 346 C881 346 902 271 902 158 C902 80 890 28 872 28 C846 28 828 96 828 198 L828 198 Z M730 179 C730 69 783 -5 863 -5 C943 -5 996 74 996 193 C996 302 943 375 863 375 C783 375 730 297 730 179 L730 179 Z M129 550 C129 638 137 696 150 696 C181 696 202 622 202 510 C202 431 190 378 172 378 C146 378 129 447 129 550 L129 550 Z M30 530 C30 419 83 345 163 345 C243 345 296 425 296 544 C296 653 243 725 163 725 C83 725 30 647 30 530 L30 530 Z M522 198 C522 286 534 345 551 345 C589 345 615 270 615 158 C615 80 599 28 574 28 C543 28 522 96 522 198 L522 198 Z M424 179 C424 69 480 -5 565 -5 C651 -5 709 74 709 192 C709 302 651 375 565 375 C480 375 424 297 424 179 L424 179 Z M186 -13 L610 707 L565 733 L141 13 L186 -13 L186 -13 Z " />
<glyph glyph-name="guilsinglleft" unicode="&#x2039;" horiz-adv-x="217" d="M110 252 L169 455 L158 466 L20 257 L20 246 L161 37 L172 48 L110 252 L110 252 Z " />
<glyph glyph-name="guilsinglright" unicode="&#x203a;" horiz-adv-x="217" d="M56 37 L197 246 L197 257 L59 466 L48 455 L107 252 L45 48 L56 37 L56 37 Z " />
<glyph glyph-name="fraction" unicode="&#x2044;" horiz-adv-x="444" d="M53 -13 L477 707 L432 733 L7 13 L53 -13 L53 -13 Z " />
<glyph glyph-name="Euro" unicode="&#x20ac;" horiz-adv-x="689" d="M616 204 C612 193 607 178 603 167 C573 81 499 23 419 23 C323 23 253 107 230 241 L451 241 L461 313 L222 313 C221 329 221 346 222 362 L461 362 L471 434 L230 434 C253 567 323 651 419 651 C431 651 444 650 457 648 C519 637 576 581 602 507 C606 496 611 481 615 470 L628 470 L628 620 C567 655 483 679 418 679 C258 679 143 584 109 434 L60 434 L50 362 L100 362 C99 346 99 329 100 313 L50 313 L40 241 L109 241 C143 90 259 -5 419 -5 C484 -5 568 19 629 54 L622 67 L622 67 L629 54 L629 204 L616 204 L616 204 Z " />
<glyph glyph-name="F_sc" unicode="&#xa730;" horiz-adv-x="455" d="M43 543 L54 543 C92 543 118 517 118 478 L118 80 C118 41 92 15 54 15 L43 15 L43 0 L303 0 L303 15 L283 15 C244 15 218 41 218 80 L218 281 L230 281 C281 281 322 252 334 209 L338 196 L350 196 L350 381 L338 381 L334 370 C322 332 281 306 230 306 L218 306 L218 533 L302 533 C362 533 415 493 435 433 L446 398 L457 398 L457 558 L43 558 L43 543 L43 543 Z " />
<glyph glyph-name="S_sc" unicode="&#xa731;" horiz-adv-x="394" d="M309 361 L309 516 C260 544 217 563 200 563 C106 563 44 495 44 394 C44 334 88 274 153 244 C228 210 278 158 278 114 C278 58 241 20 185 20 C181 20 177 21 172 22 C134 32 94 85 68 160 C64 171 59 187 55 198 L42 198 L42 42 C91 14 148 -5 186 -5 C284 -5 350 59 350 155 C350 216 299 279 223 314 C158 344 114 392 114 434 C114 497 147 539 197 539 C198 539 209 533 227 523 C259 490 280 413 298 360 L309 361 L309 361 Z " />
<glyph glyph-name="X_sc" unicode="&#xf078;" horiz-adv-x="547" d="M357 478 L357 478 L301 345 L231 479 C211 518 223 544 262 544 L320 544 C359 544 373 518 357 479 L357 478 L357 478 Z M28 544 C64 544 94 523 116 481 C154 409 193 336 230 265 L138 81 C119 42 81 16 43 16 L32 16 L32 1 L233 1 L233 16 L210 16 C163 16 147 47 168 93 L242 246 L329 81 C349 42 337 16 298 16 L271 16 L271 1 L532 1 L532 16 C496 16 466 37 444 79 C401 161 358 243 315 325 L388 488 C407 522 442 544 477 544 L488 544 L488 559 L32 559 L28 544 L28 544 Z " />
</font>
</svg>
