<?xml version="1.0" encoding="UTF-8"?>
<svg xmlns="http://www.w3.org/2000/svg" xmlns:xlink="http://www.w3.org/1999/xlink" version="1.2" >
<font id="glamour luxury Light">
<font-face  font-family="glamour luxury" units-per-em="1024" ascent="936" descent="-280" font-style="normal" font-weight="300" font-stretch="normal" cap-height="959" x-height="468" underline-position="-125" underline-thickness="50" />
<missing-glyph  horiz-adv-x="100" d="" />
<glyph glyph-name="NULL" d="" />
<glyph glyph-name="CR" unicode="&#xd;" horiz-adv-x="256" d="" />
<glyph glyph-name="space" unicode="&#x20;" horiz-adv-x="229" d="" />
<glyph glyph-name="exclam" unicode="&#x21;" horiz-adv-x="184" d="M96 -5 C118 -5 132 9 132 31 C132 53 118 67 96 67 C74 67 60 53 60 31 C60 9 74 -5 96 -5 L96 -5 Z M124 635 C125 662 113 680 93 680 C73 680 60 662 62 635 C62 487 93 142 93 142 L99 142 C99 142 124 487 124 635 L124 635 Z " />
<glyph glyph-name="quotedbl" unicode="&#x22;" horiz-adv-x="238" d="M134 675 L162 486 L170 486 L198 675 L134 675 L134 675 Z M40 675 L67 486 L76 486 L104 675 L40 675 L40 675 Z " />
<glyph glyph-name="numbersign" unicode="&#x23;" horiz-adv-x="428" d="M317 681 L288 479 L190 479 L219 681 L200 681 L171 479 L64 479 L58 441 L166 441 L134 219 L25 219 L19 181 L129 181 L103 0 L122 0 L148 181 L246 181 L220 0 L239 0 L265 181 L358 181 L363 219 L270 219 L302 441 L403 441 L408 479 L307 479 L336 681 L317 681 L317 681 Z M185 441 L283 441 L251 219 L153 219 L185 441 L185 441 Z " />
<glyph glyph-name="dollar" unicode="&#x24;" horiz-adv-x="424" d="M43 188 L43 46 C75 27 114 12 152 3 L152 -76 L168 -76 L168 -1 C191 -5 210 -7 232 -6 L232 -76 L248 -76 L248 -4 C327 8 378 74 378 169 C378 234 327 303 248 345 L248 647 C270 632 289 607 299 577 C308 549 321 513 330 485 L343 485 L343 627 C310 646 276 661 248 670 L248 748 L232 748 L232 674 C209 679 190 679 168 674 L168 748 L152 748 L152 669 C89 646 50 580 50 490 C50 432 90 372 152 333 L152 29 C116 53 86 94 68 146 L55 185 L43 188 L43 188 Z M168 19 L168 323 C189 312 212 302 232 290 L232 6 C208 4 189 9 169 19 L168 19 L168 19 Z M233 655 L233 352 C210 363 188 374 169 388 L169 657 C190 664 213 664 233 655 L233 655 Z M153 401 C114 434 90 474 90 511 C90 578 114 628 153 650 L153 401 L153 401 Z M249 279 C305 240 339 191 339 146 C339 73 304 21 249 8 L249 279 L249 279 Z " />
<glyph glyph-name="percent" unicode="&#x25;" horiz-adv-x="715" d="M79 542 C79 643 108 710 151 710 C203 710 237 635 237 522 C237 426 207 362 161 362 C112 362 79 434 79 542 L79 542 Z M30 533 C30 420 81 345 157 345 C233 345 284 423 284 539 C284 651 233 725 157 725 C81 725 30 648 30 533 L30 533 Z M491 191 C491 292 520 360 564 360 C619 360 656 284 656 171 C656 75 624 11 575 11 C525 11 491 83 491 191 L491 191 Z M442 181 C442 69 494 -5 571 -5 C650 -5 703 72 703 188 C703 300 650 375 571 375 C494 375 442 297 442 181 L442 181 Z M169 -7 L593 713 L571 727 L146 7 L169 -7 L169 -7 Z " />
<glyph glyph-name="ampersand" unicode="&#x26;" horiz-adv-x="667" d="M587 307 L426 307 L426 292 L437 292 C475 292 501 266 501 227 L501 196 C501 163 492 134 476 109 C447 139 413 176 373 223 C333 270 297 324 269 374 C354 392 411 465 411 558 C411 631 362 680 289 680 C215 680 166 614 166 516 C166 487 188 428 223 362 C117 319 49 242 49 161 C49 61 126 -5 241 -5 C335 -5 411 22 458 68 C545 -5 604 -10 667 1 L667 9 C623 2 577 12 485 102 C503 130 512 162 512 198 L512 229 C512 268 538 294 576 294 L587 294 L587 307 L587 307 Z M206 540 C206 619 238 671 286 671 C338 671 373 625 373 557 C373 466 331 397 266 382 C229 450 206 511 206 540 L206 540 Z M448 78 C407 41 345 19 269 19 C166 19 97 84 97 182 C97 253 148 320 228 357 C257 304 295 246 337 196 C379 146 416 108 449 79 L448 78 L448 78 Z " />
<glyph glyph-name="quotesingle" unicode="&#x27;" horiz-adv-x="144" d="M40 675 L67 486 L76 486 L104 675 L40 675 L40 675 Z " />
<glyph glyph-name="parenleft" unicode="&#x28;" horiz-adv-x="174" d="M157 705 C99 636 60 521 60 278 C60 34 99 -81 157 -150 L164 -145 C125 -99 99 8 99 278 C99 547 125 654 164 700 L157 705 L157 705 Z " />
<glyph glyph-name="parenright" unicode="&#x29;" horiz-adv-x="174" d="M10 -150 C68 -81 107 34 107 277 C107 521 68 636 10 705 L3 700 C42 654 68 547 68 277 C68 8 42 -99 3 -145 L10 -150 L10 -150 Z " />
<glyph glyph-name="asterisk" unicode="&#x2a;" horiz-adv-x="268" d="M261 600 L261 600 C282 610 269 639 247 626 C247 626 159 561 151 555 L165 674 C167 699 133 699 135 674 L149 557 L54 627 C33 641 18 610 39 599 L39 600 L149 553 L39 506 C17 495 32 465 53 479 L53 480 L148 550 L134 434 C132 409 166 409 164 434 L150 552 L245 481 L244 480 C265 466 281 495 260 506 L261 507 L153 554 L261 600 L261 600 Z " />
<glyph glyph-name="plus" unicode="&#x2b;" horiz-adv-x="474" d="M222 410 L222 261 L75 261 L75 239 L222 239 L222 91 L247 91 L247 239 L394 239 L394 261 L247 261 L247 410 L222 410 L222 410 Z " />
<glyph glyph-name="comma" unicode="&#x2c;" horiz-adv-x="188" d="M123 57 L123 57 C117 64 108 68 97 68 C75 68 61 54 61 32 C61 10 75 -4 97 -4 C100 -4 104 -1 108 4 C117 -36 100 -76 75 -89 L75 -97 C114 -78 140 -36 140 9 C140 29 134 48 125 58 L123 57 L123 57 Z " />
<glyph glyph-name="hyphen" unicode="&#x2d;" horiz-adv-x="174" d="M20 216 L154 216 L154 254 L20 254 L20 216 L20 216 Z " />
<glyph glyph-name="period" unicode="&#x2e;" horiz-adv-x="221" d="M125 -5 C147 -5 161 9 161 31 C161 53 147 67 125 67 C103 67 89 53 89 31 C89 9 103 -5 125 -5 L125 -5 Z " />
<glyph glyph-name="slash" unicode="&#x2f;" horiz-adv-x="332" d="M0 -145 L22 -145 L332 725 L310 725 L0 -145 L0 -145 Z " />
<glyph glyph-name="zero" unicode="0" horiz-adv-x="518" d="M106 250 C106 396 167 494 259 494 C351 494 412 396 412 250 C412 104 351 6 259 6 C167 6 106 104 106 250 L106 250 Z M50 250 C50 97 134 -5 259 -5 C384 -5 468 97 468 250 C468 403 384 505 259 505 C134 505 50 403 50 250 L50 250 Z " />
<glyph glyph-name="one" unicode="1" horiz-adv-x="310" d="M255 15 L244 15 C206 15 180 41 180 80 L180 420 C180 459 206 485 244 485 L255 485 L255 500 L55 500 L55 485 L66 485 C104 485 130 459 130 420 L130 80 C130 41 104 15 66 15 L55 15 L55 0 L255 0 L255 15 L255 15 Z " />
<glyph glyph-name="two" unicode="2" horiz-adv-x="400" d="M359 125 L358 114 C354 76 326 50 287 50 L93 50 C246 160 343 222 343 348 C343 442 294 504 221 504 C167 504 107 445 71 357 L78 353 C106 421 153 467 196 467 C251 467 287 413 287 331 C287 168 182 129 25 10 L25 -1 L364 -1 L368 49 C368 49 374 120 374 124 L359 125 L359 125 Z " />
<glyph glyph-name="three" unicode="3" horiz-adv-x="375" d="M96 191 C202 191 272 130 272 38 C272 -99 173 -198 25 -209 L25 -215 C205 -202 325 -99 325 41 C325 142 241 210 114 210 C112 210 110 210 107 210 C214 257 280 320 280 379 C280 455 238 505 175 505 C110 505 44 453 10 376 L17 373 C42 430 95 468 149 468 C197 468 229 426 229 362 C229 301 160 237 54 198 C44 195 34 192 24 188 L24 180 C45 186 73 192 96 192 L96 191 L96 191 Z " />
<glyph glyph-name="four" unicode="4" horiz-adv-x="367" d="M292 490 L284 505 C284 505 242 429 242 396 L242 374 C174 249 65 74 32 22 L31 22 L31 20 C23 7 23 11 23 0 L242 0 L242 -150 L292 -150 L292 0 L357 0 L357 22 L292 22 L292 447 C307 481 310 500 292 490 L292 490 Z M297 492 C296 488 294 483 292 477 L292 505 L284 505 C296 512 299 507 296 493 L297 492 L297 492 Z M45 23 C81 79 177 233 241 350 L241 23 L45 23 L45 23 Z " />
<glyph glyph-name="five" unicode="5" horiz-adv-x="359" d="M327 575 L312 575 L308 564 C295 526 261 500 222 500 L80 500 C80 416 68 221 68 221 L81 221 C81 221 81 227 82 237 C82 229 82 222 82 222 L101 222 C196 222 260 155 260 55 C260 -75 169 -166 32 -174 L32 -181 C199 -172 310 -70 310 72 C310 191 236 271 126 271 L85 271 C88 318 92 390 94 448 L286 448 C301 495 313 534 327 576 L327 575 L327 575 Z " />
<glyph glyph-name="six" unicode="6" horiz-adv-x="489" d="M426 715 C213 708 71 541 71 299 C71 117 144 -5 254 -5 C372 -5 446 83 439 216 C439 343 376 427 281 427 C172 427 112 352 133 239 L144 239 C125 344 176 414 272 414 C340 414 386 334 386 213 C392 91 342 9 260 9 C180 9 127 106 127 252 C127 271 130 297 130 316 C130 544 248 701 426 707 L426 715 L426 715 Z " />
<glyph glyph-name="seven" unicode="7" horiz-adv-x="358" d="M34 374 L35 385 C39 423 67 449 106 449 L325 449 L95 -140 L150 -140 C216 72 283 283 348 495 L344 500 L30 500 L28 475 C28 474 28 473 28 472 L26 450 C24 425 21 397 19 375 L34 374 L34 374 Z " />
<glyph glyph-name="eight" unicode="8" horiz-adv-x="459" d="M274 358 C336 373 377 440 377 530 C377 621 320 681 234 681 C148 681 91 611 91 507 C91 422 133 353 199 326 C117 310 64 250 64 166 C64 63 133 -6 237 -6 C340 -6 409 67 409 177 C409 259 356 328 274 357 L274 358 L274 358 Z M268 359 C259 362 250 364 240 366 C176 379 133 442 133 525 C133 611 173 668 232 668 C295 668 337 609 337 520 C337 433 310 371 268 359 L268 359 Z M112 174 C112 251 149 306 208 322 C215 319 223 317 231 315 C311 299 364 237 364 159 C364 66 315 4 241 4 C164 4 113 72 113 173 L112 174 L112 174 Z " />
<glyph glyph-name="nine" unicode="9" horiz-adv-x="489" d="M63 -215 C276 -208 418 -41 418 201 C418 383 345 505 235 505 C117 505 43 417 50 284 C50 157 113 73 208 73 C317 73 377 148 356 261 L345 261 C364 156 313 86 217 86 C149 86 103 166 103 287 C97 409 147 491 229 491 C309 491 362 394 362 248 C362 229 359 203 359 184 C359 -44 241 -201 63 -207 L63 -215 L63 -215 Z " />
<glyph glyph-name="colon" unicode="&#x3a;" horiz-adv-x="221" d="M125 364 C147 364 161 378 161 400 C161 422 147 436 125 436 C103 436 89 422 89 400 C89 378 103 364 125 364 L125 364 Z M125 -5 C147 -5 161 9 161 31 C161 53 147 67 125 67 C103 67 89 53 89 31 C89 9 103 -5 125 -5 L125 -5 Z " />
<glyph glyph-name="semicolon" unicode="&#x3b;" horiz-adv-x="188" d="M96 364 C118 364 132 378 132 400 C132 422 118 436 96 436 C74 436 60 422 60 400 C60 378 74 364 96 364 L96 364 Z M123 57 L123 57 C117 64 108 68 97 68 C75 68 61 54 61 32 C61 10 75 -4 97 -4 C100 -4 104 -1 108 4 C117 -36 100 -76 75 -89 L75 -97 C114 -78 140 -36 140 9 C140 29 134 48 125 58 L123 57 L123 57 Z " />
<glyph glyph-name="less" unicode="&#x3c;" horiz-adv-x="454" d="M379 500 L46 290 C44 290 42 286 40 286 L40 264 L46 260 L379 50 L379 75 L59 275 L379 475 L379 500 L379 500 Z " />
<glyph glyph-name="equal" unicode="&#x3d;" horiz-adv-x="447" d="M78 211 L78 189 L377 189 L377 211 L78 211 L78 211 Z M78 311 L78 289 L377 289 L377 311 L78 311 L78 311 Z " />
<glyph glyph-name="greater" unicode="&#x3e;" horiz-adv-x="449" d="M75 50 C186 122 297 195 409 266 L409 284 C406 284 402 290 399 290 L75 500 L75 475 L387 275 L75 75 L75 50 L75 50 Z " />
<glyph glyph-name="question" unicode="&#x3f;" horiz-adv-x="285" d="M116 -5 C138 -5 152 9 152 31 C152 53 138 67 116 67 C94 67 80 53 80 31 C80 9 94 -5 116 -5 L116 -5 Z M128 338 L163 338 C236 338 250 413 250 455 C250 590 190 680 100 680 C65 680 41 653 41 613 C41 605 52 600 69 600 C83 600 102 641 116 641 C190 641 239 569 239 461 C239 430 224 376 147 376 L112 376 C105 376 101 373 101 368 L112 149 L119 149 L128 338 L128 338 Z " />
<glyph glyph-name="at" unicode="&#x40;" horiz-adv-x="1017" d="M922 0 C855 -143 693 -239 517 -239 C263 -239 94 -40 94 259 C94 558 260 757 509 757 C757 757 923 591 923 343 C923 140 851 4 743 4 C631 4 577 82 606 200 L676 480 L629 480 L606 388 C598 450 563 490 513 490 C366 490 268 373 268 197 C268 87 324 13 408 13 C467 13 521 59 553 132 C557 42 624 -14 735 -14 C872 -14 963 128 963 342 C963 598 782 769 510 769 C238 769 56 565 56 258 C56 -49 241 -253 518 -253 C701 -253 869 -152 940 -1 L922 0 L922 0 Z M599 355 L560 199 C536 104 485 40 433 40 C367 40 323 106 323 206 C323 367 399 475 512 475 C564 475 599 427 599 355 L599 355 Z " />
<glyph glyph-name="A" unicode="A" horiz-adv-x="550" d="M1 0 L201 0 L201 15 L175 15 C130 15 106 43 114 86 L156 242 L356 242 C371 188 387 134 402 80 C413 41 395 15 356 15 L319 15 L319 0 L545 0 L545 15 C503 15 474 35 460 80 L460 80 L274 690 L260 690 L92 77 C80 40 49 15 11 15 L0 15 L1 0 L1 0 Z M351 256 L159 256 L252 604 L351 256 L351 256 Z " />
<glyph glyph-name="B" unicode="B" horiz-adv-x="514" d="M269 366 C265 366 261 366 257 366 L207 364 L182 364 L182 661 L260 661 C335 661 385 606 385 523 C385 437 339 377 268 366 L269 366 L269 366 Z M50 660 L61 660 C99 660 125 634 125 595 L125 80 C125 41 99 15 61 15 L50 15 L50 0 L278 0 C407 0 493 74 493 184 C493 280 420 348 306 363 C388 382 439 441 439 522 C439 613 367 674 259 674 L50 674 L50 660 L50 660 Z M181 354 L239 354 C356 354 434 286 434 183 C434 81 370 13 273 13 L181 13 L181 354 L181 354 Z " />
<glyph glyph-name="C" unicode="C" horiz-adv-x="638" d="M578 57 L574 64 C574 64 577 58 577 57 L578 57 L578 57 Z M564 195 C560 184 555 168 551 157 C522 71 447 13 363 9 C215 3 121 136 121 337 C121 534 213 665 351 665 C354 665 393 664 393 662 C461 654 524 596 551 518 L564 479 L577 479 L577 617 C513 654 423 679 352 679 C177 679 61 542 61 337 C61 131 177 -6 352 -6 C423 -6 513 19 577 56 L577 194 L564 195 L564 195 Z " />
<glyph glyph-name="D" unicode="D" horiz-adv-x="610" d="M51 660 L62 660 C100 660 126 634 126 595 L126 80 C126 41 100 15 62 15 L51 15 L51 0 L282 0 C449 0 560 135 560 338 C560 540 439 675 257 675 L51 675 L51 660 L51 660 Z M182 14 L182 661 L257 661 C406 661 505 532 505 338 C505 144 416 14 282 14 L182 14 L182 14 Z " />
<glyph glyph-name="E" unicode="E" horiz-adv-x="520" d="M340 268 L340 442 L328 442 L324 431 C312 393 271 367 220 367 L171 367 L171 661 L247 661 C307 661 360 621 380 561 L391 526 L402 526 L402 675 L40 675 L40 660 L51 660 C89 660 115 634 115 595 L115 80 C115 41 89 15 51 15 L40 15 L40 0 L408 0 L409 7 L408 7 C416 50 426 106 434 149 L423 149 L406 114 C375 54 315 14 255 14 L171 14 L171 353 L220 353 C271 353 312 324 324 281 L328 268 L340 268 L340 268 Z " />
<glyph glyph-name="F" unicode="F" horiz-adv-x="435" d="M40 660 L51 660 C89 660 115 634 115 595 L115 80 C115 41 89 15 51 15 L40 15 L40 0 L256 0 L256 15 L236 15 C197 15 171 41 171 80 L171 348 L210 348 C261 348 302 319 314 276 L318 263 L330 263 L330 437 L318 437 L314 426 C302 388 261 362 210 362 L171 362 L171 661 L277 661 C337 661 390 621 410 561 L421 526 L432 526 L432 675 L40 675 L40 660 L40 660 Z " />
<glyph glyph-name="G" unicode="G" horiz-adv-x="733" d="M558 480 L558 618 C494 655 407 680 342 680 C174 680 62 543 62 338 C62 132 174 -5 342 -5 C410 -5 499 20 563 57 L563 237 C563 276 589 302 627 302 L638 302 L638 317 L438 317 L438 302 L449 302 C487 302 513 276 513 237 L513 48 C458 24 394 9 342 9 C211 9 123 141 123 338 C123 535 211 666 342 666 C352 666 363 665 374 664 C442 656 505 598 532 519 L545 480 L558 480 L558 480 Z " />
<glyph glyph-name="H" unicode="H" horiz-adv-x="688" d="M648 15 L637 15 C599 15 573 41 573 80 L573 595 C573 634 599 660 637 660 L648 660 L648 675 L442 675 L442 660 L453 660 C491 660 517 634 517 595 L517 362 L171 362 L171 595 C171 634 197 660 235 660 L246 660 L246 675 L40 675 L40 660 L51 660 C89 660 115 634 115 595 L115 80 C115 41 89 15 51 15 L40 15 L40 0 L246 0 L246 15 L235 15 C197 15 171 41 171 80 L171 348 L517 348 L517 80 C517 41 491 15 453 15 L442 15 L442 0 L648 0 L648 15 L648 15 Z " />
<glyph glyph-name="I" unicode="I" horiz-adv-x="286" d="M246 15 L235 15 C197 15 171 41 171 80 L171 595 C171 634 197 660 235 660 L246 660 L246 675 L40 675 L40 660 L51 660 C89 660 115 634 115 595 L115 80 C115 41 89 15 51 15 L40 15 L40 0 L246 0 L246 15 L246 15 Z " />
<glyph glyph-name="J" unicode="J" horiz-adv-x="292" d="M252 675 L46 675 L46 660 L57 660 C95 660 121 634 121 595 L121 205 C121 58 110 1 81 1 C68 1 54 21 47 50 C44 63 34 72 22 72 C6 72 -3 63 0 50 C9 14 36 -10 67 -10 C146 -10 177 63 177 251 L177 595 C177 634 203 660 241 660 L252 660 L252 675 L252 675 Z " />
<glyph glyph-name="K" unicode="K" horiz-adv-x="560" d="M511 675 L358 675 L358 660 L367 660 C398 660 400 637 375 602 L182 362 L182 594 C182 633 208 659 246 659 L257 659 L257 674 L51 674 L51 659 L62 659 C100 659 126 633 126 594 L126 79 C126 40 100 14 62 14 L51 14 L51 -1 L257 -1 L257 14 L246 14 C208 14 182 40 182 79 L182 362 C182 362 239 284 325 166 C415 42 472 -6 528 -6 L550 -6 L550 5 C515 5 468 59 358 209 C291 301 243 368 225 393 L391 601 C422 636 464 659 500 659 L511 659 L511 675 L511 675 Z " />
<glyph glyph-name="L" unicode="L" horiz-adv-x="520" d="M434 156 C428 159 416 164 416 164 L390 104 C368 50 318 14 264 14 L171 14 L171 595 C171 634 197 660 235 660 L246 660 L246 675 L40 675 L40 660 L51 660 C89 660 115 634 115 595 L115 80 C115 41 89 15 51 15 L40 15 L40 0 L407 0 C414 48 426 109 434 157 L434 156 L434 156 Z " />
<glyph glyph-name="M" unicode="M" horiz-adv-x="745" d="M39 0 L240 0 L240 15 L211 15 C163 15 132 47 134 95 L134 95 L153 598 C222 397 291 196 360 -6 C368 20 376 46 385 71 L360 -7 L374 -7 L583 622 C590 441 597 260 604 79 C605 40 581 14 543 14 L532 14 L532 -1 L736 -1 L736 14 L725 14 C690 14 664 36 659 70 C652 244 643 419 636 593 C634 632 658 658 695 658 L706 658 L706 673 L582 673 L386 71 L183 673 L65 673 L65 658 L76 658 C114 658 138 632 137 593 L118 74 C115 37 89 13 52 13 L41 13 L39 0 L39 0 Z " />
<glyph glyph-name="N" unicode="N" horiz-adv-x="621" d="M43 660 L54 660 C92 660 118 634 118 595 L118 80 C118 41 92 15 54 15 L43 15 L43 0 L210 0 L210 15 L199 15 C161 15 135 41 135 80 L135 619 C251 409 367 199 482 -12 L506 -12 L506 594 C506 633 532 659 570 659 L581 659 L581 674 L414 674 L414 659 L425 659 C463 659 489 633 489 594 L489 86 L168 674 L43 674 L43 660 L43 660 Z " />
<glyph glyph-name="O" unicode="O" horiz-adv-x="678" d="M123 338 C123 515 198 666 345 666 C492 666 567 515 567 338 C567 160 492 9 345 9 C198 9 123 160 123 338 L123 338 Z M62 338 C62 153 158 -5 345 -5 C532 -5 628 153 628 338 C628 523 532 680 345 680 C158 680 62 523 62 338 L62 338 Z " />
<glyph glyph-name="P" unicode="P" horiz-adv-x="489" d="M257 15 L246 15 C208 15 182 41 182 80 L182 304 L252 304 C382 304 469 378 469 488 C469 600 389 675 270 675 L51 675 L51 660 L62 660 C100 660 126 634 126 595 L126 80 C126 41 100 15 62 15 L51 15 L51 0 L257 0 L257 15 L257 15 Z M182 318 L182 661 L270 661 C354 661 410 592 410 488 C410 386 347 318 252 318 L182 318 L182 318 Z " />
<glyph glyph-name="Q" unicode="Q" horiz-adv-x="678" d="M683 -51 L678 -47 C655 -74 605 -92 551 -92 C472 -92 404 -57 349 -5 C533 -2 627 155 627 338 C627 523 531 680 344 680 C157 680 61 523 61 338 C61 158 152 3 330 -5 C406 -79 480 -128 544 -128 C588 -128 643 -97 682 -51 L683 -51 L683 -51 Z M122 338 C122 515 197 666 344 666 C491 666 566 515 566 338 C566 160 491 9 344 9 C197 9 122 160 122 338 L122 338 Z " />
<glyph glyph-name="R" unicode="R" horiz-adv-x="535" d="M51 660 L62 660 C100 660 126 634 126 595 L126 80 C126 41 100 15 62 15 L51 15 L51 0 L257 0 L257 15 L246 15 C208 15 182 41 182 80 L182 324 L228 324 C249 293 304 213 377 106 C447 4 452 0 513 0 L535 0 L535 11 C508 11 510 11 453 95 C371 214 311 300 291 328 C384 344 443 409 443 500 C443 605 369 675 259 675 L50 675 L51 660 L51 660 Z M244 338 L181 338 L181 661 L259 661 C334 661 384 597 384 500 C384 403 328 338 244 338 L244 338 Z " />
<glyph glyph-name="S" unicode="S" horiz-adv-x="424" d="M344 487 L344 629 C291 660 235 680 204 680 C112 680 51 605 51 493 C51 425 106 354 188 317 C279 276 339 209 339 149 C339 65 292 9 222 9 C159 9 98 65 69 149 L56 188 L43 188 L43 46 C96 15 168 -5 222 -5 C316 -5 379 65 379 171 C379 242 319 317 228 358 C145 395 90 458 90 515 C90 606 134 666 201 666 C207 666 215 665 225 662 C258 651 287 620 300 580 C309 552 322 516 331 488 L344 487 L344 487 Z " />
<glyph glyph-name="T" unicode="T" horiz-adv-x="539" d="M167 0 L372 0 L372 15 L361 15 C323 15 297 41 297 80 L297 661 L375 661 C423 661 469 629 488 581 L516 511 L528 511 C524 560 520 626 513 674 L28 674 L27 667 L26 667 C22 620 16 557 12 510 L24 510 L52 580 C72 628 118 660 166 660 L242 660 L242 79 C242 40 216 14 178 14 L167 14 L167 0 L167 0 Z " />
<glyph glyph-name="U" unicode="U" horiz-adv-x="606" d="M586 675 L394 675 L394 660 L409 660 C454 660 484 630 484 585 L484 184 C484 82 438 14 321 14 C214 14 172 88 172 199 L172 595 C172 634 198 660 236 660 L247 660 L247 675 L41 675 L41 660 L52 660 C90 660 116 634 116 595 L116 210 C116 81 171 -5 312 -5 C448 -5 501 69 501 179 L501 585 C501 630 530 660 573 660 L586 660 L586 675 L586 675 Z " />
<glyph glyph-name="V" unicode="V" horiz-adv-x="599" d="M228 675 L12 675 L12 660 C51 660 78 640 93 597 L292 -15 L306 -15 C358 188 409 392 461 595 C471 634 503 660 541 660 L552 660 L552 675 L344 675 L344 660 L365 660 C419 660 448 626 439 574 L312 64 L153 594 C141 633 158 659 197 659 L228 659 L228 675 L228 675 Z " />
<glyph glyph-name="W" unicode="W" horiz-adv-x="782" d="M759 675 L565 675 L565 660 L602 660 C641 660 661 634 652 595 L652 595 L519 -15 L533 -15 L670 599 C680 636 710 660 747 660 L759 660 L759 675 L759 675 Z M519 -15 L539 77 L396 685 L382 685 L233 -15 L247 -15 L375 587 L519 -15 L519 -15 Z M206 675 L-1 675 L-1 660 C35 660 60 643 73 604 L233 -15 L251 71 C212 246 173 421 134 595 C125 634 145 660 184 660 L206 660 L206 675 L206 675 Z " />
<glyph glyph-name="X" unicode="X" horiz-adv-x="555" d="M522 675 L329 675 L329 660 L367 660 C403 660 417 638 404 604 L297 386 L189 602 C174 637 189 660 226 660 L253 660 L253 675 L42 675 L42 660 C78 660 107 638 129 595 L129 595 C173 506 218 417 262 329 C224 246 187 162 148 80 C130 41 93 15 55 15 L44 15 L44 0 L238 0 L238 15 L215 15 C170 15 151 43 166 86 L268 315 L391 72 C405 37 390 14 354 14 L327 14 L327 -1 L537 -1 L537 14 C501 14 472 36 450 79 L450 79 C401 177 351 275 303 372 C340 446 377 520 415 594 C435 633 473 659 511 659 L522 659 L522 675 L522 675 Z " />
<glyph glyph-name="Y" unicode="Y" horiz-adv-x="520" d="M225 675 L19 675 L19 660 C56 660 83 639 102 595 L238 275 L239 73 C236 38 211 15 175 15 L164 15 L164 0 L369 0 L369 15 L358 15 C320 15 294 41 294 80 L294 299 C294 299 418 570 429 595 C449 639 480 660 522 660 L522 675 L337 675 L337 660 L355 660 C406 660 425 626 402 575 C402 575 289 322 279 299 L281 303 L163 603 C153 638 169 661 205 661 L224 661 L225 675 L225 675 Z " />
<glyph glyph-name="Z" unicode="Z" horiz-adv-x="511" d="M462 156 C456 159 444 164 444 164 L418 104 C396 50 346 14 292 14 L122 14 L448 675 L120 675 L118 668 L117 668 C107 630 93 579 83 541 L95 541 L122 581 C154 629 208 661 256 661 L377 661 L52 0 L435 0 C442 48 454 109 462 157 L462 156 L462 156 Z " />
<glyph glyph-name="bracketleft" unicode="&#x5b;" horiz-adv-x="231" d="M116 664 L221 664 L221 675 L77 675 L77 -120 L221 -120 L221 -109 L116 -109 L116 664 L116 664 Z " />
<glyph glyph-name="backslash" unicode="&#x5c;" horiz-adv-x="224" d="M207 -145 L224 -145 L-43 725 L-60 725 L207 -145 L207 -145 Z " />
<glyph glyph-name="bracketright" unicode="&#x5d;" horiz-adv-x="219" d="M110 664 L110 -109 L5 -109 L5 -120 L149 -120 L149 675 L5 675 L5 664 L110 664 L110 664 Z " />
<glyph glyph-name="asciicircum" unicode="&#x5e;" horiz-adv-x="238" d="M135 731 C133 735 128 745 119 745 C110 745 105 735 103 731 C103 731 -2 516 17 538 L23 533 C44 558 93 641 119 686 C157 619 217 533 217 533 L222 538 C222 538 199 601 136 731 L135 731 L135 731 Z " />
<glyph glyph-name="underscore" unicode="&#x5f;" horiz-adv-x="272" d="M5 -50 L5 -78 L267 -78 L267 -50 L5 -50 L5 -50 Z " />
<glyph glyph-name="grave" unicode="&#x60;" horiz-adv-x="238" d="M37 715 C37 710 54 689 80 660 C112 620 193 531 193 531 L198 535 C198 535 137 639 105 680 C84 713 69 735 65 735 C57 735 37 721 37 715 L37 715 Z " />
<glyph glyph-name="a" unicode="a" horiz-adv-x="402" d="M380 37 C366 23 351 14 328 14 C298 14 289 38 289 73 L289 359 C289 447 253 505 200 505 C131 505 78 465 66 406 L116 406 C126 457 155 491 189 491 C217 491 236 443 236 371 L236 250 C215 246 185 240 161 234 C86 215 36 163 36 102 C36 38 68 -5 117 -5 C150 -5 195 22 236 64 C237 20 250 -10 294 -10 C334 -10 361 6 385 30 L380 37 L380 37 Z M236 236 L236 74 C206 46 171 29 141 29 C107 29 85 64 85 116 C85 166 116 206 162 218 C192 226 218 232 236 236 L236 236 Z " />
<glyph glyph-name="b" unicode="b" horiz-adv-x="519" d="M270 -5 C386 -5 464 96 464 248 C464 402 396 505 294 505 C264 505 208 486 155 458 L155 720 L145 720 L30 687 L30 678 L41 675 C95 664 105 651 105 597 L105 0 L111 0 C116 14 127 24 138 24 C178 24 218 -5 270 -5 L270 -5 Z M270 9 C201 9 155 59 155 133 L155 450 C192 470 233 483 256 483 C349 483 411 380 411 225 C411 95 355 9 270 9 L270 9 Z " />
<glyph glyph-name="c" unicode="c" horiz-adv-x="394" d="M342 41 L338 47 C322 34 282 25 238 25 C157 25 103 117 103 254 C103 396 155 491 233 491 C267 491 292 456 297 404 C298 389 308 379 322 379 C335 379 344 388 344 401 C339 463 297 505 239 505 C126 505 50 397 50 235 C50 91 108 -5 196 -5 C251 -5 309 13 342 41 L342 41 Z " />
<glyph glyph-name="d" unicode="d" horiz-adv-x="514" d="M279 678 L290 675 C344 664 354 651 354 597 L354 441 C326 478 281 505 234 505 C127 505 55 393 55 225 C55 87 119 -5 215 -5 C262 -5 317 17 354 50 L354 0 L364 0 L479 33 L479 42 L468 45 C414 56 404 69 404 123 L404 720 L394 720 L279 687 L279 678 L279 678 Z M354 58 C332 39 288 26 242 26 C161 26 107 113 107 244 C107 392 157 491 232 491 C284 491 332 458 354 416 L354 58 L354 58 Z " />
<glyph glyph-name="e" unicode="e" horiz-adv-x="401" d="M349 41 L345 47 C329 34 288 25 241 25 C158 25 103 117 103 254 C103 279 104 302 107 324 L351 324 C351 433 298 505 218 505 C117 505 50 397 50 235 C50 91 110 -5 200 -5 C257 -5 316 13 349 41 L349 41 Z M304 366 C304 352 294 342 280 341 L108 333 C122 430 162 491 216 491 C269 491 305 441 305 366 L304 366 L304 366 Z " />
<glyph glyph-name="f" unicode="f" horiz-adv-x="304" d="M224 15 L213 15 C175 15 149 41 149 80 L149 481 L229 481 L229 500 L149 500 L149 533 C149 638 196 709 216 709 C235 709 249 689 252 660 C254 633 299 630 299 660 C296 696 268 720 230 720 C153 720 102 650 102 544 C100 544 99 500 99 500 L45 500 L45 481 L99 481 L99 80 C99 41 73 15 35 15 L24 15 L24 0 L224 0 L224 15 L224 15 Z " />
<glyph glyph-name="g" unicode="g" horiz-adv-x="386" d="M386 500 L261 494 C244 501 225 505 205 505 C123 505 69 443 69 350 C69 276 103 222 158 203 C93 199 51 164 51 113 C51 66 84 32 136 23 C70 -11 26 -64 26 -109 C26 -186 74 -237 145 -237 C277 -237 365 -161 365 -48 C365 23 303 71 211 71 L162 68 C115 68 84 94 84 133 C84 171 119 196 172 196 L204 196 C286 196 341 258 341 351 C341 405 323 448 292 475 L386 473 L386 500 L386 500 Z M205 207 C152 207 116 265 116 351 C116 437 152 495 205 495 C258 495 294 437 294 351 C294 265 258 207 205 207 L205 207 Z M150 22 C155 22 160 22 165 22 C165 22 213 25 199 25 C278 25 330 -14 330 -72 C330 -163 259 -223 152 -223 C97 -223 60 -175 60 -103 C60 -54 96 -4 150 24 L150 22 L150 22 Z " />
<glyph glyph-name="h" unicode="h" horiz-adv-x="539" d="M299 0 L499 0 L499 15 L488 15 C450 15 424 41 424 80 L424 336 C424 437 397 505 328 505 C308 505 246 478 171 439 L171 720 L161 720 L46 687 L46 678 L57 675 C111 664 121 651 121 597 L121 80 C121 41 95 15 57 15 L46 15 L46 0 L246 0 L246 15 L235 15 C197 15 171 41 171 80 L171 434 C214 456 261 471 290 471 C351 471 375 415 375 331 L375 80 C375 41 349 15 311 15 L300 15 L299 0 L299 0 Z " />
<glyph glyph-name="i" unicode="i" horiz-adv-x="290" d="M176 603 C176 647 109 648 109 603 C109 559 176 560 176 603 L176 603 Z M245 15 L234 15 C196 15 170 41 170 80 L170 500 L160 500 L45 467 L45 458 L56 455 C110 444 120 431 120 377 L120 80 C120 41 94 15 56 15 L45 15 L45 0 L245 0 L245 15 L245 15 Z " />
<glyph glyph-name="j" unicode="j" horiz-adv-x="234" d="M160 603 C160 647 93 648 93 603 C93 559 160 560 160 603 L160 603 Z M29 458 L40 455 C92 444 103 431 104 381 C104 240 104 6 103 7 C103 -155 87 -196 39 -226 L44 -233 C127 -181 154 -135 154 21 L154 499 L144 499 L29 466 L29 458 L29 458 Z " />
<glyph glyph-name="k" unicode="k" horiz-adv-x="462" d="M440 500 L282 500 L282 485 L291 485 C322 485 320 459 285 420 L285 420 L155 275 L155 720 L145 720 L30 687 L30 678 L41 675 C95 664 105 651 105 597 L105 80 C105 41 79 15 41 15 L30 15 L30 0 L230 0 L230 15 L219 15 C181 15 155 41 155 80 L155 275 L160 268 L160 268 L307 75 C333 39 330 15 299 15 L289 15 L289 0 L490 0 L490 15 L478 15 C440 15 395 41 365 80 L365 80 L193 304 L311 429 C347 463 392 485 428 485 L439 485 L440 500 L440 500 Z " />
<glyph glyph-name="l" unicode="l" horiz-adv-x="290" d="M245 15 L234 15 C196 15 170 41 170 80 L170 720 L160 720 L45 687 L45 678 L56 675 C110 664 120 651 120 597 L120 80 C120 41 94 15 56 15 L45 15 L45 0 L245 0 L245 15 L245 15 Z " />
<glyph glyph-name="m" unicode="m" horiz-adv-x="813" d="M573 0 L773 0 L773 15 L762 15 C724 15 698 41 698 80 L698 336 C698 437 653 505 594 505 C578 505 510 474 421 426 C404 475 372 505 334 505 C308 505 246 478 171 439 L171 500 L161 500 L46 467 L46 458 L57 455 C111 444 121 431 121 377 L121 80 C121 41 95 15 57 15 L46 15 L46 0 L246 0 L246 15 L235 15 C197 15 171 41 171 80 L171 434 C219 458 265 475 296 475 C347 475 385 417 385 331 L385 80 C385 41 359 15 321 15 L310 15 L310 0 L510 0 L510 15 L499 15 C461 15 435 41 435 80 L435 336 C435 367 431 395 424 419 C484 450 535 471 557 471 C610 471 650 415 650 331 L650 80 C650 41 624 15 586 15 L575 15 L573 0 L573 0 Z " />
<glyph glyph-name="n" unicode="n" horiz-adv-x="531" d="M299 0 L499 0 L499 15 L488 15 C450 15 424 41 424 80 L424 336 C424 437 397 505 328 505 C308 505 246 478 171 439 L171 500 L161 500 L46 467 L46 458 L57 455 C111 444 121 431 121 377 L121 80 C121 41 95 15 57 15 L46 15 L46 0 L246 0 L246 15 L235 15 C197 15 171 41 171 80 L171 434 C214 456 261 471 290 471 C351 471 375 415 375 331 L375 80 C375 41 349 15 311 15 L300 15 L299 0 L299 0 Z " />
<glyph glyph-name="o" unicode="o" horiz-adv-x="484" d="M82 250 C82 396 141 494 230 494 C319 494 378 396 378 250 C378 104 319 6 230 6 C141 6 82 104 82 250 L82 250 Z M26 250 C26 97 108 -5 230 -5 C352 -5 434 97 434 250 C434 403 352 505 230 505 C108 505 26 403 26 250 L26 250 Z " />
<glyph glyph-name="p" unicode="p" horiz-adv-x="511" d="M221 -215 L210 -215 C172 -215 146 -189 146 -150 L146 43 C175 13 218 -5 268 -5 C391 -5 473 100 473 258 C473 406 407 505 307 505 C253 505 189 473 145 425 L145 500 L135 500 L20 467 L20 458 L31 455 C85 444 95 431 95 377 L95 -150 C95 -189 69 -215 31 -215 L20 -215 L20 -230 L220 -230 L221 -215 L221 -215 Z M145 135 L145 417 C176 450 224 471 267 471 C361 471 423 370 423 219 C423 93 361 9 267 9 C200 9 152 59 145 135 L145 135 Z " />
<glyph glyph-name="q" unicode="q" horiz-adv-x="501" d="M472 -215 L461 -215 C423 -215 397 -189 397 -150 L397 500 L391 500 C386 486 372 476 355 476 C318 476 279 505 231 505 C122 505 49 393 49 225 C49 87 110 -5 202 -5 C249 -5 306 20 347 57 L347 -150 C347 -189 321 -215 283 -215 L272 -215 L272 -230 L472 -230 L472 -215 L472 -215 Z M347 67 C321 42 275 26 230 26 C153 26 101 113 101 244 C101 392 153 491 231 491 C301 491 347 441 347 367 L347 67 L347 67 Z " />
<glyph glyph-name="r" unicode="r" horiz-adv-x="332" d="M29 458 L40 455 C94 444 104 431 104 377 L104 80 C104 41 78 15 40 15 L29 15 L29 0 L229 0 L229 15 L218 15 C180 15 154 41 154 80 L154 420 C178 449 204 468 220 468 C243 468 275 446 298 446 C312 446 322 456 322 470 C322 491 305 505 260 505 C234 505 192 474 154 427 L154 500 L144 500 L29 467 L29 458 L29 458 Z " />
<glyph glyph-name="s" unicode="s" horiz-adv-x="341" d="M268 370 L268 461 L264 453 C264 455 267 458 268 461 C222 487 186 505 177 505 C110 505 65 454 65 378 C65 327 104 268 162 232 C215 199 250 153 250 118 C250 51 219 6 173 6 C136 6 95 47 70 108 C67 116 62 127 59 135 L48 135 L48 34 C89 11 137 -5 170 -5 C243 -5 291 51 291 136 C291 180 253 233 197 268 C141 303 104 354 104 395 C104 454 133 494 177 494 C186 494 196 489 205 480 C201 481 197 482 194 483 C199 480 205 476 212 472 C225 456 237 431 246 401 C249 392 252 379 255 370 L268 370 L268 370 Z M176 494 C177 493 183 489 194 483 C187 485 181 486 176 486 L176 494 L176 494 Z " />
<glyph glyph-name="t" unicode="t" horiz-adv-x="300" d="M269 500 L134 500 L134 640 L126 640 L88 494 L108 569 C96 523 64 491 26 486 L26 480 L85 480 L85 110 C85 20 102 -6 160 -6 C209 -6 246 14 281 43 L277 47 C255 28 228 16 185 16 C146 16 135 35 135 101 L135 480 L270 480 L269 500 L269 500 Z M108 569 L109 571 C109 570 109 569 109 568 L108 569 L108 569 Z " />
<glyph glyph-name="u" unicode="u" horiz-adv-x="488" d="M15 485 L26 485 C64 485 90 459 90 420 L90 156 C90 59 129 -5 206 -5 C258 -5 305 20 345 57 L345 0 L355 0 L470 33 L470 42 L459 45 C405 56 395 69 395 123 L395 500 L270 500 L270 485 L281 485 C319 485 345 459 345 420 L345 65 C321 43 289 28 246 28 C177 28 141 81 141 161 L141 500 L16 500 L15 485 L15 485 Z " />
<glyph glyph-name="v" unicode="v" horiz-adv-x="474" d="M204 500 L1 500 L1 485 L13 485 C48 485 79 463 93 430 L222 -10 L230 -10 L359 426 C373 461 404 484 440 484 L452 484 L452 499 L289 499 L289 484 L300 484 C334 484 351 461 344 426 L242 60 C212 180 180 301 151 420 C141 459 158 485 194 485 L205 485 L204 500 L204 500 Z " />
<glyph glyph-name="w" unicode="w" horiz-adv-x="656" d="M211 485 C236 485 260 464 273 432 C283 399 293 366 302 333 L246 64 L157 420 C146 462 169 485 211 485 L211 485 Z M24 485 C60 485 86 469 101 431 L231 -10 L239 -10 L309 312 L404 -10 L412 -10 L541 425 C554 461 586 485 623 485 L635 485 L635 500 L442 500 L442 485 L478 485 C514 485 533 463 527 429 L424 63 C394 182 362 302 333 420 C323 459 342 485 381 485 L407 485 L407 500 L25 500 L24 485 L24 485 Z " />
<glyph glyph-name="x" unicode="x" horiz-adv-x="481" d="M440 500 L260 500 L260 485 L287 485 C323 485 337 463 323 429 L258 306 L189 428 C173 462 185 484 222 484 L238 484 L238 499 L36 499 L36 484 C75 484 107 463 132 419 L132 419 L226 254 L139 79 C120 40 82 14 43 14 L23 14 L23 -1 L233 -1 L233 14 L185 14 C149 14 135 36 149 71 L234 243 L332 70 C348 36 339 14 308 14 L298 14 L298 -1 L475 -1 L475 14 C442 14 413 36 389 79 L389 79 L265 297 L335 425 C357 461 395 485 432 485 L443 485 L440 500 L440 500 Z " />
<glyph glyph-name="y" unicode="y" horiz-adv-x="442" d="M468 500 L305 500 L305 485 L316 485 C350 485 367 462 360 427 L258 61 C228 181 196 302 167 421 C157 460 174 486 210 486 L221 486 L221 501 L18 501 L18 486 L30 486 C65 486 96 464 110 431 L237 -2 C234 -13 227 -36 216 -66 C188 -160 168 -196 143 -196 C143 -196 105 -172 89 -172 C73 -172 63 -180 63 -193 C63 -215 83 -229 112 -229 C163 -229 195 -185 229 -71 C242 -32 247 -9 247 -9 L376 427 C390 462 421 485 457 485 L469 485 L468 500 L468 500 Z " />
<glyph glyph-name="z" unicode="z" horiz-adv-x="402" d="M350 161 L324 101 C302 47 252 11 198 11 L120 11 L352 500 L71 500 C61 470 52 429 43 398 L55 398 L66 412 C102 458 159 488 207 488 L207 489 L289 489 L56 0 L341 0 L342 6 L341 6 C349 50 360 109 368 153 C362 156 350 161 350 161 L350 161 Z " />
<glyph glyph-name="braceleft" unicode="&#x7b;" horiz-adv-x="187" d="M172 -120 L172 -112 L143 -112 C103 -112 77 -78 77 -27 L77 183 C77 234 59 270 31 277 C59 285 77 322 77 375 L77 581 C77 632 103 666 143 666 L172 666 L172 674 L132 674 C76 674 38 637 38 581 L38 347 C38 305 26 281 5 281 L5 272 C26 272 38 249 38 209 L38 -28 C38 -84 76 -121 132 -121 L172 -120 L172 -120 Z " />
<glyph glyph-name="bar" unicode="&#x7c;" horiz-adv-x="159" d="M60 770 L60 -234 L99 -234 L99 770 L60 770 L60 770 Z " />
<glyph glyph-name="braceright" unicode="&#x7d;" horiz-adv-x="187" d="M5 675 L5 667 L34 667 C74 667 100 633 100 582 L100 372 C100 321 118 285 146 278 C118 270 100 233 100 180 L100 -26 C100 -77 74 -111 34 -111 L5 -111 L5 -119 L45 -119 C101 -119 139 -82 139 -26 L139 208 C139 250 151 274 172 274 L172 283 C151 283 139 306 139 346 L139 583 C139 639 101 676 45 676 L5 675 L5 675 Z " />
<glyph glyph-name="asciitilde" unicode="&#x7e;" horiz-adv-x="238" d="M34 310 C34 350 44 377 59 377 C91 377 134 314 166 314 C194 314 213 352 213 408 L204 408 C204 371 193 347 177 347 C145 347 102 410 70 410 C44 410 26 370 26 310 L34 310 L34 310 Z " />
<glyph glyph-name="nbspace" unicode="&#xa0;" horiz-adv-x="130" d="" />
<glyph glyph-name="exclamdown" unicode="&#xa1;" horiz-adv-x="184" d="M88 505 C66 505 52 491 52 469 C52 447 66 433 88 433 C110 433 124 447 124 469 C124 491 110 505 88 505 L88 505 Z M60 -135 C59 -162 71 -180 91 -180 C111 -180 124 -162 122 -135 C122 161 91 358 91 358 L85 358 C85 358 60 161 60 -135 L60 -135 Z " />
<glyph glyph-name="cent" unicode="&#xa2;" horiz-adv-x="394" d="M216 575 L216 503 C116 489 50 385 50 234 C50 90 108 -6 196 -6 C203 -6 210 -6 217 -5 L217 -76 L233 -76 L233 -4 C276 2 317 18 343 40 L339 46 C323 33 277 21 233 24 L233 490 C268 490 293 456 298 403 C299 388 309 378 323 378 C336 378 345 387 345 400 C340 464 296 506 233 503 L233 573 L216 575 L216 575 Z M217 25 C148 40 104 127 104 251 C104 382 149 473 217 486 L217 25 L217 25 Z " />
<glyph glyph-name="guillemotleft" unicode="&#xab;" horiz-adv-x="313" d="M170 250 C190 297 256 449 266 459 L261 464 C208 411 123 253 123 253 L123 247 C152 175 262 36 262 36 L268 41 C268 41 216 136 169 250 L170 250 L170 250 Z M66 250 C86 297 152 449 162 459 L157 464 C104 411 19 253 19 253 L19 247 C48 175 158 36 158 36 L164 41 C164 41 112 136 65 250 L66 250 L66 250 Z " />
<glyph glyph-name="acute" unicode="&#xb4;" horiz-adv-x="238" d="M43 531 C43 531 122 620 153 660 C178 689 194 711 194 715 C194 721 174 735 166 735 C163 735 148 713 127 680 C96 640 37 535 37 535 L43 531 L43 531 Z " />
<glyph glyph-name="guillemotright" unicode="&#xbb;" horiz-adv-x="313" d="M51 36 C51 36 161 175 190 247 L190 253 C190 253 105 411 52 464 L47 459 C57 449 123 297 143 250 C96 136 44 41 44 41 L51 36 L51 36 Z M153 36 C153 36 263 175 292 247 L292 253 C292 253 207 411 154 464 L149 459 C159 449 225 297 245 250 C198 136 146 41 146 41 L153 36 L153 36 Z " />
<glyph glyph-name="onequarter" unicode="&#xbc;" horiz-adv-x="754" d="M586 310 C586 310 554 252 551 223 C510 152 454 65 454 65 L455 64 L455 61 L460 61 L462 60 L462 58 L550 58 L550 5 L593 5 L593 58 L625 58 L625 77 L593 77 L593 280 C599 294 600 301 593 297 L593 309 L592 309 C592 307 592 304 591 301 L587 309 L586 309 L586 310 L586 310 Z M239 644 C239 645 239 646 239 647 L240 647 L239 644 L239 644 Z M277 687 L218 687 L218 679 L217 679 L217 683 L159 683 L159 677 C176 677 187 673 194 661 L194 468 C194 446 179 436 157 436 L157 430 L194 430 L194 428 L236 428 L236 430 L276 430 L276 439 C254 439 239 449 239 472 L238 470 L236 470 L236 646 L240 646 C241 668 256 677 278 677 L277 687 L277 687 Z M131 -16 L646 669 L623 687 L109 2 L131 -16 L131 -16 Z M462 60 L463 60 C463 59 463 59 462 60 L462 60 Z M465 60 L465 60 L465 60 Z M475 76 C492 103 524 154 551 200 L551 76 L475 76 L475 76 Z M593 309 L588 309 L587 310 C591 312 593 311 593 308 L593 309 L593 309 Z " />
<glyph glyph-name="onehalf" unicode="&#xbd;" horiz-adv-x="754" d="M591 55 L591 54 L516 54 C578 99 617 131 617 185 C617 231 592 262 554 262 C525 262 494 233 477 189 L483 186 C494 213 515 231 534 231 C557 231 572 207 572 172 C572 87 526 73 456 20 L456 11 L453 8 C454 9 455 10 456 11 L625 11 L627 34 L628 34 C630 52 632 76 634 94 L627 94 C627 72 614 57 593 57 L591 55 L591 55 Z M239 646 C239 647 239 648 239 649 L240 649 L239 646 L239 646 Z M277 689 L218 689 L218 681 L217 681 L217 685 L159 685 L159 679 C176 679 187 675 194 663 L194 470 C194 448 179 438 157 438 L157 432 L194 432 L194 430 L236 430 L236 432 L276 432 L276 441 C254 441 239 451 239 474 L238 472 L236 472 L236 648 L240 648 C241 670 256 679 278 679 L277 689 L277 689 Z M131 -14 L646 671 L623 689 L109 4 L131 -14 L131 -14 Z M458 12 C464 17 470 22 476 26 C469 19 463 13 457 13 L458 12 L458 12 Z " />
<glyph glyph-name="threequarters" unicode="&#xbe;" horiz-adv-x="754" d="M584 307 C584 307 552 249 549 220 C508 149 452 62 452 62 L453 61 L453 58 L458 58 L460 57 L460 55 L548 55 L548 2 L591 2 L591 55 L623 55 L623 74 L591 74 L591 277 C597 291 598 298 591 294 L591 306 L590 306 C590 304 590 301 589 298 L585 306 L584 306 L584 307 L584 307 Z M108 353 C200 360 262 407 262 470 C262 511 227 540 173 546 C218 569 245 597 245 622 C245 659 223 684 190 684 C154 684 119 658 102 620 L108 618 C124 655 204 675 204 610 C204 587 184 564 152 547 L152 547 C140 541 126 535 111 530 L111 526 C110 526 109 526 108 526 L108 519 C159 534 219 516 219 470 C219 409 175 366 109 361 L110 356 L108 353 L108 353 Z M131 -15 L646 670 L623 688 L109 3 L131 -15 L131 -15 Z M460 58 L461 58 C461 57 461 57 460 58 L460 58 Z M463 58 L463 58 L463 58 Z M473 74 C490 101 522 152 549 198 L549 74 L473 74 L473 74 Z M591 307 L586 307 L585 308 C589 310 591 309 591 306 L591 307 L591 307 Z " />
<glyph glyph-name="questiondown" unicode="&#xbf;" horiz-adv-x="285" d="M169 505 C147 505 133 491 133 469 C133 447 147 433 169 433 C191 433 205 447 205 469 C205 491 191 505 169 505 L169 505 Z M157 162 L122 162 C49 162 35 87 35 45 C35 -90 95 -180 185 -180 C220 -180 244 -153 244 -113 C244 -105 233 -100 216 -100 C202 -100 183 -141 169 -141 C95 -141 46 -69 46 39 C46 70 61 124 138 124 L173 124 C180 124 184 127 184 132 L173 351 L166 351 L157 162 L157 162 Z " />
<glyph glyph-name="Agrave" unicode="&#xc0;" horiz-adv-x="550" d="M1 0 L201 0 L201 15 L175 15 C130 15 106 43 114 86 L156 242 L356 242 C371 188 387 134 402 80 C413 41 395 15 356 15 L319 15 L319 0 L545 0 L545 15 C503 15 474 35 460 80 L460 80 L274 690 L260 690 L92 77 C80 40 49 15 11 15 L0 15 L1 0 L1 0 Z M185 890 C185 885 202 864 228 835 C260 795 341 706 341 706 L346 710 C346 710 285 814 253 855 C232 888 217 910 213 910 C205 910 185 896 185 890 L185 890 Z M351 256 L159 256 L252 604 L351 256 L351 256 Z " />
<glyph glyph-name="Aacute" unicode="&#xc1;" horiz-adv-x="550" d="M205 706 C205 706 284 795 315 835 C340 865 357 887 357 890 C357 896 337 910 328 910 C326 910 311 888 290 855 C259 815 200 710 200 710 L205 706 L205 706 Z M1 0 L201 0 L201 15 L175 15 C130 15 106 43 114 86 L156 242 L356 242 C371 188 387 134 402 80 C413 41 395 15 356 15 L319 15 L319 0 L545 0 L545 15 C503 15 474 35 460 80 L460 80 L274 690 L260 690 L92 77 C80 40 49 15 11 15 L0 15 L1 0 L1 0 Z M351 256 L159 256 L252 604 L351 256 L351 256 Z " />
<glyph glyph-name="Acircumflex" unicode="&#xc2;" horiz-adv-x="550" d="M1 0 L201 0 L201 15 L175 15 C130 15 106 43 114 86 L156 242 L356 242 C371 188 387 134 402 80 C413 41 395 15 356 15 L319 15 L319 0 L545 0 L545 15 C503 15 474 35 460 80 L460 80 L274 690 L260 690 L92 77 C80 40 49 15 11 15 L0 15 L1 0 L1 0 Z M283 906 C281 910 276 920 267 920 C258 920 253 910 251 906 C251 906 146 691 165 713 L170 708 C192 735 240 817 266 861 C303 794 363 708 363 708 L368 713 C368 713 345 776 282 906 L283 906 L283 906 Z M350 256 L158 256 L251 604 L350 256 L350 256 Z " />
<glyph glyph-name="Atilde" unicode="&#xc3;" horiz-adv-x="550" d="M183 770 C183 810 193 837 208 837 C240 837 282 774 314 774 C342 774 361 812 361 868 L353 868 C353 831 342 807 325 807 C293 807 251 870 219 870 C193 870 175 830 175 770 L183 770 L183 770 Z M1 0 L201 0 L201 15 L175 15 C130 15 106 43 114 86 L156 242 L356 242 C371 188 387 134 402 80 C413 41 395 15 356 15 L319 15 L319 0 L545 0 L545 15 C503 15 474 35 460 80 L460 80 L274 690 L260 690 L92 77 C80 40 49 15 11 15 L0 15 L1 0 L1 0 Z M351 256 L159 256 L252 604 L351 256 L351 256 Z " />
<glyph glyph-name="Adieresis" unicode="&#xc4;" horiz-adv-x="550" d="M384 776 C384 815 323 816 323 776 C323 735 384 736 384 776 L384 776 Z M213 776 C213 816 152 815 152 776 C152 736 213 735 213 776 L213 776 Z M1 0 L201 0 L201 15 L175 15 C130 15 106 43 114 86 L156 242 L356 242 C371 188 387 134 402 80 C413 41 395 15 356 15 L319 15 L319 0 L545 0 L545 15 C503 15 474 35 460 80 L460 80 L274 690 L260 690 L92 77 C80 40 49 15 11 15 L0 15 L1 0 L1 0 Z M351 256 L159 256 L252 604 L351 256 L351 256 Z " />
<glyph glyph-name="Aring" unicode="&#xc5;" horiz-adv-x="550" d="M188 803 C188 852 220 884 268 884 C316 884 348 852 348 803 C348 759 311 721 268 721 C225 721 188 759 188 803 L188 803 Z M174 803 C174 753 217 710 268 710 C319 710 362 753 362 803 C362 858 324 895 268 895 C212 895 174 858 174 803 L174 803 Z M1 0 L201 0 L201 15 L175 15 C130 15 106 43 114 86 L156 242 L356 242 C371 188 387 134 402 80 C413 41 395 15 356 15 L319 15 L319 0 L545 0 L545 15 C503 15 474 35 460 80 L460 80 L274 690 L260 690 L92 77 C80 40 49 15 11 15 L0 15 L1 0 L1 0 Z M351 256 L159 256 L252 604 L351 256 L351 256 Z " />
<glyph glyph-name="Ccedilla" unicode="&#xc7;" horiz-adv-x="638" d="M329 -94 C341 -85 354 -79 362 -79 C382 -79 395 -101 395 -134 C395 -177 378 -205 352 -205 C328 -205 306 -199 296 -191 L295 -196 C312 -210 339 -220 362 -220 C400 -220 426 -186 426 -134 C426 -95 405 -69 374 -69 C360 -69 343 -75 332 -83 L329 -94 L329 -94 Z M565 195 C561 184 556 168 552 157 C523 71 448 13 364 9 C216 3 122 136 122 337 C122 534 214 665 352 665 C355 665 394 664 394 662 C462 654 525 596 552 518 L565 479 L578 479 L578 617 C514 654 424 679 353 679 C178 679 62 542 62 337 C62 133 176 -3 348 -5 C346 -13 337 -46 325 -93 L329 -94 C346 -29 359 -10 364 -5 C433 -3 517 21 578 56 L574 63 C574 63 577 57 577 56 L577 194 L565 195 L565 195 Z " />
<glyph glyph-name="Egrave" unicode="&#xc8;" horiz-adv-x="520" d="M158 890 C158 885 175 864 201 835 C233 795 314 706 314 706 L319 710 C319 710 258 814 226 855 C205 888 190 910 186 910 C178 910 158 896 158 890 L158 890 Z M340 268 L340 442 L328 442 L324 431 C312 393 271 367 220 367 L171 367 L171 661 L247 661 C307 661 360 621 380 561 L391 526 L402 526 L402 675 L40 675 L40 660 L51 660 C89 660 115 634 115 595 L115 80 C115 41 89 15 51 15 L40 15 L40 0 L408 0 L409 7 L408 7 C416 50 426 106 434 149 L423 149 L406 114 C375 54 315 14 255 14 L171 14 L171 353 L220 353 C271 353 312 324 324 281 L328 268 L340 268 L340 268 Z " />
<glyph glyph-name="Eacute" unicode="&#xc9;" horiz-adv-x="520" d="M224 706 C224 706 303 795 334 835 C359 865 376 887 376 890 C376 896 356 910 347 910 C345 910 330 888 309 855 C278 815 219 710 219 710 L224 706 L224 706 Z M340 268 L340 442 L328 442 L324 431 C312 393 271 367 220 367 L171 367 L171 661 L247 661 C307 661 360 621 380 561 L391 526 L402 526 L402 675 L40 675 L40 660 L51 660 C89 660 115 634 115 595 L115 80 C115 41 89 15 51 15 L40 15 L40 0 L408 0 L409 7 L408 7 C416 50 426 106 434 149 L423 149 L406 114 C375 54 315 14 255 14 L171 14 L171 353 L220 353 C271 353 312 324 324 281 L328 268 L340 268 L340 268 Z " />
<glyph glyph-name="Ecircumflex" unicode="&#xca;" horiz-adv-x="520" d="M272 906 C270 910 265 920 256 920 C247 920 242 910 240 906 C240 906 135 691 154 713 L159 708 C181 735 229 817 255 861 C292 794 352 708 352 708 L357 713 C357 713 334 776 271 906 L272 906 L272 906 Z M339 268 L339 442 L327 442 L323 431 C311 393 270 367 219 367 L170 367 L170 661 L246 661 C306 661 359 621 379 561 L390 526 L401 526 L401 675 L39 675 L39 660 L50 660 C88 660 114 634 114 595 L114 80 C114 41 88 15 50 15 L39 15 L39 0 L407 0 L408 7 L407 7 C415 50 425 106 433 149 L422 149 L405 114 C374 54 314 14 254 14 L170 14 L170 353 L219 353 C270 353 311 324 323 281 L327 268 L339 268 L339 268 Z " />
<glyph glyph-name="Edieresis" unicode="&#xcb;" horiz-adv-x="520" d="M372 776 C372 815 311 816 311 776 C311 735 372 736 372 776 L372 776 Z M201 776 C201 816 140 815 140 776 C140 736 201 735 201 776 L201 776 Z M340 268 L340 442 L328 442 L324 431 C312 393 271 367 220 367 L171 367 L171 661 L247 661 C307 661 360 621 380 561 L391 526 L402 526 L402 675 L40 675 L40 660 L51 660 C89 660 115 634 115 595 L115 80 C115 41 89 15 51 15 L40 15 L40 0 L408 0 L409 7 L408 7 C416 50 426 106 434 149 L423 149 L406 114 C375 54 315 14 255 14 L171 14 L171 353 L220 353 C271 353 312 324 324 281 L328 268 L340 268 L340 268 Z " />
<glyph glyph-name="Igrave" unicode="&#xcc;" horiz-adv-x="286" d="M61 890 C61 885 78 864 104 835 C136 795 217 706 217 706 L222 710 C222 710 161 814 129 855 C108 888 93 910 89 910 C81 910 61 896 61 890 L61 890 Z M246 15 L235 15 C197 15 171 41 171 80 L171 595 C171 634 197 660 235 660 L246 660 L246 675 L40 675 L40 660 L51 660 C89 660 115 634 115 595 L115 80 C115 41 89 15 51 15 L40 15 L40 0 L246 0 L246 15 L246 15 Z " />
<glyph glyph-name="Iacute" unicode="&#xcd;" horiz-adv-x="286" d="M80 706 C80 706 159 795 190 835 C215 865 232 887 232 890 C232 896 212 910 203 910 C201 910 186 888 165 855 C134 815 75 710 75 710 L80 706 L80 706 Z M246 15 L235 15 C197 15 171 41 171 80 L171 595 C171 634 197 660 235 660 L246 660 L246 675 L40 675 L40 660 L51 660 C89 660 115 634 115 595 L115 80 C115 41 89 15 51 15 L40 15 L40 0 L246 0 L246 15 L246 15 Z " />
<glyph glyph-name="Icircumflex" unicode="&#xce;" horiz-adv-x="286" d="M159 906 C157 910 152 920 143 920 C134 920 129 910 127 906 C127 906 22 691 41 713 L46 708 C68 735 116 817 142 861 C179 794 239 708 239 708 L244 713 C244 713 221 776 158 906 L159 906 L159 906 Z M245 15 L234 15 C196 15 170 41 170 80 L170 595 C170 634 196 660 234 660 L245 660 L245 675 L39 675 L39 660 L50 660 C88 660 114 634 114 595 L114 80 C114 41 88 15 50 15 L39 15 L39 0 L245 0 L245 15 L245 15 Z " />
<glyph glyph-name="Idieresis" unicode="&#xcf;" horiz-adv-x="286" d="M259 776 C259 815 198 816 198 776 C198 735 259 736 259 776 L259 776 Z M88 776 C88 816 27 815 27 776 C27 736 88 735 88 776 L88 776 Z M246 15 L235 15 C197 15 171 41 171 80 L171 595 C171 634 197 660 235 660 L246 660 L246 675 L40 675 L40 660 L51 660 C89 660 115 634 115 595 L115 80 C115 41 89 15 51 15 L40 15 L40 0 L246 0 L246 15 L246 15 Z " />
<glyph glyph-name="Ntilde" unicode="&#xd1;" horiz-adv-x="621" d="M227 770 C227 810 237 837 252 837 C284 837 326 774 358 774 C386 774 405 812 405 868 L397 868 C397 831 386 807 369 807 C337 807 295 870 263 870 C237 870 219 830 219 770 L227 770 L227 770 Z M43 660 L54 660 C92 660 118 634 118 595 L118 80 C118 41 92 15 54 15 L43 15 L43 0 L210 0 L210 15 L199 15 C161 15 135 41 135 80 L135 619 C251 409 367 199 482 -12 L506 -12 L506 594 C506 633 532 659 570 659 L581 659 L581 674 L414 674 L414 659 L425 659 C463 659 489 633 489 594 L489 86 L168 674 L43 674 L43 660 L43 660 Z " />
<glyph glyph-name="Ograve" unicode="&#xd2;" horiz-adv-x="678" d="M123 338 C123 515 198 666 345 666 C492 666 567 515 567 338 C567 160 492 9 345 9 C198 9 123 160 123 338 L123 338 Z M62 338 C62 153 158 -5 345 -5 C532 -5 628 153 628 338 C628 523 532 680 345 680 C158 680 62 523 62 338 L62 338 Z M263 890 C263 885 280 864 306 835 C338 795 419 706 419 706 L424 710 C424 710 363 814 331 855 C310 888 295 910 291 910 C283 910 263 896 263 890 L263 890 Z " />
<glyph glyph-name="Oacute" unicode="&#xd3;" horiz-adv-x="678" d="M320 706 C320 706 399 795 430 835 C455 865 472 887 472 890 C472 896 452 910 443 910 C441 910 426 888 405 855 C374 815 315 710 315 710 L320 706 L320 706 Z M123 338 C123 515 198 666 345 666 C492 666 567 515 567 338 C567 160 492 9 345 9 C198 9 123 160 123 338 L123 338 Z M62 338 C62 153 158 -5 345 -5 C532 -5 628 153 628 338 C628 523 532 680 345 680 C158 680 62 523 62 338 L62 338 Z " />
<glyph glyph-name="Ocircumflex" unicode="&#xd4;" horiz-adv-x="678" d="M123 338 C123 515 198 666 345 666 C492 666 567 515 567 338 C567 160 492 9 345 9 C198 9 123 160 123 338 L123 338 Z M62 338 C62 153 158 -5 345 -5 C532 -5 628 153 628 338 C628 523 532 680 345 680 C158 680 62 523 62 338 L62 338 Z M361 906 C359 910 354 920 345 920 C336 920 331 910 329 906 C329 906 224 691 243 713 L248 708 C270 735 318 817 344 861 C381 794 441 708 441 708 L446 713 C446 713 423 776 360 906 L361 906 L361 906 Z " />
<glyph glyph-name="Otilde" unicode="&#xd5;" horiz-adv-x="678" d="M260 770 C260 810 270 837 285 837 C317 837 359 774 391 774 C419 774 438 812 438 868 L430 868 C430 831 419 807 402 807 C370 807 328 870 296 870 C270 870 252 830 252 770 L260 770 L260 770 Z M123 338 C123 515 198 666 345 666 C492 666 567 515 567 338 C567 160 492 9 345 9 C198 9 123 160 123 338 L123 338 Z M62 338 C62 153 158 -5 345 -5 C532 -5 628 153 628 338 C628 523 532 680 345 680 C158 680 62 523 62 338 L62 338 Z " />
<glyph glyph-name="Odieresis" unicode="&#xd6;" horiz-adv-x="678" d="M461 776 C461 815 400 816 400 776 C400 735 461 736 461 776 L461 776 Z M290 776 C290 816 229 815 229 776 C229 736 290 735 290 776 L290 776 Z M123 338 C123 515 198 666 345 666 C492 666 567 515 567 338 C567 160 492 9 345 9 C198 9 123 160 123 338 L123 338 Z M62 338 C62 153 158 -5 345 -5 C532 -5 628 153 628 338 C628 523 532 680 345 680 C158 680 62 523 62 338 L62 338 Z " />
<glyph glyph-name="Oslash" unicode="&#xd8;" horiz-adv-x="678" d="M72 -13 L148 79 C195 27 261 -5 345 -5 C532 -5 628 153 628 338 C628 429 605 513 559 575 L638 671 L618 687 L542 595 C495 647 429 679 345 679 C158 679 62 522 62 337 C62 246 85 161 131 99 L51 3 L72 -13 L72 -13 Z M514 563 L162 137 C136 193 123 263 123 338 C123 515 198 666 345 666 C421 666 478 626 515 563 L514 563 L514 563 Z M528 538 C554 482 567 412 567 338 C567 160 492 9 345 9 C269 9 212 49 175 112 L528 538 L528 538 Z " />
<glyph glyph-name="Ugrave" unicode="&#xd9;" horiz-adv-x="606" d="M226 890 C226 885 243 864 269 835 C301 795 382 706 382 706 L388 710 C388 710 327 814 295 855 C274 888 259 910 255 910 C246 910 226 896 226 890 L226 890 Z M586 675 L394 675 L394 660 L409 660 C454 660 484 630 484 585 L484 184 C484 82 438 14 321 14 C214 14 172 88 172 199 L172 595 C172 634 198 660 236 660 L247 660 L247 675 L41 675 L41 660 L52 660 C90 660 116 634 116 595 L116 210 C116 81 171 -5 312 -5 C448 -5 501 69 501 179 L501 585 C501 630 530 660 573 660 L586 660 L586 675 L586 675 Z " />
<glyph glyph-name="Uacute" unicode="&#xda;" horiz-adv-x="606" d="M307 706 C307 706 386 795 417 835 C442 864 458 886 458 890 C458 896 438 910 430 910 C427 910 412 888 391 855 C360 815 301 710 301 710 L307 706 L307 706 Z M586 675 L394 675 L394 660 L409 660 C454 660 484 630 484 585 L484 184 C484 82 438 14 321 14 C214 14 172 88 172 199 L172 595 C172 634 198 660 236 660 L247 660 L247 675 L41 675 L41 660 L52 660 C90 660 116 634 116 595 L116 210 C116 81 171 -5 312 -5 C448 -5 501 69 501 179 L501 585 C501 630 530 660 573 660 L586 660 L586 675 L586 675 Z " />
<glyph glyph-name="Ucircumflex" unicode="&#xdb;" horiz-adv-x="606" d="M324 906 C322 910 317 920 309 920 C300 920 295 910 293 906 C293 906 188 691 207 713 L212 708 C233 733 282 817 308 862 C346 794 405 709 405 709 L410 714 C410 714 387 777 324 907 L324 906 L324 906 Z M586 676 L394 676 L394 661 L409 661 C454 661 484 631 484 586 L484 185 C484 83 438 15 321 15 C214 15 172 89 172 200 L172 596 C172 635 198 661 236 661 L247 661 L247 676 L41 676 L41 661 L52 661 C90 661 116 635 116 596 L116 211 C116 82 171 -4 312 -4 C448 -4 501 70 501 180 L501 586 C501 631 530 661 573 661 L586 661 L586 676 L586 676 Z " />
<glyph glyph-name="Udieresis" unicode="&#xdc;" horiz-adv-x="606" d="M424 776 C424 816 363 815 363 776 C363 736 424 735 424 776 L424 776 Z M254 776 C254 815 193 816 193 776 C193 735 254 736 254 776 L254 776 Z M586 675 L394 675 L394 660 L409 660 C454 660 484 630 484 585 L484 184 C484 82 438 14 321 14 C214 14 172 88 172 199 L172 595 C172 634 198 660 236 660 L247 660 L247 675 L41 675 L41 660 L52 660 C90 660 116 634 116 595 L116 210 C116 81 171 -5 312 -5 C448 -5 501 69 501 179 L501 585 C501 630 530 660 573 660 L586 660 L586 675 L586 675 Z " />
<glyph glyph-name="Yacute" unicode="&#xdd;" horiz-adv-x="520" d="M265 706 C265 706 344 795 375 835 C400 865 417 887 417 890 C417 896 397 910 388 910 C386 910 371 888 350 855 C319 815 260 710 260 710 L265 706 L265 706 Z M225 675 L19 675 L19 660 C56 660 83 639 102 595 L238 275 L239 73 C236 38 211 15 175 15 L164 15 L164 0 L369 0 L369 15 L358 15 C320 15 294 41 294 80 L294 299 C294 299 418 570 429 595 C449 639 480 660 522 660 L522 675 L337 675 L337 660 L355 660 C406 660 425 626 402 575 C402 575 289 322 279 299 L281 303 L163 603 C153 638 169 661 205 661 L224 661 L225 675 L225 675 Z " />
<glyph glyph-name="agrave" unicode="&#xe0;" horiz-adv-x="402" d="M380 37 C366 23 351 14 328 14 C298 14 289 38 289 73 L289 359 C289 447 253 505 200 505 C131 505 78 465 66 406 L116 406 C126 457 155 491 189 491 C217 491 236 443 236 371 L236 250 C215 246 185 240 161 234 C86 215 36 163 36 102 C36 38 68 -5 117 -5 C150 -5 195 22 236 64 C237 20 250 -10 294 -10 C334 -10 361 6 385 30 L380 37 L380 37 Z M95 715 C95 710 112 689 138 660 C170 620 251 531 251 531 L257 535 C257 535 196 639 164 680 C143 713 128 735 124 735 C115 735 95 721 95 715 L95 715 Z M236 236 L236 74 C206 46 171 29 141 29 C107 29 85 64 85 116 C85 166 116 206 162 218 C192 226 218 232 236 236 L236 236 Z " />
<glyph glyph-name="aacute" unicode="&#xe1;" horiz-adv-x="402" d="M146 531 C146 531 225 620 256 660 C281 689 297 711 297 715 C297 721 277 735 269 735 C266 735 251 713 230 680 C199 640 140 535 140 535 L146 531 L146 531 Z M380 37 C366 23 351 14 328 14 C298 14 289 38 289 73 L289 359 C289 447 253 505 200 505 C131 505 78 465 66 406 L116 406 C126 457 155 491 189 491 C217 491 236 443 236 371 L236 250 C215 246 185 240 161 234 C86 215 36 163 36 102 C36 38 68 -5 117 -5 C150 -5 195 22 236 64 C237 20 250 -10 294 -10 C334 -10 361 6 385 30 L380 37 L380 37 Z M236 236 L236 74 C206 46 171 29 141 29 C107 29 85 64 85 116 C85 166 116 206 162 218 C192 226 218 232 236 236 L236 236 Z " />
<glyph glyph-name="acircumflex" unicode="&#xe2;" horiz-adv-x="402" d="M380 37 C366 23 351 14 328 14 C298 14 289 38 289 73 L289 359 C289 447 253 505 200 505 C131 505 78 465 66 406 L116 406 C126 457 155 491 189 491 C217 491 236 443 236 371 L236 250 C215 246 185 240 161 234 C86 215 36 163 36 102 C36 38 68 -5 117 -5 C150 -5 195 22 236 64 C237 20 250 -10 294 -10 C334 -10 361 6 385 30 L380 37 L380 37 Z M193 731 C191 735 186 745 178 745 C169 745 164 735 162 731 C162 731 57 516 76 538 L81 533 C102 558 151 642 177 687 C215 619 274 534 274 534 L279 539 C279 539 256 602 193 732 L193 731 L193 731 Z M236 237 L236 75 C206 47 171 30 141 30 C107 30 85 65 85 117 C85 167 116 207 162 219 C192 227 218 233 236 237 L236 237 Z " />
<glyph glyph-name="atilde" unicode="&#xe3;" horiz-adv-x="402" d="M92 595 C92 635 102 662 117 662 C149 662 192 599 224 599 C252 599 271 637 271 693 L263 693 C263 656 252 632 235 632 C203 632 160 695 128 695 C102 695 84 655 84 595 L92 595 L92 595 Z M380 37 C366 23 351 14 328 14 C298 14 289 38 289 73 L289 359 C289 447 253 505 200 505 C131 505 78 465 66 406 L116 406 C126 457 155 491 189 491 C217 491 236 443 236 371 L236 250 C215 246 185 240 161 234 C86 215 36 163 36 102 C36 38 68 -5 117 -5 C150 -5 195 22 236 64 C237 20 250 -10 294 -10 C334 -10 361 6 385 30 L380 37 L380 37 Z M236 236 L236 74 C206 46 171 29 141 29 C107 29 85 64 85 116 C85 166 116 206 162 218 C192 226 218 232 236 236 L236 236 Z " />
<glyph glyph-name="adieresis" unicode="&#xe4;" horiz-adv-x="402" d="M293 601 C293 641 232 640 232 601 C232 561 293 560 293 601 L293 601 Z M123 601 C123 640 62 641 62 601 C62 560 123 561 123 601 L123 601 Z M380 37 C366 23 351 14 328 14 C298 14 289 38 289 73 L289 359 C289 447 253 505 200 505 C131 505 78 465 66 406 L116 406 C126 457 155 491 189 491 C217 491 236 443 236 371 L236 250 C215 246 185 240 161 234 C86 215 36 163 36 102 C36 38 68 -5 117 -5 C150 -5 195 22 236 64 C237 20 250 -10 294 -10 C334 -10 361 6 385 30 L380 37 L380 37 Z M236 236 L236 74 C206 46 171 29 141 29 C107 29 85 64 85 116 C85 166 116 206 162 218 C192 226 218 232 236 236 L236 236 Z " />
<glyph glyph-name="aring" unicode="&#xe5;" horiz-adv-x="402" d="M97 628 C97 677 129 709 178 709 C226 709 258 677 258 628 C258 584 221 546 178 546 C134 546 97 584 97 628 L97 628 Z M83 628 C83 578 127 535 178 535 C229 535 272 578 272 628 C272 683 234 720 178 720 C121 720 83 683 83 628 L83 628 Z M380 37 C366 23 351 14 328 14 C298 14 289 38 289 73 L289 359 C289 447 253 505 200 505 C131 505 78 465 66 406 L116 406 C126 457 155 491 189 491 C217 491 236 443 236 371 L236 250 C215 246 185 240 161 234 C86 215 36 163 36 102 C36 38 68 -5 117 -5 C150 -5 195 22 236 64 C237 20 250 -10 294 -10 C334 -10 361 6 385 30 L380 37 L380 37 Z M236 236 L236 74 C206 46 171 29 141 29 C107 29 85 64 85 116 C85 166 116 206 162 218 C192 226 218 232 236 236 L236 236 Z " />
<glyph glyph-name="ccedilla" unicode="&#xe7;" horiz-adv-x="394" d="M172 -94 C184 -85 197 -79 205 -79 C225 -79 238 -101 238 -134 C238 -177 221 -205 195 -205 C171 -205 149 -199 139 -191 L138 -196 C155 -210 182 -220 205 -220 C243 -220 269 -186 269 -134 C269 -95 248 -69 217 -69 C203 -69 186 -75 175 -83 L172 -94 L172 -94 Z M172 -94 C189 -29 202 -10 207 -5 C259 -3 312 14 343 40 L339 46 C323 33 283 24 239 24 C158 24 104 116 104 253 C104 395 156 490 234 490 C268 490 293 455 298 403 C299 388 309 378 323 378 C336 378 345 387 345 400 C340 462 298 504 240 504 C127 504 51 396 51 234 C51 92 107 -3 192 -6 C190 -14 181 -47 169 -95 L172 -94 L172 -94 Z " />
<glyph glyph-name="egrave" unicode="&#xe8;" horiz-adv-x="401" d="M349 41 L345 47 C329 34 288 25 241 25 C158 25 103 117 103 254 C103 279 104 302 107 324 L351 324 C351 433 298 505 218 505 C117 505 50 397 50 235 C50 91 110 -5 200 -5 C257 -5 316 13 349 41 L349 41 Z M136 715 C136 710 153 689 179 660 C211 620 292 531 292 531 L297 535 C297 535 236 639 204 680 C183 713 168 735 164 735 C156 735 136 721 136 715 L136 715 Z M304 366 C304 352 294 342 280 341 L108 333 C122 430 162 491 216 491 C269 491 305 441 305 366 L304 366 L304 366 Z " />
<glyph glyph-name="eacute" unicode="&#xe9;" horiz-adv-x="401" d="M186 531 C186 531 265 620 296 660 C321 690 338 712 338 715 C338 721 318 735 309 735 C307 735 292 713 271 680 C240 640 181 535 181 535 L186 531 L186 531 Z M349 41 L345 47 C329 34 288 25 241 25 C158 25 103 117 103 254 C103 279 104 302 107 324 L351 324 C351 433 298 505 218 505 C117 505 50 397 50 235 C50 91 110 -5 200 -5 C257 -5 316 13 349 41 L349 41 Z M304 366 C304 352 294 342 280 341 L108 333 C122 430 162 491 216 491 C269 491 305 441 305 366 L304 366 L304 366 Z " />
<glyph glyph-name="ecircumflex" unicode="&#xea;" horiz-adv-x="401" d="M349 41 L345 47 C329 34 288 25 241 25 C158 25 103 117 103 254 C103 279 104 302 107 324 L351 324 C351 433 298 505 218 505 C117 505 50 397 50 235 C50 91 110 -5 200 -5 C257 -5 316 13 349 41 L349 41 Z M234 731 C232 735 227 745 218 745 C209 745 204 735 202 731 C202 731 97 516 116 538 L121 533 C143 560 191 642 217 686 C254 619 314 533 314 533 L319 538 C319 538 296 601 233 731 L234 731 L234 731 Z M303 366 C303 352 293 342 279 341 L107 333 C121 430 161 491 215 491 C268 491 304 441 304 366 L303 366 L303 366 Z " />
<glyph glyph-name="edieresis" unicode="&#xeb;" horiz-adv-x="401" d="M334 601 C334 640 273 641 273 601 C273 560 334 561 334 601 L334 601 Z M163 601 C163 641 102 640 102 601 C102 561 163 560 163 601 L163 601 Z M349 41 L345 47 C329 34 288 25 241 25 C158 25 103 117 103 254 C103 279 104 302 107 324 L351 324 C351 433 298 505 218 505 C117 505 50 397 50 235 C50 91 110 -5 200 -5 C257 -5 316 13 349 41 L349 41 Z M304 366 C304 352 294 342 280 341 L108 333 C122 430 162 491 216 491 C269 491 305 441 305 366 L304 366 L304 366 Z " />
<glyph glyph-name="igrave" unicode="&#xec;" horiz-adv-x="290" d="M63 715 C63 710 80 689 106 660 C138 620 219 531 219 531 L224 535 C224 535 163 639 131 680 C110 713 95 735 91 735 C83 735 63 721 63 715 L63 715 Z M245 15 L234 15 C196 15 170 41 170 80 L170 500 L160 500 L45 467 L45 458 L56 455 C110 444 120 431 120 377 L120 80 C120 41 94 15 56 15 L45 15 L45 0 L245 0 L245 15 L245 15 Z " />
<glyph glyph-name="iacute" unicode="&#xed;" horiz-adv-x="290" d="M67 531 C67 531 146 620 177 660 C202 690 219 712 219 715 C219 721 199 735 190 735 C188 735 173 713 152 680 C121 640 62 535 62 535 L67 531 L67 531 Z M245 15 L234 15 C196 15 170 41 170 80 L170 500 L160 500 L45 467 L45 458 L56 455 C110 444 120 431 120 377 L120 80 C120 41 94 15 56 15 L45 15 L45 0 L245 0 L245 15 L245 15 Z " />
<glyph glyph-name="icircumflex" unicode="&#xee;" horiz-adv-x="290" d="M161 731 C159 735 154 745 145 745 C136 745 131 735 129 731 C129 731 24 516 43 538 L48 533 C70 560 118 642 144 686 C181 619 241 533 241 533 L246 538 C246 538 223 601 160 731 L161 731 L161 731 Z M244 15 L233 15 C195 15 169 41 169 80 L169 500 L159 500 L44 467 L44 458 L55 455 C109 444 119 431 119 377 L119 80 C119 41 93 15 55 15 L44 15 L44 0 L244 0 L244 15 L244 15 Z " />
<glyph glyph-name="idieresis" unicode="&#xef;" horiz-adv-x="290" d="M261 601 C261 640 200 641 200 601 C200 560 261 561 261 601 L261 601 Z M90 601 C90 641 29 640 29 601 C29 561 90 560 90 601 L90 601 Z M245 15 L234 15 C196 15 170 41 170 80 L170 500 L160 500 L45 467 L45 458 L56 455 C110 444 120 431 120 377 L120 80 C120 41 94 15 56 15 L45 15 L45 0 L245 0 L245 15 L245 15 Z " />
<glyph glyph-name="ntilde" unicode="&#xf1;" horiz-adv-x="539" d="M187 595 C187 635 197 662 212 662 C244 662 286 599 318 599 C346 599 365 637 365 693 L357 693 C357 656 346 632 329 632 C297 632 255 695 223 695 C197 695 179 655 179 595 L187 595 L187 595 Z M299 0 L499 0 L499 15 L488 15 C450 15 424 41 424 80 L424 336 C424 437 397 505 328 505 C308 505 246 478 171 439 L171 500 L161 500 L46 467 L46 458 L57 455 C111 444 121 431 121 377 L121 80 C121 41 95 15 57 15 L46 15 L46 0 L246 0 L246 15 L235 15 C197 15 171 41 171 80 L171 434 C214 456 261 471 290 471 C351 471 375 415 375 331 L375 80 C375 41 349 15 311 15 L300 15 L299 0 L299 0 Z " />
<glyph glyph-name="ograve" unicode="&#xf2;" horiz-adv-x="508" d="M106 250 C106 396 165 494 254 494 C343 494 402 396 402 250 C402 104 343 6 254 6 C165 6 106 104 106 250 L106 250 Z M50 250 C50 97 132 -5 254 -5 C376 -5 458 97 458 250 C458 403 376 505 254 505 C132 505 50 403 50 250 L50 250 Z M172 715 C172 710 189 689 215 660 C247 620 328 531 328 531 L333 535 C333 535 272 639 240 680 C219 713 204 735 200 735 C192 735 172 721 172 715 L172 715 Z " />
<glyph glyph-name="oacute" unicode="&#xf3;" horiz-adv-x="508" d="M222 531 C222 531 301 620 332 660 C357 690 374 712 374 715 C374 721 354 735 345 735 C343 735 328 713 307 680 C276 640 217 535 217 535 L222 531 L222 531 Z M106 250 C106 396 165 494 254 494 C343 494 402 396 402 250 C402 104 343 6 254 6 C165 6 106 104 106 250 L106 250 Z M50 250 C50 97 132 -5 254 -5 C376 -5 458 97 458 250 C458 403 376 505 254 505 C132 505 50 403 50 250 L50 250 Z " />
<glyph glyph-name="ocircumflex" unicode="&#xf4;" horiz-adv-x="508" d="M106 250 C106 396 165 494 254 494 C343 494 402 396 402 250 C402 104 343 6 254 6 C165 6 106 104 106 250 L106 250 Z M50 250 C50 97 132 -5 254 -5 C376 -5 458 97 458 250 C458 403 376 505 254 505 C132 505 50 403 50 250 L50 250 Z M270 731 C268 735 263 745 254 745 C245 745 240 735 238 731 C238 731 133 516 152 538 L157 533 C179 560 227 642 253 686 C290 619 350 533 350 533 L355 538 C355 538 332 601 269 731 L270 731 L270 731 Z " />
<glyph glyph-name="otilde" unicode="&#xf5;" horiz-adv-x="508" d="M169 595 C169 635 179 662 194 662 C226 662 268 599 300 599 C328 599 347 637 347 693 L339 693 C339 656 328 632 311 632 C279 632 237 695 205 695 C179 695 161 655 161 595 L169 595 L169 595 Z M106 250 C106 396 165 494 254 494 C343 494 402 396 402 250 C402 104 343 6 254 6 C165 6 106 104 106 250 L106 250 Z M50 250 C50 97 132 -5 254 -5 C376 -5 458 97 458 250 C458 403 376 505 254 505 C132 505 50 403 50 250 L50 250 Z " />
<glyph glyph-name="odieresis" unicode="&#xf6;" horiz-adv-x="508" d="M370 601 C370 640 309 641 309 601 C309 560 370 561 370 601 L370 601 Z M199 601 C199 641 138 640 138 601 C138 561 199 560 199 601 L199 601 Z M106 250 C106 396 165 494 254 494 C343 494 402 396 402 250 C402 104 343 6 254 6 C165 6 106 104 106 250 L106 250 Z M50 250 C50 97 132 -5 254 -5 C376 -5 458 97 458 250 C458 403 376 505 254 505 C132 505 50 403 50 250 L50 250 Z " />
<glyph glyph-name="oslash" unicode="&#xf8;" horiz-adv-x="508" d="M57 -10 L112 58 C147 17 196 -6 254 -6 C376 -6 458 96 458 249 C458 322 440 383 408 427 L466 499 L452 509 L397 441 C362 482 313 505 255 505 C133 505 51 403 51 250 C51 177 69 116 101 72 L43 0 L57 -10 L57 -10 Z M371 410 L130 109 C115 148 107 196 107 251 C107 397 166 495 255 495 C305 495 346 464 372 411 L371 410 L371 410 Z M380 393 C395 354 403 306 403 251 C403 105 344 7 255 7 C205 7 164 38 138 91 L380 393 L380 393 Z " />
<glyph glyph-name="ugrave" unicode="&#xf9;" horiz-adv-x="504" d="M160 715 C160 710 177 689 203 660 C235 620 316 531 316 531 L321 535 C321 535 260 639 228 680 C207 713 192 735 188 735 C180 735 160 721 160 715 L160 715 Z M15 485 L26 485 C64 485 90 459 90 420 L90 156 C90 59 129 -5 206 -5 C258 -5 305 20 345 57 L345 0 L355 0 L470 33 L470 42 L459 45 C405 56 395 69 395 123 L395 500 L270 500 L270 485 L281 485 C319 485 345 459 345 420 L345 65 C321 43 289 28 246 28 C177 28 141 81 141 161 L141 500 L16 500 L15 485 L15 485 Z " />
<glyph glyph-name="uacute" unicode="&#xfa;" horiz-adv-x="504" d="M210 531 C210 531 289 620 320 660 C345 690 362 712 362 715 C362 721 342 735 333 735 C331 735 316 713 295 680 C264 640 205 535 205 535 L210 531 L210 531 Z M15 485 L26 485 C64 485 90 459 90 420 L90 156 C90 59 129 -5 206 -5 C258 -5 305 20 345 57 L345 0 L355 0 L470 33 L470 42 L459 45 C405 56 395 69 395 123 L395 500 L270 500 L270 485 L281 485 C319 485 345 459 345 420 L345 65 C321 43 289 28 246 28 C177 28 141 81 141 161 L141 500 L16 500 L15 485 L15 485 Z " />
<glyph glyph-name="ucircumflex" unicode="&#xfb;" horiz-adv-x="504" d="M258 731 C256 735 251 745 242 745 C233 745 228 735 226 731 C226 731 121 516 140 538 L145 533 C167 560 215 642 241 686 C278 619 338 533 338 533 L343 538 C343 538 320 601 257 731 L258 731 L258 731 Z M14 485 L25 485 C63 485 89 459 89 420 L89 156 C89 59 128 -5 205 -5 C257 -5 304 20 344 57 L344 0 L354 0 L469 33 L469 42 L458 45 C404 56 394 69 394 123 L394 500 L269 500 L269 485 L280 485 C318 485 344 459 344 420 L344 65 C320 43 288 28 245 28 C176 28 140 81 140 161 L140 500 L15 500 L14 485 L14 485 Z " />
<glyph glyph-name="udieresis" unicode="&#xfc;" horiz-adv-x="504" d="M358 601 C358 640 297 641 297 601 C297 560 358 561 358 601 L358 601 Z M187 601 C187 641 126 640 126 601 C126 561 187 560 187 601 L187 601 Z M15 485 L26 485 C64 485 90 459 90 420 L90 156 C90 59 129 -5 206 -5 C258 -5 305 20 345 57 L345 0 L355 0 L470 33 L470 42 L459 45 C405 56 395 69 395 123 L395 500 L270 500 L270 485 L281 485 C319 485 345 459 345 420 L345 65 C321 43 289 28 246 28 C177 28 141 81 141 161 L141 500 L16 500 L15 485 L15 485 Z " />
<glyph glyph-name="ydieresis" unicode="&#xff;" horiz-adv-x="394" d="M342 601 C342 641 281 640 281 601 C281 561 342 560 342 601 L342 601 Z M172 601 C172 640 111 641 111 601 C111 560 172 561 172 601 L172 601 Z M452 500 L289 500 L289 485 L300 485 C334 485 351 462 344 427 L242 61 C212 181 180 302 151 421 C141 460 158 486 194 486 L205 486 L205 501 L2 501 L2 486 L14 486 C49 486 80 464 94 431 L221 -2 C218 -13 211 -36 200 -66 C172 -160 152 -196 127 -196 C127 -196 89 -172 73 -172 C57 -172 47 -180 47 -193 C47 -215 67 -229 96 -229 C147 -229 179 -185 213 -71 C226 -32 231 -9 231 -9 L360 427 C374 462 405 485 441 485 L453 485 L452 500 L452 500 Z " />
<glyph glyph-name="Amacron" unicode="&#x100;" horiz-adv-x="550" d="M159 785 L377 785 L377 813 L159 813 L159 785 L159 785 Z M1 0 L201 0 L201 15 L175 15 C130 15 106 43 114 86 L156 242 L356 242 C371 188 387 134 402 80 C413 41 395 15 356 15 L319 15 L319 0 L545 0 L545 15 C503 15 474 35 460 80 L460 80 L274 690 L260 690 L92 77 C80 40 49 15 11 15 L0 15 L1 0 L1 0 Z M351 256 L159 256 L252 604 L351 256 L351 256 Z " />
<glyph glyph-name="amacron" unicode="&#x101;" horiz-adv-x="402" d="M68 610 L287 610 L287 638 L68 638 L68 610 L68 610 Z M380 37 C366 23 351 14 328 14 C298 14 289 38 289 73 L289 359 C289 447 253 505 200 505 C131 505 78 465 66 406 L116 406 C126 457 155 491 189 491 C217 491 236 443 236 371 L236 250 C215 246 185 240 161 234 C86 215 36 163 36 102 C36 38 68 -5 117 -5 C150 -5 195 22 236 64 C237 20 250 -10 294 -10 C334 -10 361 6 385 30 L380 37 L380 37 Z M236 236 L236 74 C206 46 171 29 141 29 C107 29 85 64 85 116 C85 166 116 206 162 218 C192 226 218 232 236 236 L236 236 Z " />
<glyph glyph-name="Abreve" unicode="&#x102;" horiz-adv-x="550" d="M194 887 C205 825 235 783 268 783 C302 783 331 824 342 886 L333 888 C325 845 299 816 268 816 C237 816 211 845 203 888 L194 887 L194 887 Z M1 0 L201 0 L201 15 L175 15 C130 15 106 43 114 86 L156 242 L356 242 C371 188 387 134 402 80 C413 41 395 15 356 15 L319 15 L319 0 L545 0 L545 15 C503 15 474 35 460 80 L460 80 L274 690 L260 690 L92 77 C80 40 49 15 11 15 L0 15 L1 0 L1 0 Z M351 256 L159 256 L252 604 L351 256 L351 256 Z " />
<glyph glyph-name="abreve" unicode="&#x103;" horiz-adv-x="402" d="M104 682 C115 620 145 578 178 578 C212 578 241 619 252 681 L243 683 C235 640 209 611 178 611 C146 611 120 640 112 683 L104 682 L104 682 Z M380 37 C366 23 351 14 328 14 C298 14 289 38 289 73 L289 359 C289 447 253 505 200 505 C131 505 78 465 66 406 L116 406 C126 457 155 491 189 491 C217 491 236 443 236 371 L236 250 C215 246 185 240 161 234 C86 215 36 163 36 102 C36 38 68 -5 117 -5 C150 -5 195 22 236 64 C237 20 250 -10 294 -10 C334 -10 361 6 385 30 L380 37 L380 37 Z M236 236 L236 74 C206 46 171 29 141 29 C107 29 85 64 85 116 C85 166 116 206 162 218 C192 226 218 232 236 236 L236 236 Z " />
<glyph glyph-name="Aogonek" unicode="&#x104;" horiz-adv-x="550" d="M1 0 L201 0 L201 15 L175 15 C130 15 106 43 114 86 L156 242 L356 242 C371 188 387 134 402 80 C413 41 395 15 356 15 L319 15 L319 0 L403 0 C355 -29 282 -97 282 -156 C282 -202 323 -233 385 -233 C417 -233 449 -220 466 -200 L462 -195 C450 -209 424 -219 396 -219 C346 -219 313 -192 313 -151 C313 -85 391 -12 425 0 L545 0 L545 15 C503 15 474 35 460 80 L460 80 L274 690 L260 690 L92 77 C80 40 49 15 11 15 L0 15 L1 0 L1 0 Z M351 256 L159 256 L252 604 L351 256 L351 256 Z " />
<glyph glyph-name="aogonek" unicode="&#x105;" horiz-adv-x="402" d="M342 15 C302 8 289 32 289 73 L289 359 C289 447 253 505 200 505 C131 505 78 465 66 406 L116 406 C126 457 155 491 189 491 C217 491 236 443 236 371 L236 250 C215 246 185 240 161 234 C86 215 36 163 36 102 C36 38 68 -5 117 -5 C150 -5 195 22 236 64 C237 11 258 -17 314 -8 C277 -43 242 -91 242 -135 C242 -193 283 -232 345 -232 C377 -232 409 -219 426 -199 L422 -194 C410 -208 384 -218 356 -218 C306 -218 273 -182 273 -129 C273 -81 307 -31 340 0 C357 7 371 18 384 31 L384 42 C373 38 358 29 342 17 L342 15 L342 15 Z M236 238 L236 76 C206 48 171 31 141 31 C107 31 85 66 85 118 C85 168 116 208 162 220 C192 228 218 234 236 238 L236 238 Z " />
<glyph glyph-name="Cacute" unicode="&#x106;" horiz-adv-x="638" d="M305 706 C305 706 384 795 415 835 C440 865 457 887 457 890 C457 896 437 910 428 910 C426 910 411 888 390 855 C359 815 300 710 300 710 L305 706 L305 706 Z M578 57 L574 64 C574 64 577 58 577 57 L578 57 L578 57 Z M564 195 C560 184 555 168 551 157 C522 71 447 13 363 9 C215 3 121 136 121 337 C121 534 213 665 351 665 C354 665 393 664 393 662 C461 654 524 596 551 518 L564 479 L577 479 L577 617 C513 654 423 679 352 679 C177 679 61 542 61 337 C61 131 177 -6 352 -6 C423 -6 513 19 577 56 L577 194 L564 195 L564 195 Z " />
<glyph glyph-name="cacute" unicode="&#x107;" horiz-adv-x="394" d="M161 531 C161 531 240 620 271 660 C296 690 313 712 313 715 C313 721 293 735 284 735 C282 735 267 713 246 680 C215 640 156 535 156 535 L161 531 L161 531 Z M342 41 L338 47 C322 34 282 25 238 25 C157 25 103 117 103 254 C103 396 155 491 233 491 C267 491 292 456 297 404 C298 389 308 379 322 379 C335 379 344 388 344 401 C339 463 297 505 239 505 C126 505 50 397 50 235 C50 91 108 -5 196 -5 C251 -5 309 13 342 41 L342 41 Z " />
<glyph glyph-name="Ccircumflex" unicode="&#x108;" horiz-adv-x="638" d="M369 906 C367 910 362 920 353 920 C344 920 339 910 337 906 C337 906 232 691 251 713 L256 708 C278 735 326 817 352 861 C389 794 449 708 449 708 L454 713 C454 713 431 776 368 906 L369 906 L369 906 Z M577 57 L573 64 C573 64 576 58 576 57 L577 57 L577 57 Z M563 195 C559 184 554 168 550 157 C521 71 446 13 362 9 C214 3 120 136 120 337 C120 534 212 665 350 665 C353 665 392 664 392 662 C460 654 523 596 550 518 L563 479 L576 479 L576 617 C512 654 422 679 351 679 C176 679 60 542 60 337 C60 131 176 -6 351 -6 C422 -6 512 19 576 56 L576 194 L563 195 L563 195 Z " />
<glyph glyph-name="Cdot" unicode="&#x10a;" horiz-adv-x="638" d="M384 776 C384 815 322 815 322 776 C322 735 384 735 384 776 L384 776 Z M578 57 L574 64 C574 64 577 58 577 57 L578 57 L578 57 Z M564 195 C560 184 555 168 551 157 C522 71 447 13 363 9 C215 3 121 136 121 337 C121 534 213 665 351 665 C354 665 393 664 393 662 C461 654 524 596 551 518 L564 479 L577 479 L577 617 C513 654 423 679 352 679 C177 679 61 542 61 337 C61 131 177 -6 352 -6 C423 -6 513 19 577 56 L577 194 L564 195 L564 195 Z " />
<glyph glyph-name="cdot" unicode="&#x10b;" horiz-adv-x="394" d="M270 601 C270 640 208 640 208 601 C208 560 270 560 270 601 L270 601 Z M342 41 L338 47 C322 34 282 25 238 25 C157 25 103 117 103 254 C103 396 155 491 233 491 C267 491 292 456 297 404 C298 389 308 379 322 379 C335 379 344 388 344 401 C339 463 297 505 239 505 C126 505 50 397 50 235 C50 91 108 -5 196 -5 C251 -5 309 13 342 41 L342 41 Z " />
<glyph glyph-name="Ccaron" unicode="&#x10c;" horiz-adv-x="638" d="M450 942 C450 942 390 856 353 789 C327 833 279 915 257 942 L252 937 C233 959 338 744 338 744 C340 740 345 730 354 730 C363 730 368 740 370 744 C433 874 456 937 456 937 L450 942 L450 942 Z M579 57 L575 64 C575 64 578 58 578 57 L579 57 L579 57 Z M565 195 C561 184 556 168 552 157 C523 71 448 13 364 9 C216 3 122 136 122 337 C122 534 214 665 352 665 C355 665 394 664 394 662 C462 654 525 596 552 518 L565 479 L578 479 L578 617 C514 654 424 679 353 679 C178 679 62 542 62 337 C62 131 178 -6 353 -6 C424 -6 514 19 578 56 L578 194 L565 195 L565 195 Z " />
<glyph glyph-name="ccaron" unicode="&#x10d;" horiz-adv-x="394" d="M336 767 C336 767 276 681 239 614 C213 658 165 740 143 767 L138 762 C119 784 224 569 224 569 C226 565 231 555 240 555 C249 555 254 565 256 569 C319 699 342 762 342 762 L336 767 L336 767 Z M343 41 L339 47 C323 34 283 25 239 25 C158 25 104 117 104 254 C104 396 156 491 234 491 C268 491 293 456 298 404 C299 389 309 379 323 379 C336 379 345 388 345 401 C340 463 298 505 240 505 C127 505 51 397 51 235 C51 91 109 -5 197 -5 C252 -5 310 13 343 41 L343 41 Z " />
<glyph glyph-name="Dcaron" unicode="&#x10e;" horiz-adv-x="610" d="M412 942 C412 942 353 857 315 789 C289 834 240 918 219 943 L214 938 C195 960 300 745 300 745 C302 741 307 731 316 731 C324 731 329 741 331 745 C394 875 417 938 417 938 L412 942 L412 942 Z M51 661 L62 661 C100 661 126 635 126 596 L126 81 C126 42 100 16 62 16 L51 16 L51 1 L282 1 C449 1 560 136 560 339 C560 541 439 676 257 676 L51 676 L51 661 L51 661 Z M182 15 L182 662 L257 662 C406 662 505 533 505 339 C505 145 416 15 282 15 L182 15 L182 15 Z " />
<glyph glyph-name="dcaron" unicode="&#x10f;" horiz-adv-x="514" d="M499 753 C489 753 478 691 473 646 L452 484 L459 481 L504 634 C520 685 530 734 530 741 C530 750 508 753 499 753 L499 753 Z M279 678 L290 675 C344 664 354 651 354 597 L354 441 C326 478 281 505 234 505 C127 505 55 393 55 225 C55 87 119 -5 215 -5 C262 -5 317 17 354 50 L354 0 L364 0 L479 33 L479 42 L468 45 C414 56 404 69 404 123 L404 720 L394 720 L279 687 L279 678 L279 678 Z M354 58 C332 39 288 26 242 26 C161 26 107 113 107 244 C107 392 157 491 232 491 C284 491 332 458 354 416 L354 58 L354 58 Z " />
<glyph glyph-name="Emacron" unicode="&#x112;" horiz-adv-x="520" d="M147 785 L365 785 L365 813 L147 813 L147 785 L147 785 Z M340 268 L340 442 L328 442 L324 431 C312 393 271 367 220 367 L171 367 L171 661 L247 661 C307 661 360 621 380 561 L391 526 L402 526 L402 675 L40 675 L40 660 L51 660 C89 660 115 634 115 595 L115 80 C115 41 89 15 51 15 L40 15 L40 0 L408 0 L409 7 L408 7 C416 50 426 106 434 149 L423 149 L406 114 C375 54 315 14 255 14 L171 14 L171 353 L220 353 C271 353 312 324 324 281 L328 268 L340 268 L340 268 Z " />
<glyph glyph-name="emacron" unicode="&#x113;" horiz-adv-x="401" d="M109 610 L327 610 L327 638 L109 638 L109 610 L109 610 Z M349 41 L345 47 C329 34 288 25 241 25 C158 25 103 117 103 254 C103 279 104 302 107 324 L351 324 C351 433 298 505 218 505 C117 505 50 397 50 235 C50 91 110 -5 200 -5 C257 -5 316 13 349 41 L349 41 Z M304 366 C304 352 294 342 280 341 L108 333 C122 430 162 491 216 491 C269 491 305 441 305 366 L304 366 L304 366 Z " />
<glyph glyph-name="Ebreve" unicode="&#x114;" horiz-adv-x="520" d="M182 887 C193 825 223 783 256 783 C290 783 319 824 330 886 L321 888 C313 845 287 816 256 816 C225 816 199 845 191 888 L182 887 L182 887 Z M340 268 L340 442 L328 442 L324 431 C312 393 271 367 220 367 L171 367 L171 661 L247 661 C307 661 360 621 380 561 L391 526 L402 526 L402 675 L40 675 L40 660 L51 660 C89 660 115 634 115 595 L115 80 C115 41 89 15 51 15 L40 15 L40 0 L408 0 L409 7 L408 7 C416 50 426 106 434 149 L423 149 L406 114 C375 54 315 14 255 14 L171 14 L171 353 L220 353 C271 353 312 324 324 281 L328 268 L340 268 L340 268 Z " />
<glyph glyph-name="ebreve" unicode="&#x115;" horiz-adv-x="401" d="M144 712 C155 650 185 608 218 608 C252 608 281 649 292 711 L283 713 C275 670 249 641 218 641 C187 641 161 670 153 713 L144 712 L144 712 Z M349 41 L345 47 C329 34 288 25 241 25 C158 25 103 117 103 254 C103 279 104 302 107 324 L351 324 C351 433 298 505 218 505 C117 505 50 397 50 235 C50 91 110 -5 200 -5 C257 -5 316 13 349 41 L349 41 Z M304 366 C304 352 294 342 280 341 L108 333 C122 430 162 491 216 491 C269 491 305 441 305 366 L304 366 L304 366 Z " />
<glyph glyph-name="Edot" unicode="&#x116;" horiz-adv-x="520" d="M287 776 C287 815 225 815 225 776 C225 735 287 735 287 776 L287 776 Z M340 268 L340 442 L328 442 L324 431 C312 393 271 367 220 367 L171 367 L171 661 L247 661 C307 661 360 621 380 561 L391 526 L402 526 L402 675 L40 675 L40 660 L51 660 C89 660 115 634 115 595 L115 80 C115 41 89 15 51 15 L40 15 L40 0 L408 0 L409 7 L408 7 C416 50 426 106 434 149 L423 149 L406 114 C375 54 315 14 255 14 L171 14 L171 353 L220 353 C271 353 312 324 324 281 L328 268 L340 268 L340 268 Z " />
<glyph glyph-name="edot" unicode="&#x117;" horiz-adv-x="401" d="M249 601 C249 640 187 640 187 601 C187 560 249 560 249 601 L249 601 Z M349 41 L345 47 C329 34 288 25 241 25 C158 25 103 117 103 254 C103 279 104 302 107 324 L351 324 C351 433 298 505 218 505 C117 505 50 397 50 235 C50 91 110 -5 200 -5 C257 -5 316 13 349 41 L349 41 Z M304 366 C304 352 294 342 280 341 L108 333 C122 430 162 491 216 491 C269 491 305 441 305 366 L304 366 L304 366 Z " />
<glyph glyph-name="Eogonek" unicode="&#x118;" horiz-adv-x="520" d="M340 268 L340 442 L328 442 L324 431 C312 393 271 367 220 367 L171 367 L171 661 L247 661 C307 661 360 621 380 561 L391 526 L402 526 L402 675 L40 675 L40 660 L51 660 C89 660 115 634 115 595 L115 80 C115 41 89 15 51 15 L40 15 L40 0 L384 0 C336 -29 263 -97 263 -156 C263 -202 304 -233 366 -233 C398 -233 430 -220 447 -200 L443 -195 C431 -209 405 -219 377 -219 C327 -219 294 -192 294 -151 C294 -85 372 -12 406 0 L408 0 L409 7 L408 7 C416 50 426 106 434 149 L423 149 L406 114 C375 54 315 14 255 14 L171 14 L171 353 L220 353 C271 353 312 324 324 281 L328 268 L340 268 L340 268 Z " />
<glyph glyph-name="eogonek" unicode="&#x119;" horiz-adv-x="401" d="M304 366 C304 352 294 342 280 341 L108 333 C122 430 162 491 216 491 C269 491 305 441 305 366 L304 366 L304 366 Z M108 324 L352 324 C352 433 299 505 219 505 C118 505 51 397 51 235 C51 91 111 -5 201 -5 C211 -5 221 -4 231 -3 C183 -34 118 -98 118 -154 C118 -201 159 -232 221 -232 C253 -232 285 -219 302 -199 L298 -194 C286 -208 260 -218 232 -218 C182 -218 149 -190 149 -148 C149 -83 224 -12 259 2 C295 10 328 24 350 42 L346 48 C330 35 289 26 242 26 C159 26 104 118 104 255 C104 280 105 303 108 325 L108 324 L108 324 Z " />
<glyph glyph-name="Ecaron" unicode="&#x11a;" horiz-adv-x="520" d="M353 942 C353 942 293 856 256 789 C230 833 182 915 160 942 L155 937 C136 959 241 744 241 744 C243 740 248 730 257 730 C266 730 271 740 273 744 C336 874 359 937 359 937 L353 942 L353 942 Z M341 268 L341 442 L329 442 L325 431 C313 393 272 367 221 367 L172 367 L172 661 L248 661 C308 661 361 621 381 561 L392 526 L403 526 L403 675 L41 675 L41 660 L52 660 C90 660 116 634 116 595 L116 80 C116 41 90 15 52 15 L41 15 L41 0 L409 0 L410 7 L409 7 C417 50 427 106 435 149 L424 149 L407 114 C376 54 316 14 256 14 L172 14 L172 353 L221 353 C272 353 313 324 325 281 L329 268 L341 268 L341 268 Z " />
<glyph glyph-name="ecaron" unicode="&#x11b;" horiz-adv-x="401" d="M315 767 C315 767 255 681 218 614 C192 658 144 740 122 767 L117 762 C98 784 203 569 203 569 C205 565 210 555 219 555 C228 555 233 565 235 569 C298 699 321 762 321 762 L315 767 L315 767 Z M350 41 L346 47 C330 34 289 25 242 25 C159 25 104 117 104 254 C104 279 105 302 108 324 L352 324 C352 433 299 505 219 505 C118 505 51 397 51 235 C51 91 111 -5 201 -5 C258 -5 317 13 350 41 L350 41 Z M305 366 C305 352 295 342 281 341 L109 333 C123 430 163 491 217 491 C270 491 306 441 306 366 L305 366 L305 366 Z " />
<glyph glyph-name="Gcircumflex" unicode="&#x11c;" horiz-adv-x="733" d="M358 906 C356 910 351 920 342 920 C333 920 328 910 326 906 C326 906 221 691 240 713 L245 708 C267 735 315 817 341 861 C378 794 438 708 438 708 L443 713 C443 713 420 776 357 906 L358 906 L358 906 Z M557 480 L557 618 C493 655 406 680 341 680 C173 680 61 543 61 338 C61 132 173 -5 341 -5 C409 -5 498 20 562 57 L562 237 C562 276 588 302 626 302 L637 302 L637 317 L437 317 L437 302 L448 302 C486 302 512 276 512 237 L512 48 C457 24 393 9 341 9 C210 9 122 141 122 338 C122 535 210 666 341 666 C351 666 362 665 373 664 C441 656 504 598 531 519 L544 480 L557 480 L557 480 Z " />
<glyph glyph-name="Gbreve" unicode="&#x11e;" horiz-adv-x="733" d="M268 887 C279 825 309 783 342 783 C376 783 405 824 416 886 L407 888 C399 845 373 816 342 816 C311 816 285 845 277 888 L268 887 L268 887 Z M558 480 L558 618 C494 655 407 680 342 680 C174 680 62 543 62 338 C62 132 174 -5 342 -5 C410 -5 499 20 563 57 L563 237 C563 276 589 302 627 302 L638 302 L638 317 L438 317 L438 302 L449 302 C487 302 513 276 513 237 L513 48 C458 24 394 9 342 9 C211 9 123 141 123 338 C123 535 211 666 342 666 C352 666 363 665 374 664 C442 656 505 598 532 519 L545 480 L558 480 L558 480 Z " />
<glyph glyph-name="gbreve" unicode="&#x11f;" horiz-adv-x="386" d="M131 712 C142 650 172 608 205 608 C239 608 268 649 279 711 L270 713 C262 670 236 641 205 641 C174 641 148 670 140 713 L131 712 L131 712 Z M386 500 L261 494 C244 501 225 505 205 505 C123 505 69 443 69 350 C69 276 103 222 158 203 C93 199 51 164 51 113 C51 66 84 32 136 23 C70 -11 26 -64 26 -109 C26 -186 74 -237 145 -237 C277 -237 365 -161 365 -48 C365 23 303 71 211 71 L162 68 C115 68 84 94 84 133 C84 171 119 196 172 196 L204 196 C286 196 341 258 341 351 C341 405 323 448 292 475 L386 473 L386 500 L386 500 Z M205 207 C152 207 116 265 116 351 C116 437 152 495 205 495 C258 495 294 437 294 351 C294 265 258 207 205 207 L205 207 Z M150 22 C155 22 160 22 165 22 C165 22 213 25 199 25 C278 25 330 -14 330 -72 C330 -163 259 -223 152 -223 C97 -223 60 -175 60 -103 C60 -54 96 -4 150 24 L150 22 L150 22 Z " />
<glyph glyph-name="Gdot" unicode="&#x120;" horiz-adv-x="733" d="M373 776 C373 815 311 815 311 776 C311 735 373 735 373 776 L373 776 Z M558 480 L558 618 C494 655 407 680 342 680 C174 680 62 543 62 338 C62 132 174 -5 342 -5 C410 -5 499 20 563 57 L563 237 C563 276 589 302 627 302 L638 302 L638 317 L438 317 L438 302 L449 302 C487 302 513 276 513 237 L513 48 C458 24 394 9 342 9 C211 9 123 141 123 338 C123 535 211 666 342 666 C352 666 363 665 374 664 C442 656 505 598 532 519 L545 480 L558 480 L558 480 Z " />
<glyph glyph-name="gdot" unicode="&#x121;" horiz-adv-x="386" d="M236 601 C236 640 174 640 174 601 C174 560 236 560 236 601 L236 601 Z M386 500 L261 494 C244 501 225 505 205 505 C123 505 69 443 69 350 C69 276 103 222 158 203 C93 199 51 164 51 113 C51 66 84 32 136 23 C70 -11 26 -64 26 -109 C26 -186 74 -237 145 -237 C277 -237 365 -161 365 -48 C365 23 303 71 211 71 L162 68 C115 68 84 94 84 133 C84 171 119 196 172 196 L204 196 C286 196 341 258 341 351 C341 405 323 448 292 475 L386 473 L386 500 L386 500 Z M205 207 C152 207 116 265 116 351 C116 437 152 495 205 495 C258 495 294 437 294 351 C294 265 258 207 205 207 L205 207 Z M150 22 C155 22 160 22 165 22 C165 22 213 25 199 25 C278 25 330 -14 330 -72 C330 -163 259 -223 152 -223 C97 -223 60 -175 60 -103 C60 -54 96 -4 150 24 L150 22 L150 22 Z " />
<glyph glyph-name="Hcircumflex" unicode="&#x124;" horiz-adv-x="688" d="M360 906 C358 910 353 920 344 920 C335 920 330 910 328 906 C328 906 223 691 242 713 L247 708 C269 735 317 817 343 861 C380 794 440 708 440 708 L445 713 C445 713 422 776 359 906 L360 906 L360 906 Z M647 15 L636 15 C598 15 572 41 572 80 L572 595 C572 634 598 660 636 660 L647 660 L647 675 L441 675 L441 660 L452 660 C490 660 516 634 516 595 L516 362 L170 362 L170 595 C170 634 196 660 234 660 L245 660 L245 675 L39 675 L39 660 L50 660 C88 660 114 634 114 595 L114 80 C114 41 88 15 50 15 L39 15 L39 0 L245 0 L245 15 L234 15 C196 15 170 41 170 80 L170 348 L516 348 L516 80 C516 41 490 15 452 15 L441 15 L441 0 L647 0 L647 15 L647 15 Z " />
<glyph glyph-name="Itilde" unicode="&#x128;" horiz-adv-x="286" d="M58 770 C58 810 68 837 83 837 C115 837 157 774 189 774 C217 774 236 812 236 868 L228 868 C228 831 217 807 200 807 C168 807 126 870 94 870 C68 870 50 830 50 770 L58 770 L58 770 Z M246 15 L235 15 C197 15 171 41 171 80 L171 595 C171 634 197 660 235 660 L246 660 L246 675 L40 675 L40 660 L51 660 C89 660 115 634 115 595 L115 80 C115 41 89 15 51 15 L40 15 L40 0 L246 0 L246 15 L246 15 Z " />
<glyph glyph-name="itilde" unicode="&#x129;" horiz-adv-x="290" d="M60 595 C60 635 70 662 85 662 C117 662 159 599 191 599 C219 599 238 637 238 693 L230 693 C230 656 219 632 202 632 C170 632 128 695 96 695 C70 695 52 655 52 595 L60 595 L60 595 Z M245 15 L234 15 C196 15 170 41 170 80 L170 500 L160 500 L45 467 L45 458 L56 455 C110 444 120 431 120 377 L120 80 C120 41 94 15 56 15 L45 15 L45 0 L245 0 L245 15 L245 15 Z " />
<glyph glyph-name="Imacron" unicode="&#x12a;" horiz-adv-x="286" d="M34 785 L252 785 L252 813 L34 813 L34 785 L34 785 Z M246 15 L235 15 C197 15 171 41 171 80 L171 595 C171 634 197 660 235 660 L246 660 L246 675 L40 675 L40 660 L51 660 C89 660 115 634 115 595 L115 80 C115 41 89 15 51 15 L40 15 L40 0 L246 0 L246 15 L246 15 Z " />
<glyph glyph-name="imacron" unicode="&#x12b;" horiz-adv-x="290" d="M36 610 L254 610 L254 638 L36 638 L36 610 L36 610 Z M245 15 L234 15 C196 15 170 41 170 80 L170 500 L160 500 L45 467 L45 458 L56 455 C110 444 120 431 120 377 L120 80 C120 41 94 15 56 15 L45 15 L45 0 L245 0 L245 15 L245 15 Z " />
<glyph glyph-name="Ibreve" unicode="&#x12c;" horiz-adv-x="286" d="M69 887 C80 825 110 783 143 783 C177 783 206 824 217 886 L208 888 C200 845 174 816 143 816 C112 816 86 845 78 888 L69 887 L69 887 Z M246 15 L235 15 C197 15 171 41 171 80 L171 595 C171 634 197 660 235 660 L246 660 L246 675 L40 675 L40 660 L51 660 C89 660 115 634 115 595 L115 80 C115 41 89 15 51 15 L40 15 L40 0 L246 0 L246 15 L246 15 Z " />
<glyph glyph-name="ibreve" unicode="&#x12d;" horiz-adv-x="290" d="M71 712 C82 650 112 608 145 608 C179 608 208 649 219 711 L210 713 C202 670 176 641 145 641 C114 641 88 670 80 713 L71 712 L71 712 Z M245 15 L234 15 C196 15 170 41 170 80 L170 500 L160 500 L45 467 L45 458 L56 455 C110 444 120 431 120 377 L120 80 C120 41 94 15 56 15 L45 15 L45 0 L245 0 L245 15 L245 15 Z " />
<glyph glyph-name="Idot" unicode="&#x130;" horiz-adv-x="286" d="M174 776 C174 815 112 815 112 776 C112 735 174 735 174 776 L174 776 Z M246 15 L235 15 C197 15 171 41 171 80 L171 595 C171 634 197 660 235 660 L246 660 L246 675 L40 675 L40 660 L51 660 C89 660 115 634 115 595 L115 80 C115 41 89 15 51 15 L40 15 L40 0 L246 0 L246 15 L246 15 Z " />
<glyph glyph-name="dotlessi" unicode="&#x131;" horiz-adv-x="290" d="M245 15 L234 15 C196 15 170 41 170 80 L170 500 L160 500 L45 467 L45 458 L56 455 C110 444 120 431 120 377 L120 80 C120 41 94 15 56 15 L45 15 L45 0 L245 0 L245 15 L245 15 Z " />
<glyph glyph-name="Jcircumflex" unicode="&#x134;" horiz-adv-x="292" d="M165 906 C163 910 158 920 149 920 C140 920 135 910 133 906 C133 906 28 691 47 713 L52 708 C74 735 122 817 148 861 C185 794 245 708 245 708 L250 713 C250 713 227 776 164 906 L165 906 L165 906 Z M251 675 L45 675 L45 660 L56 660 C94 660 120 634 120 595 L120 205 C120 58 109 1 80 1 C67 1 53 21 46 50 C43 63 33 72 21 72 C5 72 -4 63 -1 50 C8 14 35 -10 66 -10 C145 -10 176 63 176 251 L176 595 C176 634 202 660 240 660 L251 660 L251 675 L251 675 Z " />
<glyph glyph-name="Lacute" unicode="&#x139;" horiz-adv-x="520" d="M118 706 C118 706 197 795 228 835 C253 865 270 887 270 890 C270 896 250 910 241 910 C239 910 224 888 203 855 C172 815 113 710 113 710 L118 706 L118 706 Z M434 156 C428 159 416 164 416 164 L390 104 C368 50 318 14 264 14 L171 14 L171 595 C171 634 197 660 235 660 L246 660 L246 675 L40 675 L40 660 L51 660 C89 660 115 634 115 595 L115 80 C115 41 89 15 51 15 L40 15 L40 0 L407 0 C414 48 426 109 434 157 L434 156 L434 156 Z " />
<glyph glyph-name="Lcaron" unicode="&#x13d;" horiz-adv-x="520" d="M341 708 C331 708 320 646 315 601 L294 439 L301 436 L346 589 C362 640 372 689 372 696 C372 705 350 708 341 708 L341 708 Z M434 156 C428 159 416 164 416 164 L390 104 C368 50 318 14 264 14 L171 14 L171 595 C171 634 197 660 235 660 L246 660 L246 675 L40 675 L40 660 L51 660 C89 660 115 634 115 595 L115 80 C115 41 89 15 51 15 L40 15 L40 0 L407 0 C414 48 426 109 434 157 L434 156 L434 156 Z " />
<glyph glyph-name="lcaron" unicode="&#x13e;" horiz-adv-x="290" d="M265 723 C255 723 244 661 239 616 L218 454 L225 451 L270 604 C286 655 296 704 296 711 C296 720 274 723 265 723 L265 723 Z M245 15 L234 15 C196 15 170 41 170 80 L170 720 L160 720 L45 687 L45 678 L56 675 C110 664 120 651 120 597 L120 80 C120 41 94 15 56 15 L45 15 L45 0 L245 0 L245 15 L245 15 Z " />
<glyph glyph-name="Lslash" unicode="&#x141;" horiz-adv-x="520" d="M40 0 L407 0 C414 48 426 109 434 157 C428 160 416 165 416 165 L390 105 C368 51 318 15 264 15 L171 15 L171 328 L288 380 L288 397 L171 345 L171 596 C171 635 197 661 235 661 L246 661 L246 676 L40 676 L40 661 L51 661 C89 661 115 635 115 596 L115 319 L65 297 L65 280 L115 302 L115 81 C115 42 89 16 51 16 L40 16 L40 0 L40 0 Z " />
<glyph glyph-name="lslash" unicode="&#x142;" horiz-adv-x="290" d="M45 0 L245 0 L245 15 L234 15 C196 15 170 41 170 80 L170 362 L270 402 L270 418 L170 378 L170 720 L160 720 L45 687 L45 678 L56 675 C110 664 120 651 120 597 L120 358 L20 318 L20 302 L120 342 L120 80 C120 41 94 15 56 15 L45 15 L45 0 L45 0 Z " />
<glyph glyph-name="Nacute" unicode="&#x143;" horiz-adv-x="621" d="M280 706 C280 706 359 795 390 835 C415 865 432 887 432 890 C432 896 412 910 403 910 C401 910 386 888 365 855 C334 815 275 710 275 710 L280 706 L280 706 Z M43 660 L54 660 C92 660 118 634 118 595 L118 80 C118 41 92 15 54 15 L43 15 L43 0 L210 0 L210 15 L199 15 C161 15 135 41 135 80 L135 619 C251 409 367 199 482 -12 L506 -12 L506 594 C506 633 532 659 570 659 L581 659 L581 674 L414 674 L414 659 L425 659 C463 659 489 633 489 594 L489 86 L168 674 L43 674 L43 660 L43 660 Z " />
<glyph glyph-name="nacute" unicode="&#x144;" horiz-adv-x="539" d="M194 531 C194 531 273 620 304 660 C329 690 346 712 346 715 C346 721 326 735 317 735 C315 735 300 713 279 680 C248 640 189 535 189 535 L194 531 L194 531 Z M299 0 L499 0 L499 15 L488 15 C450 15 424 41 424 80 L424 336 C424 437 397 505 328 505 C308 505 246 478 171 439 L171 500 L161 500 L46 467 L46 458 L57 455 C111 444 121 431 121 377 L121 80 C121 41 95 15 57 15 L46 15 L46 0 L246 0 L246 15 L235 15 C197 15 171 41 171 80 L171 434 C214 456 261 471 290 471 C351 471 375 415 375 331 L375 80 C375 41 349 15 311 15 L300 15 L299 0 L299 0 Z " />
<glyph glyph-name="Ncaron" unicode="&#x147;" horiz-adv-x="621" d="M409 942 C409 942 349 856 312 789 C286 833 238 915 216 942 L211 937 C192 959 297 744 297 744 C299 740 304 730 313 730 C322 730 327 740 329 744 C392 874 415 937 415 937 L409 942 L409 942 Z M44 660 L55 660 C93 660 119 634 119 595 L119 80 C119 41 93 15 55 15 L44 15 L44 0 L211 0 L211 15 L200 15 C162 15 136 41 136 80 L136 619 C252 409 368 199 483 -12 L507 -12 L507 594 C507 633 533 659 571 659 L582 659 L582 674 L415 674 L415 659 L426 659 C464 659 490 633 490 594 L490 86 L169 674 L44 674 L44 660 L44 660 Z " />
<glyph glyph-name="ncaron" unicode="&#x148;" horiz-adv-x="539" d="M369 767 C369 767 309 681 272 614 C246 658 198 740 176 767 L171 762 C152 784 257 569 257 569 C259 565 264 555 273 555 C282 555 287 565 289 569 C352 699 375 762 375 762 L369 767 L369 767 Z M300 0 L500 0 L500 15 L489 15 C451 15 425 41 425 80 L425 336 C425 437 398 505 329 505 C309 505 247 478 172 439 L172 500 L162 500 L47 467 L47 458 L58 455 C112 444 122 431 122 377 L122 80 C122 41 96 15 58 15 L47 15 L47 0 L247 0 L247 15 L236 15 C198 15 172 41 172 80 L172 434 C215 456 262 471 291 471 C352 471 376 415 376 331 L376 80 C376 41 350 15 312 15 L301 15 L300 0 L300 0 Z " />
<glyph glyph-name="Omacron" unicode="&#x14c;" horiz-adv-x="678" d="M236 785 L454 785 L454 813 L236 813 L236 785 L236 785 Z M123 338 C123 515 198 666 345 666 C492 666 567 515 567 338 C567 160 492 9 345 9 C198 9 123 160 123 338 L123 338 Z M62 338 C62 153 158 -5 345 -5 C532 -5 628 153 628 338 C628 523 532 680 345 680 C158 680 62 523 62 338 L62 338 Z " />
<glyph glyph-name="omacron" unicode="&#x14d;" horiz-adv-x="508" d="M145 610 L363 610 L363 638 L145 638 L145 610 L145 610 Z M106 250 C106 396 165 494 254 494 C343 494 402 396 402 250 C402 104 343 6 254 6 C165 6 106 104 106 250 L106 250 Z M50 250 C50 97 132 -5 254 -5 C376 -5 458 97 458 250 C458 403 376 505 254 505 C132 505 50 403 50 250 L50 250 Z " />
<glyph glyph-name="Obreve" unicode="&#x14e;" horiz-adv-x="678" d="M271 887 C282 825 312 783 345 783 C379 783 408 824 419 886 L410 888 C402 845 376 816 345 816 C314 816 288 845 280 888 L271 887 L271 887 Z M123 338 C123 515 198 666 345 666 C492 666 567 515 567 338 C567 160 492 9 345 9 C198 9 123 160 123 338 L123 338 Z M62 338 C62 153 158 -5 345 -5 C532 -5 628 153 628 338 C628 523 532 680 345 680 C158 680 62 523 62 338 L62 338 Z " />
<glyph glyph-name="obreve" unicode="&#x14f;" horiz-adv-x="508" d="M180 712 C191 650 221 608 254 608 C288 608 317 649 328 711 L319 713 C311 670 285 641 254 641 C223 641 197 670 189 713 L180 712 L180 712 Z M106 250 C106 396 165 494 254 494 C343 494 402 396 402 250 C402 104 343 6 254 6 C165 6 106 104 106 250 L106 250 Z M50 250 C50 97 132 -5 254 -5 C376 -5 458 97 458 250 C458 403 376 505 254 505 C132 505 50 403 50 250 L50 250 Z " />
<glyph glyph-name="Racute" unicode="&#x154;" horiz-adv-x="535" d="M207 706 C207 706 286 795 317 835 C342 865 359 887 359 890 C359 896 339 910 330 910 C328 910 313 888 292 855 C261 815 202 710 202 710 L207 706 L207 706 Z M51 660 L62 660 C100 660 126 634 126 595 L126 80 C126 41 100 15 62 15 L51 15 L51 0 L257 0 L257 15 L246 15 C208 15 182 41 182 80 L182 324 L228 324 C249 293 304 213 377 106 C447 4 452 0 513 0 L535 0 L535 11 C508 11 510 11 453 95 C371 214 311 300 291 328 C384 344 443 409 443 500 C443 605 369 675 259 675 L50 675 L51 660 L51 660 Z M244 338 L181 338 L181 661 L259 661 C334 661 384 597 384 500 C384 403 328 338 244 338 L244 338 Z " />
<glyph glyph-name="Rcaron" unicode="&#x158;" horiz-adv-x="535" d="M382 942 C382 942 322 856 285 789 C259 833 211 915 189 942 L184 937 C165 959 270 744 270 744 C272 740 277 730 286 730 C295 730 300 740 302 744 C365 874 388 937 388 937 L382 942 L382 942 Z M52 660 L63 660 C101 660 127 634 127 595 L127 80 C127 41 101 15 63 15 L52 15 L52 0 L258 0 L258 15 L247 15 C209 15 183 41 183 80 L183 324 L229 324 C250 293 305 213 378 106 C448 4 453 0 514 0 L536 0 L536 11 C509 11 511 11 454 95 C372 214 312 300 292 328 C385 344 444 409 444 500 C444 605 370 675 260 675 L51 675 L52 660 L52 660 Z M245 338 L182 338 L182 661 L260 661 C335 661 385 597 385 500 C385 403 329 338 245 338 L245 338 Z " />
<glyph glyph-name="rcaron" unicode="&#x159;" horiz-adv-x="348" d="M295 767 C295 767 235 681 198 614 C172 658 124 740 102 767 L97 762 C78 784 183 569 183 569 C185 565 190 555 199 555 C208 555 213 565 215 569 C278 699 301 762 301 762 L295 767 L295 767 Z M46 458 L57 455 C111 444 121 431 121 377 L121 80 C121 41 95 15 57 15 L46 15 L46 0 L246 0 L246 15 L235 15 C197 15 171 41 171 80 L171 420 C195 449 221 468 237 468 C260 468 292 446 315 446 C329 446 339 456 339 470 C339 491 322 505 277 505 C251 505 209 474 171 427 L171 500 L161 500 L46 467 L46 458 L46 458 Z " />
<glyph glyph-name="Sacute" unicode="&#x15a;" horiz-adv-x="424" d="M153 706 C153 706 232 795 263 835 C288 865 305 887 305 890 C305 896 285 910 276 910 C274 910 259 888 238 855 C207 815 148 710 148 710 L153 706 L153 706 Z M344 487 L344 629 C291 660 235 680 204 680 C112 680 51 605 51 493 C51 425 106 354 188 317 C279 276 339 209 339 149 C339 65 292 9 222 9 C159 9 98 65 69 149 L56 188 L43 188 L43 46 C96 15 168 -5 222 -5 C316 -5 379 65 379 171 C379 242 319 317 228 358 C145 395 90 458 90 515 C90 606 134 666 201 666 C207 666 215 665 225 662 C258 651 287 620 300 580 C309 552 322 516 331 488 L344 487 L344 487 Z " />
<glyph glyph-name="sacute" unicode="&#x15b;" horiz-adv-x="341" d="M99 531 C99 531 178 620 209 660 C234 690 251 712 251 715 C251 721 231 735 222 735 C220 735 205 713 184 680 C153 640 94 535 94 535 L99 531 L99 531 Z M268 370 L268 461 L264 453 C264 455 267 458 268 461 C222 487 186 505 177 505 C110 505 65 454 65 378 C65 327 104 268 162 232 C215 199 250 153 250 118 C250 51 219 6 173 6 C136 6 95 47 70 108 C67 116 62 127 59 135 L48 135 L48 34 C89 11 137 -5 170 -5 C243 -5 291 51 291 136 C291 180 253 233 197 268 C141 303 104 354 104 395 C104 454 133 494 177 494 C186 494 196 489 205 480 C201 481 197 482 194 483 C199 480 205 476 212 472 C225 456 237 431 246 401 C249 392 252 379 255 370 L268 370 L268 370 Z M176 494 C177 493 183 489 194 483 C187 485 181 486 176 486 L176 494 L176 494 Z " />
<glyph glyph-name="Scircumflex" unicode="&#x15c;" horiz-adv-x="424" d="M217 906 C215 910 210 920 201 920 C192 920 187 910 185 906 C185 906 80 691 99 713 L104 708 C126 735 174 817 200 861 C237 794 297 708 297 708 L302 713 C302 713 279 776 216 906 L217 906 L217 906 Z M343 487 L343 629 C290 660 234 680 203 680 C111 680 50 605 50 493 C50 425 105 354 187 317 C278 276 338 209 338 149 C338 65 291 9 221 9 C158 9 97 65 68 149 L55 188 L42 188 L42 46 C95 15 167 -5 221 -5 C315 -5 378 65 378 171 C378 242 318 317 227 358 C144 395 89 458 89 515 C89 606 133 666 200 666 C206 666 214 665 224 662 C257 651 286 620 299 580 C308 552 321 516 330 488 L343 487 L343 487 Z " />
<glyph glyph-name="Scedilla" unicode="&#x15e;" horiz-adv-x="424" d="M198 -94 C210 -85 223 -79 231 -79 C251 -79 264 -101 264 -134 C264 -177 247 -205 221 -205 C197 -205 175 -199 165 -191 L164 -196 C181 -210 208 -220 231 -220 C269 -220 295 -186 295 -134 C295 -95 274 -69 243 -69 C229 -69 212 -75 201 -83 L198 -94 L198 -94 Z M344 487 L344 629 C291 660 235 680 204 680 C112 680 51 605 51 493 C51 425 106 354 188 317 C279 276 339 209 339 149 C339 65 292 9 222 9 C159 9 98 65 69 149 L56 188 L43 188 L43 46 C95 16 164 -4 217 -5 C215 -13 206 -46 194 -93 L198 -94 C215 -28 228 -9 233 -4 C321 1 379 70 379 172 C379 243 319 318 228 359 C145 396 90 459 90 516 C90 607 134 667 201 667 C207 667 215 666 225 663 C258 652 287 621 300 581 C309 553 322 517 331 489 L344 487 L344 487 Z " />
<glyph glyph-name="scedilla" unicode="&#x15f;" horiz-adv-x="341" d="M146 -94 C158 -85 171 -79 179 -79 C199 -79 212 -101 212 -134 C212 -177 195 -205 169 -205 C145 -205 123 -199 113 -191 L112 -196 C129 -210 156 -220 179 -220 C217 -220 243 -186 243 -134 C243 -95 222 -69 191 -69 C177 -69 160 -75 149 -83 L146 -94 L146 -94 Z M268 370 L268 461 L264 453 C264 455 267 458 268 461 C222 487 186 505 177 505 C110 505 65 454 65 378 C65 327 104 268 162 232 C215 199 250 153 250 118 C250 51 219 6 173 6 C136 6 95 47 70 108 C67 116 62 127 59 135 L48 135 L48 34 C87 12 133 -4 166 -5 C164 -13 155 -46 143 -94 L147 -95 C164 -29 177 -11 182 -6 C249 -1 292 54 292 135 C292 179 254 232 198 267 C142 302 105 353 105 394 C105 453 134 493 178 493 C187 493 197 488 206 479 C202 480 198 481 195 482 C200 479 206 475 213 471 C226 455 238 430 247 400 C250 391 253 378 256 369 L268 370 L268 370 Z M177 493 C178 492 184 488 195 482 C188 484 182 485 177 485 L177 493 L177 493 Z " />
<glyph glyph-name="Scaron" unicode="&#x160;" horiz-adv-x="424" d="M298 942 C298 942 238 856 201 789 C175 833 127 915 105 942 L100 937 C81 959 186 744 186 744 C188 740 193 730 202 730 C211 730 216 740 218 744 C281 874 304 937 304 937 L298 942 L298 942 Z M345 487 L345 629 C292 660 236 680 205 680 C113 680 52 605 52 493 C52 425 107 354 189 317 C280 276 340 209 340 149 C340 65 293 9 223 9 C160 9 99 65 70 149 L57 188 L44 188 L44 46 C97 15 169 -5 223 -5 C317 -5 380 65 380 171 C380 242 320 317 229 358 C146 395 91 458 91 515 C91 606 135 666 202 666 C208 666 216 665 226 662 C259 651 288 620 301 580 C310 552 323 516 332 488 L345 487 L345 487 Z " />
<glyph glyph-name="scaron" unicode="&#x161;" horiz-adv-x="341" d="M274 767 C274 767 214 681 177 614 C151 658 103 740 81 767 L76 762 C57 784 162 569 162 569 C164 565 169 555 178 555 C187 555 192 565 194 569 C257 699 280 762 280 762 L274 767 L274 767 Z M269 370 L269 461 L265 453 C265 455 268 458 269 461 C223 487 187 505 178 505 C111 505 66 454 66 378 C66 327 105 268 163 232 C216 199 251 153 251 118 C251 51 220 6 174 6 C137 6 96 47 71 108 C68 116 63 127 60 135 L49 135 L49 34 C90 11 138 -5 171 -5 C244 -5 292 51 292 136 C292 180 254 233 198 268 C142 303 105 354 105 395 C105 454 134 494 178 494 C187 494 197 489 206 480 C202 481 198 482 195 483 C200 480 206 476 213 472 C226 456 238 431 247 401 C250 392 253 379 256 370 L269 370 L269 370 Z M177 494 C178 493 184 489 195 483 C188 485 182 486 177 486 L177 494 L177 494 Z " />
<glyph glyph-name="Tcaron" unicode="&#x164;" horiz-adv-x="539" d="M368 942 C368 942 308 856 271 789 C245 833 197 915 175 942 L170 937 C151 959 256 744 256 744 C258 740 263 730 272 730 C281 730 286 740 288 744 C351 874 374 937 374 937 L368 942 L368 942 Z M168 0 L373 0 L373 15 L362 15 C324 15 298 41 298 80 L298 661 L376 661 C424 661 470 629 489 581 L517 511 L529 511 C525 560 521 626 514 674 L29 674 L28 667 L27 667 C23 620 17 557 13 510 L25 510 L53 580 C73 628 119 660 167 660 L243 660 L243 79 C243 40 217 14 179 14 L168 14 L168 0 L168 0 Z " />
<glyph glyph-name="tcaron" unicode="&#x165;" horiz-adv-x="300" d="M269 500 L134 500 L134 640 L126 640 L88 494 L108 569 C96 523 64 491 26 486 L26 480 L85 480 L85 110 C85 20 102 -6 160 -6 C209 -6 246 14 281 43 L277 47 C255 28 228 16 185 16 C146 16 135 35 135 101 L135 480 L270 480 L269 500 L269 500 Z M365 722 C355 722 344 660 339 615 L318 453 L325 450 L370 603 C386 654 396 703 396 710 C396 719 374 722 365 722 L365 722 Z M108 569 L109 571 C109 570 109 569 109 568 L108 569 L108 569 Z " />
<glyph glyph-name="Utilde" unicode="&#x168;" horiz-adv-x="606" d="M223 770 C223 810 233 837 248 837 C280 837 323 774 355 774 C383 774 402 812 402 868 L394 868 C394 831 383 807 366 807 C334 807 291 870 259 870 C233 870 215 830 215 770 L223 770 L223 770 Z M586 675 L394 675 L394 660 L409 660 C454 660 484 630 484 585 L484 184 C484 82 438 14 321 14 C214 14 172 88 172 199 L172 595 C172 634 198 660 236 660 L247 660 L247 675 L41 675 L41 660 L52 660 C90 660 116 634 116 595 L116 210 C116 81 171 -5 312 -5 C448 -5 501 69 501 179 L501 585 C501 630 530 660 573 660 L586 660 L586 675 L586 675 Z " />
<glyph glyph-name="utilde" unicode="&#x169;" horiz-adv-x="504" d="M157 595 C157 635 167 662 182 662 C214 662 256 599 288 599 C316 599 335 637 335 693 L327 693 C327 656 316 632 299 632 C267 632 225 695 193 695 C167 695 149 655 149 595 L157 595 L157 595 Z M15 485 L26 485 C64 485 90 459 90 420 L90 156 C90 59 129 -5 206 -5 C258 -5 305 20 345 57 L345 0 L355 0 L470 33 L470 42 L459 45 C405 56 395 69 395 123 L395 500 L270 500 L270 485 L281 485 C319 485 345 459 345 420 L345 65 C321 43 289 28 246 28 C177 28 141 81 141 161 L141 500 L16 500 L15 485 L15 485 Z " />
<glyph glyph-name="Umacron" unicode="&#x16a;" horiz-adv-x="606" d="M199 785 L418 785 L418 813 L199 813 L199 785 L199 785 Z M586 675 L394 675 L394 660 L409 660 C454 660 484 630 484 585 L484 184 C484 82 438 14 321 14 C214 14 172 88 172 199 L172 595 C172 634 198 660 236 660 L247 660 L247 675 L41 675 L41 660 L52 660 C90 660 116 634 116 595 L116 210 C116 81 171 -5 312 -5 C448 -5 501 69 501 179 L501 585 C501 630 530 660 573 660 L586 660 L586 675 L586 675 Z " />
<glyph glyph-name="umacron" unicode="&#x16b;" horiz-adv-x="504" d="M133 610 L351 610 L351 638 L133 638 L133 610 L133 610 Z M15 485 L26 485 C64 485 90 459 90 420 L90 156 C90 59 129 -5 206 -5 C258 -5 305 20 345 57 L345 0 L355 0 L470 33 L470 42 L459 45 C405 56 395 69 395 123 L395 500 L270 500 L270 485 L281 485 C319 485 345 459 345 420 L345 65 C321 43 289 28 246 28 C177 28 141 81 141 161 L141 500 L16 500 L15 485 L15 485 Z " />
<glyph glyph-name="Ubreve" unicode="&#x16c;" horiz-adv-x="606" d="M235 887 C246 825 276 783 309 783 C343 783 372 824 383 886 L374 888 C366 845 340 816 309 816 C277 816 251 845 243 888 L235 887 L235 887 Z M586 675 L394 675 L394 660 L409 660 C454 660 484 630 484 585 L484 184 C484 82 438 14 321 14 C214 14 172 88 172 199 L172 595 C172 634 198 660 236 660 L247 660 L247 675 L41 675 L41 660 L52 660 C90 660 116 634 116 595 L116 210 C116 81 171 -5 312 -5 C448 -5 501 69 501 179 L501 585 C501 630 530 660 573 660 L586 660 L586 675 L586 675 Z " />
<glyph glyph-name="ubreve" unicode="&#x16d;" horiz-adv-x="504" d="M168 712 C179 650 209 608 242 608 C276 608 305 649 316 711 L307 713 C299 670 273 641 242 641 C211 641 185 670 177 713 L168 712 L168 712 Z M15 485 L26 485 C64 485 90 459 90 420 L90 156 C90 59 129 -5 206 -5 C258 -5 305 20 345 57 L345 0 L355 0 L470 33 L470 42 L459 45 C405 56 395 69 395 123 L395 500 L270 500 L270 485 L281 485 C319 485 345 459 345 420 L345 65 C321 43 289 28 246 28 C177 28 141 81 141 161 L141 500 L16 500 L15 485 L15 485 Z " />
<glyph glyph-name="Uring" unicode="&#x16e;" horiz-adv-x="606" d="M228 803 C228 852 260 884 309 884 C357 884 389 852 389 803 C389 759 352 721 309 721 C265 721 228 759 228 803 L228 803 Z M214 803 C214 753 258 710 309 710 C360 710 403 753 403 803 C403 858 365 895 309 895 C252 895 214 858 214 803 L214 803 Z M586 675 L394 675 L394 660 L409 660 C454 660 484 630 484 585 L484 184 C484 82 438 14 321 14 C214 14 172 88 172 199 L172 595 C172 634 198 660 236 660 L247 660 L247 675 L41 675 L41 660 L52 660 C90 660 116 634 116 595 L116 210 C116 81 171 -5 312 -5 C448 -5 501 69 501 179 L501 585 C501 630 530 660 573 660 L586 660 L586 675 L586 675 Z " />
<glyph glyph-name="uring" unicode="&#x16f;" horiz-adv-x="504" d="M162 628 C162 677 194 709 242 709 C290 709 322 677 322 628 C322 584 285 546 242 546 C199 546 162 584 162 628 L162 628 Z M148 628 C148 578 191 535 242 535 C293 535 336 578 336 628 C336 683 298 720 242 720 C186 720 148 683 148 628 L148 628 Z M15 485 L26 485 C64 485 90 459 90 420 L90 156 C90 59 129 -5 206 -5 C258 -5 305 20 345 57 L345 0 L355 0 L470 33 L470 42 L459 45 C405 56 395 69 395 123 L395 500 L270 500 L270 485 L281 485 C319 485 345 459 345 420 L345 65 C321 43 289 28 246 28 C177 28 141 81 141 161 L141 500 L16 500 L15 485 L15 485 Z " />
<glyph glyph-name="Wcircumflex" unicode="&#x174;" horiz-adv-x="762" d="M759 675 L565 675 L565 660 L602 660 C641 660 661 634 652 595 L652 595 L519 -15 L533 -15 L670 599 C680 636 710 660 747 660 L759 660 L759 675 L759 675 Z M405 906 C403 910 398 920 389 920 C380 920 375 910 373 906 C373 906 268 691 287 713 L292 708 C314 735 362 817 388 861 C425 794 485 708 485 708 L490 713 C490 713 467 776 404 906 L405 906 L405 906 Z M518 -15 L538 77 L395 685 L381 685 L232 -15 L246 -15 L374 587 L518 -15 L518 -15 Z M205 675 L-2 675 L-2 660 C34 660 59 643 72 604 L232 -15 L250 71 C211 246 172 421 133 595 C124 634 144 660 183 660 L205 660 L205 675 L205 675 Z " />
<glyph glyph-name="Ycircumflex" unicode="&#x176;" horiz-adv-x="520" d="M225 675 L19 675 L19 660 C56 660 83 639 102 595 L238 275 L239 73 C236 38 211 15 175 15 L164 15 L164 0 L369 0 L369 15 L358 15 C320 15 294 41 294 80 L294 299 C294 299 418 570 429 595 C449 639 480 660 522 660 L522 675 L337 675 L337 660 L355 660 C406 660 425 626 402 575 C402 575 289 322 279 299 L281 303 L163 603 C153 638 169 661 205 661 L224 661 L225 675 L225 675 Z M282 907 C280 911 275 921 266 921 C257 921 252 911 250 907 C250 907 145 692 164 714 L169 709 C191 736 239 818 265 862 C302 795 362 709 362 709 L367 714 C367 714 344 777 281 907 L282 907 L282 907 Z " />
<glyph glyph-name="Ydieresis" unicode="&#x178;" horiz-adv-x="520" d="M383 776 C383 815 322 816 322 776 C322 735 383 736 383 776 L383 776 Z M212 776 C212 816 151 815 151 776 C151 736 212 735 212 776 L212 776 Z M225 675 L19 675 L19 660 C56 660 83 639 102 595 L238 275 L239 73 C236 38 211 15 175 15 L164 15 L164 0 L369 0 L369 15 L358 15 C320 15 294 41 294 80 L294 299 C294 299 418 570 429 595 C449 639 480 660 522 660 L522 675 L337 675 L337 660 L355 660 C406 660 425 626 402 575 C402 575 289 322 279 299 L281 303 L163 603 C153 638 169 661 205 661 L224 661 L225 675 L225 675 Z " />
<glyph glyph-name="Zacute" unicode="&#x179;" horiz-adv-x="511" d="M289 706 C289 706 368 795 399 835 C424 865 441 887 441 890 C441 896 421 910 412 910 C410 910 395 888 374 855 C343 815 284 710 284 710 L289 706 L289 706 Z M462 156 C456 159 444 164 444 164 L418 104 C396 50 346 14 292 14 L122 14 L448 675 L120 675 L118 668 L117 668 C107 630 93 579 83 541 L95 541 L122 581 C154 629 208 661 256 661 L377 661 L52 0 L435 0 C442 48 454 109 462 157 L462 156 L462 156 Z " />
<glyph glyph-name="zacute" unicode="&#x17a;" horiz-adv-x="402" d="M141 531 C141 531 220 620 251 660 C276 690 293 712 293 715 C293 721 273 735 264 735 C262 735 247 713 226 680 C195 640 136 535 136 535 L141 531 L141 531 Z M350 161 L324 101 C302 47 252 11 198 11 L120 11 L352 500 L71 500 C61 470 52 429 43 398 L55 398 L66 412 C102 458 159 488 207 488 L207 489 L289 489 L56 0 L341 0 L342 6 L341 6 C349 50 360 109 368 153 C362 156 350 161 350 161 L350 161 Z " />
<glyph glyph-name="Zdot" unicode="&#x17b;" horiz-adv-x="511" d="M322 776 C322 815 260 815 260 776 C260 735 322 735 322 776 L322 776 Z M462 156 C456 159 444 164 444 164 L418 104 C396 50 346 14 292 14 L122 14 L448 675 L120 675 L118 668 L117 668 C107 630 93 579 83 541 L95 541 L122 581 C154 629 208 661 256 661 L377 661 L52 0 L435 0 C442 48 454 109 462 157 L462 156 L462 156 Z " />
<glyph glyph-name="zdot" unicode="&#x17c;" horiz-adv-x="402" d="M250 601 C250 640 188 640 188 601 C188 560 250 560 250 601 L250 601 Z M350 161 L324 101 C302 47 252 11 198 11 L120 11 L352 500 L71 500 C61 470 52 429 43 398 L55 398 L66 412 C102 458 159 488 207 488 L207 489 L289 489 L56 0 L341 0 L342 6 L341 6 C349 50 360 109 368 153 C362 156 350 161 350 161 L350 161 Z " />
<glyph glyph-name="Zcaron" unicode="&#x17d;" horiz-adv-x="511" d="M388 942 C388 942 328 856 291 789 C265 833 217 915 195 942 L190 937 C171 959 276 744 276 744 C278 740 283 730 292 730 C301 730 306 740 308 744 C371 874 394 937 394 937 L388 942 L388 942 Z M463 156 C457 159 445 164 445 164 L419 104 C397 50 347 14 293 14 L123 14 L449 675 L121 675 L119 668 L118 668 C108 630 94 579 84 541 L96 541 L123 581 C155 629 209 661 257 661 L378 661 L53 0 L436 0 C443 48 455 109 463 157 L463 156 L463 156 Z " />
<glyph glyph-name="zcaron" unicode="&#x17e;" horiz-adv-x="402" d="M316 767 C316 767 256 681 219 614 C193 658 145 740 123 767 L118 762 C99 784 204 569 204 569 C206 565 211 555 220 555 C229 555 234 565 236 569 C299 699 322 762 322 762 L316 767 L316 767 Z M351 161 L325 101 C303 47 253 11 199 11 L121 11 L353 500 L72 500 C62 470 53 429 44 398 L56 398 L67 412 C103 458 160 488 208 488 L208 489 L290 489 L57 0 L342 0 L343 6 L342 6 C350 50 361 109 369 153 C363 156 351 161 351 161 L351 161 Z " />
<glyph glyph-name="oogonek" unicode="&#x1eb;" horiz-adv-x="642" d="M630 -51 L626 -47 C602 -76 556 -95 512 -95 C451 -95 390 -59 334 -5 C505 -2 593 128 593 280 C593 433 503 564 329 564 C154 564 64 433 64 280 C64 131 150 3 317 -3 C391 -76 459 -125 508 -125 C544 -125 593 -95 631 -49 L630 -51 L630 -51 Z M119 281 C119 428 190 553 329 553 C467 553 538 428 538 281 C538 135 467 10 329 10 C190 10 119 135 119 281 L119 281 Z " />
<glyph glyph-name="Adotabove" unicode="&#x226;" horiz-adv-x="550" d="M299 776 C299 815 237 815 237 776 C237 735 299 735 299 776 L299 776 Z M1 0 L201 0 L201 15 L175 15 C130 15 106 43 114 86 L156 242 L356 242 C371 188 387 134 402 80 C413 41 395 15 356 15 L319 15 L319 0 L545 0 L545 15 C503 15 474 35 460 80 L460 80 L274 690 L260 690 L92 77 C80 40 49 15 11 15 L0 15 L1 0 L1 0 Z M351 256 L159 256 L252 604 L351 256 L351 256 Z " />
<glyph glyph-name="G_sc" unicode="&#x262;" horiz-adv-x="698" d="M523 365 L523 501 L520 496 C521 498 523 500 524 502 C460 539 380 564 324 564 C168 564 64 450 64 280 C64 110 168 -4 324 -4 C383 -4 465 21 529 58 L529 183 C529 222 555 248 593 248 L604 248 L604 263 L409 263 L409 248 L420 248 C458 248 484 222 484 183 L484 50 C430 25 370 9 325 9 C202 9 120 117 120 280 C120 447 205 563 341 552 L341 552 C408 547 470 489 498 407 C502 395 508 379 512 367 L523 365 L523 365 Z " />
<glyph glyph-name="I_sc" unicode="&#x26a;" horiz-adv-x="283" d="M243 15 L232 15 C194 15 168 41 168 80 L168 478 C168 517 194 543 232 543 L243 543 L243 558 L43 558 L43 543 L54 543 C92 543 118 517 118 478 L118 80 C118 41 92 15 54 15 L43 15 L43 0 L243 0 L243 15 L243 15 Z " />
<glyph glyph-name="N_sc" unicode="&#x274;" horiz-adv-x="583" d="M43 543 L54 543 C92 543 118 517 118 478 L118 80 C118 41 92 15 54 15 L43 15 L43 0 L208 0 L208 15 L197 15 C159 15 133 41 133 80 L133 512 C238 338 343 164 448 -10 L468 -10 L468 478 C468 517 494 543 532 543 L543 543 L543 558 L378 558 L378 543 L389 543 C427 543 453 517 453 478 L453 75 L163 558 L43 558 L43 543 L43 543 Z M133 538 L133 538 L133 538 Z " />
<glyph glyph-name="R_sc" unicode="&#x280;" horiz-adv-x="507" d="M53 543 L64 543 C102 543 128 517 128 478 L128 80 C128 41 102 15 64 15 L53 15 L53 0 L253 0 L253 15 L242 15 C204 15 178 41 178 80 L178 268 L208 268 C228 244 277 185 344 106 C429 4 435 0 487 0 L507 0 L507 10 C482 10 484 10 412 96 C339 184 285 249 266 272 C351 285 405 339 405 416 C405 501 337 558 235 558 L54 558 L53 543 L53 543 Z M224 280 L179 281 L179 546 L235 546 C305 546 352 494 352 416 C352 334 301 280 224 280 L224 280 Z " />
<glyph glyph-name="Y_sc" unicode="&#x28f;" horiz-adv-x="479" d="M220 558 L22 558 L22 543 C56 543 83 524 104 485 L223 227 L223 80 C223 41 197 15 159 15 L148 15 L148 0 L348 0 L348 15 L337 15 C299 15 273 41 273 80 L273 250 C311 326 348 403 386 479 C408 523 441 544 483 544 L483 559 L300 559 L300 544 L318 544 C365 544 384 515 366 470 L260 251 L258 251 L160 486 C148 521 163 544 200 544 L219 544 L220 558 L220 558 Z " />
<glyph glyph-name="B_sc" unicode="&#x299;" horiz-adv-x="474" d="M247 304 C243 304 239 304 235 304 L196 302 L177 302 L177 546 L233 546 C303 546 350 500 350 431 C350 362 310 313 247 303 L247 304 L247 304 Z M221 293 C329 293 401 237 401 152 C401 68 339 12 245 12 L178 12 L178 293 L221 293 L221 293 Z M53 542 L64 542 C102 542 128 516 128 477 L128 79 C128 40 102 14 64 14 L53 14 L53 -1 L250 -1 C372 -1 454 60 454 152 C454 231 388 287 285 300 C356 317 400 365 400 430 C400 506 333 557 233 557 L52 557 L53 542 L53 542 Z " />
<glyph glyph-name="H_sc" unicode="&#x29c;" horiz-adv-x="652" d="M612 15 L601 15 C563 15 537 41 537 80 L537 478 C537 517 563 543 601 543 L612 543 L612 558 L412 558 L412 543 L423 543 C461 543 487 517 487 478 L487 302 L166 302 L166 478 C166 517 192 543 230 543 L241 543 L241 558 L41 558 L41 543 L52 543 C90 543 116 517 116 478 L116 80 C116 41 90 15 52 15 L41 15 L41 0 L241 0 L241 15 L230 15 C192 15 166 41 166 80 L166 289 L487 289 L487 80 C487 41 461 15 423 15 L412 15 L412 0 L612 0 L612 15 L612 15 Z " />
<glyph glyph-name="L_sc" unicode="&#x29f;" horiz-adv-x="488" d="M384 163 L358 103 C335 49 285 13 231 13 L166 13 L166 478 C166 517 192 543 230 543 L241 543 L241 558 L41 558 L41 543 L52 543 C90 543 116 517 116 478 L116 80 C116 41 90 15 52 15 L41 15 L41 0 L374 0 L375 6 L376 6 C384 51 394 110 402 155 C396 158 384 163 384 163 L384 163 Z " />
<glyph glyph-name="circumflex" unicode="&#x2c6;" horiz-adv-x="238" d="M135 731 C133 735 128 745 119 745 C110 745 105 735 103 731 C103 731 -2 516 17 538 L23 533 C44 558 93 641 119 686 C157 619 217 533 217 533 L222 538 C222 538 199 601 136 731 L135 731 L135 731 Z " />
<glyph glyph-name="caron" unicode="&#x2c7;" horiz-adv-x="238" d="M216 767 C216 767 156 681 118 614 C92 659 43 742 22 767 L16 762 C-3 784 102 569 102 569 C104 565 109 555 118 555 C127 555 132 565 134 569 C197 699 220 762 220 762 L216 767 L216 767 Z " />
<glyph glyph-name="firsttonechinese" unicode="&#x2c9;" horiz-adv-x="238" d="M10 610 L229 610 L229 638 L10 638 L10 610 L10 610 Z " />
<glyph glyph-name="breve" unicode="&#x2d8;" horiz-adv-x="238" d="M45 712 C56 650 86 608 119 608 C153 608 182 649 193 711 L184 713 C176 670 150 641 119 641 C88 641 62 670 54 713 L45 712 L45 712 Z " />
<glyph glyph-name="dotaccent" unicode="&#x2d9;" horiz-adv-x="238" d="M150 601 C150 640 89 641 89 601 C89 560 150 561 150 601 L150 601 Z " />
<glyph glyph-name="ring" unicode="&#x2da;" horiz-adv-x="238" d="M39 628 C39 677 71 709 119 709 C167 709 199 677 199 628 C199 584 162 546 119 546 C76 546 39 584 39 628 L39 628 Z M25 628 C25 578 68 535 119 535 C170 535 213 578 213 628 C213 683 175 720 119 720 C63 720 25 683 25 628 L25 628 Z " />
<glyph glyph-name="A_sc" unicode="&#x1d00;" horiz-adv-x="508" d="M2 0 L199 0 L199 15 L173 15 C125 15 103 47 117 95 L117 95 L148 200 L327 200 L364 80 C376 41 358 15 319 15 L284 15 L284 0 L503 0 L503 15 C461 15 432 36 417 80 L417 80 L255 571 L242 571 L95 73 C81 38 50 15 14 15 L2 15 L2 0 L2 0 Z M323 213 L151 213 L234 498 L323 213 L323 213 Z " />
<glyph glyph-name="C_sc" unicode="&#x1d04;" horiz-adv-x="603" d="M540 63 L540 63 L540 63 Z M530 194 C526 183 521 167 517 156 C487 67 414 8 334 8 C204 8 118 116 118 279 C118 454 215 570 371 548 C434 536 491 480 516 405 C520 393 525 377 529 365 L542 365 L542 501 L539 496 C540 498 542 500 543 502 C479 539 395 564 334 564 C171 564 63 450 63 280 C63 110 171 -4 334 -4 C395 -4 479 21 543 58 L543 195 L530 194 L530 194 Z " />
<glyph glyph-name="D_sc" unicode="&#x1d05;" horiz-adv-x="571" d="M53 543 L64 543 C102 543 128 517 128 478 L128 80 C128 41 102 15 64 15 L53 15 L53 0 L254 0 C414 0 521 112 521 279 C521 446 407 558 235 558 L53 558 L53 543 L53 543 Z M178 13 L178 546 L235 546 C377 546 471 439 471 279 C471 119 384 13 254 13 L178 13 L178 13 Z " />
<glyph glyph-name="E_sc" unicode="&#x1d07;" horiz-adv-x="488" d="M308 207 L308 379 L296 379 L292 368 C280 330 239 304 188 304 L166 304 L166 546 L214 546 C274 546 327 506 347 446 L358 411 L369 411 L369 558 L41 558 L41 543 L52 543 C90 543 116 517 116 478 L116 80 C116 41 90 15 52 15 L41 15 L41 0 L375 0 L376 6 L376 6 C383 49 393 105 401 148 L390 148 L373 113 C342 53 282 13 222 13 L166 13 L166 292 L188 292 C239 292 280 263 292 220 L296 207 L308 207 L308 207 Z " />
<glyph glyph-name="J_sc" unicode="&#x1d0a;" horiz-adv-x="261" d="M221 558 L21 558 L21 543 L32 543 C70 543 96 517 96 478 L96 169 C96 47 88 0 67 0 C58 0 48 20 42 50 C40 62 31 70 20 70 C6 70 -2 62 0 50 C7 14 29 -10 54 -10 C120 -10 146 52 146 211 L146 478 C146 517 172 543 210 543 L221 543 L221 558 L221 558 Z " />
<glyph glyph-name="K_sc" unicode="&#x1d0b;" horiz-adv-x="520" d="M472 558 L323 558 L323 543 L332 543 C362 543 363 520 335 484 L210 338 L210 338 L178 300 L178 478 C178 517 204 543 242 543 L253 543 L253 558 L53 558 L53 543 L64 543 C102 543 128 517 128 478 L128 80 C128 41 102 15 64 15 L53 15 L53 0 L253 0 L253 15 L242 15 C204 15 178 41 178 80 L178 300 C178 300 217 249 276 172 C374 45 433 -5 490 -5 L510 -5 L510 5 C473 5 423 59 307 210 C263 267 230 310 216 328 L345 482 C378 519 423 543 460 543 L471 543 L472 558 L472 558 Z " />
<glyph glyph-name="M_sc" unicode="&#x1d0d;" horiz-adv-x="703" d="M663 559 L567 559 L567 558 L544 558 L343 -5 L355 -5 L546 514 C552 369 559 223 564 79 C566 40 542 14 504 14 L493 14 L493 -1 L692 -1 L692 14 L681 14 C643 14 616 40 614 79 L614 79 L592 484 C593 519 616 542 651 542 L662 542 L663 559 L663 559 Z M38 -2 L237 -2 L237 13 L208 13 C162 13 132 42 131 86 L149 493 C213 327 277 160 342 -6 L365 59 L176 557 L62 557 L62 542 L73 542 C111 542 135 516 133 477 L133 477 L115 71 C110 36 84 13 49 13 L38 13 L38 -2 L38 -2 Z M365 58 L365 58 L365 58 Z " />
<glyph glyph-name="O_sc" unicode="&#x1d0f;" horiz-adv-x="642" d="M118 279 C118 426 189 551 328 551 C466 551 537 426 537 279 C537 133 466 8 328 8 C189 8 118 133 118 279 L118 279 Z M63 279 C63 126 153 -5 328 -5 C502 -5 592 126 592 279 C592 432 502 563 328 563 C153 563 63 432 63 279 L63 279 Z " />
<glyph glyph-name="P_sc" unicode="&#x1d18;" horiz-adv-x="451" d="M253 15 L242 15 C204 15 178 41 178 80 L178 252 L230 252 C351 252 431 313 431 404 C431 496 355 558 242 558 L53 558 L53 543 L64 543 C102 543 128 517 128 478 L128 80 C128 41 102 15 64 15 L53 15 L53 0 L253 0 L253 15 L253 15 Z M178 265 L178 546 L242 546 C324 546 378 489 378 404 C378 321 319 265 230 265 L178 265 L178 265 Z " />
<glyph glyph-name="T_sc" unicode="&#x1d1b;" horiz-adv-x="503" d="M152 0 L352 0 L352 15 L341 15 C303 15 277 41 277 80 L277 546 L337 546 C385 546 431 514 450 466 L478 396 L490 396 C486 443 481 505 477 552 L478 552 L477 558 L29 558 L28 552 C24 505 19 443 15 396 L27 396 L55 466 C74 514 120 546 168 546 L227 546 L227 80 C227 41 201 15 163 15 L152 15 L152 0 L152 0 Z " />
<glyph glyph-name="U_sc" unicode="&#x1d1c;" horiz-adv-x="572" d="M552 558 L362 558 L362 543 L377 543 C422 543 452 513 452 468 L452 151 C452 68 410 12 303 12 C206 12 168 72 168 162 L168 478 C168 517 194 543 232 543 L243 543 L243 558 L43 558 L43 543 L54 543 C92 543 118 517 118 478 L118 172 C118 66 168 -5 296 -5 C419 -5 467 55 467 146 L467 468 C467 513 496 543 539 543 L552 543 L552 558 L552 558 Z " />
<glyph glyph-name="V_sc" unicode="&#x1d20;" horiz-adv-x="509" d="M510 558 L304 558 L304 543 L325 543 C379 543 407 509 397 457 L289 51 L148 483 C138 519 156 543 193 543 L223 543 L223 558 L13 558 L13 543 C52 543 80 522 96 478 L96 478 L271 -15 L284 -15 L419 485 C432 520 462 543 499 543 L510 543 L510 558 L510 558 Z " />
<glyph glyph-name="W_sc" unicode="&#x1d21;" horiz-adv-x="684" d="M680 558 L489 558 L489 543 L526 543 C562 543 582 521 578 487 L462 -15 L474 -15 L591 484 C602 520 633 544 669 544 L680 544 L680 558 L680 558 Z M200 559 L-1 559 L-1 544 C37 544 63 525 76 483 L212 -13 L225 -13 L336 490 L462 -13 L479 61 L354 570 L342 570 L228 58 C195 199 161 340 129 480 C120 519 140 545 179 545 L200 545 L200 559 L200 559 Z " />
<glyph glyph-name="Z_sc" unicode="&#x1d22;" horiz-adv-x="475" d="M411 163 L385 103 C362 49 312 13 258 13 L117 13 L412 558 L124 558 L122 552 L121 552 C111 514 98 464 88 426 L100 426 L127 466 C159 514 213 546 261 546 L349 546 L54 0 L401 0 L402 6 L403 6 C411 51 421 110 429 155 C423 158 411 163 411 163 L411 163 Z " />
<glyph glyph-name="Wgrave" unicode="&#x1e80;" horiz-adv-x="762" d="M759 675 L565 675 L565 660 L602 660 C641 660 661 634 652 595 L652 595 L519 -15 L533 -15 L670 599 C680 636 710 660 747 660 L759 660 L759 675 L759 675 Z M307 890 C307 885 324 864 350 835 C382 795 463 706 463 706 L468 710 C468 710 407 814 375 855 C354 888 339 910 335 910 C327 910 307 896 307 890 L307 890 Z M519 -15 L539 77 L396 685 L382 685 L233 -15 L247 -15 L375 587 L519 -15 L519 -15 Z M206 675 L-1 675 L-1 660 C35 660 60 643 73 604 L233 -15 L251 71 C212 246 173 421 134 595 C125 634 145 660 184 660 L206 660 L206 675 L206 675 Z " />
<glyph glyph-name="Wacute" unicode="&#x1e82;" horiz-adv-x="762" d="M326 706 C326 706 405 795 436 835 C461 865 478 887 478 890 C478 896 458 910 449 910 C447 910 432 888 411 855 C380 815 321 710 321 710 L326 706 L326 706 Z M759 675 L565 675 L565 660 L602 660 C641 660 661 634 652 595 L652 595 L519 -15 L533 -15 L670 599 C680 636 710 660 747 660 L759 660 L759 675 L759 675 Z M519 -15 L539 77 L396 685 L382 685 L233 -15 L247 -15 L375 587 L519 -15 L519 -15 Z M206 675 L-1 675 L-1 660 C35 660 60 643 73 604 L233 -15 L251 71 C212 246 173 421 134 595 C125 634 145 660 184 660 L206 660 L206 675 L206 675 Z " />
<glyph glyph-name="Wdieresis" unicode="&#x1e84;" horiz-adv-x="762" d="M505 776 C505 815 444 816 444 776 C444 735 505 736 505 776 L505 776 Z M334 776 C334 816 273 815 273 776 C273 736 334 735 334 776 L334 776 Z M759 675 L565 675 L565 660 L602 660 C641 660 661 634 652 595 L652 595 L519 -15 L533 -15 L670 599 C680 636 710 660 747 660 L759 660 L759 675 L759 675 Z M519 -15 L539 77 L396 685 L382 685 L233 -15 L247 -15 L375 587 L519 -15 L519 -15 Z M206 675 L-1 675 L-1 660 C35 660 60 643 73 604 L233 -15 L251 71 C212 246 173 421 134 595 C125 634 145 660 184 660 L206 660 L206 675 L206 675 Z " />
<glyph glyph-name="Etilde" unicode="&#x1ebc;" horiz-adv-x="520" d="M171 770 C171 810 181 837 196 837 C228 837 270 774 302 774 C330 774 349 812 349 868 L341 868 C341 831 330 807 313 807 C281 807 239 870 207 870 C181 870 163 830 163 770 L171 770 L171 770 Z M340 268 L340 442 L328 442 L324 431 C312 393 271 367 220 367 L171 367 L171 661 L247 661 C307 661 360 621 380 561 L391 526 L402 526 L402 675 L40 675 L40 660 L51 660 C89 660 115 634 115 595 L115 80 C115 41 89 15 51 15 L40 15 L40 0 L408 0 L409 7 L408 7 C416 50 426 106 434 149 L423 149 L406 114 C375 54 315 14 255 14 L171 14 L171 353 L220 353 C271 353 312 324 324 281 L328 268 L340 268 L340 268 Z " />
<glyph glyph-name="Ygrave" unicode="&#x1ef2;" horiz-adv-x="520" d="M225 675 L19 675 L19 660 C56 660 83 639 102 595 L238 275 L239 73 C236 38 211 15 175 15 L164 15 L164 0 L369 0 L369 15 L358 15 C320 15 294 41 294 80 L294 299 C294 299 418 570 429 595 C449 639 480 660 522 660 L522 675 L337 675 L337 660 L355 660 C406 660 425 626 402 575 C402 575 289 322 279 299 L281 303 L163 603 C153 638 169 661 205 661 L224 661 L225 675 L225 675 Z M184 891 C184 886 201 865 227 836 C259 796 340 707 340 707 L345 711 C345 711 284 815 252 856 C231 889 216 911 212 911 C204 911 184 897 184 891 L184 891 Z " />
<glyph glyph-name="quoteleft" unicode="&#x2018;" horiz-adv-x="188" d="M69 527 L69 527 C75 520 84 516 95 516 C117 516 131 530 131 552 C131 577 110 594 83 586 C78 625 96 661 121 673 L117 681 C79 662 53 620 53 575 C53 555 59 536 68 526 L69 527 L69 527 Z " />
<glyph glyph-name="quoteright" unicode="&#x2019;" horiz-adv-x="188" d="M123 670 L123 670 C117 677 108 681 97 681 C75 681 61 667 61 645 C61 620 82 603 109 611 C114 572 96 536 71 524 L75 516 C113 535 139 577 139 622 C139 642 133 661 124 671 L123 670 L123 670 Z " />
<glyph glyph-name="quotedblleft" unicode="&#x201c;" horiz-adv-x="294" d="M175 527 L175 527 C181 520 190 516 201 516 C223 516 237 530 237 552 C237 577 216 594 189 586 C184 625 202 661 227 673 L223 681 C185 662 159 620 159 575 C159 555 165 536 174 526 L175 527 L175 527 Z M68 526 L68 526 C74 519 83 515 94 515 C116 515 130 529 130 551 C130 576 109 593 82 585 C77 624 95 660 120 672 L116 680 C78 661 52 619 52 574 C52 554 58 535 67 525 L68 526 L68 526 Z " />
<glyph glyph-name="quotedblright" unicode="&#x201d;" horiz-adv-x="294" d="M229 670 L229 670 C223 677 214 681 203 681 C181 681 167 667 167 645 C167 620 188 603 215 611 C220 572 202 536 177 524 L181 516 C219 535 245 577 245 622 C245 642 239 661 230 671 L229 670 L229 670 Z M124 671 L124 671 C118 678 109 682 98 682 C76 682 62 668 62 646 C62 621 83 604 110 612 C115 573 97 537 72 525 L76 517 C114 536 140 578 140 623 C140 643 134 662 125 672 L124 671 L124 671 Z " />
<glyph glyph-name="ellipsis" unicode="&#x2026;" horiz-adv-x="450" d="M375 0 C397 0 411 14 411 36 C411 58 397 72 375 72 C353 72 339 58 339 36 C339 14 353 0 375 0 L375 0 Z M225 0 C247 0 261 14 261 36 C261 58 247 72 225 72 C203 72 189 58 189 36 C189 14 203 0 225 0 L225 0 Z M75 0 C97 0 111 14 111 36 C111 58 97 72 75 72 C53 72 39 58 39 36 C39 14 53 0 75 0 L75 0 Z " />
<glyph glyph-name="perthousand" unicode="&#x2030;" horiz-adv-x="990" d="M773 191 C773 292 802 360 845 360 C897 360 931 284 931 171 C931 75 901 11 855 11 C806 11 773 83 773 191 L773 191 Z M724 182 C724 70 775 -5 851 -5 C927 -5 978 72 978 188 C978 300 927 375 851 375 C775 375 724 298 724 182 L724 182 Z M79 542 C79 643 108 710 151 710 C203 710 237 635 237 522 C237 426 207 362 161 362 C112 362 79 434 79 542 L79 542 Z M30 533 C30 420 81 345 157 345 C233 345 284 423 284 539 C284 651 233 725 157 725 C81 725 30 648 30 533 L30 533 Z M491 191 C491 292 520 360 564 360 C619 360 656 284 656 171 C656 75 624 11 575 11 C525 11 491 83 491 191 L491 191 Z M442 181 C442 69 494 -5 571 -5 C650 -5 703 72 703 188 C703 300 650 375 571 375 C494 375 442 297 442 181 L442 181 Z M169 -7 L593 713 L571 727 L146 7 L169 -7 L169 -7 Z " />
<glyph glyph-name="guilsinglleft" unicode="&#x2039;" horiz-adv-x="211" d="M67 251 L165 459 L160 464 L20 254 L20 248 L161 37 L166 42 L67 251 L67 251 Z " />
<glyph glyph-name="guilsinglright" unicode="&#x203a;" horiz-adv-x="211" d="M50 37 L191 248 L191 254 L51 464 L46 459 L144 251 L45 42 L50 37 L50 37 Z " />
<glyph glyph-name="fraction" unicode="&#x2044;" horiz-adv-x="455" d="M41 -7 L466 713 L443 727 L19 7 L41 -7 L41 -7 Z " />
<glyph glyph-name="Euro" unicode="&#x20ac;" horiz-adv-x="676" d="M603 195 C599 184 594 168 590 157 C561 71 486 13 402 9 C269 4 181 110 163 277 L430 277 L435 313 L161 313 C160 329 160 346 161 362 L435 362 L440 398 L163 398 C180 561 267 665 390 665 C393 665 432 664 432 662 C500 654 563 596 590 518 L603 479 L616 479 L616 617 C552 654 462 679 391 679 C234 679 124 569 103 398 L54 398 L49 362 L100 362 C99 346 99 329 100 313 L49 313 L44 277 L103 277 C124 105 234 -5 391 -5 C462 -5 552 20 616 57 L612 64 C612 64 615 58 615 57 L615 195 L603 195 L603 195 Z " />
<glyph glyph-name="F_sc" unicode="&#xa730;" horiz-adv-x="403" d="M41 543 L52 543 C90 543 116 517 116 478 L116 80 C116 41 90 15 52 15 L41 15 L41 0 L251 0 L251 15 L231 15 C192 15 166 41 166 80 L166 287 L178 287 C229 287 270 258 282 215 L286 202 L298 202 L298 375 L286 375 L282 364 C270 326 229 300 178 300 L166 300 L166 546 L244 546 C304 546 357 506 377 446 L388 411 L399 411 L399 558 L41 558 L41 543 L41 543 Z " />
<glyph glyph-name="S_sc" unicode="&#xa731;" horiz-adv-x="387" d="M308 372 L308 512 C255 543 206 563 186 563 C106 563 52 501 52 408 C52 350 100 292 171 262 C253 228 307 172 307 122 C307 54 265 8 202 8 C150 8 97 63 69 146 C65 158 60 174 56 186 L43 186 L43 46 C96 15 160 -5 202 -5 C286 -5 342 54 342 142 C342 201 288 263 206 297 C135 327 87 379 87 428 C87 502 126 551 184 551 C189 551 199 548 212 542 C256 514 276 430 295 371 L308 372 L308 372 Z " />
<glyph glyph-name="X_sc" unicode="&#xf078;" horiz-adv-x="517" d="M246 558 L42 558 L42 543 C76 543 105 524 129 484 L246 271 L150 74 C130 38 94 14 58 14 L46 14 L46 -1 L236 -1 L236 14 L213 14 C168 14 150 42 167 85 L251 261 C284 200 318 139 351 78 C372 39 361 13 322 13 L295 13 L295 -2 L499 -2 L499 13 C465 13 436 32 412 72 L279 314 L373 477 C395 516 436 542 474 542 L485 542 L485 557 L296 557 L296 542 L333 542 C372 542 383 516 361 477 L361 477 L274 322 C246 374 217 426 189 477 C168 516 179 542 218 542 L245 542 L246 558 L246 558 Z " />
</font>
</svg>
