<?xml version="1.0" encoding="UTF-8"?>
<svg xmlns="http://www.w3.org/2000/svg" xmlns:xlink="http://www.w3.org/1999/xlink" version="1.2" >
<font id="glamour luxury Regular">
<font-face  font-family="glamour luxury" units-per-em="1024" ascent="936" descent="-280" font-style="normal" font-weight="400" font-stretch="normal" cap-height="963" x-height="468" underline-position="-125" underline-thickness="50" />
<missing-glyph  horiz-adv-x="100" d="" />
<glyph glyph-name="NULL" d="" />
<glyph glyph-name="CR" unicode="&#xd;" horiz-adv-x="256" d="" />
<glyph glyph-name="space" unicode="&#x20;" horiz-adv-x="229" d="" />
<glyph glyph-name="exclam" unicode="&#x21;" horiz-adv-x="203" d="M107 -5 C135 -5 154 14 154 42 C154 70 135 89 107 89 C79 89 60 70 60 42 C60 14 79 -5 107 -5 L107 -5 Z M143 632 C145 661 129 680 103 680 C77 680 61 661 63 632 C63 492 103 164 103 164 L111 164 C111 164 143 492 143 632 L143 632 Z " />
<glyph glyph-name="quotedbl" unicode="&#x22;" horiz-adv-x="276" d="M153 675 L189 459 L200 459 L236 675 L153 675 L153 675 Z M40 675 L76 459 L87 459 L123 675 L40 675 L40 675 Z " />
<glyph glyph-name="numbersign" unicode="&#x23;" horiz-adv-x="433" d="M317 675 L289 485 L195 485 L223 675 L198 675 L170 485 L65 485 L58 435 L163 435 L133 225 L26 225 L18 175 L125 175 L100 0 L125 0 L150 175 L244 175 L219 0 L244 0 L269 175 L360 175 L367 225 L277 225 L307 435 L406 435 L413 485 L314 485 L342 675 L317 675 L317 675 Z M188 435 L282 435 L252 225 L158 225 L188 435 L188 435 Z " />
<glyph glyph-name="dollar" unicode="&#x24;" horiz-adv-x="426" d="M42 191 L42 45 L48 56 L48 56 L42 45 C75 26 115 11 153 3 L153 -74 L175 -74 L175 -1 C195 -4 212 -5 232 -3 L232 -74 L254 -74 L254 0 C330 17 379 83 379 177 C379 243 330 311 254 354 L254 642 C273 626 289 603 298 576 C307 549 320 512 329 485 L342 485 L342 631 L336 621 L336 621 L342 631 C312 649 281 663 254 672 L254 752 L232 752 L232 679 C212 684 194 684 174 680 L174 753 L152 753 L152 674 C87 650 46 582 46 490 C46 429 88 367 152 328 L152 35 C116 58 85 101 66 155 C62 166 57 182 53 193 L42 191 L42 191 Z M174 23 L174 316 C195 306 215 296 233 284 L233 17 C211 14 193 17 175 25 L174 23 L174 23 Z M233 658 L233 368 C212 378 193 390 176 403 L176 662 C196 668 216 667 234 659 L233 658 L233 658 Z M154 421 C119 453 99 489 99 522 C99 583 120 630 154 653 L154 421 L154 421 Z M256 271 C301 234 329 191 329 151 C329 88 301 42 256 25 L256 271 L256 271 Z " />
<glyph glyph-name="percent" unicode="&#x25;" horiz-adv-x="717" d="M94 545 C94 642 117 706 151 706 C197 706 227 631 227 519 C227 428 202 367 165 367 C122 367 94 438 94 545 L94 545 Z M30 532 C30 420 82 345 159 345 C236 345 288 423 288 541 C288 651 236 725 159 725 C82 725 30 648 30 532 L30 532 Z M500 193 C500 290 524 355 560 355 C610 355 644 280 644 167 C644 76 616 16 575 16 C530 16 500 87 500 193 L500 193 Z M436 181 C436 69 489 -5 569 -5 C651 -5 705 73 705 189 C705 301 651 375 569 375 C489 375 436 297 436 181 L436 181 Z M174 -9 L599 711 L569 729 L145 9 L174 -9 L174 -9 Z " />
<glyph glyph-name="ampersand" unicode="&#x26;" horiz-adv-x="673" d="M588 307 L424 307 L424 292 L435 292 C473 292 499 266 499 227 L499 196 C499 168 492 142 479 120 C451 149 418 185 380 230 C342 276 308 328 281 377 C362 398 415 469 415 559 C415 632 365 681 290 681 C214 681 164 615 164 515 C164 486 185 428 220 362 C116 318 50 240 50 160 C50 61 126 -5 241 -5 C334 -5 409 21 457 66 C545 -6 607 -10 673 1 L673 12 C630 4 585 15 491 109 C506 135 514 164 514 196 L514 227 C514 266 540 292 578 292 L589 292 L588 307 L588 307 Z M216 543 C216 617 244 666 287 666 C334 666 366 622 366 555 C366 469 331 403 277 385 C240 453 217 514 217 542 L216 543 L216 543 Z M446 75 C407 42 349 23 279 23 C179 23 113 87 113 184 C113 251 158 314 229 350 C258 297 295 240 337 190 C378 141 414 104 447 76 L446 75 L446 75 Z " />
<glyph glyph-name="quotesingle" unicode="&#x27;" horiz-adv-x="163" d="M40 675 L76 459 L87 459 L123 675 L40 675 L40 675 Z " />
<glyph glyph-name="parenleft" unicode="&#x28;" horiz-adv-x="192" d="M173 705 C105 624 60 506 60 278 C60 49 105 -69 173 -150 L182 -143 C139 -92 110 17 110 278 C110 539 139 647 182 698 L173 705 L173 705 Z " />
<glyph glyph-name="parenright" unicode="&#x29;" horiz-adv-x="192" d="M10 -150 C78 -69 123 49 123 277 C123 506 78 624 10 705 L1 698 C44 647 73 538 73 277 C73 16 44 -92 1 -143 L10 -150 L10 -150 Z " />
<glyph glyph-name="asterisk" unicode="&#x2a;" horiz-adv-x="280" d="M264 597 C295 608 271 651 244 632 L244 633 L153 560 L170 676 C172 691 164 701 150 701 C136 701 128 691 130 676 L147 561 L56 634 C44 644 31 642 24 630 C17 617 22 605 36 599 L146 556 L36 513 C5 502 30 458 56 478 L147 551 L130 436 C128 421 136 411 150 411 C164 411 172 421 170 436 L153 552 L244 479 L264 514 L156 556 L264 597 L264 597 Z M244 479 L244 479 L244 479 L244 479 Z M244 479 C256 469 269 471 276 483 C283 495 278 507 264 513 L244 479 L244 479 Z " />
<glyph glyph-name="plus" unicode="&#x2b;" horiz-adv-x="474" d="M219 410 L219 264 L75 264 L75 236 L219 236 L219 91 L250 91 L250 236 L394 236 L394 264 L250 264 L250 410 L219 410 L219 410 Z " />
<glyph glyph-name="comma" unicode="&#x2c;" horiz-adv-x="212" d="M107 89 C79 89 60 70 60 42 C60 14 79 -5 107 -5 C111 -5 116 -1 121 5 C131 -44 108 -91 76 -107 L76 -118 C128 -93 162 -39 162 16 C162 53 145 88 107 88 L107 89 L107 89 Z " />
<glyph glyph-name="hyphen" unicode="&#x2d;" horiz-adv-x="174" d="M20 210 L154 210 L154 260 L20 260 L20 210 L20 210 Z " />
<glyph glyph-name="period" unicode="&#x2e;" horiz-adv-x="232" d="M125 -5 C153 -5 172 14 172 42 C172 70 153 89 125 89 C97 89 78 70 78 42 C78 14 97 -5 125 -5 L125 -5 Z " />
<glyph glyph-name="slash" unicode="&#x2f;" horiz-adv-x="339" d="M0 -145 L29 -145 L339 725 L310 725 L0 -145 L0 -145 Z " />
<glyph glyph-name="zero" unicode="0" horiz-adv-x="522" d="M122 250 C122 395 178 491 261 491 C344 491 400 395 400 250 C400 105 344 9 261 9 C178 9 122 105 122 250 L122 250 Z M50 250 C50 97 134 -5 261 -5 C388 -5 472 97 472 250 C472 403 388 505 261 505 C134 505 50 403 50 250 L50 250 Z " />
<glyph glyph-name="one" unicode="1" horiz-adv-x="325" d="M270 15 L259 15 C221 15 195 41 195 80 L195 420 C195 459 221 485 259 485 L270 485 L270 500 L55 500 L55 485 L66 485 C104 485 130 459 130 420 L130 80 C130 41 104 15 66 15 L55 15 L55 0 L270 0 L270 15 L270 15 Z " />
<glyph glyph-name="two" unicode="2" horiz-adv-x="401" d="M361 140 L360 129 C356 91 328 65 289 65 L113 65 C256 168 347 232 347 351 C347 443 297 505 223 505 C167 505 107 446 71 358 L79 353 C104 415 149 457 190 457 C240 457 274 405 274 328 C274 162 174 127 25 14 L25 0 L364 0 L369 61 C371 88 374 117 376 140 L361 140 L361 140 Z " />
<glyph glyph-name="three" unicode="3" horiz-adv-x="378" d="M89 185 C191 185 259 126 259 37 C259 -99 165 -197 24 -207 L25 -215 C207 -202 328 -99 328 41 C328 140 245 207 120 210 C222 257 285 319 285 377 C285 453 242 504 178 504 C111 504 43 452 9 375 L17 371 C39 421 90 455 144 455 C190 455 220 415 220 355 C220 296 158 235 61 197 C49 193 36 188 22 183 L22 172 C41 178 67 184 87 184 L89 185 L89 185 Z " />
<glyph glyph-name="four" unicode="4" horiz-adv-x="368" d="M292 486 L282 505 C282 505 228 406 228 364 L228 354 C162 235 67 83 33 29 L31 29 L31 26 C20 8 20 13 20 -1 L228 -1 L228 -151 L293 -151 L293 -1 L358 -1 L358 28 L293 28 L293 444 C307 476 309 493 293 484 L293 487 C293 486 293 485 293 484 L292 486 L292 486 Z M51 27 C87 84 168 213 229 320 L229 27 L51 27 L51 27 Z M294 486 L294 503 L283 503 C296 510 299 503 294 486 L294 486 Z " />
<glyph glyph-name="five" unicode="5" horiz-adv-x="363" d="M330 575 L315 575 L311 564 C298 526 264 500 225 500 L79 500 C79 413 67 210 67 210 L83 210 C83 210 83 214 83 221 C83 215 83 211 83 211 L94 211 C186 211 248 148 248 54 C248 -74 161 -165 30 -172 L31 -181 C200 -171 313 -69 313 75 C313 195 239 275 127 275 L87 275 C90 320 94 381 96 433 L283 433 L294 467 L295 467 C307 505 319 542 331 577 L330 575 L330 575 Z " />
<glyph glyph-name="six" unicode="6" horiz-adv-x="489" d="M422 715 C209 708 67 541 67 298 C67 116 141 -5 253 -5 C372 -5 446 83 439 216 C439 343 375 428 280 428 C213 428 164 389 144 324 C146 546 258 698 424 704 L422 715 L422 715 Z M271 411 C332 411 372 331 372 212 C378 93 334 13 262 13 C190 13 142 102 142 235 L149 235 C144 341 193 411 271 411 L271 411 Z " />
<glyph glyph-name="seven" unicode="7" horiz-adv-x="359" d="M32 359 L33 370 C37 408 65 434 104 434 L321 434 L90 -140 L163 -140 C225 71 286 283 349 494 L344 500 L30 500 L27 467 C24 435 20 391 17 359 L32 359 L32 359 Z " />
<glyph glyph-name="eight" unicode="8" horiz-adv-x="459" d="M281 361 C339 379 377 443 377 529 L324 519 C324 438 304 379 274 363 C263 367 252 371 240 374 C181 389 142 451 142 529 C142 611 177 665 229 665 C285 665 323 606 323 518 L377 528 C377 619 319 679 233 679 C145 679 87 609 87 504 C87 425 124 357 183 324 C108 306 60 247 60 165 C60 62 130 -6 234 -6 C338 -6 408 68 408 178 C408 256 358 325 280 360 L281 361 L281 361 Z M121 176 C121 246 148 298 192 318 C202 313 212 309 223 306 C297 287 347 226 347 154 C347 65 303 6 237 6 C167 6 121 73 121 174 L121 176 L121 176 Z " />
<glyph glyph-name="nine" unicode="9" horiz-adv-x="489" d="M67 -215 C280 -208 422 -41 422 202 C422 384 348 505 236 505 C117 505 43 417 50 284 C50 157 114 72 209 72 C276 72 325 111 345 176 C343 -46 231 -198 65 -204 L67 -215 L67 -215 Z M218 89 C157 89 117 169 117 288 C111 407 155 487 227 487 C299 487 347 398 347 265 L340 265 C345 159 296 89 218 89 L218 89 Z " />
<glyph glyph-name="colon" unicode="&#x3a;" horiz-adv-x="232" d="M125 376 C153 376 172 395 172 423 C172 451 153 469 125 469 C97 469 78 451 78 423 C78 395 97 376 125 376 L125 376 Z M125 -5 C153 -5 172 14 172 42 C172 70 153 89 125 89 C97 89 78 70 78 42 C78 14 97 -5 125 -5 L125 -5 Z " />
<glyph glyph-name="semicolon" unicode="&#x3b;" horiz-adv-x="212" d="M107 376 C135 376 154 395 154 423 C154 451 135 470 107 470 C79 470 60 451 60 423 C60 395 79 376 107 376 L107 376 Z M107 89 C79 89 60 70 60 42 C60 14 79 -5 107 -5 C111 -5 116 -1 121 5 C131 -44 108 -91 76 -107 L76 -118 C128 -93 162 -39 162 16 C162 53 145 88 107 88 L107 89 L107 89 Z " />
<glyph glyph-name="less" unicode="&#x3c;" horiz-adv-x="456" d="M381 500 L47 295 C45 295 42 291 40 291 L40 261 L47 257 L381 50 L381 83 L63 276 L381 468 L381 500 L381 500 Z " />
<glyph glyph-name="equal" unicode="&#x3d;" horiz-adv-x="449" d="M80 214 L80 186 L379 186 L379 214 L80 214 L80 214 Z M80 314 L80 286 L379 286 L379 314 L80 314 L80 314 Z " />
<glyph glyph-name="greater" unicode="&#x3e;" horiz-adv-x="449" d="M75 50 C186 121 297 193 409 264 L409 290 C406 290 402 296 399 296 L75 501 L75 469 L383 277 L75 84 L75 50 L75 50 Z " />
<glyph glyph-name="question" unicode="&#x3f;" horiz-adv-x="287" d="M116 -5 C144 -5 163 14 163 42 C163 70 144 89 116 89 C88 89 69 70 69 42 C69 14 88 -5 116 -5 L116 -5 Z M131 328 L166 328 C238 328 252 405 252 448 C252 587 191 680 99 680 C64 680 40 654 40 615 C40 602 53 594 73 594 C87 594 106 629 120 629 C190 629 237 560 237 456 C237 428 222 378 144 378 L109 378 C101 378 97 374 97 368 L111 171 L120 171 L131 328 L131 328 Z " />
<glyph glyph-name="at" unicode="&#x40;" horiz-adv-x="1026" d="M921 0 C855 -142 696 -237 524 -237 C273 -237 106 -39 106 259 C106 557 269 755 513 755 C758 755 921 590 921 343 C921 141 851 6 745 6 C644 6 596 84 625 200 L695 480 L634 480 L613 398 C602 455 566 490 516 490 C364 490 263 372 263 195 C263 85 320 11 405 11 C467 11 523 54 557 123 C564 36 629 -18 735 -18 C877 -18 972 126 972 342 C972 601 789 773 514 773 C239 773 56 567 56 258 C56 -51 244 -257 525 -257 C704 -257 871 -155 943 -1 L921 0 L921 0 Z M604 355 L565 199 C542 107 492 46 440 46 C378 46 336 110 336 206 C336 365 408 471 516 471 C569 471 604 424 604 355 L604 355 Z " />
<glyph glyph-name="A" unicode="A" horiz-adv-x="568" d="M318 0 L563 0 L563 15 C524 15 496 32 480 71 L282 691 L264 691 C207 488 151 284 93 81 C82 42 49 16 11 16 L0 16 L0 1 L205 1 L205 16 L179 16 C131 16 108 48 121 96 L121 96 L161 242 L353 242 C369 188 386 134 401 81 C413 42 395 16 356 16 L319 16 L318 0 L318 0 Z M348 260 L166 261 L253 581 L348 260 L348 260 Z " />
<glyph glyph-name="B" unicode="B" horiz-adv-x="527" d="M47 660 L58 660 C96 660 122 634 122 595 L122 80 C122 41 96 15 58 15 L47 15 L47 0 L285 0 C418 0 507 74 507 185 C507 281 434 348 320 363 C402 383 453 441 453 521 C453 613 378 675 266 675 L47 675 L47 660 L47 660 Z M194 366 L194 657 L266 657 C335 657 381 603 381 521 C381 428 329 366 252 366 L194 366 L194 366 Z M194 352 L249 352 C358 352 431 285 431 185 C431 85 370 18 278 18 L194 18 L194 352 L194 352 Z " />
<glyph glyph-name="C" unicode="C" horiz-adv-x="633" d="M569 64 L569 64 L569 64 Z M560 197 C556 186 551 170 547 159 C518 74 442 16 357 14 C224 11 137 141 137 338 C137 532 223 662 351 662 C367 662 384 661 401 658 C464 645 521 589 546 515 C550 504 555 488 559 477 L572 477 L572 618 L568 610 C568 612 571 615 572 618 C509 655 420 679 350 679 C174 679 56 542 56 337 C56 131 174 -6 350 -6 C420 -6 509 18 572 55 L572 196 L560 197 L560 197 Z " />
<glyph glyph-name="D" unicode="D" horiz-adv-x="623" d="M47 660 L58 660 C96 660 122 634 122 595 L122 80 C122 41 96 15 58 15 L47 15 L47 0 L289 0 C459 0 573 135 573 338 C573 540 450 675 265 675 L47 675 L47 660 L47 660 Z M194 18 L194 657 L265 657 C407 657 501 529 501 338 C501 146 416 18 289 18 L194 18 L194 18 Z " />
<glyph glyph-name="E" unicode="E" horiz-adv-x="536" d="M356 266 L356 444 L344 444 L340 433 C328 395 287 369 236 369 L187 369 L187 657 L265 657 C325 657 378 617 398 557 L409 522 L420 522 L420 675 L40 675 L40 660 L51 660 C89 660 115 634 115 595 L115 80 C115 41 89 15 51 15 L40 15 L40 0 L425 0 L427 9 L425 9 C433 52 443 110 451 153 L440 153 L423 118 C393 58 333 18 273 18 L187 18 L187 351 L236 351 C287 351 328 322 340 279 L344 266 L356 266 L356 266 Z " />
<glyph glyph-name="F" unicode="F" horiz-adv-x="451" d="M40 660 L51 660 C89 660 115 634 115 595 L115 80 C115 41 89 15 51 15 L40 15 L40 0 L272 0 L272 15 L252 15 C213 15 187 41 187 80 L187 346 L226 346 C277 346 318 317 330 274 L334 261 L346 261 L346 439 L334 439 L330 428 C318 390 277 364 226 364 L187 364 L187 657 L295 657 C355 657 408 617 428 557 L439 522 L450 522 L450 675 L40 675 L40 660 L40 660 Z " />
<glyph glyph-name="G" unicode="G" horiz-adv-x="728" d="M553 478 L553 619 L549 611 C549 613 552 616 553 619 C490 656 405 680 341 680 C171 680 57 543 57 338 C57 132 171 -5 341 -5 C408 -5 495 19 558 56 L558 237 C558 276 584 302 622 302 L633 302 L633 317 L418 317 L418 302 L429 302 C467 302 493 276 493 237 L493 46 C442 26 386 13 340 13 C218 13 136 143 136 338 C136 532 218 662 340 662 C342 662 368 661 368 660 C436 653 499 595 526 516 C530 505 535 489 539 478 L553 478 L553 478 Z " />
<glyph glyph-name="H" unicode="H" horiz-adv-x="692" d="M652 15 L641 15 C603 15 577 41 577 80 L577 595 C577 634 603 660 641 660 L652 660 L652 675 L430 675 L430 660 L441 660 C479 660 505 634 505 595 L505 364 L187 364 L187 595 C187 634 213 660 251 660 L262 660 L262 675 L40 675 L40 660 L51 660 C89 660 115 634 115 595 L115 80 C115 41 89 15 51 15 L40 15 L40 0 L262 0 L262 15 L251 15 C213 15 187 41 187 80 L187 346 L505 346 L505 80 C505 41 479 15 441 15 L430 15 L430 0 L652 0 L652 15 L652 15 Z " />
<glyph glyph-name="I" unicode="I" horiz-adv-x="302" d="M262 15 L251 15 C213 15 187 41 187 80 L187 595 C187 634 213 660 251 660 L262 660 L262 675 L40 675 L40 660 L51 660 C89 660 115 634 115 595 L115 80 C115 41 89 15 51 15 L40 15 L40 0 L262 0 L262 15 L262 15 Z " />
<glyph glyph-name="J" unicode="J" horiz-adv-x="315" d="M275 675 L52 675 L52 660 L63 660 C101 660 127 634 127 595 L127 205 C127 61 118 5 94 5 C81 5 68 23 61 50 C57 67 44 79 29 79 C7 79 -4 67 0 50 C9 14 39 -10 76 -10 C165 -10 199 67 199 265 C200 264 200 475 200 595 C200 634 226 660 264 660 L275 660 L275 675 L275 675 Z " />
<glyph glyph-name="K" unicode="K" horiz-adv-x="569" d="M516 675 L357 675 L357 660 L367 660 C398 660 401 635 373 598 L237 420 C237 421 237 421 237 421 L194 363 L194 595 C194 634 220 660 258 660 L269 660 L269 675 L47 675 L47 660 L58 660 C96 660 122 634 122 595 L122 80 C122 41 96 15 58 15 L47 15 L47 0 L269 0 L269 15 L258 15 C220 15 194 41 194 80 L194 363 C194 363 250 279 334 152 C409 39 464 -5 532 -5 L559 -5 L559 9 C520 9 475 62 377 210 C315 303 268 373 248 404 C296 468 344 532 392 595 C421 634 466 660 504 660 L516 660 L516 675 L516 675 Z " />
<glyph glyph-name="L" unicode="L" horiz-adv-x="536" d="M452 160 C446 163 434 168 434 168 L408 108 C385 54 335 18 281 18 L187 18 L187 595 C187 634 213 660 251 660 L262 660 L262 675 L40 675 L40 660 L51 660 C89 660 115 634 115 595 L115 80 C115 41 89 15 51 15 L40 15 L40 0 L423 0 C433 47 443 112 452 160 L452 160 Z " />
<glyph glyph-name="M" unicode="M" horiz-adv-x="761" d="M38 0 L243 0 L243 15 L214 15 C166 15 135 47 137 95 L137 95 L155 578 C223 384 291 189 359 -5 L377 -5 L584 608 C590 432 597 255 602 80 C603 41 579 15 541 15 L530 15 L530 0 L751 0 L751 15 L740 15 C705 15 679 37 674 71 C667 245 658 420 651 594 C649 633 673 659 710 659 L721 659 L721 674 L582 674 L392 94 L193 674 L63 674 L63 659 L74 659 C112 659 136 633 135 594 L116 75 C113 38 87 14 50 14 L39 14 L38 0 L38 0 Z M392 93 L392 94 L392 93 L392 93 Z " />
<glyph glyph-name="N" unicode="N" horiz-adv-x="625" d="M42 660 L53 660 C91 660 117 634 117 595 L117 80 C117 41 91 15 53 15 L42 15 L42 0 L213 0 L213 15 L202 15 C164 15 138 41 138 80 L138 605 C252 399 365 192 480 -14 L510 -14 L510 595 C510 634 536 660 574 660 L585 660 L585 675 L414 675 L414 660 L425 660 C463 660 489 634 489 595 L489 111 L181 675 L42 675 L42 660 L42 660 Z " />
<glyph glyph-name="O" unicode="O" horiz-adv-x="678" d="M137 338 C137 513 207 662 343 662 C478 662 548 513 548 338 C548 163 478 13 343 13 C207 13 137 163 137 338 L137 338 Z M57 338 C57 153 154 -5 343 -5 C531 -5 628 153 628 338 C628 523 531 680 343 680 C154 680 57 523 57 338 L57 338 Z " />
<glyph glyph-name="P" unicode="P" horiz-adv-x="498" d="M269 15 L258 15 C220 15 194 41 194 80 L194 303 L258 303 C390 303 478 377 478 488 C478 600 396 675 274 675 L47 675 L47 660 L58 660 C96 660 122 634 122 595 L122 80 C122 41 96 15 58 15 L47 15 L47 0 L269 0 L269 15 L269 15 Z M194 321 L194 657 L274 657 C351 657 402 589 402 488 C402 388 344 321 258 321 L194 321 L194 321 Z " />
<glyph glyph-name="Q" unicode="Q" horiz-adv-x="678" d="M683 -51 L677 -46 C658 -69 607 -84 549 -84 C467 -84 401 -53 349 -5 C533 -2 628 155 628 338 C628 523 531 680 343 680 C154 680 57 523 57 338 C57 159 147 6 323 -5 C401 -81 477 -131 541 -131 C586 -131 643 -99 683 -51 L683 -51 Z M137 338 C137 513 207 662 343 662 C478 662 548 513 548 338 C548 163 478 13 343 13 C207 13 137 163 137 338 L137 338 Z " />
<glyph glyph-name="R" unicode="R" horiz-adv-x="548" d="M47 660 L58 660 C96 660 122 634 122 595 L122 80 C122 41 96 15 58 15 L47 15 L47 0 L269 0 L269 15 L258 15 C220 15 194 41 194 80 L194 323 L231 323 L370 106 C435 4 441 0 522 0 L548 0 L548 14 C518 14 519 14 469 92 C391 214 334 300 314 330 C401 350 456 413 456 500 C456 605 380 675 265 675 L46 675 L47 660 L47 660 Z M251 341 L193 341 L193 657 L265 657 C334 657 380 594 380 500 C380 405 328 341 251 341 L251 341 Z " />
<glyph glyph-name="S" unicode="S" horiz-adv-x="426" d="M344 484 L344 630 L338 620 L338 620 L344 630 C292 660 238 680 208 680 C112 680 48 603 48 488 C48 419 102 348 182 311 C270 270 329 204 329 146 C329 66 284 13 216 13 C156 13 97 69 68 153 C64 164 59 180 55 191 L42 191 L42 45 L48 56 L48 56 L42 45 C94 15 164 -5 216 -5 C315 -5 381 67 381 176 C381 248 322 323 234 364 C153 402 99 463 99 517 C99 604 141 662 205 662 C205 662 213 662 213 661 C250 655 285 620 300 575 C309 548 322 511 331 484 L344 484 L344 484 Z " />
<glyph glyph-name="T" unicode="T" horiz-adv-x="539" d="M8 507 L20 507 L48 577 C67 625 113 657 161 657 L233 657 L233 80 C233 41 207 15 169 15 L158 15 L158 0 L381 0 L381 15 L370 15 C332 15 306 41 306 80 L306 657 L378 657 C426 657 472 625 491 577 L519 507 L531 507 C527 558 522 624 516 675 L23 675 C17 624 12 558 8 507 L8 507 Z " />
<glyph glyph-name="U" unicode="U" horiz-adv-x="603" d="M583 675 L387 675 L387 660 L402 660 C445 660 474 633 476 591 L475 188 C475 87 431 20 319 20 C221 20 183 91 183 197 L183 595 C183 634 209 660 247 660 L258 660 L258 675 L36 675 L36 660 L47 660 C85 660 111 634 111 595 L111 211 C111 81 166 -5 308 -5 C444 -5 497 69 497 180 L497 585 C497 630 526 660 569 660 L582 660 L583 675 L583 675 Z " />
<glyph glyph-name="V" unicode="V" horiz-adv-x="614" d="M242 675 L7 675 L7 660 C46 660 74 639 89 595 L295 -15 L313 -15 C367 188 420 392 474 595 C484 634 517 660 555 660 L566 660 L566 675 L354 675 L354 660 L375 660 C432 660 460 622 445 565 L445 565 L321 88 C270 257 217 427 167 595 C155 634 173 660 212 660 L242 660 L242 675 L242 675 Z " />
<glyph glyph-name="W" unicode="W" horiz-adv-x="802" d="M779 675 L581 675 L581 660 L618 660 C657 660 677 634 668 595 L668 595 L532 -15 L551 -15 L689 595 C698 634 729 660 767 660 L779 660 L779 675 L779 675 Z M224 675 L-1 675 L-1 660 C36 660 60 643 74 604 L241 -15 L259 -15 L387 560 L532 -15 L558 103 L415 685 L397 685 L266 97 L151 602 C146 637 166 660 203 660 L225 660 L224 675 L224 675 Z " />
<glyph glyph-name="X" unicode="X" horiz-adv-x="565" d="M318 0 L548 0 L548 15 C513 15 487 32 465 71 L310 383 L419 603 C439 638 475 661 510 661 L522 661 L522 676 L322 676 L322 661 L360 661 C396 661 411 639 398 605 L301 402 C269 467 236 532 205 596 C186 635 198 661 237 661 L265 661 L265 676 L34 676 L34 661 C69 661 96 643 118 604 C164 512 210 420 255 328 L138 74 C119 39 84 16 47 16 L36 16 L36 1 L234 1 L234 16 L211 16 C163 16 145 48 167 96 L167 96 L263 310 C301 234 340 157 378 81 C397 42 385 16 346 16 L318 16 L318 0 L318 0 Z " />
<glyph glyph-name="Y" unicode="Y" horiz-adv-x="536" d="M161 0 L383 0 L383 15 L372 15 C334 15 308 41 308 80 L308 315 C353 408 397 502 443 595 C465 639 497 660 539 660 L539 675 L350 675 L350 660 L368 660 C416 660 435 630 417 584 L292 321 L182 596 C167 634 182 661 222 661 L241 661 L241 676 L16 676 L16 661 C52 661 80 640 99 596 L99 596 L237 282 L237 81 C237 42 211 16 173 16 L162 16 L161 0 L161 0 Z " />
<glyph glyph-name="Z" unicode="Z" horiz-adv-x="511" d="M442 169 L416 109 C393 55 343 19 289 19 L138 19 L448 675 L112 675 L110 666 L108 666 C98 627 84 576 74 537 L86 537 L113 577 C145 625 199 657 247 657 L358 657 L48 0 L430 0 L432 9 L433 9 C441 55 452 115 460 161 C454 164 442 169 442 169 L442 169 Z " />
<glyph glyph-name="bracketleft" unicode="&#x5b;" horiz-adv-x="240" d="M125 661 L230 661 L230 675 L74 675 L74 -120 L230 -120 L230 -106 L125 -106 L125 661 L125 661 Z " />
<glyph glyph-name="backslash" unicode="&#x5c;" horiz-adv-x="236" d="M213 -145 L236 -145 L-37 725 L-60 725 L213 -145 L213 -145 Z " />
<glyph glyph-name="bracketright" unicode="&#x5d;" horiz-adv-x="230" d="M110 661 L110 -106 L5 -106 L5 -120 L160 -120 L160 675 L5 675 L5 661 L110 661 L110 661 Z " />
<glyph glyph-name="asciicircum" unicode="&#x5e;" horiz-adv-x="238" d="M140 726 C138 732 130 745 119 745 C108 745 101 732 99 727 C99 727 -4 514 16 538 L23 533 C52 568 93 632 118 672 C154 615 215 534 215 534 L222 539 C222 539 203 598 140 727 L140 726 L140 726 Z " />
<glyph glyph-name="underscore" unicode="&#x5f;" horiz-adv-x="272" d="M5 -50 L5 -86 L267 -86 L267 -50 L5 -50 L5 -50 Z " />
<glyph glyph-name="grave" unicode="&#x60;" horiz-adv-x="238" d="M37 712 C37 706 53 686 78 659 C110 619 192 531 192 531 L200 536 C200 536 143 643 111 684 C92 716 78 738 74 738 C63 738 37 720 37 712 L37 712 Z " />
<glyph glyph-name="a" unicode="a" horiz-adv-x="408" d="M386 39 C375 28 361 21 336 21 C306 21 297 45 297 82 L297 358 C297 446 259 505 203 505 C130 505 74 464 62 402 L127 402 C137 453 162 487 189 487 C213 487 229 441 229 372 C229 372 229 327 229 252 C210 248 187 243 166 238 C89 219 37 164 37 102 C37 38 69 -5 118 -5 C149 -5 190 19 229 57 C232 16 248 -10 291 -10 C340 -10 370 6 394 30 L386 39 L386 39 Z M228 234 C228 188 227 131 228 70 C202 50 173 38 148 38 C119 38 100 70 100 119 C100 167 126 206 166 216 C192 222 213 227 229 231 L228 234 L228 234 Z " />
<glyph glyph-name="b" unicode="b" horiz-adv-x="519" d="M143 26 C181 26 218 -5 269 -5 C386 -5 464 97 464 249 C464 403 398 505 300 505 C269 505 215 487 166 461 L166 720 L153 720 L26 682 L26 673 L37 671 C91 660 101 647 101 593 L101 0 L108 0 C114 16 128 26 143 26 L143 26 Z M269 13 C207 13 166 65 166 143 L166 450 C195 466 229 476 250 476 C337 476 395 374 395 220 C395 96 345 13 269 13 L269 13 Z " />
<glyph glyph-name="c" unicode="c" horiz-adv-x="405" d="M354 50 L347 57 C331 43 294 34 256 34 C174 34 119 124 119 259 C119 396 165 487 233 487 C265 487 289 454 293 404 C295 385 308 372 326 372 C343 372 355 384 355 401 C350 463 304 505 241 505 C126 505 50 397 50 234 C50 91 111 -5 202 -5 C254 -5 315 17 354 50 L354 50 Z " />
<glyph glyph-name="d" unicode="d" horiz-adv-x="518" d="M408 720 L395 720 L268 682 L268 673 L279 671 C333 660 343 647 343 593 L343 451 C317 483 278 505 238 505 C128 505 55 393 55 224 C55 87 118 -5 212 -5 C255 -5 306 15 343 47 L343 -1 L356 -1 L483 37 L483 46 L472 48 C418 59 408 72 408 126 L408 720 L408 720 Z M343 56 C325 42 289 33 248 33 C173 33 123 119 123 247 C123 390 167 485 234 485 C279 485 321 455 343 416 L343 56 L343 56 Z " />
<glyph glyph-name="e" unicode="e" horiz-adv-x="411" d="M301 372 L301 373 L300 320 L361 320 C361 430 306 504 223 504 C119 504 50 396 50 233 C50 90 112 -6 205 -6 C259 -6 321 16 360 49 L353 56 C337 42 299 33 259 33 C175 33 119 123 119 258 C119 280 120 301 122 320 L300 320 L300 344 L301 371 C300 355 289 343 272 341 L124 331 C136 426 171 485 219 485 C268 485 301 440 301 373 C301 372 301 371 301 370 L301 372 L301 372 Z " />
<glyph glyph-name="f" unicode="f" horiz-adv-x="326" d="M235 15 L224 15 C186 15 160 41 160 80 L160 475 L240 475 L240 500 L160 500 L160 533 C160 636 206 705 225 705 C244 705 258 687 260 660 C262 643 274 631 292 631 C309 631 321 643 321 660 C318 696 287 720 243 720 C156 720 99 651 99 547 C96 547 95 500 95 500 L45 500 L45 475 L95 475 L95 80 C95 41 69 15 31 15 L20 15 L20 0 L235 0 L235 15 L235 15 Z " />
<glyph glyph-name="g" unicode="g" horiz-adv-x="388" d="M388 500 L263 491 C245 500 224 505 201 505 C120 505 66 443 66 349 C66 277 98 224 149 203 C88 196 49 159 49 107 C49 59 81 25 132 15 C67 -19 25 -70 25 -115 L69 -107 C69 -58 101 -11 149 14 C155 13 161 13 167 13 C167 13 214 16 199 16 C274 16 324 -20 324 -75 C324 -161 256 -219 155 -219 C104 -219 70 -174 70 -107 L26 -114 C26 -188 75 -238 148 -238 C281 -238 370 -160 370 -43 C370 29 308 77 216 77 L164 74 C123 74 95 98 95 134 C95 171 125 195 171 195 L203 195 C285 195 339 257 339 351 C339 400 324 440 298 467 L389 466 L388 500 L388 500 Z M202 209 C158 209 128 266 128 351 C128 436 158 493 202 493 C247 493 277 436 277 351 C277 266 247 209 202 209 L202 209 Z " />
<glyph glyph-name="h" unicode="h" horiz-adv-x="543" d="M288 0 L503 0 L503 15 L492 15 C454 15 428 41 428 80 L428 337 C428 438 402 505 336 505 C319 505 259 480 185 441 L185 720 L172 720 L45 682 L45 673 L56 671 C110 660 120 647 120 593 L120 80 C120 41 94 15 56 15 L45 15 L45 0 L260 0 L260 15 L249 15 C211 15 185 41 185 80 L185 434 C219 451 258 461 285 461 C341 461 363 409 363 330 L363 80 C363 41 337 15 299 15 L288 15 L288 0 L288 0 Z " />
<glyph glyph-name="i" unicode="i" horiz-adv-x="305" d="M149 570 C175 570 192 587 192 613 C192 639 175 657 149 657 C123 657 106 639 106 613 C106 587 123 570 149 570 L149 570 Z M260 15 L249 15 C211 15 185 41 185 80 L185 500 L172 500 L45 462 L45 453 L56 451 C110 440 120 427 120 373 L120 80 C120 41 94 15 56 15 L45 15 L45 0 L260 0 L260 15 L260 15 Z " />
<glyph glyph-name="j" unicode="j" horiz-adv-x="249" d="M133 570 C159 570 176 587 176 613 C176 639 159 657 133 657 C107 657 90 639 90 613 C90 587 107 570 133 570 L133 570 Z M104 378 C104 237 104 5 103 6 C103 -154 87 -195 39 -225 L45 -234 C138 -176 169 -128 169 24 L169 500 L156 500 L29 462 L29 453 L40 451 C92 440 103 427 104 377 L104 378 L104 378 Z " />
<glyph glyph-name="k" unicode="k" horiz-adv-x="471" d="M26 0 L241 0 L241 15 L230 15 C192 15 166 41 166 80 L166 275 L300 80 C327 41 323 15 290 15 L280 15 L280 0 L501 0 L501 15 L489 15 C452 15 409 40 382 77 L216 314 C248 349 280 384 312 419 C347 458 396 484 434 484 L445 484 L445 499 L281 499 L281 484 L290 484 C322 484 321 458 288 419 L288 419 L166 274 L166 719 L153 719 L26 681 L26 672 L37 670 C91 659 101 646 101 592 L101 79 C101 40 75 14 37 14 L26 14 L26 0 L26 0 Z " />
<glyph glyph-name="l" unicode="l" horiz-adv-x="305" d="M260 15 L249 15 C211 15 185 41 185 80 L185 720 L172 720 L45 682 L45 673 L56 671 C110 660 120 647 120 593 L120 80 C120 41 94 15 56 15 L45 15 L45 0 L260 0 L260 15 L260 15 Z " />
<glyph glyph-name="m" unicode="m" horiz-adv-x="806" d="M551 0 L766 0 L766 15 L755 15 C717 15 691 41 691 80 L691 337 C691 438 648 505 591 505 C575 505 510 475 424 429 C407 477 377 505 341 505 C318 505 258 480 184 441 L184 500 L171 500 L44 462 L44 453 L55 451 C109 440 119 427 119 373 L119 80 C119 41 93 15 55 15 L44 15 L44 0 L259 0 L259 15 L248 15 C210 15 184 41 184 80 L184 434 C221 453 261 465 290 465 C337 465 372 411 372 330 L372 80 C372 41 346 15 308 15 L297 15 L297 0 L512 0 L512 15 L501 15 C463 15 437 41 437 80 L437 337 C437 368 433 396 426 419 C475 444 518 461 540 461 C588 461 625 409 625 330 L625 80 C625 41 599 15 561 15 L550 15 L551 0 L551 0 Z " />
<glyph glyph-name="n" unicode="n" horiz-adv-x="535" d="M288 0 L503 0 L503 15 L492 15 C454 15 428 41 428 80 L428 337 C428 438 402 505 336 505 C319 505 259 480 185 441 L185 500 L172 500 L45 462 L45 453 L56 451 C110 440 120 427 120 373 L120 80 C120 41 94 15 56 15 L45 15 L45 0 L260 0 L260 15 L249 15 C211 15 185 41 185 80 L185 434 C219 451 258 461 285 461 C341 461 363 409 363 330 L363 80 C363 41 337 15 299 15 L288 15 L288 0 L288 0 Z " />
<glyph glyph-name="o" unicode="o" horiz-adv-x="488" d="M98 250 C98 395 152 491 232 491 C312 491 366 395 366 250 C366 105 312 9 232 9 C152 9 98 105 98 250 L98 250 Z M26 250 C26 97 108 -5 232 -5 C356 -5 438 97 438 250 C438 403 356 505 232 505 C108 505 26 403 26 250 L26 250 Z " />
<glyph glyph-name="p" unicode="p" horiz-adv-x="515" d="M236 -215 L225 -215 C187 -215 161 -189 161 -150 L161 32 C189 9 227 -4 271 -4 C395 -4 477 102 477 262 C477 408 413 506 316 506 C265 506 204 476 161 429 L161 502 L148 502 L21 464 L21 455 L32 453 C86 442 96 429 96 375 L96 -148 C96 -187 70 -213 32 -213 L21 -213 L21 -228 L236 -228 L236 -215 L236 -215 Z M161 137 L161 418 C188 446 228 464 265 464 C354 464 413 364 413 213 C413 95 356 16 271 16 C211 16 167 65 161 138 L161 137 L161 137 Z " />
<glyph glyph-name="q" unicode="q" horiz-adv-x="501" d="M472 -215 L461 -215 C423 -215 397 -189 397 -150 L397 500 L390 500 C383 484 366 474 345 474 C310 474 275 505 229 505 C119 505 45 393 45 224 C45 87 105 -5 194 -5 C238 -5 292 18 332 54 L332 -150 C332 -189 306 -215 268 -215 L257 -215 L257 -230 L472 -230 L472 -215 L472 -215 Z M332 67 C310 48 270 35 230 35 C160 35 113 121 113 249 C113 392 159 487 229 487 C291 487 332 435 332 357 L332 67 L332 67 Z " />
<glyph glyph-name="r" unicode="r" horiz-adv-x="352" d="M29 0 L244 0 L244 15 L233 15 C195 15 169 41 169 80 L169 420 C189 442 211 456 226 456 C252 456 286 429 311 429 C330 429 342 441 342 460 C342 486 324 504 278 504 C250 504 208 474 170 428 L170 499 L157 499 L30 461 L30 452 L41 450 C95 439 105 426 105 372 L105 79 C105 40 79 14 41 14 L30 14 L29 0 L29 0 Z " />
<glyph glyph-name="s" unicode="s" horiz-adv-x="340" d="M268 367 L268 462 C223 488 189 505 181 505 C109 505 61 453 61 374 C61 323 99 265 156 227 C204 195 236 151 236 116 C236 52 208 10 165 10 C132 10 94 50 69 111 C66 119 61 130 58 138 L47 138 L47 33 C86 10 132 -5 162 -5 C239 -5 290 53 290 140 C290 185 255 238 202 273 C148 309 112 358 112 397 C112 453 140 491 181 491 C180 491 180 490 181 489 L181 491 C190 491 199 485 208 475 C204 476 200 477 196 478 C201 475 207 471 214 467 C226 450 237 426 246 397 C249 388 252 377 255 368 L268 367 L268 367 Z M180 490 C182 488 188 484 197 478 C191 479 186 480 181 480 L180 490 L180 490 Z " />
<glyph glyph-name="t" unicode="t" horiz-adv-x="311" d="M280 500 L145 500 L145 640 L134 640 L85 491 L118 594 C98 533 60 488 24 483 L24 476 L79 476 C79 476 80 222 80 113 C80 22 98 -4 162 -4 C216 -4 255 16 290 45 L286 50 C268 35 243 25 194 25 C155 25 144 42 144 101 L144 476 L279 476 L280 500 L280 500 Z M118 595 L118 596 L118 596 L118 595 L118 595 Z " />
<glyph glyph-name="u" unicode="u" horiz-adv-x="492" d="M15 485 L26 485 C64 485 90 459 90 420 L90 155 C90 59 128 -5 201 -5 C249 -5 294 20 333 57 L333 1 L346 1 L473 39 L473 48 L462 50 C408 61 398 74 398 128 L398 501 L258 501 L258 486 L269 486 C307 486 333 460 333 421 L333 67 C314 50 288 39 252 39 C187 39 154 89 154 163 L155 501 L15 501 L15 485 L15 485 Z " />
<glyph glyph-name="v" unicode="v" horiz-adv-x="488" d="M217 500 L-3 500 L-3 485 L8 485 C45 485 78 461 91 424 L226 -10 L237 -10 L372 426 C386 462 418 485 454 485 L465 485 L465 500 L299 500 L299 485 L310 485 C344 485 360 462 352 426 L253 84 L161 428 C155 463 172 486 206 486 L217 486 L217 500 L217 500 Z " />
<glyph glyph-name="w" unicode="w" horiz-adv-x="687" d="M224 485 C251 485 277 461 290 424 L315 343 L256 84 L169 427 C163 465 185 485 225 485 L224 485 L224 485 Z M21 485 C58 485 85 466 99 424 L234 -10 L245 -10 L323 316 L425 -10 L436 -10 L571 426 C585 462 617 485 653 485 L664 485 L664 500 L468 500 L468 485 L504 485 C541 485 559 461 551 425 L452 83 L360 426 C354 461 373 484 410 484 L436 484 L436 499 L20 499 L21 485 L21 485 Z " />
<glyph glyph-name="x" unicode="x" horiz-adv-x="481" d="M442 500 L259 500 L259 485 L286 485 C323 485 336 462 320 427 L260 317 L201 426 C184 462 197 485 234 485 L251 485 L251 500 L29 500 L29 485 C68 485 101 464 125 420 L125 420 L218 249 C190 193 162 136 133 80 C113 41 75 15 36 15 L16 15 L16 0 L230 0 L230 15 L182 15 C146 15 132 37 145 71 L225 234 L313 71 C329 36 319 14 287 14 L277 14 L277 -1 L473 -1 L473 14 C439 14 411 35 388 79 L388 79 L266 305 L336 428 C359 462 396 484 431 484 L442 484 L442 500 L442 500 Z " />
<glyph glyph-name="y" unicode="y" horiz-adv-x="456" d="M481 500 L315 500 L315 485 L326 485 C360 485 376 462 368 426 L269 84 L177 428 C171 463 188 486 222 486 L233 486 L233 501 L13 501 L13 486 L24 486 C61 486 94 462 107 425 L239 1 C235 -11 227 -34 217 -65 C190 -152 170 -186 146 -186 C146 -186 104 -162 86 -162 C67 -162 54 -173 54 -189 C54 -213 75 -229 106 -229 C163 -229 199 -185 234 -71 C247 -33 253 -9 253 -9 L388 427 C402 463 434 486 470 486 L481 486 L481 500 L481 500 Z " />
<glyph glyph-name="z" unicode="z" horiz-adv-x="403" d="M348 165 L322 105 C299 51 249 15 195 15 L195 14 L134 14 L353 500 L71 500 L69 493 L69 493 C61 464 50 424 42 395 L54 395 L65 409 C102 455 159 485 207 485 L270 485 L52 0 L337 0 L338 7 L339 7 C347 52 358 112 366 157 C360 160 348 165 348 165 L348 165 Z " />
<glyph glyph-name="braceleft" unicode="&#x7b;" horiz-adv-x="190" d="M175 -120 L175 -109 L149 -109 C112 -109 88 -75 88 -24 L89 174 C89 230 68 269 35 277 C68 285 89 325 89 383 L89 578 C89 629 113 663 149 663 L175 663 L175 674 L135 674 C77 674 38 636 38 578 L38 347 C38 306 26 282 5 282 L5 271 C26 271 38 248 38 209 L38 -25 C38 -83 77 -121 135 -121 L175 -120 L175 -120 Z " />
<glyph glyph-name="bar" unicode="&#x7c;" horiz-adv-x="171" d="M60 770 L60 -234 L111 -234 L111 770 L60 770 L60 770 Z " />
<glyph glyph-name="braceright" unicode="&#x7d;" horiz-adv-x="190" d="M5 675 L5 664 L31 664 C68 664 92 630 92 579 L91 381 C91 325 112 286 145 278 C112 270 91 230 91 172 L91 -23 C91 -74 67 -108 31 -108 L5 -108 L5 -119 L45 -119 C103 -119 142 -81 142 -23 L142 208 C142 249 154 273 175 273 L175 284 C154 284 142 307 142 346 L142 580 C142 638 103 676 45 676 L5 675 L5 675 Z " />
<glyph glyph-name="asciitilde" unicode="&#x7e;" horiz-adv-x="238" d="M35 310 C35 348 44 374 58 374 C89 374 131 312 162 312 C193 312 214 353 214 415 L204 415 C204 379 193 355 177 355 C146 355 104 417 72 417 C43 417 24 374 24 310 L35 310 L35 310 Z " />
<glyph glyph-name="nbspace" unicode="&#xa0;" horiz-adv-x="130" d="" />
<glyph glyph-name="exclamdown" unicode="&#xa1;" horiz-adv-x="203" d="M96 505 C68 505 49 486 49 458 C49 430 68 411 96 411 C124 411 143 430 143 458 C143 486 124 505 96 505 L96 505 Z M60 -132 C58 -161 74 -180 100 -180 C126 -180 142 -161 140 -132 C140 149 100 336 100 336 L92 336 C92 336 60 149 60 -132 L60 -132 Z " />
<glyph glyph-name="cent" unicode="&#xa2;" horiz-adv-x="405" d="M215 575 L215 503 C115 488 50 384 50 234 C50 86 112 -11 215 -4 L215 -74 L237 -74 L237 -1 C280 6 324 25 354 51 L347 58 C330 43 278 30 238 37 L238 488 C268 485 290 453 294 405 C296 386 309 373 327 373 C344 373 356 385 356 402 C351 465 304 507 238 506 L238 576 L215 575 L215 575 Z M216 43 C157 68 120 149 120 260 C120 385 158 472 216 487 L216 43 L216 43 Z " />
<glyph glyph-name="guillemotleft" unicode="&#xab;" horiz-adv-x="314" d="M177 231 L177 231 L177 231 L177 231 Z M184 248 C205 301 268 459 266 457 L259 464 C207 412 122 252 122 252 L122 245 C151 173 261 34 261 34 L268 41 C268 41 233 124 183 247 L184 248 L184 248 Z M73 230 L73 230 L73 230 L73 230 Z M80 248 C102 303 164 458 162 456 L155 463 C103 411 18 251 18 251 L18 244 C47 172 157 33 157 33 L164 40 C164 40 130 123 79 248 L80 248 L80 248 Z " />
<glyph glyph-name="acute" unicode="&#xb4;" horiz-adv-x="238" d="M42 531 C42 531 123 619 154 659 C178 687 194 707 194 712 C194 720 168 738 157 738 C153 738 139 716 120 684 C89 644 35 536 35 536 L42 531 L42 531 Z " />
<glyph glyph-name="guillemotright" unicode="&#xbb;" horiz-adv-x="314" d="M52 35 C52 35 162 174 191 246 L191 253 C191 253 106 413 54 465 L47 458 C47 458 109 302 130 249 C80 126 45 43 45 43 L52 35 L52 35 Z M155 36 C155 36 265 175 294 247 L294 254 C294 254 209 414 157 466 L150 459 C150 459 211 305 233 250 C182 125 148 42 148 42 L155 36 L155 36 Z M137 231 L137 231 L137 231 L137 231 Z M240 231 L240 231 L240 231 L240 231 Z " />
<glyph glyph-name="onequarter" unicode="&#xbc;" horiz-adv-x="754" d="M589 310 C589 310 558 255 547 217 C507 149 456 70 456 70 L457 69 L457 64 L465 64 L467 63 L467 61 L543 61 L543 7 L598 7 C598 21 598 40 598 61 L631 61 L631 85 L598 85 C598 140 598 197 598 197 L598 285 C602 295 603 300 598 298 L598 313 L594 313 C594 311 594 309 593 306 L590 312 L589 310 L589 310 Z M256 645 C256 646 256 647 256 648 L258 648 L256 645 L256 645 Z M294 688 L230 688 L230 680 L227 680 L227 684 L163 684 L163 678 C180 678 191 674 198 662 L198 469 C198 447 183 437 161 437 L161 431 L198 431 L198 429 L253 429 L253 431 L293 431 L293 440 C271 440 256 450 256 473 L255 471 L253 471 L253 647 L257 647 C258 669 273 678 295 678 L294 688 L294 688 Z M136 -17 L650 668 L621 690 L106 5 L136 -17 L136 -17 Z M467 63 L468 63 C468 62 468 62 467 63 L467 63 Z M483 84 C498 107 522 145 544 182 L544 84 L483 84 L483 84 Z M596 312 L592 312 L591 314 C595 316 597 315 597 312 L596 312 L596 312 Z " />
<glyph glyph-name="onehalf" unicode="&#xbd;" horiz-adv-x="754" d="M594 67 L537 67 C591 108 624 139 624 186 C624 232 598 262 559 262 C529 262 497 233 480 189 L487 185 C496 207 514 222 532 222 C550 222 563 201 563 169 C563 81 521 71 458 23 L458 11 L457 8 C458 9 459 10 460 11 L627 11 L630 40 L631 40 C632 59 634 86 636 106 L629 106 C629 84 616 69 595 69 C594 68 592 68 592 66 L594 67 L594 67 Z M254 645 C254 646 254 647 254 648 L256 648 L254 645 L254 645 Z M292 688 L228 688 L228 680 L225 680 L225 684 L161 684 L161 678 C178 678 189 674 196 662 L196 469 C196 447 181 437 159 437 L159 431 L196 431 L196 429 L251 429 L251 431 L291 431 L291 440 C269 440 254 450 254 473 L253 471 L251 471 L251 647 L255 647 C256 669 271 678 293 678 L292 688 L292 688 Z M134 -17 L648 668 L619 690 L104 5 L134 -17 L134 -17 Z M462 11 C470 17 478 23 486 29 C478 20 470 13 463 12 L462 11 L462 11 Z " />
<glyph glyph-name="threequarters" unicode="&#xbe;" horiz-adv-x="754" d="M588 310 C588 310 557 255 546 217 C506 149 455 70 455 70 L456 69 L456 64 L464 64 L466 63 L466 61 L542 61 L542 7 L597 7 C597 21 597 40 597 61 L630 61 L630 85 L597 85 C597 140 597 197 597 197 L597 285 C601 295 602 300 597 298 L597 313 L593 313 C593 311 593 309 592 306 L589 312 L588 310 L588 310 Z M114 354 C208 361 271 408 271 471 C271 510 239 538 188 546 C232 570 259 598 259 624 C259 662 236 688 201 688 C164 688 128 661 110 621 L117 618 C125 636 148 648 174 648 C193 648 206 632 206 608 C206 587 189 566 161 550 L161 550 C149 543 134 537 118 532 L118 527 C116 526 114 525 112 524 L112 515 C157 533 213 513 213 472 C213 413 173 371 114 367 L115 360 L114 354 L114 354 Z M134 -15 L648 670 L619 692 L104 7 L134 -15 L134 -15 Z M464 65 L465 65 C465 64 465 64 464 65 L464 65 Z M480 86 C495 109 519 147 541 184 L541 86 L480 86 L480 86 Z M593 314 L589 314 L588 316 C592 318 594 317 594 314 L593 314 L593 314 Z " />
<glyph glyph-name="questiondown" unicode="&#xbf;" horiz-adv-x="287" d="M171 505 C143 505 124 486 124 458 C124 430 143 411 171 411 C199 411 218 430 218 458 C218 486 199 505 171 505 L171 505 Z M156 172 L121 172 C49 172 35 95 35 52 C35 -87 96 -180 188 -180 C223 -180 247 -154 247 -115 C247 -102 234 -94 214 -94 C200 -94 181 -129 167 -129 C97 -129 50 -60 50 44 C50 72 65 122 143 122 L178 122 C186 122 190 126 190 132 L176 329 L167 329 L156 172 L156 172 Z " />
<glyph glyph-name="Agrave" unicode="&#xc0;" horiz-adv-x="568" d="M318 0 L563 0 L563 15 C524 15 496 32 480 71 L282 691 L264 691 C207 488 151 284 93 81 C82 42 49 16 11 16 L0 16 L0 1 L205 1 L205 16 L179 16 C131 16 108 48 121 96 L121 96 L161 242 L353 242 C369 188 386 134 401 81 C413 42 395 16 356 16 L319 16 L318 0 L318 0 Z M192 888 C192 882 208 862 233 835 C265 795 347 707 347 707 L354 712 C354 712 298 820 266 860 C247 892 233 914 229 914 C218 914 192 896 192 888 L192 888 Z M348 260 L166 261 L253 581 L348 260 L348 260 Z " />
<glyph glyph-name="Aacute" unicode="&#xc1;" horiz-adv-x="568" d="M212 706 C212 706 292 794 323 834 C347 862 363 883 363 887 C363 895 337 913 326 913 C323 913 309 891 290 859 C259 819 205 711 205 711 L212 706 L212 706 Z M318 0 L563 0 L563 15 C524 15 496 32 480 71 L282 691 L264 691 C207 488 151 284 93 81 C82 42 49 16 11 16 L0 16 L0 1 L205 1 L205 16 L179 16 C131 16 108 48 121 96 L121 96 L161 242 L353 242 C369 188 386 134 401 81 C413 42 395 16 356 16 L319 16 L318 0 L318 0 Z M348 260 L166 261 L253 581 L348 260 L348 260 Z " />
<glyph glyph-name="Acircumflex" unicode="&#xc2;" horiz-adv-x="568" d="M318 0 L563 0 L563 15 C524 15 496 32 480 71 L282 691 L264 691 C207 488 151 284 93 81 C82 42 49 16 11 16 L0 16 L0 1 L205 1 L205 16 L179 16 C131 16 108 48 121 96 L121 96 L161 242 L353 242 C369 188 386 134 401 81 C413 42 395 16 356 16 L319 16 L318 0 L318 0 Z M295 902 C293 908 285 921 274 921 C262 921 255 908 253 903 C253 903 149 688 171 714 L178 709 C207 744 248 808 273 848 C309 791 370 710 370 710 L377 715 C377 715 358 774 295 903 L295 902 L295 902 Z M348 261 L166 262 L253 582 L348 261 L348 261 Z " />
<glyph glyph-name="Atilde" unicode="&#xc3;" horiz-adv-x="568" d="M189 770 C189 808 198 834 212 834 C243 834 285 772 316 772 C347 772 368 813 368 875 L357 875 C357 839 347 815 331 815 C300 815 258 877 226 877 C197 877 178 834 178 770 L189 770 L189 770 Z M318 0 L563 0 L563 15 C524 15 496 32 480 71 L282 691 L264 691 C207 488 151 284 93 81 C82 42 49 16 11 16 L0 16 L0 1 L205 1 L205 16 L179 16 C131 16 108 48 121 96 L121 96 L161 242 L353 242 C369 188 386 134 401 81 C413 42 395 16 356 16 L319 16 L318 0 L318 0 Z M348 260 L166 261 L253 581 L348 260 L348 260 Z " />
<glyph glyph-name="Adieresis" unicode="&#xc4;" horiz-adv-x="568" d="M400 785 C400 836 320 836 320 785 C320 733 400 733 400 785 L400 785 Z M226 785 C226 836 146 836 146 785 C146 733 226 733 226 785 L226 785 Z M318 0 L563 0 L563 15 C524 15 496 32 480 71 L282 691 L264 691 C207 488 151 284 93 81 C82 42 49 16 11 16 L0 16 L0 1 L205 1 L205 16 L179 16 C131 16 108 48 121 96 L121 96 L161 242 L353 242 C369 188 386 134 401 81 C413 42 395 16 356 16 L319 16 L318 0 L318 0 Z M348 260 L166 261 L253 581 L348 260 L348 260 Z " />
<glyph glyph-name="Aring" unicode="&#xc5;" horiz-adv-x="568" d="M196 803 C196 850 227 881 273 881 C319 881 350 850 350 803 C350 760 315 724 273 724 C231 724 196 760 196 803 L196 803 Z M178 803 C178 753 222 710 273 710 C324 710 368 753 368 803 C368 858 330 895 273 895 C216 895 178 858 178 803 L178 803 Z M318 0 L563 0 L563 15 C524 15 496 32 480 71 L282 691 L264 691 C207 488 151 284 93 81 C82 42 49 16 11 16 L0 16 L0 1 L205 1 L205 16 L179 16 C131 16 108 48 121 96 L121 96 L161 242 L353 242 C369 188 386 134 401 81 C413 42 395 16 356 16 L319 16 L318 0 L318 0 Z M348 260 L166 261 L253 581 L348 260 L348 260 Z " />
<glyph glyph-name="Ccedilla" unicode="&#xc7;" horiz-adv-x="633" d="M327 -93 C338 -84 350 -78 357 -78 C374 -78 386 -100 386 -134 C386 -174 369 -201 344 -201 C322 -201 302 -196 294 -189 L291 -197 C307 -211 333 -220 357 -220 C398 -220 426 -186 426 -134 C426 -73 375 -47 331 -79 L327 -93 L327 -93 Z M560 197 C556 186 551 170 547 159 C518 74 442 16 357 14 C224 11 137 141 137 338 C137 532 223 662 351 662 C367 662 384 661 401 658 C464 645 521 589 546 515 C550 504 555 488 559 477 L572 477 L572 618 L568 610 C568 612 571 615 572 618 C509 655 420 679 350 679 C174 679 56 542 56 337 C56 133 171 -3 344 -6 C341 -16 332 -48 320 -94 L325 -95 C341 -32 354 -12 360 -6 C428 -4 511 19 571 54 L567 62 C568 62 571 55 572 54 L572 195 L560 197 L560 197 Z " />
<glyph glyph-name="Egrave" unicode="&#xc8;" horiz-adv-x="536" d="M166 887 C166 881 182 861 207 834 C239 794 321 706 321 706 L328 711 C328 711 272 819 240 859 C221 891 207 913 203 913 C192 913 166 895 166 887 L166 887 Z M356 266 L356 444 L344 444 L340 433 C328 395 287 369 236 369 L187 369 L187 657 L265 657 C325 657 378 617 398 557 L409 522 L420 522 L420 675 L40 675 L40 660 L51 660 C89 660 115 634 115 595 L115 80 C115 41 89 15 51 15 L40 15 L40 0 L425 0 L427 9 L425 9 C433 52 443 110 451 153 L440 153 L423 118 C393 58 333 18 273 18 L187 18 L187 351 L236 351 C287 351 328 322 340 279 L344 266 L356 266 L356 266 Z " />
<glyph glyph-name="Eacute" unicode="&#xc9;" horiz-adv-x="536" d="M233 706 C233 706 313 794 344 834 C368 862 384 883 384 887 C384 895 358 913 347 913 C344 913 330 891 311 859 C280 819 226 711 226 711 L233 706 L233 706 Z M356 266 L356 444 L344 444 L340 433 C328 395 287 369 236 369 L187 369 L187 657 L265 657 C325 657 378 617 398 557 L409 522 L420 522 L420 675 L40 675 L40 660 L51 660 C89 660 115 634 115 595 L115 80 C115 41 89 15 51 15 L40 15 L40 0 L425 0 L427 9 L425 9 C433 52 443 110 451 153 L440 153 L423 118 C393 58 333 18 273 18 L187 18 L187 351 L236 351 C287 351 328 322 340 279 L344 266 L356 266 L356 266 Z " />
<glyph glyph-name="Ecircumflex" unicode="&#xca;" horiz-adv-x="536" d="M285 901 C283 907 275 920 264 920 C252 920 245 907 243 902 C243 902 139 687 161 713 L168 708 C197 743 238 807 263 847 C299 790 360 709 360 709 L367 714 C367 714 348 773 285 902 L285 901 L285 901 Z M356 267 L356 445 L344 445 L340 434 C328 396 287 370 236 370 L187 370 L187 658 L265 658 C325 658 378 618 398 558 L409 523 L420 523 L420 676 L40 676 L40 661 L51 661 C89 661 115 635 115 596 L115 81 C115 42 89 16 51 16 L40 16 L40 1 L425 1 L427 10 L425 10 C433 53 443 111 451 154 L440 154 L423 119 C393 59 333 19 273 19 L187 19 L187 352 L236 352 C287 352 328 323 340 280 L344 267 L356 267 L356 267 Z " />
<glyph glyph-name="Edieresis" unicode="&#xcb;" horiz-adv-x="536" d="M391 785 C391 836 311 836 311 785 C311 733 391 733 391 785 L391 785 Z M217 785 C217 836 137 836 137 785 C137 733 217 733 217 785 L217 785 Z M356 266 L356 444 L344 444 L340 433 C328 395 287 369 236 369 L187 369 L187 657 L265 657 C325 657 378 617 398 557 L409 522 L420 522 L420 675 L40 675 L40 660 L51 660 C89 660 115 634 115 595 L115 80 C115 41 89 15 51 15 L40 15 L40 0 L425 0 L427 9 L425 9 C433 52 443 110 451 153 L440 153 L423 118 C393 58 333 18 273 18 L187 18 L187 351 L236 351 C287 351 328 322 340 279 L344 266 L356 266 L356 266 Z " />
<glyph glyph-name="Igrave" unicode="&#xcc;" horiz-adv-x="302" d="M69 887 C69 881 85 861 110 834 C142 794 224 706 224 706 L231 711 C231 711 175 819 143 859 C124 891 110 913 106 913 C95 913 69 895 69 887 L69 887 Z M262 15 L251 15 C213 15 187 41 187 80 L187 595 C187 634 213 660 251 660 L262 660 L262 675 L40 675 L40 660 L51 660 C89 660 115 634 115 595 L115 80 C115 41 89 15 51 15 L40 15 L40 0 L262 0 L262 15 L262 15 Z " />
<glyph glyph-name="Iacute" unicode="&#xcd;" horiz-adv-x="302" d="M90 706 C90 706 170 794 201 834 C225 862 241 883 241 887 C241 895 215 913 204 913 C201 913 187 891 168 859 C137 819 83 711 83 711 L90 706 L90 706 Z M262 15 L251 15 C213 15 187 41 187 80 L187 595 C187 634 213 660 251 660 L262 660 L262 675 L40 675 L40 660 L51 660 C89 660 115 634 115 595 L115 80 C115 41 89 15 51 15 L40 15 L40 0 L262 0 L262 15 L262 15 Z " />
<glyph glyph-name="Icircumflex" unicode="&#xce;" horiz-adv-x="302" d="M172 901 C170 907 162 920 151 920 C139 920 132 907 130 902 C130 902 26 687 48 713 L55 708 C84 743 125 807 150 847 C186 790 247 709 247 709 L254 714 C254 714 235 773 172 902 L172 901 L172 901 Z M262 16 L251 16 C213 16 187 42 187 81 L187 596 C187 635 213 661 251 661 L262 661 L262 676 L40 676 L40 661 L51 661 C89 661 115 635 115 596 L115 81 C115 42 89 16 51 16 L40 16 L40 1 L262 1 L262 16 L262 16 Z " />
<glyph glyph-name="Idieresis" unicode="&#xcf;" horiz-adv-x="302" d="M278 785 C278 836 198 836 198 785 C198 733 278 733 278 785 L278 785 Z M104 785 C104 836 24 836 24 785 C24 733 104 733 104 785 L104 785 Z M262 15 L251 15 C213 15 187 41 187 80 L187 595 C187 634 213 660 251 660 L262 660 L262 675 L40 675 L40 660 L51 660 C89 660 115 634 115 595 L115 80 C115 41 89 15 51 15 L40 15 L40 0 L262 0 L262 15 L262 15 Z " />
<glyph glyph-name="Ntilde" unicode="&#xd1;" horiz-adv-x="625" d="M229 770 C229 808 239 834 253 834 C284 834 325 772 356 772 C388 772 409 813 409 875 L398 875 C398 839 387 815 371 815 C340 815 298 877 267 877 C238 877 218 834 218 770 L229 770 L229 770 Z M42 660 L53 660 C91 660 117 634 117 595 L117 80 C117 41 91 15 53 15 L42 15 L42 0 L213 0 L213 15 L202 15 C164 15 138 41 138 80 L138 605 C252 399 365 192 480 -14 L510 -14 L510 595 C510 634 536 660 574 660 L585 660 L585 675 L414 675 L414 660 L425 660 C463 660 489 634 489 595 L489 111 L181 675 L42 675 L42 660 L42 660 Z " />
<glyph glyph-name="Ograve" unicode="&#xd2;" horiz-adv-x="678" d="M137 338 C137 513 207 662 343 662 C478 662 548 513 548 338 C548 163 478 13 343 13 C207 13 137 163 137 338 L137 338 Z M57 338 C57 153 154 -5 343 -5 C531 -5 628 153 628 338 C628 523 531 680 343 680 C154 680 57 523 57 338 L57 338 Z M260 887 C260 882 277 861 302 834 C334 793 417 706 417 706 L424 711 C424 711 367 818 335 859 C316 891 302 913 298 913 C287 913 260 895 260 887 L260 887 Z " />
<glyph glyph-name="Oacute" unicode="&#xd3;" horiz-adv-x="678" d="M318 706 C318 706 399 794 430 834 C454 862 470 882 470 887 C470 895 444 913 433 913 C430 913 416 891 397 859 C366 819 311 711 311 711 L318 706 L318 706 Z M137 338 C137 513 207 662 343 662 C478 662 548 513 548 338 C548 163 478 13 343 13 C207 13 137 163 137 338 L137 338 Z M57 338 C57 153 154 -5 343 -5 C531 -5 628 153 628 338 C628 523 531 680 343 680 C154 680 57 523 57 338 L57 338 Z " />
<glyph glyph-name="Ocircumflex" unicode="&#xd4;" horiz-adv-x="678" d="M137 338 C137 513 207 662 343 662 C478 662 548 513 548 338 C548 163 478 13 343 13 C207 13 137 163 137 338 L137 338 Z M57 338 C57 153 154 -5 343 -5 C531 -5 628 153 628 338 C628 523 531 680 343 680 C154 680 57 523 57 338 L57 338 Z M363 901 C361 907 354 920 343 920 C331 920 324 907 322 902 C322 902 218 687 240 713 L246 708 C275 743 317 807 342 847 C378 790 440 708 440 708 L446 713 C446 713 427 772 364 901 L363 901 L363 901 Z " />
<glyph glyph-name="Otilde" unicode="&#xd5;" horiz-adv-x="678" d="M258 770 C258 808 268 834 282 834 C313 834 354 772 385 772 C417 772 438 813 438 875 L427 875 C427 839 416 815 400 815 C369 815 327 877 296 877 C267 877 247 834 247 770 L258 770 L258 770 Z M137 338 C137 513 207 662 343 662 C478 662 548 513 548 338 C548 163 478 13 343 13 C207 13 137 163 137 338 L137 338 Z M57 338 C57 153 154 -5 343 -5 C531 -5 628 153 628 338 C628 523 531 680 343 680 C154 680 57 523 57 338 L57 338 Z " />
<glyph glyph-name="Odieresis" unicode="&#xd6;" horiz-adv-x="678" d="M469 785 C469 836 390 837 390 786 C390 733 469 734 469 786 L469 785 L469 785 Z M295 786 C295 837 216 836 216 786 C216 734 295 733 295 786 L295 786 Z M137 339 C137 514 207 663 343 663 C478 663 548 514 548 339 C548 164 478 14 343 14 C207 14 137 164 137 339 L137 339 Z M57 339 C57 154 154 -4 343 -4 C531 -4 628 154 628 339 C628 524 531 681 343 681 C154 681 57 524 57 339 L57 339 Z " />
<glyph glyph-name="Oslash" unicode="&#xd8;" horiz-adv-x="678" d="M69 -15 L146 77 C193 26 259 -5 343 -5 C531 -5 628 153 628 338 C628 428 605 511 560 573 L640 669 L616 689 L539 597 C492 648 426 679 342 679 C153 679 56 522 56 337 C56 247 79 163 125 101 L44 4 L69 -15 L69 -15 Z M502 553 L168 152 C147 205 136 269 136 337 C136 512 206 661 342 661 C414 661 467 619 501 553 L502 553 L502 553 Z M515 521 C536 468 546 404 546 336 C546 161 476 11 341 11 C269 11 215 53 181 119 L515 521 L515 521 Z " />
<glyph glyph-name="Ugrave" unicode="&#xd9;" horiz-adv-x="603" d="M223 887 C223 881 239 861 264 834 C296 794 378 706 378 706 L385 711 C385 711 329 819 297 859 C278 891 264 913 260 913 C249 913 223 895 223 887 L223 887 Z M583 675 L387 675 L387 660 L402 660 C445 660 474 633 476 591 L475 188 C475 87 431 20 319 20 C221 20 183 91 183 197 L183 595 C183 634 209 660 247 660 L258 660 L258 675 L36 675 L36 660 L47 660 C85 660 111 634 111 595 L111 211 C111 81 166 -5 308 -5 C444 -5 497 69 497 180 L497 585 C497 630 526 660 569 660 L582 660 L583 675 L583 675 Z " />
<glyph glyph-name="Uacute" unicode="&#xda;" horiz-adv-x="603" d="M304 706 C304 706 384 794 415 834 C439 862 455 883 455 887 C455 895 429 913 418 913 C415 913 401 891 382 859 C351 819 297 711 297 711 L304 706 L304 706 Z M583 675 L387 675 L387 660 L402 660 C445 660 474 633 476 591 L475 188 C475 87 431 20 319 20 C221 20 183 91 183 197 L183 595 C183 634 209 660 247 660 L258 660 L258 675 L36 675 L36 660 L47 660 C85 660 111 634 111 595 L111 211 C111 81 166 -5 308 -5 C444 -5 497 69 497 180 L497 585 C497 630 526 660 569 660 L582 660 L583 675 L583 675 Z " />
<glyph glyph-name="Ucircumflex" unicode="&#xdb;" horiz-adv-x="603" d="M326 901 C324 907 316 920 305 920 C293 920 286 907 284 902 C284 902 180 687 202 713 L209 708 C238 743 279 807 304 847 C340 790 401 709 401 709 L408 714 C408 714 389 773 326 902 L326 901 L326 901 Z M583 676 L387 676 L387 661 L402 661 C445 661 474 634 476 592 L475 189 C475 88 431 21 319 21 C221 21 183 92 183 198 L183 596 C183 635 209 661 247 661 L258 661 L258 676 L36 676 L36 661 L47 661 C85 661 111 635 111 596 L111 212 C111 82 166 -4 308 -4 C444 -4 497 70 497 181 L497 586 C497 631 526 661 569 661 L582 661 L583 676 L583 676 Z " />
<glyph glyph-name="Udieresis" unicode="&#xdc;" horiz-adv-x="603" d="M432 785 C432 836 352 836 352 785 C352 733 432 733 432 785 L432 785 Z M258 785 C258 836 178 836 178 785 C178 733 258 733 258 785 L258 785 Z M583 675 L387 675 L387 660 L402 660 C445 660 474 633 476 591 L475 188 C475 87 431 20 319 20 C221 20 183 91 183 197 L183 595 C183 634 209 660 247 660 L258 660 L258 675 L36 675 L36 660 L47 660 C85 660 111 634 111 595 L111 211 C111 81 166 -5 308 -5 C444 -5 497 69 497 180 L497 585 C497 630 526 660 569 660 L582 660 L583 675 L583 675 Z " />
<glyph glyph-name="Yacute" unicode="&#xdd;" horiz-adv-x="536" d="M271 706 C271 706 351 794 382 834 C406 862 422 883 422 887 C422 895 396 913 385 913 C382 913 368 891 349 859 C318 819 264 711 264 711 L271 706 L271 706 Z M161 0 L383 0 L383 15 L372 15 C334 15 308 41 308 80 L308 315 C353 408 397 502 443 595 C465 639 497 660 539 660 L539 675 L350 675 L350 660 L368 660 C416 660 435 630 417 584 L292 321 L182 596 C167 634 182 661 222 661 L241 661 L241 676 L16 676 L16 661 C52 661 80 640 99 596 L99 596 L237 282 L237 81 C237 42 211 16 173 16 L162 16 L161 0 L161 0 Z " />
<glyph glyph-name="agrave" unicode="&#xe0;" horiz-adv-x="408" d="M386 39 C375 28 361 21 336 21 C306 21 297 45 297 82 L297 358 C297 446 259 505 203 505 C130 505 74 464 62 402 L127 402 C137 453 162 487 189 487 C213 487 229 441 229 372 C229 372 229 327 229 252 C210 248 187 243 166 238 C89 219 37 164 37 102 C37 38 69 -5 118 -5 C149 -5 190 19 229 57 C232 16 248 -10 291 -10 C340 -10 370 6 394 30 L386 39 L386 39 Z M97 712 C97 707 114 686 139 659 C171 618 254 531 254 531 L261 536 C261 536 204 643 172 684 C153 716 139 738 135 738 C124 738 97 720 97 712 L97 712 Z M228 234 C228 188 227 131 228 70 C202 50 173 38 148 38 C119 38 100 70 100 119 C100 167 126 206 166 216 C192 222 213 227 229 231 L228 234 L228 234 Z " />
<glyph glyph-name="aacute" unicode="&#xe1;" horiz-adv-x="408" d="M148 531 C148 531 229 619 260 659 C284 687 300 707 300 712 C300 720 274 738 263 738 C260 738 246 716 227 684 C196 644 141 536 141 536 L148 531 L148 531 Z M386 39 C375 28 361 21 336 21 C306 21 297 45 297 82 L297 358 C297 446 259 505 203 505 C130 505 74 464 62 402 L127 402 C137 453 162 487 189 487 C213 487 229 441 229 372 C229 372 229 327 229 252 C210 248 187 243 166 238 C89 219 37 164 37 102 C37 38 69 -5 118 -5 C149 -5 190 19 229 57 C232 16 248 -10 291 -10 C340 -10 370 6 394 30 L386 39 L386 39 Z M228 234 C228 188 227 131 228 70 C202 50 173 38 148 38 C119 38 100 70 100 119 C100 167 126 206 166 216 C192 222 213 227 229 231 L228 234 L228 234 Z " />
<glyph glyph-name="acircumflex" unicode="&#xe2;" horiz-adv-x="408" d="M386 39 C375 28 361 21 336 21 C306 21 297 45 297 82 L297 358 C297 446 259 505 203 505 C130 505 74 464 62 402 L127 402 C137 453 162 487 189 487 C213 487 229 441 229 372 C229 372 229 327 229 252 C210 248 187 243 166 238 C89 219 37 164 37 102 C37 38 69 -5 118 -5 C149 -5 190 19 229 57 C232 16 248 -10 291 -10 C340 -10 370 6 394 30 L386 39 L386 39 Z M200 726 C198 732 191 745 180 745 C168 745 161 732 159 727 C159 727 55 512 77 538 L83 533 C112 568 154 632 179 672 C215 615 277 533 277 533 L283 538 C283 538 264 597 201 726 L200 726 L200 726 Z M229 234 C229 188 228 131 229 70 C203 50 174 38 149 38 C120 38 101 70 101 119 C101 167 127 206 167 216 C193 222 214 227 230 231 L229 234 L229 234 Z " />
<glyph glyph-name="atilde" unicode="&#xe3;" horiz-adv-x="408" d="M95 595 C95 633 105 659 119 659 C150 659 191 597 222 597 C254 597 275 638 275 700 L264 700 C264 664 253 640 237 640 C206 640 164 702 133 702 C104 702 84 659 84 595 L95 595 L95 595 Z M386 39 C375 28 361 21 336 21 C306 21 297 45 297 82 L297 358 C297 446 259 505 203 505 C130 505 74 464 62 402 L127 402 C137 453 162 487 189 487 C213 487 229 441 229 372 C229 372 229 327 229 252 C210 248 187 243 166 238 C89 219 37 164 37 102 C37 38 69 -5 118 -5 C149 -5 190 19 229 57 C232 16 248 -10 291 -10 C340 -10 370 6 394 30 L386 39 L386 39 Z M228 234 C228 188 227 131 228 70 C202 50 173 38 148 38 C119 38 100 70 100 119 C100 167 126 206 166 216 C192 222 213 227 229 231 L228 234 L228 234 Z " />
<glyph glyph-name="adieresis" unicode="&#xe4;" horiz-adv-x="408" d="M306 610 C306 661 227 662 227 611 C227 558 306 559 306 611 L306 610 L306 610 Z M132 611 C132 662 53 661 53 611 C53 559 132 558 132 611 L132 611 Z M386 40 C375 29 361 22 336 22 C306 22 297 46 297 83 L297 359 C297 447 259 506 203 506 C130 506 74 465 62 403 L127 403 C137 454 162 488 189 488 C213 488 229 442 229 373 C229 373 229 328 229 253 C210 249 187 244 166 239 C89 220 37 165 37 103 C37 39 69 -4 118 -4 C149 -4 190 20 229 58 C232 17 248 -9 291 -9 C340 -9 370 7 394 31 L386 40 L386 40 Z M228 235 C228 189 227 132 228 71 C202 51 173 39 148 39 C119 39 100 71 100 120 C100 168 126 207 166 217 C192 223 213 228 229 232 L228 235 L228 235 Z " />
<glyph glyph-name="aring" unicode="&#xe5;" horiz-adv-x="408" d="M103 628 C103 675 134 706 180 706 C226 706 256 675 256 628 C256 585 221 549 180 549 C138 549 103 585 103 628 L103 628 Z M85 628 C85 578 129 535 180 535 C231 535 274 578 274 628 C274 683 236 720 180 720 C123 720 85 683 85 628 L85 628 Z M386 39 C375 28 361 21 336 21 C306 21 297 45 297 82 L297 358 C297 446 259 505 203 505 C130 505 74 464 62 402 L127 402 C137 453 162 487 189 487 C213 487 229 441 229 372 C229 372 229 327 229 252 C210 248 187 243 166 238 C89 219 37 164 37 102 C37 38 69 -5 118 -5 C149 -5 190 19 229 57 C232 16 248 -10 291 -10 C340 -10 370 6 394 30 L386 39 L386 39 Z M228 234 C228 188 227 131 228 70 C202 50 173 38 148 38 C119 38 100 70 100 119 C100 167 126 206 166 216 C192 222 213 227 229 231 L228 234 L228 234 Z " />
<glyph glyph-name="ccedilla" unicode="&#xe7;" horiz-adv-x="405" d="M178 -93 C189 -84 201 -78 208 -78 C225 -78 237 -100 237 -134 C237 -174 220 -201 195 -201 C173 -201 153 -196 145 -189 L142 -197 C158 -211 184 -220 208 -220 C249 -220 277 -186 277 -134 C277 -73 226 -47 182 -79 L178 -93 L178 -93 Z M178 -93 C195 -30 208 -11 214 -5 C263 -2 318 19 354 50 L347 57 C331 43 294 34 256 34 C174 34 119 124 119 259 C119 396 165 487 233 487 C265 487 289 454 293 404 C295 385 308 372 326 372 C343 372 355 384 355 401 C350 463 304 505 241 505 C126 505 50 397 50 234 C50 94 108 -1 196 -5 C193 -14 184 -46 172 -92 L178 -93 L178 -93 Z " />
<glyph glyph-name="egrave" unicode="&#xe8;" horiz-adv-x="411" d="M301 372 L301 373 L300 320 L361 320 C361 430 306 504 223 504 C119 504 50 396 50 233 C50 90 112 -6 205 -6 C259 -6 321 16 360 49 L353 56 C337 42 299 33 259 33 C175 33 119 123 119 258 C119 280 120 301 122 320 L300 320 L300 344 L301 371 C300 355 289 343 272 341 L124 331 C136 426 171 485 219 485 C268 485 301 440 301 373 C301 372 301 371 301 370 L301 372 L301 372 Z M141 710 C141 704 157 684 182 657 C214 617 296 529 296 529 L303 534 C303 534 247 642 215 682 C196 714 182 736 178 736 C167 736 141 718 141 710 L141 710 Z " />
<glyph glyph-name="eacute" unicode="&#xe9;" horiz-adv-x="411" d="M192 531 C192 531 272 619 303 659 C327 687 343 708 343 712 C343 720 317 738 306 738 C303 738 289 716 270 684 C239 644 185 536 185 536 L192 531 L192 531 Z M301 372 L301 373 L300 320 L361 320 C361 430 306 504 223 504 C119 504 50 396 50 233 C50 90 112 -6 205 -6 C259 -6 321 16 360 49 L353 56 C337 42 299 33 259 33 C175 33 119 123 119 258 C119 280 120 301 122 320 L300 320 L300 344 L301 371 C300 355 289 343 272 341 L124 331 C136 426 171 485 219 485 C268 485 301 440 301 373 C301 372 301 371 301 370 L301 372 L301 372 Z " />
<glyph glyph-name="ecircumflex" unicode="&#xea;" horiz-adv-x="411" d="M301 372 L301 373 L300 320 L361 320 C361 430 306 504 223 504 C119 504 50 396 50 233 C50 90 112 -6 205 -6 C259 -6 321 16 360 49 L353 56 C337 42 299 33 259 33 C175 33 119 123 119 258 C119 280 120 301 122 320 L300 320 L300 344 L301 371 C300 355 289 343 272 341 L124 331 C136 426 171 485 219 485 C268 485 301 440 301 373 C301 372 301 371 301 370 L301 372 L301 372 Z M244 724 C242 730 234 743 223 743 C211 743 204 730 202 725 C202 725 98 510 120 536 L127 531 C156 566 197 630 222 670 C258 613 319 532 319 532 L326 537 C326 537 307 596 244 725 L244 724 L244 724 Z " />
<glyph glyph-name="edieresis" unicode="&#xeb;" horiz-adv-x="411" d="M350 610 C350 661 270 661 270 610 C270 558 350 558 350 610 L350 610 Z M176 610 C176 661 96 661 96 610 C96 558 176 558 176 610 L176 610 Z M301 372 L301 373 L300 320 L361 320 C361 430 306 504 223 504 C119 504 50 396 50 233 C50 90 112 -6 205 -6 C259 -6 321 16 360 49 L353 56 C337 42 299 33 259 33 C175 33 119 123 119 258 C119 280 120 301 122 320 L300 320 L300 344 L301 371 C300 355 289 343 272 341 L124 331 C136 426 171 485 219 485 C268 485 301 440 301 373 C301 372 301 371 301 370 L301 372 L301 372 Z " />
<glyph glyph-name="igrave" unicode="&#xec;" horiz-adv-x="305" d="M71 712 C71 706 87 686 112 659 C144 619 226 531 226 531 L233 536 C233 536 177 644 145 684 C126 716 112 738 108 738 C97 738 71 720 71 712 L71 712 Z M260 15 L249 15 C211 15 185 41 185 80 L185 500 L172 500 L45 462 L45 453 L56 451 C110 440 120 427 120 373 L120 80 C120 41 94 15 56 15 L45 15 L45 0 L260 0 L260 15 L260 15 Z " />
<glyph glyph-name="iacute" unicode="&#xed;" horiz-adv-x="305" d="M77 531 C77 531 157 619 188 659 C212 687 228 708 228 712 C228 720 202 738 191 738 C188 738 174 716 155 684 C124 644 70 536 70 536 L77 531 L77 531 Z M260 15 L249 15 C211 15 185 41 185 80 L185 500 L172 500 L45 462 L45 453 L56 451 C110 440 120 427 120 373 L120 80 C120 41 94 15 56 15 L45 15 L45 0 L260 0 L260 15 L260 15 Z " />
<glyph glyph-name="icircumflex" unicode="&#xee;" horiz-adv-x="305" d="M174 726 C172 732 164 745 153 745 C141 745 134 732 132 727 C132 727 28 512 50 538 L57 533 C86 568 127 632 152 672 C188 615 249 534 249 534 L256 539 C256 539 237 598 174 727 L174 726 L174 726 Z M260 16 L249 16 C211 16 185 42 185 81 L185 501 L172 501 L45 463 L45 454 L56 452 C110 441 120 428 120 374 L120 81 C120 42 94 16 56 16 L45 16 L45 1 L260 1 L260 16 L260 16 Z " />
<glyph glyph-name="idieresis" unicode="&#xef;" horiz-adv-x="305" d="M280 610 C280 661 200 661 200 610 C200 558 280 558 280 610 L280 610 Z M106 610 C106 661 26 661 26 610 C26 558 106 558 106 610 L106 610 Z M260 15 L249 15 C211 15 185 41 185 80 L185 500 L172 500 L45 462 L45 453 L56 451 C110 440 120 427 120 373 L120 80 C120 41 94 15 56 15 L45 15 L45 0 L260 0 L260 15 L260 15 Z " />
<glyph glyph-name="ntilde" unicode="&#xf1;" horiz-adv-x="543" d="M190 595 C190 633 199 659 213 659 C244 659 286 597 317 597 C348 597 369 638 369 700 L358 700 C358 664 348 640 332 640 C301 640 259 702 227 702 C198 702 179 659 179 595 L190 595 L190 595 Z M288 0 L503 0 L503 15 L492 15 C454 15 428 41 428 80 L428 337 C428 438 402 505 336 505 C319 505 259 480 185 441 L185 500 L172 500 L45 462 L45 453 L56 451 C110 440 120 427 120 373 L120 80 C120 41 94 15 56 15 L45 15 L45 0 L260 0 L260 15 L249 15 C211 15 185 41 185 80 L185 434 C219 451 258 461 285 461 C341 461 363 409 363 330 L363 80 C363 41 337 15 299 15 L288 15 L288 0 L288 0 Z " />
<glyph glyph-name="ograve" unicode="&#xf2;" horiz-adv-x="512" d="M122 250 C122 395 176 491 256 491 C336 491 390 395 390 250 C390 105 336 9 256 9 C176 9 122 105 122 250 L122 250 Z M50 250 C50 97 132 -5 256 -5 C380 -5 462 97 462 250 C462 403 380 505 256 505 C132 505 50 403 50 250 L50 250 Z M174 712 C174 706 190 686 215 659 C247 619 329 531 329 531 L336 536 C336 536 280 644 248 684 C229 716 215 738 211 738 C200 738 174 720 174 712 L174 712 Z " />
<glyph glyph-name="oacute" unicode="&#xf3;" horiz-adv-x="512" d="M225 531 C225 531 305 619 336 659 C360 687 376 708 376 712 C376 720 350 738 339 738 C336 738 322 716 303 684 C272 644 218 536 218 536 L225 531 L225 531 Z M122 250 C122 395 176 491 256 491 C336 491 390 395 390 250 C390 105 336 9 256 9 C176 9 122 105 122 250 L122 250 Z M50 250 C50 97 132 -5 256 -5 C380 -5 462 97 462 250 C462 403 380 505 256 505 C132 505 50 403 50 250 L50 250 Z " />
<glyph glyph-name="ocircumflex" unicode="&#xf4;" horiz-adv-x="512" d="M122 250 C122 395 176 491 256 491 C336 491 390 395 390 250 C390 105 336 9 256 9 C176 9 122 105 122 250 L122 250 Z M50 250 C50 97 132 -5 256 -5 C380 -5 462 97 462 250 C462 403 380 505 256 505 C132 505 50 403 50 250 L50 250 Z M277 726 C275 732 267 745 256 745 C244 745 237 732 235 727 C235 727 131 512 153 538 L160 533 C189 568 230 632 255 672 C291 615 352 534 352 534 L359 539 C359 539 340 598 277 727 L277 726 L277 726 Z " />
<glyph glyph-name="otilde" unicode="&#xf5;" horiz-adv-x="512" d="M172 595 C172 633 181 659 195 659 C226 659 268 597 299 597 C330 597 351 638 351 700 L340 700 C340 664 330 640 314 640 C283 640 241 702 209 702 C180 702 161 659 161 595 L172 595 L172 595 Z M122 250 C122 395 176 491 256 491 C336 491 390 395 390 250 C390 105 336 9 256 9 C176 9 122 105 122 250 L122 250 Z M50 250 C50 97 132 -5 256 -5 C380 -5 462 97 462 250 C462 403 380 505 256 505 C132 505 50 403 50 250 L50 250 Z " />
<glyph glyph-name="odieresis" unicode="&#xf6;" horiz-adv-x="512" d="M383 610 C383 661 303 661 303 610 C303 558 383 558 383 610 L383 610 Z M209 610 C209 661 129 661 129 610 C129 558 209 558 209 610 L209 610 Z M122 250 C122 395 176 491 256 491 C336 491 390 395 390 250 C390 105 336 9 256 9 C176 9 122 105 122 250 L122 250 Z M50 250 C50 97 132 -5 256 -5 C380 -5 462 97 462 250 C462 403 380 505 256 505 C132 505 50 403 50 250 L50 250 Z " />
<glyph glyph-name="oslash" unicode="&#xf8;" horiz-adv-x="512" d="M58 -12 L114 57 C150 18 199 -4 257 -4 C381 -4 463 98 463 251 C463 323 445 384 413 428 L471 500 L455 514 L399 445 C363 484 314 506 256 506 C132 506 50 404 50 251 C50 179 68 118 100 74 L42 2 L58 -12 L58 -12 Z M364 401 L139 122 C128 158 122 201 122 250 C122 395 176 491 256 491 C303 491 341 458 364 401 L364 401 Z M372 378 C383 342 389 299 389 250 C389 105 335 9 255 9 C208 9 170 42 147 99 L372 378 L372 378 Z " />
<glyph glyph-name="ugrave" unicode="&#xf9;" horiz-adv-x="508" d="M162 712 C162 706 178 686 203 659 C235 619 317 531 317 531 L324 536 C324 536 268 644 236 684 C217 716 203 738 199 738 C188 738 162 720 162 712 L162 712 Z M15 485 L26 485 C64 485 90 459 90 420 L90 155 C90 59 128 -5 201 -5 C249 -5 294 20 333 57 L333 1 L346 1 L473 39 L473 48 L462 50 C408 61 398 74 398 128 L398 501 L258 501 L258 486 L269 486 C307 486 333 460 333 421 L333 67 C314 50 288 39 252 39 C187 39 154 89 154 163 L155 501 L15 501 L15 485 L15 485 Z " />
<glyph glyph-name="uacute" unicode="&#xfa;" horiz-adv-x="508" d="M213 531 C213 531 293 619 324 659 C348 687 364 708 364 712 C364 720 338 738 327 738 C324 738 310 716 291 684 C260 644 206 536 206 536 L213 531 L213 531 Z M15 485 L26 485 C64 485 90 459 90 420 L90 155 C90 59 128 -5 201 -5 C249 -5 294 20 333 57 L333 1 L346 1 L473 39 L473 48 L462 50 C408 61 398 74 398 128 L398 501 L258 501 L258 486 L269 486 C307 486 333 460 333 421 L333 67 C314 50 288 39 252 39 C187 39 154 89 154 163 L155 501 L15 501 L15 485 L15 485 Z " />
<glyph glyph-name="ucircumflex" unicode="&#xfb;" horiz-adv-x="508" d="M265 726 C263 732 255 745 244 745 C232 745 225 732 223 727 C223 727 119 512 141 538 L148 533 C177 568 218 632 243 672 C279 615 340 534 340 534 L347 539 C347 539 328 598 265 727 L265 726 L265 726 Z M15 486 L26 486 C64 486 90 460 90 421 L90 156 C90 60 128 -4 201 -4 C249 -4 294 21 333 58 L333 2 L346 2 L473 40 L473 49 L462 51 C408 62 398 75 398 129 L398 502 L258 502 L258 487 L269 487 C307 487 333 461 333 422 L333 68 C314 51 288 40 252 40 C187 40 154 90 154 164 L155 502 L15 502 L15 486 L15 486 Z " />
<glyph glyph-name="udieresis" unicode="&#xfc;" horiz-adv-x="508" d="M371 610 C371 661 291 661 291 610 C291 558 371 558 371 610 L371 610 Z M197 610 C197 661 117 661 117 610 C117 558 197 558 197 610 L197 610 Z M15 485 L26 485 C64 485 90 459 90 420 L90 155 C90 59 128 -5 201 -5 C249 -5 294 20 333 57 L333 1 L346 1 L473 39 L473 48 L462 50 C408 61 398 74 398 128 L398 501 L258 501 L258 486 L269 486 C307 486 333 460 333 421 L333 67 C314 50 288 39 252 39 C187 39 154 89 154 163 L155 501 L15 501 L15 485 L15 485 Z " />
<glyph glyph-name="ydieresis" unicode="&#xff;" horiz-adv-x="408" d="M358 610 C358 661 278 661 278 610 C278 558 358 558 358 610 L358 610 Z M184 610 C184 661 104 661 104 610 C104 558 184 558 184 610 L184 610 Z M465 500 L299 500 L299 485 L310 485 C344 485 360 462 352 426 L253 84 L161 428 C155 463 172 486 206 486 L217 486 L217 501 L-3 501 L-3 486 L8 486 C45 486 78 462 91 425 L223 1 C219 -11 211 -34 201 -65 C174 -152 154 -186 130 -186 C130 -186 88 -162 70 -162 C51 -162 38 -173 38 -189 C38 -213 59 -229 90 -229 C147 -229 183 -185 218 -71 C231 -33 237 -9 237 -9 L372 427 C386 463 418 486 454 486 L465 486 L465 500 L465 500 Z " />
<glyph glyph-name="Amacron" unicode="&#x100;" horiz-adv-x="568" d="M164 783 L382 783 L382 819 L164 819 L164 783 L164 783 Z M318 0 L563 0 L563 15 C524 15 496 32 480 71 L282 691 L264 691 C207 488 151 284 93 81 C82 42 49 16 11 16 L0 16 L0 1 L205 1 L205 16 L179 16 C131 16 108 48 121 96 L121 96 L161 242 L353 242 C369 188 386 134 401 81 C413 42 395 16 356 16 L319 16 L318 0 L318 0 Z M348 260 L166 261 L253 581 L348 260 L348 260 Z " />
<glyph glyph-name="amacron" unicode="&#x101;" horiz-adv-x="408" d="M70 608 L289 608 L289 644 L70 644 L70 608 L70 608 Z M386 39 C375 28 361 21 336 21 C306 21 297 45 297 82 L297 358 C297 446 259 505 203 505 C130 505 74 464 62 402 L127 402 C137 453 162 487 189 487 C213 487 229 441 229 372 C229 372 229 327 229 252 C210 248 187 243 166 238 C89 219 37 164 37 102 C37 38 69 -5 118 -5 C149 -5 190 19 229 57 C232 16 248 -10 291 -10 C340 -10 370 6 394 30 L386 39 L386 39 Z M228 234 C228 188 227 131 228 70 C202 50 173 38 148 38 C119 38 100 70 100 119 C100 167 126 206 166 216 C192 222 213 227 229 231 L228 234 L228 234 Z " />
<glyph glyph-name="Abreve" unicode="&#x102;" horiz-adv-x="568" d="M195 886 C210 820 241 776 273 776 C305 776 336 820 351 886 L340 889 C330 847 304 819 273 819 C242 819 216 847 206 889 L195 886 L195 886 Z M318 0 L563 0 L563 15 C524 15 496 32 480 71 L282 691 L264 691 C207 488 151 284 93 81 C82 42 49 16 11 16 L0 16 L0 1 L205 1 L205 16 L179 16 C131 16 108 48 121 96 L121 96 L161 242 L353 242 C369 188 386 134 401 81 C413 42 395 16 356 16 L319 16 L318 0 L318 0 Z M348 260 L166 261 L253 581 L348 260 L348 260 Z " />
<glyph glyph-name="abreve" unicode="&#x103;" horiz-adv-x="408" d="M102 681 C117 615 148 571 180 571 C211 571 242 615 257 681 L246 684 C236 642 210 614 180 614 C149 614 123 642 113 684 L102 681 L102 681 Z M386 39 C375 28 361 21 336 21 C306 21 297 45 297 82 L297 358 C297 446 259 505 203 505 C130 505 74 464 62 402 L127 402 C137 453 162 487 189 487 C213 487 229 441 229 372 C229 372 229 327 229 252 C210 248 187 243 166 238 C89 219 37 164 37 102 C37 38 69 -5 118 -5 C149 -5 190 19 229 57 C232 16 248 -10 291 -10 C340 -10 370 6 394 30 L386 39 L386 39 Z M228 234 C228 188 227 131 228 70 C202 50 173 38 148 38 C119 38 100 70 100 119 C100 167 126 206 166 216 C192 222 213 227 229 231 L228 234 L228 234 Z " />
<glyph glyph-name="Aogonek" unicode="&#x104;" horiz-adv-x="568" d="M318 0 L396 0 C346 -31 274 -99 274 -156 C274 -203 319 -234 386 -234 C418 -234 450 -221 467 -201 L463 -195 C453 -207 428 -215 400 -215 C348 -215 314 -189 314 -149 C314 -84 391 -12 424 0 L563 0 L563 15 C524 15 496 32 480 71 L282 691 L264 691 C207 488 151 284 93 81 C82 42 49 16 11 16 L0 16 L0 1 L205 1 L205 16 L179 16 C131 16 108 48 121 96 L121 96 L161 242 L353 242 C369 188 386 134 401 81 C413 42 395 16 356 16 L319 16 L318 0 L318 0 Z M348 260 L166 261 L253 581 L348 260 L348 260 Z " />
<glyph glyph-name="aogonek" unicode="&#x105;" horiz-adv-x="408" d="M336 21 C306 21 297 45 297 82 L297 358 C297 446 259 505 203 505 C130 505 74 464 62 402 L127 402 C137 453 162 487 189 487 C213 487 229 441 229 372 C229 372 229 327 229 252 C210 248 187 243 166 238 C89 219 37 164 37 102 C37 38 69 -5 118 -5 C149 -5 190 19 229 57 C233 6 258 -15 315 -8 C272 -44 229 -97 229 -144 C229 -198 274 -234 341 -234 C373 -234 405 -221 422 -201 L418 -195 C408 -207 383 -215 355 -215 C303 -215 269 -184 269 -137 C269 -84 317 -27 353 1 C369 8 382 18 394 30 L386 39 C375 28 360 21 337 21 L336 21 L336 21 Z M229 234 C229 188 228 131 229 70 C203 50 174 38 149 38 C120 38 101 70 101 119 C101 167 127 206 167 216 C193 222 214 227 230 231 L229 234 L229 234 Z " />
<glyph glyph-name="Cacute" unicode="&#x106;" horiz-adv-x="633" d="M305 706 C305 706 385 794 416 834 C440 862 456 883 456 887 C456 895 430 913 419 913 C416 913 402 891 383 859 C352 819 298 711 298 711 L305 706 L305 706 Z M569 64 L569 64 L569 64 Z M560 197 C556 186 551 170 547 159 C518 74 442 16 357 14 C224 11 137 141 137 338 C137 532 223 662 351 662 C367 662 384 661 401 658 C464 645 521 589 546 515 C550 504 555 488 559 477 L572 477 L572 618 L568 610 C568 612 571 615 572 618 C509 655 420 679 350 679 C174 679 56 542 56 337 C56 131 174 -6 350 -6 C420 -6 509 18 572 55 L572 196 L560 197 L560 197 Z " />
<glyph glyph-name="cacute" unicode="&#x107;" horiz-adv-x="405" d="M165 531 C165 531 245 619 276 659 C300 687 316 708 316 712 C316 720 290 738 279 738 C276 738 262 716 243 684 C212 644 158 536 158 536 L165 531 L165 531 Z M354 50 L347 57 C331 43 294 34 256 34 C174 34 119 124 119 259 C119 396 165 487 233 487 C265 487 289 454 293 404 C295 385 308 372 326 372 C343 372 355 384 355 401 C350 463 304 505 241 505 C126 505 50 397 50 234 C50 91 111 -5 202 -5 C254 -5 315 17 354 50 L354 50 Z " />
<glyph glyph-name="Ccircumflex" unicode="&#x108;" horiz-adv-x="633" d="M372 901 C370 907 362 920 351 920 C339 920 332 907 330 902 C330 902 226 687 248 713 L255 708 C284 743 325 807 350 847 C386 790 447 709 447 709 L454 714 C454 714 435 773 372 902 L372 901 L372 901 Z M569 65 L569 65 L569 65 Z M560 198 C556 187 551 171 547 160 C518 75 442 17 357 15 C224 12 137 142 137 339 C137 533 223 663 351 663 C367 663 384 662 401 659 C464 646 521 590 546 516 C550 505 555 489 559 478 L572 478 L572 619 L568 611 C568 613 571 616 572 619 C509 656 420 680 350 680 C174 680 56 543 56 338 C56 132 174 -5 350 -5 C420 -5 509 19 572 56 L572 197 L560 198 L560 198 Z " />
<glyph glyph-name="Cdot" unicode="&#x10a;" horiz-adv-x="633" d="M391 785 C391 836 311 836 311 785 C311 733 391 733 391 785 L391 785 Z M569 64 L569 64 L569 64 Z M560 197 C556 186 551 170 547 159 C518 74 442 16 357 14 C224 11 137 141 137 338 C137 532 223 662 351 662 C367 662 384 661 401 658 C464 645 521 589 546 515 C550 504 555 488 559 477 L572 477 L572 618 L568 610 C568 612 571 615 572 618 C509 655 420 679 350 679 C174 679 56 542 56 337 C56 131 174 -6 350 -6 C420 -6 509 18 572 55 L572 196 L560 197 L560 197 Z " />
<glyph glyph-name="cdot" unicode="&#x10b;" horiz-adv-x="405" d="M281 610 C281 661 201 661 201 610 C201 558 281 558 281 610 L281 610 Z M354 50 L347 57 C331 43 294 34 256 34 C174 34 119 124 119 259 C119 396 165 487 233 487 C265 487 289 454 293 404 C295 385 308 372 326 372 C343 372 355 384 355 401 C350 463 304 505 241 505 C126 505 50 397 50 234 C50 91 111 -5 202 -5 C254 -5 315 17 354 50 L354 50 Z " />
<glyph glyph-name="Ccaron" unicode="&#x10c;" horiz-adv-x="633" d="M447 942 C447 942 386 861 350 804 C325 844 284 908 255 943 L248 938 C226 964 330 749 330 749 C332 744 339 731 351 731 C362 731 370 744 372 750 C435 879 454 938 454 938 L447 942 L447 942 Z M569 65 L569 65 L569 65 Z M560 198 C556 187 551 171 547 160 C518 75 442 17 357 15 C224 12 137 142 137 339 C137 533 223 663 351 663 C367 663 384 662 401 659 C464 646 521 590 546 516 C550 505 555 489 559 478 L572 478 L572 619 L568 611 C568 613 571 616 572 619 C509 656 420 680 350 680 C174 680 56 543 56 338 C56 132 174 -5 350 -5 C420 -5 509 19 572 56 L572 197 L560 198 L560 198 Z " />
<glyph glyph-name="ccaron" unicode="&#x10d;" horiz-adv-x="405" d="M337 767 C337 767 276 686 240 629 C215 669 174 733 145 768 L138 763 C116 789 220 574 220 574 C222 569 229 556 241 556 C252 556 260 569 262 575 C325 704 344 763 344 763 L337 767 L337 767 Z M354 51 L347 58 C331 44 294 35 256 35 C174 35 119 125 119 260 C119 397 165 488 233 488 C265 488 289 455 293 405 C295 386 308 373 326 373 C343 373 355 385 355 402 C350 464 304 506 241 506 C126 506 50 398 50 235 C50 92 111 -4 202 -4 C254 -4 315 18 354 51 L354 51 Z " />
<glyph glyph-name="Dcaron" unicode="&#x10e;" horiz-adv-x="623" d="M408 942 C408 942 346 860 310 803 C285 843 243 907 214 942 L208 937 C186 963 290 748 290 748 C292 743 299 730 311 730 C322 730 329 743 331 749 C394 878 413 937 413 937 L408 942 L408 942 Z M46 660 L57 660 C95 660 121 634 121 595 L121 80 C121 41 95 15 57 15 L46 15 L46 0 L288 0 C458 0 572 135 572 338 C572 540 449 675 264 675 L46 675 L46 660 L46 660 Z M193 18 L193 657 L264 657 C406 657 500 529 500 338 C500 146 415 18 288 18 L193 18 L193 18 Z " />
<glyph glyph-name="dcaron" unicode="&#x10f;" horiz-adv-x="518" d="M502 753 C489 753 479 691 474 646 L456 483 L464 480 L515 631 C532 679 543 730 543 738 C543 749 514 753 502 753 L502 753 Z M408 720 L395 720 L268 682 L268 673 L279 671 C333 660 343 647 343 593 L343 451 C317 483 278 505 238 505 C128 505 55 393 55 224 C55 87 118 -5 212 -5 C255 -5 306 15 343 47 L343 -1 L356 -1 L483 37 L483 46 L472 48 C418 59 408 72 408 126 L408 720 L408 720 Z M343 56 C325 42 289 33 248 33 C173 33 123 119 123 247 C123 390 167 485 234 485 C279 485 321 455 343 416 L343 56 L343 56 Z " />
<glyph glyph-name="Emacron" unicode="&#x112;" horiz-adv-x="536" d="M155 783 L373 783 L373 819 L155 819 L155 783 L155 783 Z M356 266 L356 444 L344 444 L340 433 C328 395 287 369 236 369 L187 369 L187 657 L265 657 C325 657 378 617 398 557 L409 522 L420 522 L420 675 L40 675 L40 660 L51 660 C89 660 115 634 115 595 L115 80 C115 41 89 15 51 15 L40 15 L40 0 L425 0 L427 9 L425 9 C433 52 443 110 451 153 L440 153 L423 118 C393 58 333 18 273 18 L187 18 L187 351 L236 351 C287 351 328 322 340 279 L344 266 L356 266 L356 266 Z " />
<glyph glyph-name="emacron" unicode="&#x113;" horiz-adv-x="411" d="M114 608 L332 608 L332 644 L114 644 L114 608 L114 608 Z M301 372 L301 373 L300 320 L361 320 C361 430 306 504 223 504 C119 504 50 396 50 233 C50 90 112 -6 205 -6 C259 -6 321 16 360 49 L353 56 C337 42 299 33 259 33 C175 33 119 123 119 258 C119 280 120 301 122 320 L300 320 L300 344 L301 371 C300 355 289 343 272 341 L124 331 C136 426 171 485 219 485 C268 485 301 440 301 373 C301 372 301 371 301 370 L301 372 L301 372 Z " />
<glyph glyph-name="Ebreve" unicode="&#x114;" horiz-adv-x="536" d="M186 886 C201 820 232 776 264 776 C296 776 327 820 342 886 L331 889 C321 847 295 819 264 819 C233 819 207 847 197 889 L186 886 L186 886 Z M356 266 L356 444 L344 444 L340 433 C328 395 287 369 236 369 L187 369 L187 657 L265 657 C325 657 378 617 398 557 L409 522 L420 522 L420 675 L40 675 L40 660 L51 660 C89 660 115 634 115 595 L115 80 C115 41 89 15 51 15 L40 15 L40 0 L425 0 L427 9 L425 9 C433 52 443 110 451 153 L440 153 L423 118 C393 58 333 18 273 18 L187 18 L187 351 L236 351 C287 351 328 322 340 279 L344 266 L356 266 L356 266 Z " />
<glyph glyph-name="ebreve" unicode="&#x115;" horiz-adv-x="411" d="M145 711 C160 645 191 601 223 601 C255 601 286 645 301 711 L290 714 C280 672 254 644 223 644 C192 644 166 672 156 714 L145 711 L145 711 Z M301 372 L301 373 L300 320 L361 320 C361 430 306 504 223 504 C119 504 50 396 50 233 C50 90 112 -6 205 -6 C259 -6 321 16 360 49 L353 56 C337 42 299 33 259 33 C175 33 119 123 119 258 C119 280 120 301 122 320 L300 320 L300 344 L301 371 C300 355 289 343 272 341 L124 331 C136 426 171 485 219 485 C268 485 301 440 301 373 C301 372 301 371 301 370 L301 372 L301 372 Z " />
<glyph glyph-name="Edot" unicode="&#x116;" horiz-adv-x="536" d="M304 785 C304 836 224 836 224 785 C224 733 304 733 304 785 L304 785 Z M356 266 L356 444 L344 444 L340 433 C328 395 287 369 236 369 L187 369 L187 657 L265 657 C325 657 378 617 398 557 L409 522 L420 522 L420 675 L40 675 L40 660 L51 660 C89 660 115 634 115 595 L115 80 C115 41 89 15 51 15 L40 15 L40 0 L425 0 L427 9 L425 9 C433 52 443 110 451 153 L440 153 L423 118 C393 58 333 18 273 18 L187 18 L187 351 L236 351 C287 351 328 322 340 279 L344 266 L356 266 L356 266 Z " />
<glyph glyph-name="edot" unicode="&#x117;" horiz-adv-x="411" d="M263 610 C263 661 183 661 183 610 C183 558 263 558 263 610 L263 610 Z M301 372 L301 373 L300 320 L361 320 C361 430 306 504 223 504 C119 504 50 396 50 233 C50 90 112 -6 205 -6 C259 -6 321 16 360 49 L353 56 C337 42 299 33 259 33 C175 33 119 123 119 258 C119 280 120 301 122 320 L300 320 L300 344 L301 371 C300 355 289 343 272 341 L124 331 C136 426 171 485 219 485 C268 485 301 440 301 373 C301 372 301 371 301 370 L301 372 L301 372 Z " />
<glyph glyph-name="Eogonek" unicode="&#x118;" horiz-adv-x="536" d="M356 266 L356 444 L344 444 L340 433 C328 395 287 369 236 369 L187 369 L187 657 L265 657 C325 657 378 617 398 557 L409 522 L420 522 L420 675 L40 675 L40 660 L51 660 C89 660 115 634 115 595 L115 80 C115 41 89 15 51 15 L40 15 L40 0 L394 0 C344 -31 272 -99 272 -156 C272 -203 317 -234 384 -234 C416 -234 448 -221 465 -201 L461 -195 C451 -207 426 -215 398 -215 C346 -215 312 -189 312 -149 C312 -84 389 -12 422 0 L425 0 L427 9 L425 9 C433 52 443 110 451 153 L440 153 L423 118 C393 58 333 18 273 18 L187 18 L187 351 L236 351 C287 351 328 322 340 279 L344 266 L356 266 L356 266 Z " />
<glyph glyph-name="eogonek" unicode="&#x119;" horiz-adv-x="411" d="M301 372 L301 373 L300 320 L361 320 C361 430 306 504 223 504 C119 504 50 396 50 233 C50 90 112 -6 205 -6 C215 -6 225 -5 236 -4 C188 -38 130 -99 130 -151 C130 -201 175 -235 242 -235 C274 -235 306 -222 323 -202 L319 -196 C309 -208 284 -216 256 -216 C204 -216 170 -187 170 -144 C170 -78 247 -6 280 6 L280 6 C310 16 338 31 359 49 L352 56 C336 42 298 33 258 33 C174 33 118 123 118 258 C118 280 119 301 121 320 L299 320 L299 344 L300 371 C299 355 288 343 271 341 L123 331 C135 426 170 485 218 485 C267 485 300 440 300 373 C300 372 300 371 300 370 L301 372 L301 372 Z " />
<glyph glyph-name="Ecaron" unicode="&#x11a;" horiz-adv-x="536" d="M360 942 C360 942 299 861 263 804 C238 844 197 908 168 943 L161 938 C139 964 243 749 243 749 C245 744 252 731 264 731 C275 731 283 744 285 750 C348 879 367 938 367 938 L360 942 L360 942 Z M356 267 L356 445 L344 445 L340 434 C328 396 287 370 236 370 L187 370 L187 658 L265 658 C325 658 378 618 398 558 L409 523 L420 523 L420 676 L40 676 L40 661 L51 661 C89 661 115 635 115 596 L115 81 C115 42 89 16 51 16 L40 16 L40 1 L425 1 L427 10 L425 10 C433 53 443 111 451 154 L440 154 L423 119 C393 59 333 19 273 19 L187 19 L187 352 L236 352 C287 352 328 323 340 280 L344 267 L356 267 L356 267 Z " />
<glyph glyph-name="ecaron" unicode="&#x11b;" horiz-adv-x="411" d="M319 767 C319 767 258 686 222 629 C197 669 156 733 127 768 L120 763 C98 789 202 574 202 574 C204 569 211 556 223 556 C234 556 242 569 244 575 C307 704 326 763 326 763 L319 767 L319 767 Z M301 373 L301 374 L300 321 L361 321 C361 431 306 505 223 505 C119 505 50 397 50 234 C50 91 112 -5 205 -5 C259 -5 321 17 360 50 L353 57 C337 43 299 34 259 34 C175 34 119 124 119 259 C119 281 120 302 122 321 L300 321 L300 345 L301 372 C300 356 289 344 272 342 L124 332 C136 427 171 486 219 486 C268 486 301 441 301 374 C301 373 301 372 301 371 L301 373 L301 373 Z " />
<glyph glyph-name="Gcircumflex" unicode="&#x11c;" horiz-adv-x="728" d="M362 901 C360 907 352 920 341 920 C329 920 322 907 320 902 C320 902 216 687 238 713 L245 708 C274 743 315 807 340 847 C376 790 437 709 437 709 L444 714 C444 714 425 773 362 902 L362 901 L362 901 Z M553 479 L553 620 L549 612 C549 614 552 617 553 620 C490 657 405 681 341 681 C171 681 57 544 57 339 C57 133 171 -4 341 -4 C408 -4 495 20 558 57 L558 238 C558 277 584 303 622 303 L633 303 L633 318 L418 318 L418 303 L429 303 C467 303 493 277 493 238 L493 47 C442 27 386 14 340 14 C218 14 136 144 136 339 C136 533 218 663 340 663 C342 663 368 662 368 661 C436 654 499 596 526 517 C530 506 535 490 539 479 L553 479 L553 479 Z " />
<glyph glyph-name="Gbreve" unicode="&#x11e;" horiz-adv-x="728" d="M263 886 C278 820 309 776 341 776 C373 776 404 820 419 886 L408 889 C398 847 372 819 341 819 C310 819 284 847 274 889 L263 886 L263 886 Z M553 478 L553 619 L549 611 C549 613 552 616 553 619 C490 656 405 680 341 680 C171 680 57 543 57 338 C57 132 171 -5 341 -5 C408 -5 495 19 558 56 L558 237 C558 276 584 302 622 302 L633 302 L633 317 L418 317 L418 302 L429 302 C467 302 493 276 493 237 L493 46 C442 26 386 13 340 13 C218 13 136 143 136 338 C136 532 218 662 340 662 C342 662 368 661 368 660 C436 653 499 595 526 516 C530 505 535 489 539 478 L553 478 L553 478 Z " />
<glyph glyph-name="gbreve" unicode="&#x11f;" horiz-adv-x="388" d="M123 711 C138 645 169 601 201 601 C233 601 264 645 279 711 L268 714 C258 672 232 644 201 644 C170 644 144 672 134 714 L123 711 L123 711 Z M388 500 L263 491 C245 500 224 505 201 505 C120 505 66 443 66 349 C66 277 98 224 149 203 C88 196 49 159 49 107 C49 59 81 25 132 15 C67 -19 25 -70 25 -115 L69 -107 C69 -58 101 -11 149 14 C155 13 161 13 167 13 C167 13 214 16 199 16 C274 16 324 -20 324 -75 C324 -161 256 -219 155 -219 C104 -219 70 -174 70 -107 L26 -114 C26 -188 75 -238 148 -238 C281 -238 370 -160 370 -43 C370 29 308 77 216 77 L164 74 C123 74 95 98 95 134 C95 171 125 195 171 195 L203 195 C285 195 339 257 339 351 C339 400 324 440 298 467 L389 466 L388 500 L388 500 Z M202 209 C158 209 128 266 128 351 C128 436 158 493 202 493 C247 493 277 436 277 351 C277 266 247 209 202 209 L202 209 Z " />
<glyph glyph-name="Gdot" unicode="&#x120;" horiz-adv-x="728" d="M381 785 C381 836 301 836 301 785 C301 733 381 733 381 785 L381 785 Z M553 478 L553 619 L549 611 C549 613 552 616 553 619 C490 656 405 680 341 680 C171 680 57 543 57 338 C57 132 171 -5 341 -5 C408 -5 495 19 558 56 L558 237 C558 276 584 302 622 302 L633 302 L633 317 L418 317 L418 302 L429 302 C467 302 493 276 493 237 L493 46 C442 26 386 13 340 13 C218 13 136 143 136 338 C136 532 218 662 340 662 C342 662 368 661 368 660 C436 653 499 595 526 516 C530 505 535 489 539 478 L553 478 L553 478 Z " />
<glyph glyph-name="gdot" unicode="&#x121;" horiz-adv-x="388" d="M241 610 C241 661 161 661 161 610 C161 558 241 558 241 610 L241 610 Z M388 500 L263 491 C245 500 224 505 201 505 C120 505 66 443 66 349 C66 277 98 224 149 203 C88 196 49 159 49 107 C49 59 81 25 132 15 C67 -19 25 -70 25 -115 L69 -107 C69 -58 101 -11 149 14 C155 13 161 13 167 13 C167 13 214 16 199 16 C274 16 324 -20 324 -75 C324 -161 256 -219 155 -219 C104 -219 70 -174 70 -107 L26 -114 C26 -188 75 -238 148 -238 C281 -238 370 -160 370 -43 C370 29 308 77 216 77 L164 74 C123 74 95 98 95 134 C95 171 125 195 171 195 L203 195 C285 195 339 257 339 351 C339 400 324 440 298 467 L389 466 L388 500 L388 500 Z M202 209 C158 209 128 266 128 351 C128 436 158 493 202 493 C247 493 277 436 277 351 C277 266 247 209 202 209 L202 209 Z " />
<glyph glyph-name="Hcircumflex" unicode="&#x124;" horiz-adv-x="692" d="M367 901 C365 907 357 920 346 920 C334 920 327 907 325 902 C325 902 221 687 243 713 L250 708 C279 743 320 807 345 847 C381 790 442 709 442 709 L449 714 C449 714 430 773 367 902 L367 901 L367 901 Z M652 16 L641 16 C603 16 577 42 577 81 L577 596 C577 635 603 661 641 661 L652 661 L652 676 L430 676 L430 661 L441 661 C479 661 505 635 505 596 L505 365 L187 365 L187 596 C187 635 213 661 251 661 L262 661 L262 676 L40 676 L40 661 L51 661 C89 661 115 635 115 596 L115 81 C115 42 89 16 51 16 L40 16 L40 1 L262 1 L262 16 L251 16 C213 16 187 42 187 81 L187 347 L505 347 L505 81 C505 42 479 16 441 16 L430 16 L430 1 L652 1 L652 16 L652 16 Z " />
<glyph glyph-name="Itilde" unicode="&#x128;" horiz-adv-x="302" d="M67 770 C67 808 76 834 90 834 C121 834 163 772 194 772 C225 772 246 813 246 875 L235 875 C235 839 225 815 209 815 C178 815 136 877 104 877 C75 877 56 834 56 770 L67 770 L67 770 Z M262 15 L251 15 C213 15 187 41 187 80 L187 595 C187 634 213 660 251 660 L262 660 L262 675 L40 675 L40 660 L51 660 C89 660 115 634 115 595 L115 80 C115 41 89 15 51 15 L40 15 L40 0 L262 0 L262 15 L262 15 Z " />
<glyph glyph-name="itilde" unicode="&#x129;" horiz-adv-x="305" d="M69 595 C69 633 78 659 92 659 C123 659 165 597 196 597 C227 597 248 638 248 700 L237 700 C237 664 227 640 211 640 C180 640 138 702 106 702 C77 702 58 659 58 595 L69 595 L69 595 Z M260 15 L249 15 C211 15 185 41 185 80 L185 500 L172 500 L45 462 L45 453 L56 451 C110 440 120 427 120 373 L120 80 C120 41 94 15 56 15 L45 15 L45 0 L260 0 L260 15 L260 15 Z " />
<glyph glyph-name="Imacron" unicode="&#x12a;" horiz-adv-x="302" d="M42 783 L260 783 L260 819 L42 819 L42 783 L42 783 Z M262 15 L251 15 C213 15 187 41 187 80 L187 595 C187 634 213 660 251 660 L262 660 L262 675 L40 675 L40 660 L51 660 C89 660 115 634 115 595 L115 80 C115 41 89 15 51 15 L40 15 L40 0 L262 0 L262 15 L262 15 Z " />
<glyph glyph-name="imacron" unicode="&#x12b;" horiz-adv-x="305" d="M44 608 L262 608 L262 644 L44 644 L44 608 L44 608 Z M260 15 L249 15 C211 15 185 41 185 80 L185 500 L172 500 L45 462 L45 453 L56 451 C110 440 120 427 120 373 L120 80 C120 41 94 15 56 15 L45 15 L45 0 L260 0 L260 15 L260 15 Z " />
<glyph glyph-name="Ibreve" unicode="&#x12c;" horiz-adv-x="302" d="M73 886 C88 820 119 776 151 776 C183 776 214 820 229 886 L218 889 C208 847 182 819 151 819 C120 819 94 847 84 889 L73 886 L73 886 Z M262 15 L251 15 C213 15 187 41 187 80 L187 595 C187 634 213 660 251 660 L262 660 L262 675 L40 675 L40 660 L51 660 C89 660 115 634 115 595 L115 80 C115 41 89 15 51 15 L40 15 L40 0 L262 0 L262 15 L262 15 Z " />
<glyph glyph-name="ibreve" unicode="&#x12d;" horiz-adv-x="305" d="M75 711 C90 645 121 601 153 601 C185 601 216 645 231 711 L220 714 C210 672 184 644 153 644 C122 644 96 672 86 714 L75 711 L75 711 Z M260 15 L249 15 C211 15 185 41 185 80 L185 500 L172 500 L45 462 L45 453 L56 451 C110 440 120 427 120 373 L120 80 C120 41 94 15 56 15 L45 15 L45 0 L260 0 L260 15 L260 15 Z " />
<glyph glyph-name="Idot" unicode="&#x130;" horiz-adv-x="302" d="M191 785 C191 836 111 836 111 785 C111 733 191 733 191 785 L191 785 Z M262 15 L251 15 C213 15 187 41 187 80 L187 595 C187 634 213 660 251 660 L262 660 L262 675 L40 675 L40 660 L51 660 C89 660 115 634 115 595 L115 80 C115 41 89 15 51 15 L40 15 L40 0 L262 0 L262 15 L262 15 Z " />
<glyph glyph-name="dotlessi" unicode="&#x131;" horiz-adv-x="305" d="M260 15 L249 15 C211 15 185 41 185 80 L185 500 L172 500 L45 462 L45 453 L56 451 C110 440 120 427 120 373 L120 80 C120 41 94 15 56 15 L45 15 L45 0 L260 0 L260 15 L260 15 Z " />
<glyph glyph-name="Jcircumflex" unicode="&#x134;" horiz-adv-x="315" d="M184 901 C182 907 175 920 164 920 C152 920 145 907 143 902 C143 902 39 687 61 713 L67 708 C96 743 138 807 163 847 C199 790 261 708 261 708 L267 713 C267 713 248 772 185 901 L184 901 L184 901 Z M276 675 L53 675 L53 660 L64 660 C102 660 128 634 128 595 L128 205 C128 61 119 5 95 5 C82 5 69 23 62 50 C58 67 45 79 30 79 C8 79 -3 67 1 50 C10 14 40 -10 77 -10 C166 -10 200 67 200 265 C201 264 201 475 201 595 C201 634 227 660 265 660 L276 660 L276 675 L276 675 Z " />
<glyph glyph-name="Lacute" unicode="&#x139;" horiz-adv-x="536" d="M126 706 C126 706 206 794 237 834 C261 862 277 883 277 887 C277 895 251 913 240 913 C237 913 223 891 204 859 C173 819 119 711 119 711 L126 706 L126 706 Z M452 160 C446 163 434 168 434 168 L408 108 C385 54 335 18 281 18 L187 18 L187 595 C187 634 213 660 251 660 L262 660 L262 675 L40 675 L40 660 L51 660 C89 660 115 634 115 595 L115 80 C115 41 89 15 51 15 L40 15 L40 0 L423 0 C433 47 443 112 452 160 L452 160 Z " />
<glyph glyph-name="Lcaron" unicode="&#x13d;" horiz-adv-x="536" d="M355 708 C342 708 332 646 327 601 L309 438 L317 435 L368 586 C385 634 396 685 396 693 C396 704 367 708 355 708 L355 708 Z M452 160 C446 163 434 168 434 168 L408 108 C385 54 335 18 281 18 L187 18 L187 595 C187 634 213 660 251 660 L262 660 L262 675 L40 675 L40 660 L51 660 C89 660 115 634 115 595 L115 80 C115 41 89 15 51 15 L40 15 L40 0 L423 0 C433 47 443 112 452 160 L452 160 Z " />
<glyph glyph-name="lcaron" unicode="&#x13e;" horiz-adv-x="305" d="M279 723 C266 723 256 661 251 616 L233 453 L241 450 L292 601 C309 649 320 700 320 708 C320 719 291 723 279 723 L279 723 Z M260 15 L249 15 C211 15 185 41 185 80 L185 720 L172 720 L45 682 L45 673 L56 671 C110 660 120 647 120 593 L120 80 C120 41 94 15 56 15 L45 15 L45 0 L260 0 L260 15 L260 15 Z " />
<glyph glyph-name="Lslash" unicode="&#x141;" horiz-adv-x="536" d="M40 0 L423 0 C433 47 443 112 452 160 C446 163 434 168 434 168 L408 108 C385 54 335 18 281 18 L187 18 L187 328 L303 377 L303 398 L187 349 L187 595 C187 634 213 660 251 660 L262 660 L262 675 L40 675 L40 660 L51 660 C89 660 115 634 115 595 L115 319 L64 298 L64 277 L115 298 L115 80 C115 41 89 15 51 15 L40 15 L40 0 L40 0 Z " />
<glyph glyph-name="lslash" unicode="&#x142;" horiz-adv-x="305" d="M45 0 L260 0 L260 15 L249 15 C211 15 185 41 185 80 L185 361 L285 399 L285 421 L185 383 L185 720 L172 720 L45 682 L45 673 L56 671 C110 660 120 647 120 593 L120 359 L20 321 L20 299 L120 337 L120 80 C120 41 94 15 56 15 L45 15 L45 0 L45 0 Z " />
<glyph glyph-name="Nacute" unicode="&#x143;" horiz-adv-x="625" d="M282 706 C282 706 363 794 394 834 C418 862 434 882 434 887 C434 895 408 913 397 913 C394 913 380 891 361 859 C330 819 275 711 275 711 L282 706 L282 706 Z M42 660 L53 660 C91 660 117 634 117 595 L117 80 C117 41 91 15 53 15 L42 15 L42 0 L213 0 L213 15 L202 15 C164 15 138 41 138 80 L138 605 C252 399 365 192 480 -14 L510 -14 L510 595 C510 634 536 660 574 660 L585 660 L585 675 L414 675 L414 660 L425 660 C463 660 489 634 489 595 L489 111 L181 675 L42 675 L42 660 L42 660 Z " />
<glyph glyph-name="nacute" unicode="&#x144;" horiz-adv-x="543" d="M198 531 C198 531 278 619 309 659 C333 687 349 708 349 712 C349 720 323 738 312 738 C309 738 295 716 276 684 C245 644 191 536 191 536 L198 531 L198 531 Z M288 0 L503 0 L503 15 L492 15 C454 15 428 41 428 80 L428 337 C428 438 402 505 336 505 C319 505 259 480 185 441 L185 500 L172 500 L45 462 L45 453 L56 451 C110 440 120 427 120 373 L120 80 C120 41 94 15 56 15 L45 15 L45 0 L260 0 L260 15 L249 15 C211 15 185 41 185 80 L185 434 C219 451 258 461 285 461 C341 461 363 409 363 330 L363 80 C363 41 337 15 299 15 L288 15 L288 0 L288 0 Z " />
<glyph glyph-name="Ncaron" unicode="&#x147;" horiz-adv-x="625" d="M410 942 C410 942 348 860 312 803 C287 843 245 907 216 942 L210 937 C188 963 292 748 292 748 C294 743 301 730 313 730 C324 730 331 743 333 749 C396 878 415 937 415 937 L410 942 L410 942 Z M41 660 L52 660 C90 660 116 634 116 595 L116 80 C116 41 90 15 52 15 L41 15 L41 0 L212 0 L212 15 L201 15 C163 15 137 41 137 80 L137 605 C251 399 364 192 479 -14 L509 -14 L509 595 C509 634 535 660 573 660 L584 660 L584 675 L413 675 L413 660 L424 660 C462 660 488 634 488 595 L488 111 L180 675 L41 675 L41 660 L41 660 Z " />
<glyph glyph-name="ncaron" unicode="&#x148;" horiz-adv-x="543" d="M370 767 C370 767 309 686 273 629 C248 669 207 733 178 768 L171 763 C149 789 253 574 253 574 C255 569 262 556 274 556 C285 556 293 569 295 575 C358 704 377 763 377 763 L370 767 L370 767 Z M288 1 L503 1 L503 16 L492 16 C454 16 428 42 428 81 L428 338 C428 439 402 506 336 506 C319 506 259 481 185 442 L185 501 L172 501 L45 463 L45 454 L56 452 C110 441 120 428 120 374 L120 81 C120 42 94 16 56 16 L45 16 L45 1 L260 1 L260 16 L249 16 C211 16 185 42 185 81 L185 435 C219 452 258 462 285 462 C341 462 363 410 363 331 L363 81 C363 42 337 16 299 16 L288 16 L288 1 L288 1 Z " />
<glyph glyph-name="Omacron" unicode="&#x14c;" horiz-adv-x="678" d="M233 783 L452 783 L452 819 L233 819 L233 783 L233 783 Z M137 338 C137 513 207 662 343 662 C478 662 548 513 548 338 C548 163 478 13 343 13 C207 13 137 163 137 338 L137 338 Z M57 338 C57 153 154 -5 343 -5 C531 -5 628 153 628 338 C628 523 531 680 343 680 C154 680 57 523 57 338 L57 338 Z " />
<glyph glyph-name="omacron" unicode="&#x14d;" horiz-adv-x="512" d="M147 608 L365 608 L365 644 L147 644 L147 608 L147 608 Z M122 250 C122 395 176 491 256 491 C336 491 390 395 390 250 C390 105 336 9 256 9 C176 9 122 105 122 250 L122 250 Z M50 250 C50 97 132 -5 256 -5 C380 -5 462 97 462 250 C462 403 380 505 256 505 C132 505 50 403 50 250 L50 250 Z " />
<glyph glyph-name="Obreve" unicode="&#x14e;" horiz-adv-x="678" d="M265 886 C280 820 311 776 343 776 C374 776 405 820 420 886 L409 889 C399 847 373 819 343 819 C312 819 286 847 276 889 L265 886 L265 886 Z M137 338 C137 513 207 662 343 662 C478 662 548 513 548 338 C548 163 478 13 343 13 C207 13 137 163 137 338 L137 338 Z M57 338 C57 153 154 -5 343 -5 C531 -5 628 153 628 338 C628 523 531 680 343 680 C154 680 57 523 57 338 L57 338 Z " />
<glyph glyph-name="obreve" unicode="&#x14f;" horiz-adv-x="512" d="M178 711 C193 645 224 601 256 601 C288 601 319 645 334 711 L323 714 C313 672 287 644 256 644 C225 644 199 672 189 714 L178 711 L178 711 Z M122 250 C122 395 176 491 256 491 C336 491 390 395 390 250 C390 105 336 9 256 9 C176 9 122 105 122 250 L122 250 Z M50 250 C50 97 132 -5 256 -5 C380 -5 462 97 462 250 C462 403 380 505 256 505 C132 505 50 403 50 250 L50 250 Z " />
<glyph glyph-name="Racute" unicode="&#x154;" horiz-adv-x="548" d="M212 706 C212 706 293 794 324 834 C348 862 364 882 364 887 C364 895 338 913 327 913 C324 913 310 891 291 859 C260 819 205 711 205 711 L212 706 L212 706 Z M47 660 L58 660 C96 660 122 634 122 595 L122 80 C122 41 96 15 58 15 L47 15 L47 0 L269 0 L269 15 L258 15 C220 15 194 41 194 80 L194 323 L231 323 L370 106 C435 4 441 0 522 0 L548 0 L548 14 C518 14 519 14 469 92 C391 214 334 300 314 330 C401 350 456 413 456 500 C456 605 380 675 265 675 L46 675 L47 660 L47 660 Z M251 341 L193 341 L193 657 L265 657 C334 657 380 594 380 500 C380 405 328 341 251 341 L251 341 Z " />
<glyph glyph-name="Rcaron" unicode="&#x158;" horiz-adv-x="548" d="M386 942 C386 942 324 860 288 803 C263 843 221 907 192 942 L186 937 C164 963 268 748 268 748 C270 743 277 730 289 730 C300 730 307 743 309 749 C372 878 391 937 391 937 L386 942 L386 942 Z M46 660 L57 660 C95 660 121 634 121 595 L121 80 C121 41 95 15 57 15 L46 15 L46 0 L268 0 L268 15 L257 15 C219 15 193 41 193 80 L193 323 L230 323 L369 106 C434 4 440 0 521 0 L547 0 L547 14 C517 14 518 14 468 92 C390 214 333 300 313 330 C400 350 455 413 455 500 C455 605 379 675 264 675 L45 675 L46 660 L46 660 Z M250 341 L192 341 L192 657 L264 657 C333 657 379 594 379 500 C379 405 327 341 250 341 L250 341 Z " />
<glyph glyph-name="rcaron" unicode="&#x159;" horiz-adv-x="368" d="M303 767 C303 767 242 686 206 629 C181 669 140 733 111 768 L104 763 C82 789 186 574 186 574 C188 569 195 556 207 556 C218 556 226 569 228 575 C291 704 310 763 310 763 L303 767 L303 767 Z M45 1 L260 1 L260 16 L249 16 C211 16 185 42 185 81 L185 421 C205 443 227 457 242 457 C268 457 302 430 327 430 C346 430 358 442 358 461 C358 487 340 505 294 505 C266 505 224 475 186 429 L186 500 L173 500 L46 462 L46 453 L57 451 C111 440 121 427 121 373 L121 80 C121 41 95 15 57 15 L46 15 L45 1 L45 1 Z " />
<glyph glyph-name="Sacute" unicode="&#x15a;" horiz-adv-x="426" d="M159 706 C159 706 239 794 270 834 C294 862 310 883 310 887 C310 895 284 913 273 913 C270 913 256 891 237 859 C206 819 152 711 152 711 L159 706 L159 706 Z M344 484 L344 630 L338 620 L338 620 L344 630 C292 660 238 680 208 680 C112 680 48 603 48 488 C48 419 102 348 182 311 C270 270 329 204 329 146 C329 66 284 13 216 13 C156 13 97 69 68 153 C64 164 59 180 55 191 L42 191 L42 45 L48 56 L48 56 L42 45 C94 15 164 -5 216 -5 C315 -5 381 67 381 176 C381 248 322 323 234 364 C153 402 99 463 99 517 C99 604 141 662 205 662 C205 662 213 662 213 661 C250 655 285 620 300 575 C309 548 322 511 331 484 L344 484 L344 484 Z " />
<glyph glyph-name="sacute" unicode="&#x15b;" horiz-adv-x="340" d="M105 531 C105 531 185 619 216 659 C240 687 256 708 256 712 C256 720 230 738 219 738 C216 738 202 716 183 684 C152 644 98 536 98 536 L105 531 L105 531 Z M268 367 L268 462 C223 488 189 505 181 505 C109 505 61 453 61 374 C61 323 99 265 156 227 C204 195 236 151 236 116 C236 52 208 10 165 10 C132 10 94 50 69 111 C66 119 61 130 58 138 L47 138 L47 33 C86 10 132 -5 162 -5 C239 -5 290 53 290 140 C290 185 255 238 202 273 C148 309 112 358 112 397 C112 453 140 491 181 491 C180 491 180 490 181 489 L181 491 C190 491 199 485 208 475 C204 476 200 477 196 478 C201 475 207 471 214 467 C226 450 237 426 246 397 C249 388 252 377 255 368 L268 367 L268 367 Z M180 490 C182 488 188 484 197 478 C191 479 186 480 181 480 L180 490 L180 490 Z " />
<glyph glyph-name="Scircumflex" unicode="&#x15c;" horiz-adv-x="426" d="M226 901 C224 907 216 920 205 920 C193 920 186 907 184 902 C184 902 80 687 102 713 L109 708 C138 743 179 807 204 847 C240 790 301 709 301 709 L308 714 C308 714 289 773 226 902 L226 901 L226 901 Z M344 485 L344 631 L338 621 L338 621 L344 631 C292 661 238 681 208 681 C112 681 48 604 48 489 C48 420 102 349 182 312 C270 271 329 205 329 147 C329 67 284 14 216 14 C156 14 97 70 68 154 C64 165 59 181 55 192 L42 192 L42 46 L48 57 L48 57 L42 46 C94 16 164 -4 216 -4 C315 -4 381 68 381 177 C381 249 322 324 234 365 C153 403 99 464 99 518 C99 605 141 663 205 663 C205 663 213 663 213 662 C250 656 285 621 300 576 C309 549 322 512 331 485 L344 485 L344 485 Z " />
<glyph glyph-name="Scedilla" unicode="&#x15e;" horiz-adv-x="426" d="M192 -93 C203 -84 215 -78 222 -78 C239 -78 251 -100 251 -134 C251 -174 234 -201 209 -201 C187 -201 167 -196 159 -189 L156 -197 C172 -211 198 -220 222 -220 C263 -220 291 -186 291 -134 C291 -73 240 -47 196 -79 L192 -93 L192 -93 Z M344 484 L344 630 L338 620 L338 620 L344 630 C292 660 238 680 208 680 C112 680 48 603 48 488 C48 419 102 348 182 311 C270 270 329 204 329 146 C329 66 284 13 216 13 C156 13 97 69 68 153 C64 164 59 180 55 191 L42 191 L42 45 L48 56 L48 56 L42 45 C92 16 159 -4 210 -5 C207 -14 198 -46 186 -92 L191 -93 C208 -30 221 -11 227 -5 C319 0 380 71 380 176 C380 248 321 323 233 364 C152 402 98 463 98 517 C98 604 140 662 204 662 C204 662 212 662 212 661 C249 655 284 620 299 575 C308 548 321 511 330 484 L344 484 L344 484 Z " />
<glyph glyph-name="scedilla" unicode="&#x15f;" horiz-adv-x="340" d="M138 -93 C149 -84 161 -78 168 -78 C185 -78 197 -100 197 -134 C197 -174 180 -201 155 -201 C133 -201 113 -196 105 -189 L102 -197 C118 -211 144 -220 168 -220 C209 -220 237 -186 237 -134 C237 -73 186 -47 142 -79 L138 -93 L138 -93 Z M268 367 L268 462 C223 488 189 505 181 505 C109 505 61 453 61 374 C61 323 99 265 156 227 C204 195 236 151 236 116 C236 52 208 10 165 10 C132 10 94 50 69 111 C66 119 61 130 58 138 L47 138 L47 33 C84 11 127 -4 157 -6 C154 -15 145 -47 133 -93 L138 -94 C155 -31 168 -12 174 -6 C244 0 290 56 290 138 C290 183 255 236 202 271 C148 307 112 356 112 395 C112 451 140 489 181 489 C180 489 180 488 181 487 L181 489 C190 489 199 483 208 473 C204 474 200 475 196 476 C201 473 207 469 214 465 C226 448 237 424 246 395 C249 386 252 375 255 366 L268 367 L268 367 Z M180 488 C182 486 188 482 197 476 C191 477 186 478 181 478 L180 488 L180 488 Z " />
<glyph glyph-name="Scaron" unicode="&#x160;" horiz-adv-x="426" d="M301 942 C301 942 240 861 204 804 C179 844 138 908 109 943 L102 938 C80 964 184 749 184 749 C186 744 193 731 205 731 C216 731 224 744 226 750 C289 879 308 938 308 938 L301 942 L301 942 Z M344 485 L344 631 L338 621 L338 621 L344 631 C292 661 238 681 208 681 C112 681 48 604 48 489 C48 420 102 349 182 312 C270 271 329 205 329 147 C329 67 284 14 216 14 C156 14 97 70 68 154 C64 165 59 181 55 192 L42 192 L42 46 L48 57 L48 57 L42 46 C94 16 164 -4 216 -4 C315 -4 381 68 381 177 C381 249 322 324 234 365 C153 403 99 464 99 518 C99 605 141 663 205 663 C205 663 213 663 213 662 C250 656 285 621 300 576 C309 549 322 512 331 485 L344 485 L344 485 Z " />
<glyph glyph-name="scaron" unicode="&#x161;" horiz-adv-x="340" d="M277 767 C277 767 216 686 180 629 C155 669 114 733 85 768 L78 763 C56 789 160 574 160 574 C162 569 169 556 181 556 C192 556 200 569 202 575 C265 704 284 763 284 763 L277 767 L277 767 Z M268 368 L268 463 C223 489 189 506 181 506 C109 506 61 454 61 375 C61 324 99 266 156 228 C204 196 236 152 236 117 C236 53 208 11 165 11 C132 11 94 51 69 112 C66 120 61 131 58 139 L47 139 L47 34 C86 11 132 -4 162 -4 C239 -4 290 54 290 141 C290 186 255 239 202 274 C148 310 112 359 112 398 C112 454 140 492 181 492 C180 492 180 491 181 490 L181 492 C190 492 199 486 208 476 C204 477 200 478 196 479 C201 476 207 472 214 468 C226 451 237 427 246 398 C249 389 252 378 255 369 L268 368 L268 368 Z M180 491 C182 489 188 485 197 479 C191 480 186 481 181 481 L180 491 L180 491 Z " />
<glyph glyph-name="Tcaron" unicode="&#x164;" horiz-adv-x="539" d="M366 942 C366 942 305 861 269 804 C244 844 203 908 174 943 L167 938 C145 964 249 749 249 749 C251 744 258 731 270 731 C281 731 289 744 291 750 C354 879 373 938 373 938 L366 942 L366 942 Z M8 508 L20 508 L48 578 C67 626 113 658 161 658 L233 658 L233 81 C233 42 207 16 169 16 L158 16 L158 1 L381 1 L381 16 L370 16 C332 16 306 42 306 81 L306 658 L378 658 C426 658 472 626 491 578 L519 508 L531 508 C527 559 522 625 516 676 L23 676 C17 625 12 559 8 508 L8 508 Z " />
<glyph glyph-name="tcaron" unicode="&#x165;" horiz-adv-x="311" d="M280 500 L145 500 L145 640 L134 640 L85 491 L118 594 C98 533 60 488 24 483 L24 476 L79 476 C79 476 80 222 80 113 C80 22 98 -4 162 -4 C216 -4 255 16 290 45 L286 50 C268 35 243 25 194 25 C155 25 144 42 144 101 L144 476 L279 476 L280 500 L280 500 Z M373 724 C360 724 350 662 345 617 L327 454 L335 451 L386 602 C403 650 414 701 414 709 C414 720 385 724 373 724 L373 724 Z M118 595 L118 596 L118 596 L118 595 L118 595 Z " />
<glyph glyph-name="Utilde" unicode="&#x168;" horiz-adv-x="603" d="M221 770 C221 808 230 834 244 834 C275 834 317 772 348 772 C379 772 400 813 400 875 L389 875 C389 839 379 815 363 815 C332 815 290 877 258 877 C229 877 210 834 210 770 L221 770 L221 770 Z M583 675 L387 675 L387 660 L402 660 C445 660 474 633 476 591 L475 188 C475 87 431 20 319 20 C221 20 183 91 183 197 L183 595 C183 634 209 660 247 660 L258 660 L258 675 L36 675 L36 660 L47 660 C85 660 111 634 111 595 L111 211 C111 81 166 -5 308 -5 C444 -5 497 69 497 180 L497 585 C497 630 526 660 569 660 L582 660 L583 675 L583 675 Z " />
<glyph glyph-name="utilde" unicode="&#x169;" horiz-adv-x="508" d="M160 595 C160 633 169 659 183 659 C214 659 256 597 287 597 C318 597 339 638 339 700 L328 700 C328 664 318 640 302 640 C271 640 229 702 197 702 C168 702 149 659 149 595 L160 595 L160 595 Z M15 485 L26 485 C64 485 90 459 90 420 L90 155 C90 59 128 -5 201 -5 C249 -5 294 20 333 57 L333 1 L346 1 L473 39 L473 48 L462 50 C408 61 398 74 398 128 L398 501 L258 501 L258 486 L269 486 C307 486 333 460 333 421 L333 67 C314 50 288 39 252 39 C187 39 154 89 154 163 L155 501 L15 501 L15 485 L15 485 Z " />
<glyph glyph-name="Umacron" unicode="&#x16a;" horiz-adv-x="603" d="M196 783 L414 783 L414 819 L196 819 L196 783 L196 783 Z M583 675 L387 675 L387 660 L402 660 C445 660 474 633 476 591 L475 188 C475 87 431 20 319 20 C221 20 183 91 183 197 L183 595 C183 634 209 660 247 660 L258 660 L258 675 L36 675 L36 660 L47 660 C85 660 111 634 111 595 L111 211 C111 81 166 -5 308 -5 C444 -5 497 69 497 180 L497 585 C497 630 526 660 569 660 L582 660 L583 675 L583 675 Z " />
<glyph glyph-name="umacron" unicode="&#x16b;" horiz-adv-x="508" d="M135 608 L353 608 L353 644 L135 644 L135 608 L135 608 Z M15 485 L26 485 C64 485 90 459 90 420 L90 155 C90 59 128 -5 201 -5 C249 -5 294 20 333 57 L333 1 L346 1 L473 39 L473 48 L462 50 C408 61 398 74 398 128 L398 501 L258 501 L258 486 L269 486 C307 486 333 460 333 421 L333 67 C314 50 288 39 252 39 C187 39 154 89 154 163 L155 501 L15 501 L15 485 L15 485 Z " />
<glyph glyph-name="Ubreve" unicode="&#x16c;" horiz-adv-x="603" d="M227 886 C242 820 273 776 305 776 C337 776 368 820 383 886 L372 889 C362 847 336 819 305 819 C274 819 248 847 238 889 L227 886 L227 886 Z M583 675 L387 675 L387 660 L402 660 C445 660 474 633 476 591 L475 188 C475 87 431 20 319 20 C221 20 183 91 183 197 L183 595 C183 634 209 660 247 660 L258 660 L258 675 L36 675 L36 660 L47 660 C85 660 111 634 111 595 L111 211 C111 81 166 -5 308 -5 C444 -5 497 69 497 180 L497 585 C497 630 526 660 569 660 L582 660 L583 675 L583 675 Z " />
<glyph glyph-name="ubreve" unicode="&#x16d;" horiz-adv-x="508" d="M166 711 C181 645 212 601 244 601 C276 601 307 645 322 711 L311 714 C301 672 275 644 244 644 C213 644 187 672 177 714 L166 711 L166 711 Z M15 485 L26 485 C64 485 90 459 90 420 L90 155 C90 59 128 -5 201 -5 C249 -5 294 20 333 57 L333 1 L346 1 L473 39 L473 48 L462 50 C408 61 398 74 398 128 L398 501 L258 501 L258 486 L269 486 C307 486 333 460 333 421 L333 67 C314 50 288 39 252 39 C187 39 154 89 154 163 L155 501 L15 501 L15 485 L15 485 Z " />
<glyph glyph-name="Uring" unicode="&#x16e;" horiz-adv-x="603" d="M228 803 C228 850 259 881 305 881 C351 881 382 850 382 803 C382 760 347 724 305 724 C263 724 228 760 228 803 L228 803 Z M210 803 C210 753 254 710 305 710 C356 710 400 753 400 803 C400 858 362 895 305 895 C248 895 210 858 210 803 L210 803 Z M583 675 L387 675 L387 660 L402 660 C445 660 474 633 476 591 L475 188 C475 87 431 20 319 20 C221 20 183 91 183 197 L183 595 C183 634 209 660 247 660 L258 660 L258 675 L36 675 L36 660 L47 660 C85 660 111 634 111 595 L111 211 C111 81 166 -5 308 -5 C444 -5 497 69 497 180 L497 585 C497 630 526 660 569 660 L582 660 L583 675 L583 675 Z " />
<glyph glyph-name="uring" unicode="&#x16f;" horiz-adv-x="508" d="M167 628 C167 675 198 706 244 706 C290 706 321 675 321 628 C321 585 286 549 244 549 C202 549 167 585 167 628 L167 628 Z M149 628 C149 578 193 535 244 535 C295 535 339 578 339 628 C339 683 301 720 244 720 C187 720 149 683 149 628 L149 628 Z M15 485 L26 485 C64 485 90 459 90 420 L90 155 C90 59 128 -5 201 -5 C249 -5 294 20 333 57 L333 1 L346 1 L473 39 L473 48 L462 50 C408 61 398 74 398 128 L398 501 L258 501 L258 486 L269 486 C307 486 333 460 333 421 L333 67 C314 50 288 39 252 39 C187 39 154 89 154 163 L155 501 L15 501 L15 485 L15 485 Z " />
<glyph glyph-name="Wcircumflex" unicode="&#x174;" horiz-adv-x="782" d="M779 675 L581 675 L581 660 L618 660 C657 660 677 634 668 595 L668 595 L532 -15 L551 -15 L689 595 C698 634 729 660 767 660 L779 660 L779 675 L779 675 Z M427 901 C425 907 417 920 406 920 C394 920 387 907 385 902 C385 902 281 687 303 713 L310 708 C339 743 380 807 405 847 C441 790 502 709 502 709 L509 714 C509 714 490 773 427 902 L427 901 L427 901 Z M224 676 L-1 676 L-1 661 C36 661 60 644 74 605 L241 -14 L259 -14 L387 561 L532 -14 L558 104 L415 686 L397 686 L266 98 L151 603 C146 638 166 661 203 661 L225 661 L224 676 L224 676 Z " />
<glyph glyph-name="Ycircumflex" unicode="&#x176;" horiz-adv-x="536" d="M161 0 L383 0 L383 15 L372 15 C334 15 308 41 308 80 L308 315 C353 408 397 502 443 595 C465 639 497 660 539 660 L539 675 L350 675 L350 660 L368 660 C416 660 435 630 417 584 L292 321 L182 596 C167 634 182 661 222 661 L241 661 L241 676 L16 676 L16 661 C52 661 80 640 99 596 L99 596 L237 282 L237 81 C237 42 211 16 173 16 L162 16 L161 0 L161 0 Z M294 902 C292 908 284 921 273 921 C261 921 254 908 252 903 C252 903 148 688 170 714 L177 709 C206 744 247 808 272 848 C308 791 369 710 369 710 L376 715 C376 715 357 774 294 903 L294 902 L294 902 Z " />
<glyph glyph-name="Ydieresis" unicode="&#x178;" horiz-adv-x="536" d="M399 785 C399 836 319 836 319 785 C319 733 399 733 399 785 L399 785 Z M225 785 C225 836 145 836 145 785 C145 733 225 733 225 785 L225 785 Z M161 0 L383 0 L383 15 L372 15 C334 15 308 41 308 80 L308 315 C353 408 397 502 443 595 C465 639 497 660 539 660 L539 675 L350 675 L350 660 L368 660 C416 660 435 630 417 584 L292 321 L182 596 C167 634 182 661 222 661 L241 661 L241 676 L16 676 L16 661 C52 661 80 640 99 596 L99 596 L237 282 L237 81 C237 42 211 16 173 16 L162 16 L161 0 L161 0 Z " />
<glyph glyph-name="Zacute" unicode="&#x179;" horiz-adv-x="511" d="M287 706 C287 706 367 794 398 834 C422 862 438 883 438 887 C438 895 412 913 401 913 C398 913 384 891 365 859 C334 819 280 711 280 711 L287 706 L287 706 Z M442 169 L416 109 C393 55 343 19 289 19 L138 19 L448 675 L112 675 L110 666 L108 666 C98 627 84 576 74 537 L86 537 L113 577 C145 625 199 657 247 657 L358 657 L48 0 L430 0 L432 9 L433 9 C441 55 452 115 460 161 C454 164 442 169 442 169 L442 169 Z " />
<glyph glyph-name="zacute" unicode="&#x17a;" horiz-adv-x="403" d="M143 531 C143 531 224 619 255 659 C279 687 295 707 295 712 C295 720 269 738 258 738 C255 738 241 716 222 684 C191 644 136 536 136 536 L143 531 L143 531 Z M348 165 L322 105 C299 51 249 15 195 15 L195 14 L134 14 L353 500 L71 500 L69 493 L69 493 C61 464 50 424 42 395 L54 395 L65 409 C102 455 159 485 207 485 L270 485 L52 0 L337 0 L338 7 L339 7 C347 52 358 112 366 157 C360 160 348 165 348 165 L348 165 Z " />
<glyph glyph-name="Zdot" unicode="&#x17b;" horiz-adv-x="511" d="M328 785 C328 836 248 836 248 785 C248 733 328 733 328 785 L328 785 Z M442 169 L416 109 C393 55 343 19 289 19 L138 19 L448 675 L112 675 L110 666 L108 666 C98 627 84 576 74 537 L86 537 L113 577 C145 625 199 657 247 657 L358 657 L48 0 L430 0 L432 9 L433 9 C441 55 452 115 460 161 C454 164 442 169 442 169 L442 169 Z " />
<glyph glyph-name="zdot" unicode="&#x17c;" horiz-adv-x="403" d="M260 610 C260 661 181 660 181 610 C181 558 260 557 260 610 L260 610 Z M348 165 L322 105 C299 51 249 15 195 15 L195 14 L134 14 L353 500 L71 500 L69 493 L69 493 C61 464 50 424 42 395 L54 395 L65 409 C102 455 159 485 207 485 L270 485 L52 0 L337 0 L338 7 L339 7 C347 52 358 112 366 157 C360 160 348 165 348 165 L348 165 Z " />
<glyph glyph-name="Zcaron" unicode="&#x17d;" horiz-adv-x="511" d="M384 942 C384 942 323 861 287 804 C262 844 221 908 192 943 L185 938 C163 964 267 749 267 749 C269 744 276 731 288 731 C299 731 307 744 309 750 C372 879 391 938 391 938 L384 942 L384 942 Z M442 170 L416 110 C393 56 343 20 289 20 L138 20 L448 676 L112 676 L110 667 L108 667 C98 628 84 577 74 538 L86 538 L113 578 C145 626 199 658 247 658 L358 658 L48 1 L430 1 L432 10 L433 10 C441 56 452 116 460 162 C454 165 442 170 442 170 L442 170 Z " />
<glyph glyph-name="zcaron" unicode="&#x17e;" horiz-adv-x="403" d="M317 767 C317 767 255 685 219 628 C194 668 152 732 123 767 L117 762 C95 788 199 573 199 573 C201 568 208 555 220 555 C231 555 238 568 240 574 C303 703 322 762 322 762 L317 767 L317 767 Z M347 165 L321 105 C298 51 248 15 194 15 L194 14 L133 14 L352 500 L70 500 L68 493 L68 493 C60 464 49 424 41 395 L53 395 L64 409 C101 455 158 485 206 485 L269 485 L51 0 L336 0 L337 7 L338 7 C346 52 357 112 365 157 C359 160 347 165 347 165 L347 165 Z " />
<glyph glyph-name="oogonek" unicode="&#x1eb;" horiz-adv-x="642" d="M631 -51 L625 -46 C604 -71 559 -87 511 -87 C444 -87 384 -55 332 -5 C504 -2 592 128 592 279 C592 432 502 563 326 563 C150 563 59 432 59 279 C59 131 144 4 309 -4 C386 -80 456 -130 504 -130 C540 -130 591 -98 631 -51 L631 -51 Z M131 279 C131 424 197 547 326 547 C455 547 521 424 521 279 C521 134 455 11 326 11 C197 11 131 134 131 279 L131 279 Z " />
<glyph glyph-name="Adotabove" unicode="&#x226;" horiz-adv-x="568" d="M313 785 C313 836 233 836 233 785 C233 733 313 733 313 785 L313 785 Z M318 0 L563 0 L563 15 C524 15 496 32 480 71 L282 691 L264 691 C207 488 151 284 93 81 C82 42 49 16 11 16 L0 16 L0 1 L205 1 L205 16 L179 16 C131 16 108 48 121 96 L121 96 L161 242 L353 242 C369 188 386 134 401 81 C413 42 395 16 356 16 L319 16 L318 0 L318 0 Z M348 260 L166 261 L253 581 L348 260 L348 260 Z " />
<glyph glyph-name="G_sc" unicode="&#x262;" horiz-adv-x="695" d="M519 362 L519 502 C456 539 376 563 321 563 C164 563 59 449 59 279 C59 109 164 -5 321 -5 C380 -5 462 19 525 56 L525 182 C525 221 551 247 589 247 L600 247 L600 262 L392 262 L392 247 L403 247 C441 247 467 221 467 182 L467 47 C416 25 362 11 321 11 C207 11 131 118 131 279 C131 440 207 547 321 547 C322 547 336 547 336 546 C403 541 465 483 493 402 C497 390 502 374 506 362 L519 362 L519 362 Z " />
<glyph glyph-name="I_sc" unicode="&#x26a;" horiz-adv-x="299" d="M259 15 L248 15 C210 15 184 41 184 80 L184 478 C184 517 210 543 248 543 L259 543 L259 558 L44 558 L44 543 L55 543 C93 543 119 517 119 478 L119 80 C119 41 93 15 55 15 L44 15 L44 0 L259 0 L259 15 L259 15 Z " />
<glyph glyph-name="N_sc" unicode="&#x274;" horiz-adv-x="588" d="M42 543 L53 543 C91 543 117 517 117 478 L117 80 C117 41 91 15 53 15 L42 15 L42 0 L212 0 L212 15 L201 15 C163 15 137 41 137 80 L137 496 C241 326 344 156 448 -13 L473 -13 L473 478 C473 517 499 543 537 543 L548 543 L548 558 L379 558 L379 543 L390 543 C428 543 454 517 454 478 L454 96 L175 558 L42 558 L42 543 L42 543 Z " />
<glyph glyph-name="R_sc" unicode="&#x280;" horiz-adv-x="517" d="M49 543 L60 543 C98 543 124 517 124 478 L124 80 C124 41 98 15 60 15 L49 15 L49 0 L264 0 L264 15 L253 15 C215 15 189 41 189 80 L189 267 L213 267 C233 240 277 182 336 106 C414 4 420 0 492 0 L516 0 L516 13 C485 13 487 13 425 94 C356 184 305 249 286 273 C365 290 414 343 414 416 C414 501 344 558 239 558 L48 558 L49 543 L49 543 Z M229 283 L188 283 L188 542 L239 542 C303 542 346 492 346 416 C346 336 299 283 229 283 L229 283 Z " />
<glyph glyph-name="Y_sc" unicode="&#x28f;" horiz-adv-x="494" d="M234 558 L18 558 L18 543 C52 543 80 524 101 484 L220 232 L220 79 C220 40 194 14 156 14 L145 14 L145 -1 L360 -1 L360 14 L349 14 C311 14 285 40 285 79 L285 260 C323 332 360 405 398 477 C421 521 454 542 496 542 L496 557 L310 557 L310 542 L327 542 C376 542 394 511 373 464 L269 261 C239 333 208 405 179 476 C163 515 177 541 216 541 L235 541 L234 558 L234 558 Z " />
<glyph glyph-name="B_sc" unicode="&#x299;" horiz-adv-x="485" d="M245 304 L229 303 L189 304 L189 542 L240 542 C304 542 347 497 347 429 C347 359 307 311 245 304 L245 304 Z M49 543 L60 543 C98 543 124 517 124 478 L124 80 C124 41 98 15 60 15 L49 15 L49 0 L256 0 C381 0 465 62 465 154 C465 233 399 289 295 302 C367 319 412 366 412 429 C412 506 343 558 240 558 L49 558 L49 543 L49 543 Z M189 291 L229 291 C330 291 397 236 397 154 C397 71 338 16 249 16 L189 16 L189 291 L189 291 Z " />
<glyph glyph-name="H_sc" unicode="&#x29c;" horiz-adv-x="656" d="M616 15 L605 15 C567 15 541 41 541 80 L541 478 C541 517 567 543 605 543 L616 543 L616 558 L401 558 L401 543 L412 543 C450 543 476 517 476 478 L476 304 L182 304 L182 478 C182 517 208 543 246 543 L257 543 L257 558 L42 558 L42 543 L53 543 C91 543 117 517 117 478 L117 80 C117 41 91 15 53 15 L42 15 L42 0 L257 0 L257 15 L246 15 C208 15 182 41 182 80 L182 287 L476 287 L476 80 C476 41 450 15 412 15 L401 15 L401 0 L616 0 L616 15 L616 15 Z " />
<glyph glyph-name="L_sc" unicode="&#x29f;" horiz-adv-x="504" d="M401 166 L375 106 C353 52 303 16 249 16 L182 16 L182 478 C182 517 208 543 246 543 L257 543 L257 558 L42 558 L42 543 L53 543 C91 543 117 517 117 478 L117 80 C117 41 91 15 53 15 L42 15 L42 0 L391 0 L392 8 L393 8 C401 53 412 113 420 158 C413 161 401 166 401 166 L401 166 Z " />
<glyph glyph-name="circumflex" unicode="&#x2c6;" horiz-adv-x="238" d="M140 726 C138 732 130 745 119 745 C108 745 101 732 99 727 C99 727 -4 514 16 538 L23 533 C52 568 93 632 118 672 C154 615 215 534 215 534 L222 539 C222 539 203 598 140 727 L140 726 L140 726 Z " />
<glyph glyph-name="caron" unicode="&#x2c7;" horiz-adv-x="238" d="M215 767 C215 767 154 686 118 629 C93 669 52 733 23 768 L16 763 C-4 787 99 574 99 574 C101 569 108 556 119 556 C130 556 138 569 140 575 C203 704 222 763 222 763 L215 767 L215 767 Z " />
<glyph glyph-name="firsttonechinese" unicode="&#x2c9;" horiz-adv-x="238" d="M10 608 L229 608 L229 644 L10 644 L10 608 L10 608 Z " />
<glyph glyph-name="breve" unicode="&#x2d8;" horiz-adv-x="238" d="M41 711 C56 645 87 601 119 601 C151 601 182 645 197 711 L185 714 C175 672 149 644 119 644 C89 644 63 672 53 714 L41 711 L41 711 Z " />
<glyph glyph-name="dotaccent" unicode="&#x2d9;" horiz-adv-x="238" d="M159 610 C159 661 80 662 80 611 C80 558 159 559 159 611 L159 610 L159 610 Z " />
<glyph glyph-name="ring" unicode="&#x2da;" horiz-adv-x="238" d="M42 628 C42 675 73 706 119 706 C165 706 196 675 196 628 C196 585 161 549 119 549 C77 549 42 585 42 628 L42 628 Z M24 628 C24 578 68 535 119 535 C170 535 214 578 214 628 C214 683 176 720 119 720 C62 720 24 683 24 628 L24 628 Z " />
<glyph glyph-name="A_sc" unicode="&#x1d00;" horiz-adv-x="524" d="M283 0 L519 0 L519 15 C479 15 451 33 434 74 L262 571 L246 571 C196 407 147 243 97 80 C85 41 52 15 14 15 L3 15 L3 0 L204 0 L204 15 L178 15 C130 15 108 47 122 95 L153 199 L325 199 C338 159 351 119 364 79 C377 40 359 14 320 14 L285 14 L283 0 L283 0 Z M320 214 L158 215 L235 476 L320 214 L320 214 Z " />
<glyph glyph-name="C_sc" unicode="&#x1d04;" horiz-adv-x="599" d="M535 64 L535 64 L535 64 Z M526 196 C522 185 517 169 513 158 C483 70 410 11 331 11 C211 11 131 118 131 279 C131 452 219 563 364 545 C428 534 488 478 514 401 L527 362 L540 362 L540 502 C477 539 393 563 332 563 C169 563 60 449 60 279 C60 109 169 -5 332 -5 C393 -5 477 19 540 56 L540 196 L526 196 L526 196 Z " />
<glyph glyph-name="D_sc" unicode="&#x1d05;" horiz-adv-x="582" d="M49 543 L60 543 C98 543 124 517 124 478 L124 80 C124 41 98 15 60 15 L49 15 L49 0 L261 0 C424 0 532 112 532 279 C532 446 416 558 243 558 L49 558 L49 543 L49 543 Z M189 16 L189 542 L243 542 C377 542 467 437 467 279 C467 121 385 16 261 16 L189 16 L189 16 Z " />
<glyph glyph-name="E_sc" unicode="&#x1d07;" horiz-adv-x="504" d="M324 205 L324 381 L312 381 L308 370 C296 332 255 306 204 306 L182 306 L182 542 L232 542 C292 542 345 502 365 442 L376 407 L387 407 L387 558 L42 558 L42 543 L53 543 C91 543 117 517 117 478 L117 80 C117 41 91 15 53 15 L42 15 L42 0 L391 0 L392 8 L393 8 C400 51 410 108 418 151 L407 151 L390 116 C359 56 299 16 239 16 L182 16 L182 290 L204 290 C255 290 296 261 308 218 L312 205 L324 205 L324 205 Z " />
<glyph glyph-name="J_sc" unicode="&#x1d0a;" horiz-adv-x="285" d="M245 558 L30 558 L30 543 L41 543 C79 543 105 517 105 478 L105 169 C105 49 98 3 80 3 C69 3 59 22 55 50 C53 66 41 76 26 76 C8 76 -2 66 0 50 C5 14 31 -10 64 -10 C140 -10 170 56 170 224 L170 478 C170 517 196 543 234 543 L245 543 L245 558 L245 558 Z " />
<glyph glyph-name="K_sc" unicode="&#x1d0b;" horiz-adv-x="527" d="M475 558 L322 558 L322 543 L331 543 C361 543 363 521 339 487 L229 350 L229 350 L189 299 L189 477 C189 516 215 542 253 542 L264 542 L264 557 L49 557 L49 542 L60 542 C98 542 124 516 124 477 L124 79 C124 40 98 14 60 14 L49 14 L49 -1 L264 -1 L264 14 L253 14 C215 14 189 40 189 79 L189 299 C189 299 228 243 287 158 C369 40 426 -6 492 -6 L517 -6 L517 7 C477 7 430 61 327 209 C285 269 253 315 238 337 L352 482 C383 519 427 543 464 543 L475 543 L475 558 L475 558 Z " />
<glyph glyph-name="M_sc" unicode="&#x1d0d;" horiz-adv-x="718" d="M678 559 L575 559 L575 558 L546 558 L373 79 L187 558 L62 558 L62 543 L73 543 C111 543 135 517 133 478 L133 478 L115 72 C110 37 84 14 49 14 L38 14 L38 -1 L242 -1 L242 14 L213 14 C167 14 137 43 136 87 L153 473 C216 313 279 154 342 -6 L358 -6 L548 502 L566 71 C564 36 540 13 505 13 L494 13 L494 -2 L708 -2 L708 13 L697 13 C659 13 632 39 630 78 L630 78 L608 483 C609 518 632 541 667 541 L678 541 L678 559 L678 559 Z M373 76 L373 76 L373 76 Z " />
<glyph glyph-name="O_sc" unicode="&#x1d0f;" horiz-adv-x="642" d="M131 279 C131 424 197 547 326 547 C455 547 521 424 521 279 C521 134 455 11 326 11 C197 11 131 134 131 279 L131 279 Z M59 279 C59 126 150 -5 326 -5 C502 -5 592 126 592 279 C592 432 502 563 326 563 C150 563 59 432 59 279 L59 279 Z " />
<glyph glyph-name="P_sc" unicode="&#x1d18;" horiz-adv-x="458" d="M264 15 L253 15 C215 15 189 41 189 80 L189 251 L236 251 C357 251 438 312 438 404 C438 496 362 558 247 558 L49 558 L49 543 L60 543 C98 543 124 517 124 478 L124 80 C124 41 98 15 60 15 L49 15 L49 0 L264 0 L264 15 L264 15 Z M189 267 L189 542 L247 542 C321 542 370 487 370 404 C370 322 316 268 236 268 C236 268 203 267 189 267 L189 267 Z " />
<glyph glyph-name="T_sc" unicode="&#x1d1b;" horiz-adv-x="503" d="M144 0 L359 0 L359 15 L348 15 C310 15 284 41 284 80 L284 542 L340 542 C388 542 434 510 453 462 L481 392 L493 392 C489 439 483 503 479 550 L480 550 L479 558 L24 558 L23 550 L24 550 C20 503 14 439 10 392 L22 392 L50 462 C69 510 115 542 163 542 L219 542 L219 80 C219 41 193 15 155 15 L144 15 L144 0 L144 0 Z " />
<glyph glyph-name="U_sc" unicode="&#x1d1c;" horiz-adv-x="569" d="M549 558 L355 558 L355 543 L370 543 C413 543 442 516 445 475 L444 155 C444 73 404 19 302 19 C213 19 179 76 179 161 L179 479 C179 518 205 544 243 544 L254 544 L254 559 L39 559 L39 544 L50 544 C88 544 114 518 114 479 L114 174 C114 67 164 -4 293 -4 C416 -4 464 57 464 148 L464 469 C464 514 493 544 536 544 L549 544 L549 558 L549 558 Z " />
<glyph glyph-name="V_sc" unicode="&#x1d20;" horiz-adv-x="523" d="M236 558 L10 558 L10 543 C48 543 77 522 93 478 L93 478 L275 -15 L292 -15 C338 149 383 314 430 478 C441 517 474 543 512 543 L523 543 L523 558 L313 558 L313 543 L334 543 C391 543 418 505 402 448 L402 448 L297 70 C252 206 206 343 162 479 C149 518 166 544 205 544 L235 544 L236 558 L236 558 Z " />
<glyph glyph-name="W_sc" unicode="&#x1d21;" horiz-adv-x="702" d="M698 558 L503 558 L503 543 L539 543 C578 543 598 517 589 478 L589 478 L496 82 L371 568 L355 568 L220 -15 L236 -15 L347 465 L473 -15 L490 -15 C529 149 568 314 608 478 C617 517 649 543 687 543 L698 543 L698 558 L698 558 Z M216 558 L-1 558 L-1 543 C38 543 66 522 79 478 L221 -15 L242 76 L145 481 C138 518 158 543 196 543 L217 543 L216 558 L216 558 Z " />
<glyph glyph-name="Z_sc" unicode="&#x1d22;" horiz-adv-x="476" d="M405 167 L379 107 C357 53 307 17 253 17 L132 17 L413 558 L114 558 C104 517 89 463 78 422 L90 422 L117 462 C148 510 202 542 250 542 L331 542 L50 0 L395 0 L397 8 L397 8 C405 53 416 114 424 159 C417 162 405 167 405 167 L405 167 Z " />
<glyph glyph-name="Wgrave" unicode="&#x1e80;" horiz-adv-x="782" d="M779 675 L581 675 L581 660 L618 660 C657 660 677 634 668 595 L668 595 L532 -15 L551 -15 L689 595 C698 634 729 660 767 660 L779 660 L779 675 L779 675 Z M324 887 C324 881 340 861 365 834 C397 794 479 706 479 706 L486 711 C486 711 430 819 398 859 C379 891 365 913 361 913 C350 913 324 895 324 887 L324 887 Z M224 675 L-1 675 L-1 660 C36 660 60 643 74 604 L241 -15 L259 -15 L387 560 L532 -15 L558 103 L415 685 L397 685 L266 97 L151 602 C146 637 166 660 203 660 L225 660 L224 675 L224 675 Z " />
<glyph glyph-name="Wacute" unicode="&#x1e82;" horiz-adv-x="782" d="M345 706 C345 706 425 794 456 834 C480 862 496 883 496 887 C496 895 470 913 459 913 C456 913 442 891 423 859 C392 819 338 711 338 711 L345 706 L345 706 Z M779 675 L581 675 L581 660 L618 660 C657 660 677 634 668 595 L668 595 L532 -15 L551 -15 L689 595 C698 634 729 660 767 660 L779 660 L779 675 L779 675 Z M224 675 L-1 675 L-1 660 C36 660 60 643 74 604 L241 -15 L259 -15 L387 560 L532 -15 L558 103 L415 685 L397 685 L266 97 L151 602 C146 637 166 660 203 660 L225 660 L224 675 L224 675 Z " />
<glyph glyph-name="Wdieresis" unicode="&#x1e84;" horiz-adv-x="782" d="M533 785 C533 836 453 836 453 785 C453 733 533 733 533 785 L533 785 Z M359 785 C359 836 279 836 279 785 C279 733 359 733 359 785 L359 785 Z M779 675 L581 675 L581 660 L618 660 C657 660 677 634 668 595 L668 595 L532 -15 L551 -15 L689 595 C698 634 729 660 767 660 L779 660 L779 675 L779 675 Z M224 675 L-1 675 L-1 660 C36 660 60 643 74 604 L241 -15 L259 -15 L387 560 L532 -15 L558 103 L415 685 L397 685 L266 97 L151 602 C146 637 166 660 203 660 L225 660 L224 675 L224 675 Z " />
<glyph glyph-name="Etilde" unicode="&#x1ebc;" horiz-adv-x="536" d="M180 770 C180 808 189 834 203 834 C234 834 276 772 307 772 C338 772 359 813 359 875 L348 875 C348 839 338 815 322 815 C291 815 249 877 217 877 C188 877 169 834 169 770 L180 770 L180 770 Z M356 266 L356 444 L344 444 L340 433 C328 395 287 369 236 369 L187 369 L187 657 L265 657 C325 657 378 617 398 557 L409 522 L420 522 L420 675 L40 675 L40 660 L51 660 C89 660 115 634 115 595 L115 80 C115 41 89 15 51 15 L40 15 L40 0 L425 0 L427 9 L425 9 C433 52 443 110 451 153 L440 153 L423 118 C393 58 333 18 273 18 L187 18 L187 351 L236 351 C287 351 328 322 340 279 L344 266 L356 266 L356 266 Z " />
<glyph glyph-name="Ygrave" unicode="&#x1ef2;" horiz-adv-x="536" d="M161 0 L383 0 L383 15 L372 15 C334 15 308 41 308 80 L308 315 C353 408 397 502 443 595 C465 639 497 660 539 660 L539 675 L350 675 L350 660 L368 660 C416 660 435 630 417 584 L292 321 L182 596 C167 634 182 661 222 661 L241 661 L241 676 L16 676 L16 661 C52 661 80 640 99 596 L99 596 L237 282 L237 81 C237 42 211 16 173 16 L162 16 L161 0 L161 0 Z M191 888 C191 882 207 862 232 835 C264 795 346 707 346 707 L353 712 C353 712 297 820 265 860 C246 892 232 914 228 914 C217 914 191 896 191 888 L191 888 Z " />
<glyph glyph-name="quoteleft" unicode="&#x2018;" horiz-adv-x="212" d="M107 477 C135 477 154 496 154 524 C154 556 126 579 91 569 C85 615 107 656 139 672 L134 682 C84 657 50 604 50 549 C50 511 67 476 105 476 L107 477 L107 477 Z " />
<glyph glyph-name="quoteright" unicode="&#x2019;" horiz-adv-x="212" d="M107 680 C79 680 60 661 60 633 C60 601 88 578 123 588 C129 542 107 501 75 485 L80 475 C130 500 164 553 164 608 C164 646 147 681 109 681 L107 680 L107 680 Z " />
<glyph glyph-name="quotedblleft" unicode="&#x201c;" horiz-adv-x="350" d="M245 477 C273 477 292 496 292 524 C292 556 264 579 229 569 C223 615 245 656 277 672 L272 682 C222 657 188 604 188 549 C188 511 205 476 243 476 L245 477 L245 477 Z M105 476 C133 476 152 495 152 523 C152 555 124 578 89 568 C83 614 105 655 137 671 L132 681 C82 656 48 603 48 548 C48 510 65 475 103 475 L105 476 L105 476 Z " />
<glyph glyph-name="quotedblright" unicode="&#x201d;" horiz-adv-x="350" d="M245 680 C217 680 198 661 198 633 C198 601 226 578 261 588 C267 542 245 501 213 485 L218 475 C268 500 302 553 302 608 C302 646 285 681 247 681 L245 680 L245 680 Z M109 681 C81 681 62 662 62 634 C62 602 90 579 125 589 C131 543 109 502 77 486 L82 476 C132 501 166 554 166 609 C166 647 149 682 111 682 L109 681 L109 681 Z " />
<glyph glyph-name="ellipsis" unicode="&#x2026;" horiz-adv-x="495" d="M413 0 C441 0 459 19 459 47 C459 75 441 94 413 94 C385 94 366 75 366 47 C366 19 385 0 413 0 L413 0 Z M248 0 C276 0 294 19 294 47 C294 75 276 94 248 94 C220 94 201 75 201 47 C201 19 220 0 248 0 L248 0 Z M83 0 C111 0 129 19 129 47 C129 75 111 94 83 94 C55 94 36 75 36 47 C36 19 55 0 83 0 L83 0 Z " />
<glyph glyph-name="perthousand" unicode="&#x2030;" horiz-adv-x="996" d="M790 193 C790 291 813 356 847 356 C893 356 923 280 923 167 C923 76 898 16 861 16 C818 16 790 87 790 193 L790 193 Z M726 181 C726 69 778 -5 855 -5 C932 -5 984 73 984 190 C984 301 932 375 855 375 C778 375 726 297 726 181 L726 181 Z M94 545 C94 642 117 706 151 706 C197 706 227 631 227 519 C227 428 202 367 165 367 C122 367 94 438 94 545 L94 545 Z M30 532 C30 420 82 345 159 345 C236 345 288 423 288 541 C288 651 236 725 159 725 C82 725 30 648 30 532 L30 532 Z M500 193 C500 290 524 355 560 355 C610 355 644 280 644 167 C644 76 616 16 575 16 C530 16 500 87 500 193 L500 193 Z M436 181 C436 69 489 -5 569 -5 C651 -5 705 73 705 189 C705 301 651 375 569 375 C489 375 436 297 436 181 L436 181 Z M174 -9 L599 711 L569 729 L145 9 L174 -9 L174 -9 Z " />
<glyph glyph-name="guilsinglleft" unicode="&#x2039;" horiz-adv-x="213" d="M82 251 L166 458 L159 465 L20 254 L20 247 L161 37 L168 44 L82 251 L82 251 Z " />
<glyph glyph-name="guilsinglright" unicode="&#x203a;" horiz-adv-x="213" d="M52 37 L193 247 L193 254 L54 465 L47 458 L131 251 L45 44 L52 37 L52 37 Z " />
<glyph glyph-name="fraction" unicode="&#x2044;" horiz-adv-x="452" d="M45 -9 L469 711 L440 729 L15 9 L45 -9 L45 -9 Z " />
<glyph glyph-name="Euro" unicode="&#x20ac;" horiz-adv-x="676" d="M603 197 C599 186 594 170 590 159 C560 72 483 14 397 12 C282 11 202 110 183 266 L431 266 L438 312 L179 312 C178 328 178 345 179 361 L438 361 L444 407 L183 407 C202 561 282 660 394 660 C410 660 427 659 445 656 C508 643 565 587 590 514 C594 503 599 487 603 476 L616 476 L616 617 L612 609 C612 611 615 614 616 617 C553 654 463 678 393 678 C238 678 129 572 105 407 L57 407 L50 361 L101 361 C100 345 100 328 101 312 L50 312 L43 266 L105 266 C129 100 238 -6 393 -6 C463 -6 553 18 616 55 L612 63 C613 63 616 56 617 55 L617 196 L603 197 L603 197 Z " />
<glyph glyph-name="F_sc" unicode="&#xa730;" horiz-adv-x="419" d="M42 543 L53 543 C91 543 117 517 117 478 L117 80 C117 41 91 15 53 15 L42 15 L42 0 L267 0 L267 15 L247 15 C208 15 182 41 182 80 L182 285 L194 285 C245 285 286 256 298 213 L302 200 L314 200 L314 377 L302 377 L298 366 C286 328 245 302 194 302 L182 302 L182 542 L262 542 C322 542 375 502 395 442 L406 407 L417 407 L417 558 L42 558 L42 543 L42 543 Z " />
<glyph glyph-name="S_sc" unicode="&#xa731;" horiz-adv-x="389" d="M308 369 L308 513 L303 504 L303 504 L308 513 C256 543 209 563 190 563 C106 563 50 499 50 404 C50 345 96 287 165 257 C245 223 298 168 298 119 C298 54 258 11 197 11 C148 11 97 67 68 151 L55 190 L42 190 L42 45 C94 15 156 -5 197 -5 C285 -5 344 55 344 146 C344 205 291 268 211 302 C141 332 95 383 95 430 C95 500 132 547 187 547 C191 547 200 544 213 538 C233 525 252 498 264 463 C273 435 286 398 295 370 L308 369 L308 369 Z " />
<glyph glyph-name="X_sc" unicode="&#xf078;" horiz-adv-x="525" d="M259 558 L37 558 L37 543 C73 543 103 521 126 478 L126 478 C163 408 202 338 238 269 C207 206 176 143 145 80 C126 41 88 15 50 15 L38 15 L38 0 L232 0 L232 15 L209 15 C161 15 145 47 168 95 L168 95 L246 257 L345 73 C361 38 348 15 311 15 L284 15 L284 0 L505 0 L505 15 C469 15 439 37 416 80 L416 80 L284 324 C313 375 342 426 371 477 C393 516 433 542 471 542 L483 542 L483 557 L290 557 L290 542 L327 542 C366 542 377 516 356 477 L356 477 L278 334 L198 482 C181 518 194 542 231 542 L258 542 L259 558 L259 558 Z " />
</font>
</svg>
