<?xml version="1.0" encoding="UTF-8"?>
<svg xmlns="http://www.w3.org/2000/svg" xmlns:xlink="http://www.w3.org/1999/xlink" version="1.2" >
<font id="glamour luxury Round">
<font-face  font-family="glamour luxury" units-per-em="1024" ascent="936" descent="-280" font-style="normal" font-weight="400" font-stretch="normal" cap-height="963" x-height="468" underline-position="-125" underline-thickness="50" />
<missing-glyph  horiz-adv-x="100" d="" />
<glyph glyph-name="NULL" d="" />
<glyph glyph-name="CR" unicode="&#xd;" horiz-adv-x="256" d="" />
<glyph glyph-name="space" unicode="&#x20;" horiz-adv-x="229" d="" />
<glyph glyph-name="exclam" unicode="&#x21;" horiz-adv-x="203" d="M107 -5 C135 -5 154 14 154 42 C154 70 135 89 107 89 C79 89 60 70 60 42 C60 14 79 -5 107 -5 L107 -5 Z M143 632 C145 661 129 680 103 680 C77 680 61 661 63 632 C63 492 103 164 103 164 C103 164 104.507 164 107 164 C109.199 164 110.847 162.418 111.059 164.607 C112.58 180.283 143 495.5 143 632 L143 632 Z " />
<glyph glyph-name="quotedbl" unicode="&#x22;" horiz-adv-x="276" d="M159.823 634.065 L188.096 464.425 C188.588 461.471 191.505 459 194.5 459 C197.495 459 200.412 461.471 200.904 464.425 L229.177 634.065 C232.892 656.352 217.095 675 194.5 675 C171.905 675 156.108 656.352 159.823 634.065 L159.823 634.065 Z M46.8226 634.065 L75.0958 464.425 C75.5881 461.471 78.5055 459 81.5 459 C84.4945 459 87.4119 461.471 87.9042 464.425 L116.177 634.065 C119.892 656.352 104.095 675 81.5 675 C58.9049 675 43.1079 656.352 46.8226 634.065 L46.8226 634.065 Z " />
<glyph glyph-name="numbersign" unicode="&#x23;" horiz-adv-x="433" d="M315.178 662.634 L295.852 531.498 C292.11 506.107 267.665 485 242 485 C216.335 485 198.11 506.107 201.852 531.498 L221.178 662.634 C222.173 669.387 217.326 675 210.5 675 C203.674 675 197.173 669.387 196.178 662.634 L177.348 534.858 C173.335 507.632 147.123 485 119.603 485 L90.2438 485 C76.4446 485 63.4132 473.666 61.5 460 C59.5868 446.334 69.4446 435 83.2438 435 L110.5 435 C139.187 435 159.632 411.427 155.575 383.028 L140.159 275.114 C136.247 247.73 110.039 225 82.3777 225 L51.318 225 C37.5187 225 24.1802 213.626 22 200 C19.8198 186.374 29.5187 175 43.318 175 L71.5 175 C100.734 175 121.568 150.977 117.434 122.038 L101.768 12.3744 C100.802 5.61274 105.67 0 112.5 0 C119.33 0 125.802 5.61274 126.768 12.3744 L143.353 128.472 C146.985 153.896 171.318 175 197 175 C222.682 175 240.985 153.896 237.353 128.472 L220.768 12.3744 C219.802 5.61274 224.67 0 231.5 0 C238.33 0 244.802 5.61274 245.768 12.3744 L262.565 129.957 C266.081 154.57 289.638 175 314.5 175 L334.756 175 C348.555 175 361.587 186.334 363.5 200 C365.413 213.666 355.555 225 341.756 225 L322 225 C297.411 225 279.887 245.206 283.364 269.548 L300 385.998 C303.825 412.774 329.452 435 356.5 435 L380.756 435 C394.555 435 407.587 446.334 409.5 460 C411.413 473.666 401.555 485 387.756 485 L363.5 485 C336.469 485 317.276 507.229 321.217 533.971 L340.178 662.634 C341.173 669.387 336.326 675 329.5 675 C322.674 675 316.173 669.387 315.178 662.634 L315.178 662.634 Z M235 435 C260.682 435 278.985 413.896 275.353 388.472 L258.647 271.528 C255.015 246.104 230.682 225 205 225 C179.318 225 161.015 246.104 164.647 271.528 L181.353 388.472 C184.985 413.896 209.318 435 235 435 L235 435 Z " />
<glyph glyph-name="dollar" unicode="&#x24;" horiz-adv-x="426" d="M42 185.41 L42 51.265 C42 49.6091 44.2071 49.0463 45 50.5 C43.3141 47.4092 43.9191 43.882 47.0014 42.1804 C73.1014 27.7712 103.136 15.8546 132.914 7.82705 C142.348 5.28395 153 -6.64588 153 -16.4165 L153 -63 C153 -69.0717 157.928 -74 164 -74 C170.072 -74 175 -69.0717 175 -63 L175 -11.1119 C175 -5.72487 179.047 -1.63191 184.394 -2.2823 C197.446 -3.8697 209.554 -4.4583 222.606 -3.7337 C227.896 -3.43999 232 -7.75142 232 -13.0499 L232 -63 C232 -69.0717 236.928 -74 243 -74 C249.072 -74 254 -69.0717 254 -63 L254 -37 C254 -22.2216 272.894 4.67436 286.303 10.8866 C343.597 37.43 379 97.1 379 177 C379 234.75 341.484 294.031 281.191 336.756 C270.103 344.613 254 374.449 254 388.039 L254 629.58 C254 635.053 259.666 637.088 263.487 633.169 C278.28 617.997 290.543 598.371 298 576 C306.538 550.385 318.677 515.769 327.585 489.23 C328.665 486.013 332.106 485 335.5 485 C339.088 485 342 487.912 342 491.5 L342 625.169 C342 626.825 339.852 627.42 339 626 C339 626 339 626 339 626 C340.674 628.791 340.302 632.027 337.493 633.67 C313.423 647.748 288.873 659.234 266.403 667.616 C259.761 670.093 254 679.141 254 686.23 L254 741 C254 747.072 249.072 752 243 752 C236.928 752 232 747.072 232 741 L232 689.308 C232 684.083 228.04 680.036 222.897 680.956 C209.411 683.369 196.589 683.459 183.103 681.558 C177.896 680.825 174 684.939 174 690.198 L174 742 C174 748.072 169.072 753 163 753 C156.928 753 152 748.072 152 742 L152 708.645 C152 696.811 129.903 664.196 120.171 657.465 C73.9056 625.465 46 565.9 46 490 C46 438.15 76.345 385.577 124.753 347.021 C134.253 339.455 152 307.362 152 295.217 L152 56.36 C152 45.7519 144.29 39.8536 136.161 46.6696 C106.97 71.1475 82.15 109.1 66 155 C62.4706 164.706 58.1626 178.304 54.45 188.926 C53.4315 191.84 50.5371 192.552 47.5 192 C44.5131 191.457 42 188.446 42 185.41 L42 185.41 Z M174 32.8489 L174 304.37 C174 310.2 179.528 313.373 184.768 310.817 C198.281 304.227 211.291 297.488 223.516 290.039 C228.086 287.254 233 278.534 233 273.183 L233 28.1018 C233 21.5613 229.609 16.421 223.084 15.9741 C208.549 14.9786 195.471 16.4533 182.854 20.7301 C177.475 22.5534 174 27.1691 174 32.8489 L174 32.8489 Z M233 648.151 L233 379.63 C233 373.693 227.573 370.587 222.316 373.346 C209.01 380.33 196.561 388.098 184.971 396.37 C180.895 399.28 176 408.692 176 413.7 L176 651.56 C176 657.878 178.982 663.076 185.192 664.24 C198.915 666.813 212.325 665.865 225.089 661.727 C230.593 659.943 233 653.937 233 648.151 L233 648.151 Z M137.03 438.13 C112.612 465.508 99 494.775 99 522 C99 573.85 114.173 615.585 139.604 641.064 C146.86 648.333 154 642.746 154 632.476 L154 444.712 C154 434.64 143.734 430.613 137.03 438.13 L137.03 438.13 Z M278.004 251.072 C309.943 219.042 329 184 329 151 C329 99.025 309.943 58.6206 278.004 36.5251 C266.164 28.3339 256 34.6548 256 49.052 L256 241.871 C256 254.845 268.843 260.259 278.004 251.072 L278.004 251.072 Z " />
<glyph glyph-name="percent" unicode="&#x25;" horiz-adv-x="717" d="M94 545 C94 642 117 706 151 706 C197 706 227 631 227 519 C227 428 202 367 165 367 C122 367 94 438 94 545 L94 545 Z M30 532 C30 420 82 345 159 345 C236 345 288 423 288 541 C288 651 236 725 159 725 C82 725 30 648 30 532 L30 532 Z M500 193 C500 290 524 355 560 355 C610 355 644 280 644 167 C644 76 616 16 575 16 C530 16 500 87 500 193 L500 193 Z M436 181 C436 69 489 -5 569 -5 C651 -5 705 73 705 189 C705 301 651 375 569 375 C489 375 436 297 436 181 L436 181 Z M182.675 5.69668 L590.108 695.936 C595.016 704.251 592.279 715.032 584 720 C575.721 724.968 565.023 722.246 560.123 713.927 L153.66 23.7056 C148.881 15.5908 151.499 4.96638 159.5 0 C167.502 -4.9665 177.888 -2.41344 182.675 5.69668 L182.675 5.69668 Z " />
<glyph glyph-name="ampersand" unicode="&#x26;" horiz-adv-x="673" d="M580.483 307 L431.5 307 C427.36 307 424 303.64 424 299.5 L424 297.5 C424 294.464 426.464 292 429.5 292 L435 292 C473 292 499 266 499 227 L499 196 C499 172.8 494.194 150.973 485.152 131.657 C482.049 125.028 475.5 123.614 470.45 128.912 C444.35 156.29 414.2 189.5 380 230 C348.65 267.95 320.023 309.984 295.802 351.048 C289.032 362.525 297.855 381.705 310.014 387.158 C374.422 416.047 415 480.25 415 559 C415 632 365 681 290 681 C214 681 164 615 164 515 C164 491.075 178.293 447.412 202.949 395.802 C210.783 379.403 206.059 356.263 189.968 347.812 C103.46 302.38 50 232 50 160 C50 61 126 -5 241 -5 C320.05 -5 386.095 13.785 433.608 47.0561 C444.875 54.946 471.43 54.3437 482.65 46.387 C555.362 -5.17675 610.466 -8.73581 668.057 0.203953 C671.055 0.669337 673 3.46602 673 6.5 C673 9.3659 669.368 11.3398 666.529 10.9505 C627.543 5.6045 585.034 18.2405 504.738 95.5145 C499.499 100.557 495.172 116.326 498.227 122.926 C508.555 145.242 514 169.6 514 196 L514 227 C514 266 540 292 578 292 L583.5 292 C586.529 292 588.836 294.465 588.634 297.488 L588.5 299.5 C588.225 303.631 584.623 307 580.483 307 L580.483 307 Z M216 543 C216 617 244 666 287 666 C334 666 366 622 366 555 C366 481.9 340.712 423.25 299.963 396.245 C282.521 384.686 273.247 391.483 263.777 410.143 C234.492 467.852 216.5 518 216.5 542.5 L216 543 Z M427.191 61.1119 C389.33 36.7275 338.5 23 279 23 C179 23 113 87 113 184 C113 242.625 147.453 298.188 203.631 335.279 C218.752 345.263 235.777 337.496 244.944 321.866 C271.103 277.264 302.35 231.25 337 190 C371.85 148.35 402.726 115.009 431.471 88.748 C440.852 80.1779 437.873 67.9918 427.191 61.1119 L427.191 61.1119 Z " />
<glyph glyph-name="quotesingle" unicode="&#x27;" horiz-adv-x="163" d="M46.8226 634.065 L75.0958 464.425 C75.5881 461.471 78.5055 459 81.5 459 C84.4945 459 87.4119 461.471 87.9042 464.425 L116.177 634.065 C119.892 656.352 104.095 675 81.5 675 C58.9049 675 43.1079 656.352 46.8226 634.065 L46.8226 634.065 Z " />
<glyph glyph-name="parenleft" unicode="&#x28;" horiz-adv-x="192" d="M167.943 698.854 C102.778 618.031 60 500.3 60 278 C60 54.725 102.778 -63.0306 167.943 -143.854 C169.958 -146.353 174.967 -148.47 177.5 -146.5 C179.897 -144.636 180.674 -141.454 178.801 -139.065 C137.568 -86.455 110 23.525 110 278 C110 532.475 137.568 641.504 178.801 694.067 C180.676 696.457 179.898 699.635 177.5 701.5 C174.967 703.47 169.958 701.353 167.943 698.854 L167.943 698.854 Z " />
<glyph glyph-name="parenright" unicode="&#x29;" horiz-adv-x="192" d="M15.0565 -143.854 C80.2219 -63.0312 123 54.7 123 277 C123 500.275 80.2219 618.031 15.0565 698.854 C13.0422 701.353 8.03322 703.47 5.5 701.5 C3.10338 699.636 2.32558 696.454 4.19852 694.065 C45.4319 641.455 73 531.475 73 277 C73 22.525 45.4319 -86.5044 4.19852 -139.067 C2.32371 -141.457 3.10233 -144.635 5.5 -146.5 C8.03321 -148.47 13.0422 -146.353 15.0565 -143.854 L15.0565 -143.854 Z " />
<glyph glyph-name="asterisk" unicode="&#x2a;" horiz-adv-x="280" d="M264 597 C295 608 271 651.5 244 632.5 L198.5 596.25 C181.334 582.574 158.253 595.844 161.436 617.56 L170 676 C172 691 164 701 150 701 C136 701 128 691 130 676 L138.5 618.5 C141.691 596.914 118.682 583.717 101.661 597.371 L56 634 C44 644 31 642 24 630 C17 617 22 605 36 599 L91 577.5 C111.589 569.452 111.589 542.548 91 534.5 L36 513 C5 502 30 458 56 478 L101.661 514.629 C118.682 528.283 141.691 515.086 138.5 493.5 L130 436 C128 421 136 411 150 411 C164 411 172 421 170 436 L161.458 494.286 C158.279 515.982 181.396 529.221 198.5 515.5 L228.278 491.612 C236.849 484.736 248.548 486.959 254 496.5 C259.459 506.054 255.47 517.317 245.215 521.305 L209.833 535.065 C189.935 542.803 190.041 568.923 210 576.5 L264 597 L264 597 Z M244 479 L244 479 L244 479 L244 479 Z M249.731 475.153 C259.956 469.881 270.105 472.895 276 483 C281.833 493 279.333 503 270.236 509.528 C266.006 512.563 262.778 510.923 260.139 506.436 L247.96 485.732 C245.242 481.112 244.967 477.609 249.731 475.153 L249.731 475.153 Z " />
<glyph glyph-name="plus" unicode="&#x2b;" horiz-adv-x="474" d="M219 394.5 L219 322.368 C219 290.151 192.849 264 160.632 264 L89 264 C81.2724 264 75 257.728 75 250 C75 242.272 81.2724 236 89 236 L160.632 236 C192.849 236 219 209.849 219 177.632 L219 106.5 C219 97.9445 225.944 91 234.5 91 C243.056 91 250 97.9445 250 106.5 L250 177.632 C250 209.849 276.151 236 308.368 236 L380 236 C387.728 236 394 242.272 394 250 C394 257.728 387.728 264 380 264 L308.368 264 C276.151 264 250 290.151 250 322.368 L250 394.5 C250 403.056 243.056 410 234.5 410 C225.944 410 219 403.056 219 394.5 L219 394.5 Z " />
<glyph glyph-name="comma" unicode="&#x2c;" horiz-adv-x="212" d="M107 89 C79 89 60 70 60 42 C60 14 79 -5 107 -5 C110.5 -5 114.766 -1.9375 119.127 2.84766 C120.254 4.08413 121.406 2.97822 121.688 1.3292 C129.426 -43.8865 109.442 -86.7707 80.7295 -104.371 C78.7303 -105.597 76 -110.155 76 -112.5 C76 -115.286 77.3915 -117.351 79.866 -116.071 C129.679 -90.2994 162 -37.625 162 16 C162 53 145 88.5 107 88.5 L107 89 Z " />
<glyph glyph-name="hyphen" unicode="&#x2d;" horiz-adv-x="174" d="M45 210 L129 210 C142.799 210 154 221.201 154 235 C154 248.799 142.799 260 129 260 L45 260 C31.2007 260 20 248.799 20 235 C20 221.201 31.2007 210 45 210 L45 210 Z " />
<glyph glyph-name="period" unicode="&#x2e;" horiz-adv-x="232" d="M125 -5 C153 -5 172 14 172 42 C172 70 153 89 125 89 C97 89 78 70 78 42 C78 14 97 -5 125 -5 L125 -5 Z " />
<glyph glyph-name="slash" unicode="&#x2f;" horiz-adv-x="339" d="M14.5 -145 C22.0393 -145 31.3364 -138.443 33.8669 -131.341 L334.133 711.341 C336.664 718.443 332.039 725 324.5 725 C316.961 725 307.664 718.443 305.133 711.341 L4.86693 -131.341 C2.33638 -138.443 6.96075 -145 14.5 -145 L14.5 -145 Z " />
<glyph glyph-name="zero" unicode="0" horiz-adv-x="522" d="M122 250 C122 395 178 491 261 491 C344 491 400 395 400 250 C400 105 344 9 261 9 C178 9 122 105 122 250 L122 250 Z M50 250 C50 97 134 -5 261 -5 C388 -5 472 97 472 250 C472 403 388 505 261 505 C134 505 50 403 50 250 L50 250 Z " />
<glyph glyph-name="one" unicode="1" horiz-adv-x="325" d="M264.5 15 L259 15 C221 15 195 41 195 80 L195 420 C195 459 221 485 259 485 L264.5 485 C267.536 485 270 487.464 270 490.5 L270 492.5 C270 496.64 266.64 500 262.5 500 L62.5 500 C58.3602 500 55 496.64 55 492.5 L55 490.5 C55 487.464 57.4642 485 60.5 485 L66 485 C104 485 130 459 130 420 L130 80 C130 41 104 15 66 15 L60.5 15 C57.4642 15 55 12.5358 55 9.5 L55 7.5 C55 3.36022 58.3602 0 62.5 0 L262.5 0 C266.64 0 270 3.36022 270 7.5 L270 9.5 C270 12.5358 267.536 15 264.5 15 L264.5 15 Z " />
<glyph glyph-name="two" unicode="2" horiz-adv-x="401" d="M360.5 134.5 L360 129 C356 91 328 65 289 65 L201 65 C172.767 65 160.46 99.1116 183.088 115.996 C285.063 192.084 347 252.825 347 351 C347 443 297 505 223 505 C168.4 505 109.998 448.913 73.7446 364.545 C72.7104 362.139 72.7787 356.888 75 355.5 C77.1384 354.163 79.9236 355.292 80.9121 357.612 C106.248 417.074 150.025 457 190 457 C240 457 274 405 274 328 C274 166.15 178.938 128.832 36.0823 22.332 C33.5731 20.4614 25 10.1297 25 7 C25 3.13621 28.1362 0 32 0 L333.398 0 C350.233 0 365.125 13.7212 366.5 30.5 L369 61 C370.771 84.9143 373.327 110.398 375.278 131.891 C375.652 136.013 372.638 140 368.5 140 L366.523 140 C363.487 140 360.775 137.523 360.5 134.5 L360.5 134.5 Z " />
<glyph glyph-name="three" unicode="3" horiz-adv-x="378" d="M89 185 C191 185 259 126 259 37 C259 -99 165 -197 24 -207 C21.7837 -207.157 24.2244 -208.795 24.5 -211 C24.7832 -213.265 36.2626 -214.079 38.5347 -213.857 C212.974 -196.827 328 -95.5 328 41 C328 125.15 268.033 186.18 173.277 204.438 C160.926 206.818 159.004 229.562 169.838 235.951 C242.121 278.577 285 329.15 285 377 C285 453 242 504 178 504 C112.675 504 46.3994 454.568 11.6132 380.728 C10.5354 378.44 10.738 374.131 13 373 C15.142 371.929 17.674 372.558 18.704 374.72 C41.5519 422.679 91.35 455 144 455 C190 455 220 415 220 355 C220 296 158 235 61 197 C50.3333 193.444 38.8765 189.099 26.6296 184.665 C23.9578 183.698 22 180.342 22 177.5 C22 174.646 25.1873 173.001 27.925 173.808 C46.33 179.235 70 184.5 88 184.5 L89 185 Z " />
<glyph glyph-name="four" unicode="4" horiz-adv-x="368" d="M287.725 494.122 L287 495.5 C284.699 499.871 284.256 509.159 281.9 504.817 C279.334 500.086 228 404.95 228 364 L228 359 C228 357.643 223.657 346.197 222.994 345.012 C157.214 227.387 64.65 80.15 31.5 27.5 C22.8158 13.2895 20.6759 12.4792 20.1598 5.87914 C19.8351 1.7268 22.835 -1 27 -1 L169.632 -1 C201.849 -1 228 -27.1506 228 -59.368 L228 -118.5 C228 -136.439 242.561 -151 260.5 -151 C278.439 -151 293 -136.439 293 -118.5 L293 -33.5 C293 -15.561 307.561 -1 325.5 -1 L343.5 -1 C351.504 -1 358 5.49643 358 13.5 C358 21.5036 351.504 28 343.5 28 L325.5 28 C307.561 28 293 42.561 293 60.5 L293 431.791 C293 433.916 296.772 453.026 297.531 455.011 C304.795 474.008 306.234 486.208 300.367 487.538 C298.685 487.92 288.529 492.596 287.725 494.122 L287.725 494.122 Z M70.0181 57.1927 C103.644 110.732 154.543 192.643 200.419 270.682 C208.921 285.144 229 275.192 229 258.417 L229 85.368 C229 53.1506 202.849 27 170.632 27 L84.7083 27 C68.999 27 61.6629 43.8896 70.0181 57.1927 L70.0181 57.1927 Z M294 494.5 L294 497.5 C294 500.536 291.536 503 288.5 503 C286.992 503 287.214 504.984 288.676 505.352 C295.157 506.981 297.343 502.685 295.824 493.648 C295.602 492.325 294 493.158 294 494.5 L294 494.5 Z " />
<glyph glyph-name="five" unicode="5" horiz-adv-x="363" d="M322.5 575 L320.852 575 C317.817 575 314.037 572.353 313 569.5 L311 564 C298 526 264 500 225 500 L122.5 500 C99.1301 500 78.8947 477.458 78.271 454.097 C75.67 356.668 67 210 67 210 C67 210 70.8376 210 75 210 L77.5 210 C80.5358 210 83 212.464 83 215.5 L83 216 C83 213.24 85.2402 211 88 211 L94 211 C186 211 248 148 248 54 C248 -74 161 -165 30 -172 C27.5085 -172.133 30.2245 -174.02 30.5 -176.5 C30.7839 -179.055 41.0086 -180.303 43.5691 -180.078 C205.579 -165.874 313 -65.4 313 75 C313 195 239 275 127 275 L107 275 C95.9955 275 87.6865 285.265 88.4074 296.246 C90.5893 329.481 93.0218 368.298 94.7823 405.007 C95.463 419.201 107.809 433 122.019 433 L265.054 433 C274.437 433 285.743 441.111 288.75 450 L294.5 467 C305.6 502.15 316.7 535.589 327.8 568.108 C329.064 571.81 326.412 575 322.5 575 L322.5 575 Z " />
<glyph glyph-name="six" unicode="6" horiz-adv-x="489" d="M406.159 714.176 C201.989 699.602 67 534.925 67 298 C67 116 141 -5 253 -5 C372 -5 446 83 439 216 C439 343 375 428 280 428 C224.725 428 181.701 401.456 157.105 355.667 C154.636 351.069 144.806 351.556 145.118 356.766 C157.335 560.835 266.3 698.3 424 704 C427.052 704.11 423.546 706.495 423 709.5 C422.43 712.637 409.34 714.403 406.159 714.176 L406.159 714.176 Z M271 411 C332 411 372 331 372 212 C378 93 334 13 262 13 C190 13 142 102 142 235 C142 236.932 143.568 235 145.5 235 C147.384 235 148.768 240.999 148.726 242.882 C146.468 344.456 194.95 411 271 411 L271 411 Z " />
<glyph glyph-name="seven" unicode="7" horiz-adv-x="359" d="M32.5 364.5 L33 370 C37 408 65 434 104 434 L234.593 434 C278.839 434 305.259 394.887 288.741 353.841 L103.627 -106.139 C96.6491 -123.478 107.81 -140 126.5 -140 C145.843 -140 166.849 -126.904 172.293 -108.343 C231.105 92.1975 289.15 293.55 349 494 C349.514 495.721 347.65 495.62 346.5 497 C345.44 498.272 341.751 500 340.095 500 L46.568 500 C37.4605 500 29.3246 492.57 28.5 483.5 L27 467 C24.1538 436.641 20.4076 395.481 17.4692 364.015 C17.0861 359.912 20.3797 359 24.5 359 L26.4773 359 C29.5132 359 32.2251 361.477 32.5 364.5 L32.5 364.5 Z " />
<glyph glyph-name="eight" unicode="8" horiz-adv-x="459" d="M309.516 374.548 C346.091 398.737 370.498 444.898 375.878 503.884 C377.306 519.538 365.946 526.914 350.5 524 C337.235 521.497 323.95 503.169 323.082 489.697 C319.086 427.68 302.328 382.424 278.424 365.72 C275.907 363.961 272.486 363.554 269.598 364.598 C260.049 368.049 250.4 371.4 240 374 C181 389 142 451 142 529 C142 611 177 665 229 665 C279.4 665 315.22 617.21 321.88 543.5 C323.12 529.778 336.452 520.491 350 523 C367.018 526.151 377.584 537.187 375.29 554.341 C365.12 630.4 310.4 679 233 679 C145 679 87 609 87 504 C87 438.825 112.183 381.137 154.127 344.412 C161.898 337.608 160.562 317.432 151.143 313.193 C94.68 287.782 60 234.7 60 165 C60 62 130 -6 234 -6 C338 -6 408 68 408 178 C408 246.25 370.102 307.992 308.373 345.809 C300.686 350.518 301.997 369.575 309.516 374.548 L309.516 374.548 Z M121 176 C121 242.5 145.368 292.755 185.529 314.762 C187.86 316.039 193.883 317.05 196.289 315.918 C204.878 311.878 213.571 308.571 223 306 C297 287 347 226 347 154 C347 65 303 6 237 6 C167 6 121 74 121 175 L121 176 Z " />
<glyph glyph-name="nine" unicode="9" horiz-adv-x="489" d="M82.8408 -214.176 C287.011 -199.602 422 -34.925 422 202 C422 384 348 505 236 505 C117 505 43 417 50 284 C50 157 114 72 209 72 C264.275 72 307.299 98.5444 331.895 144.333 C334.364 148.931 344.194 148.444 343.882 143.234 C331.665 -60.835 222.7 -198.3 65 -204 C61.9482 -204.11 65.4537 -206.495 66 -209.5 C66.5704 -212.637 79.6603 -214.403 82.8408 -214.176 L82.8408 -214.176 Z M218 89 C157 89 117 169 117 288 C111 407 155 487 227 487 C299 487 347 398 347 265 C347 263.068 345.432 265 343.5 265 C341.616 265 340.232 259.001 340.274 257.118 C342.532 155.544 294.05 89 218 89 L218 89 Z " />
<glyph glyph-name="colon" unicode="&#x3a;" horiz-adv-x="232" d="M125 376 C153 376 172 395 172 423 C172 451 153 469 125 469 C97 469 78 451 78 423 C78 395 97 376 125 376 L125 376 Z M125 -5 C153 -5 172 14 172 42 C172 70 153 89 125 89 C97 89 78 70 78 42 C78 14 97 -5 125 -5 L125 -5 Z " />
<glyph glyph-name="semicolon" unicode="&#x3b;" horiz-adv-x="212" d="M107 376 C135 376 154 395 154 423 C154 451 135 470 107 470 C79 470 60 451 60 423 C60 395 79 376 107 376 L107 376 Z M107 89 C79 89 60 70 60 42 C60 14 79 -5 107 -5 C110.5 -5 114.766 -1.9375 119.127 2.84766 C120.254 4.08413 121.406 2.97822 121.688 1.3292 C129.426 -43.8865 109.442 -86.7707 80.7295 -104.371 C78.7303 -105.597 76 -110.155 76 -112.5 C76 -115.286 77.3915 -117.351 79.866 -116.071 C129.679 -90.2994 162 -37.625 162 16 C162 53 145 88.5 107 88.5 L107 89 Z " />
<glyph glyph-name="less" unicode="&#x3c;" horiz-adv-x="456" d="M367.364 491.63 L47 295 C45 295 42 291 40 291 L40 265.031 C40 263.099 41.8226 259.958 43.5 259 L47 257 L366.975 58.6921 C373.555 54.614 381 58.7587 381 66.5 C381 74.2858 373.55 87.5213 366.895 91.5608 L145.428 225.973 C105.116 250.439 105.175 301.464 145.543 325.837 L367.303 459.73 C373.775 463.638 381 476.44 381 484 C381 491.527 373.779 495.568 367.364 491.63 L367.364 491.63 Z " />
<glyph glyph-name="equal" unicode="&#x3d;" horiz-adv-x="449" d="M80 200 C80 192.272 86.2724 186 94 186 L365 186 C372.728 186 379 192.272 379 200 C379 207.728 372.728 214 365 214 L94 214 C86.2724 214 80 207.728 80 200 L80 200 Z M80 300 C80 292.272 86.2724 286 94 286 L365 286 C372.728 286 379 292.272 379 300 C379 307.728 372.728 314 365 314 L94 314 C86.2724 314 80 307.728 80 300 L80 300 Z " />
<glyph glyph-name="greater" unicode="&#x3e;" horiz-adv-x="449" d="M91.6501 60.6572 C194.327 126.42 297.048 192.953 400.602 258.673 C405.714 261.918 409 270.945 409 277 L409 290 C406 290 402 296 399 296 L88.5209 492.445 C82.2141 496.436 75 492.463 75 485 C75 477.505 82.2178 464.501 88.5779 460.536 L303.749 326.404 C343.069 301.892 343.128 252.015 303.864 227.412 L89.4055 93.0268 C82.6676 88.8047 75 74.9514 75 67 C75 59.0927 84.9915 56.3925 91.6501 60.6572 L91.6501 60.6572 Z " />
<glyph glyph-name="question" unicode="&#x3f;" horiz-adv-x="287" d="M116 -5 C144 -5 163 14 163 42 C163 70 144 89 116 89 C88 89 69 70 69 42 C69 14 88 -5 116 -5 L116 -5 Z M148.5 328 L166 328 C238 328 252 405 252 448 C252 587 191 680 99 680 C64 680 40 654 40 615 C40 602 53 594 73 594 C87 594 106 629 120 629 C190 629 237 560 237 456 C237 428 222 378 144 378 L109 378 C101 378 97 374 97 368 L110.681 175.489 C110.857 173.017 113.022 171 115.5 171 C117.978 171 120.141 173.017 120.315 175.489 L129.777 310.543 C130.45 320.155 138.864 328 148.5 328 L148.5 328 Z " />
<glyph glyph-name="at" unicode="&#x40;" horiz-adv-x="1026" d="M915.877 -10.5611 C847.042 -146.691 691.7 -237 524 -237 C273 -237 106 -39 106 259 C106 557 269 755 513 755 C758 755 921 590 921 343 C921 141 851 6 745 6 C644 6 596 84 625 200 L687.603 450.411 C691.564 466.255 680.832 480 664.5 480 C648.191 480 630.479 466.252 626.433 450.454 L620.201 426.118 C618.588 419.821 607.386 419.792 604.987 425.834 C588.971 466.178 557.25 490 516 490 C364 490 263 372 263 195 C263 85 320 11 405 11 C456.15 11 503.216 40.2669 537.215 89.2549 C542.599 97.0141 561.183 95.1608 564.008 86.1484 C584.423 21.015 644.9 -18 735 -18 C877 -18 972 126 972 342 C972 601 789 773 514 773 C239 773 56 567 56 258 C56 -51 244 -257 525 -257 C699.525 -257 862.643 -160.036 937.423 -12.4517 C940.015 -7.33577 937.729 -0.760423 932 -0.5 C926.659 -0.257213 918.29 -5.78963 915.877 -10.5611 L915.877 -10.5611 Z M602.257 348.029 L565 199 C542 107 492 46 440 46 C378 46 336 110 336 206 C336 365 408 471 516 471 C567.675 471 602.239 426.321 603.935 360.133 C603.965 358.961 602.542 349.166 602.257 348.029 L602.257 348.029 Z " />
<glyph glyph-name="A" unicode="A" horiz-adv-x="568" d="M326.016 0 L555.5 0 C559.64 0 563 3.36022 563 7.5 C563 11.3547 558.257 15.0235 554.411 15.289 C519.868 17.6738 494.8 34.925 480 71 L284.738 682.427 C283.298 686.935 277.732 691 273 691 C268.215 691 261.019 680.38 259.727 675.773 C204.199 477.801 149.55 278.925 93 81 C82 42 49 16 11 16 L5.5 16 C2.46416 16 0 13.5358 0 10.5 L0 8.5 C0 4.36022 3.36022 1 7.5 1 L197.5 1 C201.64 1 205 4.36022 205 8.5 C205 12.6398 201.64 16 197.5 16 L179 16 C131 16 108 48 121 96 L149.234 199.055 C155.498 221.917 181.823 242 205.528 242 L324.84 242 C339.652 242 357.203 227.838 361.476 213.655 C374.889 169.131 388.625 124.725 401 81 C413 42 395 16 356 16 L327.016 16 C322.6 16 318.775 12.4072 318.5 8 C318.225 3.59284 321.6 0 326.016 0 L326.016 0 Z M269.407 260.432 L241.921 260.583 C201.423 260.805 175.293 295.183 185.918 334.263 L209.5 421 C222.115 467.402 286.408 468.118 300.053 422.009 L325.696 335.363 C337.482 295.54 310.936 260.204 269.407 260.432 L269.407 260.432 Z " />
<glyph glyph-name="B" unicode="B" horiz-adv-x="527" d="M52.5 660 L58 660 C96 660 122 634 122 595 L122 80 C122 41 96 15 58 15 L52.5 15 C49.4642 15 47 12.5358 47 9.5 L47 7.5 C47 3.36022 50.3602 0 54.5 0 L285 0 C418 0 507 74 507 185 C507 269 451.109 330.797 360.766 354.982 C353.324 356.974 353.11 373.657 360.095 376.906 C418.288 403.974 453 455 453 521 C453 613 378 675 266 675 L54.5 675 C50.3602 675 47 671.64 47 667.5 L47 665.5 C47 662.464 49.4642 660 52.5 660 L52.5 660 Z M194 395 L194 621 C194 640.871 210.129 657 230 657 L266 657 C335 657 381 603 381 521 C381 428 329 366 252 366 L223 366 C206.993 366 194 378.993 194 395 L194 395 Z M221.5 352 L249 352 C358 352 431 285 431 185 C431 85 370 18 278 18 L236 18 C212.817 18 194 36.8173 194 60 L194 324.5 C194 339.679 206.321 352 221.5 352 L221.5 352 Z " />
<glyph glyph-name="C" unicode="C" horiz-adv-x="633" d="M569 64 L569 64 L569 64 Z M557.8 190.764 C554.266 180.509 550.294 168.059 547 159 C518 74 442 16 357 14 C224 11 137 141 137 338 C137 532 223 662 351 662 C367 662 384 661 401 658 C464 645 521 589 546 515 C549.529 505.294 553.837 491.696 557.55 481.074 C558.57 478.157 561.762 477 564.852 477 L565.5 477 C569.088 477 572 479.912 572 483.5 L572 613.528 C572 614.632 570.494 614.987 570 614 L568 610 C568 612 571 615 572 618 C509 655 420 679 350 679 C174 679 56 542 56 337 C56 131 174 -6 350 -6 C409.5 -6 482.728 11.34 542.047 39.2646 C558.781 47.1422 572 69.9148 572 88.4102 L572 189.979 C572 193.291 569.3 196.225 566 196.5 L565.832 196.514 C562.657 196.779 558.838 193.777 557.8 190.764 L557.8 190.764 Z " />
<glyph glyph-name="D" unicode="D" horiz-adv-x="623" d="M52.5 660 L58 660 C96 660 122 634 122 595 L122 80 C122 41 96 15 58 15 L52.5 15 C49.4642 15 47 12.5358 47 9.5 L47 7.5 C47 3.36022 50.3602 0 54.5 0 L289 0 C459 0 573 135 573 338 C573 540 450 675 265 675 L54.5 675 C50.3602 675 47 671.64 47 667.5 L47 665.5 C47 662.464 49.4642 660 52.5 660 L52.5 660 Z M194 65.5 L194 621.5 C194 641.095 209.905 657 229.5 657 L265 657 C407 657 501 529 501 338 C501 146 416 18 289 18 L241.5 18 C215.281 18 194 39.2814 194 65.5 L194 65.5 Z " />
<glyph glyph-name="E" unicode="E" horiz-adv-x="536" d="M356 272 L356 438 C356 441.312 353.312 444 350 444 L349.852 444 C346.817 444 343.037 441.353 342 438.5 L340 433 C328 395 287 369 236 369 L211.5 369 C197.977 369 187 379.977 187 393.5 L187 618 C187 639.527 204.473 657 226 657 L265 657 C325 657 378 617 398 557 L407.351 527.247 C408.219 524.484 411.604 522 414.5 522 C417.536 522 420 524.464 420 527.5 L420 616.632 C420 648.849 393.849 675 361.632 675 L47.5 675 C43.3602 675 40 671.64 40 667.5 L40 665.5 C40 662.464 42.4642 660 45.5 660 L51 660 C89 660 115 634 115 595 L115 80 C115 41 89 15 51 15 L45.5 15 C42.4642 15 40 12.5358 40 9.5 L40 7.5 C40 3.36022 43.3602 0 47.5 0 L420.472 0 C422.956 0 425.226 2.03133 425.5 4.5 L426 9 C433.795 50.8974 442.539 107.036 450.383 149.663 C450.922 152.594 448.48 153 445.5 153 C442.769 153 438.79 150.509 437.597 148.053 L423 118 C393 58 333 18 273 18 L230 18 C206.265 18 187 37.2653 187 61 L187 326.5 C187 340.023 197.977 351 211.5 351 L236 351 C287 351 328 322 340 279 L342.235 271.735 C343.166 268.709 346.835 266 350 266 C353.312 266 356 268.688 356 272 L356 272 Z " />
<glyph glyph-name="F" unicode="F" horiz-adv-x="451" d="M45.5 660 L51 660 C89 660 115 634 115 595 L115 80 C115 41 89 15 51 15 L45.5 15 C42.4642 15 40 12.5358 40 9.5 L40 7.5 C40 3.36022 43.3602 0 47.5 0 L264.5 0 C268.64 0 272 3.36022 272 7.5 C272 11.6398 268.64 15 264.5 15 L252 15 C213 15 187 41 187 80 L187 326.5 C187 337.263 195.737 346 206.5 346 L226 346 C277 346 318 317 330 274 L332.235 266.735 C333.166 263.709 336.835 261 340 261 C343.312 261 346 263.688 346 267 L346 433 C346 436.312 343.312 439 340 439 L339.852 439 C336.817 439 333.037 436.353 332 433.5 L330 428 C318 390 277 364 226 364 L206.5 364 C195.737 364 187 372.737 187 383.5 L187 603 C187 632.806 211.194 657 241 657 L295 657 C355 657 408 617 428 557 L437.351 527.247 C438.219 524.484 441.604 522 444.5 522 C447.536 522 450 524.464 450 527.5 L450 616.632 C450 648.849 423.849 675 391.632 675 L47.5 675 C43.3602 675 40 671.64 40 667.5 L40 665.5 C40 662.464 42.4642 660 45.5 660 L45.5 660 Z " />
<glyph glyph-name="G" unicode="G" horiz-adv-x="728" d="M553 485 L553 614.528 C553 615.632 551.494 615.987 551 615 L549 611 C549 613 552 616 553 619 C490 656 405 680 341 680 C171 680 57 543 57 338 C57 132 171 -5 341 -5 C397.95 -5 469.35 12.34 528.178 40.2646 C544.803 48.1557 558 71.0083 558 89.4102 L558 237 C558 276 584 302 622 302 L627.5 302 C630.536 302 633 304.464 633 307.5 L633 309.5 C633 313.64 629.64 317 625.5 317 L425.5 317 C421.36 317 418 313.64 418 309.5 L418 307.5 C418 304.464 420.464 302 423.5 302 L429 302 C467 302 493 276 493 237 L493 73.3907 C493 58.2091 480.254 40.9602 465.846 36.1753 C422.706 21.8481 377.95 13 340 13 C218 13 136 143 136 338 C136 532 218 662 340 662 C342 662 368 661 368 660 C436 653 499 595 526 516 C529.529 506.294 533.837 492.696 537.55 482.074 C538.57 479.157 541.762 478 544.852 478 L546 478 C549.864 478 553 481.136 553 485 L553 485 Z " />
<glyph glyph-name="H" unicode="H" horiz-adv-x="692" d="M646.5 15 L641 15 C603 15 577 41 577 80 L577 595 C577 634 603 660 641 660 L646.5 660 C649.536 660 652 662.464 652 665.5 L652 667.5 C652 671.64 648.64 675 644.5 675 L437.5 675 C433.36 675 430 671.64 430 667.5 L430 665.5 C430 662.464 432.464 660 435.5 660 L441 660 C479 660 505 634 505 595 L505 422.368 C505 390.151 478.849 364 446.632 364 L245.368 364 C213.151 364 187 390.151 187 422.368 L187 595 C187 634 213 660 251 660 L256.5 660 C259.536 660 262 662.464 262 665.5 L262 667.5 C262 671.64 258.64 675 254.5 675 L47.5 675 C43.3602 675 40 671.64 40 667.5 L40 665.5 C40 662.464 42.4642 660 45.5 660 L51 660 C89 660 115 634 115 595 L115 80 C115 41 89 15 51 15 L45.5 15 C42.4642 15 40 12.5358 40 9.5 L40 7.5 C40 3.36022 43.3602 0 47.5 0 L254.5 0 C258.64 0 262 3.36022 262 7.5 L262 9.5 C262 12.5358 259.536 15 256.5 15 L251 15 C213 15 187 41 187 80 L187 287.632 C187 319.849 213.151 346 245.368 346 L446.632 346 C478.849 346 505 319.849 505 287.632 L505 80 C505 41 479 15 441 15 L435.5 15 C432.464 15 430 12.5358 430 9.5 L430 7.5 C430 3.36022 433.36 0 437.5 0 L644.5 0 C648.64 0 652 3.36022 652 7.5 L652 9.5 C652 12.5358 649.536 15 646.5 15 L646.5 15 Z " />
<glyph glyph-name="I" unicode="I" horiz-adv-x="302" d="M256.5 15 L251 15 C213 15 187 41 187 80 L187 595 C187 634 213 660 251 660 L256.5 660 C259.536 660 262 662.464 262 665.5 L262 667.5 C262 671.64 258.64 675 254.5 675 L47.5 675 C43.3602 675 40 671.64 40 667.5 L40 665.5 C40 662.464 42.4642 660 45.5 660 L51 660 C89 660 115 634 115 595 L115 80 C115 41 89 15 51 15 L45.5 15 C42.4642 15 40 12.5358 40 9.5 L40 7.5 C40 3.36022 43.3602 0 47.5 0 L254.5 0 C258.64 0 262 3.36022 262 7.5 L262 9.5 C262 12.5358 259.536 15 256.5 15 L256.5 15 Z " />
<glyph glyph-name="J" unicode="J" horiz-adv-x="315" d="M267.5 675 L59.5 675 C55.3602 675 52 671.64 52 667.5 L52 665.5 C52 662.464 54.4642 660 57.5 660 L63 660 C101 660 127 634 127 595 L127 205 C127 61 118 5 94 5 C81 5 68 23 61 50 C57 67 44 79 29 79 C7 79 -4 67 0 50 C9 14 39 -10 76 -10 C165 -10 199 67 199 265 C200 264 200 475 200 595 C200 634 226 660 264 660 L269.5 660 C272.536 660 275 662.464 275 665.5 L275 667.5 C275 671.64 271.64 675 267.5 675 L267.5 675 Z " />
<glyph glyph-name="K" unicode="K" horiz-adv-x="569" d="M508.5 675 L364.5 675 C360.36 675 357 671.64 357 667.5 L357 665 C357 662.24 359.24 660 362 660 L367 660 C398 660 401 635 373 598 L237 420.5 L215.5 391.75 C208.393 382.246 194 387.033 194 398.9 L194 595 C194 634 220 660 258 660 L263.5 660 C266.536 660 269 662.464 269 665.5 L269 667.5 C269 671.64 265.64 675 261.5 675 L54.5 675 C50.3602 675 47 671.64 47 667.5 L47 665.5 C47 662.464 49.4642 660 52.5 660 L58 660 C96 660 122 634 122 595 L122 80 C122 41 96 15 58 15 L52.5 15 C49.4642 15 47 12.5358 47 9.5 L47 7.5 C47 3.36022 50.3602 0 54.5 0 L261.5 0 C265.64 0 269 3.36022 269 7.5 L269 9.5 C269 12.5358 266.536 15 263.5 15 L258 15 C220 15 194 41 194 80 L194 312.522 C194 327.978 185.532 375.703 194.105 362.843 C196.818 358.773 252.1 275.825 334 152 C409 39 464 -5 532 -5 L552 -5 C555.864 -5 559 -1.86379 559 2 C559 5.34278 556.411 8.952 553.099 9.40275 C515.367 14.5375 470.1 69.4 377 210 C324.3 289.05 282.438 351.483 258.782 387.471 C253.472 395.549 253 410.666 258.8 418.4 C303.2 477.594 347.6 536.725 392 595 C421 634 466 660 504 660 L510 660 C513.312 660 516 662.688 516 666 L516 667.5 C516 671.64 512.64 675 508.5 675 L508.5 675 Z " />
<glyph glyph-name="L" unicode="L" horiz-adv-x="536" d="M448.24 161.793 C442.033 164.653 434 168 434 168 C434 168 432.862 165.375 431.416 162.036 L408 108 C385 54 335 18 281 18 L234 18 C208.057 18 187 39.0574 187 65 L187 595 C187 634 213 660 251 660 L256.5 660 C259.536 660 262 662.464 262 665.5 L262 667.5 C262 671.64 258.64 675 254.5 675 L47.5 675 C43.3602 675 40 671.64 40 667.5 L40 665.5 C40 662.464 42.4642 660 45.5 660 L51 660 C89 660 115 634 115 595 L115 80 C115 41 89 15 51 15 L45.5 15 C42.4642 15 40 12.5358 40 9.5 L40 7.5 C40 3.36022 43.3602 0 47.5 0 L398.974 0 C412.245 0 424.978 9.21696 427.497 22.2469 C435.728 64.8272 443.857 116.085 451.323 156.369 C451.66 158.188 449.921 161.018 448.24 161.793 L448.24 161.793 Z " />
<glyph glyph-name="M" unicode="M" horiz-adv-x="761" d="M45.0178 0 L235.5 0 C239.64 0 243 3.36022 243 7.5 C243 11.6398 239.64 15 235.5 15 L214 15 C166 15 135 47 137 95 L151.172 475.285 C151.945 496.02 183.845 495.654 190.7 476.069 C245.1 320.638 299.5 164.791 353.9 9.55184 C355.451 5.12706 363.311 -5 368 -5 C372.707 -5 378.374 -0.932286 379.879 3.52696 L555.829 524.577 C561.302 540.783 586.619 532.618 587.226 515.524 C592.389 370.111 597.875 224.375 602 80 C603 41 579 15 541 15 L535.5 15 C532.464 15 530 12.5358 530 9.5 L530 7.5 C530 3.36022 533.36 0 537.5 0 L743.5 0 C747.64 0 751 3.36022 751 7.5 L751 9.5 C751 12.5358 748.536 15 745.5 15 L740 15 C705.875 15 680.306 35.9137 674.414 68.4727 C674.359 68.7751 673.47 84.0795 673.458 84.3866 C666.54 253.974 657.821 424.462 651 594 C649 633 673 659 710 659 L715.5 659 C718.536 659 721 661.464 721 664.5 L721 666.5 C721 670.64 717.64 674 713.5 674 L624.299 674 C602.112 674 575.739 654.888 568.832 633.802 L446.187 259.414 C428.156 204.37 354.308 203.855 335.511 258.642 L206.527 634.574 C199.465 655.158 173.08 674 151.318 674 L70.5 674 C66.3602 674 63 670.64 63 666.5 L63 664.5 C63 661.464 65.4642 659 68.5 659 L74 659 C112 659 136 633 135 594 L116 75 C113 38 87 14 50 14 L44.5 14 C41.4719 14 38.8239 11.5344 38.6081 8.51398 L38.5 7 C38.2247 3.14603 41.154 0 45.0178 0 L45.0178 0 Z M392 93 L392 94 L392 93 L392 93 Z " />
<glyph glyph-name="N" unicode="N" horiz-adv-x="625" d="M47.5 660 L53 660 C91 660 117 634 117 595 L117 80 C117 41 91 15 53 15 L47.5 15 C44.4642 15 42 12.5358 42 9.5 L42 7.5 C42 3.36022 45.3602 0 49.5 0 L205.5 0 C209.64 0 213 3.36022 213 7.5 L213 9.5 C213 12.5358 210.536 15 207.5 15 L202 15 C164 15 138 41 138 80 L138 487.28 C138 518.755 182.577 524.332 197.774 496.769 C288.768 331.738 379.457 166.291 471.379 1.45184 C474.902 -4.86712 487.765 -14 495 -14 C503.28 -14 510 -7.27955 510 1 L510 595 C510 634 536 660 574 660 L579.5 660 C582.536 660 585 662.464 585 665.5 L585 667.5 C585 671.64 581.64 675 577.5 675 L421.5 675 C417.36 675 414 671.64 414 667.5 L414 665.5 C414 662.464 416.464 660 419.5 660 L425 660 C463 660 489 634 489 595 L489 339.662 C489 279.169 408.399 258.595 379.405 311.687 L197.598 644.607 C189.557 659.331 163.146 675 146.37 675 L49.5 675 C45.3602 675 42 671.64 42 667.5 L42 665.5 C42 662.464 44.4642 660 47.5 660 L47.5 660 Z " />
<glyph glyph-name="O" unicode="O" horiz-adv-x="678" d="M137 338 C137 513 207 662 343 662 C478 662 548 513 548 338 C548 163 478 13 343 13 C207 13 137 163 137 338 L137 338 Z M57 338 C57 153 154 -5 343 -5 C531 -5 628 153 628 338 C628 523 531 680 343 680 C154 680 57 523 57 338 L57 338 Z " />
<glyph glyph-name="P" unicode="P" horiz-adv-x="498" d="M263.5 15 L258 15 C220 15 194 41 194 80 L194 271 C194 288.663 208.337 303 226 303 L258 303 C390 303 478 377 478 488 C478 600 396 675 274 675 L54.5 675 C50.3602 675 47 671.64 47 667.5 L47 665.5 C47 662.464 49.4642 660 52.5 660 L58 660 C96 660 122 634 122 595 L122 80 C122 41 96 15 58 15 L52.5 15 C49.4642 15 47 12.5358 47 9.5 L47 7.5 C47 3.36022 50.3602 0 54.5 0 L261.5 0 C265.64 0 269 3.36022 269 7.5 L269 9.5 C269 12.5358 266.536 15 263.5 15 L263.5 15 Z M194 353 L194 617 C194 639.079 211.921 657 234 657 L274 657 C351 657 402 589 402 488 C402 388 344 321 258 321 L226 321 C208.337 321 194 335.337 194 353 L194 353 Z " />
<glyph glyph-name="Q" unicode="Q" horiz-adv-x="678" d="M680 -48.5 C678.499 -47.249 675.294 -48.0059 673.913 -49.3891 C652.882 -70.4625 604.1 -84 549 -84 C481.35 -84 424.59 -62.9006 377.597 -28.5631 C366.788 -20.6651 375.654 -3.74996 388.896 -1.78025 C546.716 21.6963 628 168.725 628 338 C628 523 531 680 343 680 C154 680 57 523 57 338 C57 167.95 138.225 21.365 297.245 -2.2995 C302.807 -3.12706 336.389 -17.8292 340.512 -21.6511 C412.333 -88.2188 481.8 -131 541 -131 C584.875 -131 640.157 -100.58 679.969 -54.5698 C681.405 -52.9095 681.687 -49.9055 680 -48.5 L680 -48.5 Z M137 338 C137 513 207 662 343 662 C478 662 548 513 548 338 C548 163 478 13 343 13 C207 13 137 163 137 338 L137 338 Z " />
<glyph glyph-name="R" unicode="R" horiz-adv-x="548" d="M52.5 660 L58 660 C96 660 122 634 122 595 L122 80 C122 41 96 15 58 15 L52.5 15 C49.4642 15 47 12.5358 47 9.5 L47 7.5 C47 3.36022 50.3602 0 54.5 0 L261.5 0 C265.64 0 269 3.36022 269 7.5 L269 9.5 C269 12.5358 266.536 15 263.5 15 L258 15 C220 15 194 41 194 80 L194 304.5 C194 314.711 202.289 323 212.5 323 C221.099 323 236.341 314.662 240.979 307.422 L370 106 C435 4 441 0 522 0 L541 0 C544.864 0 548 3.13621 548 7 C548 10.7981 545.536 13.9684 541.739 14.0329 C517.863 14.4388 515.25 19.85 469 92 C400.75 198.75 348.578 277.938 323.203 316.164 C318.369 323.446 324.703 332.546 333.025 335.218 C408.941 359.585 456 419.525 456 500 C456 605 380 675 265 675 L53.5166 675 C49.3769 675 46.2246 671.631 46.5 667.5 L46.6341 665.488 C46.8356 662.465 49.4709 660 52.5 660 L52.5 660 Z M251 341 L222 341 C205.993 341 193 353.993 193 370 L193 621 C193 640.871 209.129 657 229 657 L265 657 C334 657 380 594 380 500 C380 405 328 341 251 341 L251 341 Z " />
<glyph glyph-name="S" unicode="S" horiz-adv-x="426" d="M344 490.5 L344 624.169 C344 625.825 341.852 626.42 341 625 C341 625 341 625 341 625 C342.669 627.781 342.919 630.633 340.097 632.231 C289.315 660.987 237.25 680 208 680 C112 680 48 603 48 488 C48 419 102 348 182 311 C270 270 329 204 329 146 C329 66 284 13 216 13 C156 13 97 69 68 153 C64.4706 162.706 60.1626 176.304 56.45 186.926 C55.4304 189.843 52.2379 191 49.1477 191 L48.5 191 C44.9122 191 42 188.088 42 184.5 L42 51.265 C42 49.6091 44.2071 49.0463 45 50.5 C43.32 47.42 42.8692 44.4779 45.9332 42.7689 C97.4887 14.0125 165.3 -5 216 -5 C315 -5 381 67 381 176 C381 248 322 323 234 364 C153 402 99 463 99 517 C99 604 141 662 205 662 C205 662 213 662 213 661 C250 655 285 620 300 575 C308.538 549.385 320.677 514.769 329.585 488.23 C330.665 485.013 334.106 484 337.5 484 C341.088 484 344 486.912 344 490.5 L344 490.5 Z " />
<glyph glyph-name="T" unicode="T" horiz-adv-x="539" d="M14 507 C17.0749 507 21.0863 509.716 22.2283 512.571 L48 577 C67 625 113 657 161 657 L197 657 C216.871 657 233 640.871 233 621 L233 80 C233 41 207 15 169 15 L163.5 15 C160.464 15 158 12.5358 158 9.5 L158 7.5 C158 3.36022 161.36 0 165.5 0 L373.5 0 C377.64 0 381 3.36022 381 7.5 L381 9.5 C381 12.5358 378.536 15 375.5 15 L370 15 C332 15 306 41 306 80 L306 621 C306 640.871 322.129 657 342 657 L378 657 C426 657 472 625 491 577 L516.772 512.571 C517.914 509.716 521.925 507 525 507 C528.301 507 530.65 511.468 530.392 514.759 C527.112 556.699 523.193 607.279 518.632 651.139 C517.155 665.351 504.613 675 490.324 675 L48.6759 675 C34.3866 675 21.8452 665.351 20.3675 651.139 C15.8075 607.279 11.8875 556.699 8.6075 514.759 C8.35012 511.468 10.699 507 14 507 L14 507 Z " />
<glyph glyph-name="U" unicode="U" horiz-adv-x="603" d="M575.483 675 L394.5 675 C390.36 675 387 671.64 387 667.5 C387 663.36 390.36 660 394.5 660 L402 660 C445 660 474 633 476 591 L475 188 C475 87 431 20 319 20 C221 20 183 91 183 197 L183 595 C183 634 209 660 247 660 L252.5 660 C255.536 660 258 662.464 258 665.5 L258 667.5 C258 671.64 254.64 675 250.5 675 L43.5 675 C39.3602 675 36 671.64 36 667.5 L36 665.5 C36 662.464 38.4642 660 41.5 660 L47 660 C85 660 111 634 111 595 L111 211 C111 81 166 -5 308 -5 C444 -5 497 69 497 180 L497 585 C497 630 526 660 569 660 L575.5 660 C579.08 660 582.194 662.914 582.432 666.486 L582.5 667.5 C582.775 671.631 579.623 675 575.483 675 L575.483 675 Z " />
<glyph glyph-name="V" unicode="V" horiz-adv-x="614" d="M234.5 675 L14.5 675 C10.3602 675 7 671.64 7 667.5 C7 663.709 11.8115 659.965 15.5885 659.645 C50.1269 656.721 75.125 635.7 89 595 L292.12 -6.4731 C293.626 -10.9323 299.293 -15 304 -15 C308.803 -15 315.919 -4.02423 317.152 0.617323 C369.719 198.461 421.385 397.205 474 595 C484 634 517 660 555 660 L560.5 660 C563.536 660 566 662.464 566 665.5 L566 667.5 C566 671.64 562.64 675 558.5 675 L361.5 675 C357.36 675 354 671.64 354 667.5 C354 663.36 357.36 660 361.5 660 L375 660 C432 660 460 622 445 565 L343.207 173.425 C336.832 148.901 301.45 152.561 294.068 176.801 C251.542 316.439 208.25 456.4 167 595 C155 634 173 660 212 660 L234.5 660 C238.64 660 242 663.36 242 667.5 C242 671.64 238.64 675 234.5 675 L234.5 675 Z " />
<glyph glyph-name="W" unicode="W" horiz-adv-x="802" d="M771.5 675 L588.5 675 C584.36 675 581 671.64 581 667.5 C581 663.36 584.36 660 588.5 660 L618 660 C657 660 677 634 668 595 L534.067 -5.72766 C532.954 -10.7231 536.382 -15 541.5 -15 C546.614 -15 551.968 -10.7226 553.096 -5.73415 L689 595 C698 634 729 660 767 660 L773 660 C776.312 660 779 662.688 779 666 L779 667.5 C779 671.64 775.64 675 771.5 675 L771.5 675 Z M216.483 675 L6.5 675 C2.36022 675 -1 671.64 -1 667.5 C-1 663.664 3.28098 659.992 7.10689 659.711 C39.5438 657.326 61.05 640.075 74 604 L238.656 -6.31068 C239.905 -10.9414 245.204 -15 250 -15 C254.849 -15 259.902 -10.9482 260.956 -6.21504 L333.563 319.952 C346.818 379.494 432.218 380.689 447.133 321.542 L517.227 43.5813 C520.876 29.1134 541.789 29.4287 545 44 L555.074 89.7196 C555.788 92.9595 555.547 112.984 554.755 116.206 L417.147 676.26 C415.996 680.945 410.824 685 406 685 C401.151 685 396.097 680.948 395.043 676.215 L322.314 349.767 C308.987 289.947 222.108 289.743 208.5 349.5 L151 602 C146 637 166 660 203 660 L217.483 660 C221.623 660 224.775 663.369 224.5 667.5 C224.225 671.631 220.623 675 216.483 675 L216.483 675 Z " />
<glyph glyph-name="X" unicode="X" horiz-adv-x="565" d="M326 0 L540.5 0 C544.64 0 548 3.36022 548 7.5 C548 11.3238 544.087 14.9971 540.275 15.289 C509.123 17.6738 485.35 34.925 465 71 L322.884 357.066 C317.221 368.464 317.206 397.543 322.856 408.948 L419 603 C439 638 475 661 510 661 L516 661 C519.312 661 522 663.688 522 667 L522 668.5 C522 672.64 518.64 676 514.5 676 L329.5 676 C325.36 676 322 672.64 322 668.5 C322 664.36 325.36 661 329.5 661 L360 661 C396 661 411 639 398 605 L316.618 434.685 C309.859 420.54 291.096 422.078 284.124 436.12 C257.511 489.719 230.575 543.2 205 596 C186 635 198 661 237 661 L257.5 661 C261.64 661 265 664.36 265 668.5 C265 672.64 261.64 676 257.5 676 L41.5 676 C37.3602 676 34 672.64 34 668.5 C34 664.692 37.9452 661 41.7413 660.695 C73.0219 658.182 97.65 640.075 118 604 C159.4 521.2 200.8 438.4 241.471 355.6 C246.715 344.923 248.382 313.633 243.405 302.829 L138 74 C119 39 84 16 47 16 L41.5 16 C38.4642 16 36 13.5358 36 10.5 L36 8.5 C36 4.36022 39.3602 1 43.5 1 L226.5 1 C230.64 1 234 4.36022 234 8.5 C234 12.6398 230.64 16 226.5 16 L211 16 C163 16 145 48 167 96 L245.611 271.236 C253.036 287.788 275.409 285.205 283.547 268.992 C314.968 206.391 346.821 143.359 378 81 C397 42 385 16 346 16 L326 16 C321.584 16 318 12.4158 318 8 C318 3.58424 321.584 0 326 0 L326 0 Z " />
<glyph glyph-name="Y" unicode="Y" horiz-adv-x="536" d="M169.016 0 L375.5 0 C379.64 0 383 3.36022 383 7.5 L383 9.5 C383 12.5358 380.536 15 377.5 15 L372 15 C334 15 308 41 308 80 L308 301.621 C308 304.82 313.353 326.075 314.743 328.957 C357.405 417.397 399.3 506.65 443 595 C463.9 636.8 493.825 657.842 532.775 659.842 C536.697 660.044 539 663.572 539 667.5 C539 671.64 535.64 675 531.5 675 L357.5 675 C353.36 675 350 671.64 350 667.5 C350 663.36 353.36 660 357.5 660 L368 660 C416 660 435 630 417 584 L349.319 441.599 C326.097 392.739 262.501 394.749 242.409 444.977 L182 596 C167 634 182 661 222 661 L233.5 661 C237.64 661 241 664.36 241 668.5 C241 672.64 237.64 676 233.5 676 L23.5 676 C19.3602 676 16 672.64 16 668.5 C16 664.735 20.2148 660.985 23.9646 660.645 C56.1494 657.721 81.425 636.7 99 596 L232.067 293.224 C233.163 290.731 237 272.463 237 269.74 L237 81 C237 42 211 16 173 16 L167.5 16 C164.47 16 161.846 13.5347 161.657 10.5107 L161.5 8 C161.225 3.59284 164.6 0 169.016 0 L169.016 0 Z " />
<glyph glyph-name="Z" unicode="Z" horiz-adv-x="511" d="M439.416 163.036 L416 109 C393 55 343 19 289 19 L213.5 19 C175.822 19 154.159 53.1956 170.258 87.2618 L408.633 591.694 C428.279 633.268 401.843 675 355.86 675 L116.743 675 C114.26 675 111.285 672.856 110.5 670.5 L109 666 C99.2564 628 84.7659 578.607 74.7789 540.023 C73.9736 536.912 76.7863 537 80 537 C82.745 537 87.8211 539.698 89.3568 541.973 L113 577 C145 625 199 657 247 657 L302.5 657 C330.205 657 346.139 631.863 334.317 606.807 L87.2927 83.2751 C67.6781 41.7049 94.1142 0 140.08 0 L425.33 0 C427.813 0 430.585 2.10675 431.25 4.5 L431.728 6.22079 C431.769 6.36867 433.096 12.4144 433.122 12.5656 C441.087 58.0677 452.205 116.179 460 161 C460.317 162.822 457.92 162.019 456.24 162.793 C450.033 165.653 442 169 442 169 C442 169 440.862 166.375 439.416 163.036 L439.416 163.036 Z " />
<glyph glyph-name="bracketleft" unicode="&#x5b;" horiz-adv-x="240" d="M177.5 661 L223 661 C226.864 661 230 664.136 230 668 C230 671.864 226.864 675 223 675 L132.368 675 C100.151 675 74 648.849 74 616.632 L74 -61.632 C74 -93.8494 100.151 -120 132.368 -120 L223 -120 C226.864 -120 230 -116.864 230 -113 C230 -109.136 226.864 -106 223 -106 L177.5 -106 C148.522 -106 125 -82.4784 125 -53.5 L125 608.5 C125 637.478 148.522 661 177.5 661 L177.5 661 Z " />
<glyph glyph-name="backslash" unicode="&#x5c;" horiz-adv-x="236" d="M224.5 -145 C230.556 -145 234.37 -139.806 232.557 -134.028 L-33.5569 714.028 C-35.3702 719.806 -42.4435 725 -48.5 725 C-54.5565 725 -58.3702 719.806 -56.5569 714.028 L209.557 -134.028 C211.37 -139.806 218.444 -145 224.5 -145 L224.5 -145 Z " />
<glyph glyph-name="bracketright" unicode="&#x5d;" horiz-adv-x="230" d="M110 608.5 L110 -53.5 C110 -82.4784 86.4784 -106 57.5 -106 L12 -106 C8.13621 -106 5 -109.136 5 -113 C5 -116.864 8.13621 -120 12 -120 L101.632 -120 C133.849 -120 160 -93.8494 160 -61.632 L160 616.632 C160 648.849 133.849 675 101.632 675 L12 675 C8.13621 675 5 671.864 5 668 C5 664.136 8.13621 661 12 661 L57.5 661 C86.4784 661 110 637.478 110 608.5 L110 608.5 Z " />
<glyph glyph-name="asciicircum" unicode="&#x5e;" horiz-adv-x="238" d="M138.887 728.726 C135.813 735.236 128.533 745 119 745 C108 745 101 732 99 727 C99 727 6.0425 534.768 13.8943 536.121 C14.6425 536.25 18.8821 535.941 19.5 535.5 C21.447 534.109 23.6884 533.821 25.1971 535.679 C49.6026 565.722 81.6992 614.603 105.765 652.559 C111.937 662.295 123.109 663.903 129.464 654.285 C165.59 599.61 215 534 215 534 C215 534 216.519 535.085 218.5 536.5 C220.352 537.823 222.676 536.948 221.964 539.11 C221.023 541.969 201.425 600.725 140 726.5 C139.999 726.502 138.888 728.724 138.887 728.726 L138.887 728.726 Z " />
<glyph glyph-name="underscore" unicode="&#x5f;" horiz-adv-x="272" d="M5 -68 C5 -77.9355 13.0645 -86 23 -86 L249 -86 C258.935 -86 267 -77.9355 267 -68 C267 -58.0645 258.935 -50 249 -50 L23 -50 C13.0645 -50 5 -58.0645 5 -68 L5 -68 Z " />
<glyph glyph-name="grave" unicode="&#x60;" horiz-adv-x="238" d="M37 712 C37 706 53 686 78 659 C110 619 192 531 192 531 C192 531 193.323 531.827 196 533.5 C198.205 534.878 201.119 533.904 199.894 536.198 C197.236 541.178 144.984 638.822 113.446 680.804 C113.335 680.952 109.431 686.639 109.337 686.797 C91.1851 717.275 77.8824 738 74 738 C63 738 37 720 37 712 L37 712 Z " />
<glyph glyph-name="a" unicode="a" horiz-adv-x="408" d="M381.897 35.218 C371.482 26.4208 358 21 336 21 C306 21 297 45 297 82 L297 358 C297 446 259 505 203 505 C142.775 505 94.1206 477.094 72.1978 432.513 C63.0527 413.916 72.8514 402 93.5753 402 L101.014 402 C112.929 402 129.789 415.82 133.558 427.122 C145.811 463.859 166.725 487 189 487 C213 487 229 441 229 372 L229 284.268 C229 266.881 214.473 248.772 197.5 245 L166 238 C89 219 37 164 37 102 C37 38 69 -5 118 -5 C145.125 -5 179.906 13.375 214.305 43.4258 C220.177 48.556 230.13 44.5192 231.844 36.9121 C238.427 7.69625 255.525 -10 291 -10 C337.55 -10 366.953 4.44 390.353 26.461 C392.847 28.8078 392.275 31.9405 390 34.5 C387.971 36.7829 384.23 37.1889 381.897 35.218 L381.897 35.218 Z M227.943 212.581 C227.768 175.724 227.285 133.271 227.757 88.173 C227.846 79.6365 220.964 64.5935 213.751 60.0271 C191.719 46.0789 168.513 38 148 38 C119 38 100 70 100 119 C100 167 126 206 166 216 L206.262 226.629 C218.173 229.774 228.001 224.9 227.943 212.581 L227.943 212.581 Z " />
<glyph glyph-name="b" unicode="b" horiz-adv-x="519" d="M143 26 C181 26 218 -5 269 -5 C386 -5 464 97 464 249 C464 403 398 505 300 505 C274.425 505 233.196 492.749 192.034 473.861 C180.176 468.42 166 475.688 166 488.735 L166 713.5 C166 717.088 163.088 720 159.5 720 C158.472 720 147.758 718.432 146.773 718.137 L30.3112 683.29 C28.0314 682.608 26 679.88 26 677.5 C26 675.056 28.023 672.632 30.4274 672.195 L37 671 C91 660 101 647 101 593 L101 3.5 C101 1.5681 102.568 0 104.5 0 C106.17 0 108.241 0.71416 108.911 2.24447 C115.336 16.9297 128.714 26 143 26 L143 26 Z M269 13 C207 13 166 65 166 143 L166 433.44 C166 442.496 173.348 454.068 181.588 457.827 C206.502 469.194 232.675 476 250 476 C337 476 395 374 395 220 C395 96 345 13 269 13 L269 13 Z " />
<glyph glyph-name="c" unicode="c" horiz-adv-x="405" d="M350.5 53.5 C348.801 55.199 345.027 55.3071 343.054 53.9361 C325.444 41.7006 291.15 34 256 34 C174 34 119 124 119 259 C119 396 165 487 233 487 C265 487 289 454 293 404 C295 385 308 372 326 372 C343 372 355 384 355 401 C350 463 304 505 241 505 C126 505 50 397 50 234 C50 91 111 -5 202 -5 C252.7 -5 311.956 15.9137 351.034 47.5458 C353.193 49.2931 352.464 51.5362 350.5 53.5 L350.5 53.5 Z " />
<glyph glyph-name="d" unicode="d" horiz-adv-x="518" d="M401.5 720 C400.472 720 389.758 718.432 388.773 718.137 L272.311 683.29 C270.031 682.608 268 679.88 268 677.5 C268 675.056 270.023 672.632 272.427 672.195 L279 671 C333 660 343 647 343 593 L343 471.616 C343 464.821 333.19 462.184 328.22 466.817 C303.319 490.026 271 505 238 505 C128 505 55 393 55 224 C55 87 118 -5 212 -5 C248.55 -5 290.88 9.45 325.479 33.437 C333.294 38.8545 343 32.5085 343 23 L343 5.5 C343 1.91219 345.912 -1 349.5 -1 C350.528 -1 361.242 0.568447 362.227 0.863262 L478.689 35.71 C480.969 36.3922 483 39.1204 483 41.5 C483 43.9438 480.977 46.3678 478.573 46.805 L472 48 C418 59 408 72 408 126 L408 713.5 C408 717.088 405.088 720 401.5 720 L401.5 720 Z M333.729 50.051 C314.087 39.5025 282.85 33 248 33 C173 33 123 119 123 247 C123 390 167 485 234 485 C273.375 485 310.453 462.031 333.846 430.162 C337.541 425.127 343 406.918 343 400.672 L343 67.4018 C343 60.6222 339.702 53.2587 333.729 50.051 L333.729 50.051 Z " />
<glyph glyph-name="e" unicode="e" horiz-adv-x="411" d="M301 372.5 L300.5 346.25 C300.224 331.763 311.766 320 326.255 320 L330.5 320 C349.089 320 361.314 333.394 359.377 351.882 C349.72 444.06 297.7 504 223 504 C119 504 50 396 50 233 C50 90 112 -6 205 -6 C257.65 -6 317.905 14.9137 357.032 46.5458 C359.193 48.2927 358.465 50.5352 356.5 52.5 C354.808 54.1916 351.007 54.2938 349.037 52.9361 C331.289 40.7006 296 33 259 33 C175 33 119 123 119 258 C119 276.741 119.726 294.756 121.177 311.427 C121.641 316.756 126.204 320 131.552 320 L288 320 C294.624 320 300 325.376 300 332 L300 344 L300.703 362.99 C300.707 363.1 299.402 362.439 299.368 362.334 C295.592 350.791 285.762 342.619 272 341 L171.769 334.228 C143.547 332.321 125.715 349.95 132.36 377.444 C148.648 444.843 179.4 485 219 485 C268 485 301 438.75 301 371.75 L301 372.5 Z " />
<glyph glyph-name="f" unicode="f" horiz-adv-x="326" d="M229.5 15 L224 15 C186 15 160 41 160 80 L160 435 C160 457.079 177.921 475 200 475 L227.5 475 C234.4 475 240 480.6 240 487.5 C240 494.4 234.4 500 227.5 500 L176.5 500 C167.392 500 160 507.392 160 516.5 L160 533 C160 636 206 705 225 705 C244 705 258 687 260 660 C262 643 274 631 292 631 C309 631 321 643 321 660 C318 696 287 720 243 720 C156 720 99 651 99 547 C96 547 95 500 95 500 C95 500 84.7479 500 71.4947 500 L57.5 500 C50.6004 500 45 494.4 45 487.5 C45 480.6 50.6004 475 57.5 475 L70 475 C83.7993 475 95 463.799 95 450 L95 80 C95 41 69 15 31 15 L25.5 15 C22.4642 15 20 12.5358 20 9.5 L20 7.5 C20 3.36022 23.3602 0 27.5 0 L227.5 0 C231.64 0 235 3.36022 235 7.5 L235 9.5 C235 12.5358 232.536 15 229.5 15 L229.5 15 Z " />
<glyph glyph-name="g" unicode="g" horiz-adv-x="388" d="M371.037 498.779 L273.036 491.723 C271.036 491.579 254.941 494.695 253.076 495.433 C237.436 501.626 219.893 505 201 505 C120 505 66 443 66 349 C66 289.6 87.78 243.132 124.04 216.895 C129.177 213.179 129.182 199.641 123.092 197.876 C77.1775 184.562 49 151.2 49 107 C49 67.4 70.78 37.3287 107.04 22.4014 C114.364 19.3865 115.403 5.78022 108.74 1.49805 C65.9992 -25.9727 36.5959 -60.8678 27.7709 -94.4226 C24.0419 -108.601 32.576 -113.623 47 -111 C56.2857 -109.312 69.3202 -94.4199 71.106 -85.1525 C78.498 -46.7925 104.834 -11.6325 141.922 10.0875 C144.526 11.6125 154.987 13.6674 158 13.5 L163.521 13.1933 C163.751 13.1805 166.871 12.9917 167.101 13.0065 C169.163 13.1386 202.149 15.2629 201.953 15.8505 C201.953 15.8505 203.421 17.8856 203.421 17.8856 L203.11 13.8976 C203.11 13.8976 204.578 15.9328 204.578 15.9328 C276.469 14.1881 324 -21.375 324 -75 C324 -161 256 -219 155 -219 C110.375 -219 78.7656 -184.547 71.5605 -131.049 C70.1263 -120.4 58.6118 -108.812 48 -110.5 C34.0583 -112.718 25.5079 -121.47 27.445 -135.454 C36.04 -197.5 82.3 -238 148 -238 C281 -238 370 -160 370 -43 C370 29 308 77 216 77 L164 74 C123 74 95 98 95 134 C95 171 125 195 171 195 L203 195 C285 195 339 257 339 351 C339 391.425 328.791 425.724 310.618 451.652 C306.681 457.268 309.882 466.869 316.741 466.794 L371.994 466.187 C381.373 466.084 388.776 473.624 388.5 483 C388.224 492.375 380.391 499.452 371.037 498.779 L371.037 498.779 Z M202 209 C158 209 128 266 128 351 C128 436 158 493 202 493 C247 493 277 436 277 351 C277 266 247 209 202 209 L202 209 Z " />
<glyph glyph-name="h" unicode="h" horiz-adv-x="543" d="M295.5 0 L495.5 0 C499.64 0 503 3.36022 503 7.5 L503 9.5 C503 12.5358 500.536 15 497.5 15 L492 15 C454 15 428 41 428 80 L428 337 C428 438 402 505 336 505 C321.975 505 278.683 487.984 222.408 460.13 C204.387 451.21 185 462.716 185 482.824 L185 713.5 C185 717.088 182.088 720 178.5 720 C177.472 720 166.758 718.432 165.773 718.137 L49.3112 683.29 C47.0314 682.608 45 679.88 45 677.5 C45 675.056 47.023 672.632 49.4274 672.195 L56 671 C110 660 120 647 120 593 L120 80 C120 41 94 15 56 15 L50.5 15 C47.4642 15 45 12.5358 45 9.5 L45 7.5 C45 3.36022 48.3602 0 52.5 0 L252.5 0 C256.64 0 260 3.36022 260 7.5 L260 9.5 C260 12.5358 257.536 15 254.5 15 L249 15 C211 15 185 41 185 80 L185 414.993 C185 425.523 193.477 438.268 203.218 442.266 C232.283 454.194 262.725 461 285 461 C341 461 363 409 363 330 L363 80 C363 41 337 15 299 15 L293.5 15 C290.464 15 288 12.5358 288 9.5 L288 7.5 C288 3.36022 291.36 0 295.5 0 L295.5 0 Z " />
<glyph glyph-name="i" unicode="i" horiz-adv-x="305" d="M149 570 C175 570 192 587 192 613 C192 639 175 657 149 657 C123 657 106 639 106 613 C106 587 123 570 149 570 L149 570 Z M254.5 15 L249 15 C211 15 185 41 185 80 L185 493.5 C185 497.088 182.088 500 178.5 500 C177.472 500 166.758 498.432 165.773 498.137 L49.3112 463.29 C47.0314 462.608 45 459.88 45 457.5 C45 455.056 47.023 452.632 49.4274 452.195 L56 451 C110 440 120 427 120 373 L120 80 C120 41 94 15 56 15 L50.5 15 C47.4642 15 45 12.5358 45 9.5 L45 7.5 C45 3.36022 48.3602 0 52.5 0 L252.5 0 C256.64 0 260 3.36022 260 7.5 L260 9.5 C260 12.5358 257.536 15 254.5 15 L254.5 15 Z " />
<glyph glyph-name="j" unicode="j" horiz-adv-x="249" d="M133 570 C159 570 176 587 176 613 C176 639 159 657 133 657 C107 657 90 639 90 613 C90 587 107 570 133 570 L133 570 Z M104 378 C104 237 104 5 103 6 C103 -150 87.79 -192.876 42.5403 -222.728 C40.109 -224.332 40.3843 -227.076 42 -229.5 C43.6754 -232.013 49.3156 -231.296 51.8592 -229.667 C139.531 -173.535 169 -124.2 169 24 L169 493.5 C169 497.088 166.088 500 162.5 500 C161.472 500 150.758 498.432 149.773 498.137 L33.3112 463.29 C31.0314 462.608 29 459.88 29 457.5 C29 455.056 31.023 452.632 33.4274 452.195 L40 451 C92 440 103 427.5 104 377.5 L104 378 Z " />
<glyph glyph-name="k" unicode="k" horiz-adv-x="471" d="M33 0 L233.5 0 C237.64 0 241 3.36022 241 7.5 L241 9.5 C241 12.5358 238.536 15 235.5 15 L230 15 C192 15 166 41 166 80 L166 177.5 C166 207.979 203.957 219.764 221.219 194.644 L300 80 C327 41 323 15 290 15 L285 15 C282.24 15 280 12.7599 280 10 L280 7.5 C280 3.36022 283.36 0 287.5 0 L493.5 0 C497.64 0 501 3.36022 501 7.5 L501 9 C501 12.3118 498.312 15 495 15 L489 15 C452 15 409 40 382 77 L242.848 275.669 C228.383 296.32 230.565 329.93 247.578 348.539 L312 419 C347 458 396 484 434 484 L439.5 484 C442.536 484 445 486.464 445 489.5 L445 491.5 C445 495.64 441.64 499 437.5 499 L288.5 499 C284.36 499 281 495.64 281 491.5 L281 488.5 C281 486.016 283.016 484 285.5 484 L290 484 C322 484 321 458 288 419 L227 346.5 C205.323 320.736 166 335.078 166 368.748 L166 712.5 C166 716.088 163.088 719 159.5 719 C158.472 719 147.758 717.432 146.773 717.137 L30.3112 682.29 C28.0314 681.608 26 678.88 26 676.5 C26 674.056 28.023 671.632 30.4274 671.195 L37 670 C91 659 101 646 101 592 L101 79 C101 40 75 14 37 14 L31.5 14 C28.4642 14 26 11.5358 26 8.5 L26 7 C26 3.13621 29.1362 0 33 0 L33 0 Z " />
<glyph glyph-name="l" unicode="l" horiz-adv-x="305" d="M254.5 15 L249 15 C211 15 185 41 185 80 L185 713.5 C185 717.088 182.088 720 178.5 720 C177.472 720 166.758 718.432 165.773 718.137 L49.3112 683.29 C47.0314 682.608 45 679.88 45 677.5 C45 675.056 47.023 672.632 49.4274 672.195 L56 671 C110 660 120 647 120 593 L120 80 C120 41 94 15 56 15 L50.5 15 C47.4642 15 45 12.5358 45 9.5 L45 7.5 C45 3.36022 48.3602 0 52.5 0 L252.5 0 C256.64 0 260 3.36022 260 7.5 L260 9.5 C260 12.5358 257.536 15 254.5 15 L254.5 15 Z " />
<glyph glyph-name="m" unicode="m" horiz-adv-x="806" d="M558.517 0 L758.5 0 C762.64 0 766 3.36022 766 7.5 L766 9.5 C766 12.5358 763.536 15 760.5 15 L755 15 C717 15 691 41 691 80 L691 337 C691 438 648 505 591 505 C576.6 505 522.51 480.7 449.142 442.306 C438.441 436.706 419.52 441.619 413.918 452.32 C396.316 485.942 370.7 505 341 505 C320.875 505 272.422 485.859 211.049 454.947 C198.327 448.54 184 456.256 184 470.5 L184 493.5 C184 497.088 181.088 500 177.5 500 C176.472 500 165.758 498.432 164.773 498.137 L48.3112 463.29 C46.0314 462.608 44 459.88 44 457.5 C44 455.056 46.023 452.632 48.4274 452.195 L55 451 C109 440 119 427 119 373 L119 80 C119 41 93 15 55 15 L49.5 15 C46.4642 15 44 12.5358 44 9.5 L44 7.5 C44 3.36022 47.3602 0 51.5 0 L251.5 0 C255.64 0 259 3.36022 259 7.5 L259 9.5 C259 12.5358 256.536 15 253.5 15 L248 15 C210 15 184 41 184 80 L184 413.203 C184 424.491 193.278 438.795 203.626 443.305 C234.663 456.832 266.075 465 290 465 C337 465 372 411 372 330 L372 80 C372 41 346 15 308 15 L302.5 15 C299.464 15 297 12.5358 297 9.5 L297 7.5 C297 3.36022 300.36 0 304.5 0 L504.5 0 C508.64 0 512 3.36022 512 7.5 L512 9.5 C512 12.5358 509.536 15 506.5 15 L501 15 C463 15 437 41 437 80 L437 337 C437 362.833 434.222 386.583 429.245 407.093 C427.787 413.102 431.375 421.745 436.917 424.486 C481.332 446.454 519.65 461 540 461 C588 461 625 409 625 330 L625 80 C625 41 599 15 561 15 L555.5 15 C552.471 15 550.164 12.5346 550.366 9.51218 L550.5 7.5 C550.775 3.36939 554.377 0 558.517 0 L558.517 0 Z " />
<glyph glyph-name="n" unicode="n" horiz-adv-x="535" d="M295.5 0 L495.5 0 C499.64 0 503 3.36022 503 7.5 L503 9.5 C503 12.5358 500.536 15 497.5 15 L492 15 C454 15 428 41 428 80 L428 337 C428 438 402 505 336 505 C321.125 505 273.328 485.859 212.037 454.947 C199.315 448.531 185 456.251 185 470.5 L185 493.5 C185 497.088 182.088 500 178.5 500 C177.472 500 166.758 498.432 165.773 498.137 L49.3112 463.29 C47.0314 462.608 45 459.88 45 457.5 C45 455.056 47.023 452.632 49.4274 452.195 L56 451 C110 440 120 427 120 373 L120 80 C120 41 94 15 56 15 L50.5 15 C47.4642 15 45 12.5358 45 9.5 L45 7.5 C45 3.36022 48.3602 0 52.5 0 L252.5 0 C256.64 0 260 3.36022 260 7.5 L260 9.5 C260 12.5358 257.536 15 254.5 15 L249 15 C211 15 185 41 185 80 L185 414.993 C185 425.523 193.477 438.268 203.218 442.266 C232.283 454.194 262.725 461 285 461 C341 461 363 409 363 330 L363 80 C363 41 337 15 299 15 L293.5 15 C290.464 15 288 12.5358 288 9.5 L288 7.5 C288 3.36022 291.36 0 295.5 0 L295.5 0 Z " />
<glyph glyph-name="o" unicode="o" horiz-adv-x="488" d="M98 250 C98 395 152 491 232 491 C312 491 366 395 366 250 C366 105 312 9 232 9 C152 9 98 105 98 250 L98 250 Z M26 250 C26 97 108 -5 232 -5 C356 -5 438 97 438 250 C438 403 356 505 232 505 C108 505 26 403 26 250 L26 250 Z " />
<glyph glyph-name="p" unicode="p" horiz-adv-x="515" d="M230.5 -215 L225 -215 C187 -215 161 -189 161 -150 L161 13.8823 C161 21.0961 170.462 24.6545 176.597 20.8598 C202.484 4.84813 234.7 -4 271 -4 C395 -4 477 102 477 262 C477 408 413 506 316 506 C273.925 506 225.044 485.581 185.079 452.043 C176.485 444.832 161 449.632 161 460.851 L161 495.5 C161 499.088 158.088 502 154.5 502 C153.472 502 142.758 500.432 141.773 500.137 L25.3112 465.29 C23.0314 464.608 21 461.88 21 459.5 C21 457.056 23.023 454.632 25.4274 454.195 L32 453 C86 442 96 429 96 375 L96 -148 C96 -187 70 -213 32 -213 L26.5 -213 C23.4642 -213 21 -215.464 21 -218.5 L21 -220.5 C21 -224.64 24.3602 -228 28.5 -228 L229.5 -228 C233.088 -228 236 -225.088 236 -221.5 L236 -220.5 C236 -217.464 233.536 -215 230.5 -215 L230.5 -215 Z M161 137 L161 398.551 C161 408.779 168.223 425.444 176.284 431.738 C201.908 451.749 234.475 464 265 464 C354 464 413 364 413 213 C413 95 356 16 271 16 C211 16 167 64.5 161 137.5 L161 137 Z " />
<glyph glyph-name="q" unicode="q" horiz-adv-x="501" d="M466.5 -215 L461 -215 C423 -215 397 -189 397 -150 L397 496.5 C397 498.432 395.432 500 393.5 500 C392.009 500 388.869 497.572 388.131 496.277 C380.254 482.464 364.32 474 345 474 C310 474 275 505 229 505 C119 505 45 393 45 224 C45 87 105 -5 194 -5 C230.3 -5 273.406 10.6544 309.842 36.348 C318.363 42.3566 332 37.5192 332 27.0928 L332 -150 C332 -189 306 -215 268 -215 L262.5 -215 C259.464 -215 257 -217.464 257 -220.5 L257 -222.5 C257 -226.64 260.36 -230 264.5 -230 L464.5 -230 C468.64 -230 472 -226.64 472 -222.5 L472 -220.5 C472 -217.464 469.536 -215 466.5 -215 L466.5 -215 Z M320.946 58.8786 C298 44.3925 264 35 230 35 C160 35 113 121 113 249 C113 392 159 487 229 487 C291 487 332 435 332 357 L332 81.5344 C332 73.3631 327.855 63.2408 320.946 58.8786 L320.946 58.8786 Z " />
<glyph glyph-name="r" unicode="r" horiz-adv-x="352" d="M36.0178 0 L236.5 0 C240.64 0 244 3.36022 244 7.5 L244 9.5 C244 12.5358 241.536 15 238.5 15 L233 15 C195 15 169 41 169 80 L169 405.134 C169 411.753 173.685 425.149 178.487 429.704 C195.704 446.033 213.344 456 226 456 C252 456 286 429 311 429 C330 429 342 441 342 460 C342 486 324 504 278 504 C254.9 504 222.271 483.581 190.221 450.605 C183.134 443.313 170 447.664 170 457.833 L170 492.5 C170 496.088 167.088 499 163.5 499 C162.472 499 151.758 497.432 150.773 497.137 L34.3112 462.29 C32.0314 461.608 30 458.88 30 456.5 C30 454.056 32.023 451.632 34.4274 451.195 L41 450 C95 439 105 426 105 372 L105 79 C105 40 79 14 41 14 L35.5 14 C32.4719 14 29.8239 11.5344 29.6081 8.51398 L29.5 7 C29.2247 3.14603 32.154 0 36.0178 0 L36.0178 0 Z " />
<glyph glyph-name="s" unicode="s" horiz-adv-x="340" d="M268 373.519 L268 436.014 C268 448.798 256.641 468.572 245.466 474.78 C211.896 493.429 187.6 505 181 505 C109 505 61 453 61 374 C61 323 99 265 156 227 C204 195 236 151 236 116 C236 52 208 10 165 10 C132 10 94 50 69 111 C66.4615 117.769 62.4911 126.686 59.5121 134.117 C58.717 136.099 55.8643 138 53.728 138 L52.5 138 C49.4642 138 47 135.536 47 132.5 L47 55.6385 C47 43.396 57.0034 27.0888 67.9949 21.6975 C101.61 5.20937 137.25 -5 162 -5 C239 -5 290 53 290 140 C290 185 255 238 202 273 C148 309 112 358 112 397 C112 453 140 490.5 181 490.5 C188.714 490.5 196.429 486.459 204.143 479.007 C205.543 477.655 203.888 476.028 202 476.5 C201.01 476.748 200.407 475.307 201.277 474.775 L205.122 472.425 C207.707 470.846 217.64 461.633 219.226 459.052 C229.192 442.833 238.324 421.735 246 397 C248.538 389.385 251.077 380.337 253.615 372.281 C254.359 369.922 257.264 367.826 259.729 367.636 L261.5 367.5 C265.077 367.225 268 369.931 268 373.519 L268 373.519 Z M184.105 487.102 L190.413 482.649 C192.125 481.441 191.079 478.74 189 479 L185.986 479.377 C183.303 479.712 180.769 482.309 180.5 485 C180.291 487.085 182.393 488.311 184.105 487.102 L184.105 487.102 Z " />
<glyph glyph-name="t" unicode="t" horiz-adv-x="311" d="M267.99 500 L203.368 500 C171.151 500 145 526.151 145 558.368 L145 634.5 C145 637.536 142.536 640 139.5 640 C136.616 640 133.183 637.515 132.282 634.775 L101.894 542.372 C101.823 542.155 101.43 542.282 101.5 542.5 L108.207 563.433 C108.243 563.547 106.004 563.682 105.953 563.574 C85.4034 519.842 55.5734 489.038 26.7034 483.45 C24.9391 483.108 24 481.297 24 479.5 C24 477.568 25.5681 476 27.5 476 L51.5 476 C66.6794 476 78.9424 490.709 79.0018 475.53 C79.0494 463.391 80 219.275 80 113 C80 22 98 -4 162 -4 C214.65 -4 253.041 15.0125 287.367 42.842 C288.755 43.9669 289.116 46.1053 288 47.5 C286.936 48.83 284.593 48.8298 283.245 47.7881 C265.44 34.025 240.55 25 194 25 C155 25 144 42 144 101 L144 417.632 C144 449.849 170.151 476 202.368 476 L266.99 476 C273.613 476 279.224 481.382 279.5 488 C279.776 494.618 274.613 500 267.99 500 L267.99 500 Z M118 595 L118 596 L118 596 L118 595 L118 595 Z " />
<glyph glyph-name="u" unicode="u" horiz-adv-x="492" d="M20.5 485 L26 485 C64 485 90 459 90 420 L90 155 C90 59 128 -5 201 -5 C240.6 -5 278.158 12.0156 311.99 38.7472 C320.093 45.1501 333 40.4486 333 30.1206 L333 7.5 C333 3.91219 335.912 1 339.5 1 C340.528 1 351.242 2.56845 352.227 2.86326 L468.689 37.71 C470.969 38.3922 473 41.1204 473 43.5 C473 45.9438 470.977 48.3678 468.573 48.805 L462 50 C408 61 398 74 398 128 L398 442.632 C398 474.849 371.849 501 339.632 501 L265.5 501 C261.36 501 258 497.64 258 493.5 L258 491.5 C258 488.464 260.464 486 263.5 486 L269 486 C307 486 333 460 333 421 L333 79.7475 C333 73.1072 329.141 63.4365 323.723 59.5981 C305.763 46.8757 282.462 39 252 39 C187 39 154 89 154 163 L154.827 442.459 C154.922 474.772 128.772 501 96.4591 501 L23 501 C18.5842 501 15 497.416 15 493 L15 490.5 C15 487.464 17.4642 485 20.5 485 L20.5 485 Z " />
<glyph glyph-name="v" unicode="v" horiz-adv-x="488" d="M210 500 L4.5 500 C0.360225 500 -3 496.64 -3 492.5 L-3 490.5 C-3 487.464 -0.535835 485 2.5 485 L8 485 C45 485 78 461 91 424 L224.366 -4.74821 C225.227 -7.51622 228.601 -10 231.5 -10 C234.4 -10 237.769 -7.51633 238.627 -4.74609 L372 426 C386 462 418 485 454 485 L459.5 485 C462.536 485 465 487.464 465 490.5 L465 492.5 C465 496.64 461.64 500 457.5 500 L306.5 500 C302.36 500 299 496.64 299 492.5 L299 490.5 C299 487.464 301.464 485 304.5 485 L310 485 C344 485 360 462 352 426 L302.5 255 C288.38 206.222 220.126 206.92 207.006 255.976 L161.691 425.417 C161.63 425.645 160.626 430.369 160.593 430.602 C155.861 464.136 172.85 486 206 486 L211.5 486 C214.536 486 217 488.464 217 491.5 L217 493 C217 496.864 213.864 500 210 500 L210 500 Z " />
<glyph glyph-name="w" unicode="w" horiz-adv-x="687" d="M224 485 C251 485 277 461 290 424 L310.39 357.936 C311.662 353.816 312.486 331.963 311.528 327.759 L285.5 213.5 C278.091 180.976 231.547 180.407 223.346 212.741 L169.659 424.401 C169.598 424.642 168.632 429.57 168.601 429.816 C164.087 465.988 185.5 485 224.5 485 L224 485 Z M29.155 484.678 C61.9769 482.021 86.05 462.85 99 424 L232.366 -4.74821 C233.227 -7.51622 236.601 -10 239.5 -10 C242.452 -10 245.593 -7.52243 246.28 -4.65098 L284 153 C295.032 199.109 358.89 201.294 373.047 156.046 L423.358 -4.75093 C424.223 -7.51607 427.603 -10 430.5 -10 C433.4 -10 436.769 -7.51633 437.627 -4.74609 L571 426 C585 462 617 485 653 485 L658.5 485 C661.536 485 664 487.464 664 490.5 L664 492.5 C664 496.64 660.64 500 656.5 500 L475.5 500 C471.36 500 468 496.64 468 492.5 C468 488.36 471.36 485 475.5 485 L504 485 C541 485 559 461 551 425 L501.373 253.56 C487.272 204.848 419.137 205.52 406 254.5 L360.698 423.397 C360.633 423.639 359.631 428.355 359.597 428.602 C354.961 462.136 373.925 484 410 484 L428.5 484 C432.64 484 436 487.36 436 491.5 C436 495.64 432.64 499 428.5 499 L27.0178 499 C23.154 499 20.2247 495.854 20.5 492 C20.7515 488.479 25.6366 484.963 29.155 484.678 L29.155 484.678 Z " />
<glyph glyph-name="x" unicode="x" horiz-adv-x="481" d="M434 500 L266.5 500 C262.36 500 259 496.64 259 492.5 C259 488.36 262.36 485 266.5 485 L286 485 C323 485 336 462 320 427 L289.675 371.405 C275.932 346.209 244.162 346.26 230.5 371.5 L201 426 C184 462 197 485 234 485 L243.5 485 C247.64 485 251 488.36 251 492.5 C251 496.64 247.64 500 243.5 500 L36.5 500 C32.3602 500 29 496.64 29 492.5 C29 488.703 33.8882 484.959 37.6725 484.645 C72.8994 481.721 102.8 460.7 125 420 L203.451 275.752 C210.019 263.675 211.526 236.044 205.397 223.739 C181.578 175.923 157.65 127.6 133 80 C113 41 75 15 36 15 L23.5 15 C19.3602 15 16 11.6398 16 7.5 C16 3.36022 19.3602 0 23.5 0 L222.5 0 C226.64 0 230 3.36022 230 7.5 C230 11.6398 226.64 15 222.5 15 L182 15 C146.9 15 132.714 35.9137 144.076 68.4727 C144.153 68.6933 146.069 73.1775 146.172 73.3872 L185 152.5 C202.976 189.126 248.747 190.013 268.13 154.112 L313 71 C329 36 319 14 287 14 L282 14 C279.24 14 277 11.7599 277 9 L277 6.5 C277 2.36022 280.36 -1 284.5 -1 L465.5 -1 C469.64 -1 473 2.36022 473 6.5 C473 10.2463 469.18 13.9991 465.451 14.3552 C434.828 17.2794 409.275 38.3 388 79 L281.371 276.526 C274.175 289.856 274.512 319.958 282.005 333.122 L336 428 C359 462 396 484 431 484 L436.5 484 C439.536 484 442 486.464 442 489.5 L442 492 C442 496.416 438.416 500 434 500 L434 500 Z " />
<glyph glyph-name="y" unicode="y" horiz-adv-x="456" d="M474 500 L322.5 500 C318.36 500 315 496.64 315 492.5 L315 490.5 C315 487.464 317.464 485 320.5 485 L326 485 C360 485 376 462 368 426 L318.5 255 C304.38 206.222 236.126 206.92 223.006 255.976 L177.691 425.417 C177.63 425.645 176.626 430.369 176.593 430.602 C171.861 464.136 188.85 486 222 486 L227.5 486 C230.536 486 233 488.464 233 491.5 L233 493.5 C233 497.64 229.64 501 225.5 501 L20.5 501 C16.3602 501 13 497.64 13 493.5 L13 491.5 C13 488.464 15.4642 486 18.5 486 L24 486 C61 486 94 462 107 425 L237.12 7.03869 C237.735 5.06409 237.503 -3.46034 236.84 -5.41922 C232.451 -18.3828 225.438 -38.8438 217 -65 C194.05 -138.95 176.158 -174.607 156.567 -183.641 C147.115 -187.999 154.968 -191.096 145.918 -185.953 C143.862 -184.785 103.538 -162 86 -162 C67 -162 54 -173 54 -189 C54 -213 75 -229 106 -229 C163 -229 199 -185 234 -71 C247 -33 253 -9 253 -9 L388 427 C402 463 434 486 470 486 L475.5 486 C478.536 486 481 488.464 481 491.5 L481 493 C481 496.864 477.864 500 474 500 L474 500 Z " />
<glyph glyph-name="z" unicode="z" horiz-adv-x="403" d="M345.416 159.036 L322 105 C299 51 249 14.5 195 14.5 L164.5 14.25 C149.208 14.1247 140.248 27.8662 146.531 41.8081 L315.893 417.653 C334.567 459.093 308.131 500 262.678 500 L74.6401 500 C72.7082 500 70.5307 498.358 70 496.5 L69 493 L43.5937 400.784 C42.7456 397.706 44.8071 395 48 395 C50.6041 395 56.098 397.67 57.7069 399.718 L65 409 C102 455 159 485 207 485 L238.5 485 C254.359 485 263.587 470.734 257.086 456.269 L88.9914 82.2973 C70.3681 40.8647 96.803 0 142.229 0 L333.421 0 C335.352 0 337.345 1.61099 337.75 3.5 L338.5 7 C346.5 52 358 112 366 157 C366.324 158.823 363.922 158.018 362.24 158.793 C356.033 161.653 348 165 348 165 C348 165 346.862 162.375 345.416 159.036 L345.416 159.036 Z " />
<glyph glyph-name="braceleft" unicode="&#x7b;" horiz-adv-x="190" d="M175 -114.5 C175 -111.464 172.536 -109 169.5 -109 L149 -109 C112 -109 88 -75 88 -24 L89 174 C89 221.6 73.8275 256.918 49.0096 271.355 C46.0883 273.054 46.1013 280.991 49.0096 282.713 C73.8275 297.405 89 333.7 89 383 L89 578 C89 629 113 663 149 663 L169.5 663 C172.536 663 175 665.464 175 668.5 C175 671.536 172.536 674 169.5 674 L135 674 C77 674 38 636 38 578 L38 347 C38 310.1 28.28 286.97 11.027 282.713 C8.78564 282.16 5 278.809 5 276.5 C5 274.012 7.35665 271.022 9.80393 270.573 C27.8199 267.269 38 244.921 38 209 L38 -25 C38 -83 77 -121 135 -121 L169.502 -120.137 C172.536 -120.062 175 -117.535 175 -114.5 L175 -114.5 Z " />
<glyph glyph-name="bar" unicode="&#x7c;" horiz-adv-x="171" d="M60 744.5 L60 -208.5 C60 -222.575 71.4248 -234 85.5 -234 C99.5752 -234 111 -222.575 111 -208.5 L111 744.5 C111 758.575 99.5752 770 85.5 770 C71.4248 770 60 758.575 60 744.5 L60 744.5 Z " />
<glyph glyph-name="braceright" unicode="&#x7d;" horiz-adv-x="190" d="M5 669.5 C5 666.464 7.46416 664 10.5 664 L31 664 C68 664 92 630 92 579 L91 381 C91 333.4 106.173 298.082 130.99 283.645 C133.912 281.946 133.899 274.009 130.99 272.287 C106.173 257.595 91 221.3 91 172 L91 -23 C91 -74 67 -108 31 -108 L10.5 -108 C7.46416 -108 5 -110.464 5 -113.5 C5 -116.536 7.46416 -119 10.5 -119 L45 -119 C103 -119 142 -81 142 -23 L142 208 C142 244.9 151.72 268.03 168.973 272.287 C171.214 272.84 175 276.191 175 278.5 C175 280.988 172.643 283.978 170.196 284.427 C152.18 287.731 142 310.079 142 346 L142 580 C142 638 103 676 45 676 L10.4983 675.137 C7.46434 675.062 5 672.535 5 669.5 L5 669.5 Z " />
<glyph glyph-name="asciitilde" unicode="&#x7e;" horiz-adv-x="238" d="M35.0783 316.055 C35.9876 350.735 44.7568 374 58 374 C89 374 131 312 162 312 C192.225 312 212.944 350.976 213.961 410.39 C214.009 413.196 211.807 415 209 415 C206.336 415 203.992 411.776 203.899 409.113 C202.762 376.407 192.111 355 177 355 C146 355 104 417 72 417 C43.725 417 24.9563 376.123 24.0355 314.76 C23.9893 311.679 26.4186 310 29.5 310 C32.4563 310 35.0008 313.1 35.0783 316.055 L35.0783 316.055 Z " />
<glyph glyph-name="nbspace" unicode="&#xa0;" horiz-adv-x="130" d="" />
<glyph glyph-name="exclamdown" unicode="&#xa1;" horiz-adv-x="203" d="M96 505 C68 505 49 486 49 458 C49 430 68 411 96 411 C124 411 143 430 143 458 C143 486 124 505 96 505 L96 505 Z M60 -132 C58 -161 74 -180 100 -180 C126 -180 142 -161 140 -132 C140 149 100 336 100 336 C100 336 98.7301 336 96 336 C93.8156 336 92.3027 337.805 91.941 335.651 C90.42 326.591 60 141.975 60 -132 L60 -132 Z " />
<glyph glyph-name="cent" unicode="&#xa2;" horiz-adv-x="405" d="M215 563.489 L215 539 C215 524.55 192.603 498.688 179.199 493.287 C99.7656 461.281 50 365.25 50 234 C50 104.5 97.4688 14.0469 178.338 -1.85352 C192.632 -4.66408 215 -24.4318 215 -39 L215 -63 C215 -69.0717 219.928 -74 226 -74 C232.072 -74 237 -69.0717 237 -63 L237 -22.783 C237 -12.1704 249.309 1.10372 259.586 3.7507 C292.827 12.312 325.091 27.5553 349.397 47.1531 C351.588 48.9202 352.491 52.5094 350.5 54.5 C348.851 56.1494 344.547 55.9567 342.604 54.6663 C325.565 43.3523 289.622 34.0504 256.651 35.1392 C243.76 35.565 238 44.4055 238 57.3039 L238 472.925 C238 483.682 243.242 488.439 252.961 483.83 C275.149 473.31 290.7 444.6 294 405 C296 386 309 373 327 373 C344 373 356 385 356 402 C351.875 453.975 319.164 491.657 270.781 502.692 C257.177 505.795 238 525.051 238 539.004 L238 564.489 C238 570.837 232.842 575.776 226.5 575.5 C220.158 575.224 215 569.837 215 563.489 L215 563.489 Z M190.986 57.9422 C146.732 92.975 120 165.65 120 260 C120 366.25 147.455 445.045 191.311 475.505 C207.823 486.973 216 477.15 216 457.046 L216 75.039 C216 56.0555 205.87 46.1593 190.986 57.9422 L190.986 57.9422 Z " />
<glyph glyph-name="guillemotleft" unicode="&#xab;" horiz-adv-x="314" d="M177 231 L177 231 L177 231 L177 231 Z M193.635 272.279 C219.734 338 267.75 458.75 266 457 L262.5 460.5 C260.504 462.496 256.969 461.962 255.04 459.902 C202.803 404.1 122 252 122 252 C122 252 122 256.254 122 248.5 C122 247.663 123.988 240.244 124.324 239.478 C156.431 166.137 261 34 261 34 C261 34 262.78 35.78 264.5 37.5 C266.284 39.2839 268.899 38.8241 267.936 41.1559 C266.351 44.9923 235.654 119.332 190.881 229.352 C187.502 237.656 190.326 263.947 193.635 272.279 L193.635 272.279 Z M73 230 L73 230 L73 230 L73 230 Z M87.696 267.243 C113.76 332.43 163.8 457.8 162 456 L158.5 459.5 C156.504 461.496 152.969 460.962 151.04 458.902 C98.8031 403.1 18 251 18 251 C18 251 18 255.254 18 247.5 C18 246.663 19.9884 239.244 20.3239 238.478 C52.4312 165.137 157 33 157 33 C157 33 158.78 34.78 160.5 36.5 C162.278 38.2782 164.879 37.823 163.937 40.155 C162.397 43.97 132.536 117.925 87.0168 229.57 C83.6067 237.934 84.3427 258.856 87.696 267.243 L87.696 267.243 Z " />
<glyph glyph-name="acute" unicode="&#xb4;" horiz-adv-x="238" d="M42.1498 531.163 C46.0187 535.37 123.775 620 154 659 C178 687 194 707 194 712 C194 720 168 738 157 738 C153.118 738 139.815 717.275 121.663 686.797 C121.579 686.656 117.731 681.007 117.633 680.875 C86.3337 638.668 35 536 35 536 C35 536 36.2391 535.115 38.5 533.5 C40.4181 532.13 40.5543 529.428 42.1498 531.163 L42.1498 531.163 Z " />
<glyph glyph-name="guillemotright" unicode="&#xbb;" horiz-adv-x="314" d="M52.2033 35.2574 C57.3149 41.7376 157.392 169.017 188.676 240.478 C189.012 241.244 191 248.663 191 249.5 C191 250.412 191.272 252.491 190.842 253.296 C186.875 260.737 108.857 406.531 57.96 460.902 C56.0313 462.962 52.4956 463.496 50.5 461.5 C48.726 459.726 46.1881 460.043 47.1146 457.712 C49.6949 451.219 95.2098 336.695 120.404 273.197 C123.712 264.86 126 239.162 122.615 230.855 C76.5875 117.907 45 43 45 43 C45 43 45.4113 42.5299 48.5 39 C50.4023 36.8259 50.4142 32.9893 52.2033 35.2574 L52.2033 35.2574 Z M155.203 36.2574 C160.315 42.7376 260.392 170.017 291.676 241.478 C292.012 242.244 294 249.663 294 250.5 C294 251.412 294.272 253.491 293.842 254.296 C289.875 261.737 211.857 407.531 160.96 461.902 C159.031 463.962 155.496 464.496 153.5 462.5 C151.727 460.727 149.189 461.047 150.113 458.715 C152.727 452.116 200.13 332.453 225.33 269.217 C228.667 260.843 228.886 239.916 225.48 231.57 C178.685 116.908 148 42 148 42 C148 42 148.825 41.2928 151.5 39 C153.433 37.3428 153.626 34.2582 155.203 36.2574 L155.203 36.2574 Z M137 231 L137 231 L137 231 L137 231 Z M240 231 L240 231 L240 231 L240 231 Z " />
<glyph glyph-name="onequarter" unicode="&#xbc;" horiz-adv-x="754" d="M588.943 309.898 C587.538 307.396 560.701 259.375 548.794 222.819 C548.556 222.088 544.372 212.541 543.981 211.88 C504.507 145.075 456.5 69.5 456.5 69.5 C456.5 69.5 456.345 71.2064 456.75 66.75 C456.883 65.2882 458.272 63.7657 459.716 63.4997 L461.75 63.125 C462.183 63.0453 470.889 62.1783 471.329 62.1711 L516.004 61.4411 C530.903 61.1977 543 48.9012 543 34 C543 19.0968 555.097 7 570 7 L571 7 C585.903 7 598 19.0968 598 34 L598 44.5 C598 53.6075 605.392 61 614.5 61 L619 61 C625.624 61 631 66.3764 631 73 C631 79.6236 625.624 85 619 85 L614.5 85 C605.392 85 598 92.3925 598 101.5 L598 197 L598 279.615 C598 280.429 599.755 289.613 600.016 290.384 C601.624 295.136 601.936 297.944 600.304 298.376 C599.612 298.559 597.739 299.96 597.644 300.669 L596.503 309.226 C596.361 310.292 594.924 310.489 594.5 309.5 L594.202 308.805 C593.638 307.489 592.071 307.327 591.25 308.5 C590.378 309.746 589.687 311.224 588.943 309.898 L588.943 309.898 Z M256 645 C256 646 256 647 256 648 L258 648 L256 645 L256 645 Z M288.975 688 L233.204 688 C231.548 688 229.456 686.55 228.875 685 C228.287 683.432 226.221 682.047 224.548 682.099 L165.999 683.907 C164.344 683.958 163 682.655 163 681 C163 679.388 164.023 678.009 165.635 677.966 C178.561 677.625 187.814 674.66 194.377 667.102 C196.655 664.479 198 658.528 198 655.054 L198 469 C198 447.815 184.091 437.757 163.415 437.041 C161.818 436.986 161 435.599 161 434 C161 432.345 162.344 430.964 163.999 430.919 L198 430 L253 430 L288.501 430.888 C290.984 430.95 293 433.017 293 435.5 C293 437.838 290.704 439.995 288.37 440.132 C268.693 441.288 254.25 450.143 254.25 471.5 L255 647 C255.926 667.37 270.569 676.595 290.198 677.85 C292.793 678.016 294.759 680.413 294.5 683 C294.225 685.746 291.735 688 288.975 688 L288.975 688 Z M147.164 -2.12175 L639.076 653.442 C645.106 661.478 643.503 672.928 635.5 679 C627.497 685.072 616.1 683.482 610.063 675.453 L117.178 19.8678 C111.009 11.6618 112.721 0.0712387 121 -6 C129.279 -12.0713 141.002 -10.3336 147.164 -2.12175 L147.164 -2.12175 Z M467 63 L468 63 C468 62 468 62 467 63 L467 63 Z M490.32 95.3085 C502.101 113.628 517.23 137.688 532.325 162.569 C535.467 167.747 544 166.533 544 160.477 L544 114.5 C544 97.6649 530.335 84 513.5 84 L496.73 84 C490.404 84 486.899 89.9881 490.32 95.3085 L490.32 95.3085 Z M596 312 L592 312 L591 314 C595 316 597 315 597 312 L596 312 L596 312 Z " />
<glyph glyph-name="onehalf" unicode="&#xbd;" horiz-adv-x="754" d="M594 67 L565.5 67 C556.097 67 552.548 78.9288 559.842 84.8627 C600.157 117.66 624 146.05 624 186 C624 232 598 262 559 262 C529.75 262 498.599 234.432 481.303 192.272 C480.448 190.187 481.544 188.118 483.5 187 C485.304 185.969 488.151 187.737 489.063 189.604 C498.571 209.066 515.286 222 532 222 C550 222 563 201 563 169 C563 83.2 523.074 71.5487 462.685 26.5306 C460.294 24.7482 458.2 19.602 458.375 16.625 C458.582 13.1114 461.616 10.2628 465.136 10.2785 L612.395 10.9349 C620.394 10.9706 627.792 17.5584 628.75 25.5 L630.5 40 C631.431 57.6897 633.662 82.3139 635.58 101.767 C635.768 103.678 634.42 106 632.5 106 C630.654 106 629.029 105.429 628.947 103.585 C628.026 82.9095 615.222 69 595 69 L593 66.5 L594 67 Z M254 645 C254 646 254 647 254 648 L256 648 L254 645 L254 645 Z M286.975 688 L231.204 688 C229.548 688 227.456 686.55 226.875 685 C226.287 683.432 224.221 682.047 222.548 682.099 L163.999 683.907 C162.344 683.958 161 682.655 161 681 C161 679.388 162.023 678.009 163.635 677.966 C176.561 677.625 185.814 674.66 192.377 667.102 C194.655 664.479 196 658.528 196 655.054 L196 469 C196 447.815 182.091 437.757 161.415 437.041 C159.818 436.986 159 435.599 159 434 C159 432.345 160.344 430.964 161.999 430.919 L196 430 L251 430 L286.501 430.888 C288.984 430.95 291 433.017 291 435.5 C291 437.838 288.704 439.995 286.37 440.132 C266.693 441.288 252.25 450.143 252.25 471.5 L253 647 C253.926 667.37 268.569 676.595 288.198 677.85 C290.793 678.016 292.759 680.413 292.5 683 C292.225 685.746 289.735 688 286.975 688 L286.975 688 Z M145.164 -2.12175 L637.076 653.442 C643.106 661.478 641.503 672.928 633.5 679 C625.497 685.072 614.1 683.482 608.063 675.453 L115.178 19.8678 C109.009 11.6618 110.721 0.0712387 119 -6 C127.279 -12.0713 139.002 -10.3336 145.164 -2.12175 L145.164 -2.12175 Z M464.828 13.1213 L481.183 25.3875 C481.715 25.7864 482.741 25.4498 482.279 24.9709 C476.667 19.1416 470.963 14.3999 465.83 12.4049 C464.915 12.0493 464.043 12.5325 464.828 13.1213 L464.828 13.1213 Z " />
<glyph glyph-name="threequarters" unicode="&#xbe;" horiz-adv-x="754" d="M587.943 309.898 C586.538 307.396 559.701 259.375 547.794 222.819 C547.556 222.088 543.372 212.541 542.981 211.88 C503.507 145.075 455.5 69.5 455.5 69.5 C455.5 69.5 455.345 71.2064 455.75 66.75 C455.883 65.2882 457.272 63.7657 458.716 63.4997 L460.75 63.125 C461.183 63.0453 469.889 62.1783 470.329 62.1711 L515.004 61.4411 C529.903 61.1977 542 48.9012 542 34 C542 19.0968 554.097 7 569 7 L570 7 C584.903 7 597 19.0968 597 34 L597 44.5 C597 53.6075 604.392 61 613.5 61 L618 61 C624.624 61 630 66.3764 630 73 C630 79.6236 624.624 85 618 85 L613.5 85 C604.392 85 597 92.3925 597 101.5 L597 197 L597 279.615 C597 280.429 598.755 289.613 599.016 290.384 C600.624 295.136 600.936 297.944 599.304 298.376 C598.612 298.559 596.739 299.96 596.644 300.669 L595.503 309.226 C595.361 310.292 593.924 310.489 593.5 309.5 L593.202 308.805 C592.638 307.489 591.071 307.327 590.25 308.5 C589.378 309.746 588.687 311.224 587.943 309.898 L587.943 309.898 Z M120.991 354.6 C211.111 363.36 271 409.575 271 471 C271 503.175 249.22 527.863 212.96 540.011 C205.778 542.417 203.186 554.728 209.485 558.935 C240.623 579.739 259 602.55 259 624 C259 662 236 688 201 688 C164.925 688 129.801 662.333 111.383 623.975 C110.452 622.035 111.521 620.348 113.5 619.5 C115.23 618.759 117.795 619.776 118.732 621.407 C127.98 637.498 149.677 648 174 648 C193 648 206 632 206 608 C206 587 189 566 161 550 C149 543 134 537 118 532 L118 527 L115 525.5 C113.519 524.759 112 522.302 112 520.646 L112 519.5 C112 517.257 113.28 515.531 115.395 516.279 C159.765 531.987 213 511.975 213 472 C213 414.475 174.975 373.111 118.389 367.371 C116.513 367.181 114.233 365.367 114.5 363.5 L114.57 363.011 C114.642 362.509 114.583 357.5 114.5 357 C114.227 355.363 119.339 354.439 120.991 354.6 L120.991 354.6 Z M145.164 -0.121747 L637.076 655.442 C643.106 663.478 641.503 674.928 633.5 681 C625.497 687.072 614.1 685.482 608.063 677.453 L115.178 21.8678 C109.009 13.6618 110.721 2.07124 119 -4 C127.279 -10.0713 139.002 -8.3336 145.164 -0.121747 L145.164 -0.121747 Z M464 65 L465 65 C465 64 465 64 464 65 L464 65 Z M487.32 97.3085 C499.101 115.628 514.23 139.688 529.325 164.569 C532.467 169.747 541 168.533 541 162.477 L541 116.5 C541 99.6649 527.335 86 510.5 86 L493.73 86 C487.404 86 483.899 91.9881 487.32 97.3085 L487.32 97.3085 Z M593 314 L589 314 L588 316 C592 318 594 317 594 314 L593 314 L593 314 Z " />
<glyph glyph-name="questiondown" unicode="&#xbf;" horiz-adv-x="287" d="M171 505 C143 505 124 486 124 458 C124 430 143 411 171 411 C199 411 218 430 218 458 C218 486 199 505 171 505 L171 505 Z M138.5 172 L121 172 C49 172 35 95 35 52 C35 -87 96 -180 188 -180 C223 -180 247 -154 247 -115 C247 -102 234 -94 214 -94 C200 -94 181 -129 167 -129 C97 -129 50 -60 50 44 C50 72 65 122 143 122 L178 122 C186 122 190 126 190 132 L176.319 324.511 C176.143 326.983 173.978 329 171.5 329 C169.022 329 166.859 326.983 166.685 324.511 L157.223 189.457 C156.55 179.845 148.136 172 138.5 172 L138.5 172 Z " />
<glyph glyph-name="Agrave" unicode="&#xc0;" horiz-adv-x="568" d="M326.016 0 L555.5 0 C559.64 0 563 3.36022 563 7.5 C563 11.3547 558.257 15.0235 554.411 15.289 C519.868 17.6738 494.8 34.925 480 71 L284.738 682.427 C283.298 686.935 277.732 691 273 691 C268.215 691 261.019 680.38 259.727 675.773 C204.199 477.801 149.55 278.925 93 81 C82 42 49 16 11 16 L5.5 16 C2.46416 16 0 13.5358 0 10.5 L0 8.5 C0 4.36022 3.36022 1 7.5 1 L197.5 1 C201.64 1 205 4.36022 205 8.5 C205 12.6398 201.64 16 197.5 16 L179 16 C131 16 108 48 121 96 L149.234 199.055 C155.498 221.917 181.823 242 205.528 242 L324.84 242 C339.652 242 357.203 227.838 361.476 213.655 C374.889 169.131 388.625 124.725 401 81 C413 42 395 16 356 16 L327.016 16 C322.6 16 318.775 12.4072 318.5 8 C318.225 3.59284 321.6 0 326.016 0 L326.016 0 Z M192 888 C192 882 208 862 233 835 C265 795 347 707 347 707 C347 707 348.299 707.928 350.5 709.5 C352.415 710.868 354.982 710.112 353.896 712.2 C351.284 717.225 299.936 815.75 268.444 856.875 C268.311 857.048 264.448 862.61 264.337 862.797 C246.185 893.275 232.882 914 229 914 C218 914 192 896 192 888 L192 888 Z M269.407 260.432 L241.921 260.583 C201.423 260.805 175.293 295.183 185.918 334.263 L209.5 421 C222.115 467.402 286.408 468.118 300.053 422.009 L325.696 335.363 C337.482 295.54 310.936 260.204 269.407 260.432 L269.407 260.432 Z " />
<glyph glyph-name="Aacute" unicode="&#xc1;" horiz-adv-x="568" d="M212.148 706.163 C215.969 710.37 292.775 795 323 834 C347 862 363 883 363 887 C363 895 337 913 326 913 C323.088 913 309.814 892.275 291.663 861.797 C291.579 861.656 287.731 856.007 287.633 855.875 C256.334 813.668 205 711 205 711 C205 711 206.239 710.115 208.5 708.5 C210.419 707.129 210.562 704.417 212.148 706.163 L212.148 706.163 Z M326.016 0 L555.5 0 C559.64 0 563 3.36022 563 7.5 C563 11.3547 558.257 15.0235 554.411 15.289 C519.868 17.6738 494.8 34.925 480 71 L284.738 682.427 C283.298 686.935 277.732 691 273 691 C268.215 691 261.019 680.38 259.727 675.773 C204.199 477.801 149.55 278.925 93 81 C82 42 49 16 11 16 L5.5 16 C2.46416 16 0 13.5358 0 10.5 L0 8.5 C0 4.36022 3.36022 1 7.5 1 L197.5 1 C201.64 1 205 4.36022 205 8.5 C205 12.6398 201.64 16 197.5 16 L179 16 C131 16 108 48 121 96 L149.234 199.055 C155.498 221.917 181.823 242 205.528 242 L324.84 242 C339.652 242 357.203 227.838 361.476 213.655 C374.889 169.131 388.625 124.725 401 81 C413 42 395 16 356 16 L327.016 16 C322.6 16 318.775 12.4072 318.5 8 C318.225 3.59284 321.6 0 326.016 0 L326.016 0 Z M269.407 260.432 L241.921 260.583 C201.423 260.805 175.293 295.183 185.918 334.263 L209.5 421 C222.115 467.402 286.408 468.118 300.053 422.009 L325.696 335.363 C337.482 295.54 310.936 260.204 269.407 260.432 L269.407 260.432 Z " />
<glyph glyph-name="Acircumflex" unicode="&#xc2;" horiz-adv-x="568" d="M326.016 0 L555.5 0 C559.64 0 563 3.36022 563 7.5 C563 11.3547 558.257 15.0235 554.411 15.289 C519.868 17.6738 494.8 34.925 480 71 L284.738 682.427 C283.298 686.935 277.732 691 273 691 C268.215 691 261.019 680.38 259.727 675.773 C204.199 477.801 149.55 278.925 93 81 C82 42 49 16 11 16 L5.5 16 C2.46416 16 0 13.5358 0 10.5 L0 8.5 C0 4.36022 3.36022 1 7.5 1 L197.5 1 C201.64 1 205 4.36022 205 8.5 C205 12.6398 201.64 16 197.5 16 L179 16 C131 16 108 48 121 96 L149.234 199.055 C155.498 221.917 181.823 242 205.528 242 L324.84 242 C339.652 242 357.203 227.838 361.476 213.655 C374.889 169.131 388.625 124.725 401 81 C413 42 395 16 356 16 L327.016 16 C322.6 16 318.775 12.4072 318.5 8 C318.225 3.59284 321.6 0 326.016 0 L326.016 0 Z M293.887 904.726 C290.813 911.236 283.533 921 274 921 C262 921 255 908 253 903 C253 903 159.14 708.963 168.616 711.851 C169.58 712.144 173.68 712.086 174.5 711.5 C176.447 710.109 178.688 709.821 180.197 711.679 C204.603 741.722 236.699 790.603 260.765 828.559 C266.937 838.295 278.109 839.903 284.464 830.285 C320.59 775.61 370 710 370 710 C370 710 371.519 711.085 373.5 712.5 C375.352 713.823 377.676 712.948 376.964 715.11 C376.022 717.969 356.425 776.725 295 902.5 C294.999 902.502 293.888 904.724 293.887 904.726 L293.887 904.726 Z M269.407 261.432 L241.921 261.583 C201.423 261.805 175.293 296.183 185.918 335.263 L209.5 422 C222.115 468.402 286.408 469.118 300.053 423.009 L325.696 336.363 C337.482 296.54 310.936 261.204 269.407 261.432 L269.407 261.432 Z " />
<glyph glyph-name="Atilde" unicode="&#xc3;" horiz-adv-x="568" d="M189.078 776.055 C189.988 810.735 198.757 834 212 834 C243 834 285 772 316 772 C346.225 772 366.944 810.976 367.961 870.39 C368.014 873.477 365.588 875 362.5 875 C359.563 875 356.999 871.884 356.903 868.948 C355.838 836.336 346.086 815 331 815 C300 815 258 877 226 877 C197.725 877 178.956 836.123 178.035 774.76 C177.989 771.679 180.419 770 183.5 770 C186.456 770 189.001 773.1 189.078 776.055 L189.078 776.055 Z M326.016 0 L555.5 0 C559.64 0 563 3.36022 563 7.5 C563 11.3547 558.257 15.0235 554.411 15.289 C519.868 17.6738 494.8 34.925 480 71 L284.738 682.427 C283.298 686.935 277.732 691 273 691 C268.215 691 261.019 680.38 259.727 675.773 C204.199 477.801 149.55 278.925 93 81 C82 42 49 16 11 16 L5.5 16 C2.46416 16 0 13.5358 0 10.5 L0 8.5 C0 4.36022 3.36022 1 7.5 1 L197.5 1 C201.64 1 205 4.36022 205 8.5 C205 12.6398 201.64 16 197.5 16 L179 16 C131 16 108 48 121 96 L149.234 199.055 C155.498 221.917 181.823 242 205.528 242 L324.84 242 C339.652 242 357.203 227.838 361.476 213.655 C374.889 169.131 388.625 124.725 401 81 C413 42 395 16 356 16 L327.016 16 C322.6 16 318.775 12.4072 318.5 8 C318.225 3.59284 321.6 0 326.016 0 L326.016 0 Z M269.407 260.432 L241.921 260.583 C201.423 260.805 175.293 295.183 185.918 334.263 L209.5 421 C222.115 467.402 286.408 468.118 300.053 422.009 L325.696 335.363 C337.482 295.54 310.936 260.204 269.407 260.432 L269.407 260.432 Z " />
<glyph glyph-name="Adieresis" unicode="&#xc4;" horiz-adv-x="568" d="M400 785 C400 836 320 836 320 785 C320 733 400 733 400 785 L400 785 Z M226 785 C226 836 146 836 146 785 C146 733 226 733 226 785 L226 785 Z M326.016 0 L555.5 0 C559.64 0 563 3.36022 563 7.5 C563 11.3547 558.257 15.0235 554.411 15.289 C519.868 17.6738 494.8 34.925 480 71 L284.738 682.427 C283.298 686.935 277.732 691 273 691 C268.215 691 261.019 680.38 259.727 675.773 C204.199 477.801 149.55 278.925 93 81 C82 42 49 16 11 16 L5.5 16 C2.46416 16 0 13.5358 0 10.5 L0 8.5 C0 4.36022 3.36022 1 7.5 1 L197.5 1 C201.64 1 205 4.36022 205 8.5 C205 12.6398 201.64 16 197.5 16 L179 16 C131 16 108 48 121 96 L149.234 199.055 C155.498 221.917 181.823 242 205.528 242 L324.84 242 C339.652 242 357.203 227.838 361.476 213.655 C374.889 169.131 388.625 124.725 401 81 C413 42 395 16 356 16 L327.016 16 C322.6 16 318.775 12.4072 318.5 8 C318.225 3.59284 321.6 0 326.016 0 L326.016 0 Z M269.407 260.432 L241.921 260.583 C201.423 260.805 175.293 295.183 185.918 334.263 L209.5 421 C222.115 467.402 286.408 468.118 300.053 422.009 L325.696 335.363 C337.482 295.54 310.936 260.204 269.407 260.432 L269.407 260.432 Z " />
<glyph glyph-name="Aring" unicode="&#xc5;" horiz-adv-x="568" d="M196 803 C196 850 227 881 273 881 C319 881 350 850 350 803 C350 760 315 724 273 724 C231 724 196 760 196 803 L196 803 Z M178 803 C178 753 222 710 273 710 C324 710 368 753 368 803 C368 858 330 895 273 895 C216 895 178 858 178 803 L178 803 Z M326.016 0 L555.5 0 C559.64 0 563 3.36022 563 7.5 C563 11.3547 558.257 15.0235 554.411 15.289 C519.868 17.6738 494.8 34.925 480 71 L284.738 682.427 C283.298 686.935 277.732 691 273 691 C268.215 691 261.019 680.38 259.727 675.773 C204.199 477.801 149.55 278.925 93 81 C82 42 49 16 11 16 L5.5 16 C2.46416 16 0 13.5358 0 10.5 L0 8.5 C0 4.36022 3.36022 1 7.5 1 L197.5 1 C201.64 1 205 4.36022 205 8.5 C205 12.6398 201.64 16 197.5 16 L179 16 C131 16 108 48 121 96 L149.234 199.055 C155.498 221.917 181.823 242 205.528 242 L324.84 242 C339.652 242 357.203 227.838 361.476 213.655 C374.889 169.131 388.625 124.725 401 81 C413 42 395 16 356 16 L327.016 16 C322.6 16 318.775 12.4072 318.5 8 C318.225 3.59284 321.6 0 326.016 0 L326.016 0 Z M269.407 260.432 L241.921 260.583 C201.423 260.805 175.293 295.183 185.918 334.263 L209.5 421 C222.115 467.402 286.408 468.118 300.053 422.009 L325.696 335.363 C337.482 295.54 310.936 260.204 269.407 260.432 L269.407 260.432 Z " />
<glyph glyph-name="Ccedilla" unicode="&#xc7;" horiz-adv-x="633" d="M333.253 -88.2737 C342.324 -81.9609 351.313 -78 357 -78 C374 -78 386 -100 386 -134 C386 -174 369 -201 344 -201 C324.75 -201 307.031 -197.172 297.543 -191.525 C295.892 -190.543 293.174 -191.201 292.5 -193 C291.659 -195.243 292.222 -198.096 294.114 -199.565 C310.242 -212.09 334.5 -220 357 -220 C398 -220 426 -186 426 -134 C426 -76.05 379.973 -49.6875 337.645 -74.6321 C334.881 -76.2611 329.881 -82.915 329 -86 L328.952 -86.1671 C328.354 -88.2625 331.465 -89.5185 333.253 -88.2737 L333.253 -88.2737 Z M557.8 190.764 C554.266 180.509 550.294 168.059 547 159 C518 74 442 16 357 14 C224 11 137 141 137 338 C137 532 223 662 351 662 C367 662 384 661 401 658 C464 645 521 589 546 515 C549.529 505.294 553.837 491.696 557.55 481.074 C558.57 478.157 561.762 477 564.852 477 L565.5 477 C569.088 477 572 479.912 572 483.5 L572 613.528 C572 614.632 570.494 614.987 570 614 L568 610 C568 612 571 615 572 618 C509 655 420 679 350 679 C174 679 56 542 56 337 C56 133 171 -3 344 -6 C346.753 -6.04775 343.366 -8.12061 342.6 -10.7656 C338.814 -23.8344 330.965 -52.0756 320.894 -90.5764 C320.539 -91.9364 321.122 -94.2243 322.5 -94.5 C323.869 -94.7739 325.842 -91.7067 326.194 -90.3552 C339.665 -38.6173 350.895 -17.423 357.43 -8.96289 C358.707 -7.30924 363.04 -5.90323 365.128 -5.81077 C430.417 -2.91861 508.388 18.723 566.457 51.3976 C568.64 52.6257 570.12 55.7601 569 58 L567 62 C568 62 571 55 572 54 L572 188.917 C572 192.229 569.267 195.456 566 196 L565.773 196.038 C562.576 196.571 558.856 193.828 557.8 190.764 L557.8 190.764 Z " />
<glyph glyph-name="Egrave" unicode="&#xc8;" horiz-adv-x="536" d="M166 887 C166 881 182 861 207 834 C239 794 321 706 321 706 C321 706 322.299 706.928 324.5 708.5 C326.415 709.868 328.982 709.112 327.896 711.2 C325.284 716.225 273.936 814.75 242.444 855.875 C242.311 856.048 238.448 861.61 238.337 861.797 C220.185 892.275 206.882 913 203 913 C192 913 166 895 166 887 L166 887 Z M356 272 L356 438 C356 441.312 353.312 444 350 444 L349.852 444 C346.817 444 343.037 441.353 342 438.5 L340 433 C328 395 287 369 236 369 L211.5 369 C197.977 369 187 379.977 187 393.5 L187 618 C187 639.527 204.473 657 226 657 L265 657 C325 657 378 617 398 557 L407.351 527.247 C408.219 524.484 411.604 522 414.5 522 C417.536 522 420 524.464 420 527.5 L420 616.632 C420 648.849 393.849 675 361.632 675 L47.5 675 C43.3602 675 40 671.64 40 667.5 L40 665.5 C40 662.464 42.4642 660 45.5 660 L51 660 C89 660 115 634 115 595 L115 80 C115 41 89 15 51 15 L45.5 15 C42.4642 15 40 12.5358 40 9.5 L40 7.5 C40 3.36022 43.3602 0 47.5 0 L420.472 0 C422.956 0 425.226 2.03133 425.5 4.5 L426 9 C433.795 50.8974 442.539 107.036 450.383 149.663 C450.922 152.594 448.48 153 445.5 153 C442.769 153 438.79 150.509 437.597 148.053 L423 118 C393 58 333 18 273 18 L230 18 C206.265 18 187 37.2653 187 61 L187 326.5 C187 340.023 197.977 351 211.5 351 L236 351 C287 351 328 322 340 279 L342.235 271.735 C343.166 268.709 346.835 266 350 266 C353.312 266 356 268.688 356 272 L356 272 Z " />
<glyph glyph-name="Eacute" unicode="&#xc9;" horiz-adv-x="536" d="M233.148 706.163 C236.969 710.37 313.775 795 344 834 C368 862 384 883 384 887 C384 895 358 913 347 913 C344.088 913 330.814 892.275 312.663 861.797 C312.579 861.656 308.731 856.007 308.633 855.875 C277.334 813.668 226 711 226 711 C226 711 227.239 710.115 229.5 708.5 C231.419 707.129 231.562 704.417 233.148 706.163 L233.148 706.163 Z M356 272 L356 438 C356 441.312 353.312 444 350 444 L349.852 444 C346.817 444 343.037 441.353 342 438.5 L340 433 C328 395 287 369 236 369 L211.5 369 C197.977 369 187 379.977 187 393.5 L187 618 C187 639.527 204.473 657 226 657 L265 657 C325 657 378 617 398 557 L407.351 527.247 C408.219 524.484 411.604 522 414.5 522 C417.536 522 420 524.464 420 527.5 L420 616.632 C420 648.849 393.849 675 361.632 675 L47.5 675 C43.3602 675 40 671.64 40 667.5 L40 665.5 C40 662.464 42.4642 660 45.5 660 L51 660 C89 660 115 634 115 595 L115 80 C115 41 89 15 51 15 L45.5 15 C42.4642 15 40 12.5358 40 9.5 L40 7.5 C40 3.36022 43.3602 0 47.5 0 L420.472 0 C422.956 0 425.226 2.03133 425.5 4.5 L426 9 C433.795 50.8974 442.539 107.036 450.383 149.663 C450.922 152.594 448.48 153 445.5 153 C442.769 153 438.79 150.509 437.597 148.053 L423 118 C393 58 333 18 273 18 L230 18 C206.265 18 187 37.2653 187 61 L187 326.5 C187 340.023 197.977 351 211.5 351 L236 351 C287 351 328 322 340 279 L342.235 271.735 C343.166 268.709 346.835 266 350 266 C353.312 266 356 268.688 356 272 L356 272 Z " />
<glyph glyph-name="Ecircumflex" unicode="&#xca;" horiz-adv-x="536" d="M283.887 903.726 C280.813 910.236 273.533 920 264 920 C252 920 245 907 243 902 C243 902 149.14 707.962 158.616 710.851 C159.58 711.144 163.68 711.086 164.5 710.5 C166.447 709.109 168.688 708.821 170.197 710.679 C194.603 740.722 226.699 789.603 250.765 827.559 C256.937 837.295 268.109 838.903 274.464 829.285 C310.59 774.61 360 709 360 709 C360 709 361.519 710.085 363.5 711.5 C365.352 712.823 367.676 711.948 366.964 714.11 C366.023 716.969 346.425 775.725 285 901.5 C284.999 901.502 283.888 903.724 283.887 903.726 L283.887 903.726 Z M356 273 L356 439 C356 442.312 353.312 445 350 445 L349.852 445 C346.817 445 343.037 442.353 342 439.5 L340 434 C328 396 287 370 236 370 L211.5 370 C197.977 370 187 380.977 187 394.5 L187 619 C187 640.527 204.473 658 226 658 L265 658 C325 658 378 618 398 558 L407.351 528.247 C408.219 525.484 411.604 523 414.5 523 C417.536 523 420 525.464 420 528.5 L420 617.632 C420 649.849 393.849 676 361.632 676 L47.5 676 C43.3602 676 40 672.64 40 668.5 L40 666.5 C40 663.464 42.4642 661 45.5 661 L51 661 C89 661 115 635 115 596 L115 81 C115 42 89 16 51 16 L45.5 16 C42.4642 16 40 13.5358 40 10.5 L40 8.5 C40 4.36022 43.3602 1 47.5 1 L420.472 1 C422.956 1 425.226 3.03133 425.5 5.5 L426 10 C433.795 51.8974 442.539 108.036 450.383 150.663 C450.922 153.594 448.48 154 445.5 154 C442.769 154 438.79 151.509 437.597 149.053 L423 119 C393 59 333 19 273 19 L230 19 C206.265 19 187 38.2653 187 62 L187 327.5 C187 341.023 197.977 352 211.5 352 L236 352 C287 352 328 323 340 280 L342.235 272.735 C343.166 269.709 346.835 267 350 267 C353.312 267 356 269.688 356 273 L356 273 Z " />
<glyph glyph-name="Edieresis" unicode="&#xcb;" horiz-adv-x="536" d="M391 785 C391 836 311 836 311 785 C311 733 391 733 391 785 L391 785 Z M217 785 C217 836 137 836 137 785 C137 733 217 733 217 785 L217 785 Z M356 272 L356 438 C356 441.312 353.312 444 350 444 L349.852 444 C346.817 444 343.037 441.353 342 438.5 L340 433 C328 395 287 369 236 369 L211.5 369 C197.977 369 187 379.977 187 393.5 L187 618 C187 639.527 204.473 657 226 657 L265 657 C325 657 378 617 398 557 L407.351 527.247 C408.219 524.484 411.604 522 414.5 522 C417.536 522 420 524.464 420 527.5 L420 616.632 C420 648.849 393.849 675 361.632 675 L47.5 675 C43.3602 675 40 671.64 40 667.5 L40 665.5 C40 662.464 42.4642 660 45.5 660 L51 660 C89 660 115 634 115 595 L115 80 C115 41 89 15 51 15 L45.5 15 C42.4642 15 40 12.5358 40 9.5 L40 7.5 C40 3.36022 43.3602 0 47.5 0 L420.472 0 C422.956 0 425.226 2.03133 425.5 4.5 L426 9 C433.795 50.8974 442.539 107.036 450.383 149.663 C450.922 152.594 448.48 153 445.5 153 C442.769 153 438.79 150.509 437.597 148.053 L423 118 C393 58 333 18 273 18 L230 18 C206.265 18 187 37.2653 187 61 L187 326.5 C187 340.023 197.977 351 211.5 351 L236 351 C287 351 328 322 340 279 L342.235 271.735 C343.166 268.709 346.835 266 350 266 C353.312 266 356 268.688 356 272 L356 272 Z " />
<glyph glyph-name="Igrave" unicode="&#xcc;" horiz-adv-x="302" d="M69 887 C69 881 85 861 110 834 C142 794 224 706 224 706 C224 706 225.299 706.928 227.5 708.5 C229.415 709.868 231.982 709.112 230.896 711.2 C228.284 716.225 176.936 814.75 145.444 855.875 C145.311 856.048 141.448 861.61 141.337 861.797 C123.185 892.275 109.882 913 106 913 C95 913 69 895 69 887 L69 887 Z M256.5 15 L251 15 C213 15 187 41 187 80 L187 595 C187 634 213 660 251 660 L256.5 660 C259.536 660 262 662.464 262 665.5 L262 667.5 C262 671.64 258.64 675 254.5 675 L47.5 675 C43.3602 675 40 671.64 40 667.5 L40 665.5 C40 662.464 42.4642 660 45.5 660 L51 660 C89 660 115 634 115 595 L115 80 C115 41 89 15 51 15 L45.5 15 C42.4642 15 40 12.5358 40 9.5 L40 7.5 C40 3.36022 43.3602 0 47.5 0 L254.5 0 C258.64 0 262 3.36022 262 7.5 L262 9.5 C262 12.5358 259.536 15 256.5 15 L256.5 15 Z " />
<glyph glyph-name="Iacute" unicode="&#xcd;" horiz-adv-x="302" d="M90.148 706.163 C93.9694 710.37 170.775 795 201 834 C225 862 241 883 241 887 C241 895 215 913 204 913 C201.088 913 187.814 892.275 169.663 861.797 C169.579 861.656 165.731 856.007 165.633 855.875 C134.334 813.668 83 711 83 711 C83 711 84.2391 710.115 86.5 708.5 C88.4195 707.129 88.562 704.417 90.148 706.163 L90.148 706.163 Z M256.5 15 L251 15 C213 15 187 41 187 80 L187 595 C187 634 213 660 251 660 L256.5 660 C259.536 660 262 662.464 262 665.5 L262 667.5 C262 671.64 258.64 675 254.5 675 L47.5 675 C43.3602 675 40 671.64 40 667.5 L40 665.5 C40 662.464 42.4642 660 45.5 660 L51 660 C89 660 115 634 115 595 L115 80 C115 41 89 15 51 15 L45.5 15 C42.4642 15 40 12.5358 40 9.5 L40 7.5 C40 3.36022 43.3602 0 47.5 0 L254.5 0 C258.64 0 262 3.36022 262 7.5 L262 9.5 C262 12.5358 259.536 15 256.5 15 L256.5 15 Z " />
<glyph glyph-name="Icircumflex" unicode="&#xce;" horiz-adv-x="302" d="M170.887 903.726 C167.813 910.236 160.533 920 151 920 C139 920 132 907 130 902 C130 902 36.14 707.962 45.6163 710.851 C46.5803 711.144 50.6799 711.086 51.5 710.5 C53.447 709.109 55.6884 708.821 57.1971 710.679 C81.6026 740.722 113.699 789.603 137.765 827.559 C143.937 837.295 155.109 838.903 161.464 829.285 C197.59 774.61 247 709 247 709 C247 709 248.519 710.085 250.5 711.5 C252.352 712.823 254.676 711.948 253.964 714.11 C253.023 716.969 233.425 775.725 172 901.5 C171.999 901.502 170.888 903.724 170.887 903.726 L170.887 903.726 Z M256.5 16 L251 16 C213 16 187 42 187 81 L187 596 C187 635 213 661 251 661 L256.5 661 C259.536 661 262 663.464 262 666.5 L262 668.5 C262 672.64 258.64 676 254.5 676 L47.5 676 C43.3602 676 40 672.64 40 668.5 L40 666.5 C40 663.464 42.4642 661 45.5 661 L51 661 C89 661 115 635 115 596 L115 81 C115 42 89 16 51 16 L45.5 16 C42.4642 16 40 13.5358 40 10.5 L40 8.5 C40 4.36022 43.3602 1 47.5 1 L254.5 1 C258.64 1 262 4.36022 262 8.5 L262 10.5 C262 13.5358 259.536 16 256.5 16 L256.5 16 Z " />
<glyph glyph-name="Idieresis" unicode="&#xcf;" horiz-adv-x="302" d="M278 785 C278 836 198 836 198 785 C198 733 278 733 278 785 L278 785 Z M104 785 C104 836 24 836 24 785 C24 733 104 733 104 785 L104 785 Z M256.5 15 L251 15 C213 15 187 41 187 80 L187 595 C187 634 213 660 251 660 L256.5 660 C259.536 660 262 662.464 262 665.5 L262 667.5 C262 671.64 258.64 675 254.5 675 L47.5 675 C43.3602 675 40 671.64 40 667.5 L40 665.5 C40 662.464 42.4642 660 45.5 660 L51 660 C89 660 115 634 115 595 L115 80 C115 41 89 15 51 15 L45.5 15 C42.4642 15 40 12.5358 40 9.5 L40 7.5 C40 3.36022 43.3602 0 47.5 0 L254.5 0 C258.64 0 262 3.36022 262 7.5 L262 9.5 C262 12.5358 259.536 15 256.5 15 L256.5 15 Z " />
<glyph glyph-name="Ntilde" unicode="&#xd1;" horiz-adv-x="625" d="M229.087 776.055 C230.093 810.735 239.757 834 253 834 C284 834 325 772 356 772 C387.2 772 407.943 810.976 408.961 870.39 C409.014 873.477 406.588 875 403.5 875 C400.57 875 398.001 872.042 397.899 869.113 C396.762 836.407 386.111 815 371 815 C340 815 298 877 267 877 C238.725 877 219.006 836.123 218.037 774.76 C217.989 771.677 220.416 770 223.5 770 C226.448 770 229.001 773.108 229.087 776.055 L229.087 776.055 Z M47.5 660 L53 660 C91 660 117 634 117 595 L117 80 C117 41 91 15 53 15 L47.5 15 C44.4642 15 42 12.5358 42 9.5 L42 7.5 C42 3.36022 45.3602 0 49.5 0 L205.5 0 C209.64 0 213 3.36022 213 7.5 L213 9.5 C213 12.5358 210.536 15 207.5 15 L202 15 C164 15 138 41 138 80 L138 487.28 C138 518.755 182.577 524.332 197.774 496.769 C288.768 331.738 379.457 166.291 471.379 1.45184 C474.902 -4.86712 487.765 -14 495 -14 C503.28 -14 510 -7.27955 510 1 L510 595 C510 634 536 660 574 660 L579.5 660 C582.536 660 585 662.464 585 665.5 L585 667.5 C585 671.64 581.64 675 577.5 675 L421.5 675 C417.36 675 414 671.64 414 667.5 L414 665.5 C414 662.464 416.464 660 419.5 660 L425 660 C463 660 489 634 489 595 L489 339.662 C489 279.169 408.399 258.595 379.405 311.687 L197.598 644.607 C189.557 659.331 163.146 675 146.37 675 L49.5 675 C45.3602 675 42 671.64 42 667.5 L42 665.5 C42 662.464 44.4642 660 47.5 660 L47.5 660 Z " />
<glyph glyph-name="Ograve" unicode="&#xd2;" horiz-adv-x="678" d="M137 338 C137 513 207 662 343 662 C478 662 548 513 548 338 C548 163 478 13 343 13 C207 13 137 163 137 338 L137 338 Z M57 338 C57 153 154 -5 343 -5 C531 -5 628 153 628 338 C628 523 531 680 343 680 C154 680 57 523 57 338 L57 338 Z M260 887 C260 882 277 861 302 834 C334 793 417 706 417 706 C417 706 418.273 706.909 420.5 708.5 C422.417 709.87 425.004 709.119 423.894 711.198 C421.236 716.178 368.984 813.822 337.446 855.804 C337.335 855.952 333.431 861.639 333.337 861.797 C315.185 892.275 301.882 913 298 913 C287 913 260 895 260 887 L260 887 Z " />
<glyph glyph-name="Oacute" unicode="&#xd3;" horiz-adv-x="678" d="M318.15 706.163 C322.019 710.37 399.775 795 430 834 C454 862 470 882 470 887 C470 895 444 913 433 913 C430.088 913 416.814 892.275 398.663 861.797 C398.578 861.654 394.73 856.009 394.631 855.875 C363.284 813.668 311 711 311 711 C311 711 312.256 710.103 314.5 708.5 C316.418 707.13 316.554 704.428 318.15 706.163 L318.15 706.163 Z M137 338 C137 513 207 662 343 662 C478 662 548 513 548 338 C548 163 478 13 343 13 C207 13 137 163 137 338 L137 338 Z M57 338 C57 153 154 -5 343 -5 C531 -5 628 153 628 338 C628 523 531 680 343 680 C154 680 57 523 57 338 L57 338 Z " />
<glyph glyph-name="Ocircumflex" unicode="&#xd4;" horiz-adv-x="678" d="M137 338 C137 513 207 662 343 662 C478 662 548 513 548 338 C548 163 478 13 343 13 C207 13 137 163 137 338 L137 338 Z M57 338 C57 153 154 -5 343 -5 C531 -5 628 153 628 338 C628 523 531 680 343 680 C154 680 57 523 57 338 L57 338 Z M361.936 903.726 C359.062 910.236 352.533 920 343 920 C331 920 324 907 322 902 C322 902 228.14 707.962 237.616 710.851 C238.555 711.137 242.246 711.128 243 710.5 C244.671 709.108 246.826 708.992 248.199 710.679 C272.645 740.722 305.428 789.603 329.704 827.559 C335.896 837.241 347.149 838.842 353.492 829.257 C389.78 774.42 440 708 440 708 C440 708 441.421 709.184 443 710.5 C444.549 711.791 446.603 711.198 445.963 713.111 C444.998 715.994 424.925 775.225 363.5 901 C363.491 901.018 361.944 903.708 361.936 903.726 L361.936 903.726 Z " />
<glyph glyph-name="Otilde" unicode="&#xd5;" horiz-adv-x="678" d="M258.087 776.055 C259.093 810.735 268.757 834 282 834 C313 834 354 772 385 772 C416.2 772 436.943 810.976 437.961 870.39 C438.014 873.477 435.588 875 432.5 875 C429.57 875 427.001 872.042 426.899 869.113 C425.762 836.407 415.111 815 400 815 C369 815 327 877 296 877 C267.725 877 248.006 836.123 247.037 774.76 C246.989 771.677 249.416 770 252.5 770 C255.448 770 258.001 773.108 258.087 776.055 L258.087 776.055 Z M137 338 C137 513 207 662 343 662 C478 662 548 513 548 338 C548 163 478 13 343 13 C207 13 137 163 137 338 L137 338 Z M57 338 C57 153 154 -5 343 -5 C531 -5 628 153 628 338 C628 523 531 680 343 680 C154 680 57 523 57 338 L57 338 Z " />
<glyph glyph-name="Odieresis" unicode="&#xd6;" horiz-adv-x="678" d="M469 785 C469 836 390 837 390 786 C390 733 469 733.5 469 785.5 L469 785 Z M295 786 C295 837 216 836 216 786 C216 734 295 733 295 786 L295 786 Z M137 339 C137 514 207 663 343 663 C478 663 548 514 548 339 C548 164 478 14 343 14 C207 14 137 164 137 339 L137 339 Z M57 339 C57 154 154 -4 343 -4 C531 -4 628 154 628 339 C628 524 531 681 343 681 C154 681 57 524 57 339 L57 339 Z " />
<glyph glyph-name="Oslash" unicode="&#xd8;" horiz-adv-x="678" d="M79.0768 -2.96016 L123.743 50.4078 C134.389 63.1271 159.554 62.5948 172.415 52.1215 C216.651 16.0994 273.7 -5 343 -5 C531 -5 628 153 628 338 C628 412.25 612.346 481.736 581.598 538.596 C573.472 553.623 573.585 589.303 584.522 602.426 L630 657 C635.52 663.624 634.624 673.48 628 679 C621.376 684.52 611.508 683.633 605.974 677.021 L561.257 623.592 C550.611 610.873 525.446 611.405 512.585 621.879 C468.349 657.901 411.3 679 342 679 C153 679 56 522 56 337 C56 262.75 71.6544 192.584 102.963 135.486 C111.226 120.417 111.274 84.5623 100.259 71.3713 L54.0633 16.0511 C48.5145 9.40627 49.6076 -0.261803 56.5 -5.5 C63.392 -10.7379 73.5209 -9.59845 79.0768 -2.96016 L79.0768 -2.96016 Z M478.242 524.477 L186.243 173.902 C177.001 162.806 162.155 166.999 157.899 180.798 C143.487 227.522 136 280.9 136 337 C136 512 206 661 342 661 C401.4 661 448.208 632.414 481.864 585.349 C495.307 566.549 493.034 542.235 478.242 524.477 L478.242 524.477 Z M525.02 492.202 C539.194 445.477 546 392.1 546 336 C546 161 476 11 341 11 C281.6 11 234.451 39.5862 200.677 86.6515 C187.176 105.465 189.925 129.742 204.723 147.552 L496.784 499.076 C506.029 510.203 520.82 506.045 525.02 492.202 L525.02 492.202 Z " />
<glyph glyph-name="Ugrave" unicode="&#xd9;" horiz-adv-x="603" d="M223 887 C223 881 239 861 264 834 C296 794 378 706 378 706 C378 706 379.299 706.928 381.5 708.5 C383.415 709.868 385.982 709.112 384.896 711.2 C382.284 716.225 330.936 814.75 299.444 855.875 C299.311 856.048 295.448 861.61 295.337 861.797 C277.185 892.275 263.882 913 260 913 C249 913 223 895 223 887 L223 887 Z M575.483 675 L394.5 675 C390.36 675 387 671.64 387 667.5 C387 663.36 390.36 660 394.5 660 L402 660 C445 660 474 633 476 591 L475 188 C475 87 431 20 319 20 C221 20 183 91 183 197 L183 595 C183 634 209 660 247 660 L252.5 660 C255.536 660 258 662.464 258 665.5 L258 667.5 C258 671.64 254.64 675 250.5 675 L43.5 675 C39.3602 675 36 671.64 36 667.5 L36 665.5 C36 662.464 38.4642 660 41.5 660 L47 660 C85 660 111 634 111 595 L111 211 C111 81 166 -5 308 -5 C444 -5 497 69 497 180 L497 585 C497 630 526 660 569 660 L575.5 660 C579.08 660 582.194 662.914 582.432 666.486 L582.5 667.5 C582.775 671.631 579.623 675 575.483 675 L575.483 675 Z " />
<glyph glyph-name="Uacute" unicode="&#xda;" horiz-adv-x="603" d="M304.148 706.163 C307.969 710.37 384.775 795 415 834 C439 862 455 883 455 887 C455 895 429 913 418 913 C415.088 913 401.814 892.275 383.663 861.797 C383.579 861.656 379.731 856.007 379.633 855.875 C348.334 813.668 297 711 297 711 C297 711 298.239 710.115 300.5 708.5 C302.419 707.129 302.562 704.417 304.148 706.163 L304.148 706.163 Z M575.483 675 L394.5 675 C390.36 675 387 671.64 387 667.5 C387 663.36 390.36 660 394.5 660 L402 660 C445 660 474 633 476 591 L475 188 C475 87 431 20 319 20 C221 20 183 91 183 197 L183 595 C183 634 209 660 247 660 L252.5 660 C255.536 660 258 662.464 258 665.5 L258 667.5 C258 671.64 254.64 675 250.5 675 L43.5 675 C39.3602 675 36 671.64 36 667.5 L36 665.5 C36 662.464 38.4642 660 41.5 660 L47 660 C85 660 111 634 111 595 L111 211 C111 81 166 -5 308 -5 C444 -5 497 69 497 180 L497 585 C497 630 526 660 569 660 L575.5 660 C579.08 660 582.194 662.914 582.432 666.486 L582.5 667.5 C582.775 671.631 579.623 675 575.483 675 L575.483 675 Z " />
<glyph glyph-name="Ucircumflex" unicode="&#xdb;" horiz-adv-x="603" d="M324.887 903.726 C321.813 910.236 314.533 920 305 920 C293 920 286 907 284 902 C284 902 190.14 707.962 199.616 710.851 C200.58 711.144 204.68 711.086 205.5 710.5 C207.447 709.109 209.688 708.821 211.197 710.679 C235.603 740.722 267.699 789.603 291.765 827.559 C297.937 837.295 309.109 838.903 315.464 829.285 C351.59 774.61 401 709 401 709 C401 709 402.519 710.085 404.5 711.5 C406.352 712.823 408.676 711.948 407.964 714.11 C407.023 716.969 387.425 775.725 326 901.5 C325.999 901.502 324.888 903.724 324.887 903.726 L324.887 903.726 Z M575.483 676 L394.5 676 C390.36 676 387 672.64 387 668.5 C387 664.36 390.36 661 394.5 661 L402 661 C445 661 474 634 476 592 L475 189 C475 88 431 21 319 21 C221 21 183 92 183 198 L183 596 C183 635 209 661 247 661 L252.5 661 C255.536 661 258 663.464 258 666.5 L258 668.5 C258 672.64 254.64 676 250.5 676 L43.5 676 C39.3602 676 36 672.64 36 668.5 L36 666.5 C36 663.464 38.4642 661 41.5 661 L47 661 C85 661 111 635 111 596 L111 212 C111 82 166 -4 308 -4 C444 -4 497 70 497 181 L497 586 C497 631 526 661 569 661 L575.5 661 C579.08 661 582.194 663.914 582.432 667.486 L582.5 668.5 C582.775 672.631 579.623 676 575.483 676 L575.483 676 Z " />
<glyph glyph-name="Udieresis" unicode="&#xdc;" horiz-adv-x="603" d="M432 785 C432 836 352 836 352 785 C352 733 432 733 432 785 L432 785 Z M258 785 C258 836 178 836 178 785 C178 733 258 733 258 785 L258 785 Z M575.483 675 L394.5 675 C390.36 675 387 671.64 387 667.5 C387 663.36 390.36 660 394.5 660 L402 660 C445 660 474 633 476 591 L475 188 C475 87 431 20 319 20 C221 20 183 91 183 197 L183 595 C183 634 209 660 247 660 L252.5 660 C255.536 660 258 662.464 258 665.5 L258 667.5 C258 671.64 254.64 675 250.5 675 L43.5 675 C39.3602 675 36 671.64 36 667.5 L36 665.5 C36 662.464 38.4642 660 41.5 660 L47 660 C85 660 111 634 111 595 L111 211 C111 81 166 -5 308 -5 C444 -5 497 69 497 180 L497 585 C497 630 526 660 569 660 L575.5 660 C579.08 660 582.194 662.914 582.432 666.486 L582.5 667.5 C582.775 671.631 579.623 675 575.483 675 L575.483 675 Z " />
<glyph glyph-name="Yacute" unicode="&#xdd;" horiz-adv-x="536" d="M271.148 706.163 C274.969 710.37 351.775 795 382 834 C406 862 422 883 422 887 C422 895 396 913 385 913 C382.088 913 368.814 892.275 350.663 861.797 C350.579 861.656 346.731 856.007 346.633 855.875 C315.334 813.668 264 711 264 711 C264 711 265.239 710.115 267.5 708.5 C269.419 707.129 269.562 704.417 271.148 706.163 L271.148 706.163 Z M169.016 0 L375.5 0 C379.64 0 383 3.36022 383 7.5 L383 9.5 C383 12.5358 380.536 15 377.5 15 L372 15 C334 15 308 41 308 80 L308 301.621 C308 304.82 313.353 326.075 314.743 328.957 C357.405 417.397 399.3 506.65 443 595 C463.9 636.8 493.825 657.842 532.775 659.842 C536.697 660.044 539 663.572 539 667.5 C539 671.64 535.64 675 531.5 675 L357.5 675 C353.36 675 350 671.64 350 667.5 C350 663.36 353.36 660 357.5 660 L368 660 C416 660 435 630 417 584 L349.319 441.599 C326.097 392.739 262.501 394.749 242.409 444.977 L182 596 C167 634 182 661 222 661 L233.5 661 C237.64 661 241 664.36 241 668.5 C241 672.64 237.64 676 233.5 676 L23.5 676 C19.3602 676 16 672.64 16 668.5 C16 664.735 20.2148 660.985 23.9646 660.645 C56.1494 657.721 81.425 636.7 99 596 L232.067 293.224 C233.163 290.731 237 272.463 237 269.74 L237 81 C237 42 211 16 173 16 L167.5 16 C164.47 16 161.846 13.5347 161.657 10.5107 L161.5 8 C161.225 3.59284 164.6 0 169.016 0 L169.016 0 Z " />
<glyph glyph-name="agrave" unicode="&#xe0;" horiz-adv-x="408" d="M381.897 35.218 C371.482 26.4208 358 21 336 21 C306 21 297 45 297 82 L297 358 C297 446 259 505 203 505 C142.775 505 94.1206 477.094 72.1978 432.513 C63.0527 413.916 72.8514 402 93.5753 402 L101.014 402 C112.929 402 129.789 415.82 133.558 427.122 C145.811 463.859 166.725 487 189 487 C213 487 229 441 229 372 L229 284.268 C229 266.881 214.473 248.772 197.5 245 L166 238 C89 219 37 164 37 102 C37 38 69 -5 118 -5 C145.125 -5 179.906 13.375 214.305 43.4258 C220.177 48.556 230.13 44.5192 231.844 36.9121 C238.427 7.69625 255.525 -10 291 -10 C337.55 -10 366.953 4.44 390.353 26.461 C392.847 28.8078 392.275 31.9405 390 34.5 C387.971 36.7829 384.23 37.1889 381.897 35.218 L381.897 35.218 Z M97 712 C97 707 114 686 139 659 C171 618 254 531 254 531 C254 531 255.273 531.909 257.5 533.5 C259.417 534.87 262.004 534.119 260.894 536.198 C258.236 541.178 205.984 638.822 174.446 680.804 C174.335 680.952 170.431 686.639 170.337 686.797 C152.185 717.275 138.882 738 135 738 C124 738 97 720 97 712 L97 712 Z M227.943 212.581 C227.768 175.724 227.285 133.271 227.757 88.173 C227.846 79.6365 220.964 64.5935 213.751 60.0271 C191.719 46.0789 168.513 38 148 38 C119 38 100 70 100 119 C100 167 126 206 166 216 L206.262 226.629 C218.173 229.774 228.001 224.9 227.943 212.581 L227.943 212.581 Z " />
<glyph glyph-name="aacute" unicode="&#xe1;" horiz-adv-x="408" d="M148.15 531.163 C152.019 535.37 229.775 620 260 659 C284 687 300 707 300 712 C300 720 274 738 263 738 C260.088 738 246.814 717.275 228.663 686.797 C228.578 686.654 224.73 681.009 224.631 680.875 C193.284 638.668 141 536 141 536 C141 536 142.256 535.103 144.5 533.5 C146.418 532.13 146.554 529.428 148.15 531.163 L148.15 531.163 Z M381.897 35.218 C371.482 26.4208 358 21 336 21 C306 21 297 45 297 82 L297 358 C297 446 259 505 203 505 C142.775 505 94.1206 477.094 72.1978 432.513 C63.0527 413.916 72.8514 402 93.5753 402 L101.014 402 C112.929 402 129.789 415.82 133.558 427.122 C145.811 463.859 166.725 487 189 487 C213 487 229 441 229 372 L229 284.268 C229 266.881 214.473 248.772 197.5 245 L166 238 C89 219 37 164 37 102 C37 38 69 -5 118 -5 C145.125 -5 179.906 13.375 214.305 43.4258 C220.177 48.556 230.13 44.5192 231.844 36.9121 C238.427 7.69625 255.525 -10 291 -10 C337.55 -10 366.953 4.44 390.353 26.461 C392.847 28.8078 392.275 31.9405 390 34.5 C387.971 36.7829 384.23 37.1889 381.897 35.218 L381.897 35.218 Z M227.943 212.581 C227.768 175.724 227.285 133.271 227.757 88.173 C227.846 79.6365 220.964 64.5935 213.751 60.0271 C191.719 46.0789 168.513 38 148 38 C119 38 100 70 100 119 C100 167 126 206 166 216 L206.262 226.629 C218.173 229.774 228.001 224.9 227.943 212.581 L227.943 212.581 Z " />
<glyph glyph-name="acircumflex" unicode="&#xe2;" horiz-adv-x="408" d="M381.897 35.218 C371.482 26.4208 358 21 336 21 C306 21 297 45 297 82 L297 358 C297 446 259 505 203 505 C142.775 505 94.1206 477.094 72.1978 432.513 C63.0527 413.916 72.8514 402 93.5753 402 L101.014 402 C112.929 402 129.789 415.82 133.558 427.122 C145.811 463.859 166.725 487 189 487 C213 487 229 441 229 372 L229 284.268 C229 266.881 214.473 248.772 197.5 245 L166 238 C89 219 37 164 37 102 C37 38 69 -5 118 -5 C145.125 -5 179.906 13.375 214.305 43.4258 C220.177 48.556 230.13 44.5192 231.844 36.9121 C238.427 7.69625 255.525 -10 291 -10 C337.55 -10 366.953 4.44 390.353 26.461 C392.847 28.8078 392.275 31.9405 390 34.5 C387.971 36.7829 384.23 37.1889 381.897 35.218 L381.897 35.218 Z M198.936 728.726 C196.062 735.236 189.533 745 180 745 C168 745 161 732 159 727 C159 727 65.14 532.963 74.6162 535.851 C75.5548 536.137 79.2463 536.128 80 535.5 C81.6706 534.108 83.8264 533.992 85.1989 535.679 C109.645 565.722 142.428 614.603 166.704 652.559 C172.896 662.241 184.149 663.842 190.492 654.257 C226.78 599.42 277 533 277 533 C277 533 278.421 534.184 280 535.5 C281.549 536.791 283.603 536.198 282.963 538.111 C281.998 540.994 261.925 600.225 200.5 726 C200.491 726.018 198.944 728.708 198.936 728.726 L198.936 728.726 Z M228.943 212.581 C228.768 175.724 228.285 133.271 228.757 88.173 C228.846 79.6365 221.964 64.5935 214.751 60.0271 C192.719 46.0789 169.513 38 149 38 C120 38 101 70 101 119 C101 167 127 206 167 216 L207.262 226.629 C219.173 229.774 229.001 224.9 228.943 212.581 L228.943 212.581 Z " />
<glyph glyph-name="atilde" unicode="&#xe3;" horiz-adv-x="408" d="M95.0867 601.055 C96.0928 635.735 105.757 659 119 659 C150 659 191 597 222 597 C253.2 597 273.943 635.976 274.961 695.39 C275.014 698.477 272.588 700 269.5 700 C266.57 700 264.001 697.042 263.899 694.113 C262.762 661.407 252.111 640 237 640 C206 640 164 702 133 702 C104.725 702 85.0056 661.123 84.0373 599.76 C83.9887 596.677 86.4163 595 89.5 595 C92.4478 595 95.0012 598.108 95.0867 601.055 L95.0867 601.055 Z M381.897 35.218 C371.482 26.4208 358 21 336 21 C306 21 297 45 297 82 L297 358 C297 446 259 505 203 505 C142.775 505 94.1206 477.094 72.1978 432.513 C63.0527 413.916 72.8514 402 93.5753 402 L101.014 402 C112.929 402 129.789 415.82 133.558 427.122 C145.811 463.859 166.725 487 189 487 C213 487 229 441 229 372 L229 284.268 C229 266.881 214.473 248.772 197.5 245 L166 238 C89 219 37 164 37 102 C37 38 69 -5 118 -5 C145.125 -5 179.906 13.375 214.305 43.4258 C220.177 48.556 230.13 44.5192 231.844 36.9121 C238.427 7.69625 255.525 -10 291 -10 C337.55 -10 366.953 4.44 390.353 26.461 C392.847 28.8078 392.275 31.9405 390 34.5 C387.971 36.7829 384.23 37.1889 381.897 35.218 L381.897 35.218 Z M227.943 212.581 C227.768 175.724 227.285 133.271 227.757 88.173 C227.846 79.6365 220.964 64.5935 213.751 60.0271 C191.719 46.0789 168.513 38 148 38 C119 38 100 70 100 119 C100 167 126 206 166 216 L206.262 226.629 C218.173 229.774 228.001 224.9 227.943 212.581 L227.943 212.581 Z " />
<glyph glyph-name="adieresis" unicode="&#xe4;" horiz-adv-x="408" d="M306 610 C306 661 227 662 227 611 C227 558 306 558.5 306 610.5 L306 610 Z M132 611 C132 662 53 661 53 611 C53 559 132 558 132 611 L132 611 Z M381.897 36.218 C371.482 27.4208 358 22 336 22 C306 22 297 46 297 83 L297 359 C297 447 259 506 203 506 C142.775 506 94.1206 478.094 72.1978 433.513 C63.0527 414.916 72.8514 403 93.5753 403 L101.014 403 C112.929 403 129.789 416.82 133.558 428.122 C145.811 464.859 166.725 488 189 488 C213 488 229 442 229 373 L229 285.268 C229 267.881 214.473 249.772 197.5 246 L166 239 C89 220 37 165 37 103 C37 39 69 -4 118 -4 C145.125 -4 179.906 14.375 214.305 44.4258 C220.177 49.556 230.13 45.5192 231.844 37.9121 C238.427 8.69625 255.525 -9 291 -9 C337.55 -9 366.953 5.44 390.353 27.461 C392.847 29.8078 392.275 32.9405 390 35.5 C387.971 37.7829 384.23 38.1889 381.897 36.218 L381.897 36.218 Z M227.943 213.581 C227.768 176.724 227.285 134.271 227.757 89.173 C227.846 80.6365 220.964 65.5935 213.751 61.0271 C191.719 47.0789 168.513 39 148 39 C119 39 100 71 100 120 C100 168 126 207 166 217 L206.262 227.629 C218.173 230.774 228.001 225.9 227.943 213.581 L227.943 213.581 Z " />
<glyph glyph-name="aring" unicode="&#xe5;" horiz-adv-x="408" d="M103 628 C103 675 134 706 180 706 C226 706 256 675 256 628 C256 585 221 549 180 549 C138 549 103 585 103 628 L103 628 Z M85 628 C85 578 129 535 180 535 C231 535 274 578 274 628 C274 683 236 720 180 720 C123 720 85 683 85 628 L85 628 Z M381.897 35.218 C371.482 26.4208 358 21 336 21 C306 21 297 45 297 82 L297 358 C297 446 259 505 203 505 C142.775 505 94.1206 477.094 72.1978 432.513 C63.0527 413.916 72.8514 402 93.5753 402 L101.014 402 C112.929 402 129.789 415.82 133.558 427.122 C145.811 463.859 166.725 487 189 487 C213 487 229 441 229 372 L229 284.268 C229 266.881 214.473 248.772 197.5 245 L166 238 C89 219 37 164 37 102 C37 38 69 -5 118 -5 C145.125 -5 179.906 13.375 214.305 43.4258 C220.177 48.556 230.13 44.5192 231.844 36.9121 C238.427 7.69625 255.525 -10 291 -10 C337.55 -10 366.953 4.44 390.353 26.461 C392.847 28.8078 392.275 31.9405 390 34.5 C387.971 36.7829 384.23 37.1889 381.897 35.218 L381.897 35.218 Z M227.943 212.581 C227.768 175.724 227.285 133.271 227.757 88.173 C227.846 79.6365 220.964 64.5935 213.751 60.0271 C191.719 46.0789 168.513 38 148 38 C119 38 100 70 100 119 C100 167 126 206 166 216 L206.262 226.629 C218.173 229.774 228.001 224.9 227.943 212.581 L227.943 212.581 Z " />
<glyph glyph-name="ccedilla" unicode="&#xe7;" horiz-adv-x="405" d="M184.253 -88.2737 C193.324 -81.9609 202.313 -78 208 -78 C225 -78 237 -100 237 -134 C237 -174 220 -201 195 -201 C175.75 -201 158.031 -197.172 148.543 -191.525 C146.892 -190.543 144.174 -191.201 143.5 -193 C142.659 -195.243 143.222 -198.096 145.114 -199.565 C161.242 -212.09 185.5 -220 208 -220 C249 -220 277 -186 277 -134 C277 -76.05 230.973 -49.6875 188.645 -74.6321 C185.881 -76.2611 180.881 -82.915 180 -86 L179.952 -86.1671 C179.354 -88.2625 182.465 -89.5185 184.253 -88.2737 L184.253 -88.2737 Z M179.267 -88.357 C193.546 -36.6605 204.88 -16.1941 211.428 -7.91992 C212.654 -6.37063 215.716 -4.89703 217.686 -4.74137 C264.506 -1.04112 316.177 18.7236 351.265 47.6939 C353.406 49.4619 352.464 51.5364 350.5 53.5 C348.801 55.199 345.027 55.3071 343.054 53.9361 C325.444 41.7006 291.15 34 256 34 C174 34 119 124 119 259 C119 396 165 487 233 487 C265 487 289 454 293 404 C295 385 308 372 326 372 C343 372 355 384 355 401 C350 463 304 505 241 505 C126 505 50 397 50 234 C50 97.5 105.136 3.77813 189.457 -4.53009 C191.813 -4.76225 195.29 -7.17083 194.6 -9.43555 C190.814 -21.8535 182.965 -50.0762 172.894 -88.5764 C172.471 -90.1949 173.35 -92.225 175 -92.5 C176.637 -92.7729 178.826 -89.9568 179.267 -88.357 L179.267 -88.357 Z " />
<glyph glyph-name="egrave" unicode="&#xe8;" horiz-adv-x="411" d="M301 372.5 L300.5 346.25 C300.224 331.763 311.766 320 326.255 320 L330.5 320 C349.089 320 361.314 333.394 359.377 351.882 C349.72 444.06 297.7 504 223 504 C119 504 50 396 50 233 C50 90 112 -6 205 -6 C257.65 -6 317.905 14.9137 357.032 46.5458 C359.193 48.2927 358.465 50.5352 356.5 52.5 C354.808 54.1916 351.007 54.2938 349.037 52.9361 C331.289 40.7006 296 33 259 33 C175 33 119 123 119 258 C119 276.741 119.726 294.756 121.177 311.427 C121.641 316.756 126.204 320 131.552 320 L288 320 C294.624 320 300 325.376 300 332 L300 344 L300.703 362.99 C300.707 363.1 299.402 362.439 299.368 362.334 C295.592 350.791 285.762 342.619 272 341 L171.769 334.228 C143.547 332.321 125.715 349.95 132.36 377.444 C148.648 444.843 179.4 485 219 485 C268 485 301 438.75 301 371.75 L301 372.5 Z M141 710 C141 704 157 684 182 657 C214 617 296 529 296 529 C296 529 297.299 529.928 299.5 531.5 C301.415 532.868 303.982 532.112 302.896 534.2 C300.284 539.225 248.936 637.75 217.444 678.875 C217.311 679.048 213.448 684.61 213.337 684.797 C195.185 715.275 181.882 736 178 736 C167 736 141 718 141 710 L141 710 Z " />
<glyph glyph-name="eacute" unicode="&#xe9;" horiz-adv-x="411" d="M192.148 531.163 C195.969 535.37 272.775 620 303 659 C327 687 343 708 343 712 C343 720 317 738 306 738 C303.088 738 289.814 717.275 271.663 686.797 C271.579 686.656 267.731 681.007 267.633 680.875 C236.334 638.668 185 536 185 536 C185 536 186.239 535.115 188.5 533.5 C190.419 532.129 190.562 529.417 192.148 531.163 L192.148 531.163 Z M301 372.5 L300.5 346.25 C300.224 331.763 311.766 320 326.255 320 L330.5 320 C349.089 320 361.314 333.394 359.377 351.882 C349.72 444.06 297.7 504 223 504 C119 504 50 396 50 233 C50 90 112 -6 205 -6 C257.65 -6 317.905 14.9137 357.032 46.5458 C359.193 48.2927 358.465 50.5352 356.5 52.5 C354.808 54.1916 351.007 54.2938 349.037 52.9361 C331.289 40.7006 296 33 259 33 C175 33 119 123 119 258 C119 276.741 119.726 294.756 121.177 311.427 C121.641 316.756 126.204 320 131.552 320 L288 320 C294.624 320 300 325.376 300 332 L300 344 L300.703 362.99 C300.707 363.1 299.402 362.439 299.368 362.334 C295.592 350.791 285.762 342.619 272 341 L171.769 334.228 C143.547 332.321 125.715 349.95 132.36 377.444 C148.648 444.843 179.4 485 219 485 C268 485 301 438.75 301 371.75 L301 372.5 Z " />
<glyph glyph-name="ecircumflex" unicode="&#xea;" horiz-adv-x="411" d="M301 372.5 L300.5 346.25 C300.224 331.763 311.766 320 326.255 320 L330.5 320 C349.089 320 361.314 333.394 359.377 351.882 C349.72 444.06 297.7 504 223 504 C119 504 50 396 50 233 C50 90 112 -6 205 -6 C257.65 -6 317.905 14.9137 357.032 46.5458 C359.193 48.2927 358.465 50.5352 356.5 52.5 C354.808 54.1916 351.007 54.2938 349.037 52.9361 C331.289 40.7006 296 33 259 33 C175 33 119 123 119 258 C119 276.741 119.726 294.756 121.177 311.427 C121.641 316.756 126.204 320 131.552 320 L288 320 C294.624 320 300 325.376 300 332 L300 344 L300.703 362.99 C300.707 363.1 299.402 362.439 299.368 362.334 C295.592 350.791 285.762 342.619 272 341 L171.769 334.228 C143.547 332.321 125.715 349.95 132.36 377.444 C148.648 444.843 179.4 485 219 485 C268 485 301 438.75 301 371.75 L301 372.5 Z M242.887 726.726 C239.813 733.236 232.533 743 223 743 C211 743 204 730 202 725 C202 725 108.14 530.963 117.616 533.851 C118.58 534.144 122.68 534.086 123.5 533.5 C125.447 532.109 127.688 531.821 129.197 533.679 C153.603 563.722 185.699 612.603 209.765 650.559 C215.937 660.295 227.109 661.903 233.464 652.285 C269.59 597.61 319 532 319 532 C319 532 320.519 533.085 322.5 534.5 C324.352 535.823 326.676 534.948 325.964 537.11 C325.022 539.969 305.425 598.725 244 724.5 C243.999 724.502 242.888 726.724 242.887 726.726 L242.887 726.726 Z " />
<glyph glyph-name="edieresis" unicode="&#xeb;" horiz-adv-x="411" d="M350 610 C350 661 270 661 270 610 C270 558 350 558 350 610 L350 610 Z M176 610 C176 661 96 661 96 610 C96 558 176 558 176 610 L176 610 Z M301 372.5 L300.5 346.25 C300.224 331.763 311.766 320 326.255 320 L330.5 320 C349.089 320 361.314 333.394 359.377 351.882 C349.72 444.06 297.7 504 223 504 C119 504 50 396 50 233 C50 90 112 -6 205 -6 C257.65 -6 317.905 14.9137 357.032 46.5458 C359.193 48.2927 358.465 50.5352 356.5 52.5 C354.808 54.1916 351.007 54.2938 349.037 52.9361 C331.289 40.7006 296 33 259 33 C175 33 119 123 119 258 C119 276.741 119.726 294.756 121.177 311.427 C121.641 316.756 126.204 320 131.552 320 L288 320 C294.624 320 300 325.376 300 332 L300 344 L300.703 362.99 C300.707 363.1 299.402 362.439 299.368 362.334 C295.592 350.791 285.762 342.619 272 341 L171.769 334.228 C143.547 332.321 125.715 349.95 132.36 377.444 C148.648 444.843 179.4 485 219 485 C268 485 301 438.75 301 371.75 L301 372.5 Z " />
<glyph glyph-name="igrave" unicode="&#xec;" horiz-adv-x="305" d="M71 712 C71 706 87 686 112 659 C144 619 226 531 226 531 C226 531 227.299 531.928 229.5 533.5 C231.415 534.868 233.982 534.112 232.896 536.2 C230.284 541.225 178.936 639.75 147.444 680.875 C147.311 681.048 143.448 686.61 143.337 686.797 C125.185 717.275 111.882 738 108 738 C97 738 71 720 71 712 L71 712 Z M254.5 15 L249 15 C211 15 185 41 185 80 L185 493.5 C185 497.088 182.088 500 178.5 500 C177.472 500 166.758 498.432 165.773 498.137 L49.3112 463.29 C47.0314 462.608 45 459.88 45 457.5 C45 455.056 47.023 452.632 49.4274 452.195 L56 451 C110 440 120 427 120 373 L120 80 C120 41 94 15 56 15 L50.5 15 C47.4642 15 45 12.5358 45 9.5 L45 7.5 C45 3.36022 48.3602 0 52.5 0 L252.5 0 C256.64 0 260 3.36022 260 7.5 L260 9.5 C260 12.5358 257.536 15 254.5 15 L254.5 15 Z " />
<glyph glyph-name="iacute" unicode="&#xed;" horiz-adv-x="305" d="M77.148 531.163 C80.9694 535.37 157.775 620 188 659 C212 687 228 708 228 712 C228 720 202 738 191 738 C188.088 738 174.814 717.275 156.663 686.797 C156.579 686.656 152.731 681.007 152.633 680.875 C121.334 638.668 70 536 70 536 C70 536 71.2391 535.115 73.5 533.5 C75.4195 532.129 75.562 529.417 77.148 531.163 L77.148 531.163 Z M254.5 15 L249 15 C211 15 185 41 185 80 L185 493.5 C185 497.088 182.088 500 178.5 500 C177.472 500 166.758 498.432 165.773 498.137 L49.3112 463.29 C47.0314 462.608 45 459.88 45 457.5 C45 455.056 47.023 452.632 49.4274 452.195 L56 451 C110 440 120 427 120 373 L120 80 C120 41 94 15 56 15 L50.5 15 C47.4642 15 45 12.5358 45 9.5 L45 7.5 C45 3.36022 48.3602 0 52.5 0 L252.5 0 C256.64 0 260 3.36022 260 7.5 L260 9.5 C260 12.5358 257.536 15 254.5 15 L254.5 15 Z " />
<glyph glyph-name="icircumflex" unicode="&#xee;" horiz-adv-x="305" d="M172.887 728.726 C169.813 735.236 162.533 745 153 745 C141 745 134 732 132 727 C132 727 38.14 532.963 47.6162 535.851 C48.5803 536.144 52.6799 536.086 53.5 535.5 C55.447 534.109 57.6884 533.821 59.1971 535.679 C83.6026 565.722 115.699 614.603 139.765 652.559 C145.937 662.295 157.109 663.903 163.464 654.285 C199.59 599.61 249 534 249 534 C249 534 250.519 535.085 252.5 536.5 C254.352 537.823 256.676 536.948 255.964 539.11 C255.022 541.969 235.425 600.725 174 726.5 C173.999 726.502 172.888 728.724 172.887 728.726 L172.887 728.726 Z M254.5 16 L249 16 C211 16 185 42 185 81 L185 494.5 C185 498.088 182.088 501 178.5 501 C177.472 501 166.758 499.432 165.773 499.137 L49.3112 464.29 C47.0314 463.608 45 460.88 45 458.5 C45 456.056 47.023 453.632 49.4274 453.195 L56 452 C110 441 120 428 120 374 L120 81 C120 42 94 16 56 16 L50.5 16 C47.4642 16 45 13.5358 45 10.5 L45 8.5 C45 4.36022 48.3602 1 52.5 1 L252.5 1 C256.64 1 260 4.36022 260 8.5 L260 10.5 C260 13.5358 257.536 16 254.5 16 L254.5 16 Z " />
<glyph glyph-name="idieresis" unicode="&#xef;" horiz-adv-x="305" d="M280 610 C280 661 200 661 200 610 C200 558 280 558 280 610 L280 610 Z M106 610 C106 661 26 661 26 610 C26 558 106 558 106 610 L106 610 Z M254.5 15 L249 15 C211 15 185 41 185 80 L185 493.5 C185 497.088 182.088 500 178.5 500 C177.472 500 166.758 498.432 165.773 498.137 L49.3112 463.29 C47.0314 462.608 45 459.88 45 457.5 C45 455.056 47.023 452.632 49.4274 452.195 L56 451 C110 440 120 427 120 373 L120 80 C120 41 94 15 56 15 L50.5 15 C47.4642 15 45 12.5358 45 9.5 L45 7.5 C45 3.36022 48.3602 0 52.5 0 L252.5 0 C256.64 0 260 3.36022 260 7.5 L260 9.5 C260 12.5358 257.536 15 254.5 15 L254.5 15 Z " />
<glyph glyph-name="ntilde" unicode="&#xf1;" horiz-adv-x="543" d="M190.078 601.055 C190.988 635.735 199.757 659 213 659 C244 659 286 597 317 597 C347.225 597 367.944 635.976 368.961 695.39 C369.014 698.477 366.588 700 363.5 700 C360.563 700 357.999 696.884 357.903 693.948 C356.838 661.336 347.086 640 332 640 C301 640 259 702 227 702 C198.725 702 179.956 661.123 179.035 599.76 C178.989 596.679 181.419 595 184.5 595 C187.456 595 190.001 598.1 190.078 601.055 L190.078 601.055 Z M295.5 0 L495.5 0 C499.64 0 503 3.36022 503 7.5 L503 9.5 C503 12.5358 500.536 15 497.5 15 L492 15 C454 15 428 41 428 80 L428 337 C428 438 402 505 336 505 C321.125 505 273.328 485.859 212.037 454.947 C199.315 448.531 185 456.251 185 470.5 L185 493.5 C185 497.088 182.088 500 178.5 500 C177.472 500 166.758 498.432 165.773 498.137 L49.3112 463.29 C47.0314 462.608 45 459.88 45 457.5 C45 455.056 47.023 452.632 49.4274 452.195 L56 451 C110 440 120 427 120 373 L120 80 C120 41 94 15 56 15 L50.5 15 C47.4642 15 45 12.5358 45 9.5 L45 7.5 C45 3.36022 48.3602 0 52.5 0 L252.5 0 C256.64 0 260 3.36022 260 7.5 L260 9.5 C260 12.5358 257.536 15 254.5 15 L249 15 C211 15 185 41 185 80 L185 414.993 C185 425.523 193.477 438.268 203.218 442.266 C232.283 454.194 262.725 461 285 461 C341 461 363 409 363 330 L363 80 C363 41 337 15 299 15 L293.5 15 C290.464 15 288 12.5358 288 9.5 L288 7.5 C288 3.36022 291.36 0 295.5 0 L295.5 0 Z " />
<glyph glyph-name="ograve" unicode="&#xf2;" horiz-adv-x="512" d="M122 250 C122 395 176 491 256 491 C336 491 390 395 390 250 C390 105 336 9 256 9 C176 9 122 105 122 250 L122 250 Z M50 250 C50 97 132 -5 256 -5 C380 -5 462 97 462 250 C462 403 380 505 256 505 C132 505 50 403 50 250 L50 250 Z M174 712 C174 706 190 686 215 659 C247 619 329 531 329 531 C329 531 330.299 531.928 332.5 533.5 C334.415 534.868 336.982 534.112 335.896 536.2 C333.284 541.225 281.936 639.75 250.444 680.875 C250.311 681.048 246.448 686.61 246.337 686.797 C228.185 717.275 214.882 738 211 738 C200 738 174 720 174 712 L174 712 Z " />
<glyph glyph-name="oacute" unicode="&#xf3;" horiz-adv-x="512" d="M225.148 531.163 C228.969 535.37 305.775 620 336 659 C360 687 376 708 376 712 C376 720 350 738 339 738 C336.088 738 322.814 717.275 304.663 686.797 C304.579 686.656 300.731 681.007 300.633 680.875 C269.334 638.668 218 536 218 536 C218 536 219.239 535.115 221.5 533.5 C223.419 532.129 223.562 529.417 225.148 531.163 L225.148 531.163 Z M122 250 C122 395 176 491 256 491 C336 491 390 395 390 250 C390 105 336 9 256 9 C176 9 122 105 122 250 L122 250 Z M50 250 C50 97 132 -5 256 -5 C380 -5 462 97 462 250 C462 403 380 505 256 505 C132 505 50 403 50 250 L50 250 Z " />
<glyph glyph-name="ocircumflex" unicode="&#xf4;" horiz-adv-x="512" d="M122 250 C122 395 176 491 256 491 C336 491 390 395 390 250 C390 105 336 9 256 9 C176 9 122 105 122 250 L122 250 Z M50 250 C50 97 132 -5 256 -5 C380 -5 462 97 462 250 C462 403 380 505 256 505 C132 505 50 403 50 250 L50 250 Z M275.887 728.726 C272.813 735.236 265.533 745 256 745 C244 745 237 732 235 727 C235 727 141.14 532.963 150.616 535.851 C151.58 536.144 155.68 536.086 156.5 535.5 C158.447 534.109 160.688 533.821 162.197 535.679 C186.603 565.722 218.699 614.603 242.765 652.559 C248.937 662.295 260.109 663.903 266.464 654.285 C302.59 599.61 352 534 352 534 C352 534 353.519 535.085 355.5 536.5 C357.352 537.823 359.676 536.948 358.964 539.11 C358.022 541.969 338.425 600.725 277 726.5 C276.999 726.502 275.888 728.724 275.887 728.726 L275.887 728.726 Z " />
<glyph glyph-name="otilde" unicode="&#xf5;" horiz-adv-x="512" d="M172.078 601.055 C172.988 635.735 181.757 659 195 659 C226 659 268 597 299 597 C329.225 597 349.944 635.976 350.961 695.39 C351.014 698.477 348.588 700 345.5 700 C342.563 700 339.999 696.884 339.903 693.948 C338.838 661.336 329.086 640 314 640 C283 640 241 702 209 702 C180.725 702 161.956 661.123 161.035 599.76 C160.989 596.679 163.419 595 166.5 595 C169.456 595 172.001 598.1 172.078 601.055 L172.078 601.055 Z M122 250 C122 395 176 491 256 491 C336 491 390 395 390 250 C390 105 336 9 256 9 C176 9 122 105 122 250 L122 250 Z M50 250 C50 97 132 -5 256 -5 C380 -5 462 97 462 250 C462 403 380 505 256 505 C132 505 50 403 50 250 L50 250 Z " />
<glyph glyph-name="odieresis" unicode="&#xf6;" horiz-adv-x="512" d="M383 610 C383 661 303 661 303 610 C303 558 383 558 383 610 L383 610 Z M209 610 C209 661 129 661 129 610 C129 558 209 558 209 610 L209 610 Z M122 250 C122 395 176 491 256 491 C336 491 390 395 390 250 C390 105 336 9 256 9 C176 9 122 105 122 250 L122 250 Z M50 250 C50 97 132 -5 256 -5 C380 -5 462 97 462 250 C462 403 380 505 256 505 C132 505 50 403 50 250 L50 250 Z " />
<glyph glyph-name="oslash" unicode="&#xf8;" horiz-adv-x="512" d="M64.6988 -3.74614 L97.2768 36.3946 C105.279 46.2544 124.223 46.1285 134.073 38.1137 C167.426 10.9737 209.15 -4 257 -4 C381 -4 463 98 463 251 C463 310.4 450.749 362.313 428.492 403.37 C422.751 413.962 422.508 439.803 430.065 449.184 L464.331 491.722 C468.009 496.287 467.412 503.139 463 507 C458.587 510.861 451.996 510.299 448.301 505.746 L415.723 465.605 C407.721 455.746 388.777 455.871 378.927 463.886 C345.574 491.026 303.85 506 256 506 C132 506 50 404 50 251 C50 191.6 62.2512 139.687 84.5077 98.6297 C90.249 88.0385 90.4924 62.1975 82.9348 52.8156 L48.6686 10.2783 C44.9908 5.7127 45.5879 -1.13941 50 -5 C54.4127 -8.86114 61.0038 -8.29889 64.6988 -3.74614 L64.6988 -3.74614 Z M344.707 377.077 L150.815 136.651 C145.245 129.744 135.76 132.91 133.69 141.538 C126.084 173.234 122 209.575 122 250 C122 395 176 491 256 491 C294.775 491 327.424 468.539 350.579 428.672 C359.893 412.635 356.349 391.513 344.707 377.077 L344.707 377.077 Z M377.31 358.462 C384.916 326.766 389 290.425 389 250 C389 105 335 9 255 9 C216.225 9 183.576 31.4606 160.421 71.3282 C151.107 87.3649 154.651 108.487 166.293 122.923 L360.185 363.349 C365.755 370.256 375.24 367.09 377.31 358.462 L377.31 358.462 Z " />
<glyph glyph-name="ugrave" unicode="&#xf9;" horiz-adv-x="508" d="M162 712 C162 706 178 686 203 659 C235 619 317 531 317 531 C317 531 318.299 531.928 320.5 533.5 C322.415 534.868 324.982 534.112 323.896 536.2 C321.284 541.225 269.936 639.75 238.444 680.875 C238.311 681.048 234.448 686.61 234.337 686.797 C216.185 717.275 202.882 738 199 738 C188 738 162 720 162 712 L162 712 Z M20.5 485 L26 485 C64 485 90 459 90 420 L90 155 C90 59 128 -5 201 -5 C240.6 -5 278.158 12.0156 311.99 38.7472 C320.093 45.1501 333 40.4486 333 30.1206 L333 7.5 C333 3.91219 335.912 1 339.5 1 C340.528 1 351.242 2.56845 352.227 2.86326 L468.689 37.71 C470.969 38.3922 473 41.1204 473 43.5 C473 45.9438 470.977 48.3678 468.573 48.805 L462 50 C408 61 398 74 398 128 L398 442.632 C398 474.849 371.849 501 339.632 501 L265.5 501 C261.36 501 258 497.64 258 493.5 L258 491.5 C258 488.464 260.464 486 263.5 486 L269 486 C307 486 333 460 333 421 L333 79.7475 C333 73.1072 329.141 63.4365 323.723 59.5981 C305.763 46.8757 282.462 39 252 39 C187 39 154 89 154 163 L154.827 442.459 C154.922 474.772 128.772 501 96.4591 501 L23 501 C18.5842 501 15 497.416 15 493 L15 490.5 C15 487.464 17.4642 485 20.5 485 L20.5 485 Z " />
<glyph glyph-name="uacute" unicode="&#xfa;" horiz-adv-x="508" d="M213.148 531.163 C216.969 535.37 293.775 620 324 659 C348 687 364 708 364 712 C364 720 338 738 327 738 C324.088 738 310.814 717.275 292.663 686.797 C292.579 686.656 288.731 681.007 288.633 680.875 C257.334 638.668 206 536 206 536 C206 536 207.239 535.115 209.5 533.5 C211.419 532.129 211.562 529.417 213.148 531.163 L213.148 531.163 Z M20.5 485 L26 485 C64 485 90 459 90 420 L90 155 C90 59 128 -5 201 -5 C240.6 -5 278.158 12.0156 311.99 38.7472 C320.093 45.1501 333 40.4486 333 30.1206 L333 7.5 C333 3.91219 335.912 1 339.5 1 C340.528 1 351.242 2.56845 352.227 2.86326 L468.689 37.71 C470.969 38.3922 473 41.1204 473 43.5 C473 45.9438 470.977 48.3678 468.573 48.805 L462 50 C408 61 398 74 398 128 L398 442.632 C398 474.849 371.849 501 339.632 501 L265.5 501 C261.36 501 258 497.64 258 493.5 L258 491.5 C258 488.464 260.464 486 263.5 486 L269 486 C307 486 333 460 333 421 L333 79.7475 C333 73.1072 329.141 63.4365 323.723 59.5981 C305.763 46.8757 282.462 39 252 39 C187 39 154 89 154 163 L154.827 442.459 C154.922 474.772 128.772 501 96.4591 501 L23 501 C18.5842 501 15 497.416 15 493 L15 490.5 C15 487.464 17.4642 485 20.5 485 L20.5 485 Z " />
<glyph glyph-name="ucircumflex" unicode="&#xfb;" horiz-adv-x="508" d="M263.887 728.726 C260.813 735.236 253.533 745 244 745 C232 745 225 732 223 727 C223 727 129.14 532.963 138.616 535.851 C139.58 536.144 143.68 536.086 144.5 535.5 C146.447 534.109 148.688 533.821 150.197 535.679 C174.603 565.722 206.699 614.603 230.765 652.559 C236.937 662.295 248.109 663.903 254.464 654.285 C290.59 599.61 340 534 340 534 C340 534 341.519 535.085 343.5 536.5 C345.352 537.823 347.676 536.948 346.964 539.11 C346.022 541.969 326.425 600.725 265 726.5 C264.999 726.502 263.888 728.724 263.887 728.726 L263.887 728.726 Z M20.5 486 L26 486 C64 486 90 460 90 421 L90 156 C90 60 128 -4 201 -4 C240.6 -4 278.158 13.0156 311.99 39.7472 C320.093 46.1501 333 41.4486 333 31.1206 L333 8.5 C333 4.91219 335.912 2 339.5 2 C340.528 2 351.242 3.56845 352.227 3.86326 L468.689 38.71 C470.969 39.3922 473 42.1204 473 44.5 C473 46.9438 470.977 49.3678 468.573 49.805 L462 51 C408 62 398 75 398 129 L398 443.632 C398 475.849 371.849 502 339.632 502 L265.5 502 C261.36 502 258 498.64 258 494.5 L258 492.5 C258 489.464 260.464 487 263.5 487 L269 487 C307 487 333 461 333 422 L333 80.7475 C333 74.1072 329.141 64.4365 323.723 60.5981 C305.763 47.8757 282.462 40 252 40 C187 40 154 90 154 164 L154.827 443.459 C154.922 475.772 128.772 502 96.4591 502 L23 502 C18.5842 502 15 498.416 15 494 L15 491.5 C15 488.464 17.4642 486 20.5 486 L20.5 486 Z " />
<glyph glyph-name="udieresis" unicode="&#xfc;" horiz-adv-x="508" d="M371 610 C371 661 291 661 291 610 C291 558 371 558 371 610 L371 610 Z M197 610 C197 661 117 661 117 610 C117 558 197 558 197 610 L197 610 Z M20.5 485 L26 485 C64 485 90 459 90 420 L90 155 C90 59 128 -5 201 -5 C240.6 -5 278.158 12.0156 311.99 38.7472 C320.093 45.1501 333 40.4486 333 30.1206 L333 7.5 C333 3.91219 335.912 1 339.5 1 C340.528 1 351.242 2.56845 352.227 2.86326 L468.689 37.71 C470.969 38.3922 473 41.1204 473 43.5 C473 45.9438 470.977 48.3678 468.573 48.805 L462 50 C408 61 398 74 398 128 L398 442.632 C398 474.849 371.849 501 339.632 501 L265.5 501 C261.36 501 258 497.64 258 493.5 L258 491.5 C258 488.464 260.464 486 263.5 486 L269 486 C307 486 333 460 333 421 L333 79.7475 C333 73.1072 329.141 63.4365 323.723 59.5981 C305.763 46.8757 282.462 39 252 39 C187 39 154 89 154 163 L154.827 442.459 C154.922 474.772 128.772 501 96.4591 501 L23 501 C18.5842 501 15 497.416 15 493 L15 490.5 C15 487.464 17.4642 485 20.5 485 L20.5 485 Z " />
<glyph glyph-name="ydieresis" unicode="&#xff;" horiz-adv-x="408" d="M358 610 C358 661 278 661 278 610 C278 558 358 558 358 610 L358 610 Z M184 610 C184 661 104 661 104 610 C104 558 184 558 184 610 L184 610 Z M458 500 L306.5 500 C302.36 500 299 496.64 299 492.5 L299 490.5 C299 487.464 301.464 485 304.5 485 L310 485 C344 485 360 462 352 426 L302.5 255 C288.38 206.222 220.126 206.92 207.006 255.976 L161.691 425.417 C161.63 425.645 160.626 430.369 160.593 430.602 C155.861 464.136 172.85 486 206 486 L211.5 486 C214.536 486 217 488.464 217 491.5 L217 493.5 C217 497.64 213.64 501 209.5 501 L4.5 501 C0.360225 501 -3 497.64 -3 493.5 L-3 491.5 C-3 488.464 -0.535835 486 2.5 486 L8 486 C45 486 78 462 91 425 L221.12 7.03869 C221.735 5.06409 221.503 -3.46034 220.84 -5.41922 C216.451 -18.3828 209.438 -38.8438 201 -65 C178.05 -138.95 160.158 -174.607 140.567 -183.641 C131.115 -187.999 138.968 -191.096 129.918 -185.953 C127.862 -184.785 87.5385 -162 70 -162 C51 -162 38 -173 38 -189 C38 -213 59 -229 90 -229 C147 -229 183 -185 218 -71 C231 -33 237 -9 237 -9 L372 427 C386 463 418 486 454 486 L459.5 486 C462.536 486 465 488.464 465 491.5 L465 493 C465 496.864 461.864 500 458 500 L458 500 Z " />
<glyph glyph-name="Amacron" unicode="&#x100;" horiz-adv-x="568" d="M182 783 L364 783 C373.935 783 382 791.065 382 801 C382 810.935 373.935 819 364 819 L182 819 C172.065 819 164 810.935 164 801 C164 791.065 172.065 783 182 783 L182 783 Z M326.016 0 L555.5 0 C559.64 0 563 3.36022 563 7.5 C563 11.3547 558.257 15.0235 554.411 15.289 C519.868 17.6738 494.8 34.925 480 71 L284.738 682.427 C283.298 686.935 277.732 691 273 691 C268.215 691 261.019 680.38 259.727 675.773 C204.199 477.801 149.55 278.925 93 81 C82 42 49 16 11 16 L5.5 16 C2.46416 16 0 13.5358 0 10.5 L0 8.5 C0 4.36022 3.36022 1 7.5 1 L197.5 1 C201.64 1 205 4.36022 205 8.5 C205 12.6398 201.64 16 197.5 16 L179 16 C131 16 108 48 121 96 L149.234 199.055 C155.498 221.917 181.823 242 205.528 242 L324.84 242 C339.652 242 357.203 227.838 361.476 213.655 C374.889 169.131 388.625 124.725 401 81 C413 42 395 16 356 16 L327.016 16 C322.6 16 318.775 12.4072 318.5 8 C318.225 3.59284 321.6 0 326.016 0 L326.016 0 Z M269.407 260.432 L241.921 260.583 C201.423 260.805 175.293 295.183 185.918 334.263 L209.5 421 C222.115 467.402 286.408 468.118 300.053 422.009 L325.696 335.363 C337.482 295.54 310.936 260.204 269.407 260.432 L269.407 260.432 Z " />
<glyph glyph-name="amacron" unicode="&#x101;" horiz-adv-x="408" d="M88 608 L271 608 C280.935 608 289 616.065 289 626 C289 635.935 280.935 644 271 644 L88 644 C78.0645 644 70 635.935 70 626 C70 616.065 78.0645 608 88 608 L88 608 Z M381.897 35.218 C371.482 26.4208 358 21 336 21 C306 21 297 45 297 82 L297 358 C297 446 259 505 203 505 C142.775 505 94.1206 477.094 72.1978 432.513 C63.0527 413.916 72.8514 402 93.5753 402 L101.014 402 C112.929 402 129.789 415.82 133.558 427.122 C145.811 463.859 166.725 487 189 487 C213 487 229 441 229 372 L229 284.268 C229 266.881 214.473 248.772 197.5 245 L166 238 C89 219 37 164 37 102 C37 38 69 -5 118 -5 C145.125 -5 179.906 13.375 214.305 43.4258 C220.177 48.556 230.13 44.5192 231.844 36.9121 C238.427 7.69625 255.525 -10 291 -10 C337.55 -10 366.953 4.44 390.353 26.461 C392.847 28.8078 392.275 31.9405 390 34.5 C387.971 36.7829 384.23 37.1889 381.897 35.218 L381.897 35.218 Z M227.943 212.581 C227.768 175.724 227.285 133.271 227.757 88.173 C227.846 79.6365 220.964 64.5935 213.751 60.0271 C191.719 46.0789 168.513 38 148 38 C119 38 100 70 100 119 C100 167 126 206 166 216 L206.262 226.629 C218.173 229.774 228.001 224.9 227.943 212.581 L227.943 212.581 Z " />
<glyph glyph-name="Abreve" unicode="&#x102;" horiz-adv-x="568" d="M196.155 881.092 C211.551 817.827 241.8 776 273 776 C304.2 776 334.449 817.827 349.845 881.092 C350.6 884.195 348.581 886.66 345.5 887.5 C342.596 888.292 339.207 885.702 338.381 882.807 C327.387 844.27 302.45 819 273 819 C243.55 819 218.612 844.27 207.619 882.807 C206.793 885.702 203.404 888.292 200.5 887.5 C197.419 886.66 195.4 884.195 196.155 881.092 L196.155 881.092 Z M326.016 0 L555.5 0 C559.64 0 563 3.36022 563 7.5 C563 11.3547 558.257 15.0235 554.411 15.289 C519.868 17.6738 494.8 34.925 480 71 L284.738 682.427 C283.298 686.935 277.732 691 273 691 C268.215 691 261.019 680.38 259.727 675.773 C204.199 477.801 149.55 278.925 93 81 C82 42 49 16 11 16 L5.5 16 C2.46416 16 0 13.5358 0 10.5 L0 8.5 C0 4.36022 3.36022 1 7.5 1 L197.5 1 C201.64 1 205 4.36022 205 8.5 C205 12.6398 201.64 16 197.5 16 L179 16 C131 16 108 48 121 96 L149.234 199.055 C155.498 221.917 181.823 242 205.528 242 L324.84 242 C339.652 242 357.203 227.838 361.476 213.655 C374.889 169.131 388.625 124.725 401 81 C413 42 395 16 356 16 L327.016 16 C322.6 16 318.775 12.4072 318.5 8 C318.225 3.59284 321.6 0 326.016 0 L326.016 0 Z M269.407 260.432 L241.921 260.583 C201.423 260.805 175.293 295.183 185.918 334.263 L209.5 421 C222.115 467.402 286.408 468.118 300.053 422.009 L325.696 335.363 C337.482 295.54 310.936 260.204 269.407 260.432 L269.407 260.432 Z " />
<glyph glyph-name="abreve" unicode="&#x103;" horiz-adv-x="408" d="M103.155 676.092 C118.551 612.827 148.8 571 180 571 C210.225 571 240.45 612.827 255.845 676.092 C256.6 679.195 254.581 681.66 251.5 682.5 C248.595 683.292 245.207 680.702 244.381 677.807 C233.39 639.27 208.5 614 180 614 C150.55 614 125.613 639.27 114.619 677.807 C113.793 680.702 110.404 683.292 107.5 682.5 C104.419 681.66 102.4 679.195 103.155 676.092 L103.155 676.092 Z M381.897 35.218 C371.482 26.4208 358 21 336 21 C306 21 297 45 297 82 L297 358 C297 446 259 505 203 505 C142.775 505 94.1206 477.094 72.1978 432.513 C63.0527 413.916 72.8514 402 93.5753 402 L101.014 402 C112.929 402 129.789 415.82 133.558 427.122 C145.811 463.859 166.725 487 189 487 C213 487 229 441 229 372 L229 284.268 C229 266.881 214.473 248.772 197.5 245 L166 238 C89 219 37 164 37 102 C37 38 69 -5 118 -5 C145.125 -5 179.906 13.375 214.305 43.4258 C220.177 48.556 230.13 44.5192 231.844 36.9121 C238.427 7.69625 255.525 -10 291 -10 C337.55 -10 366.953 4.44 390.353 26.461 C392.847 28.8078 392.275 31.9405 390 34.5 C387.971 36.7829 384.23 37.1889 381.897 35.218 L381.897 35.218 Z M227.943 212.581 C227.768 175.724 227.285 133.271 227.757 88.173 C227.846 79.6365 220.964 64.5935 213.751 60.0271 C191.719 46.0789 168.513 38 148 38 C119 38 100 70 100 119 C100 167 126 206 166 216 L206.262 226.629 C218.173 229.774 228.001 224.9 227.943 212.581 L227.943 212.581 Z " />
<glyph glyph-name="Aogonek" unicode="&#x104;" horiz-adv-x="568" d="M326.016 0 L366.585 0 C374.905 0 378.979 -11.2815 372.332 -16.2855 C326.02 -51.1525 274 -107.55 274 -156 C274 -203 319 -234 386 -234 C416.4 -234 446.8 -222.268 464.339 -203.947 C465.767 -202.455 466.145 -199.718 465 -198 C464.029 -196.543 462.141 -196.056 460.88 -197.272 C449.762 -207.999 426.194 -215 400 -215 C348 -215 314 -189 314 -149 C314 -88.875 379.883 -22.7606 415.884 -3.68423 C419.197 -1.92854 430.533 0 434.283 0 L555.5 0 C559.64 0 563 3.36022 563 7.5 C563 11.3547 558.257 15.0235 554.411 15.289 C519.868 17.6738 494.8 34.925 480 71 L284.738 682.427 C283.298 686.935 277.732 691 273 691 C268.215 691 261.019 680.38 259.727 675.773 C204.199 477.801 149.55 278.925 93 81 C82 42 49 16 11 16 L5.5 16 C2.46416 16 0 13.5358 0 10.5 L0 8.5 C0 4.36022 3.36022 1 7.5 1 L197.5 1 C201.64 1 205 4.36022 205 8.5 C205 12.6398 201.64 16 197.5 16 L179 16 C131 16 108 48 121 96 L149.234 199.055 C155.498 221.917 181.823 242 205.528 242 L324.84 242 C339.652 242 357.203 227.838 361.476 213.655 C374.889 169.131 388.625 124.725 401 81 C413 42 395 16 356 16 L327.016 16 C322.6 16 318.775 12.4072 318.5 8 C318.225 3.59284 321.6 0 326.016 0 L326.016 0 Z M269.407 260.432 L241.921 260.583 C201.423 260.805 175.293 295.183 185.918 334.263 L209.5 421 C222.115 467.402 286.408 468.118 300.053 422.009 L325.696 335.363 C337.482 295.54 310.936 260.204 269.407 260.432 L269.407 260.432 Z " />
<glyph glyph-name="aogonek" unicode="&#x105;" horiz-adv-x="408" d="M336 21 C306 21 297 45 297 82 L297 358 C297 446 259 505 203 505 C142.775 505 94.1206 477.094 72.1978 432.513 C63.0527 413.916 72.8514 402 93.5753 402 L101.014 402 C112.929 402 129.789 415.82 133.558 427.122 C145.811 463.859 166.725 487 189 487 C213 487 229 441 229 372 L229 284.268 C229 266.881 214.473 248.772 197.5 245 L166 238 C89 219 37 164 37 102 C37 38 69 -5 118 -5 C144.35 -5 177.925 12.34 211.355 40.8787 C218.469 46.9515 230.499 41.9581 233.088 32.9705 C240.685 6.60572 257.967 -7.23197 287.956 -9.09178 C295.605 -9.56613 301.308 -19.947 295.795 -25.2699 C260.068 -59.765 229 -104.05 229 -144 C229 -198 274 -234 341 -234 C371.4 -234 401.8 -222.268 419.339 -203.947 C420.767 -202.455 421.145 -199.718 420 -198 C419.029 -196.543 417.141 -196.056 415.88 -197.272 C404.762 -207.999 381.194 -215 355 -215 C303 -215 269 -184 269 -137 C269 -86.65 312.32 -32.69 347.518 -3.41338 C348.116 -2.91576 358.691 3.67355 359.383 4.02846 C370.452 9.70088 380.077 16.888 389.03 25.205 C391.556 27.5512 392.29 31.9236 390 34.5 C388.004 36.7456 383.984 36.9703 381.658 35.0684 C371.008 26.3594 356.625 21 336.5 21 L336 21 Z M228.943 212.581 C228.768 175.724 228.285 133.271 228.757 88.173 C228.846 79.6365 221.964 64.5935 214.751 60.0271 C192.719 46.0789 169.513 38 149 38 C120 38 101 70 101 119 C101 167 127 206 167 216 L207.262 226.629 C219.173 229.774 229.001 224.9 228.943 212.581 L228.943 212.581 Z " />
<glyph glyph-name="Cacute" unicode="&#x106;" horiz-adv-x="633" d="M305.148 706.163 C308.969 710.37 385.775 795 416 834 C440 862 456 883 456 887 C456 895 430 913 419 913 C416.088 913 402.814 892.275 384.663 861.797 C384.579 861.656 380.731 856.007 380.633 855.875 C349.334 813.668 298 711 298 711 C298 711 299.239 710.115 301.5 708.5 C303.419 707.129 303.562 704.417 305.148 706.163 L305.148 706.163 Z M569 64 L569 64 L569 64 Z M557.8 190.764 C554.266 180.509 550.294 168.059 547 159 C518 74 442 16 357 14 C224 11 137 141 137 338 C137 532 223 662 351 662 C367 662 384 661 401 658 C464 645 521 589 546 515 C549.529 505.294 553.837 491.696 557.55 481.074 C558.57 478.157 561.762 477 564.852 477 L565.5 477 C569.088 477 572 479.912 572 483.5 L572 613.528 C572 614.632 570.494 614.987 570 614 L568 610 C568 612 571 615 572 618 C509 655 420 679 350 679 C174 679 56 542 56 337 C56 131 174 -6 350 -6 C409.5 -6 482.728 11.34 542.047 39.2646 C558.781 47.1422 572 69.9148 572 88.4102 L572 189.979 C572 193.291 569.3 196.225 566 196.5 L565.832 196.514 C562.657 196.779 558.838 193.777 557.8 190.764 L557.8 190.764 Z " />
<glyph glyph-name="cacute" unicode="&#x107;" horiz-adv-x="405" d="M165.148 531.163 C168.969 535.37 245.775 620 276 659 C300 687 316 708 316 712 C316 720 290 738 279 738 C276.088 738 262.814 717.275 244.663 686.797 C244.579 686.656 240.731 681.007 240.633 680.875 C209.334 638.668 158 536 158 536 C158 536 159.239 535.115 161.5 533.5 C163.419 532.129 163.562 529.417 165.148 531.163 L165.148 531.163 Z M350.5 53.5 C348.801 55.199 345.027 55.3071 343.054 53.9361 C325.444 41.7006 291.15 34 256 34 C174 34 119 124 119 259 C119 396 165 487 233 487 C265 487 289 454 293 404 C295 385 308 372 326 372 C343 372 355 384 355 401 C350 463 304 505 241 505 C126 505 50 397 50 234 C50 91 111 -5 202 -5 C252.7 -5 311.956 15.9137 351.034 47.5458 C353.193 49.2931 352.464 51.5362 350.5 53.5 L350.5 53.5 Z " />
<glyph glyph-name="Ccircumflex" unicode="&#x108;" horiz-adv-x="633" d="M370.887 903.726 C367.813 910.236 360.533 920 351 920 C339 920 332 907 330 902 C330 902 236.14 707.962 245.616 710.851 C246.58 711.144 250.68 711.086 251.5 710.5 C253.447 709.109 255.688 708.821 257.197 710.679 C281.603 740.722 313.699 789.603 337.765 827.559 C343.937 837.295 355.109 838.903 361.464 829.285 C397.59 774.61 447 709 447 709 C447 709 448.519 710.085 450.5 711.5 C452.352 712.823 454.676 711.948 453.964 714.11 C453.022 716.969 433.425 775.725 372 901.5 C371.999 901.502 370.888 903.724 370.887 903.726 L370.887 903.726 Z M569 65 L569 65 L569 65 Z M557.8 191.764 C554.266 181.509 550.294 169.059 547 160 C518 75 442 17 357 15 C224 12 137 142 137 339 C137 533 223 663 351 663 C367 663 384 662 401 659 C464 646 521 590 546 516 C549.529 506.294 553.837 492.696 557.55 482.074 C558.57 479.157 561.762 478 564.852 478 L565.5 478 C569.088 478 572 480.912 572 484.5 L572 614.528 C572 615.632 570.494 615.987 570 615 L568 611 C568 613 571 616 572 619 C509 656 420 680 350 680 C174 680 56 543 56 338 C56 132 174 -5 350 -5 C409.5 -5 482.728 12.34 542.047 40.2646 C558.781 48.1422 572 70.9148 572 89.4102 L572 190.979 C572 194.291 569.3 197.225 566 197.5 L565.832 197.514 C562.657 197.779 558.838 194.777 557.8 191.764 L557.8 191.764 Z " />
<glyph glyph-name="Cdot" unicode="&#x10a;" horiz-adv-x="633" d="M391 785 C391 836 311 836 311 785 C311 733 391 733 391 785 L391 785 Z M569 64 L569 64 L569 64 Z M557.8 190.764 C554.266 180.509 550.294 168.059 547 159 C518 74 442 16 357 14 C224 11 137 141 137 338 C137 532 223 662 351 662 C367 662 384 661 401 658 C464 645 521 589 546 515 C549.529 505.294 553.837 491.696 557.55 481.074 C558.57 478.157 561.762 477 564.852 477 L565.5 477 C569.088 477 572 479.912 572 483.5 L572 613.528 C572 614.632 570.494 614.987 570 614 L568 610 C568 612 571 615 572 618 C509 655 420 679 350 679 C174 679 56 542 56 337 C56 131 174 -6 350 -6 C409.5 -6 482.728 11.34 542.047 39.2646 C558.781 47.1422 572 69.9148 572 88.4102 L572 189.979 C572 193.291 569.3 196.225 566 196.5 L565.832 196.514 C562.657 196.779 558.838 193.777 557.8 190.764 L557.8 190.764 Z " />
<glyph glyph-name="cdot" unicode="&#x10b;" horiz-adv-x="405" d="M281 610 C281 661 201 661 201 610 C201 558 281 558 281 610 L281 610 Z M350.5 53.5 C348.801 55.199 345.027 55.3071 343.054 53.9361 C325.444 41.7006 291.15 34 256 34 C174 34 119 124 119 259 C119 396 165 487 233 487 C265 487 289 454 293 404 C295 385 308 372 326 372 C343 372 355 384 355 401 C350 463 304 505 241 505 C126 505 50 397 50 234 C50 91 111 -5 202 -5 C252.7 -5 311.956 15.9137 351.034 47.5458 C353.193 49.2931 352.464 51.5362 350.5 53.5 L350.5 53.5 Z " />
<glyph glyph-name="Ccaron" unicode="&#x10c;" horiz-adv-x="633" d="M446.887 941.85 C444.265 938.363 396.587 874.871 361.464 821.715 C355.109 812.097 343.937 813.705 337.764 823.441 C313.699 861.397 281.603 910.278 257.197 940.321 C255.688 942.179 253.447 941.891 251.5 940.5 C250.68 939.914 246.58 939.856 245.616 940.149 C236.14 943.037 330 749 330 749 C332 744 339 731 351 731 C360.533 731 367.813 740.764 370.887 747.274 C370.888 747.275 376.642 759.543 376.643 759.544 C435.938 881.913 454 938 454 938 C454 938 452.881 938.639 450.5 940 C448.582 941.096 448.215 943.615 446.887 941.85 L446.887 941.85 Z M569 65 L569 65 L569 65 Z M557.8 191.764 C554.266 181.509 550.294 169.059 547 160 C518 75 442 17 357 15 C224 12 137 142 137 339 C137 533 223 663 351 663 C367 663 384 662 401 659 C464 646 521 590 546 516 C549.529 506.294 553.837 492.696 557.55 482.074 C558.57 479.157 561.762 478 564.852 478 L565.5 478 C569.088 478 572 480.912 572 484.5 L572 614.528 C572 615.632 570.494 615.987 570 615 L568 611 C568 613 571 616 572 619 C509 656 420 680 350 680 C174 680 56 543 56 338 C56 132 174 -5 350 -5 C409.5 -5 482.728 12.34 542.047 40.2646 C558.781 48.1422 572 70.9148 572 89.4102 L572 190.979 C572 194.291 569.3 197.225 566 197.5 L565.832 197.514 C562.657 197.779 558.838 194.777 557.8 191.764 L557.8 191.764 Z " />
<glyph glyph-name="ccaron" unicode="&#x10d;" horiz-adv-x="405" d="M336.887 766.85 C334.265 763.363 286.587 699.871 251.464 646.715 C245.109 637.097 233.937 638.705 227.764 648.441 C203.699 686.397 171.603 735.278 147.197 765.321 C145.688 767.179 143.447 766.891 141.5 765.5 C140.68 764.914 136.58 764.856 135.616 765.149 C126.14 768.037 220 574 220 574 C222 569 229 556 241 556 C250.533 556 257.813 565.764 260.887 572.274 C260.888 572.275 266.642 584.543 266.643 584.544 C325.938 706.913 344 763 344 763 C344 763 342.881 763.639 340.5 765 C338.582 766.096 338.215 768.615 336.887 766.85 L336.887 766.85 Z M350.5 54.5 C348.801 56.199 345.027 56.3071 343.054 54.9361 C325.444 42.7006 291.15 35 256 35 C174 35 119 125 119 260 C119 397 165 488 233 488 C265 488 289 455 293 405 C295 386 308 373 326 373 C343 373 355 385 355 402 C350 464 304 506 241 506 C126 506 50 398 50 235 C50 92 111 -4 202 -4 C252.7 -4 311.956 16.9138 351.034 48.5458 C353.193 50.2931 352.464 52.5362 350.5 54.5 L350.5 54.5 Z " />
<glyph glyph-name="Dcaron" unicode="&#x10e;" horiz-adv-x="623" d="M407.885 941.848 C405.221 938.319 356.772 874.057 321.492 820.743 C315.149 811.158 303.896 812.759 297.704 822.441 C273.428 860.397 240.645 909.278 216.199 939.321 C214.826 941.008 212.671 940.892 211 939.5 C210.246 938.872 206.555 938.863 205.616 939.149 C196.14 942.037 290 748 290 748 C292 743 299 730 311 730 C320.533 730 327.062 739.764 329.936 746.274 C329.942 746.289 335.636 758.529 335.643 758.544 C394.938 880.913 413 937 413 937 C413 937 412.758 937.242 410.5 939.5 C409.132 940.868 409.051 943.392 407.885 941.848 L407.885 941.848 Z M51.5 660 L57 660 C95 660 121 634 121 595 L121 80 C121 41 95 15 57 15 L51.5 15 C48.4642 15 46 12.5358 46 9.5 L46 7.5 C46 3.36022 49.3602 0 53.5 0 L288 0 C458 0 572 135 572 338 C572 540 449 675 264 675 L53.5 675 C49.3602 675 46 671.64 46 667.5 L46 665.5 C46 662.464 48.4642 660 51.5 660 L51.5 660 Z M193 65.5 L193 621.5 C193 641.095 208.905 657 228.5 657 L264 657 C406 657 500 529 500 338 C500 146 415 18 288 18 L240.5 18 C214.281 18 193 39.2814 193 65.5 L193 65.5 Z " />
<glyph glyph-name="dcaron" unicode="&#x10f;" horiz-adv-x="518" d="M502 753 C489 753 479 691 474 646 L456.469 487.246 C456.218 484.975 457.86 482.302 460 481.5 C462.207 480.672 464.613 481.815 465.367 484.047 L515 631 C532 679 543 730 543 738 C543 749 514 753 502 753 L502 753 Z M401.5 720 C400.472 720 389.758 718.432 388.773 718.137 L272.311 683.29 C270.031 682.608 268 679.88 268 677.5 C268 675.056 270.023 672.632 272.427 672.195 L279 671 C333 660 343 647 343 593 L343 471.616 C343 464.821 333.19 462.184 328.22 466.817 C303.319 490.026 271 505 238 505 C128 505 55 393 55 224 C55 87 118 -5 212 -5 C248.55 -5 290.88 9.45 325.479 33.437 C333.294 38.8545 343 32.5085 343 23 L343 5.5 C343 1.91219 345.912 -1 349.5 -1 C350.528 -1 361.242 0.568447 362.227 0.863262 L478.689 35.71 C480.969 36.3922 483 39.1204 483 41.5 C483 43.9438 480.977 46.3678 478.573 46.805 L472 48 C418 59 408 72 408 126 L408 713.5 C408 717.088 405.088 720 401.5 720 L401.5 720 Z M333.729 50.051 C314.087 39.5025 282.85 33 248 33 C173 33 123 119 123 247 C123 390 167 485 234 485 C273.375 485 310.453 462.031 333.846 430.162 C337.541 425.127 343 406.918 343 400.672 L343 67.4018 C343 60.6222 339.702 53.2587 333.729 50.051 L333.729 50.051 Z " />
<glyph glyph-name="Emacron" unicode="&#x112;" horiz-adv-x="536" d="M173 783 L355 783 C364.935 783 373 791.065 373 801 C373 810.935 364.935 819 355 819 L173 819 C163.065 819 155 810.935 155 801 C155 791.065 163.065 783 173 783 L173 783 Z M356 272 L356 438 C356 441.312 353.312 444 350 444 L349.852 444 C346.817 444 343.037 441.353 342 438.5 L340 433 C328 395 287 369 236 369 L211.5 369 C197.977 369 187 379.977 187 393.5 L187 618 C187 639.527 204.473 657 226 657 L265 657 C325 657 378 617 398 557 L407.351 527.247 C408.219 524.484 411.604 522 414.5 522 C417.536 522 420 524.464 420 527.5 L420 616.632 C420 648.849 393.849 675 361.632 675 L47.5 675 C43.3602 675 40 671.64 40 667.5 L40 665.5 C40 662.464 42.4642 660 45.5 660 L51 660 C89 660 115 634 115 595 L115 80 C115 41 89 15 51 15 L45.5 15 C42.4642 15 40 12.5358 40 9.5 L40 7.5 C40 3.36022 43.3602 0 47.5 0 L420.472 0 C422.956 0 425.226 2.03133 425.5 4.5 L426 9 C433.795 50.8974 442.539 107.036 450.383 149.663 C450.922 152.594 448.48 153 445.5 153 C442.769 153 438.79 150.509 437.597 148.053 L423 118 C393 58 333 18 273 18 L230 18 C206.265 18 187 37.2653 187 61 L187 326.5 C187 340.023 197.977 351 211.5 351 L236 351 C287 351 328 322 340 279 L342.235 271.735 C343.166 268.709 346.835 266 350 266 C353.312 266 356 268.688 356 272 L356 272 Z " />
<glyph glyph-name="emacron" unicode="&#x113;" horiz-adv-x="411" d="M132 608 L314 608 C323.935 608 332 616.065 332 626 C332 635.935 323.935 644 314 644 L132 644 C122.065 644 114 635.935 114 626 C114 616.065 122.065 608 132 608 L132 608 Z M301 372.5 L300.5 346.25 C300.224 331.763 311.766 320 326.255 320 L330.5 320 C349.089 320 361.314 333.394 359.377 351.882 C349.72 444.06 297.7 504 223 504 C119 504 50 396 50 233 C50 90 112 -6 205 -6 C257.65 -6 317.905 14.9137 357.032 46.5458 C359.193 48.2927 358.465 50.5352 356.5 52.5 C354.808 54.1916 351.007 54.2938 349.037 52.9361 C331.289 40.7006 296 33 259 33 C175 33 119 123 119 258 C119 276.741 119.726 294.756 121.177 311.427 C121.641 316.756 126.204 320 131.552 320 L288 320 C294.624 320 300 325.376 300 332 L300 344 L300.703 362.99 C300.707 363.1 299.402 362.439 299.368 362.334 C295.592 350.791 285.762 342.619 272 341 L171.769 334.228 C143.547 332.321 125.715 349.95 132.36 377.444 C148.648 444.843 179.4 485 219 485 C268 485 301 438.75 301 371.75 L301 372.5 Z " />
<glyph glyph-name="Ebreve" unicode="&#x114;" horiz-adv-x="536" d="M187.155 881.092 C202.551 817.827 232.8 776 264 776 C295.2 776 325.449 817.827 340.845 881.092 C341.6 884.195 339.581 886.66 336.5 887.5 C333.596 888.292 330.207 885.702 329.381 882.807 C318.387 844.27 293.45 819 264 819 C234.55 819 209.612 844.27 198.619 882.807 C197.793 885.702 194.404 888.292 191.5 887.5 C188.419 886.66 186.4 884.195 187.155 881.092 L187.155 881.092 Z M356 272 L356 438 C356 441.312 353.312 444 350 444 L349.852 444 C346.817 444 343.037 441.353 342 438.5 L340 433 C328 395 287 369 236 369 L211.5 369 C197.977 369 187 379.977 187 393.5 L187 618 C187 639.527 204.473 657 226 657 L265 657 C325 657 378 617 398 557 L407.351 527.247 C408.219 524.484 411.604 522 414.5 522 C417.536 522 420 524.464 420 527.5 L420 616.632 C420 648.849 393.849 675 361.632 675 L47.5 675 C43.3602 675 40 671.64 40 667.5 L40 665.5 C40 662.464 42.4642 660 45.5 660 L51 660 C89 660 115 634 115 595 L115 80 C115 41 89 15 51 15 L45.5 15 C42.4642 15 40 12.5358 40 9.5 L40 7.5 C40 3.36022 43.3602 0 47.5 0 L420.472 0 C422.956 0 425.226 2.03133 425.5 4.5 L426 9 C433.795 50.8974 442.539 107.036 450.383 149.663 C450.922 152.594 448.48 153 445.5 153 C442.769 153 438.79 150.509 437.597 148.053 L423 118 C393 58 333 18 273 18 L230 18 C206.265 18 187 37.2653 187 61 L187 326.5 C187 340.023 197.977 351 211.5 351 L236 351 C287 351 328 322 340 279 L342.235 271.735 C343.166 268.709 346.835 266 350 266 C353.312 266 356 268.688 356 272 L356 272 Z " />
<glyph glyph-name="ebreve" unicode="&#x115;" horiz-adv-x="411" d="M146.155 706.092 C161.551 642.827 191.8 601 223 601 C254.2 601 284.449 642.827 299.845 706.092 C300.6 709.195 298.581 711.66 295.5 712.5 C292.596 713.292 289.207 710.702 288.381 707.807 C277.387 669.27 252.45 644 223 644 C193.55 644 168.612 669.27 157.619 707.807 C156.793 710.702 153.404 713.292 150.5 712.5 C147.419 711.66 145.4 709.195 146.155 706.092 L146.155 706.092 Z M301 372.5 L300.5 346.25 C300.224 331.763 311.766 320 326.255 320 L330.5 320 C349.089 320 361.314 333.394 359.377 351.882 C349.72 444.06 297.7 504 223 504 C119 504 50 396 50 233 C50 90 112 -6 205 -6 C257.65 -6 317.905 14.9137 357.032 46.5458 C359.193 48.2927 358.465 50.5352 356.5 52.5 C354.808 54.1916 351.007 54.2938 349.037 52.9361 C331.289 40.7006 296 33 259 33 C175 33 119 123 119 258 C119 276.741 119.726 294.756 121.177 311.427 C121.641 316.756 126.204 320 131.552 320 L288 320 C294.624 320 300 325.376 300 332 L300 344 L300.703 362.99 C300.707 363.1 299.402 362.439 299.368 362.334 C295.592 350.791 285.762 342.619 272 341 L171.769 334.228 C143.547 332.321 125.715 349.95 132.36 377.444 C148.648 444.843 179.4 485 219 485 C268 485 301 438.75 301 371.75 L301 372.5 Z " />
<glyph glyph-name="Edot" unicode="&#x116;" horiz-adv-x="536" d="M304 785 C304 836 224 836 224 785 C224 733 304 733 304 785 L304 785 Z M356 272 L356 438 C356 441.312 353.312 444 350 444 L349.852 444 C346.817 444 343.037 441.353 342 438.5 L340 433 C328 395 287 369 236 369 L211.5 369 C197.977 369 187 379.977 187 393.5 L187 618 C187 639.527 204.473 657 226 657 L265 657 C325 657 378 617 398 557 L407.351 527.247 C408.219 524.484 411.604 522 414.5 522 C417.536 522 420 524.464 420 527.5 L420 616.632 C420 648.849 393.849 675 361.632 675 L47.5 675 C43.3602 675 40 671.64 40 667.5 L40 665.5 C40 662.464 42.4642 660 45.5 660 L51 660 C89 660 115 634 115 595 L115 80 C115 41 89 15 51 15 L45.5 15 C42.4642 15 40 12.5358 40 9.5 L40 7.5 C40 3.36022 43.3602 0 47.5 0 L420.472 0 C422.956 0 425.226 2.03133 425.5 4.5 L426 9 C433.795 50.8974 442.539 107.036 450.383 149.663 C450.922 152.594 448.48 153 445.5 153 C442.769 153 438.79 150.509 437.597 148.053 L423 118 C393 58 333 18 273 18 L230 18 C206.265 18 187 37.2653 187 61 L187 326.5 C187 340.023 197.977 351 211.5 351 L236 351 C287 351 328 322 340 279 L342.235 271.735 C343.166 268.709 346.835 266 350 266 C353.312 266 356 268.688 356 272 L356 272 Z " />
<glyph glyph-name="edot" unicode="&#x117;" horiz-adv-x="411" d="M263 610 C263 661 183 661 183 610 C183 558 263 558 263 610 L263 610 Z M301 372.5 L300.5 346.25 C300.224 331.763 311.766 320 326.255 320 L330.5 320 C349.089 320 361.314 333.394 359.377 351.882 C349.72 444.06 297.7 504 223 504 C119 504 50 396 50 233 C50 90 112 -6 205 -6 C257.65 -6 317.905 14.9137 357.032 46.5458 C359.193 48.2927 358.465 50.5352 356.5 52.5 C354.808 54.1916 351.007 54.2938 349.037 52.9361 C331.289 40.7006 296 33 259 33 C175 33 119 123 119 258 C119 276.741 119.726 294.756 121.177 311.427 C121.641 316.756 126.204 320 131.552 320 L288 320 C294.624 320 300 325.376 300 332 L300 344 L300.703 362.99 C300.707 363.1 299.402 362.439 299.368 362.334 C295.592 350.791 285.762 342.619 272 341 L171.769 334.228 C143.547 332.321 125.715 349.95 132.36 377.444 C148.648 444.843 179.4 485 219 485 C268 485 301 438.75 301 371.75 L301 372.5 Z " />
<glyph glyph-name="Eogonek" unicode="&#x118;" horiz-adv-x="536" d="M356 272 L356 438 C356 441.312 353.312 444 350 444 L349.852 444 C346.817 444 343.037 441.353 342 438.5 L340 433 C328 395 287 369 236 369 L211.5 369 C197.977 369 187 379.977 187 393.5 L187 618 C187 639.527 204.473 657 226 657 L265 657 C325 657 378 617 398 557 L407.351 527.247 C408.219 524.484 411.604 522 414.5 522 C417.536 522 420 524.464 420 527.5 L420 616.632 C420 648.849 393.849 675 361.632 675 L47.5 675 C43.3602 675 40 671.64 40 667.5 L40 665.5 C40 662.464 42.4642 660 45.5 660 L51 660 C89 660 115 634 115 595 L115 80 C115 41 89 15 51 15 L45.5 15 C42.4642 15 40 12.5358 40 9.5 L40 7.5 C40 3.36022 43.3602 0 47.5 0 L364.585 0 C372.905 0 376.979 -11.2815 370.332 -16.2855 C324.02 -51.1525 272 -107.55 272 -156 C272 -203 317 -234 384 -234 C414.4 -234 444.8 -222.268 462.339 -203.947 C463.767 -202.455 464.145 -199.718 463 -198 C462.029 -196.543 460.141 -196.056 458.88 -197.272 C447.762 -207.999 424.194 -215 398 -215 C346 -215 312 -189 312 -149 C312 -87.25 382.846 -19.1825 418.224 -2.24163 C419.771 -1.50117 424.291 2.8481 424.75 4.5 L426 9 C433.795 50.8974 442.539 107.036 450.383 149.663 C450.922 152.594 448.48 153 445.5 153 C442.769 153 438.79 150.509 437.597 148.053 L423 118 C393 58 333 18 273 18 L230 18 C206.265 18 187 37.2653 187 61 L187 326.5 C187 340.023 197.977 351 211.5 351 L236 351 C287 351 328 322 340 279 L342.235 271.735 C343.166 268.709 346.835 266 350 266 C353.312 266 356 268.688 356 272 L356 272 Z " />
<glyph glyph-name="eogonek" unicode="&#x119;" horiz-adv-x="411" d="M301 372.5 L300.5 346.25 C300.224 331.763 311.766 320 326.255 320 L330.5 320 C349.089 320 361.314 333.394 359.377 351.882 C349.72 444.06 297.7 504 223 504 C119 504 50 396 50 233 C50 90 112 -6 205 -6 C213.462 -6 221.923 -5.28402 230.99 -4.4579 C232.508 -4.31962 233.614 -5.70229 232.382 -6.60006 C185.136 -41.0444 130 -100.3 130 -151 C130 -201 175 -235 242 -235 C272.4 -235 302.8 -223.267 320.339 -204.947 C321.767 -203.455 322.145 -200.718 321 -199 C320.029 -197.543 318.141 -197.056 316.88 -198.272 C305.762 -208.999 282.194 -216 256 -216 C204 -216 170 -187 170 -144 C170 -78 247 -6 280 6 C308.5 15.5 335.195 29.5125 355.798 46.3227 C357.956 48.0835 357.469 50.5306 355.5 52.5 C353.808 54.1916 350.007 54.2938 348.037 52.9361 C330.289 40.7006 295 33 258 33 C174 33 118 123 118 258 C118 276.741 118.726 294.756 120.177 311.427 C120.641 316.756 125.204 320 130.552 320 L287 320 C293.624 320 299 325.376 299 332 L299 344 L299.703 362.99 C299.707 363.1 298.402 362.439 298.368 362.334 C294.592 350.791 284.762 342.619 271 341 L170.769 334.228 C142.547 332.321 124.715 349.95 131.36 377.444 C147.648 444.843 178.4 485 218 485 C267 485 300.5 438.75 300.5 371.75 L301 372.5 Z " />
<glyph glyph-name="Ecaron" unicode="&#x11a;" horiz-adv-x="536" d="M359.887 941.85 C357.265 938.363 309.587 874.871 274.464 821.715 C268.109 812.097 256.937 813.705 250.764 823.441 C226.699 861.397 194.603 910.278 170.197 940.321 C168.688 942.179 166.447 941.891 164.5 940.5 C163.68 939.914 159.58 939.856 158.616 940.149 C149.14 943.037 243 749 243 749 C245 744 252 731 264 731 C273.533 731 280.813 740.764 283.887 747.274 C283.888 747.275 289.642 759.543 289.643 759.544 C348.938 881.913 367 938 367 938 C367 938 365.881 938.639 363.5 940 C361.582 941.096 361.215 943.615 359.887 941.85 L359.887 941.85 Z M356 273 L356 439 C356 442.312 353.312 445 350 445 L349.852 445 C346.817 445 343.037 442.353 342 439.5 L340 434 C328 396 287 370 236 370 L211.5 370 C197.977 370 187 380.977 187 394.5 L187 619 C187 640.527 204.473 658 226 658 L265 658 C325 658 378 618 398 558 L407.351 528.247 C408.219 525.484 411.604 523 414.5 523 C417.536 523 420 525.464 420 528.5 L420 617.632 C420 649.849 393.849 676 361.632 676 L47.5 676 C43.3602 676 40 672.64 40 668.5 L40 666.5 C40 663.464 42.4642 661 45.5 661 L51 661 C89 661 115 635 115 596 L115 81 C115 42 89 16 51 16 L45.5 16 C42.4642 16 40 13.5358 40 10.5 L40 8.5 C40 4.36022 43.3602 1 47.5 1 L420.472 1 C422.956 1 425.226 3.03133 425.5 5.5 L426 10 C433.795 51.8974 442.539 108.036 450.383 150.663 C450.922 153.594 448.48 154 445.5 154 C442.769 154 438.79 151.509 437.597 149.053 L423 119 C393 59 333 19 273 19 L230 19 C206.265 19 187 38.2653 187 62 L187 327.5 C187 341.023 197.977 352 211.5 352 L236 352 C287 352 328 323 340 280 L342.235 272.735 C343.166 269.709 346.835 267 350 267 C353.312 267 356 269.688 356 273 L356 273 Z " />
<glyph glyph-name="ecaron" unicode="&#x11b;" horiz-adv-x="411" d="M318.887 766.85 C316.265 763.363 268.587 699.871 233.464 646.715 C227.109 637.097 215.937 638.705 209.765 648.441 C185.699 686.397 153.603 735.278 129.197 765.321 C127.688 767.179 125.447 766.891 123.5 765.5 C122.68 764.914 118.58 764.856 117.616 765.149 C108.14 768.037 202 574 202 574 C204 569 211 556 223 556 C232.533 556 239.813 565.764 242.887 572.274 C242.888 572.275 248.642 584.543 248.643 584.544 C307.938 706.913 326 763 326 763 C326 763 324.881 763.639 322.5 765 C320.582 766.096 320.215 768.615 318.887 766.85 L318.887 766.85 Z M301 373.5 L300.5 347.25 C300.224 332.763 311.766 321 326.255 321 L330.5 321 C349.089 321 361.314 334.394 359.377 352.882 C349.72 445.06 297.7 505 223 505 C119 505 50 397 50 234 C50 91 112 -5 205 -5 C257.65 -5 317.905 15.9137 357.032 47.5458 C359.193 49.2927 358.465 51.5352 356.5 53.5 C354.808 55.1916 351.007 55.2938 349.037 53.9361 C331.289 41.7006 296 34 259 34 C175 34 119 124 119 259 C119 277.741 119.726 295.756 121.177 312.427 C121.641 317.756 126.204 321 131.552 321 L288 321 C294.624 321 300 326.376 300 333 L300 345 L300.703 363.99 C300.707 364.1 299.402 363.439 299.368 363.334 C295.592 351.791 285.762 343.619 272 342 L171.769 335.228 C143.547 333.321 125.715 350.95 132.36 378.444 C148.648 445.843 179.4 486 219 486 C268 486 301 439.75 301 372.75 L301 373.5 Z " />
<glyph glyph-name="Gcircumflex" unicode="&#x11c;" horiz-adv-x="728" d="M360.887 903.726 C357.813 910.236 350.533 920 341 920 C329 920 322 907 320 902 C320 902 226.14 707.962 235.616 710.851 C236.58 711.144 240.68 711.086 241.5 710.5 C243.447 709.109 245.688 708.821 247.197 710.679 C271.603 740.722 303.699 789.603 327.765 827.559 C333.937 837.295 345.109 838.903 351.464 829.285 C387.59 774.61 437 709 437 709 C437 709 438.519 710.085 440.5 711.5 C442.352 712.823 444.676 711.948 443.964 714.11 C443.022 716.969 423.425 775.725 362 901.5 C361.999 901.502 360.888 903.724 360.887 903.726 L360.887 903.726 Z M553 486 L553 615.528 C553 616.632 551.494 616.987 551 616 L549 612 C549 614 552 617 553 620 C490 657 405 681 341 681 C171 681 57 544 57 339 C57 133 171 -4 341 -4 C397.95 -4 469.35 13.34 528.178 41.2646 C544.803 49.1557 558 72.0083 558 90.4102 L558 238 C558 277 584 303 622 303 L627.5 303 C630.536 303 633 305.464 633 308.5 L633 310.5 C633 314.64 629.64 318 625.5 318 L425.5 318 C421.36 318 418 314.64 418 310.5 L418 308.5 C418 305.464 420.464 303 423.5 303 L429 303 C467 303 493 277 493 238 L493 74.3907 C493 59.2091 480.254 41.9602 465.846 37.1753 C422.706 22.8481 377.95 14 340 14 C218 14 136 144 136 339 C136 533 218 663 340 663 C342 663 368 662 368 661 C436 654 499 596 526 517 C529.529 507.294 533.837 493.696 537.55 483.074 C538.57 480.157 541.762 479 544.852 479 L546 479 C549.864 479 553 482.136 553 486 L553 486 Z " />
<glyph glyph-name="Gbreve" unicode="&#x11e;" horiz-adv-x="728" d="M264.155 881.092 C279.551 817.827 309.8 776 341 776 C372.2 776 402.449 817.827 417.845 881.092 C418.6 884.195 416.581 886.66 413.5 887.5 C410.596 888.292 407.207 885.702 406.381 882.807 C395.387 844.27 370.45 819 341 819 C311.55 819 286.613 844.27 275.619 882.807 C274.793 885.702 271.404 888.292 268.5 887.5 C265.419 886.66 263.4 884.195 264.155 881.092 L264.155 881.092 Z M553 485 L553 614.528 C553 615.632 551.494 615.987 551 615 L549 611 C549 613 552 616 553 619 C490 656 405 680 341 680 C171 680 57 543 57 338 C57 132 171 -5 341 -5 C397.95 -5 469.35 12.34 528.178 40.2646 C544.803 48.1557 558 71.0083 558 89.4102 L558 237 C558 276 584 302 622 302 L627.5 302 C630.536 302 633 304.464 633 307.5 L633 309.5 C633 313.64 629.64 317 625.5 317 L425.5 317 C421.36 317 418 313.64 418 309.5 L418 307.5 C418 304.464 420.464 302 423.5 302 L429 302 C467 302 493 276 493 237 L493 73.3907 C493 58.2091 480.254 40.9602 465.846 36.1753 C422.706 21.8481 377.95 13 340 13 C218 13 136 143 136 338 C136 532 218 662 340 662 C342 662 368 661 368 660 C436 653 499 595 526 516 C529.529 506.294 533.837 492.696 537.55 482.074 C538.57 479.157 541.762 478 544.852 478 L546 478 C549.864 478 553 481.136 553 485 L553 485 Z " />
<glyph glyph-name="gbreve" unicode="&#x11f;" horiz-adv-x="388" d="M124.155 706.092 C139.551 642.827 169.8 601 201 601 C232.2 601 262.449 642.827 277.845 706.092 C278.6 709.195 276.581 711.66 273.5 712.5 C270.596 713.292 267.207 710.702 266.381 707.807 C255.387 669.27 230.45 644 201 644 C171.55 644 146.612 669.27 135.619 707.807 C134.793 710.702 131.404 713.292 128.5 712.5 C125.419 711.66 123.4 709.195 124.155 706.092 L124.155 706.092 Z M371.037 498.779 L273.036 491.723 C271.036 491.579 254.941 494.695 253.076 495.433 C237.436 501.626 219.893 505 201 505 C120 505 66 443 66 349 C66 289.6 87.78 243.132 124.04 216.895 C129.177 213.179 129.182 199.641 123.092 197.876 C77.1775 184.562 49 151.2 49 107 C49 67.4 70.78 37.3287 107.04 22.4014 C114.364 19.3865 115.403 5.78022 108.74 1.49805 C65.9992 -25.9727 36.5959 -60.8678 27.7709 -94.4226 C24.0419 -108.601 32.576 -113.623 47 -111 C56.2857 -109.312 69.3202 -94.4199 71.106 -85.1525 C78.498 -46.7925 104.834 -11.6325 141.922 10.0875 C144.526 11.6125 154.987 13.6674 158 13.5 L163.521 13.1933 C163.751 13.1805 166.871 12.9917 167.101 13.0065 C169.163 13.1386 202.149 15.2629 201.953 15.8505 C201.953 15.8505 203.421 17.8856 203.421 17.8856 L203.11 13.8976 C203.11 13.8976 204.578 15.9328 204.578 15.9328 C276.469 14.1881 324 -21.375 324 -75 C324 -161 256 -219 155 -219 C110.375 -219 78.7656 -184.547 71.5605 -131.049 C70.1263 -120.4 58.6118 -108.812 48 -110.5 C34.0583 -112.718 25.5079 -121.47 27.445 -135.454 C36.04 -197.5 82.3 -238 148 -238 C281 -238 370 -160 370 -43 C370 29 308 77 216 77 L164 74 C123 74 95 98 95 134 C95 171 125 195 171 195 L203 195 C285 195 339 257 339 351 C339 391.425 328.791 425.724 310.618 451.652 C306.681 457.268 309.882 466.869 316.741 466.794 L371.994 466.187 C381.373 466.084 388.776 473.624 388.5 483 C388.224 492.375 380.391 499.452 371.037 498.779 L371.037 498.779 Z M202 209 C158 209 128 266 128 351 C128 436 158 493 202 493 C247 493 277 436 277 351 C277 266 247 209 202 209 L202 209 Z " />
<glyph glyph-name="Gdot" unicode="&#x120;" horiz-adv-x="728" d="M381 785 C381 836 301 836 301 785 C301 733 381 733 381 785 L381 785 Z M553 485 L553 614.528 C553 615.632 551.494 615.987 551 615 L549 611 C549 613 552 616 553 619 C490 656 405 680 341 680 C171 680 57 543 57 338 C57 132 171 -5 341 -5 C397.95 -5 469.35 12.34 528.178 40.2646 C544.803 48.1557 558 71.0083 558 89.4102 L558 237 C558 276 584 302 622 302 L627.5 302 C630.536 302 633 304.464 633 307.5 L633 309.5 C633 313.64 629.64 317 625.5 317 L425.5 317 C421.36 317 418 313.64 418 309.5 L418 307.5 C418 304.464 420.464 302 423.5 302 L429 302 C467 302 493 276 493 237 L493 73.3907 C493 58.2091 480.254 40.9602 465.846 36.1753 C422.706 21.8481 377.95 13 340 13 C218 13 136 143 136 338 C136 532 218 662 340 662 C342 662 368 661 368 660 C436 653 499 595 526 516 C529.529 506.294 533.837 492.696 537.55 482.074 C538.57 479.157 541.762 478 544.852 478 L546 478 C549.864 478 553 481.136 553 485 L553 485 Z " />
<glyph glyph-name="gdot" unicode="&#x121;" horiz-adv-x="388" d="M241 610 C241 661 161 661 161 610 C161 558 241 558 241 610 L241 610 Z M371.037 498.779 L273.036 491.723 C271.036 491.579 254.941 494.695 253.076 495.433 C237.436 501.626 219.893 505 201 505 C120 505 66 443 66 349 C66 289.6 87.78 243.132 124.04 216.895 C129.177 213.179 129.182 199.641 123.092 197.876 C77.1775 184.562 49 151.2 49 107 C49 67.4 70.78 37.3287 107.04 22.4014 C114.364 19.3865 115.403 5.78022 108.74 1.49805 C65.9992 -25.9727 36.5959 -60.8678 27.7709 -94.4226 C24.0419 -108.601 32.576 -113.623 47 -111 C56.2857 -109.312 69.3202 -94.4199 71.106 -85.1525 C78.498 -46.7925 104.834 -11.6325 141.922 10.0875 C144.526 11.6125 154.987 13.6674 158 13.5 L163.521 13.1933 C163.751 13.1805 166.871 12.9917 167.101 13.0065 C169.163 13.1386 202.149 15.2629 201.953 15.8505 C201.953 15.8505 203.421 17.8856 203.421 17.8856 L203.11 13.8976 C203.11 13.8976 204.578 15.9328 204.578 15.9328 C276.469 14.1881 324 -21.375 324 -75 C324 -161 256 -219 155 -219 C110.375 -219 78.7656 -184.547 71.5605 -131.049 C70.1263 -120.4 58.6118 -108.812 48 -110.5 C34.0583 -112.718 25.5079 -121.47 27.445 -135.454 C36.04 -197.5 82.3 -238 148 -238 C281 -238 370 -160 370 -43 C370 29 308 77 216 77 L164 74 C123 74 95 98 95 134 C95 171 125 195 171 195 L203 195 C285 195 339 257 339 351 C339 391.425 328.791 425.724 310.618 451.652 C306.681 457.268 309.882 466.869 316.741 466.794 L371.994 466.187 C381.373 466.084 388.776 473.624 388.5 483 C388.224 492.375 380.391 499.452 371.037 498.779 L371.037 498.779 Z M202 209 C158 209 128 266 128 351 C128 436 158 493 202 493 C247 493 277 436 277 351 C277 266 247 209 202 209 L202 209 Z " />
<glyph glyph-name="Hcircumflex" unicode="&#x124;" horiz-adv-x="692" d="M365.887 903.726 C362.813 910.236 355.533 920 346 920 C334 920 327 907 325 902 C325 902 231.14 707.962 240.616 710.851 C241.58 711.144 245.68 711.086 246.5 710.5 C248.447 709.109 250.688 708.821 252.197 710.679 C276.603 740.722 308.699 789.603 332.764 827.559 C338.937 837.295 350.109 838.903 356.464 829.285 C392.59 774.61 442 709 442 709 C442 709 443.519 710.085 445.5 711.5 C447.352 712.823 449.676 711.948 448.964 714.11 C448.022 716.969 428.425 775.725 367 901.5 C366.999 901.502 365.888 903.724 365.887 903.726 L365.887 903.726 Z M646.5 16 L641 16 C603 16 577 42 577 81 L577 596 C577 635 603 661 641 661 L646.5 661 C649.536 661 652 663.464 652 666.5 L652 668.5 C652 672.64 648.64 676 644.5 676 L437.5 676 C433.36 676 430 672.64 430 668.5 L430 666.5 C430 663.464 432.464 661 435.5 661 L441 661 C479 661 505 635 505 596 L505 423.368 C505 391.151 478.849 365 446.632 365 L245.368 365 C213.151 365 187 391.151 187 423.368 L187 596 C187 635 213 661 251 661 L256.5 661 C259.536 661 262 663.464 262 666.5 L262 668.5 C262 672.64 258.64 676 254.5 676 L47.5 676 C43.3602 676 40 672.64 40 668.5 L40 666.5 C40 663.464 42.4642 661 45.5 661 L51 661 C89 661 115 635 115 596 L115 81 C115 42 89 16 51 16 L45.5 16 C42.4642 16 40 13.5358 40 10.5 L40 8.5 C40 4.36022 43.3602 1 47.5 1 L254.5 1 C258.64 1 262 4.36022 262 8.5 L262 10.5 C262 13.5358 259.536 16 256.5 16 L251 16 C213 16 187 42 187 81 L187 288.632 C187 320.849 213.151 347 245.368 347 L446.632 347 C478.849 347 505 320.849 505 288.632 L505 81 C505 42 479 16 441 16 L435.5 16 C432.464 16 430 13.5358 430 10.5 L430 8.5 C430 4.36022 433.36 1 437.5 1 L644.5 1 C648.64 1 652 4.36022 652 8.5 L652 10.5 C652 13.5358 649.536 16 646.5 16 L646.5 16 Z " />
<glyph glyph-name="Itilde" unicode="&#x128;" horiz-adv-x="302" d="M67.0783 776.055 C67.9876 810.735 76.7568 834 90 834 C121 834 163 772 194 772 C224.225 772 244.944 810.976 245.961 870.39 C246.014 873.477 243.588 875 240.5 875 C237.563 875 234.999 871.884 234.903 868.948 C233.838 836.336 224.086 815 209 815 C178 815 136 877 104 877 C75.725 877 56.9563 836.123 56.0355 774.76 C55.9893 771.679 58.4186 770 61.5 770 C64.4563 770 67.0008 773.1 67.0783 776.055 L67.0783 776.055 Z M256.5 15 L251 15 C213 15 187 41 187 80 L187 595 C187 634 213 660 251 660 L256.5 660 C259.536 660 262 662.464 262 665.5 L262 667.5 C262 671.64 258.64 675 254.5 675 L47.5 675 C43.3602 675 40 671.64 40 667.5 L40 665.5 C40 662.464 42.4642 660 45.5 660 L51 660 C89 660 115 634 115 595 L115 80 C115 41 89 15 51 15 L45.5 15 C42.4642 15 40 12.5358 40 9.5 L40 7.5 C40 3.36022 43.3602 0 47.5 0 L254.5 0 C258.64 0 262 3.36022 262 7.5 L262 9.5 C262 12.5358 259.536 15 256.5 15 L256.5 15 Z " />
<glyph glyph-name="itilde" unicode="&#x129;" horiz-adv-x="305" d="M69.0783 601.055 C69.9876 635.735 78.7568 659 92 659 C123 659 165 597 196 597 C226.225 597 246.944 635.976 247.961 695.39 C248.014 698.477 245.588 700 242.5 700 C239.563 700 236.999 696.884 236.903 693.948 C235.838 661.336 226.086 640 211 640 C180 640 138 702 106 702 C77.725 702 58.9562 661.123 58.0355 599.76 C57.9893 596.679 60.4186 595 63.5 595 C66.4563 595 69.0008 598.1 69.0783 601.055 L69.0783 601.055 Z M254.5 15 L249 15 C211 15 185 41 185 80 L185 493.5 C185 497.088 182.088 500 178.5 500 C177.472 500 166.758 498.432 165.773 498.137 L49.3112 463.29 C47.0314 462.608 45 459.88 45 457.5 C45 455.056 47.023 452.632 49.4274 452.195 L56 451 C110 440 120 427 120 373 L120 80 C120 41 94 15 56 15 L50.5 15 C47.4642 15 45 12.5358 45 9.5 L45 7.5 C45 3.36022 48.3602 0 52.5 0 L252.5 0 C256.64 0 260 3.36022 260 7.5 L260 9.5 C260 12.5358 257.536 15 254.5 15 L254.5 15 Z " />
<glyph glyph-name="Imacron" unicode="&#x12a;" horiz-adv-x="302" d="M60 783 L242 783 C251.935 783 260 791.065 260 801 C260 810.935 251.935 819 242 819 L60 819 C50.0645 819 42 810.935 42 801 C42 791.065 50.0645 783 60 783 L60 783 Z M256.5 15 L251 15 C213 15 187 41 187 80 L187 595 C187 634 213 660 251 660 L256.5 660 C259.536 660 262 662.464 262 665.5 L262 667.5 C262 671.64 258.64 675 254.5 675 L47.5 675 C43.3602 675 40 671.64 40 667.5 L40 665.5 C40 662.464 42.4642 660 45.5 660 L51 660 C89 660 115 634 115 595 L115 80 C115 41 89 15 51 15 L45.5 15 C42.4642 15 40 12.5358 40 9.5 L40 7.5 C40 3.36022 43.3602 0 47.5 0 L254.5 0 C258.64 0 262 3.36022 262 7.5 L262 9.5 C262 12.5358 259.536 15 256.5 15 L256.5 15 Z " />
<glyph glyph-name="imacron" unicode="&#x12b;" horiz-adv-x="305" d="M62 608 L244 608 C253.935 608 262 616.065 262 626 C262 635.935 253.935 644 244 644 L62 644 C52.0645 644 44 635.935 44 626 C44 616.065 52.0645 608 62 608 L62 608 Z M254.5 15 L249 15 C211 15 185 41 185 80 L185 493.5 C185 497.088 182.088 500 178.5 500 C177.472 500 166.758 498.432 165.773 498.137 L49.3112 463.29 C47.0314 462.608 45 459.88 45 457.5 C45 455.056 47.023 452.632 49.4274 452.195 L56 451 C110 440 120 427 120 373 L120 80 C120 41 94 15 56 15 L50.5 15 C47.4642 15 45 12.5358 45 9.5 L45 7.5 C45 3.36022 48.3602 0 52.5 0 L252.5 0 C256.64 0 260 3.36022 260 7.5 L260 9.5 C260 12.5358 257.536 15 254.5 15 L254.5 15 Z " />
<glyph glyph-name="Ibreve" unicode="&#x12c;" horiz-adv-x="302" d="M74.1548 881.092 C89.5506 817.827 119.8 776 151 776 C182.2 776 212.449 817.827 227.845 881.092 C228.6 884.195 226.581 886.66 223.5 887.5 C220.596 888.292 217.207 885.702 216.381 882.807 C205.387 844.27 180.45 819 151 819 C121.55 819 96.6125 844.27 85.6186 882.807 C84.7927 885.702 81.4045 888.292 78.5 887.5 C75.4187 886.66 73.3996 884.195 74.1548 881.092 L74.1548 881.092 Z M256.5 15 L251 15 C213 15 187 41 187 80 L187 595 C187 634 213 660 251 660 L256.5 660 C259.536 660 262 662.464 262 665.5 L262 667.5 C262 671.64 258.64 675 254.5 675 L47.5 675 C43.3602 675 40 671.64 40 667.5 L40 665.5 C40 662.464 42.4642 660 45.5 660 L51 660 C89 660 115 634 115 595 L115 80 C115 41 89 15 51 15 L45.5 15 C42.4642 15 40 12.5358 40 9.5 L40 7.5 C40 3.36022 43.3602 0 47.5 0 L254.5 0 C258.64 0 262 3.36022 262 7.5 L262 9.5 C262 12.5358 259.536 15 256.5 15 L256.5 15 Z " />
<glyph glyph-name="ibreve" unicode="&#x12d;" horiz-adv-x="305" d="M76.1548 706.092 C91.5506 642.827 121.8 601 153 601 C184.2 601 214.449 642.827 229.845 706.092 C230.6 709.195 228.581 711.66 225.5 712.5 C222.596 713.292 219.207 710.702 218.381 707.807 C207.387 669.27 182.45 644 153 644 C123.55 644 98.6125 669.27 87.6186 707.807 C86.7927 710.702 83.4045 713.292 80.5 712.5 C77.4187 711.66 75.3996 709.195 76.1548 706.092 L76.1548 706.092 Z M254.5 15 L249 15 C211 15 185 41 185 80 L185 493.5 C185 497.088 182.088 500 178.5 500 C177.472 500 166.758 498.432 165.773 498.137 L49.3112 463.29 C47.0314 462.608 45 459.88 45 457.5 C45 455.056 47.023 452.632 49.4274 452.195 L56 451 C110 440 120 427 120 373 L120 80 C120 41 94 15 56 15 L50.5 15 C47.4642 15 45 12.5358 45 9.5 L45 7.5 C45 3.36022 48.3602 0 52.5 0 L252.5 0 C256.64 0 260 3.36022 260 7.5 L260 9.5 C260 12.5358 257.536 15 254.5 15 L254.5 15 Z " />
<glyph glyph-name="Idot" unicode="&#x130;" horiz-adv-x="302" d="M191 785 C191 836 111 836 111 785 C111 733 191 733 191 785 L191 785 Z M256.5 15 L251 15 C213 15 187 41 187 80 L187 595 C187 634 213 660 251 660 L256.5 660 C259.536 660 262 662.464 262 665.5 L262 667.5 C262 671.64 258.64 675 254.5 675 L47.5 675 C43.3602 675 40 671.64 40 667.5 L40 665.5 C40 662.464 42.4642 660 45.5 660 L51 660 C89 660 115 634 115 595 L115 80 C115 41 89 15 51 15 L45.5 15 C42.4642 15 40 12.5358 40 9.5 L40 7.5 C40 3.36022 43.3602 0 47.5 0 L254.5 0 C258.64 0 262 3.36022 262 7.5 L262 9.5 C262 12.5358 259.536 15 256.5 15 L256.5 15 Z " />
<glyph glyph-name="dotlessi" unicode="&#x131;" horiz-adv-x="305" d="M254.5 15 L249 15 C211 15 185 41 185 80 L185 493.5 C185 497.088 182.088 500 178.5 500 C177.472 500 166.758 498.432 165.773 498.137 L49.3112 463.29 C47.0314 462.608 45 459.88 45 457.5 C45 455.056 47.023 452.632 49.4274 452.195 L56 451 C110 440 120 427 120 373 L120 80 C120 41 94 15 56 15 L50.5 15 C47.4642 15 45 12.5358 45 9.5 L45 7.5 C45 3.36022 48.3602 0 52.5 0 L252.5 0 C256.64 0 260 3.36022 260 7.5 L260 9.5 C260 12.5358 257.536 15 254.5 15 L254.5 15 Z " />
<glyph glyph-name="Jcircumflex" unicode="&#x134;" horiz-adv-x="315" d="M182.936 903.726 C180.062 910.236 173.533 920 164 920 C152 920 145 907 143 902 C143 902 49.14 707.962 58.6162 710.851 C59.5548 711.137 63.2463 711.128 64 710.5 C65.6706 709.108 67.8264 708.992 69.1989 710.679 C93.6447 740.722 126.428 789.603 150.704 827.559 C156.896 837.241 168.149 838.842 174.492 829.257 C210.78 774.42 261 708 261 708 C261 708 262.421 709.184 264 710.5 C265.549 711.791 267.603 711.198 266.963 713.111 C265.998 715.994 245.925 775.225 184.5 901 C184.491 901.018 182.944 903.708 182.936 903.726 L182.936 903.726 Z M268.5 675 L60.5 675 C56.3602 675 53 671.64 53 667.5 L53 665.5 C53 662.464 55.4642 660 58.5 660 L64 660 C102 660 128 634 128 595 L128 205 C128 61 119 5 95 5 C82 5 69 23 62 50 C58 67 45 79 30 79 C8 79 -3 67 1 50 C10 14 40 -10 77 -10 C166 -10 200 67 200 265 C201 264 201 475 201 595 C201 634 227 660 265 660 L270.5 660 C273.536 660 276 662.464 276 665.5 L276 667.5 C276 671.64 272.64 675 268.5 675 L268.5 675 Z " />
<glyph glyph-name="Lacute" unicode="&#x139;" horiz-adv-x="536" d="M126.148 706.163 C129.969 710.37 206.775 795 237 834 C261 862 277 883 277 887 C277 895 251 913 240 913 C237.088 913 223.814 892.275 205.663 861.797 C205.579 861.656 201.731 856.007 201.633 855.875 C170.334 813.668 119 711 119 711 C119 711 120.239 710.115 122.5 708.5 C124.419 707.129 124.562 704.417 126.148 706.163 L126.148 706.163 Z M448.24 161.793 C442.033 164.653 434 168 434 168 C434 168 432.862 165.375 431.416 162.036 L408 108 C385 54 335 18 281 18 L234 18 C208.057 18 187 39.0574 187 65 L187 595 C187 634 213 660 251 660 L256.5 660 C259.536 660 262 662.464 262 665.5 L262 667.5 C262 671.64 258.64 675 254.5 675 L47.5 675 C43.3602 675 40 671.64 40 667.5 L40 665.5 C40 662.464 42.4642 660 45.5 660 L51 660 C89 660 115 634 115 595 L115 80 C115 41 89 15 51 15 L45.5 15 C42.4642 15 40 12.5358 40 9.5 L40 7.5 C40 3.36022 43.3602 0 47.5 0 L398.974 0 C412.245 0 424.978 9.21696 427.497 22.2469 C435.728 64.8272 443.857 116.085 451.323 156.369 C451.66 158.188 449.921 161.018 448.24 161.793 L448.24 161.793 Z " />
<glyph glyph-name="Lcaron" unicode="&#x13d;" horiz-adv-x="536" d="M355 708 C342 708 332 646 327 601 L309.469 442.246 C309.218 439.975 310.86 437.302 313 436.5 C315.207 435.672 317.613 436.815 318.367 439.047 L368 586 C385 634 396 685 396 693 C396 704 367 708 355 708 L355 708 Z M448.24 161.793 C442.033 164.653 434 168 434 168 C434 168 432.862 165.375 431.416 162.036 L408 108 C385 54 335 18 281 18 L234 18 C208.057 18 187 39.0574 187 65 L187 595 C187 634 213 660 251 660 L256.5 660 C259.536 660 262 662.464 262 665.5 L262 667.5 C262 671.64 258.64 675 254.5 675 L47.5 675 C43.3602 675 40 671.64 40 667.5 L40 665.5 C40 662.464 42.4642 660 45.5 660 L51 660 C89 660 115 634 115 595 L115 80 C115 41 89 15 51 15 L45.5 15 C42.4642 15 40 12.5358 40 9.5 L40 7.5 C40 3.36022 43.3602 0 47.5 0 L398.974 0 C412.245 0 424.978 9.21696 427.497 22.2469 C435.728 64.8272 443.857 116.085 451.323 156.369 C451.66 158.188 449.921 161.018 448.24 161.793 L448.24 161.793 Z " />
<glyph glyph-name="lcaron" unicode="&#x13e;" horiz-adv-x="305" d="M279 723 C266 723 256 661 251 616 L233.469 457.246 C233.218 454.975 234.86 452.302 237 451.5 C239.207 450.672 241.613 451.815 242.367 454.047 L292 601 C309 649 320 700 320 708 C320 719 291 723 279 723 L279 723 Z M254.5 15 L249 15 C211 15 185 41 185 80 L185 713.5 C185 717.088 182.088 720 178.5 720 C177.472 720 166.758 718.432 165.773 718.137 L49.3112 683.29 C47.0314 682.608 45 679.88 45 677.5 C45 675.056 47.023 672.632 49.4274 672.195 L56 671 C110 660 120 647 120 593 L120 80 C120 41 94 15 56 15 L50.5 15 C47.4642 15 45 12.5358 45 9.5 L45 7.5 C45 3.36022 48.3602 0 52.5 0 L252.5 0 C256.64 0 260 3.36022 260 7.5 L260 9.5 C260 12.5358 257.536 15 254.5 15 L254.5 15 Z " />
<glyph glyph-name="Lslash" unicode="&#x141;" horiz-adv-x="536" d="M47.5 0 L398.974 0 C412.245 0 424.978 9.21696 427.497 22.2469 C435.728 64.8272 443.857 116.085 451.323 156.369 C451.66 158.188 449.921 161.018 448.24 161.793 C442.033 164.653 434 168 434 168 C434 168 432.862 165.375 431.416 162.036 L408 108 C385 54 335 18 281 18 L234 18 C208.057 18 187 39.0574 187 65 L187 289.294 C187 308.975 204.526 335.403 222.656 343.061 L293.328 372.914 C298.246 374.992 303 382.161 303 387.5 C303 392.839 298.246 395.992 293.328 393.914 L245 373.5 C215.509 361.043 187 379.948 187 411.962 L187 595 C187 634 213 660 251 660 L256.5 660 C259.536 660 262 662.464 262 665.5 L262 667.5 C262 671.64 258.64 675 254.5 675 L47.5 675 C43.3602 675 40 671.64 40 667.5 L40 665.5 C40 662.464 42.4642 660 45.5 660 L51 660 C89 660 115 634 115 595 L115 346.577 C115 332.502 102.515 313.859 89.5 308.5 L73.7091 301.998 C68.7536 299.957 64 292.859 64 287.5 C64 282.141 68.7536 278.957 73.7091 280.998 L89.5 287.5 C102.515 292.859 115 284.498 115 270.423 L115 80 C115 41 89 15 51 15 L45.5 15 C42.4642 15 40 12.5358 40 9.5 L40 7.5 C40 3.36022 43.3602 0 47.5 0 L47.5 0 Z " />
<glyph glyph-name="lslash" unicode="&#x142;" horiz-adv-x="305" d="M52.5 0 L252.5 0 C256.64 0 260 3.36022 260 7.5 L260 9.5 C260 12.5358 257.536 15 254.5 15 L249 15 C211 15 185 41 185 80 L185 320.74 C185 341.513 203.216 367.922 222.635 375.301 L274.717 395.093 C280.023 397.109 285 404.324 285 410 C285 415.676 280.023 419.109 274.717 417.093 L235 402 C209.201 392.197 185 408.89 185 436.488 L185 713.5 C185 717.088 182.088 720 178.5 720 C177.472 720 166.758 718.432 165.773 718.137 L49.3112 683.29 C47.0314 682.608 45 679.88 45 677.5 C45 675.056 47.023 672.632 49.4274 672.195 L56 671 C110 660 120 647 120 593 L120 399.26 C120 378.487 101.784 352.078 82.3654 344.699 L30.2826 324.907 C24.9771 322.891 20 315.676 20 310 C20 304.324 24.9771 300.891 30.2826 302.907 L70 318 C95.7986 327.803 120 311.11 120 283.512 L120 80 C120 41 94 15 56 15 L50.5 15 C47.4642 15 45 12.5358 45 9.5 L45 7.5 C45 3.36022 48.3602 0 52.5 0 L52.5 0 Z " />
<glyph glyph-name="Nacute" unicode="&#x143;" horiz-adv-x="625" d="M282.15 706.163 C286.019 710.37 363.775 795 394 834 C418 862 434 882 434 887 C434 895 408 913 397 913 C394.088 913 380.814 892.275 362.663 861.797 C362.578 861.654 358.73 856.009 358.631 855.875 C327.284 813.668 275 711 275 711 C275 711 276.256 710.103 278.5 708.5 C280.418 707.13 280.554 704.428 282.15 706.163 L282.15 706.163 Z M47.5 660 L53 660 C91 660 117 634 117 595 L117 80 C117 41 91 15 53 15 L47.5 15 C44.4642 15 42 12.5358 42 9.5 L42 7.5 C42 3.36022 45.3602 0 49.5 0 L205.5 0 C209.64 0 213 3.36022 213 7.5 L213 9.5 C213 12.5358 210.536 15 207.5 15 L202 15 C164 15 138 41 138 80 L138 487.28 C138 518.755 182.577 524.332 197.774 496.769 C288.768 331.738 379.457 166.291 471.379 1.45184 C474.902 -4.86712 487.765 -14 495 -14 C503.28 -14 510 -7.27955 510 1 L510 595 C510 634 536 660 574 660 L579.5 660 C582.536 660 585 662.464 585 665.5 L585 667.5 C585 671.64 581.64 675 577.5 675 L421.5 675 C417.36 675 414 671.64 414 667.5 L414 665.5 C414 662.464 416.464 660 419.5 660 L425 660 C463 660 489 634 489 595 L489 339.662 C489 279.169 408.399 258.595 379.405 311.687 L197.598 644.607 C189.557 659.331 163.146 675 146.37 675 L49.5 675 C45.3602 675 42 671.64 42 667.5 L42 665.5 C42 662.464 44.4642 660 47.5 660 L47.5 660 Z " />
</font>
</svg>
