<?xml version="1.0" encoding="UTF-8"?>
<svg xmlns="http://www.w3.org/2000/svg" xmlns:xlink="http://www.w3.org/1999/xlink" version="1.2" >
<font id="glamour luxury Thin">
<font-face  font-family="glamour luxury" units-per-em="1024" ascent="936" descent="-280" font-style="normal" font-weight="100" font-stretch="normal" cap-height="958" x-height="468" underline-position="-125" underline-thickness="50" />
<missing-glyph  horiz-adv-x="100" d="" />
<glyph glyph-name="NULL" d="" />
<glyph glyph-name="CR" unicode="&#xd;" horiz-adv-x="256" d="" />
<glyph glyph-name="space" unicode="&#x20;" horiz-adv-x="229" d="" />
<glyph glyph-name="exclam" unicode="&#x21;" horiz-adv-x="153" d="M94 15 C94 41 54 41 54 15 C54 -11 94 -11 94 15 L94 15 Z M93 635 C94 662 86 680 73 680 C60 680 52 662 53 635 C53 478 73 110 73 110 L76 110 C76 110 93 478 93 635 L93 635 Z " />
<glyph glyph-name="quotedbl" unicode="&#x22;" horiz-adv-x="212" d="M121 675 L143 504 L150 504 L172 675 L121 675 L121 675 Z M40 675 L62 504 L69 504 L91 675 L40 675 L40 675 Z " />
<glyph glyph-name="numbersign" unicode="&#x23;" horiz-adv-x="420" d="M318 692 L287 468 L181 468 L212 692 L204 692 L173 468 L61 468 L59 452 L171 452 L138 208 L23 208 L21 192 L135 192 L109 0 L117 0 L143 192 L249 192 L223 0 L230 0 L256 192 L355 192 L357 208 L259 208 L292 452 L398 452 L400 468 L294 468 L325 692 L318 692 L318 692 Z M179 452 L285 452 L252 208 L146 208 L179 452 L179 452 Z " />
<glyph glyph-name="dollar" unicode="&#x24;" horiz-adv-x="419" d="M44 180 L44 48 L46 52 C46 51 45 49 44 48 C74 31 110 17 146 8 L146 -74 L160 -74 L160 5 C183 0 206 -3 227 -4 L227 -74 L241 -74 L241 -4 C322 0 375 66 375 163 C375 226 322 293 241 335 L241 663 C268 648 291 621 301 589 C310 561 323 523 332 495 L345 495 L345 627 C310 648 273 664 242 673 L242 751 L228 751 L228 677 C204 682 184 682 162 676 L162 750 L148 750 L148 671 C93 649 59 587 59 503 C59 452 93 400 148 361 L148 32 C115 57 88 95 72 141 C68 153 63 169 59 181 L44 180 L44 180 Z M162 23 L162 352 C182 339 206 329 228 318 L228 2 C203 3 182 10 161 22 L162 23 L162 23 Z M227 670 L227 343 C203 354 180 365 160 379 L160 671 C181 678 206 678 226 671 L227 670 L227 670 Z M146 390 C101 426 73 470 73 512 C73 587 101 643 146 665 L146 390 L146 390 Z M240 310 C312 268 358 209 358 153 C358 65 311 5 240 1 L240 310 L240 310 Z " />
<glyph glyph-name="percent" unicode="&#x25;" horiz-adv-x="711" d="M50 538 C50 647 90 719 151 719 C215 719 258 643 258 530 C258 423 217 352 156 352 C92 352 50 426 50 538 L50 538 Z M30 534 C30 421 80 345 154 345 C228 345 277 422 277 537 C277 650 228 725 154 725 C80 725 30 649 30 534 L30 534 Z M472 187 C472 296 512 369 571 369 C637 369 681 293 681 179 C681 73 639 2 576 2 C514 2 472 76 472 187 L472 187 Z M452 183 C452 70 501 -5 574 -5 C649 -5 699 71 699 186 C699 299 649 375 574 375 C501 375 452 298 452 183 L452 183 Z M158 -3 L583 717 L574 723 L149 3 L158 -3 L158 -3 Z " />
<glyph glyph-name="ampersand" unicode="&#x26;" horiz-adv-x="655" d="M585 307 L431 307 L431 292 L442 292 C480 292 506 266 506 227 L506 196 C506 154 493 117 469 87 C437 117 400 157 356 209 C315 257 279 312 251 364 C254 365 257 366 260 367 L258 370 C255 369 252 368 249 367 C212 436 189 498 189 527 C189 616 229 675 289 675 C350 675 391 627 391 554 C391 459 337 386 256 372 L258 369 C347 385 406 459 406 555 C406 629 360 679 290 679 C220 679 173 615 173 518 C173 489 195 429 231 362 C121 321 49 243 49 162 C49 62 127 -5 243 -5 C338 -5 414 23 460 71 C545 -4 599 -10 654 0 L654 3 C607 -6 559 2 472 84 C496 115 509 153 509 196 L509 227 C509 266 535 292 573 292 L584 292 L585 307 L585 307 Z M456 75 C412 30 341 4 253 4 C141 4 67 70 67 170 C67 247 132 320 231 358 C260 304 298 246 341 196 C385 143 423 103 456 73 L456 75 L456 75 Z " />
<glyph glyph-name="quotesingle" unicode="&#x27;" horiz-adv-x="131" d="M40 675 L62 504 L69 504 L91 675 L40 675 L40 675 Z " />
<glyph glyph-name="parenleft" unicode="&#x28;" horiz-adv-x="136" d="M123 705 C85 660 60 552 60 278 C60 3 85 -105 123 -150 L126 -148 C95 -112 75 -7 75 278 C75 562 95 667 126 703 L123 705 L123 705 Z " />
<glyph glyph-name="parenright" unicode="&#x29;" horiz-adv-x="136" d="M10 -150 C48 -105 73 3 73 277 C73 552 48 660 10 705 L7 703 C38 667 58 562 58 277 C58 -7 38 -112 7 -148 L10 -150 L10 -150 Z " />
<glyph glyph-name="asterisk" unicode="&#x2a;" horiz-adv-x="246" d="M257 613 C266 617 261 626 252 621 L258 611 L257 613 L257 613 Z M50 492 L50 490 C83 511 116 533 149 553 L144 434 C144 423 156 423 156 434 L151 552 L250 489 L251 491 C251 491 255 498 256 499 L151 554 L256 610 L250 620 L151 557 L156 674 C156 685 144 685 144 674 L149 556 L149 556 L49 619 C40 626 34 616 43 612 L43 610 L146 556 L43 502 C34 497 41 487 49 493 L50 492 L50 492 Z M251 492 L251 492 L251 492 L251 492 Z M251 492 C261 485 265 495 258 501 L251 492 L251 492 Z " />
<glyph glyph-name="plus" unicode="&#x2b;" horiz-adv-x="474" d="M230 410 L230 254 L75 254 L75 246 L230 246 L230 91 L239 91 L239 246 L394 246 L394 254 L239 254 L239 410 L230 410 L230 410 Z " />
<glyph glyph-name="comma" unicode="&#x2c;" horiz-adv-x="151" d="M79 33 C68 33 60 25 60 14 C60 3 75 -12 84 -1 C90 -27 81 -56 67 -64 L67 -68 C87 -58 101 -33 101 -6 C101 14 98 33 79 33 L79 33 Z " />
<glyph glyph-name="hyphen" unicode="&#x2d;" horiz-adv-x="174" d="M20 227 L154 227 L154 243 L20 243 L20 227 L20 227 Z " />
<glyph glyph-name="period" unicode="&#x2e;" horiz-adv-x="205" d="M145 15 C145 41 105 41 105 15 C105 -11 145 -11 145 15 L145 15 Z " />
<glyph glyph-name="slash" unicode="&#x2f;" horiz-adv-x="319" d="M0 -145 L9 -145 L319 725 L310 725 L0 -145 L0 -145 Z " />
<glyph glyph-name="zero" unicode="0" horiz-adv-x="509" d="M72 250 C72 401 145 501 255 501 C364 501 437 401 437 250 C437 99 364 -1 255 -1 C145 -1 72 99 72 250 L72 250 Z M50 250 C50 97 132 -5 255 -5 C377 -5 459 97 459 250 C459 403 377 505 255 505 C132 505 50 403 50 250 L50 250 Z " />
<glyph glyph-name="one" unicode="1" horiz-adv-x="280" d="M225 15 L214 15 C176 15 150 41 150 80 L150 420 C150 459 176 485 214 485 L225 485 L225 500 L55 500 L55 485 L66 485 C104 485 130 459 130 420 L130 80 C130 41 104 15 66 15 L55 15 L55 0 L225 0 L225 15 L225 15 Z " />
<glyph glyph-name="two" unicode="2" horiz-adv-x="398" d="M366 20 C366 20 372 90 372 95 L357 95 L356 84 C352 46 324 20 285 20 L52 20 C222 146 334 205 334 348 C334 443 287 506 216 506 C165 506 108 447 72 358 L75 357 C107 437 160 491 206 491 C270 491 312 431 312 341 C312 191 206 140 46 22 L44 22 C38 16 32 11 25 6 L25 2 L364 2 L366 20 L366 20 Z " />
<glyph glyph-name="three" unicode="3" horiz-adv-x="368" d="M109 204 C222 204 297 138 297 39 C297 -100 189 -200 26 -212 L26 -215 C201 -202 318 -100 318 40 C318 156 206 230 64 204 C186 249 265 317 265 380 C265 454 225 504 166 504 C107 504 45 452 11 374 L14 373 C45 443 102 489 156 489 C209 489 245 443 245 374 C245 308 163 239 39 198 C34 197 29 196 25 194 L25 191 C48 198 78 203 109 203 L109 204 L109 204 Z " />
<glyph glyph-name="four" unicode="4" horiz-adv-x="365" d="M290 499 L287 505 C287 505 270 474 270 460 L270 416 C204 283 57 49 32 9 L31 9 L31 8 C28 3 28 5 28 0 L270 0 L270 -150 L290 -150 L290 0 L355 0 L355 9 L290 9 L290 447 C304 479 315 512 289 498 L290 499 L290 499 Z M289 459 L289 504 L286 504 C312 519 297 479 289 460 L289 459 L289 459 Z M37 9 C67 56 204 276 269 406 L269 10 L37 9 L37 9 Z " />
<glyph glyph-name="five" unicode="5" horiz-adv-x="352" d="M324 575 L309 575 L305 564 C292 526 258 500 219 500 L82 500 C82 423 70 243 70 243 L111 243 C214 243 282 169 282 58 C282 -76 182 -171 31 -179 L31 -182 C194 -173 302 -74 302 64 C302 183 230 263 121 263 L76 263 C79 307 86 413 87 479 L292 479 C303 511 314 545 323 575 L324 575 L324 575 Z " />
<glyph glyph-name="six" unicode="6" horiz-adv-x="490" d="M435 715 C222 708 80 542 80 301 C80 117 151 -5 257 -5 C374 -5 447 83 440 215 C440 341 377 425 283 425 C131 425 74 350 140 238 L144 238 C80 347 134 420 280 420 C363 420 419 338 419 214 C426 86 362 1 260 1 C165 1 102 114 102 283 C102 291 103 301 103 308 C103 543 236 705 435 712 L435 715 L435 715 Z " />
<glyph glyph-name="seven" unicode="7" horiz-adv-x="355" d="M28 480 C28 480 22 410 22 405 L37 405 L38 416 C42 454 70 480 109 480 L335 480 L103 -140 L125 -140 C198 73 273 285 344 499 L343 501 L29 501 L28 480 L28 480 Z " />
<glyph glyph-name="eight" unicode="8" horiz-adv-x="458" d="M257 351 C330 359 378 428 378 528 L362 524 C362 426 318 358 252 352 C247 353 242 354 237 354 C163 360 113 425 113 518 C113 613 162 677 235 677 C310 677 360 616 360 525 L377 529 C377 620 321 681 237 681 C152 681 96 613 96 510 C96 414 147 345 224 334 C130 326 69 262 69 169 C69 65 137 -4 238 -4 C339 -4 406 68 406 177 C406 269 346 337 255 352 L257 351 L257 351 Z M88 172 C88 263 142 325 225 334 C228 334 231 334 234 334 C326 327 388 262 388 171 C388 69 328 1 239 1 C148 1 88 70 88 173 L88 172 L88 172 Z " />
<glyph glyph-name="nine" unicode="9" horiz-adv-x="490" d="M55 -215 C268 -208 410 -42 410 199 C410 383 339 505 233 505 C116 505 43 417 50 285 C50 159 113 75 207 75 C359 75 416 150 350 262 L346 262 C410 153 356 80 210 80 C127 80 71 162 71 286 C64 414 128 499 230 499 C325 499 388 386 388 217 C388 209 387 199 387 192 C387 -43 254 -205 55 -212 L55 -215 L55 -215 Z " />
<glyph glyph-name="colon" unicode="&#x3a;" horiz-adv-x="205" d="M145 372 C145 398 105 398 105 372 C105 346 145 346 145 372 L145 372 Z M145 15 C145 41 105 41 105 15 C105 -11 145 -11 145 15 L145 15 Z " />
<glyph glyph-name="semicolon" unicode="&#x3b;" horiz-adv-x="151" d="M99 366 C99 392 59 392 59 366 C59 340 99 340 99 366 L99 366 Z M79 33 C68 33 60 25 60 14 C60 3 75 -12 84 -1 C90 -27 81 -56 67 -64 L67 -68 C87 -58 101 -33 101 -6 C101 14 98 33 79 33 L79 33 Z " />
<glyph glyph-name="less" unicode="&#x3c;" horiz-adv-x="451" d="M376 500 L42 281 C41 281 41 280 40 280 L40 270 L42 269 L376 50 L376 60 L47 275 L376 490 L376 500 L376 500 Z " />
<glyph glyph-name="equal" unicode="&#x3d;" horiz-adv-x="442" d="M73 204 L73 196 L372 196 L372 204 L73 204 L73 204 Z M73 304 L73 296 L372 296 L372 304 L73 304 L73 304 Z " />
<glyph glyph-name="greater" unicode="&#x3e;" horiz-adv-x="449" d="M75 50 C187 125 297 201 409 275 C406 275 402 281 399 281 L75 500 L75 490 L395 275 L75 60 L75 50 L75 50 Z " />
<glyph glyph-name="question" unicode="&#x3f;" horiz-adv-x="284" d="M138 15 C138 41 98 41 98 15 C98 -11 138 -11 138 15 L138 15 Z M105 680 C69 680 45 652 45 611 C45 609 50 608 57 608 C73 608 95 664 111 664 C191 664 245 587 245 471 C245 435 230 371 151 371 L116 371 C114 371 112 370 112 368 L116 106 L119 106 L123 356 L158 356 C234 356 249 428 249 469 C249 596 191 680 105 680 L105 680 Z " />
<glyph glyph-name="at" unicode="&#x40;" horiz-adv-x="1000" d="M924 0 C857 -145 687 -241 501 -241 C243 -241 71 -41 71 259 C71 559 243 759 500 759 C757 759 929 593 929 343 C929 138 853 2 740 2 C608 2 539 81 569 200 L639 480 L620 480 L593 370 C589 442 554 490 503 490 C366 490 275 374 275 201 C275 91 329 17 410 17 C462 17 513 71 543 156 C538 58 611 -5 736 -5 C861 -5 944 134 944 343 C944 596 766 764 499 764 C232 764 54 562 54 259 C54 -44 232 -246 500 -246 C689 -246 861 -148 930 0 L924 0 L924 0 Z M588 356 L549 200 C523 97 471 28 419 28 C345 28 295 99 295 205 C295 372 377 484 501 484 C553 484 588 432 588 356 L588 356 Z " />
<glyph glyph-name="A" unicode="A" horiz-adv-x="515" d="M320 0 L510 0 L510 15 C469 15 442 34 429 77 L261 691 L256 691 L250 668 L249 666 L249 665 L95 79 C84 41 52 16 15 16 L4 16 L4 1 L193 1 L193 16 L167 16 C119 16 96 48 108 96 L108 96 L146 245 L361 245 L406 75 C412 40 393 17 356 17 L319 17 L320 0 L320 0 Z M358 252 L146 252 L250 656 L358 252 L358 252 Z " />
<glyph glyph-name="B" unicode="B" horiz-adv-x="487" d="M263 363 C252 364 241 364 230 364 L157 363 L157 669 L248 669 C335 669 393 612 393 527 C393 439 342 376 263 363 L263 363 Z M257 359 C371 348 444 280 444 183 C444 77 372 6 265 6 L157 6 L157 357 L230 357 C239 357 248 357 257 358 L257 359 L257 359 Z M59 660 L70 660 C108 660 134 634 134 595 L134 80 C134 41 108 15 70 15 L59 15 L59 0 L268 0 C387 0 467 73 467 183 C467 280 392 348 276 362 C361 378 415 440 415 527 C415 616 348 675 248 675 L59 675 L59 660 L59 660 Z " />
<glyph glyph-name="C" unicode="C" horiz-adv-x="646" d="M586 59 L584 62 C585 62 586 59 586 58 L586 59 L586 59 Z M573 188 L560 149 C531 64 457 5 373 1 C204 -6 96 133 96 338 C96 540 202 674 362 674 C364 674 403 673 403 671 C471 663 534 605 560 527 C564 515 570 498 574 486 L587 486 L587 616 C520 654 430 680 362 680 C188 680 72 543 72 338 C72 132 188 -5 362 -5 C430 -5 520 21 587 59 L587 189 L573 188 L573 188 Z " />
<glyph glyph-name="D" unicode="D" horiz-adv-x="585" d="M59 660 L70 660 C108 660 134 634 134 595 L134 80 C134 41 108 15 70 15 L59 15 L59 0 L267 0 C428 0 535 135 535 338 C535 540 417 675 239 675 L59 675 L59 660 L59 660 Z M157 6 L157 669 L239 669 C403 669 513 537 513 338 C513 139 415 6 267 6 L157 6 L157 6 Z " />
<glyph glyph-name="E" unicode="E" horiz-adv-x="486" d="M306 272 L306 438 L294 438 L290 427 C278 389 237 363 186 363 L137 363 L137 669 L209 669 C269 669 322 629 342 569 L353 534 L364 534 L364 675 L40 675 L40 660 L51 660 C89 660 115 634 115 595 L115 80 C115 41 89 15 51 15 L40 15 L40 0 L372 0 L373 3 L372 3 C379 44 389 100 396 141 L385 141 L368 106 C338 46 278 6 218 6 L137 6 L137 357 L186 357 C237 357 278 328 290 285 L294 272 L306 272 L306 272 Z " />
<glyph glyph-name="F" unicode="F" horiz-adv-x="401" d="M40 660 L51 660 C89 660 115 634 115 595 L115 80 C115 41 89 15 51 15 L40 15 L40 0 L222 0 L222 15 L202 15 C163 15 137 41 137 80 L137 352 L176 352 C227 352 268 323 280 280 L284 267 L296 267 L296 433 L284 433 L280 422 C268 384 227 358 176 358 L137 358 L137 669 L239 669 C299 669 352 629 372 569 L383 534 L394 534 L394 675 L40 675 L40 660 L40 660 Z " />
<glyph glyph-name="G" unicode="G" horiz-adv-x="741" d="M566 486 L566 616 C499 654 413 680 350 680 C183 680 71 543 71 338 C71 132 183 -5 350 -5 C416 -5 504 21 571 59 L571 237 C571 276 597 302 635 302 L646 302 L646 317 L476 317 L476 302 L487 302 C525 302 551 276 551 237 L551 55 C488 22 410 1 350 1 C197 1 95 136 95 338 C95 540 197 674 350 674 C360 674 371 673 382 672 C450 664 512 606 539 527 C543 515 549 498 553 486 L566 486 L566 486 Z " />
<glyph glyph-name="H" unicode="H" horiz-adv-x="679" d="M639 15 L628 15 C590 15 564 41 564 80 L564 595 C564 634 590 660 628 660 L639 660 L639 675 L467 675 L467 660 L478 660 C516 660 542 634 542 595 L542 357 L137 357 L137 595 C137 634 163 660 201 660 L212 660 L212 675 L40 675 L40 660 L51 660 C89 660 115 634 115 595 L115 80 C115 41 89 15 51 15 L40 15 L40 0 L212 0 L212 15 L201 15 C163 15 137 41 137 80 L137 352 L542 352 L542 80 C542 41 516 15 478 15 L467 15 L467 0 L639 0 L639 15 L639 15 Z " />
<glyph glyph-name="I" unicode="I" horiz-adv-x="252" d="M212 15 L201 15 C163 15 137 41 137 80 L137 595 C137 634 163 660 201 660 L212 660 L212 675 L40 675 L40 660 L51 660 C89 660 115 634 115 595 L115 80 C115 41 89 15 51 15 L40 15 L40 0 L212 0 L212 15 L212 15 Z " />
<glyph glyph-name="J" unicode="J" horiz-adv-x="267" d="M227 675 L54 675 L54 660 L65 660 C103 660 129 634 129 595 L129 205 C129 53 110 -6 62 -6 C45 -6 27 16 19 50 C17 61 -2 62 0 50 C9 14 31 -10 56 -10 C124 -10 151 55 151 223 C152 222 152 465 152 595 C152 634 178 660 216 660 L227 660 L227 675 L227 675 Z " />
<glyph glyph-name="K" unicode="K" horiz-adv-x="543" d="M503 675 L360 675 L360 660 L369 660 C399 660 399 638 371 604 L172 381 L172 381 L157 364 L157 596 C157 635 183 661 221 661 L232 661 L232 676 L59 676 L59 661 L70 661 C108 661 134 635 134 596 L134 81 C134 42 108 16 70 16 L59 16 L59 1 L232 1 L232 16 L221 16 C183 16 157 42 157 81 L157 364 C157 364 216 296 305 194 C429 51 490 -4 521 -4 L533 -4 L533 0 L528 0 C510 0 452 59 320 211 C244 298 190 360 176 376 L374 599 C409 636 455 660 492 660 L504 660 L503 675 L503 675 Z " />
<glyph glyph-name="L" unicode="L" horiz-adv-x="486" d="M380 156 L354 96 C331 42 281 6 227 6 L137 6 L137 595 C137 634 163 660 201 660 L212 660 L212 675 L40 675 L40 660 L51 660 C89 660 115 634 115 595 L115 80 C115 41 89 15 51 15 L40 15 L40 0 L371 0 L372 3 C380 46 390 104 398 148 C392 151 380 156 380 156 L380 156 Z " />
<glyph glyph-name="M" unicode="M" horiz-adv-x="712" d="M41 0 L232 0 L232 15 L203 15 C155 15 124 47 126 95 L126 95 L146 644 C218 428 289 211 362 -5 L367 -5 L578 653 L602 72 C600 38 576 16 541 16 L530 16 L530 1 L701 1 L701 16 L690 16 C655 16 629 38 624 72 C617 246 608 421 601 595 C599 634 623 660 660 660 L671 660 L671 675 L577 675 L372 26 L158 675 L65 675 L65 660 L76 660 C114 660 138 634 137 595 L118 76 C115 39 89 15 52 15 L41 15 L41 0 L41 0 Z M372 25 L372 26 L372 25 L372 25 Z " />
<glyph glyph-name="N" unicode="N" horiz-adv-x="610" d="M45 660 L56 660 C94 660 120 634 120 595 L120 80 C120 41 94 15 56 15 L45 15 L45 0 L202 0 L202 15 L191 15 C153 15 127 41 127 80 L127 653 C247 434 368 216 486 -4 L495 -4 L495 595 C495 634 521 660 559 660 L570 660 L570 675 L414 675 L414 660 L425 660 C463 660 489 634 489 595 L489 34 L140 675 L45 675 L45 660 L45 660 Z M127 666 L127 666 L127 666 Z " />
<glyph glyph-name="O" unicode="O" horiz-adv-x="678" d="M95 338 C95 519 182 674 350 674 C517 674 603 519 603 338 C603 156 517 1 350 1 C182 1 95 156 95 338 L95 338 Z M71 338 C71 153 166 -5 350 -5 C533 -5 628 153 628 338 C628 523 533 680 350 680 C166 680 71 523 71 338 L71 338 Z " />
<glyph glyph-name="P" unicode="P" horiz-adv-x="470" d="M232 15 L221 15 C183 15 157 41 157 80 L157 306 L240 306 C366 306 450 379 450 488 C450 600 374 675 261 675 L59 675 L59 660 L70 660 C108 660 134 634 134 595 L134 80 C134 41 108 15 70 15 L59 15 L59 0 L232 0 L232 15 L232 15 Z M157 312 L157 669 L261 669 C361 669 427 597 427 488 C427 382 352 312 240 312 L157 312 L157 312 Z " />
<glyph glyph-name="Q" unicode="Q" horiz-adv-x="678" d="M682 -50 L680 -49 C650 -84 600 -108 554 -108 C484 -108 415 -67 352 -5 C534 -4 628 154 628 338 C628 523 533 680 350 680 C166 680 71 523 71 338 C71 155 164 -2 344 -5 C416 -76 488 -123 552 -123 C593 -123 645 -94 682 -50 L682 -50 Z M95 338 C95 519 182 674 350 674 C517 674 603 519 603 338 C603 156 517 1 350 1 C182 1 95 156 95 338 L95 338 Z " />
<glyph glyph-name="R" unicode="R" horiz-adv-x="511" d="M59 660 L70 660 C108 660 134 634 134 595 L134 80 C134 41 108 15 70 15 L59 15 L59 0 L232 0 L232 15 L221 15 C183 15 157 41 157 80 L157 326 L217 326 C233 305 298 222 390 106 C471 4 475 0 498 0 L510 0 L510 4 C494 4 497 5 420 102 C325 221 258 306 242 326 C346 331 415 399 415 499 C415 604 347 674 246 674 L57 674 L59 660 L59 660 Z M228 330 L155 331 L155 668 L246 668 C334 668 392 600 392 499 C392 398 326 330 228 330 L228 330 Z " />
<glyph glyph-name="S" unicode="S" horiz-adv-x="419" d="M344 495 L344 627 C289 659 229 680 194 680 C112 680 57 609 57 502 C57 436 115 367 201 329 C295 288 358 218 358 153 C358 62 308 1 233 1 C158 1 98 58 70 140 C66 152 61 168 57 180 L44 180 L44 48 L46 52 C46 51 45 49 44 48 C99 16 175 -5 233 -5 C318 -5 374 62 374 162 C374 231 311 305 217 346 C131 384 73 450 73 511 C73 615 128 691 215 673 C252 665 286 632 300 590 C309 562 322 524 331 496 L344 495 L344 495 Z " />
<glyph glyph-name="T" unicode="T" horiz-adv-x="539" d="M183 0 L356 0 L356 15 L345 15 C307 15 281 41 281 80 L281 669 L365 669 C413 669 459 637 478 589 L506 519 L518 519 C514 565 509 626 505 672 L504 672 L504 675 L35 675 L35 672 L34 672 C30 626 25 565 21 519 L33 519 L61 589 C80 637 126 669 174 669 L258 669 L258 80 C258 41 232 15 194 15 L183 15 L183 0 L183 0 Z " />
<glyph glyph-name="U" unicode="U" horiz-adv-x="611" d="M591 675 L410 675 L410 660 L425 660 C468 660 497 633 499 591 L498 178 C498 73 448 3 321 3 C194 3 145 83 145 202 L146 595 L146 595 C146 634 172 660 210 660 L221 660 L221 675 L48 675 L48 660 L59 660 C97 660 123 634 123 595 L123 207 C123 80 178 -5 318 -5 C453 -5 505 67 505 176 L505 585 C505 630 534 660 577 660 L590 660 L591 675 L591 675 Z " />
<glyph glyph-name="V" unicode="V" horiz-adv-x="568" d="M200 675 L20 675 L20 660 C57 660 83 642 98 601 L281 -15 L287 -15 L432 601 C443 636 474 659 510 659 L521 659 L521 674 L324 674 L324 659 L345 659 C402 659 431 621 418 564 L418 564 L290 17 L124 595 C114 633 132 658 171 658 L202 658 L200 675 L200 675 Z " />
<glyph glyph-name="W" unicode="W" horiz-adv-x="740" d="M169 675 L-2 675 L-2 660 C34 660 59 643 72 605 L216 -15 L221 -15 L350 645 L493 -15 L499 -15 L629 595 C637 634 669 660 707 660 L718 660 L718 675 L535 675 L535 660 L572 660 C610 660 630 635 623 597 L501 22 L358 685 L353 685 L223 20 L95 604 C91 638 112 660 148 660 L170 660 L169 675 L169 675 Z " />
<glyph glyph-name="X" unicode="X" horiz-adv-x="536" d="M524 675 L340 675 L340 660 L377 660 C415 660 428 636 411 599 L286 357 L159 603 C144 638 158 661 194 661 L221 661 L221 676 L49 676 L49 661 C85 661 115 639 137 596 L137 596 C182 509 228 422 272 335 L157 78 C139 40 103 15 66 15 L55 15 L55 0 L240 0 L240 15 L217 15 C170 15 152 45 170 91 L275 329 L408 72 C423 37 409 14 373 14 L346 14 L346 -1 L518 -1 L518 14 C482 14 452 36 430 79 L430 79 L289 351 L420 603 C441 637 477 659 513 659 L524 659 L524 675 L524 675 Z " />
<glyph glyph-name="Y" unicode="Y" horiz-adv-x="487" d="M195 675 L29 675 L29 660 C62 660 87 643 105 605 L243 255 L243 80 C243 41 217 15 179 15 L168 15 L168 0 L340 0 L340 15 L329 15 C291 15 265 41 265 80 L265 267 L402 604 C422 643 451 660 490 660 L490 675 L315 675 L315 660 L334 660 C381 660 402 631 388 586 L259 267 L258 267 L131 603 C121 638 138 661 174 661 L193 661 L195 675 L195 675 Z " />
<glyph glyph-name="Z" unicode="Z" horiz-adv-x="511" d="M451 156 L425 96 C402 42 352 6 298 6 L90 6 L448 675 L137 675 C125 638 114 587 104 549 L116 549 L143 589 C174 637 228 669 276 669 L421 669 L63 0 L443 0 L444 3 C452 46 462 104 470 148 C464 151 452 156 452 156 L451 156 L451 156 Z " />
<glyph glyph-name="bracketleft" unicode="&#x5b;" horiz-adv-x="214" d="M99 671 L204 671 L204 675 L83 675 L83 -120 L204 -120 L204 -116 L99 -116 L99 671 L99 671 Z " />
<glyph glyph-name="backslash" unicode="&#x5c;" horiz-adv-x="204" d="M197 -145 L204 -145 L-53 725 L-60 725 L197 -145 L197 -145 Z " />
<glyph glyph-name="bracketright" unicode="&#x5d;" horiz-adv-x="195" d="M110 671 L110 -116 L5 -116 L5 -120 L125 -120 L125 675 L5 675 L5 671 L110 671 L110 671 Z " />
<glyph glyph-name="asciicircum" unicode="&#x5e;" horiz-adv-x="238" d="M126 739 C123 746 117 746 113 739 C113 739 5 519 19 536 L21 534 C26 540 97 677 119 720 C169 618 217 534 217 534 L219 536 C219 536 190 607 126 739 L126 739 Z " />
<glyph glyph-name="underscore" unicode="&#x5f;" horiz-adv-x="272" d="M5 -50 L5 -61 L267 -61 L267 -50 L5 -50 L5 -50 Z " />
<glyph glyph-name="grave" unicode="&#x60;" horiz-adv-x="238" d="M38 721 C38 718 56 695 84 663 C116 623 194 532 194 532 L196 533 C196 533 126 630 94 671 C69 706 51 729 49 729 C46 729 38 723 38 721 L38 721 Z " />
<glyph glyph-name="a" unicode="a" horiz-adv-x="387" d="M365 34 C345 14 326 0 310 0 C280 0 272 22 272 54 L272 363 C272 448 240 505 192 505 C131 505 83 469 72 414 L92 414 C102 465 140 499 188 499 C226 499 251 446 251 367 L251 244 C230 241 184 233 153 225 C82 207 35 157 35 99 C35 36 67 -6 115 -6 C154 -6 207 28 251 80 L251 51 C251 14 261 -11 297 -11 C320 -11 343 5 368 30 L365 34 L365 34 Z M251 238 L251 84 C211 38 162 8 125 8 C83 8 55 47 55 105 C55 158 94 203 153 218 C189 227 232 235 252 238 L251 238 L251 238 Z " />
<glyph glyph-name="b" unicode="b" horiz-adv-x="518" d="M272 -5 C387 -5 463 95 463 246 C463 401 390 505 281 505 C250 505 191 484 132 453 L132 720 L128 720 L37 695 L37 686 L48 683 C102 672 112 659 112 605 L112 0 L114 0 C116 12 120 20 125 20 C168 20 215 -5 271 -5 L272 -5 L272 -5 Z M271 1 C187 1 131 46 131 113 L131 450 C183 478 237 496 265 496 C371 496 441 392 441 237 C441 95 373 1 271 1 L271 1 Z " />
<glyph glyph-name="c" unicode="c" horiz-adv-x="373" d="M320 24 L319 26 C305 15 259 7 202 7 C123 7 71 103 71 246 C71 398 135 499 232 499 C270 499 299 461 304 403 C306 391 323 389 323 402 C318 464 282 505 234 505 C124 505 50 398 50 238 C50 92 104 -5 185 -5 C245 -5 299 7 320 24 L320 24 Z " />
<glyph glyph-name="d" unicode="d" horiz-adv-x="507" d="M302 686 L313 683 C367 672 377 659 377 605 L377 422 C351 468 292 505 228 505 C124 505 55 394 55 228 C55 88 121 -5 220 -5 C276 -5 338 20 376 56 L376 0 L380 0 L471 25 L471 34 L460 37 C406 48 396 61 396 115 L396 720 L392 720 L301 695 L302 686 L302 686 Z M376 60 C344 29 286 7 231 7 C138 7 76 99 76 236 C76 394 136 500 227 500 C295 500 355 459 377 410 L376 60 L376 60 Z " />
<glyph glyph-name="e" unicode="e" horiz-adv-x="380" d="M327 24 L326 26 C312 15 264 7 205 7 C125 7 71 103 71 246 C71 277 73 305 77 331 L330 331 C330 435 281 505 208 505 C113 505 50 398 50 238 C50 92 106 -5 189 -5 C251 -5 306 7 327 24 L327 24 Z M311 347 C311 342 307 338 302 338 L78 335 C95 436 142 499 207 499 C269 499 311 438 311 347 L311 347 Z " />
<glyph glyph-name="f" unicode="f" horiz-adv-x="261" d="M202 15 L191 15 C153 15 127 41 127 80 L127 492 L207 492 L207 500 L127 500 L127 533 C127 643 177 716 199 716 C219 716 234 694 237 660 C237 649 256 648 256 660 C253 696 232 720 204 720 C146 720 108 647 108 537 C107 537 107 500 107 500 L45 500 L45 492 L107 492 L107 80 C107 41 81 15 43 15 L32 15 L32 0 L202 0 L202 15 L202 15 Z " />
<glyph glyph-name="g" unicode="g" horiz-adv-x="380" d="M380 500 L256 499 C243 503 229 505 214 505 C132 505 77 444 77 352 C77 272 119 215 184 202 C109 202 58 171 58 123 C58 75 94 42 150 37 C79 1 33 -53 33 -101 L46 -98 C46 -49 89 4 155 36 C158 36 161 36 164 36 C164 36 214 39 203 39 C289 39 346 -4 346 -69 C346 -167 267 -232 149 -232 C87 -232 45 -179 45 -99 L32 -101 C32 -183 78 -237 147 -237 C275 -237 360 -166 360 -59 C360 11 299 58 208 58 L163 55 C107 55 70 85 70 129 C70 170 114 198 181 198 L213 198 C296 198 351 259 351 351 C351 417 322 467 275 490 L380 488 L380 500 L380 500 Z M213 202 C142 202 95 262 95 351 C95 440 142 500 213 500 C228 500 242 497 255 492 L255 490 L259 490 C305 470 334 419 334 350 C334 261 286 201 215 201 L213 202 L213 202 Z " />
<glyph glyph-name="h" unicode="h" horiz-adv-x="532" d="M322 0 L492 0 L492 15 L481 15 C443 15 417 41 417 80 L417 336 C417 437 388 505 314 505 C286 505 217 477 140 437 L140 720 L136 720 L45 695 L45 686 L56 683 C110 672 120 659 120 605 L120 80 C120 41 94 15 56 15 L45 15 L45 0 L215 0 L215 15 L204 15 C166 15 140 41 140 80 L140 434 C206 468 269 492 298 492 C369 492 397 428 397 333 L397 80 C397 41 371 15 333 15 L322 15 L322 0 L322 0 Z " />
<glyph glyph-name="i" unicode="i" horiz-adv-x="260" d="M149 590 C149 616 109 616 109 590 C109 564 149 564 149 590 L149 590 Z M215 15 L204 15 C166 15 140 41 140 80 L140 500 L136 500 L45 475 L45 466 L56 463 C110 452 120 439 120 385 L120 80 C120 41 94 15 56 15 L45 15 L45 0 L215 0 L215 15 L215 15 Z " />
<glyph glyph-name="j" unicode="j" horiz-adv-x="204" d="M133 590 C133 616 93 616 93 590 C93 564 133 564 133 590 L133 590 Z M29 466 L40 463 C94 452 104 439 104 385 L104 12 C104 -154 88 -196 40 -226 L42 -229 C104 -191 124 -146 124 18 L124 500 L120 500 L29 475 L29 466 L29 466 Z " />
<glyph glyph-name="k" unicode="k" horiz-adv-x="443" d="M469 15 L458 15 C423 15 378 37 344 71 L148 287 C194 332 240 377 287 421 C327 460 379 486 417 486 L429 486 L429 501 L286 501 L286 486 L295 486 C323 486 321 465 290 432 C242 385 194 337 146 290 L132 276 L132 721 L128 721 L37 696 L37 687 L48 684 C102 673 112 660 112 606 L112 81 C112 42 86 16 48 16 L37 16 L37 1 L207 1 L207 16 L196 16 C158 16 132 42 132 81 L132 276 L134 273 L134 273 L313 77 C346 40 347 15 317 15 L308 15 L308 0 L469 0 L469 15 L469 15 Z " />
<glyph glyph-name="l" unicode="l" horiz-adv-x="260" d="M215 15 L204 15 C166 15 140 41 140 80 L140 720 L136 720 L45 695 L45 686 L56 683 C110 672 120 659 120 605 L120 80 C120 41 94 15 56 15 L45 15 L45 0 L215 0 L215 15 L215 15 Z " />
<glyph glyph-name="m" unicode="m" horiz-adv-x="829" d="M619 0 L789 0 L789 15 L778 15 C740 15 714 41 714 80 L714 336 C714 437 666 505 603 505 C581 505 507 472 413 422 C395 473 361 504 320 504 C286 504 217 476 140 436 L140 499 L136 499 L45 474 L45 465 L56 462 C110 451 120 438 120 384 L120 79 C120 40 94 14 56 14 L45 14 L45 -1 L215 -1 L215 14 L204 14 C166 14 140 40 140 79 L140 433 C207 468 269 492 304 492 C363 492 407 428 407 332 L407 79 C407 40 381 14 343 14 L332 14 L332 -1 L502 -1 L502 14 L491 14 C453 14 427 40 427 79 L427 335 C427 366 423 394 415 418 C497 462 564 491 588 491 C649 491 695 427 695 332 L695 79 C695 40 669 14 631 14 L620 14 L619 0 L619 0 Z " />
<glyph glyph-name="n" unicode="n" horiz-adv-x="524" d="M322 0 L492 0 L492 15 L481 15 C443 15 417 41 417 80 L417 336 C417 437 388 505 314 505 C286 505 217 477 140 437 L140 500 L136 500 L45 475 L45 466 L56 463 C110 452 120 439 120 385 L120 80 C120 41 94 15 56 15 L45 15 L45 0 L215 0 L215 15 L204 15 C166 15 140 41 140 80 L140 434 C206 468 269 492 298 492 C369 492 397 428 397 333 L397 80 C397 41 371 15 333 15 L322 15 L322 0 L322 0 Z " />
<glyph glyph-name="o" unicode="o" horiz-adv-x="475" d="M48 250 C48 401 119 501 226 501 C332 501 403 401 403 250 C403 99 332 -1 226 -1 C119 -1 48 99 48 250 L48 250 Z M26 250 C26 97 106 -5 226 -5 C345 -5 425 97 425 250 C425 403 345 505 226 505 C106 505 26 403 26 250 L26 250 Z " />
<glyph glyph-name="p" unicode="p" horiz-adv-x="504" d="M191 -215 L180 -215 C142 -215 116 -189 116 -150 L116 78 C141 27 195 -5 263 -5 C385 -5 466 98 466 252 C466 404 396 505 290 505 C230 505 160 471 116 419 L116 500 L112 500 L21 475 L21 466 L32 463 C86 452 96 439 96 385 L96 -150 C96 -189 70 -215 32 -215 L21 -215 L21 -230 L191 -230 L191 -215 L191 -215 Z M116 135 L116 416 C155 462 219 492 275 492 C378 492 446 390 446 236 C446 95 373 1 263 1 C182 1 123 55 116 135 L116 135 Z " />
<glyph glyph-name="q" unicode="q" horiz-adv-x="502" d="M273 502 C262 504 250 505 237 505 C250 505 262 504 273 502 L273 502 Z M473 -215 L462 -215 C424 -215 398 -189 398 -150 L398 500 L396 500 C394 488 388 480 381 480 C338 480 290 505 237 505 C129 505 57 394 57 228 C57 88 122 -5 219 -5 C273 -5 336 22 378 62 L378 -150 C378 -189 352 -215 314 -215 L303 -215 L303 -230 L473 -230 L473 -215 L473 -215 Z M378 65 C343 31 284 7 231 7 C140 7 79 99 79 236 C79 394 143 499 238 499 C323 499 379 454 379 387 L378 65 L378 65 Z " />
<glyph glyph-name="r" unicode="r" horiz-adv-x="307" d="M29 466 L40 463 C94 452 104 439 104 385 L104 80 C104 41 78 15 40 15 L29 15 L29 0 L199 0 L199 15 L188 15 C150 15 124 41 124 80 L124 418 C158 461 195 490 217 490 C238 490 266 460 287 460 C293 460 297 464 297 470 C297 491 279 505 233 505 C207 505 163 472 124 421 L124 499 L120 499 L29 474 L29 466 L29 466 Z " />
<glyph glyph-name="s" unicode="s" horiz-adv-x="342" d="M268 377 L268 459 C221 486 183 503 168 505 C109 503 71 459 71 385 C71 335 111 278 172 243 C233 208 274 158 274 120 C274 48 238 0 185 0 C140 0 94 40 70 101 C67 109 62 120 59 128 L48 128 L48 36 L50 40 C50 39 49 37 48 36 C91 11 145 -5 184 -5 C248 -5 291 48 291 128 C291 169 249 221 186 257 C127 291 87 345 87 392 C87 457 119 501 167 501 C170 501 181 496 198 487 C218 472 235 445 245 410 C248 400 252 387 255 377 L268 377 L268 377 Z " />
<glyph glyph-name="t" unicode="t" horiz-adv-x="277" d="M247 500 L112 500 L112 640 L109 640 L96 523 C92 508 65 497 26 494 L26 492 L93 492 L93 110 C93 20 106 -5 153 -5 C188 -5 222 15 258 45 L257 46 C227 21 197 4 162 4 C124 4 113 26 113 106 L113 492 L248 492 L247 500 L247 500 Z " />
<glyph glyph-name="u" unicode="u" horiz-adv-x="481" d="M15 485 L26 485 C64 485 90 459 90 420 L90 156 C90 59 133 -5 215 -5 C275 -5 326 22 367 62 L367 0 L371 0 L462 25 L462 34 L451 37 C397 48 387 61 387 115 L387 500 L292 500 L292 485 L303 485 C341 485 367 459 367 420 L367 65 C332 31 287 8 231 8 C151 8 110 68 110 159 L110 500 L15 500 L15 485 L15 485 Z " />
<glyph glyph-name="v" unicode="v" horiz-adv-x="445" d="M178 500 L9 500 L9 485 L20 485 C56 485 86 463 98 429 L211 -10 L214 -10 L332 427 C345 462 375 485 412 485 L423 485 L423 500 L271 500 L271 485 L282 485 C316 485 333 461 326 425 L219 19 L121 426 C115 462 133 485 167 485 L178 485 L178 500 L178 500 Z " />
<glyph glyph-name="w" unicode="w" horiz-adv-x="592" d="M184 485 C209 485 233 463 245 430 L275 313 L224 19 C193 153 161 287 130 420 C120 461 142 485 184 485 L184 485 Z M32 485 C68 485 92 468 105 430 L218 -10 L221 -10 L277 302 L357 -10 L360 -10 L478 427 C491 462 521 485 558 485 L569 485 L569 500 L387 500 L387 485 L423 485 C460 485 479 461 472 425 L365 19 L267 426 C261 462 281 485 318 485 L344 485 L344 500 L31 500 L32 485 L32 485 Z " />
<glyph glyph-name="x" unicode="x" horiz-adv-x="480" d="M209 500 L44 500 L44 485 C82 485 113 467 140 428 L241 265 L239 260 L237 260 C207 200 178 139 148 80 C129 41 90 15 51 15 L31 15 L31 0 L234 0 L234 15 L186 15 C148 15 135 39 152 76 L242 260 L244 260 L245 261 C282 201 320 140 357 80 C381 41 375 15 342 15 L332 15 L332 0 L472 0 L472 15 C439 15 412 33 386 71 L255 282 L326 420 C346 459 385 485 423 485 L434 485 L434 500 L262 500 L262 485 L289 485 C328 485 341 459 321 420 L321 420 L253 286 C225 331 197 376 170 420 C146 459 155 485 194 485 L210 485 L209 500 L209 500 Z " />
<glyph glyph-name="y" unicode="y" horiz-adv-x="413" d="M439 500 L287 500 L287 485 L298 485 C332 485 349 461 342 425 L235 19 L137 426 C131 462 149 485 183 485 L194 485 L194 500 L25 500 L25 485 L36 485 C72 485 102 463 114 429 L226 -7 C224 -15 219 -37 208 -69 C179 -175 158 -216 132 -216 C132 -216 78 -175 78 -201 C78 -218 95 -229 120 -229 C156 -229 182 -185 213 -71 C226 -32 230 -9 230 -9 L348 428 C361 463 391 486 428 486 L439 486 L439 500 L439 500 Z " />
<glyph glyph-name="z" unicode="z" horiz-adv-x="403" d="M356 155 L330 95 C307 41 257 5 203 5 L203 4 L90 4 L352 500 L70 500 L69 498 L69 498 C62 470 52 433 44 405 L56 405 L67 419 C103 465 160 495 208 495 L208 496 L326 496 L64 0 L346 0 L347 2 L347 2 C355 45 365 103 373 147 C367 150 355 155 355 155 L356 155 L356 155 Z " />
<glyph glyph-name="braceleft" unicode="&#x7b;" horiz-adv-x="181" d="M166 -120 L166 -117 L130 -117 C84 -117 53 -83 53 -32 L54 199 C54 243 40 274 18 278 C40 282 54 314 54 360 L54 587 C54 638 84 672 130 672 L166 672 L166 675 L126 675 C73 675 38 640 38 587 L38 348 C38 305 26 279 5 279 L5 276 C26 276 38 252 38 210 L38 -32 C38 -85 73 -120 126 -120 L166 -120 L166 -120 Z " />
<glyph glyph-name="bar" unicode="&#x7c;" horiz-adv-x="136" d="M60 770 L60 -234 L76 -234 L76 770 L60 770 L60 770 Z " />
<glyph glyph-name="braceright" unicode="&#x7d;" horiz-adv-x="181" d="M5 675 L5 672 L41 672 C87 672 118 638 118 587 L117 356 C117 312 131 281 153 277 C131 273 117 241 117 195 L117 -32 C117 -83 87 -117 41 -117 L5 -117 L5 -120 L45 -120 C98 -120 133 -85 133 -32 L133 207 C133 250 145 276 166 276 L166 279 C145 279 133 303 133 345 L133 587 C133 640 98 675 45 675 L5 675 L5 675 Z " />
<glyph glyph-name="asciitilde" unicode="&#x7e;" horiz-adv-x="238" d="M33 310 C33 353 44 382 61 382 C95 382 139 319 173 319 C195 319 209 349 209 393 L206 393 C206 356 194 332 177 332 C143 332 99 395 65 395 C44 395 30 361 30 310 L33 310 L33 310 Z " />
<glyph glyph-name="nbspace" unicode="&#xa0;" horiz-adv-x="130" d="" />
<glyph glyph-name="exclamdown" unicode="&#xa1;" horiz-adv-x="153" d="M59 485 C59 459 99 459 99 485 C99 511 59 511 59 485 L59 485 Z M60 -135 C59 -162 67 -180 80 -180 C93 -180 101 -162 100 -135 C100 180 80 390 80 390 L77 390 C77 390 60 180 60 -135 L60 -135 Z " />
<glyph glyph-name="cent" unicode="&#xa2;" horiz-adv-x="373" d="M212 575 L212 504 C114 491 50 388 50 239 C50 93 104 -4 185 -4 C194 -4 203 -4 212 -3 L212 -74 L226 -74 L226 -2 C269 2 304 12 320 25 L319 27 C307 18 272 11 226 9 L226 500 C269 502 298 465 303 404 C305 392 322 390 322 403 C317 468 280 508 226 505 L226 575 L212 575 L212 575 Z M212 7 C209 7 206 7 203 7 C124 7 72 103 72 246 C72 387 127 484 213 497 L212 7 L212 7 Z " />
<glyph glyph-name="guillemotleft" unicode="&#xab;" horiz-adv-x="311" d="M143 249 C158 279 231 425 266 460 L263 463 C209 409 124 251 124 248 C154 175 264 35 264 35 L266 38 C266 38 181 157 143 248 L143 249 L143 249 Z M39 248 C54 278 127 424 162 459 L159 462 C105 408 20 250 20 247 C50 174 160 34 160 34 L162 37 C162 37 77 156 39 247 L39 248 L39 248 Z " />
<glyph glyph-name="acute" unicode="&#xb4;" horiz-adv-x="238" d="M41 532 C41 532 117 623 148 663 C175 697 193 720 193 721 C193 723 185 729 182 729 C181 729 163 706 138 671 C107 631 39 533 39 533 L41 532 L41 532 Z " />
<glyph glyph-name="guillemotright" unicode="&#xbb;" horiz-adv-x="311" d="M47 36 C47 36 157 176 187 249 C187 252 102 410 48 464 L45 461 C80 426 153 280 168 250 C130 159 45 40 45 40 L47 36 L47 36 Z M151 37 C151 37 261 177 291 250 C291 253 206 411 152 465 L149 462 C184 427 257 281 272 251 C234 160 149 41 149 41 L151 37 L151 37 Z " />
<glyph glyph-name="onequarter" unicode="&#xbc;" horiz-adv-x="754" d="M450 61 L452 61 L453 61 L453 58 L566 58 L566 6 L583 6 L583 58 L616 58 L616 66 L583 66 L583 283 C590 299 592 309 587 309 C587 306 585 301 582 295 L582 312 L580 312 L579 314 C585 317 587 315 587 310 C586 310 585 310 583 309 L581 312 L580 312 C580 312 566 286 566 275 L566 259 C532 193 467 89 453 67 L452 67 L452 66 C451 65 451 64 450 64 L450 61 L450 61 Z M205 647 C205 648 205 649 205 650 L206 650 L205 647 L205 647 Z M243 690 L197 690 L197 682 L196 682 L196 686 L150 686 L150 680 C168 680 179 676 185 663 L185 472 C185 450 170 440 148 440 L148 434 L185 434 L185 432 L202 432 L202 434 L241 434 L241 443 C219 443 204 453 204 476 L203 474 L202 474 L202 650 L205 650 C206 672 221 681 243 681 L243 690 L243 690 Z M125 -6 L639 679 L630 685 L115 0 L125 -6 L125 -6 Z M457 68 C473 94 531 187 564 250 L564 68 L457 68 L457 68 Z " />
<glyph glyph-name="onehalf" unicode="&#xbd;" horiz-adv-x="754" d="M205 646 C205 647 205 648 205 649 L206 649 L205 646 L205 646 Z M243 689 L197 689 L197 681 L196 681 L196 685 L150 685 L150 679 C168 679 179 675 185 662 L185 471 C185 449 170 439 148 439 L148 433 L185 433 L185 431 L202 431 L202 433 L241 433 L241 442 C219 442 204 452 204 475 L203 473 L202 473 L202 649 L205 649 C206 671 221 680 243 680 L243 689 L243 689 Z M125 -7 L639 678 L630 684 L115 -1 L125 -7 L125 -7 Z M613 67 C613 44 599 30 578 30 L576 29 L471 29 C550 86 601 117 601 184 C601 231 577 263 541 263 C515 263 486 234 468 190 L470 189 C485 226 510 251 532 251 C561 251 581 222 581 179 C581 106 534 82 462 29 C461 29 460 28 459 27 C454 24 449 21 444 17 L444 10 C445 11 446 12 447 13 L612 13 L613 22 L614 22 C615 36 617 54 618 68 L613 67 L613 67 Z " />
<glyph glyph-name="threequarters" unicode="&#xbe;" horiz-adv-x="754" d="M449 57 L451 57 L452 57 L452 54 L565 54 L565 2 L582 2 L582 54 L615 54 L615 62 L582 62 L582 279 C589 295 591 305 586 305 C586 302 584 297 581 291 L581 308 L579 308 L578 310 C584 313 586 311 586 306 C585 306 584 306 582 305 L580 308 L579 308 C579 308 565 282 565 271 L565 255 C531 189 466 85 452 63 L451 63 L451 62 C450 61 450 60 449 60 L449 57 L449 57 Z M99 356 C188 363 247 410 247 474 C247 520 206 551 144 551 C141 551 137 550 132 549 C188 571 224 602 224 629 C224 664 204 687 174 687 C143 687 111 661 94 622 L96 622 C110 654 138 675 166 675 C191 675 208 655 208 624 C208 594 166 561 102 542 L102 540 C101 540 100 540 99 540 L99 537 C109 540 126 543 141 543 C194 543 230 516 230 475 C230 413 178 368 100 362 L100 360 L99 356 L99 356 Z M125 -6 L639 679 L630 685 L115 0 L125 -6 L125 -6 Z M456 64 C472 90 530 183 563 246 L563 64 L456 64 L456 64 Z " />
<glyph glyph-name="questiondown" unicode="&#xbf;" horiz-adv-x="284" d="M146 485 C146 459 186 459 186 485 C186 511 146 511 146 485 L146 485 Z M179 -180 C215 -180 239 -152 239 -111 C239 -109 234 -108 227 -108 C211 -108 189 -164 173 -164 C93 -164 39 -87 39 29 C39 65 54 129 133 129 L168 129 C170 129 172 130 172 132 L168 394 L165 394 L161 144 L126 144 C50 144 35 72 35 31 C35 -96 93 -180 179 -180 L179 -180 Z " />
<glyph glyph-name="Agrave" unicode="&#xc0;" horiz-adv-x="515" d="M320 0 L510 0 L510 15 C469 15 442 34 429 77 L261 691 L256 691 L250 668 L249 666 L249 665 L95 79 C84 41 52 16 15 16 L4 16 L4 1 L193 1 L193 16 L167 16 C119 16 96 48 108 96 L108 96 L146 245 L361 245 L406 75 C412 40 393 17 356 17 L319 17 L320 0 L320 0 Z M176 898 C176 895 194 872 222 840 C254 800 332 709 332 709 L334 710 C334 710 264 807 232 848 C207 883 189 906 187 906 C184 906 176 900 176 898 L176 898 Z M358 252 L146 252 L250 656 L358 252 L358 252 Z " />
<glyph glyph-name="Aacute" unicode="&#xc1;" horiz-adv-x="515" d="M195 707 C195 707 271 798 302 838 C329 872 347 895 347 896 C347 898 339 904 336 904 C335 904 317 881 292 846 C261 806 193 708 193 708 L195 707 L195 707 Z M320 0 L510 0 L510 15 C469 15 442 34 429 77 L261 691 L256 691 L250 668 L249 666 L249 665 L95 79 C84 41 52 16 15 16 L4 16 L4 1 L193 1 L193 16 L167 16 C119 16 96 48 108 96 L108 96 L146 245 L361 245 L406 75 C412 40 393 17 356 17 L319 17 L320 0 L320 0 Z M358 252 L146 252 L250 656 L358 252 L358 252 Z " />
<glyph glyph-name="Acircumflex" unicode="&#xc2;" horiz-adv-x="515" d="M320 0 L510 0 L510 15 C469 15 442 34 429 77 L261 691 L256 691 L250 668 L249 666 L249 665 L95 79 C84 41 52 16 15 16 L4 16 L4 1 L193 1 L193 16 L167 16 C119 16 96 48 108 96 L108 96 L146 245 L361 245 L406 75 C412 40 393 17 356 17 L319 17 L320 0 L320 0 Z M264 916 C260 923 254 923 251 916 C251 916 142 694 158 713 L160 711 C163 715 234 853 256 897 C306 795 354 711 354 711 L356 713 C356 713 327 784 263 916 L264 916 L264 916 Z M357 252 L145 252 L249 656 L357 252 L357 252 Z " />
<glyph glyph-name="Atilde" unicode="&#xc3;" horiz-adv-x="515" d="M172 770 C172 813 183 842 200 842 C234 842 278 779 312 779 C334 779 348 809 348 853 L345 853 C345 816 333 792 316 792 C282 792 238 855 204 855 C183 855 169 821 169 770 L172 770 L172 770 Z M320 0 L510 0 L510 15 C469 15 442 34 429 77 L261 691 L256 691 L250 668 L249 666 L249 665 L95 79 C84 41 52 16 15 16 L4 16 L4 1 L193 1 L193 16 L167 16 C119 16 96 48 108 96 L108 96 L146 245 L361 245 L406 75 C412 40 393 17 356 17 L319 17 L320 0 L320 0 Z M358 252 L146 252 L250 656 L358 252 L358 252 Z " />
<glyph glyph-name="Adieresis" unicode="&#xc4;" horiz-adv-x="515" d="M361 765 C361 791 321 791 321 765 C321 739 361 739 361 765 L361 765 Z M196 765 C196 791 156 791 156 765 C156 739 196 739 196 765 L196 765 Z M320 0 L510 0 L510 15 C469 15 442 34 429 77 L261 691 L256 691 L250 668 L249 666 L249 665 L95 79 C84 41 52 16 15 16 L4 16 L4 1 L193 1 L193 16 L167 16 C119 16 96 48 108 96 L108 96 L146 245 L361 245 L406 75 C412 40 393 17 356 17 L319 17 L320 0 L320 0 Z M358 252 L146 252 L250 656 L358 252 L358 252 Z " />
<glyph glyph-name="Aring" unicode="&#xc5;" horiz-adv-x="515" d="M171 803 C171 856 206 891 259 891 C311 891 346 856 346 803 C346 755 306 714 259 714 C211 714 171 755 171 803 L171 803 Z M165 803 C165 753 208 710 259 710 C309 710 352 753 352 803 C352 858 315 895 259 895 C203 895 165 858 165 803 L165 803 Z M320 0 L510 0 L510 15 C469 15 442 34 429 77 L261 691 L256 691 L250 668 L249 666 L249 665 L95 79 C84 41 52 16 15 16 L4 16 L4 1 L193 1 L193 16 L167 16 C119 16 96 48 108 96 L108 96 L146 245 L361 245 L406 75 C412 40 393 17 356 17 L319 17 L320 0 L320 0 Z M358 252 L146 252 L250 656 L358 252 L358 252 Z " />
<glyph glyph-name="Ccedilla" unicode="&#xc7;" horiz-adv-x="646" d="M573 189 L560 150 C531 65 457 6 373 2 C204 -5 96 134 96 339 C96 541 202 675 362 675 C364 675 403 674 403 672 C471 664 534 606 560 528 C564 516 570 499 574 487 L587 487 L587 617 C520 655 430 681 362 681 C188 681 72 544 72 339 C72 134 187 -3 360 -4 C358 -10 349 -43 336 -93 L338 -93 C352 -84 368 -78 378 -78 C402 -78 418 -100 418 -133 C418 -181 400 -213 374 -213 C349 -213 321 -205 306 -192 L306 -195 C324 -209 352 -219 378 -219 C409 -219 430 -185 430 -133 C430 -98 411 -74 383 -74 C371 -74 353 -80 339 -89 C354 -33 365 -9 367 -4 C434 -3 522 23 588 60 L586 63 C587 63 588 60 588 59 L588 189 L573 189 L573 189 Z " />
<glyph glyph-name="Egrave" unicode="&#xc8;" horiz-adv-x="486" d="M140 896 C140 893 158 870 186 838 C218 798 296 707 296 707 L299 708 C299 708 229 805 197 846 C172 881 154 904 152 904 C148 904 140 898 140 896 L140 896 Z M306 272 L306 438 L294 438 L290 427 C278 389 237 363 186 363 L137 363 L137 669 L209 669 C269 669 322 629 342 569 L353 534 L364 534 L364 675 L40 675 L40 660 L51 660 C89 660 115 634 115 595 L115 80 C115 41 89 15 51 15 L40 15 L40 0 L372 0 L373 3 L372 3 C379 44 389 100 396 141 L385 141 L368 106 C338 46 278 6 218 6 L137 6 L137 357 L186 357 C237 357 278 328 290 285 L294 272 L306 272 L306 272 Z " />
<glyph glyph-name="Eacute" unicode="&#xc9;" horiz-adv-x="486" d="M206 707 C206 707 282 798 313 838 C340 872 358 895 358 896 C358 898 350 904 346 904 C345 904 327 881 302 846 C271 806 203 708 203 708 L206 707 L206 707 Z M306 272 L306 438 L294 438 L290 427 C278 389 237 363 186 363 L137 363 L137 669 L209 669 C269 669 322 629 342 569 L353 534 L364 534 L364 675 L40 675 L40 660 L51 660 C89 660 115 634 115 595 L115 80 C115 41 89 15 51 15 L40 15 L40 0 L372 0 L373 3 L372 3 C379 44 389 100 396 141 L385 141 L368 106 C338 46 278 6 218 6 L137 6 L137 357 L186 357 C237 357 278 328 290 285 L294 272 L306 272 L306 272 Z " />
<glyph glyph-name="Ecircumflex" unicode="&#xca;" horiz-adv-x="486" d="M244 914 C240 921 235 921 231 914 C231 914 123 694 137 711 L139 709 C142 713 215 853 237 895 C287 792 335 708 335 708 L337 710 C337 710 307 783 243 913 L244 914 L244 914 Z M305 271 L305 437 L293 437 L289 426 C277 388 236 362 185 362 L136 362 L136 668 L208 668 C268 668 321 628 341 568 L352 533 L363 533 L363 674 L39 674 L39 659 L50 659 C88 659 114 633 114 594 L114 79 C114 40 88 14 50 14 L39 14 L39 -1 L371 -1 L372 2 L371 2 C378 43 388 99 395 140 L384 140 L367 105 C337 45 277 5 217 5 L136 5 L136 356 L185 356 C236 356 277 327 289 284 L293 271 L305 271 L305 271 Z " />
<glyph glyph-name="Edieresis" unicode="&#xcb;" horiz-adv-x="486" d="M340 765 C340 791 300 791 300 765 C300 739 340 739 340 765 L340 765 Z M176 765 C176 791 136 791 136 765 C136 739 176 739 176 765 L176 765 Z M306 272 L306 438 L294 438 L290 427 C278 389 237 363 186 363 L137 363 L137 669 L209 669 C269 669 322 629 342 569 L353 534 L364 534 L364 675 L40 675 L40 660 L51 660 C89 660 115 634 115 595 L115 80 C115 41 89 15 51 15 L40 15 L40 0 L372 0 L373 3 L372 3 C379 44 389 100 396 141 L385 141 L368 106 C338 46 278 6 218 6 L137 6 L137 357 L186 357 C237 357 278 328 290 285 L294 272 L306 272 L306 272 Z " />
<glyph glyph-name="Igrave" unicode="&#xcc;" horiz-adv-x="252" d="M44 896 C44 893 62 870 90 838 C122 798 200 707 200 707 L203 708 C203 708 133 805 101 846 C76 881 58 904 56 904 C52 904 44 898 44 896 L44 896 Z M212 15 L201 15 C163 15 137 41 137 80 L137 595 C137 634 163 660 201 660 L212 660 L212 675 L40 675 L40 660 L51 660 C89 660 115 634 115 595 L115 80 C115 41 89 15 51 15 L40 15 L40 0 L212 0 L212 15 L212 15 Z " />
<glyph glyph-name="Iacute" unicode="&#xcd;" horiz-adv-x="252" d="M63 707 C63 707 139 798 170 838 C197 872 215 895 215 896 C215 898 207 904 203 904 C202 904 184 881 159 846 C128 806 60 708 60 708 L63 707 L63 707 Z M212 15 L201 15 C163 15 137 41 137 80 L137 595 C137 634 163 660 201 660 L212 660 L212 675 L40 675 L40 660 L51 660 C89 660 115 634 115 595 L115 80 C115 41 89 15 51 15 L40 15 L40 0 L212 0 L212 15 L212 15 Z " />
<glyph glyph-name="Icircumflex" unicode="&#xce;" horiz-adv-x="252" d="M132 914 C128 921 123 921 119 914 C119 914 11 694 25 711 L27 709 C30 713 103 853 125 895 C175 792 223 708 223 708 L225 710 C225 710 195 783 131 913 L132 914 L132 914 Z M211 14 L200 14 C162 14 136 40 136 79 L136 594 C136 633 162 659 200 659 L211 659 L211 674 L39 674 L39 659 L50 659 C88 659 114 633 114 594 L114 79 C114 40 88 14 50 14 L39 14 L39 -1 L211 -1 L211 14 L211 14 Z " />
<glyph glyph-name="Idieresis" unicode="&#xcf;" horiz-adv-x="252" d="M228 765 C228 791 188 791 188 765 C188 739 228 739 228 765 L228 765 Z M64 765 C64 791 24 791 24 765 C24 739 64 739 64 765 L64 765 Z M212 15 L201 15 C163 15 137 41 137 80 L137 595 C137 634 163 660 201 660 L212 660 L212 675 L40 675 L40 660 L51 660 C89 660 115 634 115 595 L115 80 C115 41 89 15 51 15 L40 15 L40 0 L212 0 L212 15 L212 15 Z " />
<glyph glyph-name="Ntilde" unicode="&#xd1;" horiz-adv-x="610" d="M221 770 C221 813 232 842 249 842 C283 842 327 779 361 779 C383 779 397 809 397 853 L394 853 C394 816 382 792 365 792 C331 792 287 855 253 855 C232 855 218 821 218 770 L221 770 L221 770 Z M45 660 L56 660 C94 660 120 634 120 595 L120 80 C120 41 94 15 56 15 L45 15 L45 0 L202 0 L202 15 L191 15 C153 15 127 41 127 80 L127 653 C247 434 368 216 486 -4 L495 -4 L495 595 C495 634 521 660 559 660 L570 660 L570 675 L414 675 L414 660 L425 660 C463 660 489 634 489 595 L489 34 L140 675 L45 675 L45 660 L45 660 Z M127 666 L127 666 L127 666 Z " />
<glyph glyph-name="Ograve" unicode="&#xd2;" horiz-adv-x="678" d="M95 338 C95 519 182 674 350 674 C517 674 603 519 603 338 C603 156 517 1 350 1 C182 1 95 156 95 338 L95 338 Z M71 338 C71 153 166 -5 350 -5 C533 -5 628 153 628 338 C628 523 533 680 350 680 C166 680 71 523 71 338 L71 338 Z M268 896 C268 893 286 870 314 838 C346 798 424 707 424 707 L426 708 C426 708 356 805 324 846 C299 881 281 904 279 904 C276 904 268 898 268 896 L268 896 Z " />
<glyph glyph-name="Oacute" unicode="&#xd3;" horiz-adv-x="678" d="M324 707 C324 707 400 798 431 838 C458 872 476 895 476 896 C476 898 468 904 465 904 C464 904 446 881 421 846 C390 806 322 708 322 708 L324 707 L324 707 Z M95 338 C95 519 182 674 350 674 C517 674 603 519 603 338 C603 156 517 1 350 1 C182 1 95 156 95 338 L95 338 Z M71 338 C71 153 166 -5 350 -5 C533 -5 628 153 628 338 C628 523 533 680 350 680 C166 680 71 523 71 338 L71 338 Z " />
<glyph glyph-name="Ocircumflex" unicode="&#xd4;" horiz-adv-x="678" d="M95 338 C95 519 182 674 350 674 C517 674 603 519 603 338 C603 156 517 1 350 1 C182 1 95 156 95 338 L95 338 Z M71 338 C71 153 166 -5 350 -5 C533 -5 628 153 628 338 C628 523 533 680 350 680 C166 680 71 523 71 338 L71 338 Z M356 914 C352 921 346 921 343 914 C343 914 234 692 250 711 L252 709 C255 713 326 851 348 895 C398 793 446 709 446 709 L448 711 C448 711 419 782 355 914 L356 914 L356 914 Z " />
<glyph glyph-name="Otilde" unicode="&#xd5;" horiz-adv-x="678" d="M263 770 C263 813 274 842 291 842 C325 842 369 779 403 779 C425 779 439 809 439 853 L436 853 C436 816 424 792 407 792 C373 792 329 855 295 855 C274 855 260 821 260 770 L263 770 L263 770 Z M95 338 C95 519 182 674 350 674 C517 674 603 519 603 338 C603 156 517 1 350 1 C182 1 95 156 95 338 L95 338 Z M71 338 C71 153 166 -5 350 -5 C533 -5 628 153 628 338 C628 523 533 680 350 680 C166 680 71 523 71 338 L71 338 Z " />
<glyph glyph-name="Odieresis" unicode="&#xd6;" horiz-adv-x="678" d="M452 765 C452 791 412 791 412 765 C412 739 452 739 452 765 L452 765 Z M287 765 C287 791 247 791 247 765 C247 739 287 739 287 765 L287 765 Z M95 338 C95 519 182 674 350 674 C517 674 603 519 603 338 C603 156 517 1 350 1 C182 1 95 156 95 338 L95 338 Z M71 338 C71 153 166 -5 350 -5 C533 -5 628 153 628 338 C628 523 533 680 350 680 C166 680 71 523 71 338 L71 338 Z " />
<glyph glyph-name="Oslash" unicode="&#xd8;" horiz-adv-x="678" d="M75 -8 L151 85 C198 29 265 -6 351 -6 C534 -6 629 152 629 337 C629 431 604 518 556 581 L633 676 L625 682 L549 589 C503 645 437 679 351 679 C167 679 72 522 72 337 C72 243 97 156 146 93 L69 -2 L75 -8 L75 -8 Z M539 576 L157 107 C117 168 97 250 97 338 C97 519 184 674 352 674 C434 674 497 636 539 576 L539 576 Z M545 567 C585 506 605 425 605 337 C605 155 519 0 352 0 C269 0 206 38 163 98 L545 567 L545 567 Z " />
<glyph glyph-name="Ugrave" unicode="&#xd9;" horiz-adv-x="611" d="M233 896 C233 893 251 870 279 838 C311 798 389 707 389 707 L392 708 C392 708 322 805 290 846 C265 881 247 904 245 904 C241 904 233 898 233 896 L233 896 Z M591 675 L410 675 L410 660 L425 660 C468 660 497 633 499 591 L498 178 C498 73 448 3 321 3 C194 3 145 83 145 202 L146 595 L146 595 C146 634 172 660 210 660 L221 660 L221 675 L48 675 L48 660 L59 660 C97 660 123 634 123 595 L123 207 C123 80 178 -5 318 -5 C453 -5 505 67 505 176 L505 585 C505 630 534 660 577 660 L590 660 L591 675 L591 675 Z " />
<glyph glyph-name="Uacute" unicode="&#xda;" horiz-adv-x="611" d="M313 707 C313 707 389 798 420 838 C447 872 465 895 465 896 C465 898 457 904 453 904 C452 904 434 881 409 846 C378 806 310 708 310 708 L313 707 L313 707 Z M591 675 L410 675 L410 660 L425 660 C468 660 497 633 499 591 L498 178 C498 73 448 3 321 3 C194 3 145 83 145 202 L146 595 L146 595 C146 634 172 660 210 660 L221 660 L221 675 L48 675 L48 660 L59 660 C97 660 123 634 123 595 L123 207 C123 80 178 -5 318 -5 C453 -5 505 67 505 176 L505 585 C505 630 534 660 577 660 L590 660 L591 675 L591 675 Z " />
<glyph glyph-name="Ucircumflex" unicode="&#xdb;" horiz-adv-x="611" d="M321 914 C317 921 312 921 308 914 C308 914 200 694 214 711 L216 709 C219 713 292 853 314 895 C364 792 412 708 412 708 L414 710 C414 710 384 783 320 913 L321 914 L321 914 Z M590 674 L409 674 L409 659 L424 659 C467 659 496 632 498 590 L497 177 C497 72 447 2 320 2 C193 2 144 82 144 201 L145 594 L145 594 C145 633 171 659 209 659 L220 659 L220 674 L47 674 L47 659 L58 659 C96 659 122 633 122 594 L122 206 C122 79 177 -6 317 -6 C452 -6 504 66 504 175 L504 584 C504 629 533 659 576 659 L589 659 L590 674 L590 674 Z " />
<glyph glyph-name="Udieresis" unicode="&#xdc;" horiz-adv-x="611" d="M417 765 C417 791 377 791 377 765 C377 739 417 739 417 765 L417 765 Z M253 765 C253 791 213 791 213 765 C213 739 253 739 253 765 L253 765 Z M591 675 L410 675 L410 660 L425 660 C468 660 497 633 499 591 L498 178 C498 73 448 3 321 3 C194 3 145 83 145 202 L146 595 L146 595 C146 634 172 660 210 660 L221 660 L221 675 L48 675 L48 660 L59 660 C97 660 123 634 123 595 L123 207 C123 80 178 -5 318 -5 C453 -5 505 67 505 176 L505 585 C505 630 534 660 577 660 L590 660 L591 675 L591 675 Z " />
<glyph glyph-name="Yacute" unicode="&#xdd;" horiz-adv-x="487" d="M253 707 C253 707 329 798 360 838 C387 872 405 895 405 896 C405 898 397 904 393 904 C392 904 374 881 349 846 C318 806 250 708 250 708 L253 707 L253 707 Z M195 675 L29 675 L29 660 C62 660 87 643 105 605 L243 255 L243 80 C243 41 217 15 179 15 L168 15 L168 0 L340 0 L340 15 L329 15 C291 15 265 41 265 80 L265 267 L402 604 C422 643 451 660 490 660 L490 675 L315 675 L315 660 L334 660 C381 660 402 631 388 586 L259 267 L258 267 L131 603 C121 638 138 661 174 661 L193 661 L195 675 L195 675 Z " />
<glyph glyph-name="agrave" unicode="&#xe0;" horiz-adv-x="387" d="M365 34 C345 14 326 0 310 0 C280 0 272 22 272 54 L272 363 C272 448 240 505 192 505 C131 505 83 469 72 414 L92 414 C102 465 140 499 188 499 C226 499 251 446 251 367 L251 244 C230 241 184 233 153 225 C82 207 35 157 35 99 C35 36 67 -6 115 -6 C154 -6 207 28 251 80 L251 51 C251 14 261 -11 297 -11 C320 -11 343 5 368 30 L365 34 L365 34 Z M90 720 C90 717 108 694 136 662 C168 622 246 531 246 531 L249 532 C249 532 179 629 147 670 C122 705 104 728 102 728 C98 728 90 722 90 720 L90 720 Z M251 238 L251 84 C211 38 162 8 125 8 C83 8 55 47 55 105 C55 158 94 203 153 218 C189 227 232 235 252 238 L251 238 L251 238 Z " />
<glyph glyph-name="aacute" unicode="&#xe1;" horiz-adv-x="387" d="M140 532 C140 532 216 623 247 663 C274 697 292 720 292 721 C292 723 284 729 280 729 C279 729 261 706 236 671 C205 631 137 533 137 533 L140 532 L140 532 Z M365 34 C345 14 326 0 310 0 C280 0 272 22 272 54 L272 363 C272 448 240 505 192 505 C131 505 83 469 72 414 L92 414 C102 465 140 499 188 499 C226 499 251 446 251 367 L251 244 C230 241 184 233 153 225 C82 207 35 157 35 99 C35 36 67 -6 115 -6 C154 -6 207 28 251 80 L251 51 C251 14 261 -11 297 -11 C320 -11 343 5 368 30 L365 34 L365 34 Z M251 238 L251 84 C211 38 162 8 125 8 C83 8 55 47 55 105 C55 158 94 203 153 218 C189 227 232 235 252 238 L251 238 L251 238 Z " />
<glyph glyph-name="acircumflex" unicode="&#xe2;" horiz-adv-x="387" d="M365 34 C345 14 326 0 310 0 C280 0 272 22 272 54 L272 363 C272 448 240 505 192 505 C131 505 83 469 72 414 L92 414 C102 465 140 499 188 499 C226 499 251 446 251 367 L251 244 C230 241 184 233 153 225 C82 207 35 157 35 99 C35 36 67 -6 115 -6 C154 -6 207 28 251 80 L251 51 C251 14 261 -11 297 -11 C320 -11 343 5 368 30 L365 34 L365 34 Z M178 738 C174 745 169 745 165 738 C165 738 57 518 71 535 L73 533 C76 537 149 677 171 719 C221 616 269 532 269 532 L271 534 C271 534 241 607 177 737 L178 738 L178 738 Z M250 237 L250 83 C210 37 161 7 124 7 C82 7 54 46 54 104 C54 157 93 202 152 217 C188 226 231 234 251 237 L250 237 L250 237 Z " />
<glyph glyph-name="atilde" unicode="&#xe3;" horiz-adv-x="387" d="M86 595 C86 638 97 667 113 667 C147 667 191 604 225 604 C247 604 262 634 262 678 L258 678 C258 641 246 617 229 617 C196 617 151 680 118 680 C96 680 82 646 82 595 L86 595 L86 595 Z M365 34 C345 14 326 0 310 0 C280 0 272 22 272 54 L272 363 C272 448 240 505 192 505 C131 505 83 469 72 414 L92 414 C102 465 140 499 188 499 C226 499 251 446 251 367 L251 244 C230 241 184 233 153 225 C82 207 35 157 35 99 C35 36 67 -6 115 -6 C154 -6 207 28 251 80 L251 51 C251 14 261 -11 297 -11 C320 -11 343 5 368 30 L365 34 L365 34 Z M251 238 L251 84 C211 38 162 8 125 8 C83 8 55 47 55 105 C55 158 94 203 153 218 C189 227 232 235 252 238 L251 238 L251 238 Z " />
<glyph glyph-name="adieresis" unicode="&#xe4;" horiz-adv-x="387" d="M274 590 C274 616 234 616 234 590 C234 564 274 564 274 590 L274 590 Z M110 590 C110 616 70 616 70 590 C70 564 110 564 110 590 L110 590 Z M365 34 C345 14 326 0 310 0 C280 0 272 22 272 54 L272 363 C272 448 240 505 192 505 C131 505 83 469 72 414 L92 414 C102 465 140 499 188 499 C226 499 251 446 251 367 L251 244 C230 241 184 233 153 225 C82 207 35 157 35 99 C35 36 67 -6 115 -6 C154 -6 207 28 251 80 L251 51 C251 14 261 -11 297 -11 C320 -11 343 5 368 30 L365 34 L365 34 Z M251 238 L251 84 C211 38 162 8 125 8 C83 8 55 47 55 105 C55 158 94 203 153 218 C189 227 232 235 252 238 L251 238 L251 238 Z " />
<glyph glyph-name="aring" unicode="&#xe5;" horiz-adv-x="387" d="M84 628 C84 681 119 716 172 716 C225 716 260 681 260 628 C260 580 220 539 172 539 C124 539 84 580 84 628 L84 628 Z M78 628 C78 578 121 535 172 535 C223 535 266 578 266 628 C266 683 228 720 172 720 C116 720 78 683 78 628 L78 628 Z M365 34 C345 14 326 0 310 0 C280 0 272 22 272 54 L272 363 C272 448 240 505 192 505 C131 505 83 469 72 414 L92 414 C102 465 140 499 188 499 C226 499 251 446 251 367 L251 244 C230 241 184 233 153 225 C82 207 35 157 35 99 C35 36 67 -6 115 -6 C154 -6 207 28 251 80 L251 51 C251 14 261 -11 297 -11 C320 -11 343 5 368 30 L365 34 L365 34 Z M251 238 L251 84 C211 38 162 8 125 8 C83 8 55 47 55 105 C55 158 94 203 153 218 C189 227 232 235 252 238 L251 238 L251 238 Z " />
<glyph glyph-name="ccedilla" unicode="&#xe7;" horiz-adv-x="373" d="M162 -90 C177 -34 188 -10 190 -5 C248 -4 300 8 320 25 L319 27 C305 16 259 8 202 8 C123 8 71 104 71 247 C71 399 135 500 232 500 C270 500 299 462 304 404 C306 392 323 390 323 403 C318 465 282 506 234 506 C124 506 50 399 50 239 C50 94 103 -3 183 -5 C181 -11 172 -44 159 -94 L161 -94 C175 -85 191 -79 201 -79 C225 -79 241 -101 241 -134 C241 -182 223 -214 197 -214 C172 -214 144 -206 129 -193 L129 -196 C147 -210 175 -220 201 -220 C232 -220 253 -186 253 -134 C253 -99 234 -75 206 -75 C194 -75 176 -81 162 -90 L162 -90 Z " />
<glyph glyph-name="egrave" unicode="&#xe8;" horiz-adv-x="380" d="M327 24 L326 26 C312 15 264 7 205 7 C125 7 71 103 71 246 C71 277 73 305 77 331 L330 331 C330 435 281 505 208 505 C113 505 50 398 50 238 C50 92 106 -5 189 -5 C251 -5 306 7 327 24 L327 24 Z M126 721 C126 718 144 695 172 663 C204 623 282 532 282 532 L285 533 C285 533 215 630 183 671 C158 706 140 729 138 729 C134 729 126 723 126 721 L126 721 Z M311 347 C311 342 307 338 302 338 L78 335 C95 436 142 499 207 499 C269 499 311 438 311 347 L311 347 Z " />
<glyph glyph-name="eacute" unicode="&#xe9;" horiz-adv-x="380" d="M176 532 C176 532 252 623 283 663 C310 697 328 720 328 721 C328 723 320 729 316 729 C315 729 297 706 272 671 C241 631 173 533 173 533 L176 532 L176 532 Z M327 24 L326 26 C312 15 264 7 205 7 C125 7 71 103 71 246 C71 277 73 305 77 331 L330 331 C330 435 281 505 208 505 C113 505 50 398 50 238 C50 92 106 -5 189 -5 C251 -5 306 7 327 24 L327 24 Z M311 347 C311 342 307 338 302 338 L78 335 C95 436 142 499 207 499 C269 499 311 438 311 347 L311 347 Z " />
<glyph glyph-name="ecircumflex" unicode="&#xea;" horiz-adv-x="380" d="M327 24 L326 26 C312 15 264 7 205 7 C125 7 71 103 71 246 C71 277 73 305 77 331 L330 331 C330 435 281 505 208 505 C113 505 50 398 50 238 C50 92 106 -5 189 -5 C251 -5 306 7 327 24 L327 24 Z M214 739 C210 746 205 746 201 739 C201 739 93 519 107 536 L109 534 C112 538 185 678 207 720 C257 617 305 533 305 533 L307 535 C307 535 277 608 213 738 L214 739 L214 739 Z M310 346 C310 341 306 337 301 337 L77 334 C94 435 141 498 206 498 C268 498 310 437 310 346 L310 346 Z " />
<glyph glyph-name="edieresis" unicode="&#xeb;" horiz-adv-x="380" d="M310 590 C310 616 270 616 270 590 C270 564 310 564 310 590 L310 590 Z M146 590 C146 616 106 616 106 590 C106 564 146 564 146 590 L146 590 Z M327 24 L326 26 C312 15 264 7 205 7 C125 7 71 103 71 246 C71 277 73 305 77 331 L330 331 C330 435 281 505 208 505 C113 505 50 398 50 238 C50 92 106 -5 189 -5 C251 -5 306 7 327 24 L327 24 Z M311 347 C311 342 307 338 302 338 L78 335 C95 436 142 499 207 499 C269 499 311 438 311 347 L311 347 Z " />
<glyph glyph-name="igrave" unicode="&#xec;" horiz-adv-x="260" d="M48 721 C48 718 66 695 94 663 C126 623 204 532 204 532 L207 533 C207 533 137 630 105 671 C80 706 62 729 60 729 C56 729 48 723 48 721 L48 721 Z M215 15 L204 15 C166 15 140 41 140 80 L140 500 L136 500 L45 475 L45 466 L56 463 C110 452 120 439 120 385 L120 80 C120 41 94 15 56 15 L45 15 L45 0 L215 0 L215 15 L215 15 Z " />
<glyph glyph-name="iacute" unicode="&#xed;" horiz-adv-x="260" d="M52 532 C52 532 128 623 159 663 C186 697 204 720 204 721 C204 723 196 729 192 729 C191 729 173 706 148 671 C117 631 49 533 49 533 L52 532 L52 532 Z M215 15 L204 15 C166 15 140 41 140 80 L140 500 L136 500 L45 475 L45 466 L56 463 C110 452 120 439 120 385 L120 80 C120 41 94 15 56 15 L45 15 L45 0 L215 0 L215 15 L215 15 Z " />
<glyph glyph-name="icircumflex" unicode="&#xee;" horiz-adv-x="260" d="M136 739 C132 746 127 746 123 739 C123 739 15 519 29 536 L31 534 C34 538 107 678 129 720 C179 617 227 533 227 533 L229 535 C229 535 199 608 135 738 L136 739 L136 739 Z M214 14 L203 14 C165 14 139 40 139 79 L139 499 L135 499 L44 474 L44 465 L55 462 C109 451 119 438 119 384 L119 79 C119 40 93 14 55 14 L44 14 L44 -1 L214 -1 L214 14 L214 14 Z " />
<glyph glyph-name="idieresis" unicode="&#xef;" horiz-adv-x="260" d="M232 590 C232 616 192 616 192 590 C192 564 232 564 232 590 L232 590 Z M68 590 C68 616 28 616 28 590 C28 564 68 564 68 590 L68 590 Z M215 15 L204 15 C166 15 140 41 140 80 L140 500 L136 500 L45 475 L45 466 L56 463 C110 452 120 439 120 385 L120 80 C120 41 94 15 56 15 L45 15 L45 0 L215 0 L215 15 L215 15 Z " />
<glyph glyph-name="ntilde" unicode="&#xf1;" horiz-adv-x="532" d="M182 595 C182 638 193 667 210 667 C244 667 288 604 322 604 C344 604 358 634 358 678 L355 678 C355 641 343 617 326 617 C292 617 248 680 214 680 C193 680 179 646 179 595 L182 595 L182 595 Z M322 0 L492 0 L492 15 L481 15 C443 15 417 41 417 80 L417 336 C417 437 388 505 314 505 C286 505 217 477 140 437 L140 500 L136 500 L45 475 L45 466 L56 463 C110 452 120 439 120 385 L120 80 C120 41 94 15 56 15 L45 15 L45 0 L215 0 L215 15 L204 15 C166 15 140 41 140 80 L140 434 C206 468 269 492 298 492 C369 492 397 428 397 333 L397 80 C397 41 371 15 333 15 L322 15 L322 0 L322 0 Z " />
<glyph glyph-name="ograve" unicode="&#xf2;" horiz-adv-x="499" d="M72 250 C72 401 143 501 250 501 C356 501 427 401 427 250 C427 99 356 -1 250 -1 C143 -1 72 99 72 250 L72 250 Z M50 250 C50 97 130 -5 250 -5 C369 -5 449 97 449 250 C449 403 369 505 250 505 C130 505 50 403 50 250 L50 250 Z M168 721 C168 718 186 695 214 663 C246 623 324 532 324 532 L326 533 C326 533 256 630 224 671 C199 706 181 729 179 729 C176 729 168 723 168 721 L168 721 Z " />
<glyph glyph-name="oacute" unicode="&#xf3;" horiz-adv-x="499" d="M217 532 C217 532 293 623 324 663 C351 697 369 720 369 721 C369 723 361 729 358 729 C357 729 339 706 314 671 C283 631 215 533 215 533 L217 532 L217 532 Z M72 250 C72 401 143 501 250 501 C356 501 427 401 427 250 C427 99 356 -1 250 -1 C143 -1 72 99 72 250 L72 250 Z M50 250 C50 97 130 -5 250 -5 C369 -5 449 97 449 250 C449 403 369 505 250 505 C130 505 50 403 50 250 L50 250 Z " />
<glyph glyph-name="ocircumflex" unicode="&#xf4;" horiz-adv-x="499" d="M72 250 C72 401 143 501 250 501 C356 501 427 401 427 250 C427 99 356 -1 250 -1 C143 -1 72 99 72 250 L72 250 Z M50 250 C50 97 130 -5 250 -5 C369 -5 449 97 449 250 C449 403 369 505 250 505 C130 505 50 403 50 250 L50 250 Z M256 739 C252 746 246 746 243 739 C243 739 134 517 150 536 L152 534 C155 538 226 676 248 720 C298 618 346 534 346 534 L348 536 C348 536 319 607 255 739 L256 739 L256 739 Z " />
<glyph glyph-name="otilde" unicode="&#xf5;" horiz-adv-x="499" d="M163 595 C163 638 174 667 191 667 C225 667 269 604 303 604 C325 604 339 634 339 678 L336 678 C336 641 324 617 307 617 C273 617 229 680 195 680 C174 680 160 646 160 595 L163 595 L163 595 Z M72 250 C72 401 143 501 250 501 C356 501 427 401 427 250 C427 99 356 -1 250 -1 C143 -1 72 99 72 250 L72 250 Z M50 250 C50 97 130 -5 250 -5 C369 -5 449 97 449 250 C449 403 369 505 250 505 C130 505 50 403 50 250 L50 250 Z " />
<glyph glyph-name="odieresis" unicode="&#xf6;" horiz-adv-x="499" d="M352 590 C352 616 312 616 312 590 C312 564 352 564 352 590 L352 590 Z M187 590 C187 616 147 616 147 590 C147 564 187 564 187 590 L187 590 Z M72 250 C72 401 143 501 250 501 C356 501 427 401 427 250 C427 99 356 -1 250 -1 C143 -1 72 99 72 250 L72 250 Z M50 250 C50 97 130 -5 250 -5 C369 -5 449 97 449 250 C449 403 369 505 250 505 C130 505 50 403 50 250 L50 250 Z " />
<glyph glyph-name="oslash" unicode="&#xf8;" horiz-adv-x="499" d="M53 -7 L107 62 C142 19 191 -5 250 -5 C369 -5 449 97 449 250 C449 325 430 388 397 432 L453 503 L447 507 L393 438 C358 481 309 505 251 505 C131 505 51 403 51 250 C51 175 70 112 104 68 L48 -3 L53 -7 L53 -7 Z M384 426 L114 81 C88 124 73 182 73 250 C73 401 144 501 251 501 C306 501 352 474 383 426 L384 426 L384 426 Z M387 420 C413 377 428 319 428 251 C428 100 357 0 251 0 C195 0 149 27 118 75 L387 420 L387 420 Z " />
<glyph glyph-name="ugrave" unicode="&#xf9;" horiz-adv-x="497" d="M157 721 C157 718 175 695 203 663 C235 623 313 532 313 532 L315 533 C315 533 245 630 213 671 C188 706 170 729 168 729 C165 729 157 723 157 721 L157 721 Z M15 485 L26 485 C64 485 90 459 90 420 L90 156 C90 59 133 -5 215 -5 C275 -5 326 22 367 62 L367 0 L371 0 L462 25 L462 34 L451 37 C397 48 387 61 387 115 L387 500 L292 500 L292 485 L303 485 C341 485 367 459 367 420 L367 65 C332 31 287 8 231 8 C151 8 110 68 110 159 L110 500 L15 500 L15 485 L15 485 Z " />
<glyph glyph-name="uacute" unicode="&#xfa;" horiz-adv-x="497" d="M206 532 C206 532 282 623 313 663 C340 697 358 720 358 721 C358 723 350 729 347 729 C346 729 328 706 303 671 C272 631 204 533 204 533 L206 532 L206 532 Z M15 485 L26 485 C64 485 90 459 90 420 L90 156 C90 59 133 -5 215 -5 C275 -5 326 22 367 62 L367 0 L371 0 L462 25 L462 34 L451 37 C397 48 387 61 387 115 L387 500 L292 500 L292 485 L303 485 C341 485 367 459 367 420 L367 65 C332 31 287 8 231 8 C151 8 110 68 110 159 L110 500 L15 500 L15 485 L15 485 Z " />
<glyph glyph-name="ucircumflex" unicode="&#xfb;" horiz-adv-x="497" d="M245 739 C241 746 235 746 232 739 C232 739 123 517 139 536 L141 534 C144 538 215 676 237 720 C287 618 335 534 335 534 L337 536 C337 536 308 607 244 739 L245 739 L245 739 Z M14 485 L25 485 C63 485 89 459 89 420 L89 156 C89 59 132 -5 214 -5 C274 -5 325 22 366 62 L366 0 L370 0 L461 25 L461 34 L450 37 C396 48 386 61 386 115 L386 500 L291 500 L291 485 L302 485 C340 485 366 459 366 420 L366 65 C331 31 286 8 230 8 C150 8 109 68 109 159 L109 500 L14 500 L14 485 L14 485 Z " />
<glyph glyph-name="udieresis" unicode="&#xfc;" horiz-adv-x="497" d="M341 590 C341 616 301 616 301 590 C301 564 341 564 341 590 L341 590 Z M176 590 C176 616 136 616 136 590 C136 564 176 564 176 590 L176 590 Z M15 485 L26 485 C64 485 90 459 90 420 L90 156 C90 59 133 -5 215 -5 C275 -5 326 22 367 62 L367 0 L371 0 L462 25 L462 34 L451 37 C397 48 387 61 387 115 L387 500 L292 500 L292 485 L303 485 C341 485 367 459 367 420 L367 65 C332 31 287 8 231 8 C151 8 110 68 110 159 L110 500 L15 500 L15 485 L15 485 Z " />
<glyph glyph-name="ydieresis" unicode="&#xff;" horiz-adv-x="365" d="M318 590 C318 616 278 616 278 590 C278 564 318 564 318 590 L318 590 Z M154 590 C154 616 114 616 114 590 C114 564 154 564 154 590 L154 590 Z M423 500 L271 500 L271 485 L282 485 C316 485 333 461 326 425 L219 19 L121 426 C115 462 133 485 167 485 L178 485 L178 500 L9 500 L9 485 L20 485 C56 485 86 463 98 429 L210 -7 C208 -15 203 -37 192 -69 C163 -175 142 -216 116 -216 C116 -216 62 -175 62 -201 C62 -218 79 -229 104 -229 C140 -229 166 -185 197 -71 C210 -32 214 -9 214 -9 L332 428 C345 463 375 486 412 486 L423 486 L423 500 L423 500 Z " />
<glyph glyph-name="Amacron" unicode="&#x100;" horiz-adv-x="515" d="M149 789 L368 789 L368 800 L149 800 L149 789 L149 789 Z M320 0 L510 0 L510 15 C469 15 442 34 429 77 L261 691 L256 691 L250 668 L249 666 L249 665 L95 79 C84 41 52 16 15 16 L4 16 L4 1 L193 1 L193 16 L167 16 C119 16 96 48 108 96 L108 96 L146 245 L361 245 L406 75 C412 40 393 17 356 17 L319 17 L320 0 L320 0 Z M358 252 L146 252 L250 656 L358 252 L358 252 Z " />
<glyph glyph-name="amacron" unicode="&#x101;" horiz-adv-x="387" d="M63 614 L281 614 L281 625 L63 625 L63 614 L63 614 Z M365 34 C345 14 326 0 310 0 C280 0 272 22 272 54 L272 363 C272 448 240 505 192 505 C131 505 83 469 72 414 L92 414 C102 465 140 499 188 499 C226 499 251 446 251 367 L251 244 C230 241 184 233 153 225 C82 207 35 157 35 99 C35 36 67 -6 115 -6 C154 -6 207 28 251 80 L251 51 C251 14 261 -11 297 -11 C320 -11 343 5 368 30 L365 34 L365 34 Z M251 238 L251 84 C211 38 162 8 125 8 C83 8 55 47 55 105 C55 158 94 203 153 218 C189 227 232 235 252 238 L251 238 L251 238 Z " />
<glyph glyph-name="Abreve" unicode="&#x102;" horiz-adv-x="515" d="M193 887 C197 834 223 798 259 798 C295 798 321 834 325 887 L321 887 C318 841 293 811 259 811 C224 811 199 841 196 887 L193 887 L193 887 Z M320 0 L510 0 L510 15 C469 15 442 34 429 77 L261 691 L256 691 L250 668 L249 666 L249 665 L95 79 C84 41 52 16 15 16 L4 16 L4 1 L193 1 L193 16 L167 16 C119 16 96 48 108 96 L108 96 L146 245 L361 245 L406 75 C412 40 393 17 356 17 L319 17 L320 0 L320 0 Z M358 252 L146 252 L250 656 L358 252 L358 252 Z " />
<glyph glyph-name="abreve" unicode="&#x103;" horiz-adv-x="387" d="M106 682 C110 629 136 593 172 593 C208 593 234 629 238 682 L234 682 C231 636 206 606 172 606 C138 606 113 636 110 682 L106 682 L106 682 Z M365 34 C345 14 326 0 310 0 C280 0 272 22 272 54 L272 363 C272 448 240 505 192 505 C131 505 83 469 72 414 L92 414 C102 465 140 499 188 499 C226 499 251 446 251 367 L251 244 C230 241 184 233 153 225 C82 207 35 157 35 99 C35 36 67 -6 115 -6 C154 -6 207 28 251 80 L251 51 C251 14 261 -11 297 -11 C320 -11 343 5 368 30 L365 34 L365 34 Z M251 238 L251 84 C211 38 162 8 125 8 C83 8 55 47 55 105 C55 158 94 203 153 218 C189 227 232 235 252 238 L251 238 L251 238 Z " />
<glyph glyph-name="Aogonek" unicode="&#x104;" horiz-adv-x="515" d="M320 0 L417 0 C375 -21 297 -94 297 -157 C297 -201 332 -231 384 -231 C413 -231 444 -217 461 -197 L460 -195 C444 -214 416 -226 388 -226 C341 -226 309 -198 309 -155 C309 -88 391 -13 426 0 L510 0 L510 15 C469 15 442 34 429 77 L261 691 L256 691 L250 668 L249 666 L249 665 L95 79 C84 41 52 16 15 16 L4 16 L4 1 L193 1 L193 16 L167 16 C119 16 96 48 108 96 L108 96 L146 245 L361 245 L406 75 C412 40 393 17 356 17 L319 17 L320 0 L320 0 Z M358 252 L146 252 L250 656 L358 252 L358 252 Z " />
<glyph glyph-name="aogonek" unicode="&#x105;" horiz-adv-x="387" d="M330 6 C339 14 347 20 354 25 C345 17 337 11 329 7 L330 6 L330 6 Z M316 2 C282 -6 271 23 271 55 L271 364 C271 449 239 506 191 506 C130 506 82 470 71 415 L91 415 C101 466 139 500 187 500 C225 500 250 447 250 368 L250 245 C229 242 183 234 152 226 C81 208 34 158 34 100 C34 37 66 -5 114 -5 C153 -5 206 29 250 81 L250 52 C250 13 264 -17 306 -9 C271 -43 238 -91 238 -136 C238 -193 273 -231 325 -231 C354 -231 385 -217 402 -197 L401 -195 C385 -214 357 -226 329 -226 C282 -226 250 -189 250 -134 C250 -88 283 -39 316 -6 C332 0 349 13 367 31 L367 35 C366 35 364 35 363 34 C350 29 333 17 315 1 L316 2 L316 2 Z M249 239 L249 85 C209 39 160 9 123 9 C81 9 53 48 53 106 C53 159 92 204 151 219 C187 228 230 236 250 239 L249 239 L249 239 Z " />
<glyph glyph-name="Cacute" unicode="&#x106;" horiz-adv-x="646" d="M313 707 C313 707 389 798 420 838 C447 872 465 895 465 896 C465 898 457 904 453 904 C452 904 434 881 409 846 C378 806 310 708 310 708 L313 707 L313 707 Z M586 59 L584 62 C585 62 586 59 586 58 L586 59 L586 59 Z M573 188 L560 149 C531 64 457 5 373 1 C204 -6 96 133 96 338 C96 540 202 674 362 674 C364 674 403 673 403 671 C471 663 534 605 560 527 C564 515 570 498 574 486 L587 486 L587 616 C520 654 430 680 362 680 C188 680 72 543 72 338 C72 132 188 -5 362 -5 C430 -5 520 21 587 59 L587 189 L573 188 L573 188 Z " />
<glyph glyph-name="cacute" unicode="&#x107;" horiz-adv-x="373" d="M156 532 C156 532 232 623 263 663 C290 697 308 720 308 721 C308 723 300 729 296 729 C295 729 277 706 252 671 C221 631 153 533 153 533 L156 532 L156 532 Z M320 24 L319 26 C305 15 259 7 202 7 C123 7 71 103 71 246 C71 398 135 499 232 499 C270 499 299 461 304 403 C306 391 323 389 323 402 C318 464 282 505 234 505 C124 505 50 398 50 238 C50 92 104 -5 185 -5 C245 -5 299 7 320 24 L320 24 Z " />
<glyph glyph-name="Ccircumflex" unicode="&#x108;" horiz-adv-x="646" d="M367 914 C363 921 358 921 354 914 C354 914 246 694 260 711 L262 709 C265 713 338 853 360 895 C410 792 458 708 458 708 L460 710 C460 710 430 783 366 913 L367 914 L367 914 Z M585 58 L583 61 C584 61 585 58 585 57 L585 58 L585 58 Z M572 187 L559 148 C530 63 456 4 372 0 C203 -7 95 132 95 337 C95 539 201 673 361 673 C363 673 402 672 402 670 C470 662 533 604 559 526 C563 514 569 497 573 485 L586 485 L586 615 C519 653 429 679 361 679 C187 679 71 542 71 337 C71 131 187 -6 361 -6 C429 -6 519 20 586 58 L586 188 L572 187 L572 187 Z " />
<glyph glyph-name="Cdot" unicode="&#x10a;" horiz-adv-x="646" d="M381 765 C381 791 341 791 341 765 C341 739 381 739 381 765 L381 765 Z M586 59 L584 62 C585 62 586 59 586 58 L586 59 L586 59 Z M573 188 L560 149 C531 64 457 5 373 1 C204 -6 96 133 96 338 C96 540 202 674 362 674 C364 674 403 673 403 671 C471 663 534 605 560 527 C564 515 570 498 574 486 L587 486 L587 616 C520 654 430 680 362 680 C188 680 72 543 72 338 C72 132 188 -5 362 -5 C430 -5 520 21 587 59 L587 189 L573 188 L573 188 Z " />
<glyph glyph-name="cdot" unicode="&#x10b;" horiz-adv-x="373" d="M254 590 C254 616 214 616 214 590 C214 564 254 564 254 590 L254 590 Z M320 24 L319 26 C305 15 259 7 202 7 C123 7 71 103 71 246 C71 398 135 499 232 499 C270 499 299 461 304 403 C306 391 323 389 323 402 C318 464 282 505 234 505 C124 505 50 398 50 238 C50 92 104 -5 185 -5 C245 -5 299 7 320 24 L320 24 Z " />
<glyph glyph-name="Ccaron" unicode="&#x10c;" horiz-adv-x="646" d="M459 941 C459 941 411 857 361 754 C339 796 266 936 263 940 L261 938 C247 955 355 735 355 735 C359 728 364 728 368 735 C432 865 462 938 462 938 L459 941 L459 941 Z M587 58 L585 61 C586 61 587 58 587 57 L587 58 L587 58 Z M574 187 L561 148 C532 63 458 4 374 0 C205 -7 97 132 97 337 C97 539 203 673 363 673 C365 673 404 672 404 670 C472 662 535 604 561 526 C565 514 571 497 575 485 L588 485 L588 615 C521 653 431 679 363 679 C189 679 73 542 73 337 C73 131 189 -6 363 -6 C431 -6 521 20 588 58 L588 188 L574 187 L574 187 Z " />
<glyph glyph-name="ccaron" unicode="&#x10d;" horiz-adv-x="373" d="M332 766 C332 766 284 682 234 579 C212 621 139 761 136 765 L134 763 C120 780 228 560 228 560 C232 553 237 553 241 560 C305 690 335 763 335 763 L332 766 L332 766 Z M321 23 L320 25 C306 14 260 6 203 6 C124 6 72 102 72 245 C72 397 136 498 233 498 C271 498 300 460 305 402 C307 390 324 388 324 401 C319 463 283 504 235 504 C125 504 51 397 51 237 C51 91 105 -6 186 -6 C246 -6 300 6 321 23 L321 23 Z " />
<glyph glyph-name="Dcaron" unicode="&#x10e;" horiz-adv-x="585" d="M421 941 C421 941 373 857 323 755 C301 799 230 937 227 941 L225 939 C209 958 318 736 318 736 C321 729 327 729 331 736 C395 868 424 939 424 939 L421 941 L421 941 Z M60 660 L71 660 C109 660 135 634 135 595 L135 80 C135 41 109 15 71 15 L60 15 L60 0 L268 0 C429 0 536 135 536 338 C536 540 418 675 240 675 L60 675 L60 660 L60 660 Z M158 6 L158 669 L240 669 C404 669 514 537 514 338 C514 139 416 6 268 6 L158 6 L158 6 Z " />
<glyph glyph-name="dcaron" unicode="&#x10f;" horiz-adv-x="507" d="M491 754 C486 754 476 693 470 648 L446 487 L449 486 L483 644 C495 697 503 744 503 749 C503 753 495 754 491 754 L491 754 Z M302 686 L313 683 C367 672 377 659 377 605 L377 422 C351 468 292 505 228 505 C124 505 55 394 55 228 C55 88 121 -5 220 -5 C276 -5 338 20 376 56 L376 0 L380 0 L471 25 L471 34 L460 37 C406 48 396 61 396 115 L396 720 L392 720 L301 695 L302 686 L302 686 Z M376 60 C344 29 286 7 231 7 C138 7 76 99 76 236 C76 394 136 500 227 500 C295 500 355 459 377 410 L376 60 L376 60 Z " />
<glyph glyph-name="Emacron" unicode="&#x112;" horiz-adv-x="486" d="M129 789 L347 789 L347 800 L129 800 L129 789 L129 789 Z M306 272 L306 438 L294 438 L290 427 C278 389 237 363 186 363 L137 363 L137 669 L209 669 C269 669 322 629 342 569 L353 534 L364 534 L364 675 L40 675 L40 660 L51 660 C89 660 115 634 115 595 L115 80 C115 41 89 15 51 15 L40 15 L40 0 L372 0 L373 3 L372 3 C379 44 389 100 396 141 L385 141 L368 106 C338 46 278 6 218 6 L137 6 L137 357 L186 357 C237 357 278 328 290 285 L294 272 L306 272 L306 272 Z " />
<glyph glyph-name="emacron" unicode="&#x113;" horiz-adv-x="380" d="M99 614 L317 614 L317 625 L99 625 L99 614 L99 614 Z M327 24 L326 26 C312 15 264 7 205 7 C125 7 71 103 71 246 C71 277 73 305 77 331 L330 331 C330 435 281 505 208 505 C113 505 50 398 50 238 C50 92 106 -5 189 -5 C251 -5 306 7 327 24 L327 24 Z M311 347 C311 342 307 338 302 338 L78 335 C95 436 142 499 207 499 C269 499 311 438 311 347 L311 347 Z " />
<glyph glyph-name="Ebreve" unicode="&#x114;" horiz-adv-x="486" d="M172 887 C176 834 202 798 238 798 C274 798 300 834 304 887 L300 887 C297 841 272 811 238 811 C204 811 179 841 176 887 L172 887 L172 887 Z M306 272 L306 438 L294 438 L290 427 C278 389 237 363 186 363 L137 363 L137 669 L209 669 C269 669 322 629 342 569 L353 534 L364 534 L364 675 L40 675 L40 660 L51 660 C89 660 115 634 115 595 L115 80 C115 41 89 15 51 15 L40 15 L40 0 L372 0 L373 3 L372 3 C379 44 389 100 396 141 L385 141 L368 106 C338 46 278 6 218 6 L137 6 L137 357 L186 357 C237 357 278 328 290 285 L294 272 L306 272 L306 272 Z " />
<glyph glyph-name="ebreve" unicode="&#x115;" horiz-adv-x="380" d="M142 712 C146 659 172 623 208 623 C244 623 270 659 274 712 L270 712 C267 666 242 636 208 636 C174 636 149 666 146 712 L142 712 L142 712 Z M327 24 L326 26 C312 15 264 7 205 7 C125 7 71 103 71 246 C71 277 73 305 77 331 L330 331 C330 435 281 505 208 505 C113 505 50 398 50 238 C50 92 106 -5 189 -5 C251 -5 306 7 327 24 L327 24 Z M311 347 C311 342 307 338 302 338 L78 335 C95 436 142 499 207 499 C269 499 311 438 311 347 L311 347 Z " />
<glyph glyph-name="Edot" unicode="&#x116;" horiz-adv-x="486" d="M258 765 C258 791 218 791 218 765 C218 739 258 739 258 765 L258 765 Z M306 272 L306 438 L294 438 L290 427 C278 389 237 363 186 363 L137 363 L137 669 L209 669 C269 669 322 629 342 569 L353 534 L364 534 L364 675 L40 675 L40 660 L51 660 C89 660 115 634 115 595 L115 80 C115 41 89 15 51 15 L40 15 L40 0 L372 0 L373 3 L372 3 C379 44 389 100 396 141 L385 141 L368 106 C338 46 278 6 218 6 L137 6 L137 357 L186 357 C237 357 278 328 290 285 L294 272 L306 272 L306 272 Z " />
<glyph glyph-name="edot" unicode="&#x117;" horiz-adv-x="380" d="M228 590 C228 616 188 616 188 590 C188 564 228 564 228 590 L228 590 Z M327 24 L326 26 C312 15 264 7 205 7 C125 7 71 103 71 246 C71 277 73 305 77 331 L330 331 C330 435 281 505 208 505 C113 505 50 398 50 238 C50 92 106 -5 189 -5 C251 -5 306 7 327 24 L327 24 Z M311 347 C311 342 307 338 302 338 L78 335 C95 436 142 499 207 499 C269 499 311 438 311 347 L311 347 Z " />
<glyph glyph-name="Eogonek" unicode="&#x118;" horiz-adv-x="486" d="M306 272 L306 438 L294 438 L290 427 C278 389 237 363 186 363 L137 363 L137 669 L209 669 C269 669 322 629 342 569 L353 534 L364 534 L364 675 L40 675 L40 660 L51 660 C89 660 115 634 115 595 L115 80 C115 41 89 15 51 15 L40 15 L40 0 L362 0 C320 -21 242 -94 242 -157 C242 -201 277 -231 329 -231 C358 -231 389 -217 406 -197 L405 -195 C389 -214 361 -226 333 -226 C286 -226 254 -198 254 -155 C254 -88 336 -13 371 0 L372 0 L373 3 L372 3 C379 44 389 100 396 141 L385 141 L368 106 C338 46 278 6 218 6 L137 6 L137 357 L186 357 C237 357 278 328 290 285 L294 272 L306 272 L306 272 Z " />
<glyph glyph-name="eogonek" unicode="&#x119;" horiz-adv-x="380" d="M311 347 C311 342 307 338 302 338 L78 335 C95 436 142 499 207 499 C269 499 311 438 311 347 L311 347 Z M77 331 L330 331 C330 435 281 505 208 505 C113 505 50 398 50 238 C50 92 106 -5 189 -5 C195 -5 200 -5 205 -5 C162 -27 86 -98 86 -160 C86 -203 121 -231 173 -231 C202 -231 233 -217 250 -197 L249 -195 C233 -214 205 -226 177 -226 C130 -226 98 -199 98 -158 C98 -91 179 -18 214 -4 C265 -1 308 10 326 25 L325 27 C311 16 263 8 204 8 C124 8 70 104 70 247 C70 278 72 306 76 332 L77 331 L77 331 Z " />
<glyph glyph-name="Ecaron" unicode="&#x11a;" horiz-adv-x="486" d="M336 941 C336 941 288 857 238 754 C216 796 143 936 140 940 L138 938 C124 955 232 735 232 735 C236 728 241 728 245 735 C309 865 339 938 339 938 L336 941 L336 941 Z M307 271 L307 437 L295 437 L291 426 C279 388 238 362 187 362 L138 362 L138 668 L210 668 C270 668 323 628 343 568 L354 533 L365 533 L365 674 L41 674 L41 659 L52 659 C90 659 116 633 116 594 L116 79 C116 40 90 14 52 14 L41 14 L41 -1 L373 -1 L374 2 L373 2 C380 43 390 99 397 140 L386 140 L369 105 C339 45 279 5 219 5 L138 5 L138 356 L187 356 C238 356 279 327 291 284 L295 271 L307 271 L307 271 Z " />
<glyph glyph-name="ecaron" unicode="&#x11b;" horiz-adv-x="380" d="M306 766 C306 766 258 682 208 579 C186 621 113 761 110 765 L108 763 C94 780 202 560 202 560 C206 553 211 553 215 560 C279 690 309 763 309 763 L306 766 L306 766 Z M328 23 L327 25 C313 14 265 6 206 6 C126 6 72 102 72 245 C72 276 74 304 78 330 L331 330 C331 434 282 504 209 504 C114 504 51 397 51 237 C51 91 107 -6 190 -6 C252 -6 307 6 328 23 L328 23 Z M312 346 C312 341 308 337 303 337 L79 334 C96 435 143 498 208 498 C270 498 312 437 312 346 L312 346 Z " />
<glyph glyph-name="Gcircumflex" unicode="&#x11c;" horiz-adv-x="741" d="M356 914 C352 921 347 921 343 914 C343 914 235 694 249 711 L251 709 C254 713 327 853 349 895 C399 792 447 708 447 708 L449 710 C449 710 419 783 355 913 L356 914 L356 914 Z M565 485 L565 615 C498 653 412 679 349 679 C182 679 70 542 70 337 C70 131 182 -6 349 -6 C415 -6 503 20 570 58 L570 236 C570 275 596 301 634 301 L645 301 L645 316 L475 316 L475 301 L486 301 C524 301 550 275 550 236 L550 54 C487 21 409 0 349 0 C196 0 94 135 94 337 C94 539 196 673 349 673 C359 673 370 672 381 671 C449 663 511 605 538 526 C542 514 548 497 552 485 L565 485 L565 485 Z " />
<glyph glyph-name="Gbreve" unicode="&#x11e;" horiz-adv-x="741" d="M284 887 C288 834 314 798 350 798 C386 798 412 834 416 887 L412 887 C409 841 384 811 350 811 C316 811 291 841 288 887 L284 887 L284 887 Z M566 486 L566 616 C499 654 413 680 350 680 C183 680 71 543 71 338 C71 132 183 -5 350 -5 C416 -5 504 21 571 59 L571 237 C571 276 597 302 635 302 L646 302 L646 317 L476 317 L476 302 L487 302 C525 302 551 276 551 237 L551 55 C488 22 410 1 350 1 C197 1 95 136 95 338 C95 540 197 674 350 674 C360 674 371 673 382 672 C450 664 512 606 539 527 C543 515 549 498 553 486 L566 486 L566 486 Z " />
<glyph glyph-name="gbreve" unicode="&#x11f;" horiz-adv-x="380" d="M147 712 C151 659 177 623 213 623 C249 623 275 659 279 712 L275 712 C272 666 247 636 213 636 C179 636 154 666 151 712 L147 712 L147 712 Z M380 500 L256 499 C243 503 229 505 214 505 C132 505 77 444 77 352 C77 272 119 215 184 202 C109 202 58 171 58 123 C58 75 94 42 150 37 C79 1 33 -53 33 -101 L46 -98 C46 -49 89 4 155 36 C158 36 161 36 164 36 C164 36 214 39 203 39 C289 39 346 -4 346 -69 C346 -167 267 -232 149 -232 C87 -232 45 -179 45 -99 L32 -101 C32 -183 78 -237 147 -237 C275 -237 360 -166 360 -59 C360 11 299 58 208 58 L163 55 C107 55 70 85 70 129 C70 170 114 198 181 198 L213 198 C296 198 351 259 351 351 C351 417 322 467 275 490 L380 488 L380 500 L380 500 Z M213 202 C142 202 95 262 95 351 C95 440 142 500 213 500 C228 500 242 497 255 492 L255 490 L259 490 C305 470 334 419 334 350 C334 261 286 201 215 201 L213 202 L213 202 Z " />
<glyph glyph-name="Gdot" unicode="&#x120;" horiz-adv-x="741" d="M370 765 C370 791 330 791 330 765 C330 739 370 739 370 765 L370 765 Z M566 486 L566 616 C499 654 413 680 350 680 C183 680 71 543 71 338 C71 132 183 -5 350 -5 C416 -5 504 21 571 59 L571 237 C571 276 597 302 635 302 L646 302 L646 317 L476 317 L476 302 L487 302 C525 302 551 276 551 237 L551 55 C488 22 410 1 350 1 C197 1 95 136 95 338 C95 540 197 674 350 674 C360 674 371 673 382 672 C450 664 512 606 539 527 C543 515 549 498 553 486 L566 486 L566 486 Z " />
<glyph glyph-name="gdot" unicode="&#x121;" horiz-adv-x="380" d="M233 590 C233 616 193 616 193 590 C193 564 233 564 233 590 L233 590 Z M380 500 L256 499 C243 503 229 505 214 505 C132 505 77 444 77 352 C77 272 119 215 184 202 C109 202 58 171 58 123 C58 75 94 42 150 37 C79 1 33 -53 33 -101 L46 -98 C46 -49 89 4 155 36 C158 36 161 36 164 36 C164 36 214 39 203 39 C289 39 346 -4 346 -69 C346 -167 267 -232 149 -232 C87 -232 45 -179 45 -99 L32 -101 C32 -183 78 -237 147 -237 C275 -237 360 -166 360 -59 C360 11 299 58 208 58 L163 55 C107 55 70 85 70 129 C70 170 114 198 181 198 L213 198 C296 198 351 259 351 351 C351 417 322 467 275 490 L380 488 L380 500 L380 500 Z M213 202 C142 202 95 262 95 351 C95 440 142 500 213 500 C228 500 242 497 255 492 L255 490 L259 490 C305 470 334 419 334 350 C334 261 286 201 215 201 L213 202 L213 202 Z " />
<glyph glyph-name="Hcircumflex" unicode="&#x124;" horiz-adv-x="679" d="M346 914 C342 921 336 921 333 914 C333 914 224 692 240 711 L242 709 C245 713 316 851 338 895 C388 793 436 709 436 709 L438 711 C438 711 409 782 345 914 L346 914 L346 914 Z M638 15 L627 15 C589 15 563 41 563 80 L563 595 C563 634 589 660 627 660 L638 660 L638 675 L466 675 L466 660 L477 660 C515 660 541 634 541 595 L541 357 L136 357 L136 595 C136 634 162 660 200 660 L211 660 L211 675 L39 675 L39 660 L50 660 C88 660 114 634 114 595 L114 80 C114 41 88 15 50 15 L39 15 L39 0 L211 0 L211 15 L200 15 C162 15 136 41 136 80 L136 352 L541 352 L541 80 C541 41 515 15 477 15 L466 15 L466 0 L638 0 L638 15 L638 15 Z " />
<glyph glyph-name="Itilde" unicode="&#x128;" horiz-adv-x="252" d="M40 770 C40 813 51 842 67 842 C101 842 145 779 179 779 C201 779 216 809 216 853 L212 853 C212 816 200 792 183 792 C150 792 105 855 72 855 C50 855 36 821 36 770 L40 770 L40 770 Z M212 15 L201 15 C163 15 137 41 137 80 L137 595 C137 634 163 660 201 660 L212 660 L212 675 L40 675 L40 660 L51 660 C89 660 115 634 115 595 L115 80 C115 41 89 15 51 15 L40 15 L40 0 L212 0 L212 15 L212 15 Z " />
<glyph glyph-name="itilde" unicode="&#x129;" horiz-adv-x="260" d="M44 595 C44 638 55 667 71 667 C105 667 149 604 183 604 C205 604 220 634 220 678 L216 678 C216 641 204 617 187 617 C154 617 109 680 76 680 C54 680 40 646 40 595 L44 595 L44 595 Z M215 15 L204 15 C166 15 140 41 140 80 L140 500 L136 500 L45 475 L45 466 L56 463 C110 452 120 439 120 385 L120 80 C120 41 94 15 56 15 L45 15 L45 0 L215 0 L215 15 L215 15 Z " />
<glyph glyph-name="Imacron" unicode="&#x12a;" horiz-adv-x="252" d="M17 789 L235 789 L235 800 L17 800 L17 789 L17 789 Z M212 15 L201 15 C163 15 137 41 137 80 L137 595 C137 634 163 660 201 660 L212 660 L212 675 L40 675 L40 660 L51 660 C89 660 115 634 115 595 L115 80 C115 41 89 15 51 15 L40 15 L40 0 L212 0 L212 15 L212 15 Z " />
<glyph glyph-name="imacron" unicode="&#x12b;" horiz-adv-x="260" d="M21 614 L239 614 L239 625 L21 625 L21 614 L21 614 Z M215 15 L204 15 C166 15 140 41 140 80 L140 500 L136 500 L45 475 L45 466 L56 463 C110 452 120 439 120 385 L120 80 C120 41 94 15 56 15 L45 15 L45 0 L215 0 L215 15 L215 15 Z " />
<glyph glyph-name="Ibreve" unicode="&#x12c;" horiz-adv-x="252" d="M60 887 C64 834 90 798 126 798 C162 798 188 834 192 887 L188 887 C185 841 160 811 126 811 C92 811 67 841 64 887 L60 887 L60 887 Z M212 15 L201 15 C163 15 137 41 137 80 L137 595 C137 634 163 660 201 660 L212 660 L212 675 L40 675 L40 660 L51 660 C89 660 115 634 115 595 L115 80 C115 41 89 15 51 15 L40 15 L40 0 L212 0 L212 15 L212 15 Z " />
<glyph glyph-name="ibreve" unicode="&#x12d;" horiz-adv-x="260" d="M64 712 C68 659 94 623 130 623 C166 623 192 659 196 712 L192 712 C189 666 164 636 130 636 C96 636 71 666 68 712 L64 712 L64 712 Z M215 15 L204 15 C166 15 140 41 140 80 L140 500 L136 500 L45 475 L45 466 L56 463 C110 452 120 439 120 385 L120 80 C120 41 94 15 56 15 L45 15 L45 0 L215 0 L215 15 L215 15 Z " />
<glyph glyph-name="Idot" unicode="&#x130;" horiz-adv-x="252" d="M146 765 C146 791 106 791 106 765 C106 739 146 739 146 765 L146 765 Z M212 15 L201 15 C163 15 137 41 137 80 L137 595 C137 634 163 660 201 660 L212 660 L212 675 L40 675 L40 660 L51 660 C89 660 115 634 115 595 L115 80 C115 41 89 15 51 15 L40 15 L40 0 L212 0 L212 15 L212 15 Z " />
<glyph glyph-name="dotlessi" unicode="&#x131;" horiz-adv-x="260" d="M215 15 L204 15 C166 15 140 41 140 80 L140 500 L136 500 L45 475 L45 466 L56 463 C110 452 120 439 120 385 L120 80 C120 41 94 15 56 15 L45 15 L45 0 L215 0 L215 15 L215 15 Z " />
<glyph glyph-name="Jcircumflex" unicode="&#x134;" horiz-adv-x="267" d="M147 914 C143 921 137 921 134 914 C134 914 25 692 41 711 L43 709 C46 713 117 851 139 895 C189 793 237 709 237 709 L239 711 C239 711 210 782 146 914 L147 914 L147 914 Z M226 675 L53 675 L53 660 L64 660 C102 660 128 634 128 595 L128 205 C128 53 109 -6 61 -6 C44 -6 26 16 18 50 C16 61 -3 62 -1 50 C8 14 30 -10 55 -10 C123 -10 150 55 150 223 C151 222 151 465 151 595 C151 634 177 660 215 660 L226 660 L226 675 L226 675 Z " />
<glyph glyph-name="Lacute" unicode="&#x139;" horiz-adv-x="486" d="M100 707 C100 707 176 798 207 838 C234 872 252 895 252 896 C252 898 244 904 240 904 C239 904 221 881 196 846 C165 806 97 708 97 708 L100 707 L100 707 Z M380 156 L354 96 C331 42 281 6 227 6 L137 6 L137 595 C137 634 163 660 201 660 L212 660 L212 675 L40 675 L40 660 L51 660 C89 660 115 634 115 595 L115 80 C115 41 89 15 51 15 L40 15 L40 0 L371 0 L372 3 C380 46 390 104 398 148 C392 151 380 156 380 156 L380 156 Z " />
<glyph glyph-name="Lcaron" unicode="&#x13d;" horiz-adv-x="486" d="M305 709 C300 709 290 648 284 603 L260 442 L263 441 L297 599 C309 652 317 699 317 704 C317 708 309 709 305 709 L305 709 Z M380 156 L354 96 C331 42 281 6 227 6 L137 6 L137 595 C137 634 163 660 201 660 L212 660 L212 675 L40 675 L40 660 L51 660 C89 660 115 634 115 595 L115 80 C115 41 89 15 51 15 L40 15 L40 0 L371 0 L372 3 C380 46 390 104 398 148 C392 151 380 156 380 156 L380 156 Z " />
<glyph glyph-name="lcaron" unicode="&#x13e;" horiz-adv-x="260" d="M234 724 C229 724 219 663 213 618 L189 457 L192 456 L226 614 C238 667 246 714 246 719 C246 723 238 724 234 724 L234 724 Z M215 15 L204 15 C166 15 140 41 140 80 L140 720 L136 720 L45 695 L45 686 L56 683 C110 672 120 659 120 605 L120 80 C120 41 94 15 56 15 L45 15 L45 0 L215 0 L215 15 L215 15 Z " />
<glyph glyph-name="Lslash" unicode="&#x141;" horiz-adv-x="486" d="M40 0 L371 0 L372 3 C380 46 390 104 398 148 C392 151 380 156 380 156 L354 96 C331 42 281 6 227 6 L137 6 L137 323 L253 384 L253 391 L137 330 L137 595 C137 634 163 660 201 660 L212 660 L212 675 L40 675 L40 660 L51 660 C89 660 115 634 115 595 L115 318 L64 291 L64 284 L115 311 L115 80 C115 41 89 15 51 15 L40 15 L40 0 L40 0 Z " />
<glyph glyph-name="lslash" unicode="&#x142;" horiz-adv-x="260" d="M45 0 L215 0 L215 15 L204 15 C166 15 140 41 140 80 L140 362 L240 407 L240 413 L140 368 L140 720 L136 720 L45 695 L45 686 L56 683 C110 672 120 659 120 605 L120 358 L20 313 L20 307 L120 352 L120 80 C120 41 94 15 56 15 L45 15 L45 0 L45 0 Z " />
<glyph glyph-name="Nacute" unicode="&#x143;" horiz-adv-x="610" d="M275 707 C275 707 351 798 382 838 C409 872 427 895 427 896 C427 898 419 904 416 904 C415 904 397 881 372 846 C341 806 273 708 273 708 L275 707 L275 707 Z M45 660 L56 660 C94 660 120 634 120 595 L120 80 C120 41 94 15 56 15 L45 15 L45 0 L202 0 L202 15 L191 15 C153 15 127 41 127 80 L127 653 C247 434 368 216 486 -4 L495 -4 L495 595 C495 634 521 660 559 660 L570 660 L570 675 L414 675 L414 660 L425 660 C463 660 489 634 489 595 L489 34 L140 675 L45 675 L45 660 L45 660 Z M127 666 L127 666 L127 666 Z " />
<glyph glyph-name="nacute" unicode="&#x144;" horiz-adv-x="532" d="M190 532 C190 532 266 623 297 663 C324 697 342 720 342 721 C342 723 334 729 331 729 C330 729 312 706 287 671 C256 631 188 533 188 533 L190 532 L190 532 Z M322 0 L492 0 L492 15 L481 15 C443 15 417 41 417 80 L417 336 C417 437 388 505 314 505 C286 505 217 477 140 437 L140 500 L136 500 L45 475 L45 466 L56 463 C110 452 120 439 120 385 L120 80 C120 41 94 15 56 15 L45 15 L45 0 L215 0 L215 15 L204 15 C166 15 140 41 140 80 L140 434 C206 468 269 492 298 492 C369 492 397 428 397 333 L397 80 C397 41 371 15 333 15 L322 15 L322 0 L322 0 Z " />
<glyph glyph-name="Ncaron" unicode="&#x147;" horiz-adv-x="610" d="M405 941 C405 941 357 857 307 755 C285 799 214 937 211 941 L209 939 C193 958 302 736 302 736 C305 729 311 729 315 736 C379 868 408 939 408 939 L405 941 L405 941 Z M46 660 L57 660 C95 660 121 634 121 595 L121 80 C121 41 95 15 57 15 L46 15 L46 0 L203 0 L203 15 L192 15 C154 15 128 41 128 80 L128 653 C248 434 369 216 487 -4 L496 -4 L496 595 C496 634 522 660 560 660 L571 660 L571 675 L415 675 L415 660 L426 660 C464 660 490 634 490 595 L490 34 L141 675 L46 675 L46 660 L46 660 Z M128 666 L128 666 L128 666 Z " />
<glyph glyph-name="ncaron" unicode="&#x148;" horiz-adv-x="532" d="M366 766 C366 766 318 682 268 580 C246 624 175 762 172 766 L170 764 C154 783 263 561 263 561 C266 554 272 554 276 561 C340 693 369 764 369 764 L366 766 L366 766 Z M323 0 L493 0 L493 15 L482 15 C444 15 418 41 418 80 L418 336 C418 437 389 505 315 505 C287 505 218 477 141 437 L141 500 L137 500 L46 475 L46 466 L57 463 C111 452 121 439 121 385 L121 80 C121 41 95 15 57 15 L46 15 L46 0 L216 0 L216 15 L205 15 C167 15 141 41 141 80 L141 434 C207 468 270 492 299 492 C370 492 398 428 398 333 L398 80 C398 41 372 15 334 15 L323 15 L323 0 L323 0 Z " />
<glyph glyph-name="Omacron" unicode="&#x14c;" horiz-adv-x="678" d="M240 789 L459 789 L459 800 L240 800 L240 789 L240 789 Z M95 338 C95 519 182 674 350 674 C517 674 603 519 603 338 C603 156 517 1 350 1 C182 1 95 156 95 338 L95 338 Z M71 338 C71 153 166 -5 350 -5 C533 -5 628 153 628 338 C628 523 533 680 350 680 C166 680 71 523 71 338 L71 338 Z " />
<glyph glyph-name="omacron" unicode="&#x14d;" horiz-adv-x="499" d="M140 614 L359 614 L359 625 L140 625 L140 614 L140 614 Z M72 250 C72 401 143 501 250 501 C356 501 427 401 427 250 C427 99 356 -1 250 -1 C143 -1 72 99 72 250 L72 250 Z M50 250 C50 97 130 -5 250 -5 C369 -5 449 97 449 250 C449 403 369 505 250 505 C130 505 50 403 50 250 L50 250 Z " />
<glyph glyph-name="Obreve" unicode="&#x14e;" horiz-adv-x="678" d="M284 887 C288 834 314 798 350 798 C386 798 412 834 416 887 L412 887 C409 841 384 811 350 811 C315 811 290 841 287 887 L284 887 L284 887 Z M95 338 C95 519 182 674 350 674 C517 674 603 519 603 338 C603 156 517 1 350 1 C182 1 95 156 95 338 L95 338 Z M71 338 C71 153 166 -5 350 -5 C533 -5 628 153 628 338 C628 523 533 680 350 680 C166 680 71 523 71 338 L71 338 Z " />
<glyph glyph-name="obreve" unicode="&#x14f;" horiz-adv-x="499" d="M184 712 C188 659 214 623 250 623 C286 623 312 659 316 712 L312 712 C309 666 284 636 250 636 C215 636 190 666 187 712 L184 712 L184 712 Z M72 250 C72 401 143 501 250 501 C356 501 427 401 427 250 C427 99 356 -1 250 -1 C143 -1 72 99 72 250 L72 250 Z M50 250 C50 97 130 -5 250 -5 C369 -5 449 97 449 250 C449 403 369 505 250 505 C130 505 50 403 50 250 L50 250 Z " />
<glyph glyph-name="Racute" unicode="&#x154;" horiz-adv-x="511" d="M197 707 C197 707 273 798 304 838 C331 872 349 895 349 896 C349 898 341 904 338 904 C337 904 319 881 294 846 C263 806 195 708 195 708 L197 707 L197 707 Z M59 660 L70 660 C108 660 134 634 134 595 L134 80 C134 41 108 15 70 15 L59 15 L59 0 L232 0 L232 15 L221 15 C183 15 157 41 157 80 L157 326 L217 326 C233 305 298 222 390 106 C471 4 475 0 498 0 L510 0 L510 4 C494 4 497 5 420 102 C325 221 258 306 242 326 C346 331 415 399 415 499 C415 604 347 674 246 674 L57 674 L59 660 L59 660 Z M228 330 L155 331 L155 668 L246 668 C334 668 392 600 392 499 C392 398 326 330 228 330 L228 330 Z " />
<glyph glyph-name="Rcaron" unicode="&#x158;" horiz-adv-x="511" d="M373 941 C373 941 325 857 275 755 C253 799 182 937 179 941 L177 939 C161 958 270 736 270 736 C273 729 279 729 283 736 C347 868 376 939 376 939 L373 941 L373 941 Z M60 660 L71 660 C109 660 135 634 135 595 L135 80 C135 41 109 15 71 15 L60 15 L60 0 L233 0 L233 15 L222 15 C184 15 158 41 158 80 L158 326 L218 326 C234 305 299 222 391 106 C472 4 476 0 499 0 L511 0 L511 4 C495 4 498 5 421 102 C326 221 259 306 243 326 C347 331 416 399 416 499 C416 604 348 674 247 674 L58 674 L60 660 L60 660 Z M229 330 L156 331 L156 668 L247 668 C335 668 393 600 393 499 C393 398 327 330 229 330 L229 330 Z " />
<glyph glyph-name="rcaron" unicode="&#x159;" horiz-adv-x="323" d="M282 766 C282 766 234 682 184 580 C162 624 91 762 88 766 L86 764 C70 783 179 561 179 561 C182 554 188 554 192 561 C256 693 285 764 285 764 L282 766 L282 766 Z M46 466 L57 463 C111 452 121 439 121 385 L121 80 C121 41 95 15 57 15 L46 15 L46 0 L216 0 L216 15 L205 15 C167 15 141 41 141 80 L141 418 C175 461 212 490 234 490 C255 490 283 460 304 460 C310 460 314 464 314 470 C314 491 296 505 250 505 C224 505 180 472 141 421 L141 499 L137 499 L46 474 L46 466 L46 466 Z " />
<glyph glyph-name="Sacute" unicode="&#x15a;" horiz-adv-x="419" d="M145 707 C145 707 221 798 252 838 C279 872 297 895 297 896 C297 898 289 904 285 904 C284 904 266 881 241 846 C210 806 142 708 142 708 L145 707 L145 707 Z M344 495 L344 627 C289 659 229 680 194 680 C112 680 57 609 57 502 C57 436 115 367 201 329 C295 288 358 218 358 153 C358 62 308 1 233 1 C158 1 98 58 70 140 C66 152 61 168 57 180 L44 180 L44 48 L46 52 C46 51 45 49 44 48 C99 16 175 -5 233 -5 C318 -5 374 62 374 162 C374 231 311 305 217 346 C131 384 73 450 73 511 C73 615 128 691 215 673 C252 665 286 632 300 590 C309 562 322 524 331 496 L344 495 L344 495 Z " />
<glyph glyph-name="sacute" unicode="&#x15b;" horiz-adv-x="342" d="M90 532 C90 532 166 623 197 663 C224 697 242 720 242 721 C242 723 234 729 230 729 C229 729 211 706 186 671 C155 631 87 533 87 533 L90 532 L90 532 Z M268 377 L268 459 C221 486 183 503 168 505 C109 503 71 459 71 385 C71 335 111 278 172 243 C233 208 274 158 274 120 C274 48 238 0 185 0 C140 0 94 40 70 101 C67 109 62 120 59 128 L48 128 L48 36 L50 40 C50 39 49 37 48 36 C91 11 145 -5 184 -5 C248 -5 291 48 291 128 C291 169 249 221 186 257 C127 291 87 345 87 392 C87 457 119 501 167 501 C170 501 181 496 198 487 C218 472 235 445 245 410 C248 400 252 387 255 377 L268 377 L268 377 Z " />
<glyph glyph-name="Scircumflex" unicode="&#x15c;" horiz-adv-x="419" d="M199 914 C195 921 190 921 186 914 C186 914 78 694 92 711 L94 709 C97 713 170 853 192 895 C242 792 290 708 290 708 L292 710 C292 710 262 783 198 913 L199 914 L199 914 Z M343 494 L343 626 C288 658 228 679 193 679 C111 679 56 608 56 501 C56 435 114 366 200 328 C294 287 357 217 357 152 C357 61 307 0 232 0 C157 0 97 57 69 139 C65 151 60 167 56 179 L43 179 L43 47 L45 51 C45 50 44 48 43 47 C98 15 174 -6 232 -6 C317 -6 373 61 373 161 C373 230 310 304 216 345 C130 383 72 449 72 510 C72 614 127 690 214 672 C251 664 285 631 299 589 C308 561 321 523 330 495 L343 494 L343 494 Z " />
<glyph glyph-name="Scedilla" unicode="&#x15e;" horiz-adv-x="419" d="M344 495 L344 627 C289 659 229 680 194 680 C112 680 57 609 57 502 C57 436 115 367 201 329 C295 288 358 218 358 153 C358 62 308 1 233 1 C158 1 98 58 70 140 C66 152 61 168 57 180 L44 180 L44 48 L46 52 C46 51 45 49 44 48 C98 16 173 -5 231 -6 C229 -12 220 -45 207 -95 L209 -95 C223 -86 239 -80 249 -80 C273 -80 289 -102 289 -135 C289 -183 271 -215 245 -215 C220 -215 192 -207 177 -194 L177 -197 C195 -211 223 -221 249 -221 C280 -221 301 -187 301 -135 C301 -100 282 -76 254 -76 C242 -76 224 -82 210 -91 C225 -35 236 -11 238 -6 C320 -4 374 62 374 160 C374 229 311 303 217 344 C131 382 73 448 73 509 C73 613 128 689 215 671 C252 663 286 630 300 588 C309 560 322 522 331 494 L344 495 L344 495 Z " />
<glyph glyph-name="scedilla" unicode="&#x15f;" horiz-adv-x="342" d="M268 377 L268 459 C221 486 183 503 168 505 C109 503 71 459 71 385 C71 335 111 278 172 243 C233 208 274 158 274 120 C274 48 238 0 185 0 C140 0 94 40 70 101 C67 109 62 120 59 128 L48 128 L48 36 L50 40 C50 39 49 37 48 36 C90 11 143 -5 182 -6 C180 -12 171 -45 158 -95 L160 -95 C174 -86 190 -80 200 -80 C224 -80 240 -102 240 -135 C240 -183 222 -215 196 -215 C171 -215 143 -207 128 -194 L128 -197 C146 -211 174 -221 200 -221 C231 -221 252 -187 252 -135 C252 -100 233 -76 205 -76 C193 -76 175 -82 161 -91 C176 -35 187 -11 189 -6 C250 -4 291 48 291 126 C291 167 249 219 186 255 C127 289 87 343 87 390 C87 455 119 499 167 499 C170 499 181 494 198 485 C218 470 235 443 245 408 C248 398 252 385 255 375 L268 377 L268 377 Z " />
<glyph glyph-name="Scaron" unicode="&#x160;" horiz-adv-x="419" d="M291 941 C291 941 243 857 193 754 C171 796 98 936 95 940 L93 938 C79 955 187 735 187 735 C191 728 196 728 200 735 C264 865 294 938 294 938 L291 941 L291 941 Z M345 494 L345 626 C290 658 230 679 195 679 C113 679 58 608 58 501 C58 435 116 366 202 328 C296 287 359 217 359 152 C359 61 309 0 234 0 C159 0 99 57 71 139 C67 151 62 167 58 179 L45 179 L45 47 L47 51 C47 50 46 48 45 47 C100 15 176 -6 234 -6 C319 -6 375 61 375 161 C375 230 312 304 218 345 C132 383 74 449 74 510 C74 614 129 690 216 672 C253 664 287 631 301 589 C310 561 323 523 332 495 L345 494 L345 494 Z " />
<glyph glyph-name="scaron" unicode="&#x161;" horiz-adv-x="342" d="M266 766 C266 766 218 682 168 579 C146 621 73 761 70 765 L68 763 C54 780 162 560 162 560 C166 553 171 553 175 560 C239 690 269 763 269 763 L266 766 L266 766 Z M269 376 L269 458 C222 485 184 502 169 504 C110 502 72 458 72 384 C72 334 112 277 173 242 C234 207 275 157 275 119 C275 47 239 -1 186 -1 C141 -1 95 39 71 100 C68 108 63 119 60 127 L49 127 L49 35 L51 39 C51 38 50 36 49 35 C92 10 146 -6 185 -6 C249 -6 292 47 292 127 C292 168 250 220 187 256 C128 290 88 344 88 391 C88 456 120 500 168 500 C171 500 182 495 199 486 C219 471 236 444 246 409 C249 399 253 386 256 376 L269 376 L269 376 Z " />
<glyph glyph-name="Tcaron" unicode="&#x164;" horiz-adv-x="539" d="M368 941 C368 941 320 857 270 754 C248 796 175 936 172 940 L170 938 C156 955 264 735 264 735 C268 728 273 728 277 735 C341 865 371 938 371 938 L368 941 L368 941 Z M184 -1 L357 -1 L357 14 L346 14 C308 14 282 40 282 79 L282 668 L366 668 C414 668 460 636 479 588 L507 518 L519 518 C515 564 510 625 506 671 L505 671 L505 674 L36 674 L36 671 L35 671 C31 625 26 564 22 518 L34 518 L62 588 C81 636 127 668 175 668 L259 668 L259 79 C259 40 233 14 195 14 L184 14 L184 -1 L184 -1 Z " />
<glyph glyph-name="tcaron" unicode="&#x165;" horiz-adv-x="277" d="M247 500 L112 500 L112 640 L109 640 L96 523 C92 508 65 497 26 494 L26 492 L93 492 L93 110 C93 20 106 -5 153 -5 C188 -5 222 15 258 45 L257 46 C227 21 197 4 162 4 C124 4 113 26 113 106 L113 492 L248 492 L247 500 L247 500 Z M342 724 C337 724 327 663 321 618 L297 457 L300 456 L334 614 C346 667 354 714 354 719 C354 723 346 724 342 724 L342 724 Z " />
<glyph glyph-name="Utilde" unicode="&#x168;" horiz-adv-x="611" d="M229 770 C229 813 240 842 256 842 C290 842 334 779 368 779 C390 779 405 809 405 853 L401 853 C401 816 389 792 372 792 C339 792 294 855 261 855 C239 855 225 821 225 770 L229 770 L229 770 Z M591 675 L410 675 L410 660 L425 660 C468 660 497 633 499 591 L498 178 C498 73 448 3 321 3 C194 3 145 83 145 202 L146 595 L146 595 C146 634 172 660 210 660 L221 660 L221 675 L48 675 L48 660 L59 660 C97 660 123 634 123 595 L123 207 C123 80 178 -5 318 -5 C453 -5 505 67 505 176 L505 585 C505 630 534 660 577 660 L590 660 L591 675 L591 675 Z " />
<glyph glyph-name="utilde" unicode="&#x169;" horiz-adv-x="497" d="M152 595 C152 638 163 667 180 667 C214 667 258 604 292 604 C314 604 328 634 328 678 L325 678 C325 641 313 617 296 617 C262 617 218 680 184 680 C163 680 149 646 149 595 L152 595 L152 595 Z M15 485 L26 485 C64 485 90 459 90 420 L90 156 C90 59 133 -5 215 -5 C275 -5 326 22 367 62 L367 0 L371 0 L462 25 L462 34 L451 37 C397 48 387 61 387 115 L387 500 L292 500 L292 485 L303 485 C341 485 367 459 367 420 L367 65 C332 31 287 8 231 8 C151 8 110 68 110 159 L110 500 L15 500 L15 485 L15 485 Z " />
<glyph glyph-name="Umacron" unicode="&#x16a;" horiz-adv-x="611" d="M206 789 L424 789 L424 800 L206 800 L206 789 L206 789 Z M591 675 L410 675 L410 660 L425 660 C468 660 497 633 499 591 L498 178 C498 73 448 3 321 3 C194 3 145 83 145 202 L146 595 L146 595 C146 634 172 660 210 660 L221 660 L221 675 L48 675 L48 660 L59 660 C97 660 123 634 123 595 L123 207 C123 80 178 -5 318 -5 C453 -5 505 67 505 176 L505 585 C505 630 534 660 577 660 L590 660 L591 675 L591 675 Z " />
<glyph glyph-name="umacron" unicode="&#x16b;" horiz-adv-x="497" d="M129 614 L348 614 L348 625 L129 625 L129 614 L129 614 Z M15 485 L26 485 C64 485 90 459 90 420 L90 156 C90 59 133 -5 215 -5 C275 -5 326 22 367 62 L367 0 L371 0 L462 25 L462 34 L451 37 C397 48 387 61 387 115 L387 500 L292 500 L292 485 L303 485 C341 485 367 459 367 420 L367 65 C332 31 287 8 231 8 C151 8 110 68 110 159 L110 500 L15 500 L15 485 L15 485 Z " />
<glyph glyph-name="Ubreve" unicode="&#x16c;" horiz-adv-x="611" d="M249 887 C253 834 279 798 315 798 C351 798 377 834 381 887 L377 887 C374 841 349 811 315 811 C281 811 256 841 253 887 L249 887 L249 887 Z M591 675 L410 675 L410 660 L425 660 C468 660 497 633 499 591 L498 178 C498 73 448 3 321 3 C194 3 145 83 145 202 L146 595 L146 595 C146 634 172 660 210 660 L221 660 L221 675 L48 675 L48 660 L59 660 C97 660 123 634 123 595 L123 207 C123 80 178 -5 318 -5 C453 -5 505 67 505 176 L505 585 C505 630 534 660 577 660 L590 660 L591 675 L591 675 Z " />
<glyph glyph-name="ubreve" unicode="&#x16d;" horiz-adv-x="497" d="M173 712 C177 659 203 623 239 623 C275 623 301 659 305 712 L301 712 C298 666 273 636 239 636 C204 636 179 666 176 712 L173 712 L173 712 Z M15 485 L26 485 C64 485 90 459 90 420 L90 156 C90 59 133 -5 215 -5 C275 -5 326 22 367 62 L367 0 L371 0 L462 25 L462 34 L451 37 C397 48 387 61 387 115 L387 500 L292 500 L292 485 L303 485 C341 485 367 459 367 420 L367 65 C332 31 287 8 231 8 C151 8 110 68 110 159 L110 500 L15 500 L15 485 L15 485 Z " />
<glyph glyph-name="Uring" unicode="&#x16e;" horiz-adv-x="611" d="M227 803 C227 856 262 891 315 891 C368 891 403 856 403 803 C403 755 363 714 315 714 C267 714 227 755 227 803 L227 803 Z M221 803 C221 753 264 710 315 710 C366 710 409 753 409 803 C409 858 371 895 315 895 C259 895 221 858 221 803 L221 803 Z M591 675 L410 675 L410 660 L425 660 C468 660 497 633 499 591 L498 178 C498 73 448 3 321 3 C194 3 145 83 145 202 L146 595 L146 595 C146 634 172 660 210 660 L221 660 L221 675 L48 675 L48 660 L59 660 C97 660 123 634 123 595 L123 207 C123 80 178 -5 318 -5 C453 -5 505 67 505 176 L505 585 C505 630 534 660 577 660 L590 660 L591 675 L591 675 Z " />
<glyph glyph-name="uring" unicode="&#x16f;" horiz-adv-x="497" d="M151 628 C151 681 186 716 239 716 C291 716 326 681 326 628 C326 580 286 539 239 539 C191 539 151 580 151 628 L151 628 Z M145 628 C145 578 188 535 239 535 C289 535 332 578 332 628 C332 683 295 720 239 720 C183 720 145 683 145 628 L145 628 Z M15 485 L26 485 C64 485 90 459 90 420 L90 156 C90 59 133 -5 215 -5 C275 -5 326 22 367 62 L367 0 L371 0 L462 25 L462 34 L451 37 C397 48 387 61 387 115 L387 500 L292 500 L292 485 L303 485 C341 485 367 459 367 420 L367 65 C332 31 287 8 231 8 C151 8 110 68 110 159 L110 500 L15 500 L15 485 L15 485 Z " />
<glyph glyph-name="Wcircumflex" unicode="&#x174;" horiz-adv-x="720" d="M361 914 C357 921 351 921 348 914 C348 914 239 692 255 711 L257 709 C260 713 331 851 353 895 C403 793 451 709 451 709 L453 711 C453 711 424 782 360 914 L361 914 L361 914 Z M168 675 L-3 675 L-3 660 C33 660 58 643 71 605 L215 -15 L220 -15 L349 645 L492 -15 L498 -15 L628 595 C636 634 668 660 706 660 L717 660 L717 675 L534 675 L534 660 L571 660 C609 660 629 635 622 597 L500 22 L357 685 L352 685 L222 20 L94 604 C90 638 111 660 147 660 L169 660 L168 675 L168 675 Z " />
<glyph glyph-name="Ycircumflex" unicode="&#x176;" horiz-adv-x="487" d="M261 914 C257 921 252 921 248 914 C248 914 140 694 154 711 L156 709 C159 713 232 853 254 895 C304 792 352 708 352 708 L354 710 C354 710 324 783 260 913 L261 914 L261 914 Z M194 674 L28 674 L28 659 C61 659 86 642 104 604 L242 254 L242 79 C242 40 216 14 178 14 L167 14 L167 -1 L339 -1 L339 14 L328 14 C290 14 264 40 264 79 L264 266 L401 603 C421 642 450 659 489 659 L489 674 L314 674 L314 659 L333 659 C380 659 401 630 387 585 L258 266 L257 266 L130 602 C120 637 137 660 173 660 L192 660 L194 674 L194 674 Z " />
<glyph glyph-name="Ydieresis" unicode="&#x178;" horiz-adv-x="487" d="M357 765 C357 791 317 791 317 765 C317 739 357 739 357 765 L357 765 Z M193 765 C193 791 153 791 153 765 C153 739 193 739 193 765 L193 765 Z M195 675 L29 675 L29 660 C62 660 87 643 105 605 L243 255 L243 80 C243 41 217 15 179 15 L168 15 L168 0 L340 0 L340 15 L329 15 C291 15 265 41 265 80 L265 267 L402 604 C422 643 451 660 490 660 L490 675 L315 675 L315 660 L334 660 C381 660 402 631 388 586 L259 267 L258 267 L131 603 C121 638 138 661 174 661 L193 661 L195 675 L195 675 Z " />
<glyph glyph-name="Zacute" unicode="&#x179;" horiz-adv-x="511" d="M292 707 C292 707 368 798 399 838 C426 872 444 895 444 896 C444 898 436 904 432 904 C431 904 413 881 388 846 C357 806 289 708 289 708 L292 707 L292 707 Z M451 156 L425 96 C402 42 352 6 298 6 L90 6 L448 675 L137 675 C125 638 114 587 104 549 L116 549 L143 589 C174 637 228 669 276 669 L421 669 L63 0 L443 0 L444 3 C452 46 462 104 470 148 C464 151 452 156 452 156 L451 156 L451 156 Z " />
<glyph glyph-name="zacute" unicode="&#x17a;" horiz-adv-x="403" d="M135 532 C135 532 211 623 242 663 C269 697 287 720 287 721 C287 723 279 729 276 729 C275 729 257 706 232 671 C201 631 133 533 133 533 L135 532 L135 532 Z M356 155 L330 95 C307 41 257 5 203 5 L203 4 L90 4 L352 500 L70 500 L69 498 L69 498 C62 470 52 433 44 405 L56 405 L67 419 C103 465 160 495 208 495 L208 496 L326 496 L64 0 L346 0 L347 2 L347 2 C355 45 365 103 373 147 C367 150 355 155 355 155 L356 155 L356 155 Z " />
<glyph glyph-name="Zdot" unicode="&#x17b;" horiz-adv-x="511" d="M314 765 C314 791 274 791 274 765 C274 739 314 739 314 765 L314 765 Z M451 156 L425 96 C402 42 352 6 298 6 L90 6 L448 675 L137 675 C125 638 114 587 104 549 L116 549 L143 589 C174 637 228 669 276 669 L421 669 L63 0 L443 0 L444 3 C452 46 462 104 470 148 C464 151 452 156 452 156 L451 156 L451 156 Z " />
<glyph glyph-name="zdot" unicode="&#x17c;" horiz-adv-x="403" d="M234 590 C234 616 194 616 194 590 C194 564 234 564 234 590 L234 590 Z M356 155 L330 95 C307 41 257 5 203 5 L203 4 L90 4 L352 500 L70 500 L69 498 L69 498 C62 470 52 433 44 405 L56 405 L67 419 C103 465 160 495 208 495 L208 496 L326 496 L64 0 L346 0 L347 2 L347 2 C355 45 365 103 373 147 C367 150 355 155 355 155 L356 155 L356 155 Z " />
<glyph glyph-name="Zcaron" unicode="&#x17d;" horiz-adv-x="511" d="M392 941 C392 941 344 857 294 754 C272 796 199 936 196 940 L194 938 C180 955 288 735 288 735 C292 728 297 728 301 735 C365 865 395 938 395 938 L392 941 L392 941 Z M452 155 L426 95 C403 41 353 5 299 5 L91 5 L449 674 L138 674 C126 637 115 586 105 548 L117 548 L144 588 C175 636 229 668 277 668 L422 668 L64 -1 L444 -1 L445 2 C453 45 463 103 471 147 C465 150 453 155 453 155 L452 155 L452 155 Z " />
<glyph glyph-name="zcaron" unicode="&#x17e;" horiz-adv-x="403" d="M311 766 C311 766 263 682 213 580 C191 624 120 762 117 766 L115 764 C99 783 208 561 208 561 C211 554 217 554 221 561 C285 693 314 764 314 764 L311 766 L311 766 Z M357 155 L331 95 C308 41 258 5 204 5 L204 4 L91 4 L353 500 L71 500 L70 498 L70 498 C63 470 53 433 45 405 L57 405 L68 419 C104 465 161 495 209 495 L209 496 L327 496 L65 0 L347 0 L348 2 L348 2 C356 45 366 103 374 147 C368 150 356 155 356 155 L357 155 L357 155 Z " />
<glyph glyph-name="oogonek" unicode="&#x1eb;" horiz-adv-x="643" d="M631 -50 L629 -49 C599 -85 554 -109 516 -109 C462 -109 398 -67 335 -5 C506 -4 593 127 593 279 C593 432 505 563 333 563 C161 563 72 432 72 279 C72 127 159 -3 328 -6 C399 -76 465 -123 514 -123 C548 -123 595 -94 631 -51 L631 -50 L631 -50 Z M94 278 C94 429 175 557 333 557 C490 557 571 429 571 278 C571 127 490 -1 333 -1 C175 -1 94 127 94 278 L94 278 Z " />
<glyph glyph-name="Adotabove" unicode="&#x226;" horiz-adv-x="515" d="M279 765 C279 791 239 791 239 765 C239 739 279 739 279 765 L279 765 Z M320 0 L510 0 L510 15 C469 15 442 34 429 77 L261 691 L256 691 L250 668 L249 666 L249 665 L95 79 C84 41 52 16 15 16 L4 16 L4 1 L193 1 L193 16 L167 16 C119 16 96 48 108 96 L108 96 L146 245 L361 245 L406 75 C412 40 393 17 356 17 L319 17 L320 0 L320 0 Z M358 252 L146 252 L250 656 L358 252 L358 252 Z " />
<glyph glyph-name="G_sc" unicode="&#x262;" horiz-adv-x="706" d="M531 370 L531 500 L530 498 C530 499 531 500 531 501 C466 539 386 564 331 564 C176 564 72 450 72 280 C72 110 176 -4 331 -4 C387 -4 469 22 536 60 L536 183 C536 222 562 248 600 248 L611 248 L611 263 L443 263 L443 248 L454 248 C492 248 518 222 518 183 L518 56 C456 23 383 2 331 2 C189 2 94 114 94 281 C94 448 189 560 331 560 C332 560 347 560 347 559 C414 553 477 495 504 414 C508 401 514 385 518 372 L531 370 L531 370 Z " />
<glyph glyph-name="I_sc" unicode="&#x26a;" horiz-adv-x="251" d="M211 15 L200 15 C162 15 136 41 136 80 L136 478 C136 517 162 543 200 543 L211 543 L211 558 L41 558 L41 543 L52 543 C90 543 116 517 116 478 L116 80 C116 41 90 15 52 15 L41 15 L41 0 L211 0 L211 15 L211 15 Z " />
<glyph glyph-name="N_sc" unicode="&#x274;" horiz-adv-x="575" d="M46 543 L57 543 C95 543 121 517 121 478 L121 80 C121 41 95 15 57 15 L46 15 L46 0 L202 0 L202 15 L191 15 C153 15 127 41 127 80 L127 539 C235 358 345 178 451 -4 L460 -4 L460 478 C460 517 486 543 524 543 L535 543 L535 558 L379 558 L379 543 L390 543 C428 543 454 517 454 478 L454 30 L138 558 L46 558 L46 543 L46 543 Z " />
<glyph glyph-name="R_sc" unicode="&#x280;" horiz-adv-x="491" d="M60 543 L71 543 C109 543 135 517 135 478 L135 80 C135 41 109 15 71 15 L60 15 L60 0 L230 0 L230 15 L219 15 C181 15 155 41 155 80 L155 269 L197 269 C214 252 274 191 356 106 C455 4 460 0 480 0 L491 0 L491 4 C475 4 479 5 384 102 C299 189 238 252 221 269 C317 274 380 332 380 416 C380 501 316 558 221 558 L60 558 L60 543 L60 543 Z M208 274 L155 274 L155 553 L221 553 C304 553 359 498 359 416 C359 331 299 274 208 274 L208 274 Z " />
<glyph glyph-name="Y_sc" unicode="&#x28f;" horiz-adv-x="450" d="M193 558 L30 558 L30 543 C67 543 94 522 113 478 L227 211 L227 80 C227 41 201 15 163 15 L152 15 L152 0 L322 0 L322 15 L311 15 C273 15 247 41 247 80 L247 222 C285 307 322 393 360 478 C379 522 412 543 453 543 L453 558 L279 558 L279 543 L297 543 C348 543 367 509 345 458 L345 458 L242 222 L240 222 C206 307 170 393 137 478 C121 517 136 543 175 543 L194 543 L193 558 L193 558 Z " />
<glyph glyph-name="B_sc" unicode="&#x299;" horiz-adv-x="450" d="M241 301 C231 302 221 302 210 302 L155 301 L155 553 L220 553 C303 553 358 506 358 435 C358 364 313 313 242 301 L241 301 L241 301 Z M237 297 C342 288 410 233 410 153 C410 65 340 6 236 6 L156 6 L156 296 L208 296 C218 296 228 297 237 298 L237 297 L237 297 Z M61 544 L72 544 C110 544 136 518 136 479 L136 81 C136 42 110 16 72 16 L61 16 L61 1 L238 1 C354 1 431 62 431 153 C431 232 363 288 257 300 C332 315 379 366 379 436 C379 510 316 559 221 559 L61 559 L61 544 L61 544 Z " />
<glyph glyph-name="H_sc" unicode="&#x29c;" horiz-adv-x="644" d="M604 15 L593 15 C555 15 529 41 529 80 L529 478 C529 517 555 543 593 543 L604 543 L604 558 L434 558 L434 543 L445 543 C483 543 509 517 509 478 L509 298 L136 298 L136 478 C136 517 162 543 200 543 L211 543 L211 558 L41 558 L41 543 L52 543 C90 543 116 517 116 478 L116 80 C116 41 90 15 52 15 L41 15 L41 0 L211 0 L211 15 L200 15 C162 15 136 41 136 80 L136 293 L509 293 L509 80 C509 41 483 15 445 15 L434 15 L434 0 L604 0 L604 15 L604 15 Z " />
<glyph glyph-name="L_sc" unicode="&#x29f;" horiz-adv-x="458" d="M352 155 L326 95 C304 41 254 5 200 5 L136 5 L136 478 C136 517 162 543 200 543 L211 543 L211 558 L41 558 L41 543 L52 543 C90 543 116 517 116 478 L116 80 C116 41 90 15 52 15 L41 15 L41 0 L344 0 L345 3 L344 3 C352 46 362 103 370 147 C364 150 352 155 352 155 L352 155 Z " />
<glyph glyph-name="circumflex" unicode="&#x2c6;" horiz-adv-x="238" d="M126 739 C123 746 117 746 113 739 C113 739 5 519 19 536 L21 534 C26 540 97 677 119 720 C169 618 217 534 217 534 L219 536 C219 536 190 607 126 739 L126 739 Z " />
<glyph glyph-name="caron" unicode="&#x2c7;" horiz-adv-x="238" d="M217 766 C217 766 169 682 119 580 C97 623 26 760 21 766 L19 764 C5 781 113 561 113 561 C117 554 123 554 126 561 C190 693 219 764 219 764 L217 766 L217 766 Z " />
<glyph glyph-name="firsttonechinese" unicode="&#x2c9;" horiz-adv-x="238" d="M10 614 L229 614 L229 625 L10 625 L10 614 L10 614 Z " />
<glyph glyph-name="breve" unicode="&#x2d8;" horiz-adv-x="238" d="M53 712 C57 659 83 623 119 623 C155 623 181 659 185 712 L181 712 C178 666 153 636 119 636 C85 636 60 666 57 712 L53 712 L53 712 Z " />
<glyph glyph-name="dotaccent" unicode="&#x2d9;" horiz-adv-x="238" d="M139 590 C139 616 99 616 99 590 C99 564 139 564 139 590 L139 590 Z " />
<glyph glyph-name="ring" unicode="&#x2da;" horiz-adv-x="238" d="M31 628 C31 681 66 716 119 716 C172 716 207 681 207 628 C207 580 167 539 119 539 C71 539 31 580 31 628 L31 628 Z M26 628 C26 578 69 535 119 535 C170 535 213 578 213 628 C213 683 175 720 119 720 C63 720 26 683 26 628 L26 628 Z " />
<glyph glyph-name="A_sc" unicode="&#x1d00;" horiz-adv-x="476" d="M284 0 L471 0 L471 15 C431 15 404 33 389 73 L242 571 L237 571 L96 73 C83 38 52 15 16 15 L4 15 L4 0 L192 0 L192 15 L166 15 C118 15 96 47 109 95 L109 95 L139 202 L332 202 L369 75 C377 39 359 15 322 15 L285 15 L284 0 L284 0 Z M331 207 L141 207 L234 541 L331 207 L331 207 Z " />
<glyph glyph-name="C_sc" unicode="&#x1d04;" horiz-adv-x="611" d="M551 59 L549 62 L549 62 L551 59 L551 59 Z M537 189 L524 150 C494 60 421 0 341 0 C192 0 93 112 93 279 C93 446 192 558 341 558 C353 558 366 557 379 555 C441 543 498 487 523 411 C527 399 533 382 537 370 L550 370 L550 500 L549 498 C549 499 550 500 550 501 C485 539 401 564 341 564 C179 564 71 450 71 280 C71 110 179 -4 341 -4 C400 -4 483 22 550 60 L550 190 L537 189 L537 189 Z " />
<glyph glyph-name="D_sc" unicode="&#x1d05;" horiz-adv-x="548" d="M60 543 L71 543 C109 543 135 517 135 478 L135 80 C135 41 109 15 71 15 L60 15 L60 0 L238 0 C394 0 498 112 498 279 C498 446 386 558 217 558 L60 558 L60 543 L60 543 Z M155 5 L155 553 L217 553 C374 553 478 443 478 279 C478 115 382 5 238 5 L155 5 L155 5 Z " />
<glyph glyph-name="E_sc" unicode="&#x1d07;" horiz-adv-x="458" d="M278 210 L278 375 L266 375 L262 364 C250 326 209 300 158 300 L136 300 L136 553 L180 553 C240 553 293 513 313 453 L324 418 L335 418 L335 558 L41 558 L41 543 L52 543 C90 543 116 517 116 478 L116 80 C116 41 90 15 52 15 L41 15 L41 0 L344 0 L345 3 L344 3 C351 44 361 99 368 140 L357 140 L340 105 C310 45 250 5 190 5 L136 5 L136 295 L158 295 C209 295 250 266 262 223 L266 210 L278 210 L278 210 Z " />
<glyph glyph-name="J_sc" unicode="&#x1d0a;" horiz-adv-x="232" d="M192 558 L22 558 L22 543 L33 543 C71 543 97 517 97 478 L97 169 C97 43 83 -6 48 -6 C38 -6 25 16 17 50 C15 60 -2 60 0 49 C9 13 26 -11 43 -11 C96 -11 117 44 117 185 L117 477 C117 516 143 542 181 542 L192 542 L192 558 L192 558 Z " />
<glyph glyph-name="K_sc" unicode="&#x1d0b;" horiz-adv-x="506" d="M230 558 L60 558 L60 543 L71 543 C109 543 135 517 135 478 L135 80 C135 41 109 15 71 15 L60 15 L60 0 L230 0 L230 15 L219 15 C181 15 155 41 155 80 L155 300 L158 296 L158 296 C169 285 204 247 253 195 C387 51 452 -5 485 -5 L496 -5 L496 -1 C469 -1 412 55 267 210 C218 262 183 300 172 312 C225 367 277 423 330 478 C367 517 417 543 455 543 L466 543 L466 558 L325 558 L325 543 L334 543 C365 543 361 517 324 478 L169 315 L169 315 L155 300 L155 478 C155 517 181 543 219 543 L230 543 L230 558 L230 558 Z " />
<glyph glyph-name="M_sc" unicode="&#x1d0d;" horiz-adv-x="674" d="M634 559 L551 559 L551 558 L542 558 L345 -5 L350 -5 L543 541 L566 79 C567 41 543 16 506 16 L495 16 L495 1 L664 1 L664 16 L653 16 C615 16 588 42 586 81 L586 81 L564 486 C565 521 588 544 623 544 L634 544 L634 559 L634 559 Z M42 0 L232 0 L232 15 L203 15 C157 15 127 44 126 88 L146 531 C212 352 278 173 345 -5 L354 22 L354 23 L156 558 L66 558 L66 543 L77 543 C115 543 139 517 137 478 L137 478 L119 72 C114 37 88 14 53 14 L42 14 L42 0 L42 0 Z " />
<glyph glyph-name="O_sc" unicode="&#x1d0f;" horiz-adv-x="643" d="M94 279 C94 430 175 558 333 558 C490 558 571 430 571 279 C571 128 490 0 333 0 C175 0 94 128 94 279 L94 279 Z M72 279 C72 126 161 -5 333 -5 C505 -5 593 126 593 279 C593 432 505 563 333 563 C161 563 72 432 72 279 L72 279 Z " />
<glyph glyph-name="P_sc" unicode="&#x1d18;" horiz-adv-x="434" d="M230 15 L219 15 C181 15 155 41 155 80 L155 254 L216 254 C335 254 414 314 414 404 C414 496 341 558 232 558 L60 558 L60 543 L71 543 C109 543 135 517 135 478 L135 80 C135 41 109 15 71 15 L60 15 L60 0 L230 0 L230 15 L230 15 Z M155 259 L155 553 L232 553 C329 553 393 493 393 404 C393 317 322 259 216 259 L155 259 L155 259 Z " />
<glyph glyph-name="T_sc" unicode="&#x1d1b;" horiz-adv-x="503" d="M167 0 L337 0 L337 15 L326 15 C288 15 262 41 262 80 L262 553 L328 553 C376 553 422 521 441 473 L469 403 L481 403 C477 449 472 510 468 556 L468 558 L35 558 L35 556 C31 510 26 449 22 403 L34 403 L62 473 C81 521 127 553 175 553 L242 553 L242 80 C242 41 216 15 178 15 L167 15 L167 0 L167 0 Z " />
<glyph glyph-name="U_sc" unicode="&#x1d1c;" horiz-adv-x="577" d="M557 558 L376 558 L376 543 L391 543 C436 543 466 513 466 468 L466 147 C466 60 421 2 305 2 C190 2 145 68 145 166 L145 478 C145 517 171 543 209 543 L220 543 L220 558 L50 558 L50 543 L61 543 C99 543 125 517 125 478 L125 170 C125 65 175 -5 302 -5 C424 -5 472 55 472 145 L472 468 C472 513 501 543 544 543 L557 543 L557 558 L557 558 Z " />
<glyph glyph-name="V_sc" unicode="&#x1d20;" horiz-adv-x="483" d="M484 558 L287 558 L287 543 L308 543 C362 543 391 509 383 458 L272 12 L124 483 C115 519 133 543 170 543 L200 543 L200 558 L23 558 L23 543 C61 543 89 522 104 478 L104 478 L265 -15 L270 -15 C311 149 352 314 394 478 C404 517 436 543 474 543 L485 543 L484 558 L484 558 Z " />
<glyph glyph-name="W_sc" unicode="&#x1d21;" horiz-adv-x="647" d="M167 558 L-1 558 L-1 543 C36 543 60 525 73 485 L196 -15 L201 -15 L313 536 L438 -15 L443 -15 L554 478 C563 517 594 543 632 543 L644 543 L644 558 L461 558 L461 543 L498 543 C537 543 557 517 548 478 L548 478 L445 16 L319 568 L314 568 L202 14 L94 486 C89 521 109 544 145 544 L167 544 L167 558 L167 558 Z " />
<glyph glyph-name="Z_sc" unicode="&#x1d22;" horiz-adv-x="475" d="M416 155 L390 95 C368 41 318 5 264 5 L88 5 L412 558 L138 558 L137 556 L137 556 C127 519 114 470 104 433 L116 433 L143 473 C175 521 229 553 277 553 L386 553 L62 0 L408 0 L409 3 L408 3 C416 46 426 103 434 147 C428 150 416 155 416 155 L416 155 Z " />
<glyph glyph-name="Wgrave" unicode="&#x1e80;" horiz-adv-x="720" d="M273 896 C273 893 291 870 319 838 C351 798 429 707 429 707 L431 708 C431 708 361 805 329 846 C304 881 286 904 284 904 C281 904 273 898 273 896 L273 896 Z M169 675 L-2 675 L-2 660 C34 660 59 643 72 605 L216 -15 L221 -15 L350 645 L493 -15 L499 -15 L629 595 C637 634 669 660 707 660 L718 660 L718 675 L535 675 L535 660 L572 660 C610 660 630 635 623 597 L501 22 L358 685 L353 685 L223 20 L95 604 C91 638 112 660 148 660 L170 660 L169 675 L169 675 Z " />
<glyph glyph-name="Wacute" unicode="&#x1e82;" horiz-adv-x="720" d="M291 707 C291 707 367 798 398 838 C425 872 443 895 443 896 C443 898 435 904 432 904 C431 904 413 881 388 846 C357 806 289 708 289 708 L291 707 L291 707 Z M169 675 L-2 675 L-2 660 C34 660 59 643 72 605 L216 -15 L221 -15 L350 645 L493 -15 L499 -15 L629 595 C637 634 669 660 707 660 L718 660 L718 675 L535 675 L535 660 L572 660 C610 660 630 635 623 597 L501 22 L358 685 L353 685 L223 20 L95 604 C91 638 112 660 148 660 L170 660 L169 675 L169 675 Z " />
<glyph glyph-name="Wdieresis" unicode="&#x1e84;" horiz-adv-x="720" d="M457 765 C457 791 417 791 417 765 C417 739 457 739 457 765 L457 765 Z M292 765 C292 791 252 791 252 765 C252 739 292 739 292 765 L292 765 Z M169 675 L-2 675 L-2 660 C34 660 59 643 72 605 L216 -15 L221 -15 L350 645 L493 -15 L499 -15 L629 595 C637 634 669 660 707 660 L718 660 L718 675 L535 675 L535 660 L572 660 C610 660 630 635 623 597 L501 22 L358 685 L353 685 L223 20 L95 604 C91 638 112 660 148 660 L170 660 L169 675 L169 675 Z " />
<glyph glyph-name="Etilde" unicode="&#x1ebc;" horiz-adv-x="486" d="M152 770 C152 813 163 842 179 842 C213 842 257 779 291 779 C313 779 328 809 328 853 L324 853 C324 816 312 792 295 792 C262 792 217 855 184 855 C162 855 148 821 148 770 L152 770 L152 770 Z M306 272 L306 438 L294 438 L290 427 C278 389 237 363 186 363 L137 363 L137 669 L209 669 C269 669 322 629 342 569 L353 534 L364 534 L364 675 L40 675 L40 660 L51 660 C89 660 115 634 115 595 L115 80 C115 41 89 15 51 15 L40 15 L40 0 L372 0 L373 3 L372 3 C379 44 389 100 396 141 L385 141 L368 106 C338 46 278 6 218 6 L137 6 L137 357 L186 357 C237 357 278 328 290 285 L294 272 L306 272 L306 272 Z " />
<glyph glyph-name="Ygrave" unicode="&#x1ef2;" horiz-adv-x="487" d="M173 896 C173 893 191 870 219 838 C251 798 329 707 329 707 L332 708 C332 708 262 805 230 846 C205 881 187 904 185 904 C181 904 173 898 173 896 L173 896 Z M195 675 L29 675 L29 660 C62 660 87 643 105 605 L243 255 L243 80 C243 41 217 15 179 15 L168 15 L168 0 L340 0 L340 15 L329 15 C291 15 265 41 265 80 L265 267 L402 604 C422 643 451 660 490 660 L490 675 L315 675 L315 660 L334 660 C381 660 402 631 388 586 L259 267 L258 267 L131 603 C121 638 138 661 174 661 L193 661 L195 675 L195 675 Z " />
<glyph glyph-name="quoteleft" unicode="&#x2018;" horiz-adv-x="151" d="M79 580 C107 580 101 625 73 617 C69 642 77 669 93 676 L91 680 C71 670 57 645 57 618 C57 598 60 579 79 579 L79 580 L79 580 Z " />
<glyph glyph-name="quoteright" unicode="&#x2019;" horiz-adv-x="151" d="M79 680 C51 680 57 635 85 643 C89 618 81 591 65 584 L67 580 C87 590 101 615 101 642 C101 662 98 681 79 681 L79 680 L79 680 Z " />
<glyph glyph-name="quotedblleft" unicode="&#x201c;" horiz-adv-x="206" d="M134 580 C162 580 156 625 128 617 C124 642 132 669 148 676 L146 680 C126 670 112 645 112 618 C112 598 115 579 134 579 L134 580 L134 580 Z M79 579 C107 579 101 624 73 616 C69 641 77 668 93 675 L91 679 C71 669 57 644 57 617 C57 597 60 578 79 578 L79 579 L79 579 Z " />
<glyph glyph-name="quotedblright" unicode="&#x201d;" horiz-adv-x="206" d="M134 680 C106 680 112 635 140 643 C144 618 136 591 120 584 L122 580 C142 590 156 615 156 642 C156 662 153 681 134 681 L134 680 L134 680 Z M79 681 C51 681 57 636 85 644 C89 619 81 592 65 585 L67 581 C87 591 101 616 101 643 C101 663 98 682 79 682 L79 681 L79 681 Z " />
<glyph glyph-name="ellipsis" unicode="&#x2026;" horiz-adv-x="420" d="M370 20 C370 46 330 46 330 20 C330 -6 370 -6 370 20 L370 20 Z M230 20 C230 46 190 46 190 20 C190 -6 230 -6 230 20 L230 20 Z M90 20 C90 46 50 46 50 20 C50 -6 90 -6 90 20 L90 20 Z " />
<glyph glyph-name="perthousand" unicode="&#x2030;" horiz-adv-x="979" d="M740 187 C740 296 780 369 841 369 C905 369 948 293 948 179 C948 73 907 2 846 2 C782 2 740 76 740 187 L740 187 Z M720 183 C720 70 770 -5 844 -5 C918 -5 967 71 967 186 C967 299 918 375 844 375 C770 375 720 298 720 183 L720 183 Z M50 538 C50 647 90 719 151 719 C215 719 258 643 258 530 C258 423 217 352 156 352 C92 352 50 426 50 538 L50 538 Z M30 534 C30 421 80 345 154 345 C228 345 277 422 277 537 C277 650 228 725 154 725 C80 725 30 649 30 534 L30 534 Z M472 187 C472 296 512 369 571 369 C637 369 681 293 681 179 C681 73 639 2 576 2 C514 2 472 76 472 187 L472 187 Z M452 183 C452 70 501 -5 574 -5 C649 -5 699 71 699 186 C699 299 649 375 574 375 C501 375 452 298 452 183 L452 183 Z M158 -3 L583 717 L574 723 L149 3 L158 -3 L158 -3 Z " />
<glyph glyph-name="guilsinglleft" unicode="&#x2039;" horiz-adv-x="208" d="M40 250 L163 461 L160 464 L20 251 L20 249 L161 37 L163 39 L40 250 L40 250 Z " />
<glyph glyph-name="guilsinglright" unicode="&#x203a;" horiz-adv-x="208" d="M47 37 L188 249 L188 251 L48 464 L45 461 L168 250 L45 39 L47 37 L47 37 Z " />
<glyph glyph-name="fraction" unicode="&#x2044;" horiz-adv-x="462" d="M35 -3 L459 717 L450 723 L25 3 L35 -3 L35 -3 Z " />
<glyph glyph-name="Euro" unicode="&#x20ac;" horiz-adv-x="675" d="M602 189 L589 150 C560 65 486 6 402 2 C244 -4 139 117 126 300 L434 300 L436 314 L126 314 C125 330 125 347 126 363 L436 363 L438 377 L126 377 C139 557 241 674 390 674 C392 674 431 673 431 671 C499 663 562 605 588 527 C592 515 598 498 602 486 L615 486 L615 616 C548 654 458 680 390 680 C227 680 115 560 101 377 L52 377 L50 363 L101 363 C100 347 100 330 101 314 L50 314 L48 300 L101 300 C115 116 227 -4 390 -4 C458 -4 548 22 615 60 L613 63 C614 63 615 60 615 59 L615 189 L602 189 L602 189 Z " />
<glyph glyph-name="F_sc" unicode="&#xa730;" horiz-adv-x="373" d="M41 543 L52 543 C90 543 116 517 116 478 L116 80 C116 41 90 15 52 15 L41 15 L41 0 L221 0 L221 15 L201 15 C162 15 136 41 136 80 L136 291 L148 291 C199 291 240 262 252 219 L256 206 L268 206 L268 371 L256 371 L252 360 C240 322 199 296 148 296 L136 296 L136 553 L210 553 C270 553 323 513 343 453 L354 418 L365 418 L365 558 L41 558 L41 543 L41 543 Z " />
<glyph glyph-name="S_sc" unicode="&#xa731;" horiz-adv-x="383" d="M308 379 L308 510 L307 507 C306 508 308 509 308 510 C253 542 201 563 178 563 C106 563 58 504 58 416 C58 359 108 302 182 272 C267 238 323 180 323 126 C323 50 279 0 212 0 C155 0 99 56 71 139 C67 151 61 168 57 180 L44 180 L44 48 L46 52 C46 51 45 49 44 48 C99 16 166 -5 212 -5 C288 -5 338 51 338 134 C338 191 281 252 196 286 C121 316 71 371 71 424 C71 504 113 558 177 558 C181 558 186 557 192 556 C222 547 249 516 263 474 C273 445 285 407 295 378 L308 379 L308 379 Z " />
<glyph glyph-name="X_sc" unicode="&#xf078;" horiz-adv-x="500" d="M220 558 L50 558 L50 543 C87 543 117 522 142 478 L142 478 C180 411 219 343 256 276 C225 211 194 145 162 80 C143 41 105 15 67 15 L56 15 L56 0 L239 0 L239 15 L216 15 C170 15 153 45 173 90 L259 272 L371 74 C389 38 377 14 340 14 L313 14 L313 -1 L483 -1 L483 14 C446 14 416 35 391 79 L391 79 L270 293 C306 354 341 416 377 477 C400 516 440 542 478 542 L489 542 L489 557 L308 557 L308 542 L344 542 C383 542 394 516 372 477 L372 477 L268 296 L163 482 C145 518 157 542 194 542 L221 542 L220 558 L220 558 Z " />
</font>
</svg>
