<?xml version="1.0" encoding="UTF-8"?>
<svg xmlns="http://www.w3.org/2000/svg" xmlns:xlink="http://www.w3.org/1999/xlink" version="1.2" >
<font id="Gunma Bold">
<font-face  font-family="Gunma" units-per-em="1024" ascent="975" descent="-300" font-style="normal" font-weight="700" font-stretch="normal" cap-height="1046" x-height="488" underline-position="-125" underline-thickness="50" />
<missing-glyph  horiz-adv-x="100" d="" />
<glyph glyph-name="NULL" d="" />
<glyph glyph-name="CR" unicode="&#xd;" horiz-adv-x="256" d="" />
<glyph glyph-name="space" unicode="&#x20;" horiz-adv-x="208" d="" />
<glyph glyph-name="exclam" unicode="&#x21;" horiz-adv-x="281" d="M140 -5 C188 -5 220 27 220 75 C220 123 188 155 140 155 C92 155 60 123 60 75 C60 27 92 -5 140 -5 L140 -5 Z M140 755 C85 755 60 706 70 632 L130 210 L151 210 L211 632 C221 706 195 755 140 755 L140 755 Z " />
<glyph glyph-name="quotedbl" unicode="&#x22;" horiz-adv-x="291" d="M208 750 C182 750 168 732 175 705 L215 560 L229 560 L269 705 C276 732 262 750 236 750 L208 750 L208 750 Z M88 750 C62 750 48 732 55 705 L95 560 L109 560 L149 705 C156 732 142 750 116 750 L88 750 L88 750 Z " />
<glyph glyph-name="numbersign" unicode="&#x23;" horiz-adv-x="500" d="M368 656 L345 504 L215 504 L238 656 L231 656 L208 504 L71 504 L59 416 L194 416 L168 244 L28 244 L16 156 L155 156 L131 0 L138 0 L162 156 L292 156 L268 0 L275 0 L299 156 L419 156 L431 244 L312 244 L338 416 L467 416 L480 504 L352 504 L375 656 L368 656 L368 656 Z M201 416 L331 416 L305 244 L175 244 L201 416 L201 416 Z " />
<glyph glyph-name="dollar" unicode="&#x24;" horiz-adv-x="522" d="M47 235 L47 7 L57 7 C58 15 58 25 59 33 C62 69 89 73 125 43 L125 43 C147 25 171 11 196 2 L196 -75 L236 -75 L236 -8 C249 -10 262 -10 276 -9 L276 -74 L316 -74 L316 -4 C417 17 481 97 481 208 C481 308 425 396 316 441 L316 735 C360 707 397 646 420 577 C422 571 424 563 426 557 L443 557 L443 749 L433 749 C432 744 432 737 431 732 C428 709 413 703 391 713 C369 730 343 743 315 751 L315 826 L275 826 L275 760 C262 761 249 761 235 760 L235 825 L195 825 L195 753 C110 731 56 655 56 551 C56 448 103 360 195 315 L195 20 C184 28 173 37 162 48 C126 85 90 149 68 214 C66 220 64 228 62 234 L47 235 L47 235 Z M65 154 L65 154 L65 154 L65 154 Z M235 299 C249 293 262 287 274 281 L274 -3 C260 -5 248 -4 235 0 L235 299 L235 299 Z M315 256 C353 228 372 197 372 167 C372 95 351 40 315 13 L315 256 L315 256 Z M235 477 L235 752 C248 755 262 754 275 751 L275 456 C260 463 247 471 235 479 L235 477 L235 477 Z M195 515 C172 542 161 572 161 603 C161 657 174 701 195 727 L195 515 L195 515 Z " />
<glyph glyph-name="percent" unicode="&#x25;" horiz-adv-x="794" d="M143 574 C143 683 156 755 176 755 C200 755 216 664 216 528 C216 428 202 361 180 361 C158 361 143 446 143 574 L143 574 Z M31 552 C31 434 90 355 178 355 C266 355 324 440 324 567 C324 683 266 760 178 760 C90 760 31 677 31 552 L31 552 Z M578 213 C578 319 594 390 619 390 C652 390 674 301 674 167 C674 64 654 -4 624 -4 C596 -4 578 83 578 213 L578 213 Z M465 191 C465 70 528 -10 622 -10 C718 -10 782 76 782 206 C782 319 718 395 622 395 C528 395 465 313 465 191 L465 191 Z M182 -2 L631 748 L622 752 L174 2 L182 -2 L182 -2 Z " />
<glyph glyph-name="ampersand" unicode="&#x26;" horiz-adv-x="905" d="M344 467 C444 502 508 558 508 610 C508 700 431 760 315 760 C209 760 139 694 139 595 C139 547 171 498 222 435 C107 392 32 299 32 196 C32 72 117 -10 245 -10 C330 -10 417 34 498 111 C506 102 514 92 522 82 C568 27 640 -10 700 -10 C772 -10 828 52 839 145 L819 152 C814 111 786 84 748 84 C702 84 651 107 622 142 C606 162 590 181 575 199 C637 281 692 384 735 502 L708 502 C668 391 613 297 551 228 C408 398 374 434 345 469 L344 467 L344 467 Z M333 484 C277 553 242 605 242 657 C242 704 272 735 317 735 C376 735 415 689 415 619 C415 561 383 509 334 484 L333 484 L333 484 Z M467 152 C417 118 365 99 314 99 C219 99 155 153 155 233 C155 318 186 389 235 422 C280 367 303 345 467 151 L467 152 L467 152 Z " />
<glyph glyph-name="quotesingle" unicode="&#x27;" horiz-adv-x="188" d="M88 750 C62 750 48 732 55 705 L95 560 L109 560 L149 705 C156 732 142 750 116 750 L88 750 L88 750 Z " />
<glyph glyph-name="parenleft" unicode="&#x28;" horiz-adv-x="245" d="M224 760 C125 688 59 559 59 273 C59 -13 125 -142 224 -214 L235 -199 C183 -161 149 -46 149 273 C149 592 183 707 235 745 L224 760 L224 760 Z " />
<glyph glyph-name="parenright" unicode="&#x29;" horiz-adv-x="186" d="M3 747 C58 711 95 522 95 273 C95 24 58 -165 3 -201 L10 -214 C110 -149 176 45 176 273 C176 501 110 695 10 760 L3 747 L3 747 Z " />
<glyph glyph-name="asterisk" unicode="&#x2a;" horiz-adv-x="300" d="M284 708 C271 731 255 738 239 723 L238 722 L151 633 L184 750 C190 771 176 785 149 785 C122 785 108 771 114 750 L147 634 L63 720 C47 736 28 731 15 708 C1 684 6 665 28 660 C38 678 63 720 63 720 L28 660 L145 630 L28 600 C6 595 1 576 15 553 C28 529 47 524 63 540 C52 558 28 600 28 600 L63 540 L147 626 L114 510 C108 489 122 475 149 475 C176 475 190 489 184 510 L151 627 L235 540 C251 524 270 529 283 553 C297 576 291 595 269 600 L269 600 L154 630 L270 660 C292 665 297 684 283 708 L284 708 L284 708 Z " />
<glyph glyph-name="plus" unicode="&#x2b;" horiz-adv-x="587" d="M249 444 L249 291 L100 291 L100 209 L249 209 L249 57 L338 57 L338 209 L487 209 L487 291 L338 291 L338 444 L249 444 L249 444 Z " />
<glyph glyph-name="comma" unicode="&#x2c;" horiz-adv-x="260" d="M170 27 C191 -50 137 -107 65 -107 L65 -111 C140 -111 190 -62 190 11 C190 63 172 101 143 112 C138 114 132 115 126 115 C90 115 66 91 66 55 C66 19 90 -5 126 -5 C147 -5 163 7 171 27 L170 27 L170 27 Z " />
<glyph glyph-name="hyphen" unicode="&#x2d;" horiz-adv-x="397" d="M80 238 L317 238 L317 332 L80 332 L80 238 L80 238 Z " />
<glyph glyph-name="period" unicode="&#x2e;" horiz-adv-x="195" d="M125 -5 C173 -5 205 27 205 75 C205 123 173 155 125 155 C77 155 45 123 45 75 C45 27 77 -5 125 -5 L125 -5 Z " />
<glyph glyph-name="slash" unicode="&#x2f;" horiz-adv-x="398" d="M300 770 L18 -80 L86 -80 L368 770 L300 770 L300 770 Z " />
<glyph glyph-name="zero" unicode="0" horiz-adv-x="614" d="M96 250 C96 365 180 463 305 463 C418 463 514 378 514 250 C514 135 430 37 305 37 C192 37 96 122 96 250 L96 250 Z M41 250 C41 94 162 -10 305 -10 C463 -10 569 110 569 250 C569 406 448 510 305 510 C147 510 41 390 41 250 L41 250 Z " />
<glyph glyph-name="one" unicode="1" horiz-adv-x="367" d="M317 7 L291 7 C261 7 241 27 241 57 L241 443 C241 473 261 493 291 493 L317 493 L317 500 L50 500 L50 493 L76 493 C106 493 126 473 126 443 L126 57 C126 27 106 7 76 7 L50 7 L50 0 L317 0 L317 7 L317 7 Z " />
<glyph glyph-name="two" unicode="2" horiz-adv-x="521" d="M404 102 C359 102 292 102 210 102 C334 182 421 266 421 346 C421 444 357 509 261 509 C155 509 67 423 42 293 L66 288 C82 368 136 422 202 422 C264 422 306 381 306 319 C306 232 240 155 146 89 C137 84 128 78 119 71 C86 50 50 30 13 11 L29 -1 C30 -1 31 -1 32 -1 C217 -1 402 -2 402 -2 L466 100 C479 118 492 136 503 152 L501 157 C482 126 445 105 405 102 L404 102 L404 102 Z " />
<glyph glyph-name="three" unicode="3" horiz-adv-x="424" d="M16 -209 L20 -232 C238 -209 384 -110 384 15 C384 116 316 188 211 204 C300 257 354 318 354 387 C354 461 294 510 203 510 C114 510 41 447 19 352 L44 345 C56 395 100 429 156 429 C201 429 231 397 231 348 C231 286 205 240 163 207 C158 206 150 200 142 192 C130 185 117 179 104 173 L104 150 C199 137 263 70 263 -17 C263 -117 164 -193 16 -209 L16 -209 Z " />
<glyph glyph-name="four" unicode="4" horiz-adv-x="557" d="M552 146 C550 146 542 149 542 149 L537 133 C531 106 509 88 482 88 L382 88 L382 530 L367 530 L15 20 L15 0 L267 0 L267 -220 L382 -220 L382 0 L470 0 C501 0 515 -18 515 -46 C515 -46 523 -49 525 -49 C525 -47 530 0 531 0 L531 1 C538 49 545 98 551 146 L552 146 L552 146 Z M266 314 L266 88 L114 88 L266 314 L266 314 Z " />
<glyph glyph-name="five" unicode="5" horiz-adv-x="409" d="M267 500 L66 500 L20 182 L40 164 L82 164 C200 164 278 104 278 14 C278 -107 190 -198 58 -214 L61 -235 C252 -212 379 -96 379 53 C379 192 265 285 95 285 L74 285 L88 397 L311 400 L329 500 C329 500 338 544 338 546 L327 546 C319 519 298 500 267 500 L267 500 Z " />
<glyph glyph-name="six" unicode="6" horiz-adv-x="536" d="M517 750 C232 689 42 507 42 295 C42 112 133 -10 269 -10 C397 -10 482 89 482 238 C482 372 404 461 288 461 C246 461 210 444 184 414 C236 578 359 698 522 732 L517 750 L517 750 Z M158 233 C158 366 210 455 287 455 C336 455 368 371 368 244 C368 94 328 -6 269 -6 C202 -6 158 90 158 233 L158 233 Z " />
<glyph glyph-name="seven" unicode="7" horiz-adv-x="407" d="M97 544 C89 527 82 506 75 486 L65 461 C64 458 63 455 62 452 L63 452 L45 405 C38 389 31 373 25 359 C27 358 33 353 33 353 L38 361 C52 385 77 401 102 404 L367 402 L104 -222 L192 -222 L406 483 L406 498 L146 498 C114 498 106 514 113 536 C113 536 103 540 101 542 L97 544 L97 544 Z " />
<glyph glyph-name="eight" unicode="8" horiz-adv-x="508" d="M186 363 C197 357 208 351 219 346 C315 304 379 267 379 218 C379 84 327 -6 250 -6 C180 -6 133 66 133 174 C133 255 153 324 186 363 L186 363 Z M171 372 C86 324 33 250 33 174 C33 64 120 -10 250 -10 C381 -10 468 62 468 170 C468 307 409 376 316 426 C395 470 444 535 444 599 C444 696 366 760 248 760 C135 760 59 687 59 577 C59 490 102 418 171 372 L171 372 Z M299 435 C288 441 276 446 264 451 C196 481 150 541 150 620 C150 702 190 757 250 757 C306 757 344 689 344 588 C344 524 327 469 299 435 L299 435 Z " />
<glyph glyph-name="nine" unicode="9" horiz-adv-x="536" d="M19 -250 C304 -189 494 -7 494 205 C494 388 403 510 267 510 C139 510 54 411 54 262 C54 128 132 39 248 39 C290 39 326 56 352 86 C300 -78 177 -198 14 -232 L19 -250 L19 -250 Z M378 267 C378 134 326 45 249 45 C200 45 168 129 168 256 C168 406 208 506 267 506 C334 506 378 410 378 267 L378 267 Z " />
<glyph glyph-name="colon" unicode="&#x3a;" horiz-adv-x="135" d="M125 385 C173 385 205 417 205 465 C205 513 173 545 125 545 C77 545 45 513 45 465 C45 417 77 385 125 385 L125 385 Z M125 -5 C173 -5 205 27 205 75 C205 123 173 155 125 155 C77 155 45 123 45 75 C45 27 77 -5 125 -5 L125 -5 Z " />
<glyph glyph-name="semicolon" unicode="&#x3b;" horiz-adv-x="260" d="M125 385 C173 385 205 417 205 465 C205 513 173 545 125 545 C77 545 45 513 45 465 C45 417 77 385 125 385 L125 385 Z M170 27 C191 -50 137 -107 65 -107 L65 -111 C140 -111 190 -62 190 11 C190 63 172 101 143 112 C138 114 132 115 126 115 C90 115 66 91 66 55 C66 19 90 -5 126 -5 C147 -5 163 7 171 27 L170 27 L170 27 Z " />
<glyph glyph-name="equal" unicode="&#x3d;" horiz-adv-x="505" d="M88 226 L88 174 L435 174 L435 226 L88 226 L88 226 Z M88 326 L88 274 L435 274 L435 326 L88 326 L88 326 Z " />
<glyph glyph-name="question" unicode="&#x3f;" horiz-adv-x="295" d="M125 -5 C173 -5 205 27 205 75 C205 123 173 155 125 155 C77 155 45 123 45 75 C45 27 77 -5 125 -5 L125 -5 Z M127 240 C127 240 126 360 125 360 C225 360 257 391 288 437 C307 465 319 513 319 557 C319 679 249 760 145 760 C80 760 37 726 37 675 C37 641 62 618 99 618 C125 618 161 638 187 638 C246 638 285 600 285 543 C285 532 276 512 263 492 C242 461 215 440 97 440 C103 442 107 240 107 240 L127 240 L127 240 Z " />
<glyph glyph-name="at" unicode="&#x40;" horiz-adv-x="1129" d="M990 0 C924 -142 760 -237 580 -237 C319 -237 145 -39 145 259 C145 555 313 752 565 752 C816 752 984 588 984 343 C984 143 916 10 815 10 C744 10 716 86 744 200 L814 480 L705 480 L689 415 C671 462 627 491 569 491 C390 491 270 370 270 189 C270 79 337 5 438 5 C518 5 587 41 628 101 C639 20 698 -29 793 -29 C961 -29 1073 120 1073 344 C1073 609 869 785 564 785 C259 785 55 575 55 260 C55 -49 275 -255 605 -255 C787 -255 955 -153 1027 1 L990 0 L990 0 Z M673 357 L634 201 C614 122 559 69 496 69 C435 69 394 126 394 211 C394 360 462 459 565 459 C630 459 673 418 673 357 L673 357 Z " />
<glyph glyph-name="A" unicode="A" horiz-adv-x="742" d="M262 9 L238 9 C180 9 150 46 162 103 L210 294 L427 294 L485 98 C496 44 467 9 411 9 L388 9 L388 0 L739 0 L739 9 L726 9 C686 9 647 43 627 95 C558 320 489 546 419 771 L406 771 C411 744 370 719 303 710 L306 700 L154 100 C136 46 88 11 32 11 L6 11 L6 2 L263 2 L262 9 L262 9 Z M211 301 L309 694 L426 301 L211 301 L211 301 Z " />
<glyph glyph-name="B" unicode="B" horiz-adv-x="674" d="M376 2 L326 2 C288 2 263 23 263 55 L263 385 L394 385 C449 385 485 309 485 195 C485 39 441 2 376 2 L376 2 Z M51 741 L77 741 C107 741 127 721 127 691 L127 59 C127 29 107 9 77 9 L51 9 L51 0 L383 0 C534 0 634 37 634 195 C634 309 548 386 417 389 C527 406 598 474 598 571 C598 678 548 750 335 750 L52 750 L51 741 L51 741 Z M362 389 L264 389 L264 746 L326 746 C437 746 463 670 463 557 C463 456 423 389 362 389 L362 389 Z " />
<glyph glyph-name="C" unicode="C" horiz-adv-x="728" d="M686 533 L686 739 L676 739 C675 733 675 724 674 718 C670 688 648 682 616 702 C568 738 510 760 421 760 C192 760 40 606 40 375 C40 144 189 -10 412 -10 C495 -10 557 11 608 46 L608 46 C644 70 670 64 674 31 C675 24 675 16 676 9 L686 9 L686 218 L669 218 C667 212 665 203 663 197 C645 142 598 80 546 43 C504 13 461 -4 414 -4 C279 -4 189 148 189 376 C189 604 283 756 423 756 C536 756 634 645 663 555 C665 549 667 540 669 534 L686 533 L686 533 Z M670 619 L670 619 L670 619 L670 619 Z M670 133 L670 133 L670 133 L670 133 Z " />
<glyph glyph-name="D" unicode="D" horiz-adv-x="839" d="M323 4 C269 4 263 23 263 51 L263 746 L346 746 C537 746 635 598 635 375 C635 130 510 4 323 4 L323 4 Z M51 743 L77 743 C107 743 127 723 127 693 L127 57 C127 27 107 7 77 7 L51 7 L51 0 L330 0 C602 0 784 128 784 375 C784 600 641 750 363 750 L51 750 L51 743 L51 743 Z " />
<glyph glyph-name="E" unicode="E" horiz-adv-x="633" d="M480 259 L480 516 L468 516 L460 470 C452 422 416 390 368 390 L263 390 L263 745 L429 745 C477 745 517 713 531 665 L544 619 L556 619 C552 658 545 709 541 748 L540 748 L540 750 L31 750 L31 743 L57 743 C99 743 127 715 127 673 L127 77 C127 35 99 7 57 7 L31 7 L31 0 L565 0 L565 2 C572 38 580 85 586 121 L574 121 L568 104 C548 45 492 5 429 5 L314 5 C268 5 263 23 263 51 L263 385 L368 385 C416 385 452 353 460 305 L468 259 L480 259 L480 259 Z " />
<glyph glyph-name="F" unicode="F" horiz-adv-x="608" d="M470 259 L470 516 L458 516 L450 470 C442 422 406 390 358 390 L263 390 L263 746 L428 746 C476 746 516 714 530 666 L543 620 L555 620 C551 658 544 710 540 748 L540 750 L31 750 L31 743 L57 743 C99 743 127 715 127 673 L127 77 C127 35 99 7 57 7 L31 7 L31 0 L359 0 L359 7 L333 7 C291 7 263 35 263 77 L263 385 L358 385 C406 385 442 353 450 305 L458 259 L470 259 L470 259 Z " />
<glyph glyph-name="G" unicode="G" horiz-adv-x="806" d="M686 533 L686 739 L676 739 C675 733 675 724 674 718 C670 688 648 682 616 702 C568 738 510 760 421 760 C192 760 40 606 40 375 C40 144 194 -10 426 -10 C567 -10 654 10 741 51 L739 54 C722 46 701 39 673 33 C673 64 673 158 673 231 C673 282 702 316 746 316 L759 316 L759 325 L451 325 L451 316 L464 316 C508 316 537 282 537 231 C538 231 538 130 538 119 C532 57 498 17 448 17 C293 17 189 160 189 375 C189 603 283 755 423 755 C536 755 634 644 663 554 C665 548 667 539 669 533 L686 533 L686 533 Z M670 618 L670 618 L670 618 L670 618 Z " />
<glyph glyph-name="H" unicode="H" horiz-adv-x="840" d="M780 7 L754 7 C724 7 704 27 704 57 L704 693 C704 723 724 743 754 743 L780 743 L780 750 L493 750 L493 743 L519 743 C549 743 569 723 569 693 L569 389 L299 389 L299 693 C299 723 319 743 349 743 L375 743 L375 750 L87 750 L87 743 L113 743 C143 743 163 723 163 693 L163 57 C163 27 143 7 113 7 L87 7 L87 0 L375 0 L375 7 L349 7 C319 7 299 27 299 57 L299 383 L569 383 L569 57 C569 27 549 7 519 7 L493 7 L493 0 L780 0 L780 7 L780 7 Z " />
<glyph glyph-name="I" unicode="I" horiz-adv-x="385" d="M325 7 L299 7 C269 7 249 27 249 57 L249 693 C249 723 269 743 299 743 L325 743 L325 750 L38 750 L38 743 L64 743 C94 743 114 723 114 693 L114 57 C114 27 94 7 64 7 L38 7 L38 0 L325 0 L325 7 L325 7 Z " />
<glyph glyph-name="J" unicode="J" horiz-adv-x="385" d="M325 750 L38 750 L38 743 L64 743 C93 743 113 724 114 696 C114 543 113 104 113 -106 C113 -195 49 -212 2 -212 C-65 -212 -32 -104 -99 -104 C-136 -104 -160 -128 -160 -165 C-160 -198 -98 -220 -4 -220 C102 -220 249 -161 249 150 L249 693 C249 723 269 743 299 743 L325 743 L325 750 L325 750 Z " />
<glyph glyph-name="K" unicode="K" horiz-adv-x="762" d="M339 750 L51 750 L51 743 L77 743 C107 743 127 723 127 693 L127 57 C127 27 107 7 77 7 L51 7 L51 0 L339 0 L339 7 L313 7 C283 7 263 27 263 57 L263 375 L517 0 L757 0 L757 7 L731 7 C701 7 667 27 646 57 L646 57 L361 463 L527 686 C556 720 598 742 634 742 L665 742 L665 749 L376 749 L376 742 L417 742 C477 742 489 702 448 642 L263 374 L263 692 C263 722 283 742 313 742 L339 742 L339 750 L339 750 Z " />
<glyph glyph-name="L" unicode="L" horiz-adv-x="609" d="M325 750 L38 750 L38 743 L64 743 C94 743 114 723 114 693 L114 57 C114 27 94 7 64 7 L38 7 L38 0 L543 0 L543 16 C550 53 558 102 564 138 L552 138 L546 121 C526 62 470 22 407 22 L300 22 C254 22 249 33 249 50 L249 692 C249 722 269 742 299 742 L325 742 L325 750 L325 750 Z " />
<glyph glyph-name="M" unicode="M" horiz-adv-x="873" d="M141 693 L121 52 C118 25 98 7 70 7 L44 7 L44 0 L244 0 L244 7 L218 7 C188 7 169 27 169 57 L169 57 L176 605 C254 403 332 201 410 -1 L444 -1 L445 4 L638 611 L652 48 C650 22 631 5 604 5 L578 5 L578 -2 L865 -2 L865 5 L839 5 C810 5 790 23 787 51 C780 264 773 477 766 690 C765 720 784 740 814 740 L840 740 L840 747 L636 747 L466 177 L283 747 L48 747 L48 740 L74 740 C104 740 132 720 144 690 L141 693 L141 693 Z " />
<glyph glyph-name="N" unicode="N" horiz-adv-x="742" d="M-46 743 L-20 743 C7 743 38 727 60 702 L127 610 L126 58 L126 58 C126 28 106 8 76 8 L50 8 L50 1 L243 1 L243 8 L217 8 C187 8 167 28 167 58 L167 58 L164 561 C299 375 434 189 569 2 L596 2 L605 701 C608 727 628 744 656 744 L682 744 L682 751 L490 751 L490 744 L516 744 C546 744 566 724 566 694 L566 694 L568 233 C443 406 318 579 193 752 L-46 752 L-46 743 L-46 743 Z " />
<glyph glyph-name="O" unicode="O" horiz-adv-x="847" d="M187 375 C187 603 276 755 410 755 C551 755 645 603 645 375 C645 147 548 -5 402 -5 C273 -5 187 147 187 375 L187 375 Z M40 375 C40 144 184 -10 401 -10 C636 -10 792 144 792 375 C792 606 640 760 411 760 C188 760 40 606 40 375 L40 375 Z " />
<glyph glyph-name="P" unicode="P" horiz-adv-x="611" d="M372 7 L346 7 C316 7 296 27 296 57 L296 336 L338 336 C490 336 591 398 591 537 C591 665 506 750 379 750 L85 750 L85 743 L111 743 C141 743 161 723 161 693 L161 57 C161 27 141 7 111 7 L85 7 L85 0 L372 0 L372 7 L372 7 Z M296 365 L296 727 L345 727 C416 727 464 660 464 560 C464 425 414 365 338 365 L296 365 L296 365 Z " />
<glyph glyph-name="Q" unicode="Q" horiz-adv-x="842" d="M1101 -51 L1099 -49 C1069 -74 946 -91 792 -91 C616 -91 449 -58 353 -7 C369 -9 385 -10 402 -10 C637 -10 793 144 793 375 C793 606 641 760 412 760 C189 760 41 606 41 375 C41 231 97 117 192 51 C371 -86 605 -176 779 -176 C884 -176 1014 -126 1103 -51 L1101 -51 L1101 -51 Z M189 375 C189 603 278 755 412 755 C553 755 647 603 647 375 C647 145 547 -8 398 -8 C273 -8 189 145 189 375 L189 375 Z " />
<glyph glyph-name="R" unicode="R" horiz-adv-x="745" d="M51 743 L77 743 C107 743 127 723 127 693 L127 57 C127 27 107 7 77 7 L51 7 L51 0 L339 0 L339 7 L313 7 C283 7 263 27 263 57 L263 346 L300 346 C321 304 386 200 474 67 C517 3 527 0 735 0 L735 10 C673 10 669 12 633 67 C540 207 470 313 438 361 C537 385 597 442 597 536 C597 664 481 750 306 750 L50 750 L51 743 L51 743 Z M262 380 L262 723 C373 723 448 661 448 563 C448 437 391 380 306 380 L262 380 L262 380 Z " />
<glyph glyph-name="S" unicode="S" horiz-adv-x="522" d="M445 555 L445 747 L435 747 C434 742 434 735 433 730 C430 707 415 701 393 711 C355 742 305 760 252 760 C136 760 59 676 59 551 C59 439 115 345 224 305 C324 269 375 217 375 168 C375 65 331 -3 264 -3 C233 -3 198 16 165 49 C129 86 93 150 71 215 C69 221 67 229 65 235 L48 235 L48 7 L58 7 C59 15 59 25 60 33 C63 69 90 73 126 43 L126 43 C167 9 216 -11 264 -11 C395 -11 483 76 483 206 C483 310 422 401 305 444 C212 478 164 538 164 602 C164 693 199 754 252 754 C278 754 305 743 330 724 C366 695 402 637 424 573 C426 567 428 559 430 553 L445 555 L445 555 Z M69 153 L69 153 L69 153 L69 153 Z " />
<glyph glyph-name="T" unicode="T" horiz-adv-x="741" d="M663 786 L659 781 C648 762 607 750 559 750 L183 750 C135 750 94 762 83 781 L79 786 L70 786 C63 769 56 752 49 734 C49 734 51 734 55 734 L55 733 L50 733 C34 693 22 640 6 600 L18 600 L37 631 C66 682 119 716 170 716 L303 716 L303 57 C303 27 283 7 253 7 L227 7 L227 0 L515 0 L515 7 L489 7 C459 7 439 27 439 57 L439 716 L572 716 C623 716 676 682 705 631 L724 600 L736 600 C719 641 707 694 691 734 C692 734 688 745 687 747 L687 749 L686 749 C682 761 677 774 672 785 L663 786 L663 786 Z " />
<glyph glyph-name="U" unicode="U" horiz-adv-x="754" d="M724 45 L698 38 C668 30 648 45 648 75 L648 750 L437 750 L437 743 L463 743 C493 743 513 723 513 693 L513 195 C480 124 412 77 342 77 C274 77 228 131 228 213 L228 750 L16 750 L16 743 L42 743 C72 743 92 723 92 693 L92 213 C92 79 170 -10 287 -10 C382 -10 473 48 513 134 L513 0 L581 0 L616 9 C652 19 692 30 724 38 L724 45 L724 45 Z " />
<glyph glyph-name="V" unicode="V" horiz-adv-x="788" d="M770 750 L497 750 L497 741 L535 741 C595 741 621 701 600 641 L600 641 L445 195 C382 344 317 493 255 641 C229 701 252 741 312 741 L334 741 L334 750 L-10 750 L-10 741 L0 741 C33 741 73 701 98 641 L98 641 C190 424 282 207 374 -10 L402 -10 L655 653 C679 706 719 741 757 741 L770 741 L770 750 L770 750 Z " />
<glyph glyph-name="W" unicode="W" horiz-adv-x="1091" d="M304 750 L-8 750 L-8 741 C33 741 62 720 85 673 C178 445 271 217 365 -10 L399 -10 L540 440 C603 290 666 140 728 -10 L762 -10 L762 -5 C823 217 883 439 944 661 C957 709 995 741 1039 741 L1052 741 L1052 750 L779 750 L779 741 L833 741 C881 741 905 709 893 661 L893 661 L776 187 L590 670 C577 713 597 741 643 741 L680 741 L680 750 L343 750 L343 741 L353 741 C389 741 427 709 447 661 L447 661 L515 500 L416 163 L232 670 C220 713 240 741 285 741 L303 741 L304 750 L304 750 Z " />
<glyph glyph-name="X" unicode="X" horiz-adv-x="791" d="M427 0 L741 0 L741 7 C704 7 673 23 650 57 L421 433 L641 699 C668 726 704 743 733 743 L764 743 L764 750 L507 750 L507 743 L563 743 C596 743 603 721 581 688 L581 688 L415 443 C365 525 315 607 266 689 C246 722 254 744 287 744 L324 744 L324 751 L11 751 L11 744 C48 744 79 729 102 695 L319 339 C255 247 191 155 126 63 C103 30 66 8 33 8 L2 8 L2 1 L253 1 L253 8 L197 8 C164 8 156 30 177 63 L177 63 L336 311 C386 228 437 145 487 63 C507 30 499 8 466 8 L429 8 L427 0 L427 0 Z " />
<glyph glyph-name="Y" unicode="Y" horiz-adv-x="706" d="M302 750 L-11 750 L-11 743 C25 743 54 728 76 695 L294 315 L294 76 C294 34 266 6 224 6 L198 6 L198 -1 L525 -1 L525 6 L499 6 C457 6 429 34 429 76 L429 336 C484 453 539 570 595 687 C611 720 643 742 676 742 L707 742 L707 749 L497 749 L497 742 L555 742 C588 742 599 720 584 687 L585 687 L427 343 C364 458 301 573 239 688 C221 721 231 743 264 743 L301 743 L302 750 L302 750 Z " />
<glyph glyph-name="Z" unicode="Z" horiz-adv-x="615" d="M69 596 L73 614 C88 671 137 711 197 714 L432 719 L24 26 L24 -1 L572 -1 L581 40 C586 63 596 104 608 156 L596 156 L589 138 C567 82 516 44 458 37 L182 30 L577 722 L577 749 L70 749 L67 711 C67 711 60 631 57 595 L69 596 L69 596 Z " />
<glyph glyph-name="bracketleft" unicode="&#x5b;" horiz-adv-x="302" d="M142 716 L352 716 L352 750 L102 750 L102 -195 L352 -195 L352 -161 L142 -161 L142 716 L142 716 Z " />
<glyph glyph-name="backslash" unicode="&#x5c;" horiz-adv-x="356" d="M18 770 L278 -80 L346 -80 L86 770 L18 770 L18 770 Z " />
<glyph glyph-name="bracketright" unicode="&#x5d;" horiz-adv-x="305" d="M155 716 L155 -161 L-55 -161 L-55 -195 L195 -195 L195 750 L-55 750 L-55 716 L155 716 L155 716 Z " />
<glyph glyph-name="asciicircum" unicode="&#x5e;" horiz-adv-x="298" d="M190 746 C182 758 162 787 149 787 C137 787 117 758 109 746 L-5 568 L11 555 L150 671 L288 555 L304 568 L190 746 L190 746 Z " />
<glyph glyph-name="underscore" unicode="&#x5f;" horiz-adv-x="381" d="M5 -50 L5 -114 L376 -114 L376 -50 L5 -50 L5 -50 Z " />
<glyph glyph-name="grave" unicode="&#x60;" horiz-adv-x="298" d="M-53 738 C-53 729 -29 707 6 679 L151 561 L165 576 L59 731 C33 770 12 796 4 796 C-27 796 -53 769 -53 738 L-53 738 Z " />
<glyph glyph-name="a" unicode="a" horiz-adv-x="479" d="M489 124 L482 128 C477 97 451 77 418 77 C387 77 367 94 367 120 L367 353 C367 461 315 510 237 510 C129 510 57 414 57 360 C57 312 86 280 129 280 C163 280 185 313 185 337 C185 356 165 377 165 399 C165 436 192 503 232 503 C244 503 252 469 252 394 L252 261 C106 177 37 131 37 94 C37 32 77 -10 137 -10 C168 -10 207 15 257 79 C271 27 313 -6 370 -6 C427 -6 474 46 488 123 L489 124 L489 124 Z M251 256 L251 119 C251 106 252 94 255 83 C234 60 214 51 196 51 C169 51 151 73 151 106 C151 186 183 217 250 257 L251 256 L251 256 Z " />
<glyph glyph-name="b" unicode="b" horiz-adv-x="558" d="M10 714 L21 714 C48 715 66 699 66 672 L66 0 L73 0 L110 59 C149 16 209 -10 277 -10 C419 -10 514 95 514 253 C514 404 431 505 307 505 C258 505 211 480 182 440 L182 750 L125 750 C91 741 45 730 11 721 L10 714 L10 714 Z M182 110 L182 423 C204 452 238 470 271 470 C339 470 385 378 385 240 C385 99 343 5 280 5 C243 5 205 46 182 110 L182 110 Z " />
<glyph glyph-name="c" unicode="c" horiz-adv-x="496" d="M466 128 L463 129 C432 59 372 13 313 13 C225 13 167 119 167 277 C167 414 226 506 314 506 C314 506 329 466 351 405 C363 371 387 348 409 348 C456 348 478 371 466 405 C443 468 383 510 315 510 C153 510 45 400 45 234 C45 88 147 -10 300 -10 C363 -10 429 45 466 128 L466 128 Z " />
<glyph glyph-name="d" unicode="d" horiz-adv-x="566" d="M304 713 L315 713 C342 714 360 698 360 671 L360 420 C333 472 289 510 244 510 C113 510 45 406 45 249 C45 97 117 -5 225 -5 C272 -5 325 24 360 69 L360 0 L417 0 L417 -1 C457 10 511 25 551 35 L551 42 L525 35 C495 27 475 42 475 72 L475 750 L418 750 C413 749 360 738 360 735 C340 730 320 725 303 721 L304 713 L304 713 Z M359 376 L359 78 C339 58 306 45 272 45 C206 45 162 140 162 283 C162 401 194 479 256 479 C299 479 342 432 359 377 L359 376 L359 376 Z " />
<glyph glyph-name="e" unicode="e" horiz-adv-x="503" d="M169 340 L473 340 C451 462 378 510 281 510 C139 510 45 431 45 228 C45 85 131 -10 259 -10 C343 -10 419 48 451 135 L449 135 C423 63 350 15 268 15 C207 15 166 119 166 275 C166 299 167 321 169 341 L169 340 L169 340 Z M344 346 L169 345 C180 460 222 507 280 507 C301 507 324 462 345 345 L344 346 L344 346 Z " />
<glyph glyph-name="f" unicode="f" horiz-adv-x="355" d="M274 7 L233 7 C224 7 218 13 218 22 L218 439 L345 439 L345 500 L218 500 C218 631 242 719 290 719 C329 719 366 635 399 635 C426 635 444 653 444 680 C444 725 399 755 331 755 C181 755 103 653 103 500 L17 453 L17 439 L103 439 L103 22 C103 13 97 7 88 7 L47 7 L47 0 L274 0 L274 7 L274 7 Z " />
<glyph glyph-name="g" unicode="g" horiz-adv-x="487" d="M510 461 C510 502 480 530 435 530 C404 530 371 508 347 473 C318 496 279 509 234 509 C133 509 66 445 66 349 C66 264 118 203 199 190 C108 183 49 149 49 101 C49 44 78 2 125 -12 C72 -31 38 -64 38 -99 C38 -179 121 -232 245 -232 C369 -232 451 -164 451 -61 C451 34 403 97 279 97 L167 97 C137 97 117 112 117 135 C117 166 164 186 234 186 C334 186 401 251 401 348 C401 392 387 429 363 456 C395 458 430 409 460 409 C489 409 509 429 509 459 L510 461 L510 461 Z M234 190 C202 190 181 253 181 348 C181 442 202 504 234 504 C265 504 286 442 286 348 C286 253 265 190 234 190 L234 190 Z M146 -16 C151 -17 156 -17 161 -17 L267 -17 C331 -17 356 -45 356 -88 C356 -172 312 -228 246 -228 C178 -228 133 -166 133 -72 C133 -48 138 -28 146 -16 L146 -16 Z " />
<glyph glyph-name="h" unicode="h" horiz-adv-x="568" d="M11 713 L22 713 C49 714 67 698 67 671 L67 22 C67 13 61 7 52 7 L11 7 L11 0 L238 0 L238 7 L197 7 C188 7 182 13 182 22 L182 388 C191 413 237 429 296 429 C343 429 367 377 367 300 L367 22 C367 13 361 7 352 7 L311 7 L311 0 L538 0 L538 7 L497 7 C488 7 482 13 482 22 L482 300 C482 426 441 510 362 510 C280 510 208 463 182 393 L182 750 L125 750 L125 751 C91 742 45 729 11 720 L11 713 L11 713 Z " />
<glyph glyph-name="i" unicode="i" horiz-adv-x="278" d="M135 615 C179 615 209 645 209 689 C209 734 179 764 135 764 C90 764 60 734 60 689 C60 645 90 615 135 615 L135 615 Z M21 463 L32 463 C59 464 77 448 77 421 L77 22 C77 13 71 7 62 7 L21 7 L21 0 L248 0 L248 7 L207 7 C198 7 192 13 192 22 L192 500 L135 500 C118 496 98 491 78 486 L77 486 L77 486 C57 481 37 476 20 472 L21 463 L21 463 Z " />
<glyph glyph-name="j" unicode="j" horiz-adv-x="291" d="M144 615 C188 615 218 645 218 689 C218 734 188 764 144 764 C99 764 69 734 69 689 C69 645 99 615 144 615 L144 615 Z M30 463 L41 463 C68 464 86 448 86 421 L86 68 C86 -29 67 -104 38 -121 C6 -121 -37 -100 -69 -100 C-96 -100 -114 -116 -114 -140 C-114 -169 -90 -187 -54 -185 C-47 -185 -5 -163 51 -130 C141 -78 201 1 201 68 L201 500 L144 500 C127 496 107 491 87 486 L86 486 L86 486 C66 481 46 476 29 472 L30 463 L30 463 Z " />
<glyph glyph-name="k" unicode="k" horiz-adv-x="576" d="M552 500 L303 500 L303 493 L359 493 C419 493 407 453 329 393 C280 356 232 318 182 282 L182 750 L125 750 C108 746 88 741 68 736 L67 736 L67 736 C47 731 27 726 10 722 L10 715 L21 715 C48 716 66 700 66 673 L66 24 C66 15 60 9 51 9 L10 9 L10 2 L237 2 L237 9 L196 9 C187 9 181 15 181 24 L181 260 L353 47 C371 24 368 9 345 9 L335 9 L335 2 L570 2 L570 9 C542 9 515 26 489 59 L489 59 L266 334 L396 433 C446 470 503 495 541 495 L553 495 L552 500 L552 500 Z " />
<glyph glyph-name="l" unicode="l" horiz-adv-x="268" d="M11 714 L22 714 C49 715 67 699 67 672 L67 22 C67 13 61 7 52 7 L11 7 L11 0 L238 0 L238 7 L197 7 C188 7 182 13 182 22 L182 750 L125 750 C91 741 45 730 11 721 L11 714 L11 714 Z " />
<glyph glyph-name="m" unicode="m" horiz-adv-x="820" d="M563 0 L790 0 L790 7 L749 7 C740 7 734 13 734 22 L734 300 C734 426 699 510 610 510 C539 510 476 465 451 398 L451 394 C458 413 503 425 563 425 C603 425 619 375 619 300 L619 22 C619 13 613 7 604 7 L563 7 L563 0 L563 0 Z M11 464 L22 464 C49 465 67 449 67 422 L67 22 C67 13 61 7 52 7 L11 7 L11 0 L238 0 L238 7 L197 7 C188 7 182 13 182 22 L182 393 C189 412 231 425 287 425 C327 425 343 375 343 300 L343 22 C343 13 337 7 328 7 L287 7 L287 0 L514 0 L514 7 L473 7 C464 7 458 13 458 22 L458 300 C458 426 423 510 334 510 C267 510 207 465 182 398 L182 500 L125 500 C91 491 45 480 11 471 L11 464 L11 464 Z " />
<glyph glyph-name="n" unicode="n" horiz-adv-x="544" d="M12 464 L23 464 C49 466 66 451 68 427 C68 331 67 137 67 23 C67 14 61 8 52 8 L11 8 L11 1 L238 1 L238 8 L197 8 C188 8 182 14 182 23 L182 383 C198 427 246 457 302 457 C329 457 343 408 343 334 L343 23 C343 14 337 8 328 8 L287 8 L287 1 L514 1 L514 8 L473 8 C464 8 458 14 458 23 L458 334 C458 440 416 511 334 511 C267 511 207 466 182 399 L182 501 L125 501 L124 500 L124 500 C90 490 46 481 12 471 L12 464 L12 464 Z " />
<glyph glyph-name="o" unicode="o" horiz-adv-x="589" d="M172 250 C172 402 221 504 295 504 C368 504 417 402 417 250 C417 98 368 -4 295 -4 C221 -4 172 98 172 250 L172 250 Z M45 250 C45 94 145 -10 295 -10 C444 -10 544 94 544 250 C544 406 444 510 295 510 C145 510 45 406 45 250 L45 250 Z " />
<glyph glyph-name="p" unicode="p" horiz-adv-x="548" d="M-4 464 L7 464 C34 465 52 449 52 422 L52 -198 C52 -207 46 -213 37 -213 L-4 -213 L-4 -220 L223 -220 L223 -213 L182 -213 C173 -213 167 -207 167 -198 L167 17 C200 3 238 -5 279 -5 C414 -5 504 116 504 259 C504 410 423 510 302 510 C251 510 200 485 168 446 L168 501 L111 501 C77 492 31 481 -3 472 L-4 464 L-4 464 Z M168 131 L168 401 C194 439 225 463 249 463 C326 463 378 367 378 224 C378 117 341 25 286 25 C235 25 187 67 168 131 L168 131 Z " />
<glyph glyph-name="q" unicode="q" horiz-adv-x="504" d="M499 -213 L458 -213 C449 -213 443 -207 443 -198 L443 500 L436 500 L402 447 C366 487 313 511 255 511 C104 511 26 407 26 250 C26 114 105 23 223 23 C246 23 286 40 328 67 L328 -197 C328 -206 322 -212 313 -212 L272 -212 L272 -219 L499 -219 L499 -213 L499 -213 Z M248 485 C277 485 308 448 328 391 L328 108 C283 79 242 60 221 60 C175 60 145 149 145 282 C145 404 180 485 248 485 L248 485 Z " />
<glyph glyph-name="r" unicode="r" horiz-adv-x="420" d="M12 464 L23 464 C50 465 68 449 68 422 L68 22 C68 13 62 7 53 7 L12 7 L12 0 L239 0 L239 7 L198 7 C189 7 183 13 183 22 L183 404 C195 436 220 456 251 456 C266 456 276 442 276 421 C276 380 303 353 344 353 C384 353 411 380 411 421 C411 474 369 510 305 510 C246 510 201 474 184 417 L184 500 L127 500 C93 491 47 480 13 471 L12 464 L12 464 Z " />
<glyph glyph-name="s" unicode="s" horiz-adv-x="401" d="M219 510 L219 509 C213 510 207 510 201 510 C113 510 54 455 54 372 C54 290 92 226 165 206 C228 189 261 150 261 105 C261 38 233 -6 190 -6 C183 -6 175 -3 166 3 L166 3 C135 24 98 85 72 155 C70 160 69 166 67 171 L59 171 L59 7 L66 7 C67 12 67 17 68 22 C70 36 95 30 131 8 C131 8 155 -4 157 -5 L158 -4 C169 -8 180 -10 191 -10 C287 -10 351 49 351 138 C351 210 305 270 217 294 C164 308 137 354 137 412 C137 481 182 530 235 494 C263 473 293 424 315 364 C317 359 318 353 320 348 L328 348 L328 502 L321 502 C320 498 320 493 319 489 C318 480 291 484 253 500 L253 500 C242 505 230 507 220 511 L219 510 L219 510 Z " />
<glyph glyph-name="t" unicode="t" horiz-adv-x="391" d="M341 500 L206 500 L206 620 L198 620 L26 449 L26 439 L91 439 L91 186 C91 45 149 -10 236 -10 C310 -10 368 43 381 122 L366 125 C358 76 320 44 271 44 C230 44 203 77 203 161 L206 439 L341 439 L341 500 L341 500 Z " />
<glyph glyph-name="u" unicode="u" horiz-adv-x="521" d="M506 40 L490 35 C460 27 440 42 440 72 L440 500 L269 500 L269 493 L310 493 C319 493 325 487 325 478 L325 130 C307 94 275 70 242 70 C204 70 178 104 178 155 L178 500 L7 500 L7 493 L48 493 C57 493 63 487 63 478 L63 155 C63 56 113 -10 188 -10 C238 -10 291 43 325 124 L325 0 L382 0 L382 -1 C419 9 469 23 506 33 L506 40 L506 40 Z " />
<glyph glyph-name="v" unicode="v" horiz-adv-x="538" d="M515 500 L353 500 L353 493 C384 493 400 479 393 445 L313 174 C279 262 245 350 211 438 C198 471 208 493 235 493 L243 493 L243 500 L8 500 L8 493 C44 493 70 475 85 438 L259 -10 L293 -10 L444 447 C459 479 482 492 516 492 L515 500 L515 500 Z " />
<glyph glyph-name="w" unicode="w" horiz-adv-x="850" d="M826 500 L663 500 L663 493 C694 493 709 479 701 445 L610 166 L499 440 C487 472 496 493 522 493 L530 493 L530 500 L292 500 L292 493 C328 493 355 475 370 438 L406 349 L287 -10 L321 -10 L429 292 L551 -10 L585 -10 L752 445 C767 478 791 493 825 493 L826 500 L826 500 Z M261 500 L23 500 L23 493 C57 493 82 478 99 445 L287 -10 L344 163 C307 255 268 347 231 438 C217 471 226 493 253 493 L261 493 L261 500 L261 500 Z " />
<glyph glyph-name="x" unicode="x" horiz-adv-x="558" d="M292 0 L540 0 L540 7 C504 7 476 25 456 62 L333 292 L442 446 C468 478 497 493 531 493 L531 500 L372 500 L372 493 L380 493 C406 493 410 471 390 438 L318 320 L255 438 C237 471 243 493 270 493 L278 493 L278 500 L29 500 L29 493 C65 493 93 475 113 438 L113 438 L225 228 L106 53 C80 22 52 8 18 8 L18 1 L178 1 L178 8 L170 8 C144 8 139 30 158 63 L157 63 L237 204 L315 58 C329 28 322 8 297 8 L289 8 L292 0 L292 0 Z " />
<glyph glyph-name="y" unicode="y" horiz-adv-x="558" d="M542 500 L381 500 L381 493 C412 493 427 480 419 447 L327 167 C291 257 254 348 219 438 C206 471 215 493 242 493 L250 493 L250 500 L15 500 L15 493 C49 493 74 478 90 445 L266 3 C245 -48 225 -100 205 -151 C195 -177 180 -194 178 -194 C156 -194 151 -156 128 -156 C99 -156 79 -176 79 -205 C79 -238 101 -260 133 -260 C164 -260 212 -222 234 -166 L296 -10 C353 142 411 294 469 446 C485 479 509 494 543 494 L542 500 L542 500 Z " />
<glyph glyph-name="z" unicode="z" horiz-adv-x="442" d="M73 523 C70 510 65 492 61 479 C61 479 50 436 32 370 L46 370 L54 384 C76 426 120 456 167 462 L268 466 L40 26 L40 -1 L389 -1 L390 3 C390 3 407 63 414 129 L400 129 L395 115 C379 72 340 41 293 35 L177 30 L401 471 L401 498 L110 498 C89 498 83 506 83 521 L73 523 L73 523 Z " />
<glyph glyph-name="braceleft" unicode="&#x7b;" horiz-adv-x="232" d="M227 750 L187 750 C111 750 61 707 61 643 L61 383 C61 337 44 312 15 312 L15 308 C44 308 61 280 61 230 L61 -23 C61 -87 111 -130 187 -130 L227 -130 L227 -127 L191 -127 C166 -127 150 -85 150 -23 L150 166 C150 252 99 310 23 310 C99 310 150 365 150 447 L150 643 C150 705 166 747 191 747 L227 747 L227 750 L227 750 Z " />
<glyph glyph-name="bar" unicode="&#x7c;" horiz-adv-x="209" d="M60 800 L60 -250 L149 -250 L149 800 L60 800 L60 800 Z " />
<glyph glyph-name="braceright" unicode="&#x7d;" horiz-adv-x="232" d="M5 750 L5 747 L41 747 C66 747 82 705 82 643 L82 447 C82 365 133 310 209 310 C133 310 82 252 82 166 L82 -23 C82 -85 66 -127 41 -127 L5 -127 L5 -130 L45 -130 C121 -130 171 -87 171 -23 L171 230 C171 280 188 308 217 308 L217 312 C188 312 171 337 171 383 L171 643 C171 707 121 750 45 750 L5 750 L5 750 Z " />
<glyph glyph-name="asciitilde" unicode="&#x7e;" horiz-adv-x="298" d="M29 310 C29 343 43 365 64 365 C105 365 161 300 202 300 C245 300 273 356 273 441 L269 441 C269 405 253 381 229 381 C187 381 132 446 90 446 C52 446 26 392 26 310 L29 310 L29 310 Z " />
<glyph glyph-name="exclamdown" unicode="&#xa1;" horiz-adv-x="281" d="M141 505 C93 505 61 473 61 425 C61 377 93 345 141 345 C189 345 221 377 221 425 C221 473 189 505 141 505 L141 505 Z M141 -255 C196 -255 221 -206 211 -132 C211 -132 151 163 151 290 L130 290 C130 163 70 -132 70 -132 C60 -206 86 -255 141 -255 L141 -255 Z " />
<glyph glyph-name="cent" unicode="&#xa2;" horiz-adv-x="496" d="M280 575 L280 508 C138 493 45 387 45 233 C45 93 138 -3 280 -11 L280 -77 L320 -77 L320 -10 C377 0 433 52 466 126 L463 127 C433 60 376 15 319 12 L319 489 C325 472 336 442 350 404 C362 370 386 347 408 347 C455 347 477 370 465 404 C443 465 385 506 319 508 L319 573 L280 575 L280 575 Z M279 16 C210 39 166 137 166 274 C166 392 210 477 279 498 L279 16 L279 16 Z " />
<glyph glyph-name="acute" unicode="&#xb4;" horiz-adv-x="298" d="M158 561 L303 679 C338 708 362 731 362 738 C362 769 336 796 305 796 C298 796 277 770 250 731 L144 576 L158 561 L158 561 Z " />
<glyph glyph-name="questiondown" unicode="&#xbf;" horiz-adv-x="295" d="M170 505 C122 505 90 473 90 425 C90 377 122 345 170 345 C218 345 250 377 250 425 C250 473 218 505 170 505 L170 505 Z M168 260 C168 260 169 140 170 140 C70 140 38 109 7 63 C-12 35 -24 -13 -24 -57 C-24 -179 46 -260 150 -260 C215 -260 258 -226 258 -175 C258 -141 233 -118 196 -118 C170 -118 134 -138 108 -138 C49 -138 10 -100 10 -43 C10 -32 19 -12 32 8 C53 39 80 60 198 60 C192 58 188 260 188 260 L168 260 L168 260 Z " />
<glyph glyph-name="Agrave" unicode="&#xc0;" horiz-adv-x="742" d="M168 988 C168 979 192 957 227 929 L372 811 L386 826 L280 981 C254 1020 233 1046 225 1046 C194 1046 168 1019 168 988 L168 988 Z M262 9 L238 9 C180 9 150 46 162 103 L210 294 L427 294 L485 98 C496 44 467 9 411 9 L388 9 L388 0 L739 0 L739 9 L726 9 C686 9 647 43 627 95 C558 320 489 546 419 771 L406 771 C411 744 370 719 303 710 L306 700 L154 100 C136 46 88 11 32 11 L6 11 L6 2 L263 2 L262 9 L262 9 Z M211 301 L309 694 L426 301 L211 301 L211 301 Z " />
<glyph glyph-name="Aacute" unicode="&#xc1;" horiz-adv-x="742" d="M379 811 L524 929 C559 958 583 981 583 988 C583 1019 557 1046 526 1046 C519 1046 498 1020 471 981 L365 826 L379 811 L379 811 Z M262 9 L238 9 C180 9 150 46 162 103 L210 294 L427 294 L485 98 C496 44 467 9 411 9 L388 9 L388 0 L739 0 L739 9 L726 9 C686 9 647 43 627 95 C558 320 489 546 419 771 L406 771 C411 744 370 719 303 710 L306 700 L154 100 C136 46 88 11 32 11 L6 11 L6 2 L263 2 L262 9 L262 9 Z M211 301 L309 694 L426 301 L211 301 L211 301 Z " />
<glyph glyph-name="Acircumflex" unicode="&#xc2;" horiz-adv-x="742" d="M411 996 C403 1008 383 1037 371 1037 C358 1037 338 1008 330 996 L216 818 L232 805 L371 921 L509 805 L525 818 L411 996 L411 996 Z M262 9 L238 9 C180 9 150 46 162 103 L210 294 L427 294 L485 98 C496 44 467 9 411 9 L388 9 L388 0 L739 0 L739 9 L726 9 C686 9 647 43 627 95 C558 320 489 546 419 771 L406 771 C411 744 370 719 303 710 L306 700 L154 100 C136 46 88 11 32 11 L6 11 L6 2 L263 2 L262 9 L262 9 Z M211 301 L309 694 L426 301 L211 301 L211 301 Z " />
<glyph glyph-name="Atilde" unicode="&#xc3;" horiz-adv-x="742" d="M250 870 C250 903 264 925 285 925 C326 925 382 860 423 860 C466 860 494 916 494 1001 L491 1001 C491 965 475 941 450 941 C408 941 353 1006 311 1006 C273 1006 247 952 247 870 L250 870 L250 870 Z M262 9 L238 9 C180 9 150 46 162 103 L210 294 L427 294 L485 98 C496 44 467 9 411 9 L388 9 L388 0 L739 0 L739 9 L726 9 C686 9 647 43 627 95 C558 320 489 546 419 771 L406 771 C411 744 370 719 303 710 L306 700 L154 100 C136 46 88 11 32 11 L6 11 L6 2 L263 2 L262 9 L262 9 Z M211 301 L309 694 L426 301 L211 301 L211 301 Z " />
<glyph glyph-name="Adieresis" unicode="&#xc4;" horiz-adv-x="742" d="M447 865 C492 865 522 895 522 939 C522 984 492 1014 447 1014 C403 1014 373 984 373 939 C373 895 403 865 447 865 L447 865 Z M294 865 C338 865 368 895 368 939 C368 984 338 1014 294 1014 C249 1014 219 984 219 939 C219 895 249 865 294 865 L294 865 Z M262 9 L238 9 C180 9 150 46 162 103 L210 294 L427 294 L485 98 C496 44 467 9 411 9 L388 9 L388 0 L739 0 L739 9 L726 9 C686 9 647 43 627 95 C558 320 489 546 419 771 L406 771 C411 744 370 719 303 710 L306 700 L154 100 C136 46 88 11 32 11 L6 11 L6 2 L263 2 L262 9 L262 9 Z M211 301 L309 694 L426 301 L211 301 L211 301 Z " />
<glyph glyph-name="Aring" unicode="&#xc5;" horiz-adv-x="742" d="M306 905 C306 946 332 973 371 973 C409 973 435 946 435 905 C435 868 406 837 371 837 C336 837 306 868 306 905 L306 905 Z M272 905 C272 854 318 810 371 810 C424 810 469 854 469 905 C469 962 430 1000 371 1000 C312 1000 272 962 272 905 L272 905 Z M262 9 L238 9 C180 9 150 46 162 103 L210 294 L427 294 L485 98 C496 44 467 9 411 9 L388 9 L388 0 L739 0 L739 9 L726 9 C686 9 647 43 627 95 C558 320 489 546 419 771 L406 771 C411 744 370 719 303 710 L306 700 L154 100 C136 46 88 11 32 11 L6 11 L6 2 L263 2 L262 9 L262 9 Z M211 301 L309 694 L426 301 L211 301 L211 301 Z " />
<glyph glyph-name="Egrave" unicode="&#xc8;" horiz-adv-x="633" d="M131 988 C131 979 155 957 190 929 L335 811 L349 826 L243 981 C217 1020 196 1046 188 1046 C157 1046 131 1019 131 988 L131 988 Z M480 259 L480 516 L468 516 L460 470 C452 422 416 390 368 390 L263 390 L263 745 L429 745 C477 745 517 713 531 665 L544 619 L556 619 C552 658 545 709 541 748 L540 748 L540 750 L31 750 L31 743 L57 743 C99 743 127 715 127 673 L127 77 C127 35 99 7 57 7 L31 7 L31 0 L565 0 L565 2 C572 38 580 85 586 121 L574 121 L568 104 C548 45 492 5 429 5 L314 5 C268 5 263 23 263 51 L263 385 L368 385 C416 385 452 353 460 305 L468 259 L480 259 L480 259 Z " />
<glyph glyph-name="Eacute" unicode="&#xc9;" horiz-adv-x="633" d="M342 811 L487 929 C522 958 546 981 546 988 C546 1019 520 1046 489 1046 C482 1046 461 1020 434 981 L328 826 L342 811 L342 811 Z M480 259 L480 516 L468 516 L460 470 C452 422 416 390 368 390 L263 390 L263 745 L429 745 C477 745 517 713 531 665 L544 619 L556 619 C552 658 545 709 541 748 L540 748 L540 750 L31 750 L31 743 L57 743 C99 743 127 715 127 673 L127 77 C127 35 99 7 57 7 L31 7 L31 0 L565 0 L565 2 C572 38 580 85 586 121 L574 121 L568 104 C548 45 492 5 429 5 L314 5 C268 5 263 23 263 51 L263 385 L368 385 C416 385 452 353 460 305 L468 259 L480 259 L480 259 Z " />
<glyph glyph-name="Ecircumflex" unicode="&#xca;" horiz-adv-x="633" d="M374 996 C366 1008 346 1037 334 1037 C321 1037 301 1008 293 996 L179 818 L195 805 L334 921 L472 805 L488 818 L374 996 L374 996 Z M480 259 L480 516 L468 516 L460 470 C452 422 416 390 368 390 L263 390 L263 745 L429 745 C477 745 517 713 531 665 L544 619 L556 619 C552 658 545 709 541 748 L540 748 L540 750 L31 750 L31 743 L57 743 C99 743 127 715 127 673 L127 77 C127 35 99 7 57 7 L31 7 L31 0 L565 0 L565 2 C572 38 580 85 586 121 L574 121 L568 104 C548 45 492 5 429 5 L314 5 C268 5 263 23 263 51 L263 385 L368 385 C416 385 452 353 460 305 L468 259 L480 259 L480 259 Z " />
<glyph glyph-name="Edieresis" unicode="&#xcb;" horiz-adv-x="633" d="M410 865 C455 865 485 895 485 939 C485 984 455 1014 410 1014 C366 1014 336 984 336 939 C336 895 366 865 410 865 L410 865 Z M257 865 C301 865 331 895 331 939 C331 984 301 1014 257 1014 C212 1014 182 984 182 939 C182 895 212 865 257 865 L257 865 Z M480 259 L480 516 L468 516 L460 470 C452 422 416 390 368 390 L263 390 L263 745 L429 745 C477 745 517 713 531 665 L544 619 L556 619 C552 658 545 709 541 748 L540 748 L540 750 L31 750 L31 743 L57 743 C99 743 127 715 127 673 L127 77 C127 35 99 7 57 7 L31 7 L31 0 L565 0 L565 2 C572 38 580 85 586 121 L574 121 L568 104 C548 45 492 5 429 5 L314 5 C268 5 263 23 263 51 L263 385 L368 385 C416 385 452 353 460 305 L468 259 L480 259 L480 259 Z " />
<glyph glyph-name="Igrave" unicode="&#xcc;" horiz-adv-x="385" d="M-22 988 C-22 980 2 958 38 929 L182 811 L197 826 L90 981 C64 1020 43 1046 36 1046 C5 1046 -22 1019 -22 988 L-22 988 Z M325 7 L299 7 C269 7 249 27 249 57 L249 693 C249 723 269 743 299 743 L325 743 L325 750 L38 750 L38 743 L64 743 C94 743 114 723 114 693 L114 57 C114 27 94 7 64 7 L38 7 L38 0 L325 0 L325 7 L325 7 Z " />
<glyph glyph-name="Iacute" unicode="&#xcd;" horiz-adv-x="385" d="M190 811 L334 929 C370 959 394 982 394 988 C394 1019 367 1046 336 1046 C330 1046 310 1020 282 981 L175 826 L190 811 L190 811 Z M325 7 L299 7 C269 7 249 27 249 57 L249 693 C249 723 269 743 299 743 L325 743 L325 750 L38 750 L38 743 L64 743 C94 743 114 723 114 693 L114 57 C114 27 94 7 64 7 L38 7 L38 0 L325 0 L325 7 L325 7 Z " />
<glyph glyph-name="Icircumflex" unicode="&#xce;" horiz-adv-x="385" d="M222 996 C214 1008 194 1037 181 1037 C169 1037 149 1008 141 996 L27 818 L42 805 L181 922 L320 805 L335 818 L222 996 L222 996 Z M325 7 L299 7 C269 7 249 27 249 57 L249 693 C249 723 269 743 299 743 L325 743 L325 750 L38 750 L38 743 L64 743 C94 743 114 723 114 693 L114 57 C114 27 94 7 64 7 L38 7 L38 0 L325 0 L325 7 L325 7 Z " />
<glyph glyph-name="Idieresis" unicode="&#xcf;" horiz-adv-x="385" d="M258 865 C302 865 332 895 332 939 C332 984 302 1014 258 1014 C214 1014 184 984 184 939 C184 895 214 865 258 865 L258 865 Z M104 865 C148 865 178 895 178 939 C178 984 148 1014 104 1014 C60 1014 30 984 30 939 C30 895 60 865 104 865 L104 865 Z M325 7 L299 7 C269 7 249 27 249 57 L249 693 C249 723 269 743 299 743 L325 743 L325 750 L38 750 L38 743 L64 743 C94 743 114 723 114 693 L114 57 C114 27 94 7 64 7 L38 7 L38 0 L325 0 L325 7 L325 7 Z " />
<glyph glyph-name="Ntilde" unicode="&#xd1;" horiz-adv-x="742" d="M246 870 C246 903 260 925 280 925 C321 925 377 860 418 860 C461 860 489 916 489 1001 L486 1001 C486 965 470 941 445 941 C404 941 348 1006 307 1006 C269 1006 243 952 243 870 L246 870 L246 870 Z M-46 743 L-20 743 C7 743 38 727 60 702 L127 610 L126 58 L126 58 C126 28 106 8 76 8 L50 8 L50 1 L243 1 L243 8 L217 8 C187 8 167 28 167 58 L167 58 L164 561 C299 375 434 189 569 2 L596 2 L605 701 C608 727 628 744 656 744 L682 744 L682 751 L490 751 L490 744 L516 744 C546 744 566 724 566 694 L566 694 L568 233 C443 406 318 579 193 752 L-46 752 L-46 743 L-46 743 Z " />
<glyph glyph-name="Ograve" unicode="&#xd2;" horiz-adv-x="847" d="M187 375 C187 603 276 755 410 755 C551 755 645 603 645 375 C645 147 548 -5 402 -5 C273 -5 187 147 187 375 L187 375 Z M40 375 C40 144 184 -10 401 -10 C636 -10 792 144 792 375 C792 606 640 760 411 760 C188 760 40 606 40 375 L40 375 Z M208 988 C208 980 232 958 268 929 L412 811 L427 826 L320 981 C294 1020 273 1046 266 1046 C235 1046 208 1019 208 988 L208 988 Z " />
<glyph glyph-name="Oacute" unicode="&#xd3;" horiz-adv-x="847" d="M420 811 L564 929 C600 959 624 982 624 988 C624 1019 597 1046 566 1046 C560 1046 540 1020 512 981 L405 826 L420 811 L420 811 Z M187 375 C187 603 276 755 410 755 C551 755 645 603 645 375 C645 147 548 -5 402 -5 C273 -5 187 147 187 375 L187 375 Z M40 375 C40 144 184 -10 401 -10 C636 -10 792 144 792 375 C792 606 640 760 411 760 C188 760 40 606 40 375 L40 375 Z " />
<glyph glyph-name="Ocircumflex" unicode="&#xd4;" horiz-adv-x="847" d="M187 375 C187 603 276 755 410 755 C551 755 645 603 645 375 C645 147 548 -5 402 -5 C273 -5 187 147 187 375 L187 375 Z M40 375 C40 144 184 -10 401 -10 C636 -10 792 144 792 375 C792 606 640 760 411 760 C188 760 40 606 40 375 L40 375 Z M452 996 C444 1008 424 1037 411 1037 C399 1037 379 1008 371 996 L257 818 L272 805 L411 922 L550 805 L565 818 L452 996 L452 996 Z " />
<glyph glyph-name="Otilde" unicode="&#xd5;" horiz-adv-x="847" d="M291 870 C291 903 305 925 325 925 C366 925 422 860 463 860 C506 860 534 916 534 1001 L531 1001 C531 965 515 941 490 941 C449 941 393 1006 352 1006 C314 1006 288 952 288 870 L291 870 L291 870 Z M187 375 C187 603 276 755 410 755 C551 755 645 603 645 375 C645 147 548 -5 402 -5 C273 -5 187 147 187 375 L187 375 Z M40 375 C40 144 184 -10 401 -10 C636 -10 792 144 792 375 C792 606 640 760 411 760 C188 760 40 606 40 375 L40 375 Z " />
<glyph glyph-name="Odieresis" unicode="&#xd6;" horiz-adv-x="847" d="M488 865 C532 865 562 895 562 939 C562 984 532 1014 488 1014 C444 1014 414 984 414 939 C414 895 444 865 488 865 L488 865 Z M334 865 C378 865 408 895 408 939 C408 984 378 1014 334 1014 C290 1014 260 984 260 939 C260 895 290 865 334 865 L334 865 Z M187 375 C187 603 276 755 410 755 C551 755 645 603 645 375 C645 147 548 -5 402 -5 C273 -5 187 147 187 375 L187 375 Z M40 375 C40 144 184 -10 401 -10 C636 -10 792 144 792 375 C792 606 640 760 411 760 C188 760 40 606 40 375 L40 375 Z " />
<glyph glyph-name="Oslash" unicode="&#xd8;" horiz-adv-x="847" d="M43 -13 C43 -13 79 24 144 91 C207 27 295 -9 401 -9 C636 -9 792 145 792 376 C792 489 755 584 691 651 C725 686 760 722 796 759 L790 765 C754 729 719 693 685 659 C618 725 524 763 411 763 C188 763 40 609 40 378 C40 263 76 167 139 100 C74 33 38 -4 38 -4 L43 -13 L43 -13 Z M614 585 C450 417 314 278 215 177 C197 233 187 301 187 377 C187 605 276 757 410 757 C502 757 574 692 613 584 L614 585 L614 585 Z M616 575 C635 519 645 452 645 377 C645 149 548 -3 402 -3 C319 -3 254 61 218 168 C316 269 452 408 616 576 L616 575 L616 575 Z " />
<glyph glyph-name="Ugrave" unicode="&#xd9;" horiz-adv-x="754" d="M167 988 C167 980 191 958 227 929 L371 811 L386 826 L279 981 C253 1020 232 1046 225 1046 C194 1046 167 1019 167 988 L167 988 Z M724 45 L698 38 C668 30 648 45 648 75 L648 750 L437 750 L437 743 L463 743 C493 743 513 723 513 693 L513 195 C480 124 412 77 342 77 C274 77 228 131 228 213 L228 750 L16 750 L16 743 L42 743 C72 743 92 723 92 693 L92 213 C92 79 170 -10 287 -10 C382 -10 473 48 513 134 L513 0 L581 0 L616 9 C652 19 692 30 724 38 L724 45 L724 45 Z " />
<glyph glyph-name="Uacute" unicode="&#xda;" horiz-adv-x="754" d="M379 811 L523 929 C559 959 583 982 583 988 C583 1019 556 1046 525 1046 C519 1046 499 1020 471 981 L364 826 L379 811 L379 811 Z M724 45 L698 38 C668 30 648 45 648 75 L648 750 L437 750 L437 743 L463 743 C493 743 513 723 513 693 L513 195 C480 124 412 77 342 77 C274 77 228 131 228 213 L228 750 L16 750 L16 743 L42 743 C72 743 92 723 92 693 L92 213 C92 79 170 -10 287 -10 C382 -10 473 48 513 134 L513 0 L581 0 L616 9 C652 19 692 30 724 38 L724 45 L724 45 Z " />
<glyph glyph-name="Ucircumflex" unicode="&#xdb;" horiz-adv-x="754" d="M411 996 C403 1008 383 1037 370 1037 C358 1037 338 1008 330 996 L216 818 L231 805 L370 922 L509 805 L524 818 L411 996 L411 996 Z M724 45 L698 38 C668 30 648 45 648 75 L648 750 L437 750 L437 743 L463 743 C493 743 513 723 513 693 L513 195 C480 124 412 77 342 77 C274 77 228 131 228 213 L228 750 L16 750 L16 743 L42 743 C72 743 92 723 92 693 L92 213 C92 79 170 -10 287 -10 C382 -10 473 48 513 134 L513 0 L581 0 L616 9 C652 19 692 30 724 38 L724 45 L724 45 Z " />
<glyph glyph-name="Udieresis" unicode="&#xdc;" horiz-adv-x="754" d="M447 865 C491 865 521 895 521 939 C521 984 491 1014 447 1014 C403 1014 373 984 373 939 C373 895 403 865 447 865 L447 865 Z M293 865 C337 865 367 895 367 939 C367 984 337 1014 293 1014 C249 1014 219 984 219 939 C219 895 249 865 293 865 L293 865 Z M724 45 L698 38 C668 30 648 45 648 75 L648 750 L437 750 L437 743 L463 743 C493 743 513 723 513 693 L513 195 C480 124 412 77 342 77 C274 77 228 131 228 213 L228 750 L16 750 L16 743 L42 743 C72 743 92 723 92 693 L92 213 C92 79 170 -10 287 -10 C382 -10 473 48 513 134 L513 0 L581 0 L616 9 C652 19 692 30 724 38 L724 45 L724 45 Z " />
<glyph glyph-name="Yacute" unicode="&#xdd;" horiz-adv-x="706" d="M371 811 L516 929 C551 958 575 981 575 988 C575 1019 549 1046 518 1046 C511 1046 490 1020 463 981 L357 826 L371 811 L371 811 Z M302 750 L-11 750 L-11 743 C25 743 54 728 76 695 L294 315 L294 76 C294 34 266 6 224 6 L198 6 L198 -1 L525 -1 L525 6 L499 6 C457 6 429 34 429 76 L429 336 C484 453 539 570 595 687 C611 720 643 742 676 742 L707 742 L707 749 L497 749 L497 742 L555 742 C588 742 599 720 584 687 L585 687 L427 343 C364 458 301 573 239 688 C221 721 231 743 264 743 L301 743 L302 750 L302 750 Z " />
<glyph glyph-name="agrave" unicode="&#xe0;" horiz-adv-x="479" d="M489 124 L482 128 C477 97 451 77 418 77 C387 77 367 94 367 120 L367 353 C367 461 315 510 237 510 C129 510 57 414 57 360 C57 312 86 280 129 280 C163 280 185 313 185 337 C185 356 165 377 165 399 C165 436 192 503 232 503 C244 503 252 469 252 394 L252 261 C106 177 37 131 37 94 C37 32 77 -10 137 -10 C168 -10 207 15 257 79 C271 27 313 -6 370 -6 C427 -6 474 46 488 123 L489 124 L489 124 Z M33 737 C33 729 57 707 93 678 L237 560 L252 575 L145 730 C119 769 98 795 91 795 C60 795 33 768 33 737 L33 737 Z M251 256 L251 119 C251 106 252 94 255 83 C234 60 214 51 196 51 C169 51 151 73 151 106 C151 186 183 217 250 257 L251 256 L251 256 Z " />
<glyph glyph-name="aacute" unicode="&#xe1;" horiz-adv-x="479" d="M246 561 L390 679 C426 709 450 732 450 738 C450 769 423 796 392 796 C386 796 366 770 338 731 L231 576 L246 561 L246 561 Z M489 124 L482 128 C477 97 451 77 418 77 C387 77 367 94 367 120 L367 353 C367 461 315 510 237 510 C129 510 57 414 57 360 C57 312 86 280 129 280 C163 280 185 313 185 337 C185 356 165 377 165 399 C165 436 192 503 232 503 C244 503 252 469 252 394 L252 261 C106 177 37 131 37 94 C37 32 77 -10 137 -10 C168 -10 207 15 257 79 C271 27 313 -6 370 -6 C427 -6 474 46 488 123 L489 124 L489 124 Z M251 256 L251 119 C251 106 252 94 255 83 C234 60 214 51 196 51 C169 51 151 73 151 106 C151 186 183 217 250 257 L251 256 L251 256 Z " />
<glyph glyph-name="acircumflex" unicode="&#xe2;" horiz-adv-x="479" d="M489 124 L482 128 C477 97 451 77 418 77 C387 77 367 94 367 120 L367 353 C367 461 315 510 237 510 C129 510 57 414 57 360 C57 312 86 280 129 280 C163 280 185 313 185 337 C185 356 165 377 165 399 C165 436 192 503 232 503 C244 503 252 469 252 394 L252 261 C106 177 37 131 37 94 C37 32 77 -10 137 -10 C168 -10 207 15 257 79 C271 27 313 -6 370 -6 C427 -6 474 46 488 123 L489 124 L489 124 Z M277 745 C269 757 249 786 236 786 C224 786 204 757 196 745 L82 567 L97 554 L236 671 L375 554 L390 567 L277 745 L277 745 Z M251 256 L251 119 C251 106 252 94 255 83 C234 60 214 51 196 51 C169 51 151 73 151 106 C151 186 183 217 250 257 L251 256 L251 256 Z " />
<glyph glyph-name="atilde" unicode="&#xe3;" horiz-adv-x="479" d="M117 620 C117 653 131 675 151 675 C192 675 248 610 289 610 C332 610 360 666 360 751 L357 751 C357 715 341 691 316 691 C275 691 219 756 178 756 C140 756 114 702 114 620 L117 620 L117 620 Z M489 124 L482 128 C477 97 451 77 418 77 C387 77 367 94 367 120 L367 353 C367 461 315 510 237 510 C129 510 57 414 57 360 C57 312 86 280 129 280 C163 280 185 313 185 337 C185 356 165 377 165 399 C165 436 192 503 232 503 C244 503 252 469 252 394 L252 261 C106 177 37 131 37 94 C37 32 77 -10 137 -10 C168 -10 207 15 257 79 C271 27 313 -6 370 -6 C427 -6 474 46 488 123 L489 124 L489 124 Z M251 256 L251 119 C251 106 252 94 255 83 C234 60 214 51 196 51 C169 51 151 73 151 106 C151 186 183 217 250 257 L251 256 L251 256 Z " />
<glyph glyph-name="adieresis" unicode="&#xe4;" horiz-adv-x="479" d="M314 615 C358 615 388 645 388 689 C388 734 358 764 314 764 C270 764 240 734 240 689 C240 645 270 615 314 615 L314 615 Z M160 615 C204 615 234 645 234 689 C234 734 204 764 160 764 C116 764 86 734 86 689 C86 645 116 615 160 615 L160 615 Z M489 124 L482 128 C477 97 451 77 418 77 C387 77 367 94 367 120 L367 353 C367 461 315 510 237 510 C129 510 57 414 57 360 C57 312 86 280 129 280 C163 280 185 313 185 337 C185 356 165 377 165 399 C165 436 192 503 232 503 C244 503 252 469 252 394 L252 261 C106 177 37 131 37 94 C37 32 77 -10 137 -10 C168 -10 207 15 257 79 C271 27 313 -6 370 -6 C427 -6 474 46 488 123 L489 124 L489 124 Z M251 256 L251 119 C251 106 252 94 255 83 C234 60 214 51 196 51 C169 51 151 73 151 106 C151 186 183 217 250 257 L251 256 L251 256 Z " />
<glyph glyph-name="aring" unicode="&#xe5;" horiz-adv-x="479" d="M172 655 C172 696 198 723 237 723 C276 723 302 696 302 655 C302 618 272 587 237 587 C202 587 172 618 172 655 L172 655 Z M139 655 C139 604 184 560 237 560 C290 560 335 604 335 655 C335 712 296 750 237 750 C178 750 139 712 139 655 L139 655 Z M489 124 L482 128 C477 97 451 77 418 77 C387 77 367 94 367 120 L367 353 C367 461 315 510 237 510 C129 510 57 414 57 360 C57 312 86 280 129 280 C163 280 185 313 185 337 C185 356 165 377 165 399 C165 436 192 503 232 503 C244 503 252 469 252 394 L252 261 C106 177 37 131 37 94 C37 32 77 -10 137 -10 C168 -10 207 15 257 79 C271 27 313 -6 370 -6 C427 -6 474 46 488 123 L489 124 L489 124 Z M251 256 L251 119 C251 106 252 94 255 83 C234 60 214 51 196 51 C169 51 151 73 151 106 C151 186 183 217 250 257 L251 256 L251 256 Z " />
<glyph glyph-name="egrave" unicode="&#xe8;" horiz-adv-x="503" d="M78 738 C78 730 102 708 138 679 L282 561 L297 576 L190 731 C164 770 143 796 136 796 C105 796 78 769 78 738 L78 738 Z M169 340 L473 340 C451 462 378 510 281 510 C139 510 45 431 45 228 C45 85 131 -10 259 -10 C343 -10 419 48 451 135 L449 135 C423 63 350 15 268 15 C207 15 166 119 166 275 C166 299 167 321 169 341 L169 340 L169 340 Z M344 346 L169 345 C180 460 222 507 280 507 C301 507 324 462 345 345 L344 346 L344 346 Z " />
<glyph glyph-name="eacute" unicode="&#xe9;" horiz-adv-x="503" d="M290 561 L434 679 C470 709 494 732 494 738 C494 769 467 796 436 796 C430 796 410 770 382 731 L275 576 L290 561 L290 561 Z M169 340 L473 340 C451 462 378 510 281 510 C139 510 45 431 45 228 C45 85 131 -10 259 -10 C343 -10 419 48 451 135 L449 135 C423 63 350 15 268 15 C207 15 166 119 166 275 C166 299 167 321 169 341 L169 340 L169 340 Z M344 346 L169 345 C180 460 222 507 280 507 C301 507 324 462 345 345 L344 346 L344 346 Z " />
<glyph glyph-name="ecircumflex" unicode="&#xea;" horiz-adv-x="503" d="M322 746 C314 758 294 787 281 787 C269 787 249 758 241 746 L127 568 L142 555 L281 672 L420 555 L435 568 L322 746 L322 746 Z M169 340 L473 340 C451 462 378 510 281 510 C139 510 45 431 45 228 C45 85 131 -10 259 -10 C343 -10 419 48 451 135 L449 135 C423 63 350 15 268 15 C207 15 166 119 166 275 C166 299 167 321 169 341 L169 340 L169 340 Z M344 346 L169 345 C180 460 222 507 280 507 C301 507 324 462 345 345 L344 346 L344 346 Z " />
<glyph glyph-name="edieresis" unicode="&#xeb;" horiz-adv-x="503" d="M358 615 C402 615 432 645 432 689 C432 734 402 764 358 764 C314 764 284 734 284 689 C284 645 314 615 358 615 L358 615 Z M204 615 C248 615 278 645 278 689 C278 734 248 764 204 764 C160 764 130 734 130 689 C130 645 160 615 204 615 L204 615 Z M169 340 L473 340 C451 462 378 510 281 510 C139 510 45 431 45 228 C45 85 131 -10 259 -10 C343 -10 419 48 451 135 L449 135 C423 63 350 15 268 15 C207 15 166 119 166 275 C166 299 167 321 169 341 L169 340 L169 340 Z M344 346 L169 345 C180 460 222 507 280 507 C301 507 324 462 345 345 L344 346 L344 346 Z " />
<glyph glyph-name="igrave" unicode="&#xec;" horiz-adv-x="324" d="M-37 738 C-37 729 -13 707 22 679 L167 561 L181 576 L75 731 C49 770 28 796 20 796 C-11 796 -37 769 -37 738 L-37 738 Z M52 463 L93 474 C102 477 108 472 108 463 L108 22 C108 13 102 7 93 7 L52 7 L52 0 L279 0 L279 7 L238 7 C229 7 223 13 223 22 L223 500 L166 500 L166 501 C132 492 86 479 52 470 L52 463 L52 463 Z " />
<glyph glyph-name="iacute" unicode="&#xed;" horiz-adv-x="324" d="M-37 738 C-37 729 -13 707 22 679 L167 561 L181 576 L75 731 C49 770 28 796 20 796 C-11 796 -37 769 -37 738 L-37 738 Z M52 463 L93 474 C102 477 108 472 108 463 L108 22 C108 13 102 7 93 7 L52 7 L52 0 L279 0 L279 7 L238 7 C229 7 223 13 223 22 L223 500 L166 500 L166 501 C132 492 86 479 52 470 L52 463 L52 463 Z " />
<glyph glyph-name="icircumflex" unicode="&#xee;" horiz-adv-x="324" d="M206 746 C198 758 178 787 166 787 C153 787 133 758 125 746 L11 568 L27 555 L166 671 L304 555 L320 568 L206 746 L206 746 Z M52 463 L93 474 C102 477 108 472 108 463 L108 22 C108 13 102 7 93 7 L52 7 L52 0 L279 0 L279 7 L238 7 C229 7 223 13 223 22 L223 500 L166 500 L166 501 C132 492 86 479 52 470 L52 463 L52 463 Z " />
<glyph glyph-name="idieresis" unicode="&#xef;" horiz-adv-x="324" d="M242 615 C287 615 317 645 317 689 C317 734 287 764 242 764 C198 764 168 734 168 689 C168 645 198 615 242 615 L242 615 Z M89 615 C133 615 163 645 163 689 C163 734 133 764 89 764 C44 764 14 734 14 689 C14 645 44 615 89 615 L89 615 Z M52 463 L93 474 C102 477 108 472 108 463 L108 22 C108 13 102 7 93 7 L52 7 L52 0 L279 0 L279 7 L238 7 C229 7 223 13 223 22 L223 500 L166 500 L166 501 C132 492 86 479 52 470 L52 463 L52 463 Z " />
<glyph glyph-name="ntilde" unicode="&#xf1;" horiz-adv-x="544" d="M142 620 C142 653 156 675 177 675 C218 675 274 610 315 610 C358 610 386 666 386 751 L383 751 C383 715 367 691 342 691 C300 691 245 756 203 756 C165 756 139 702 139 620 L142 620 L142 620 Z M12 464 L23 464 C49 466 66 451 68 427 C68 331 67 137 67 23 C67 14 61 8 52 8 L11 8 L11 1 L238 1 L238 8 L197 8 C188 8 182 14 182 23 L182 383 C198 427 246 457 302 457 C329 457 343 408 343 334 L343 23 C343 14 337 8 328 8 L287 8 L287 1 L514 1 L514 8 L473 8 C464 8 458 14 458 23 L458 334 C458 440 416 511 334 511 C267 511 207 466 182 399 L182 501 L125 501 L124 500 L124 500 C90 490 46 481 12 471 L12 464 L12 464 Z " />
<glyph glyph-name="ograve" unicode="&#xf2;" horiz-adv-x="589" d="M172 250 C172 402 221 504 295 504 C368 504 417 402 417 250 C417 98 368 -4 295 -4 C221 -4 172 98 172 250 L172 250 Z M45 250 C45 94 145 -10 295 -10 C444 -10 544 94 544 250 C544 406 444 510 295 510 C145 510 45 406 45 250 L45 250 Z M92 738 C92 730 116 708 152 679 L296 561 L311 576 L204 731 C178 770 157 796 150 796 C119 796 92 769 92 738 L92 738 Z " />
<glyph glyph-name="oacute" unicode="&#xf3;" horiz-adv-x="589" d="M304 561 L448 679 C484 709 508 732 508 738 C508 769 481 796 450 796 C444 796 424 770 396 731 L289 576 L304 561 L304 561 Z M172 250 C172 402 221 504 295 504 C368 504 417 402 417 250 C417 98 368 -4 295 -4 C221 -4 172 98 172 250 L172 250 Z M45 250 C45 94 145 -10 295 -10 C444 -10 544 94 544 250 C544 406 444 510 295 510 C145 510 45 406 45 250 L45 250 Z " />
<glyph glyph-name="ocircumflex" unicode="&#xf4;" horiz-adv-x="589" d="M172 250 C172 402 221 504 295 504 C368 504 417 402 417 250 C417 98 368 -4 295 -4 C221 -4 172 98 172 250 L172 250 Z M45 250 C45 94 145 -10 295 -10 C444 -10 544 94 544 250 C544 406 444 510 295 510 C145 510 45 406 45 250 L45 250 Z M336 746 C328 758 308 787 295 787 C283 787 263 758 255 746 L141 568 L156 555 L295 672 L434 555 L449 568 L336 746 L336 746 Z " />
<glyph glyph-name="otilde" unicode="&#xf5;" horiz-adv-x="589" d="M175 620 C175 653 189 675 209 675 C250 675 306 610 347 610 C390 610 418 666 418 751 L415 751 C415 715 399 691 374 691 C333 691 277 756 236 756 C198 756 172 702 172 620 L175 620 L175 620 Z M172 250 C172 402 221 504 295 504 C368 504 417 402 417 250 C417 98 368 -4 295 -4 C221 -4 172 98 172 250 L172 250 Z M45 250 C45 94 145 -10 295 -10 C444 -10 544 94 544 250 C544 406 444 510 295 510 C145 510 45 406 45 250 L45 250 Z " />
<glyph glyph-name="odieresis" unicode="&#xf6;" horiz-adv-x="589" d="M372 615 C416 615 446 645 446 689 C446 734 416 764 372 764 C328 764 298 734 298 689 C298 645 328 615 372 615 L372 615 Z M218 615 C262 615 292 645 292 689 C292 734 262 764 218 764 C174 764 144 734 144 689 C144 645 174 615 218 615 L218 615 Z M172 250 C172 402 221 504 295 504 C368 504 417 402 417 250 C417 98 368 -4 295 -4 C221 -4 172 98 172 250 L172 250 Z M45 250 C45 94 145 -10 295 -10 C444 -10 544 94 544 250 C544 406 444 510 295 510 C145 510 45 406 45 250 L45 250 Z " />
<glyph glyph-name="oslash" unicode="&#xf8;" horiz-adv-x="589" d="M47 -12 C47 -12 71 13 115 59 C159 15 221 -10 295 -10 C444 -10 544 94 544 250 C544 327 520 391 478 436 C500 459 523 483 547 508 L543 512 C520 488 497 464 475 441 C431 485 369 510 296 510 C146 510 46 406 46 250 C46 173 70 109 113 64 C69 18 45 -7 45 -7 L47 -12 L47 -12 Z M407 370 C319 278 244 199 185 138 C178 171 174 209 174 251 C174 403 223 505 297 505 C349 505 389 454 408 370 L407 370 L407 370 Z M409 363 C416 330 420 292 420 250 C420 98 371 -4 298 -4 C246 -4 206 47 187 131 C246 192 321 271 409 363 L409 363 Z " />
<glyph glyph-name="ugrave" unicode="&#xf9;" horiz-adv-x="521" d="M49 738 C49 729 73 707 108 679 L253 561 L267 576 L161 731 C135 770 114 796 106 796 C75 796 49 769 49 738 L49 738 Z M506 40 L490 35 C460 27 440 42 440 72 L440 500 L269 500 L269 493 L310 493 C319 493 325 487 325 478 L325 130 C307 94 275 70 242 70 C204 70 178 104 178 155 L178 500 L7 500 L7 493 L48 493 C57 493 63 487 63 478 L63 155 C63 56 113 -10 188 -10 C238 -10 291 43 325 124 L325 0 L382 0 L382 -1 C419 9 469 23 506 33 L506 40 L506 40 Z " />
<glyph glyph-name="uacute" unicode="&#xfa;" horiz-adv-x="521" d="M260 561 L405 679 C440 708 464 731 464 738 C464 769 438 796 407 796 C400 796 379 770 352 731 L246 576 L260 561 L260 561 Z M506 40 L490 35 C460 27 440 42 440 72 L440 500 L269 500 L269 493 L310 493 C319 493 325 487 325 478 L325 130 C307 94 275 70 242 70 C204 70 178 104 178 155 L178 500 L7 500 L7 493 L48 493 C57 493 63 487 63 478 L63 155 C63 56 113 -10 188 -10 C238 -10 291 43 325 124 L325 0 L382 0 L382 -1 C419 9 469 23 506 33 L506 40 L506 40 Z " />
<glyph glyph-name="ucircumflex" unicode="&#xfb;" horiz-adv-x="521" d="M292 746 C284 758 264 787 252 787 C239 787 219 758 211 746 L97 568 L113 555 L252 671 L390 555 L406 568 L292 746 L292 746 Z M506 40 L490 35 C460 27 440 42 440 72 L440 500 L269 500 L269 493 L310 493 C319 493 325 487 325 478 L325 130 C307 94 275 70 242 70 C204 70 178 104 178 155 L178 500 L7 500 L7 493 L48 493 C57 493 63 487 63 478 L63 155 C63 56 113 -10 188 -10 C238 -10 291 43 325 124 L325 0 L382 0 L382 -1 C419 9 469 23 506 33 L506 40 L506 40 Z " />
<glyph glyph-name="udieresis" unicode="&#xfc;" horiz-adv-x="521" d="M328 615 C373 615 403 645 403 689 C403 734 373 764 328 764 C284 764 254 734 254 689 C254 645 284 615 328 615 L328 615 Z M175 615 C219 615 249 645 249 689 C249 734 219 764 175 764 C130 764 100 734 100 689 C100 645 130 615 175 615 L175 615 Z M506 40 L490 35 C460 27 440 42 440 72 L440 500 L269 500 L269 493 L310 493 C319 493 325 487 325 478 L325 130 C307 94 275 70 242 70 C204 70 178 104 178 155 L178 500 L7 500 L7 493 L48 493 C57 493 63 487 63 478 L63 155 C63 56 113 -10 188 -10 C238 -10 291 43 325 124 L325 0 L382 0 L382 -1 C419 9 469 23 506 33 L506 40 L506 40 Z " />
<glyph glyph-name="ydieresis" unicode="&#xff;" horiz-adv-x="542" d="M385 615 C429 615 459 645 459 689 C459 734 429 764 385 764 C341 764 311 734 311 689 C311 645 341 615 385 615 L385 615 Z M231 615 C275 615 305 645 305 689 C305 734 275 764 231 764 C187 764 157 734 157 689 C157 645 187 615 231 615 L231 615 Z M534 500 L373 500 L373 493 C404 493 419 480 411 447 L319 167 C283 257 246 348 211 438 C198 471 207 493 234 493 L242 493 L242 500 L7 500 L7 493 C41 493 66 478 82 445 L258 3 C237 -48 217 -100 197 -151 C187 -177 172 -194 170 -194 C148 -194 143 -156 120 -156 C91 -156 71 -176 71 -205 C71 -238 93 -260 125 -260 C156 -260 204 -222 226 -166 L288 -10 C345 142 403 294 461 446 C477 479 501 494 535 494 L534 500 L534 500 Z " />
<glyph glyph-name="Amacron" unicode="&#x100;" horiz-adv-x="742" d="M245 890 L496 890 L496 970 L245 970 L245 890 L245 890 Z M262 9 L238 9 C180 9 150 46 162 103 L210 294 L427 294 L485 98 C496 44 467 9 411 9 L388 9 L388 0 L739 0 L739 9 L726 9 C686 9 647 43 627 95 C558 320 489 546 419 771 L406 771 C411 744 370 719 303 710 L306 700 L154 100 C136 46 88 11 32 11 L6 11 L6 2 L263 2 L262 9 L262 9 Z M211 301 L309 694 L426 301 L211 301 L211 301 Z " />
<glyph glyph-name="amacron" unicode="&#x101;" horiz-adv-x="479" d="M112 640 L362 640 L362 720 L112 720 L112 640 L112 640 Z M489 124 L482 128 C477 97 451 77 418 77 C387 77 367 94 367 120 L367 353 C367 461 315 510 237 510 C129 510 57 414 57 360 C57 312 86 280 129 280 C163 280 185 313 185 337 C185 356 165 377 165 399 C165 436 192 503 232 503 C244 503 252 469 252 394 L252 261 C106 177 37 131 37 94 C37 32 77 -10 137 -10 C168 -10 207 15 257 79 C271 27 313 -6 370 -6 C427 -6 474 46 488 123 L489 124 L489 124 Z M251 256 L251 119 C251 106 252 94 255 83 C234 60 214 51 196 51 C169 51 151 73 151 106 C151 186 183 217 250 257 L251 256 L251 256 Z " />
<glyph glyph-name="Abreve" unicode="&#x102;" horiz-adv-x="742" d="M246 994 C256 910 306 854 371 854 C436 854 485 909 495 992 L471 995 C467 959 427 935 371 935 C315 935 274 960 270 998 L246 994 L246 994 Z M262 9 L238 9 C180 9 150 46 162 103 L210 294 L427 294 L485 98 C496 44 467 9 411 9 L388 9 L388 0 L739 0 L739 9 L726 9 C686 9 647 43 627 95 C558 320 489 546 419 771 L406 771 C411 744 370 719 303 710 L306 700 L154 100 C136 46 88 11 32 11 L6 11 L6 2 L263 2 L262 9 L262 9 Z M211 301 L309 694 L426 301 L211 301 L211 301 Z " />
<glyph glyph-name="abreve" unicode="&#x103;" horiz-adv-x="479" d="M112 744 C122 660 172 604 237 604 C302 604 352 659 362 742 L338 745 C334 709 293 685 237 685 C181 685 140 710 136 748 L112 744 L112 744 Z M489 124 L482 128 C477 97 451 77 418 77 C387 77 367 94 367 120 L367 353 C367 461 315 510 237 510 C129 510 57 414 57 360 C57 312 86 280 129 280 C163 280 185 313 185 337 C185 356 165 377 165 399 C165 436 192 503 232 503 C244 503 252 469 252 394 L252 261 C106 177 37 131 37 94 C37 32 77 -10 137 -10 C168 -10 207 15 257 79 C271 27 313 -6 370 -6 C427 -6 474 46 488 123 L489 124 L489 124 Z M251 256 L251 119 C251 106 252 94 255 83 C234 60 214 51 196 51 C169 51 151 73 151 106 C151 186 183 217 250 257 L251 256 L251 256 Z " />
<glyph glyph-name="Cacute" unicode="&#x106;" horiz-adv-x="728" d="M430 811 L574 929 C610 959 634 982 634 988 C634 1019 607 1046 576 1046 C570 1046 550 1020 522 981 L415 826 L430 811 L430 811 Z M686 533 L686 739 L676 739 C675 733 675 724 674 718 C670 688 648 682 616 702 C568 738 510 760 421 760 C192 760 40 606 40 375 C40 144 189 -10 412 -10 C495 -10 557 11 608 46 L608 46 C644 70 670 64 674 31 C675 24 675 16 676 9 L686 9 L686 218 L669 218 C667 212 665 203 663 197 C645 142 598 80 546 43 C504 13 461 -4 414 -4 C279 -4 189 148 189 376 C189 604 283 756 423 756 C536 756 634 645 663 555 C665 549 667 540 669 534 L686 533 L686 533 Z M670 619 L670 619 L670 619 L670 619 Z M670 133 L670 133 L670 133 L670 133 Z " />
<glyph glyph-name="Ccircumflex" unicode="&#x108;" horiz-adv-x="728" d="M686 533 L686 739 L676 739 C675 733 675 724 674 718 C670 688 648 682 616 702 C568 738 510 760 421 760 C192 760 40 606 40 375 C40 144 189 -10 412 -10 C495 -10 557 11 608 46 L608 46 C644 70 670 64 674 31 C675 24 675 16 676 9 L686 9 L686 218 L669 218 C667 212 665 203 663 197 C645 142 598 80 546 43 C504 13 461 -4 414 -4 C279 -4 189 148 189 376 C189 604 283 756 423 756 C536 756 634 645 663 555 C665 549 667 540 669 534 L686 533 L686 533 Z M462 997 C454 1009 434 1038 421 1038 C409 1038 389 1009 381 997 L267 819 L282 806 L421 923 L560 806 L575 819 L462 997 L462 997 Z M670 619 L670 619 L670 619 L670 619 Z M670 133 L670 133 L670 133 L670 133 Z " />
<glyph glyph-name="Cdot" unicode="&#x10a;" horiz-adv-x="728" d="M421 865 C465 865 495 895 495 939 C495 984 465 1014 421 1014 C377 1014 347 984 347 939 C347 895 377 865 421 865 L421 865 Z M686 533 L686 739 L676 739 C675 733 675 724 674 718 C670 688 648 682 616 702 C568 738 510 760 421 760 C192 760 40 606 40 375 C40 144 189 -10 412 -10 C495 -10 557 11 608 46 L608 46 C644 70 670 64 674 31 C675 24 675 16 676 9 L686 9 L686 218 L669 218 C667 212 665 203 663 197 C645 142 598 80 546 43 C504 13 461 -4 414 -4 C279 -4 189 148 189 376 C189 604 283 756 423 756 C536 756 634 645 663 555 C665 549 667 540 669 534 L686 533 L686 533 Z M670 619 L670 619 L670 619 L670 619 Z M670 133 L670 133 L670 133 L670 133 Z " />
<glyph glyph-name="cdot" unicode="&#x10b;" horiz-adv-x="496" d="M315 615 C359 615 389 645 389 689 C389 734 359 764 315 764 C271 764 241 734 241 689 C241 645 271 615 315 615 L315 615 Z M466 128 L463 129 C432 59 372 13 313 13 C225 13 167 119 167 277 C167 414 226 506 314 506 C314 506 329 466 351 405 C363 371 387 348 409 348 C456 348 478 371 466 405 C443 468 383 510 315 510 C153 510 45 400 45 234 C45 88 147 -10 300 -10 C363 -10 429 45 466 128 L466 128 Z " />
<glyph glyph-name="Ccaron" unicode="&#x10c;" horiz-adv-x="728" d="M560 1045 L421 928 L282 1045 L267 1032 L381 854 C389 842 409 813 421 813 C434 813 454 842 462 854 L575 1032 L560 1045 L560 1045 Z M686 533 L686 739 L676 739 C675 733 675 724 674 718 C670 688 648 682 616 702 C568 738 510 760 421 760 C192 760 40 606 40 375 C40 144 189 -10 412 -10 C495 -10 557 11 608 46 L608 46 C644 70 670 64 674 31 C675 24 675 16 676 9 L686 9 L686 218 L669 218 C667 212 665 203 663 197 C645 142 598 80 546 43 C504 13 461 -4 414 -4 C279 -4 189 148 189 376 C189 604 283 756 423 756 C536 756 634 645 663 555 C665 549 667 540 669 534 L686 533 L686 533 Z M670 619 L670 619 L670 619 L670 619 Z M670 133 L670 133 L670 133 L670 133 Z " />
<glyph glyph-name="ccaron" unicode="&#x10d;" horiz-adv-x="496" d="M454 795 L315 678 L176 795 L161 782 L275 604 C283 592 303 563 315 563 C328 563 348 592 356 604 L469 782 L454 795 L454 795 Z M466 128 L463 129 C432 59 372 13 313 13 C225 13 167 119 167 277 C167 414 226 506 314 506 C314 506 329 466 351 405 C363 371 387 348 409 348 C456 348 478 371 466 405 C443 468 383 510 315 510 C153 510 45 400 45 234 C45 88 147 -10 300 -10 C363 -10 429 45 466 128 L466 128 Z " />
<glyph glyph-name="Dcaron" unicode="&#x10e;" horiz-adv-x="839" d="M520 1045 L381 928 L242 1045 L227 1032 L341 854 C349 842 369 813 381 813 C394 813 414 842 422 854 L535 1032 L520 1045 L520 1045 Z M323 4 C269 4 263 23 263 51 L263 746 L346 746 C537 746 635 598 635 375 C635 130 510 4 323 4 L323 4 Z M51 743 L77 743 C107 743 127 723 127 693 L127 57 C127 27 107 7 77 7 L51 7 L51 0 L330 0 C602 0 784 128 784 375 C784 600 641 750 363 750 L51 750 L51 743 L51 743 Z " />
<glyph glyph-name="dcaron" unicode="&#x10f;" horiz-adv-x="566" d="M559 757 C535 757 527 694 525 648 L520 536 L540 532 L585 636 C601 671 611 713 611 740 C611 752 590 757 559 757 L559 757 Z M304 713 L315 713 C342 714 360 698 360 671 L360 420 C333 472 289 510 244 510 C113 510 45 406 45 249 C45 97 117 -5 225 -5 C272 -5 325 24 360 69 L360 0 L417 0 L417 -1 C457 10 511 25 551 35 L551 42 L525 35 C495 27 475 42 475 72 L475 750 L418 750 C413 749 360 738 360 735 C340 730 320 725 303 721 L304 713 L304 713 Z M359 376 L359 78 C339 58 306 45 272 45 C206 45 162 140 162 283 C162 401 194 479 256 479 C299 479 342 432 359 377 L359 376 L359 376 Z " />
<glyph glyph-name="Emacron" unicode="&#x112;" horiz-adv-x="633" d="M208 890 L459 890 L459 970 L208 970 L208 890 L208 890 Z M480 259 L480 516 L468 516 L460 470 C452 422 416 390 368 390 L263 390 L263 745 L429 745 C477 745 517 713 531 665 L544 619 L556 619 C552 658 545 709 541 748 L540 748 L540 750 L31 750 L31 743 L57 743 C99 743 127 715 127 673 L127 77 C127 35 99 7 57 7 L31 7 L31 0 L565 0 L565 2 C572 38 580 85 586 121 L574 121 L568 104 C548 45 492 5 429 5 L314 5 C268 5 263 23 263 51 L263 385 L368 385 C416 385 452 353 460 305 L468 259 L480 259 L480 259 Z " />
<glyph glyph-name="emacron" unicode="&#x113;" horiz-adv-x="503" d="M156 640 L406 640 L406 720 L156 720 L156 640 L156 640 Z M169 340 L473 340 C451 462 378 510 281 510 C139 510 45 431 45 228 C45 85 131 -10 259 -10 C343 -10 419 48 451 135 L449 135 C423 63 350 15 268 15 C207 15 166 119 166 275 C166 299 167 321 169 341 L169 340 L169 340 Z M344 346 L169 345 C180 460 222 507 280 507 C301 507 324 462 345 345 L344 346 L344 346 Z " />
<glyph glyph-name="Ebreve" unicode="&#x114;" horiz-adv-x="633" d="M209 994 C219 910 269 854 334 854 C399 854 448 909 458 992 L434 995 C430 959 390 935 334 935 C278 935 237 960 233 998 L209 994 L209 994 Z M480 259 L480 516 L468 516 L460 470 C452 422 416 390 368 390 L263 390 L263 745 L429 745 C477 745 517 713 531 665 L544 619 L556 619 C552 658 545 709 541 748 L540 748 L540 750 L31 750 L31 743 L57 743 C99 743 127 715 127 673 L127 77 C127 35 99 7 57 7 L31 7 L31 0 L565 0 L565 2 C572 38 580 85 586 121 L574 121 L568 104 C548 45 492 5 429 5 L314 5 C268 5 263 23 263 51 L263 385 L368 385 C416 385 452 353 460 305 L468 259 L480 259 L480 259 Z " />
<glyph glyph-name="ebreve" unicode="&#x115;" horiz-adv-x="503" d="M156 744 C166 660 216 604 281 604 C346 604 396 659 406 742 L382 745 C378 709 337 685 281 685 C225 685 184 710 180 748 L156 744 L156 744 Z M169 340 L473 340 C451 462 378 510 281 510 C139 510 45 431 45 228 C45 85 131 -10 259 -10 C343 -10 419 48 451 135 L449 135 C423 63 350 15 268 15 C207 15 166 119 166 275 C166 299 167 321 169 341 L169 340 L169 340 Z M344 346 L169 345 C180 460 222 507 280 507 C301 507 324 462 345 345 L344 346 L344 346 Z " />
<glyph glyph-name="Edot" unicode="&#x116;" horiz-adv-x="633" d="M334 865 C378 865 408 895 408 939 C408 984 378 1014 334 1014 C289 1014 259 984 259 939 C259 895 289 865 334 865 L334 865 Z M480 259 L480 516 L468 516 L460 470 C452 422 416 390 368 390 L263 390 L263 745 L429 745 C477 745 517 713 531 665 L544 619 L556 619 C552 658 545 709 541 748 L540 748 L540 750 L31 750 L31 743 L57 743 C99 743 127 715 127 673 L127 77 C127 35 99 7 57 7 L31 7 L31 0 L565 0 L565 2 C572 38 580 85 586 121 L574 121 L568 104 C548 45 492 5 429 5 L314 5 C268 5 263 23 263 51 L263 385 L368 385 C416 385 452 353 460 305 L468 259 L480 259 L480 259 Z " />
<glyph glyph-name="edot" unicode="&#x117;" horiz-adv-x="503" d="M281 615 C325 615 355 645 355 689 C355 734 325 764 281 764 C237 764 207 734 207 689 C207 645 237 615 281 615 L281 615 Z M169 340 L473 340 C451 462 378 510 281 510 C139 510 45 431 45 228 C45 85 131 -10 259 -10 C343 -10 419 48 451 135 L449 135 C423 63 350 15 268 15 C207 15 166 119 166 275 C166 299 167 321 169 341 L169 340 L169 340 Z M344 346 L169 345 C180 460 222 507 280 507 C301 507 324 462 345 345 L344 346 L344 346 Z " />
<glyph glyph-name="Ecaron" unicode="&#x11a;" horiz-adv-x="633" d="M472 1045 L334 929 L195 1045 L179 1032 L293 854 C301 842 321 813 334 813 C346 813 366 842 374 854 L488 1032 L472 1045 L472 1045 Z M480 259 L480 516 L468 516 L460 470 C452 422 416 390 368 390 L263 390 L263 745 L429 745 C477 745 517 713 531 665 L544 619 L556 619 C552 658 545 709 541 748 L540 748 L540 750 L31 750 L31 743 L57 743 C99 743 127 715 127 673 L127 77 C127 35 99 7 57 7 L31 7 L31 0 L565 0 L565 2 C572 38 580 85 586 121 L574 121 L568 104 C548 45 492 5 429 5 L314 5 C268 5 263 23 263 51 L263 385 L368 385 C416 385 452 353 460 305 L468 259 L480 259 L480 259 Z " />
<glyph glyph-name="ecaron" unicode="&#x11b;" horiz-adv-x="503" d="M420 795 L281 678 L142 795 L127 782 L241 604 C249 592 269 563 281 563 C294 563 314 592 322 604 L435 782 L420 795 L420 795 Z M169 340 L473 340 C451 462 378 510 281 510 C139 510 45 431 45 228 C45 85 131 -10 259 -10 C343 -10 419 48 451 135 L449 135 C423 63 350 15 268 15 C207 15 166 119 166 275 C166 299 167 321 169 341 L169 340 L169 340 Z M344 346 L169 345 C180 460 222 507 280 507 C301 507 324 462 345 345 L344 346 L344 346 Z " />
<glyph glyph-name="Gcircumflex" unicode="&#x11c;" horiz-adv-x="806" d="M686 533 L686 739 L676 739 C675 733 675 724 674 718 C670 688 648 682 616 702 C568 738 510 760 421 760 C192 760 40 606 40 375 C40 144 194 -10 426 -10 C567 -10 654 10 741 51 L739 54 C722 46 701 39 673 33 C673 64 673 158 673 231 C673 282 702 316 746 316 L759 316 L759 325 L451 325 L451 316 L464 316 C508 316 537 282 537 231 C538 231 538 130 538 119 C532 57 498 17 448 17 C293 17 189 160 189 375 C189 603 283 755 423 755 C536 755 634 644 663 554 C665 548 667 539 669 533 L686 533 L686 533 Z M462 996 C454 1008 434 1037 421 1037 C409 1037 389 1008 381 996 L267 818 L282 805 L421 922 L560 805 L575 818 L462 996 L462 996 Z M670 618 L670 618 L670 618 L670 618 Z " />
<glyph glyph-name="Gbreve" unicode="&#x11e;" horiz-adv-x="806" d="M296 994 C306 910 356 854 421 854 C486 854 536 909 546 992 L522 995 C518 959 477 935 421 935 C365 935 324 960 320 998 L296 994 L296 994 Z M686 533 L686 739 L676 739 C675 733 675 724 674 718 C670 688 648 682 616 702 C568 738 510 760 421 760 C192 760 40 606 40 375 C40 144 194 -10 426 -10 C567 -10 654 10 741 51 L739 54 C722 46 701 39 673 33 C673 64 673 158 673 231 C673 282 702 316 746 316 L759 316 L759 325 L451 325 L451 316 L464 316 C508 316 537 282 537 231 C538 231 538 130 538 119 C532 57 498 17 448 17 C293 17 189 160 189 375 C189 603 283 755 423 755 C536 755 634 644 663 554 C665 548 667 539 669 533 L686 533 L686 533 Z M670 618 L670 618 L670 618 L670 618 Z " />
<glyph glyph-name="gbreve" unicode="&#x11f;" horiz-adv-x="487" d="M110 744 C120 660 170 604 235 604 C300 604 350 659 360 742 L336 745 C332 709 291 685 235 685 C179 685 138 710 134 748 L110 744 L110 744 Z M510 461 C510 502 480 530 435 530 C404 530 371 508 347 473 C318 496 279 509 234 509 C133 509 66 445 66 349 C66 264 118 203 199 190 C108 183 49 149 49 101 C49 44 78 2 125 -12 C72 -31 38 -64 38 -99 C38 -179 121 -232 245 -232 C369 -232 451 -164 451 -61 C451 34 403 97 279 97 L167 97 C137 97 117 112 117 135 C117 166 164 186 234 186 C334 186 401 251 401 348 C401 392 387 429 363 456 C395 458 430 409 460 409 C489 409 509 429 509 459 L510 461 L510 461 Z M234 190 C202 190 181 253 181 348 C181 442 202 504 234 504 C265 504 286 442 286 348 C286 253 265 190 234 190 L234 190 Z M146 -16 C151 -17 156 -17 161 -17 L267 -17 C331 -17 356 -45 356 -88 C356 -172 312 -228 246 -228 C178 -228 133 -166 133 -72 C133 -48 138 -28 146 -16 L146 -16 Z " />
<glyph glyph-name="Gdot" unicode="&#x120;" horiz-adv-x="806" d="M421 865 C465 865 495 895 495 939 C495 984 465 1014 421 1014 C377 1014 347 984 347 939 C347 895 377 865 421 865 L421 865 Z M686 533 L686 739 L676 739 C675 733 675 724 674 718 C670 688 648 682 616 702 C568 738 510 760 421 760 C192 760 40 606 40 375 C40 144 194 -10 426 -10 C567 -10 654 10 741 51 L739 54 C722 46 701 39 673 33 C673 64 673 158 673 231 C673 282 702 316 746 316 L759 316 L759 325 L451 325 L451 316 L464 316 C508 316 537 282 537 231 C538 231 538 130 538 119 C532 57 498 17 448 17 C293 17 189 160 189 375 C189 603 283 755 423 755 C536 755 634 644 663 554 C665 548 667 539 669 533 L686 533 L686 533 Z M670 618 L670 618 L670 618 L670 618 Z " />
<glyph glyph-name="gdot" unicode="&#x121;" horiz-adv-x="487" d="M235 615 C279 615 309 645 309 689 C309 734 279 764 235 764 C191 764 161 734 161 689 C161 645 191 615 235 615 L235 615 Z M510 461 C510 502 480 530 435 530 C404 530 371 508 347 473 C318 496 279 509 234 509 C133 509 66 445 66 349 C66 264 118 203 199 190 C108 183 49 149 49 101 C49 44 78 2 125 -12 C72 -31 38 -64 38 -99 C38 -179 121 -232 245 -232 C369 -232 451 -164 451 -61 C451 34 403 97 279 97 L167 97 C137 97 117 112 117 135 C117 166 164 186 234 186 C334 186 401 251 401 348 C401 392 387 429 363 456 C395 458 430 409 460 409 C489 409 509 429 509 459 L510 461 L510 461 Z M234 190 C202 190 181 253 181 348 C181 442 202 504 234 504 C265 504 286 442 286 348 C286 253 265 190 234 190 L234 190 Z M146 -16 C151 -17 156 -17 161 -17 L267 -17 C331 -17 356 -45 356 -88 C356 -172 312 -228 246 -228 C178 -228 133 -166 133 -72 C133 -48 138 -28 146 -16 L146 -16 Z " />
<glyph glyph-name="Hcircumflex" unicode="&#x124;" horiz-adv-x="840" d="M474 996 C466 1008 446 1037 434 1037 C421 1037 401 1008 393 996 L279 818 L295 805 L434 921 L572 805 L588 818 L474 996 L474 996 Z M780 7 L754 7 C724 7 704 27 704 57 L704 693 C704 723 724 743 754 743 L780 743 L780 750 L493 750 L493 743 L519 743 C549 743 569 723 569 693 L569 389 L299 389 L299 693 C299 723 319 743 349 743 L375 743 L375 750 L87 750 L87 743 L113 743 C143 743 163 723 163 693 L163 57 C163 27 143 7 113 7 L87 7 L87 0 L375 0 L375 7 L349 7 C319 7 299 27 299 57 L299 383 L569 383 L569 57 C569 27 549 7 519 7 L493 7 L493 0 L780 0 L780 7 L780 7 Z " />
<glyph glyph-name="Itilde" unicode="&#x128;" horiz-adv-x="385" d="M61 870 C61 903 75 925 95 925 C136 925 192 860 233 860 C276 860 304 916 304 1001 L301 1001 C301 965 285 941 260 941 C219 941 163 1006 122 1006 C84 1006 58 952 58 870 L61 870 L61 870 Z M325 7 L299 7 C269 7 249 27 249 57 L249 693 C249 723 269 743 299 743 L325 743 L325 750 L38 750 L38 743 L64 743 C94 743 114 723 114 693 L114 57 C114 27 94 7 64 7 L38 7 L38 0 L325 0 L325 7 L325 7 Z " />
<glyph glyph-name="itilde" unicode="&#x129;" horiz-adv-x="324" d="M45 620 C45 653 59 675 80 675 C121 675 177 610 218 610 C261 610 289 666 289 751 L286 751 C286 715 270 691 245 691 C203 691 148 756 106 756 C68 756 42 702 42 620 L45 620 L45 620 Z M52 463 L93 474 C102 477 108 472 108 463 L108 22 C108 13 102 7 93 7 L52 7 L52 0 L279 0 L279 7 L238 7 C229 7 223 13 223 22 L223 500 L166 500 L166 501 C132 492 86 479 52 470 L52 463 L52 463 Z " />
<glyph glyph-name="Imacron" unicode="&#x12a;" horiz-adv-x="385" d="M56 890 L306 890 L306 970 L56 970 L56 890 L56 890 Z M325 7 L299 7 C269 7 249 27 249 57 L249 693 C249 723 269 743 299 743 L325 743 L325 750 L38 750 L38 743 L64 743 C94 743 114 723 114 693 L114 57 C114 27 94 7 64 7 L38 7 L38 0 L325 0 L325 7 L325 7 Z " />
<glyph glyph-name="imacron" unicode="&#x12b;" horiz-adv-x="324" d="M40 640 L291 640 L291 720 L40 720 L40 640 L40 640 Z M52 463 L93 474 C102 477 108 472 108 463 L108 22 C108 13 102 7 93 7 L52 7 L52 0 L279 0 L279 7 L238 7 C229 7 223 13 223 22 L223 500 L166 500 L166 501 C132 492 86 479 52 470 L52 463 L52 463 Z " />
<glyph glyph-name="Ibreve" unicode="&#x12c;" horiz-adv-x="385" d="M56 994 C66 910 116 854 181 854 C246 854 296 909 306 992 L282 995 C278 959 237 935 181 935 C125 935 84 960 80 998 L56 994 L56 994 Z M325 7 L299 7 C269 7 249 27 249 57 L249 693 C249 723 269 743 299 743 L325 743 L325 750 L38 750 L38 743 L64 743 C94 743 114 723 114 693 L114 57 C114 27 94 7 64 7 L38 7 L38 0 L325 0 L325 7 L325 7 Z " />
<glyph glyph-name="ibreve" unicode="&#x12d;" horiz-adv-x="324" d="M41 744 C51 660 101 604 166 604 C231 604 280 659 290 742 L266 745 C262 709 222 685 166 685 C110 685 69 710 65 748 L41 744 L41 744 Z M52 463 L93 474 C102 477 108 472 108 463 L108 22 C108 13 102 7 93 7 L52 7 L52 0 L279 0 L279 7 L238 7 C229 7 223 13 223 22 L223 500 L166 500 L166 501 C132 492 86 479 52 470 L52 463 L52 463 Z " />
<glyph glyph-name="Idot" unicode="&#x130;" horiz-adv-x="385" d="M181 865 C225 865 255 895 255 939 C255 984 225 1014 181 1014 C137 1014 107 984 107 939 C107 895 137 865 181 865 L181 865 Z M325 7 L299 7 C269 7 249 27 249 57 L249 693 C249 723 269 743 299 743 L325 743 L325 750 L38 750 L38 743 L64 743 C94 743 114 723 114 693 L114 57 C114 27 94 7 64 7 L38 7 L38 0 L325 0 L325 7 L325 7 Z " />
<glyph glyph-name="dotlessi" unicode="&#x131;" horiz-adv-x="324" d="M52 463 L93 474 C102 477 108 472 108 463 L108 22 C108 13 102 7 93 7 L52 7 L52 0 L279 0 L279 7 L238 7 C229 7 223 13 223 22 L223 500 L166 500 L166 501 C132 492 86 479 52 470 L52 463 L52 463 Z " />
<glyph glyph-name="Jcircumflex" unicode="&#x134;" horiz-adv-x="385" d="M222 996 C214 1008 194 1037 181 1037 C169 1037 149 1008 141 996 L27 818 L42 805 L181 922 L320 805 L335 818 L222 996 L222 996 Z M325 750 L38 750 L38 743 L64 743 C93 743 113 724 114 696 C114 543 113 104 113 -106 C113 -195 49 -212 2 -212 C-65 -212 -32 -104 -99 -104 C-136 -104 -160 -128 -160 -165 C-160 -198 -98 -220 -4 -220 C102 -220 249 -161 249 150 L249 693 C249 723 269 743 299 743 L325 743 L325 750 L325 750 Z " />
<glyph glyph-name="Lacute" unicode="&#x139;" horiz-adv-x="609" d="M190 811 L334 929 C370 959 394 982 394 988 C394 1019 367 1046 336 1046 C330 1046 310 1020 282 981 L175 826 L190 811 L190 811 Z M325 750 L38 750 L38 743 L64 743 C94 743 114 723 114 693 L114 57 C114 27 94 7 64 7 L38 7 L38 0 L543 0 L543 16 C550 53 558 102 564 138 L552 138 L546 121 C526 62 470 22 407 22 L300 22 C254 22 249 33 249 50 L249 692 C249 722 269 742 299 742 L325 742 L325 750 L325 750 Z " />
<glyph glyph-name="Lcaron" unicode="&#x13d;" horiz-adv-x="609" d="M425 807 C402 807 393 744 391 698 L385 586 L405 582 L450 686 C466 722 477 764 477 790 C477 802 456 807 425 807 L425 807 Z M325 750 L38 750 L38 743 L64 743 C94 743 114 723 114 693 L114 57 C114 27 94 7 64 7 L38 7 L38 0 L543 0 L543 16 C550 53 558 102 564 138 L552 138 L546 121 C526 62 470 22 407 22 L300 22 C254 22 249 33 249 50 L249 692 C249 722 269 742 299 742 L325 742 L325 750 L325 750 Z " />
<glyph glyph-name="lcaron" unicode="&#x13e;" horiz-adv-x="268" d="M266 757 C242 757 234 694 232 648 L227 536 L247 532 L292 636 C308 671 318 713 318 740 C318 752 297 757 266 757 L266 757 Z M11 714 L22 714 C49 715 67 699 67 672 L67 22 C67 13 61 7 52 7 L11 7 L11 0 L238 0 L238 7 L197 7 C188 7 182 13 182 22 L182 750 L125 750 C91 741 45 730 11 721 L11 714 L11 714 Z " />
<glyph glyph-name="Nacute" unicode="&#x143;" horiz-adv-x="742" d="M275 811 L419 929 C455 959 479 982 479 988 C479 1019 452 1046 421 1046 C415 1046 395 1020 367 981 L260 826 L275 811 L275 811 Z M-46 743 L-20 743 C7 743 38 727 60 702 L127 610 L126 58 L126 58 C126 28 106 8 76 8 L50 8 L50 1 L243 1 L243 8 L217 8 C187 8 167 28 167 58 L167 58 L164 561 C299 375 434 189 569 2 L596 2 L605 701 C608 727 628 744 656 744 L682 744 L682 751 L490 751 L490 744 L516 744 C546 744 566 724 566 694 L566 694 L568 233 C443 406 318 579 193 752 L-46 752 L-46 743 L-46 743 Z " />
<glyph glyph-name="Ncaron" unicode="&#x147;" horiz-adv-x="742" d="M505 1045 L366 928 L227 1045 L212 1032 L326 854 C334 842 354 813 366 813 C379 813 399 842 407 854 L520 1032 L505 1045 L505 1045 Z M-46 743 L-20 743 C7 743 38 727 60 702 L127 610 L126 58 L126 58 C126 28 106 8 76 8 L50 8 L50 1 L243 1 L243 8 L217 8 C187 8 167 28 167 58 L167 58 L164 561 C299 375 434 189 569 2 L596 2 L605 701 C608 727 628 744 656 744 L682 744 L682 751 L490 751 L490 744 L516 744 C546 744 566 724 566 694 L566 694 L568 233 C443 406 318 579 193 752 L-46 752 L-46 743 L-46 743 Z " />
<glyph glyph-name="ncaron" unicode="&#x148;" horiz-adv-x="544" d="M401 795 L263 679 L124 795 L108 782 L222 604 C230 592 250 563 263 563 C275 563 295 592 303 604 L417 782 L401 795 L401 795 Z M12 464 L23 464 C49 466 66 451 68 427 C68 331 67 137 67 23 C67 14 61 8 52 8 L11 8 L11 1 L238 1 L238 8 L197 8 C188 8 182 14 182 23 L182 383 C198 427 246 457 302 457 C329 457 343 408 343 334 L343 23 C343 14 337 8 328 8 L287 8 L287 1 L514 1 L514 8 L473 8 C464 8 458 14 458 23 L458 334 C458 440 416 511 334 511 C267 511 207 466 182 399 L182 501 L125 501 L124 500 L124 500 C90 490 46 481 12 471 L12 464 L12 464 Z " />
<glyph glyph-name="Omacron" unicode="&#x14c;" horiz-adv-x="847" d="M286 890 L536 890 L536 970 L286 970 L286 890 L286 890 Z M187 375 C187 603 276 755 410 755 C551 755 645 603 645 375 C645 147 548 -5 402 -5 C273 -5 187 147 187 375 L187 375 Z M40 375 C40 144 184 -10 401 -10 C636 -10 792 144 792 375 C792 606 640 760 411 760 C188 760 40 606 40 375 L40 375 Z " />
<glyph glyph-name="omacron" unicode="&#x14d;" horiz-adv-x="589" d="M170 640 L420 640 L420 720 L170 720 L170 640 L170 640 Z M172 250 C172 402 221 504 295 504 C368 504 417 402 417 250 C417 98 368 -4 295 -4 C221 -4 172 98 172 250 L172 250 Z M45 250 C45 94 145 -10 295 -10 C444 -10 544 94 544 250 C544 406 444 510 295 510 C145 510 45 406 45 250 L45 250 Z " />
<glyph glyph-name="Obreve" unicode="&#x14e;" horiz-adv-x="847" d="M286 994 C296 910 346 854 411 854 C476 854 526 909 536 992 L512 995 C508 959 467 935 411 935 C355 935 314 960 310 998 L286 994 L286 994 Z M187 375 C187 603 276 755 410 755 C551 755 645 603 645 375 C645 147 548 -5 402 -5 C273 -5 187 147 187 375 L187 375 Z M40 375 C40 144 184 -10 401 -10 C636 -10 792 144 792 375 C792 606 640 760 411 760 C188 760 40 606 40 375 L40 375 Z " />
<glyph glyph-name="obreve" unicode="&#x14f;" horiz-adv-x="589" d="M170 744 C180 660 230 604 295 604 C360 604 410 659 420 742 L396 745 C392 709 351 685 295 685 C239 685 198 710 194 748 L170 744 L170 744 Z M172 250 C172 402 221 504 295 504 C368 504 417 402 417 250 C417 98 368 -4 295 -4 C221 -4 172 98 172 250 L172 250 Z M45 250 C45 94 145 -10 295 -10 C444 -10 544 94 544 250 C544 406 444 510 295 510 C145 510 45 406 45 250 L45 250 Z " />
<glyph glyph-name="Racute" unicode="&#x154;" horiz-adv-x="745" d="M297 811 L441 929 C477 959 501 982 501 988 C501 1019 474 1046 443 1046 C437 1046 417 1020 389 981 L282 826 L297 811 L297 811 Z M51 743 L77 743 C107 743 127 723 127 693 L127 57 C127 27 107 7 77 7 L51 7 L51 0 L339 0 L339 7 L313 7 C283 7 263 27 263 57 L263 346 L300 346 C321 304 386 200 474 67 C517 3 527 0 735 0 L735 10 C673 10 669 12 633 67 C540 207 470 313 438 361 C537 385 597 442 597 536 C597 664 481 750 306 750 L50 750 L51 743 L51 743 Z M262 380 L262 723 C373 723 448 661 448 563 C448 437 391 380 306 380 L262 380 L262 380 Z " />
<glyph glyph-name="Rcaron" unicode="&#x158;" horiz-adv-x="745" d="M427 1045 L288 928 L149 1045 L134 1032 L248 854 C256 842 276 813 288 813 C301 813 321 842 329 854 L442 1032 L427 1045 L427 1045 Z M51 743 L77 743 C107 743 127 723 127 693 L127 57 C127 27 107 7 77 7 L51 7 L51 0 L339 0 L339 7 L313 7 C283 7 263 27 263 57 L263 346 L300 346 C321 304 386 200 474 67 C517 3 527 0 735 0 L735 10 C673 10 669 12 633 67 C540 207 470 313 438 361 C537 385 597 442 597 536 C597 664 481 750 306 750 L50 750 L51 743 L51 743 Z M262 380 L262 723 C373 723 448 661 448 563 C448 437 391 380 306 380 L262 380 L262 380 Z " />
<glyph glyph-name="rcaron" unicode="&#x159;" horiz-adv-x="420" d="M368 795 L229 678 L90 795 L75 782 L189 604 C197 592 217 563 229 563 C242 563 262 592 270 604 L383 782 L368 795 L368 795 Z M12 464 L23 464 C50 465 68 449 68 422 L68 22 C68 13 62 7 53 7 L12 7 L12 0 L239 0 L239 7 L198 7 C189 7 183 13 183 22 L183 404 C195 436 220 456 251 456 C266 456 276 442 276 421 C276 380 303 353 344 353 C384 353 411 380 411 421 C411 474 369 510 305 510 C246 510 201 474 184 417 L184 500 L127 500 C93 491 47 480 13 471 L12 464 L12 464 Z " />
<glyph glyph-name="Sacute" unicode="&#x15a;" horiz-adv-x="522" d="M266 811 L410 929 C446 959 470 982 470 988 C470 1019 443 1046 412 1046 C406 1046 386 1020 358 981 L251 826 L266 811 L266 811 Z M445 555 L445 747 L435 747 C434 742 434 735 433 730 C430 707 415 701 393 711 C355 742 305 760 252 760 C136 760 59 676 59 551 C59 439 115 345 224 305 C324 269 375 217 375 168 C375 65 331 -3 264 -3 C233 -3 198 16 165 49 C129 86 93 150 71 215 C69 221 67 229 65 235 L48 235 L48 7 L58 7 C59 15 59 25 60 33 C63 69 90 73 126 43 L126 43 C167 9 216 -11 264 -11 C395 -11 483 76 483 206 C483 310 422 401 305 444 C212 478 164 538 164 602 C164 693 199 754 252 754 C278 754 305 743 330 724 C366 695 402 637 424 573 C426 567 428 559 430 553 L445 555 L445 555 Z M69 153 L69 153 L69 153 L69 153 Z " />
<glyph glyph-name="Scircumflex" unicode="&#x15c;" horiz-adv-x="522" d="M445 555 L445 747 L435 747 C434 742 434 735 433 730 C430 707 415 701 393 711 C355 742 305 760 252 760 C136 760 59 676 59 551 C59 439 115 345 224 305 C324 269 375 217 375 168 C375 65 331 -3 264 -3 C233 -3 198 16 165 49 C129 86 93 150 71 215 C69 221 67 229 65 235 L48 235 L48 7 L58 7 C59 15 59 25 60 33 C63 69 90 73 126 43 L126 43 C167 9 216 -11 264 -11 C395 -11 483 76 483 206 C483 310 422 401 305 444 C212 478 164 538 164 602 C164 693 199 754 252 754 C278 754 305 743 330 724 C366 695 402 637 424 573 C426 567 428 559 430 553 L445 555 L445 555 Z M300 994 C292 1006 272 1035 259 1035 C247 1035 227 1006 219 994 L105 816 L120 803 L259 920 L398 803 L413 816 L300 994 L300 994 Z M69 153 L69 153 L69 153 L69 153 Z " />
<glyph glyph-name="Scaron" unicode="&#x160;" horiz-adv-x="522" d="M396 1045 L257 928 L118 1045 L103 1032 L217 854 C225 842 245 813 257 813 C270 813 290 842 298 854 L411 1032 L396 1045 L396 1045 Z M445 555 L445 747 L435 747 C434 742 434 735 433 730 C430 707 415 701 393 711 C355 742 305 760 252 760 C136 760 59 676 59 551 C59 439 115 345 224 305 C324 269 375 217 375 168 C375 65 331 -3 264 -3 C233 -3 198 16 165 49 C129 86 93 150 71 215 C69 221 67 229 65 235 L48 235 L48 7 L58 7 C59 15 59 25 60 33 C63 69 90 73 126 43 L126 43 C167 9 216 -11 264 -11 C395 -11 483 76 483 206 C483 310 422 401 305 444 C212 478 164 538 164 602 C164 693 199 754 252 754 C278 754 305 743 330 724 C366 695 402 637 424 573 C426 567 428 559 430 553 L445 555 L445 555 Z M69 153 L69 153 L69 153 L69 153 Z " />
<glyph glyph-name="scaron" unicode="&#x161;" horiz-adv-x="401" d="M330 795 L191 678 L52 795 L37 782 L151 604 C159 592 179 563 191 563 C204 563 224 592 232 604 L345 782 L330 795 L330 795 Z M219 510 L219 509 C213 510 207 510 201 510 C113 510 54 455 54 372 C54 290 92 226 165 206 C228 189 261 150 261 105 C261 38 233 -6 190 -6 C183 -6 175 -3 166 3 L166 3 C135 24 98 85 72 155 C70 160 69 166 67 171 L59 171 L59 7 L66 7 C67 12 67 17 68 22 C70 36 95 30 131 8 C131 8 155 -4 157 -5 L158 -4 C169 -8 180 -10 191 -10 C287 -10 351 49 351 138 C351 210 305 270 217 294 C164 308 137 354 137 412 C137 481 182 530 235 494 C263 473 293 424 315 364 C317 359 318 353 320 348 L328 348 L328 502 L321 502 C320 498 320 493 319 489 C318 480 291 484 253 500 L253 500 C242 505 230 507 220 511 L219 510 L219 510 Z " />
<glyph glyph-name="Tcaron" unicode="&#x164;" horiz-adv-x="741" d="M510 1045 L371 928 L232 1045 L217 1032 L331 854 C339 842 359 813 371 813 C384 813 404 842 412 854 L525 1032 L510 1045 L510 1045 Z M663 786 L659 781 C648 762 607 750 559 750 L183 750 C135 750 94 762 83 781 L79 786 L70 786 C63 769 56 752 49 734 C49 734 51 734 55 734 L55 733 L50 733 C34 693 22 640 6 600 L18 600 L37 631 C66 682 119 716 170 716 L303 716 L303 57 C303 27 283 7 253 7 L227 7 L227 0 L515 0 L515 7 L489 7 C459 7 439 27 439 57 L439 716 L572 716 C623 716 676 682 705 631 L724 600 L736 600 C719 641 707 694 691 734 C692 734 688 745 687 747 L687 749 L686 749 C682 761 677 774 672 785 L663 786 L663 786 Z " />
<glyph glyph-name="tcaron" unicode="&#x165;" horiz-adv-x="391" d="M341 500 L206 500 L206 620 L198 620 L26 449 L26 439 L91 439 L91 186 C91 45 149 -10 236 -10 C310 -10 368 43 381 122 L366 125 C358 76 320 44 271 44 C230 44 203 77 203 161 L206 439 L341 439 L341 500 L341 500 Z M435 757 C411 757 403 694 401 648 L396 536 L416 532 L461 636 C477 671 487 713 487 740 C487 752 466 757 435 757 L435 757 Z " />
<glyph glyph-name="Utilde" unicode="&#x168;" horiz-adv-x="754" d="M250 870 C250 903 264 925 284 925 C325 925 381 860 422 860 C465 860 493 916 493 1001 L490 1001 C490 965 474 941 449 941 C408 941 352 1006 311 1006 C273 1006 247 952 247 870 L250 870 L250 870 Z M724 45 L698 38 C668 30 648 45 648 75 L648 750 L437 750 L437 743 L463 743 C493 743 513 723 513 693 L513 195 C480 124 412 77 342 77 C274 77 228 131 228 213 L228 750 L16 750 L16 743 L42 743 C72 743 92 723 92 693 L92 213 C92 79 170 -10 287 -10 C382 -10 473 48 513 134 L513 0 L581 0 L616 9 C652 19 692 30 724 38 L724 45 L724 45 Z " />
<glyph glyph-name="utilde" unicode="&#x169;" horiz-adv-x="521" d="M131 620 C131 653 145 675 166 675 C207 675 263 610 304 610 C347 610 375 666 375 751 L372 751 C372 715 356 691 331 691 C289 691 234 756 192 756 C154 756 128 702 128 620 L131 620 L131 620 Z M506 40 L490 35 C460 27 440 42 440 72 L440 500 L269 500 L269 493 L310 493 C319 493 325 487 325 478 L325 130 C307 94 275 70 242 70 C204 70 178 104 178 155 L178 500 L7 500 L7 493 L48 493 C57 493 63 487 63 478 L63 155 C63 56 113 -10 188 -10 C238 -10 291 43 325 124 L325 0 L382 0 L382 -1 C419 9 469 23 506 33 L506 40 L506 40 Z " />
<glyph glyph-name="Umacron" unicode="&#x16a;" horiz-adv-x="754" d="M245 890 L495 890 L495 970 L245 970 L245 890 L245 890 Z M724 45 L698 38 C668 30 648 45 648 75 L648 750 L437 750 L437 743 L463 743 C493 743 513 723 513 693 L513 195 C480 124 412 77 342 77 C274 77 228 131 228 213 L228 750 L16 750 L16 743 L42 743 C72 743 92 723 92 693 L92 213 C92 79 170 -10 287 -10 C382 -10 473 48 513 134 L513 0 L581 0 L616 9 C652 19 692 30 724 38 L724 45 L724 45 Z " />
<glyph glyph-name="umacron" unicode="&#x16b;" horiz-adv-x="521" d="M126 640 L377 640 L377 720 L126 720 L126 640 L126 640 Z M506 40 L490 35 C460 27 440 42 440 72 L440 500 L269 500 L269 493 L310 493 C319 493 325 487 325 478 L325 130 C307 94 275 70 242 70 C204 70 178 104 178 155 L178 500 L7 500 L7 493 L48 493 C57 493 63 487 63 478 L63 155 C63 56 113 -10 188 -10 C238 -10 291 43 325 124 L325 0 L382 0 L382 -1 C419 9 469 23 506 33 L506 40 L506 40 Z " />
<glyph glyph-name="Ubreve" unicode="&#x16c;" horiz-adv-x="754" d="M245 994 C255 910 305 854 370 854 C435 854 485 909 495 992 L471 995 C467 959 426 935 370 935 C314 935 273 960 269 998 L245 994 L245 994 Z M724 45 L698 38 C668 30 648 45 648 75 L648 750 L437 750 L437 743 L463 743 C493 743 513 723 513 693 L513 195 C480 124 412 77 342 77 C274 77 228 131 228 213 L228 750 L16 750 L16 743 L42 743 C72 743 92 723 92 693 L92 213 C92 79 170 -10 287 -10 C382 -10 473 48 513 134 L513 0 L581 0 L616 9 C652 19 692 30 724 38 L724 45 L724 45 Z " />
<glyph glyph-name="ubreve" unicode="&#x16d;" horiz-adv-x="521" d="M127 744 C137 660 187 604 252 604 C317 604 366 659 376 742 L352 745 C348 709 308 685 252 685 C196 685 155 710 151 748 L127 744 L127 744 Z M506 40 L490 35 C460 27 440 42 440 72 L440 500 L269 500 L269 493 L310 493 C319 493 325 487 325 478 L325 130 C307 94 275 70 242 70 C204 70 178 104 178 155 L178 500 L7 500 L7 493 L48 493 C57 493 63 487 63 478 L63 155 C63 56 113 -10 188 -10 C238 -10 291 43 325 124 L325 0 L382 0 L382 -1 C419 9 469 23 506 33 L506 40 L506 40 Z " />
<glyph glyph-name="Uring" unicode="&#x16e;" horiz-adv-x="754" d="M305 905 C305 946 331 973 370 973 C409 973 435 946 435 905 C435 868 405 837 370 837 C335 837 305 868 305 905 L305 905 Z M272 905 C272 854 317 810 370 810 C423 810 468 854 468 905 C468 962 429 1000 370 1000 C311 1000 272 962 272 905 L272 905 Z M724 45 L698 38 C668 30 648 45 648 75 L648 750 L437 750 L437 743 L463 743 C493 743 513 723 513 693 L513 195 C480 124 412 77 342 77 C274 77 228 131 228 213 L228 750 L16 750 L16 743 L42 743 C72 743 92 723 92 693 L92 213 C92 79 170 -10 287 -10 C382 -10 473 48 513 134 L513 0 L581 0 L616 9 C652 19 692 30 724 38 L724 45 L724 45 Z " />
<glyph glyph-name="uring" unicode="&#x16f;" horiz-adv-x="521" d="M187 655 C187 696 213 723 252 723 C290 723 316 696 316 655 C316 618 287 587 252 587 C217 587 187 618 187 655 L187 655 Z M153 655 C153 604 199 560 252 560 C305 560 350 604 350 655 C350 712 311 750 252 750 C193 750 153 712 153 655 L153 655 Z M506 40 L490 35 C460 27 440 42 440 72 L440 500 L269 500 L269 493 L310 493 C319 493 325 487 325 478 L325 130 C307 94 275 70 242 70 C204 70 178 104 178 155 L178 500 L7 500 L7 493 L48 493 C57 493 63 487 63 478 L63 155 C63 56 113 -10 188 -10 C238 -10 291 43 325 124 L325 0 L382 0 L382 -1 C419 9 469 23 506 33 L506 40 L506 40 Z " />
<glyph glyph-name="Wcircumflex" unicode="&#x174;" horiz-adv-x="1065" d="M304 750 L-8 750 L-8 741 C33 741 62 720 85 673 C178 445 271 217 365 -10 L399 -10 L540 440 C603 290 666 140 728 -10 L762 -10 L762 -5 C823 217 883 439 944 661 C957 709 995 741 1039 741 L1052 741 L1052 750 L779 750 L779 741 L833 741 C881 741 905 709 893 661 L893 661 L776 187 L590 670 C577 713 597 741 643 741 L680 741 L680 750 L343 750 L343 741 L353 741 C389 741 427 709 447 661 L447 661 L515 500 L416 163 L232 670 C220 713 240 741 285 741 L303 741 L304 750 L304 750 Z M551 996 C543 1008 523 1037 511 1037 C498 1037 478 1008 470 996 L356 818 L372 805 L511 921 L649 805 L665 818 L551 996 L551 996 Z " />
<glyph glyph-name="Ycircumflex" unicode="&#x176;" horiz-adv-x="706" d="M302 750 L-11 750 L-11 743 C25 743 54 728 76 695 L294 315 L294 76 C294 34 266 6 224 6 L198 6 L198 -1 L525 -1 L525 6 L499 6 C457 6 429 34 429 76 L429 336 C484 453 539 570 595 687 C611 720 643 742 676 742 L707 742 L707 749 L497 749 L497 742 L555 742 C588 742 599 720 584 687 L585 687 L427 343 C364 458 301 573 239 688 C221 721 231 743 264 743 L301 743 L302 750 L302 750 Z M402 996 C394 1008 374 1037 362 1037 C349 1037 329 1008 321 996 L207 818 L223 805 L362 921 L500 805 L516 818 L402 996 L402 996 Z " />
<glyph glyph-name="Ydieresis" unicode="&#x178;" horiz-adv-x="706" d="M439 865 C484 865 514 895 514 939 C514 984 484 1014 439 1014 C395 1014 365 984 365 939 C365 895 395 865 439 865 L439 865 Z M286 865 C330 865 360 895 360 939 C360 984 330 1014 286 1014 C241 1014 211 984 211 939 C211 895 241 865 286 865 L286 865 Z M302 750 L-11 750 L-11 743 C25 743 54 728 76 695 L294 315 L294 76 C294 34 266 6 224 6 L198 6 L198 -1 L525 -1 L525 6 L499 6 C457 6 429 34 429 76 L429 336 C484 453 539 570 595 687 C611 720 643 742 676 742 L707 742 L707 749 L497 749 L497 742 L555 742 C588 742 599 720 584 687 L585 687 L427 343 C364 458 301 573 239 688 C221 721 231 743 264 743 L301 743 L302 750 L302 750 Z " />
<glyph glyph-name="Zacute" unicode="&#x179;" horiz-adv-x="615" d="M332 811 L477 929 C512 958 536 981 536 988 C536 1019 510 1046 479 1046 C472 1046 451 1020 424 981 L318 826 L332 811 L332 811 Z M69 596 L73 614 C88 671 137 711 197 714 L432 719 L24 26 L24 -1 L572 -1 L581 40 C586 63 596 104 608 156 L596 156 L589 138 C567 82 516 44 458 37 L182 30 L577 722 L577 749 L70 749 L67 711 C67 711 60 631 57 595 L69 596 L69 596 Z " />
<glyph glyph-name="Zdot" unicode="&#x17b;" horiz-adv-x="615" d="M324 865 C368 865 398 895 398 939 C398 984 368 1014 324 1014 C279 1014 249 984 249 939 C249 895 279 865 324 865 L324 865 Z M69 596 L73 614 C88 671 137 711 197 714 L432 719 L24 26 L24 -1 L572 -1 L581 40 C586 63 596 104 608 156 L596 156 L589 138 C567 82 516 44 458 37 L182 30 L577 722 L577 749 L70 749 L67 711 C67 711 60 631 57 595 L69 596 L69 596 Z " />
<glyph glyph-name="zdot" unicode="&#x17c;" horiz-adv-x="442" d="M239 615 C283 615 313 645 313 689 C313 734 283 764 239 764 C194 764 164 734 164 689 C164 645 194 615 239 615 L239 615 Z M73 523 C70 510 65 492 61 479 C61 479 50 436 32 370 L46 370 L54 384 C76 426 120 456 167 462 L268 466 L40 26 L40 -1 L389 -1 L390 3 C390 3 407 63 414 129 L400 129 L395 115 C379 72 340 41 293 35 L177 30 L401 471 L401 498 L110 498 C89 498 83 506 83 521 L73 523 L73 523 Z " />
<glyph glyph-name="Zcaron" unicode="&#x17d;" horiz-adv-x="615" d="M462 1045 L324 929 L185 1045 L169 1032 L283 854 C291 842 311 813 324 813 C336 813 356 842 364 854 L478 1032 L462 1045 L462 1045 Z M69 596 L73 614 C88 671 137 711 197 714 L432 719 L24 26 L24 -1 L572 -1 L581 40 C586 63 596 104 608 156 L596 156 L589 138 C567 82 516 44 458 37 L182 30 L577 722 L577 749 L70 749 L67 711 C67 711 60 631 57 595 L69 596 L69 596 Z " />
<glyph glyph-name="zcaron" unicode="&#x17e;" horiz-adv-x="442" d="M377 795 L239 679 L100 795 L84 782 L198 604 C206 592 226 563 239 563 C251 563 271 592 279 604 L393 782 L377 795 L377 795 Z M73 523 C70 510 65 492 61 479 C61 479 50 436 32 370 L46 370 L54 384 C76 426 120 456 167 462 L268 466 L40 26 L40 -1 L389 -1 L390 3 C390 3 407 63 414 129 L400 129 L395 115 C379 72 340 41 293 35 L177 30 L401 471 L401 498 L110 498 C89 498 83 506 83 521 L73 523 L73 523 Z " />
<glyph glyph-name="oogonek" unicode="&#x1eb;" horiz-adv-x="765" d="M961 -51 L960 -50 C931 -75 825 -91 695 -91 C555 -91 411 -58 319 -7 C334 -9 350 -10 366 -10 C576 -10 716 111 716 292 C716 473 580 593 376 593 C177 593 45 473 45 292 C45 184 91 97 169 45 C344 -83 549 -168 683 -168 C767 -168 878 -121 962 -51 L961 -51 L961 -51 Z M177 292 C177 470 256 588 375 588 C500 588 584 470 584 292 C584 112 495 -8 361 -8 C251 -8 177 112 177 292 L177 292 Z " />
<glyph glyph-name="Adotabove" unicode="&#x226;" horiz-adv-x="742" d="M371 865 C415 865 445 895 445 939 C445 984 415 1014 371 1014 C326 1014 296 984 296 939 C296 895 326 865 371 865 L371 865 Z M262 9 L238 9 C180 9 150 46 162 103 L210 294 L427 294 L485 98 C496 44 467 9 411 9 L388 9 L388 0 L739 0 L739 9 L726 9 C686 9 647 43 627 95 C558 320 489 546 419 771 L406 771 C411 744 370 719 303 710 L306 700 L154 100 C136 46 88 11 32 11 L6 11 L6 2 L263 2 L262 9 L262 9 Z M211 301 L309 694 L426 301 L211 301 L211 301 Z " />
<glyph glyph-name="G_sc" unicode="&#x262;" horiz-adv-x="730" d="M610 397 L610 599 L600 599 C599 593 599 584 598 578 C595 547 569 539 535 559 C521 567 506 574 488 579 C486 580 484 581 482 582 L481 581 C453 589 419 593 377 593 C176 593 42 473 42 292 C42 111 179 -10 385 -10 C417 -10 446 -8 473 -5 C475 -6 476 -6 476 -6 L495 -2 C520 2 544 7 566 13 L595 19 L595 22 C619 30 642 39 664 50 L663 53 C644 44 622 36 595 30 L595 158 C595 209 624 243 668 243 L681 243 L681 252 L387 252 L387 243 L400 243 C444 243 473 209 473 158 L474 158 C474 139 474 119 474 100 C469 48 443 14 406 14 C268 14 176 125 176 291 C176 469 258 587 380 587 C416 587 446 579 473 564 C522 538 567 479 586 418 C588 411 590 403 592 396 L610 397 L610 397 Z M595 479 L595 479 L595 479 L595 479 Z " />
<glyph glyph-name="I_sc" unicode="&#x26a;" horiz-adv-x="378" d="M318 7 L292 7 C262 7 242 27 242 57 L242 526 C242 556 262 576 292 576 L318 576 L318 583 L44 583 L44 576 L70 576 C100 576 120 556 120 526 L120 57 C120 27 100 7 70 7 L44 7 L44 0 L318 0 L318 7 L318 7 Z " />
<glyph glyph-name="N_sc" unicode="&#x274;" horiz-adv-x="673" d="M-34 576 L-8 576 C20 576 53 559 77 532 L129 467 L128 56 L128 56 C128 26 108 6 78 6 L52 6 L52 -1 L241 -1 L241 6 L215 6 C185 6 165 26 165 56 L165 56 L162 427 C276 284 390 141 505 -2 L529 -2 L537 529 C539 556 559 574 587 574 L613 574 L613 581 L425 581 L425 574 L451 574 C481 574 501 554 501 524 L501 524 L503 147 C397 291 292 436 187 581 L-34 581 L-34 576 L-34 576 Z " />
<glyph glyph-name="R_sc" unicode="&#x280;" horiz-adv-x="625" d="M55 576 L81 576 C111 576 131 556 131 526 L131 57 C131 27 111 7 81 7 L55 7 L55 0 L328 0 L328 7 L302 7 C272 7 252 27 252 57 L252 265 L253 265 C272 231 325 152 395 52 C430 2 439 0 615 0 L615 9 C569 9 566 11 537 52 C463 157 406 237 378 276 C467 296 522 341 522 416 C522 516 416 583 258 583 L55 583 L55 576 L55 576 Z M252 296 L252 557 C334 548 387 503 387 440 C387 337 333 296 252 296 L252 296 Z " />
<glyph glyph-name="Y_sc" unicode="&#x28f;" horiz-adv-x="630" d="M290 583 L-7 583 L-7 576 C31 576 61 561 85 527 L263 242 L263 77 C263 35 235 7 193 7 L167 7 L167 0 L481 0 L481 7 L455 7 C413 7 385 35 385 77 L385 261 L521 528 C539 557 569 576 599 576 L630 576 L630 583 L423 583 L423 576 L480 576 C513 576 524 554 508 521 L508 521 L382 267 L227 526 C211 556 221 576 252 576 L289 576 L290 583 L290 583 Z " />
<glyph glyph-name="B_sc" unicode="&#x299;" horiz-adv-x="584" d="M384 300 C400 300 411 241 411 152 C411 30 393 2 366 2 L316 2 C278 2 252 23 252 55 L252 299 L352 299 C361 299 384 300 384 300 L384 300 Z M55 574 L81 574 C111 574 131 554 131 524 L131 59 C131 29 111 9 81 9 L55 9 L55 0 L372 0 C475 0 544 29 544 152 C544 245 484 303 394 303 C466 318 512 371 512 445 C512 528 472 583 303 583 L56 583 L55 574 L55 574 Z M351 303 L253 303 L253 579 L295 579 C373 579 391 520 391 432 C391 355 375 303 351 303 L351 303 Z " />
<glyph glyph-name="H_sc" unicode="&#x29c;" horiz-adv-x="767" d="M707 7 L681 7 C651 7 631 27 631 57 L631 526 C631 556 651 576 681 576 L707 576 L707 583 L433 583 L433 576 L459 576 C489 576 509 556 509 526 L509 303 L288 303 L288 526 C288 556 308 576 338 576 L364 576 L364 583 L91 583 L91 576 L117 576 C147 576 167 556 167 526 L167 57 C167 27 147 7 117 7 L91 7 L91 0 L364 0 L364 7 L338 7 C308 7 288 27 288 57 L288 298 L509 298 L509 57 C509 27 489 7 459 7 L433 7 L433 0 L707 0 L707 7 L707 7 Z " />
<glyph glyph-name="L_sc" unicode="&#x29f;" horiz-adv-x="539" d="M318 583 L44 583 L44 576 L70 576 C100 576 120 556 120 526 L120 57 C120 27 100 7 70 7 L44 7 L44 0 L473 0 L473 15 C480 52 488 100 494 136 L482 136 L476 119 C456 60 400 20 337 20 L293 20 C247 20 242 32 242 50 L242 525 C242 555 262 575 292 575 L318 575 L318 583 L318 583 Z " />
<glyph glyph-name="circumflex" unicode="&#x2c6;" horiz-adv-x="298" d="M190 746 C182 758 162 787 149 787 C137 787 117 758 109 746 L-5 568 L11 555 L150 671 L288 555 L304 568 L190 746 L190 746 Z " />
<glyph glyph-name="caron" unicode="&#x2c7;" horiz-adv-x="298" d="M288 795 L150 679 L11 795 L-5 782 L109 604 C117 592 137 563 149 563 C162 563 182 592 190 604 L304 782 L288 795 L288 795 Z " />
<glyph glyph-name="firsttonechinese" unicode="&#x2c9;" horiz-adv-x="298" d="M24 640 L275 640 L275 720 L24 720 L24 640 L24 640 Z " />
<glyph glyph-name="breve" unicode="&#x2d8;" horiz-adv-x="298" d="M24 744 C34 660 84 604 149 604 C214 604 264 659 274 742 L250 745 C246 709 205 685 149 685 C93 685 53 710 49 748 L24 744 L24 744 Z " />
<glyph glyph-name="dotaccent" unicode="&#x2d9;" horiz-adv-x="298" d="M149 615 C194 615 224 645 224 689 C224 734 194 764 149 764 C105 764 75 734 75 689 C75 645 105 615 149 615 L149 615 Z " />
<glyph glyph-name="ring" unicode="&#x2da;" horiz-adv-x="298" d="M85 655 C85 696 111 723 149 723 C188 723 214 696 214 655 C214 618 184 587 149 587 C114 587 85 618 85 655 L85 655 Z M51 655 C51 604 96 560 149 560 C202 560 248 604 248 655 C248 712 208 750 149 750 C90 750 51 712 51 655 L51 655 Z " />
<glyph glyph-name="A_sc" unicode="&#x1d00;" horiz-adv-x="672" d="M333 0 L669 0 L669 9 L656 9 C614 9 572 46 551 102 C495 269 438 435 382 602 L369 602 C373 582 335 562 276 554 L279 544 L279 544 L158 100 C140 45 90 9 33 9 L7 9 L7 0 L262 0 L262 9 L238 9 C179 9 150 49 166 109 L166 109 L198 228 L385 228 L424 109 C444 49 417 9 357 9 L334 9 L333 0 L333 0 Z M199 233 L282 539 L383 233 L199 233 L199 233 Z " />
<glyph glyph-name="C_sc" unicode="&#x1d04;" horiz-adv-x="653" d="M532 25 C568 45 594 36 598 3 C599 -4 599 -12 600 -19 L610 -19 L610 187 L593 187 C591 180 589 172 587 165 C560 79 483 -6 373 -6 C255 -6 177 113 177 292 C177 470 259 588 381 588 C417 588 447 580 474 565 L474 565 C523 539 568 480 587 419 C589 412 591 404 593 397 L610 397 L610 599 L600 599 C599 593 599 584 598 578 C595 547 569 539 535 559 C521 567 506 574 488 579 C486 580 484 581 482 582 L481 581 C453 589 419 593 377 593 C176 593 42 473 42 292 C42 111 173 -10 369 -10 C411 -10 447 -5 478 4 L479 2 C484 5 531 26 531 25 L532 25 L532 25 Z M595 480 L595 480 L595 480 L595 480 Z " />
<glyph glyph-name="D_sc" unicode="&#x1d05;" horiz-adv-x="762" d="M293 4 C256 4 252 23 252 51 L252 579 L307 579 C483 579 573 464 573 292 C573 102 461 4 293 4 L293 4 Z M55 576 L81 576 C111 576 131 556 131 526 L131 57 C131 27 111 7 81 7 L55 7 L55 0 L299 0 C544 0 707 99 707 292 C707 467 576 583 322 583 L55 583 L55 576 L55 576 Z " />
<glyph glyph-name="E_sc" unicode="&#x1d07;" horiz-adv-x="572" d="M419 173 L419 430 L407 430 L399 384 C391 336 355 304 307 304 L252 304 L252 579 L368 579 C416 579 456 547 470 499 L483 453 L495 453 C491 491 484 543 480 581 L479 581 L479 583 L35 583 L35 576 L61 576 C103 576 131 548 131 506 L131 77 C131 35 103 7 61 7 L35 7 L35 0 L504 0 L504 2 L505 2 C511 37 519 85 525 120 L513 120 L507 103 C487 44 431 4 368 4 L303 4 C257 4 252 23 252 51 L252 299 L307 299 C355 299 391 267 399 219 L407 173 L419 173 L419 173 Z " />
<glyph glyph-name="J_sc" unicode="&#x1d0a;" horiz-adv-x="378" d="M318 583 L44 583 L44 576 L70 576 C100 576 120 556 120 526 L120 -93 C120 -194 61 -213 18 -213 C-42 -213 -13 -116 -73 -116 C-106 -116 -128 -138 -128 -170 C-128 -200 -71 -220 14 -220 C110 -220 242 -163 242 137 L242 526 C242 556 262 576 292 576 L318 576 L318 583 L318 583 Z " />
<glyph glyph-name="K_sc" unicode="&#x1d0b;" horiz-adv-x="676" d="M378 476 L378 476 L252 292 L252 526 C252 556 272 576 302 576 L347 576 C407 576 419 536 378 476 L378 476 Z M587 583 L55 583 L55 576 L81 576 C111 576 131 556 131 526 L131 57 C131 27 111 7 81 7 L55 7 L55 0 L328 0 L328 7 L302 7 C272 7 252 27 252 57 L252 292 L457 0 L671 0 L671 7 L645 7 C615 7 581 27 560 57 L338 373 C373 419 407 465 442 511 C471 550 517 576 556 576 L587 576 L587 583 L587 583 Z " />
<glyph glyph-name="M_sc" unicode="&#x1d0d;" horiz-adv-x="798" d="M763 583 L571 583 L433 168 L267 583 L48 583 L48 576 L74 576 C101 576 127 559 141 533 C135 374 129 214 122 55 C121 25 100 5 70 5 L44 5 L44 -2 L238 -2 L238 5 L212 5 C183 5 163 23 162 51 L170 465 C238 309 306 153 375 -3 L405 -3 L573 469 C577 331 582 192 586 54 C587 24 568 4 538 4 L512 4 L512 -3 L785 -3 L785 4 L759 4 C729 4 708 24 707 54 L707 54 L687 529 C689 555 707 572 735 572 L761 572 L763 583 L763 583 Z " />
<glyph glyph-name="O_sc" unicode="&#x1d0f;" horiz-adv-x="770" d="M176 292 C176 470 255 588 374 588 C499 588 583 470 583 292 C583 114 496 -5 365 -5 C252 -5 176 114 176 292 L176 292 Z M44 292 C44 111 172 -10 365 -10 C575 -10 715 111 715 292 C715 473 579 593 375 593 C176 593 44 473 44 292 L44 292 Z " />
<glyph glyph-name="P_sc" unicode="&#x1d18;" horiz-adv-x="516" d="M359 7 L333 7 C303 7 283 27 283 57 L283 258 L312 258 C422 258 496 307 496 417 C496 517 434 583 341 583 L85 583 L85 576 L111 576 C141 576 161 556 161 526 L161 57 C161 27 141 7 111 7 L85 7 L85 0 L359 0 L359 7 L359 7 Z M283 284 L283 563 C283 563 303 562 311 562 C353 562 381 512 381 437 C381 331 353 284 312 284 L283 284 L283 284 Z " />
<glyph glyph-name="T_sc" unicode="&#x1d1b;" horiz-adv-x="691" d="M613 619 L609 614 C598 595 557 583 509 583 L183 583 C135 583 94 595 83 614 L79 619 L70 619 C63 604 55 584 49 569 C49 569 51 569 55 569 L55 568 L49 568 C33 529 22 476 6 437 L18 437 L37 468 C66 519 119 553 170 553 L285 553 L285 57 C285 27 265 7 235 7 L209 7 L209 0 L483 0 L483 7 L457 7 C427 7 407 27 407 57 L407 553 L522 553 C573 553 626 519 655 468 L674 437 L686 437 C668 482 654 538 637 582 L637 583 C635 583 624 616 623 619 L613 619 L613 619 Z " />
<glyph glyph-name="U_sc" unicode="&#x1d1c;" horiz-adv-x="670" d="M640 43 L614 36 C584 28 564 43 564 73 L564 583 L367 583 L367 576 L393 576 C423 576 443 556 443 526 L443 175 C413 111 355 68 299 68 C250 68 217 120 217 198 L217 583 L20 583 L20 576 L46 576 C76 576 96 556 96 526 L96 198 C96 73 158 -10 250 -10 C329 -10 407 42 443 120 L443 0 L504 0 L564 16 C590 23 617 30 640 36 L640 43 L640 43 Z " />
<glyph glyph-name="V_sc" unicode="&#x1d20;" horiz-adv-x="710" d="M691 583 L424 583 L424 574 L462 574 C522 574 546 534 523 474 L523 474 L338 -10 L362 -10 C431 151 499 313 568 474 C593 534 638 574 679 574 L691 574 L691 583 L691 583 Z M322 583 L-6 583 L-6 574 L4 574 C37 574 76 537 105 481 C183 317 261 153 339 -11 L416 191 L255 478 C224 535 243 573 301 573 L322 573 L322 583 L322 583 Z " />
<glyph glyph-name="W_sc" unicode="&#x1d21;" horiz-adv-x="949" d="M293 583 L-4 583 L-4 574 L6 574 C39 574 75 544 97 499 C175 329 253 159 331 -10 L361 -10 L478 339 C532 223 586 107 640 -9 L671 -9 C723 159 774 328 826 496 C841 544 880 576 923 576 L936 576 L936 585 L670 585 L670 576 L723 576 C771 576 794 544 781 496 L690 170 L540 496 C518 544 535 576 583 576 L620 576 L620 585 L298 585 L298 576 L309 576 C345 576 384 544 406 496 L406 496 L455 391 L380 149 L227 505 C212 548 231 576 276 576 L293 576 L293 583 L293 583 Z " />
<glyph glyph-name="Z_sc" unicode="&#x1d22;" horiz-adv-x="565" d="M69 433 L73 451 C89 508 138 548 199 551 L396 555 L26 23 L26 -1 L524 -1 L528 17 C528 17 540 71 559 152 L547 152 L540 134 C518 78 466 39 407 32 L171 26 L528 557 L528 581 L71 581 L70 564 C69 564 65 512 58 431 L69 433 L69 433 Z " />
<glyph glyph-name="Wgrave" unicode="&#x1e80;" horiz-adv-x="1065" d="M304 750 L-8 750 L-8 741 C33 741 62 720 85 673 C178 445 271 217 365 -10 L399 -10 L540 440 C603 290 666 140 728 -10 L762 -10 L762 -5 C823 217 883 439 944 661 C957 709 995 741 1039 741 L1052 741 L1052 750 L779 750 L779 741 L833 741 C881 741 905 709 893 661 L893 661 L776 187 L590 670 C577 713 597 741 643 741 L680 741 L680 750 L343 750 L343 741 L353 741 C389 741 427 709 447 661 L447 661 L515 500 L416 163 L232 670 C220 713 240 741 285 741 L303 741 L304 750 L304 750 Z M308 988 C308 979 332 957 367 929 L512 811 L526 826 L420 981 C394 1020 373 1046 365 1046 C334 1046 308 1019 308 988 L308 988 Z " />
<glyph glyph-name="Wacute" unicode="&#x1e82;" horiz-adv-x="1065" d="M520 811 L665 929 C700 958 724 981 724 988 C724 1019 698 1046 667 1046 C660 1046 639 1020 612 981 L506 826 L520 811 L520 811 Z M304 750 L-8 750 L-8 741 C33 741 62 720 85 673 C178 445 271 217 365 -10 L399 -10 L540 440 C603 290 666 140 728 -10 L762 -10 L762 -5 C823 217 883 439 944 661 C957 709 995 741 1039 741 L1052 741 L1052 750 L779 750 L779 741 L833 741 C881 741 905 709 893 661 L893 661 L776 187 L590 670 C577 713 597 741 643 741 L680 741 L680 750 L343 750 L343 741 L353 741 C389 741 427 709 447 661 L447 661 L515 500 L416 163 L232 670 C220 713 240 741 285 741 L303 741 L304 750 L304 750 Z " />
<glyph glyph-name="Wdieresis" unicode="&#x1e84;" horiz-adv-x="1065" d="M588 865 C633 865 663 895 663 939 C663 984 633 1014 588 1014 C544 1014 514 984 514 939 C514 895 544 865 588 865 L588 865 Z M435 865 C479 865 509 895 509 939 C509 984 479 1014 435 1014 C390 1014 360 984 360 939 C360 895 390 865 435 865 L435 865 Z M304 750 L-8 750 L-8 741 C33 741 62 720 85 673 C178 445 271 217 365 -10 L399 -10 L540 440 C603 290 666 140 728 -10 L762 -10 L762 -5 C823 217 883 439 944 661 C957 709 995 741 1039 741 L1052 741 L1052 750 L779 750 L779 741 L833 741 C881 741 905 709 893 661 L893 661 L776 187 L590 670 C577 713 597 741 643 741 L680 741 L680 750 L343 750 L343 741 L353 741 C389 741 427 709 447 661 L447 661 L515 500 L416 163 L232 670 C220 713 240 741 285 741 L303 741 L304 750 L304 750 Z " />
<glyph glyph-name="Etilde" unicode="&#x1ebc;" horiz-adv-x="633" d="M213 870 C213 903 227 925 248 925 C289 925 345 860 386 860 C429 860 457 916 457 1001 L454 1001 C454 965 438 941 413 941 C371 941 316 1006 274 1006 C236 1006 210 952 210 870 L213 870 L213 870 Z M480 259 L480 516 L468 516 L460 470 C452 422 416 390 368 390 L263 390 L263 745 L429 745 C477 745 517 713 531 665 L544 619 L556 619 C552 658 545 709 541 748 L540 748 L540 750 L31 750 L31 743 L57 743 C99 743 127 715 127 673 L127 77 C127 35 99 7 57 7 L31 7 L31 0 L565 0 L565 2 C572 38 580 85 586 121 L574 121 L568 104 C548 45 492 5 429 5 L314 5 C268 5 263 23 263 51 L263 385 L368 385 C416 385 452 353 460 305 L468 259 L480 259 L480 259 Z " />
<glyph glyph-name="Ygrave" unicode="&#x1ef2;" horiz-adv-x="706" d="M302 750 L-11 750 L-11 743 C25 743 54 728 76 695 L294 315 L294 76 C294 34 266 6 224 6 L198 6 L198 -1 L525 -1 L525 6 L499 6 C457 6 429 34 429 76 L429 336 C484 453 539 570 595 687 C611 720 643 742 676 742 L707 742 L707 749 L497 749 L497 742 L555 742 C588 742 599 720 584 687 L585 687 L427 343 C364 458 301 573 239 688 C221 721 231 743 264 743 L301 743 L302 750 L302 750 Z M159 988 C159 979 183 957 218 929 L363 811 L377 826 L271 981 C245 1020 224 1046 216 1046 C185 1046 159 1019 159 988 L159 988 Z " />
<glyph glyph-name="quoteleft" unicode="&#x2018;" horiz-adv-x="542" d="M90 640 C76 640 65 634 57 623 C57 695 85 746 130 750 L120 761 C62 756 23 693 23 604 C23 561 50 533 90 533 C122 533 144 555 144 587 C144 619 122 641 90 641 L90 640 L90 640 Z " />
<glyph glyph-name="quoteright" unicode="&#x2019;" horiz-adv-x="158" d="M111 669 C110 602 77 552 28 543 L39 532 C103 543 145 608 145 694 C145 734 118 760 78 760 C46 760 24 738 24 706 C24 674 46 652 78 652 C92 652 103 658 111 669 L111 669 Z " />
<glyph glyph-name="quotedblleft" unicode="&#x201c;" horiz-adv-x="542" d="M273 640 C259 640 248 634 240 623 C240 695 268 746 313 750 L303 761 C245 756 206 693 206 604 C206 561 233 533 273 533 C306 533 328 555 328 587 C328 619 306 641 273 641 L273 640 L273 640 Z M78 641 C64 641 53 635 45 624 C45 696 73 747 118 751 L108 762 C50 757 11 694 11 605 C11 562 38 534 78 534 C110 534 132 556 132 588 C132 620 110 642 78 642 L78 641 L78 641 Z " />
<glyph glyph-name="quotedblright" unicode="&#x201d;" horiz-adv-x="542" d="M307 670 C306 603 272 552 223 543 L234 532 C298 543 341 608 341 694 C341 734 314 760 273 760 C241 760 219 738 219 706 C219 674 241 652 273 652 C287 652 299 659 307 670 L307 670 Z M111 669 C110 602 77 552 28 543 L39 532 C103 543 145 608 145 694 C145 734 118 760 78 760 C46 760 24 738 24 706 C24 674 46 652 78 652 C92 652 103 658 111 669 L111 669 Z " />
<glyph glyph-name="perthousand" unicode="&#x2030;" horiz-adv-x="1117" d="M925 213 C925 319 938 390 957 390 C981 390 997 301 997 168 C997 65 983 -4 961 -4 C939 -4 925 83 925 213 L925 213 Z M812 192 C812 71 871 -10 959 -10 C1047 -10 1105 77 1105 207 C1105 320 1047 395 959 395 C871 395 812 314 812 192 L812 192 Z M143 574 C143 683 156 755 176 755 C200 755 216 664 216 528 C216 428 202 361 180 361 C158 361 143 446 143 574 L143 574 Z M31 552 C31 434 90 355 178 355 C266 355 324 440 324 567 C324 683 266 760 178 760 C90 760 31 677 31 552 L31 552 Z M578 213 C578 319 594 390 619 390 C652 390 674 301 674 167 C674 64 654 -4 624 -4 C596 -4 578 83 578 213 L578 213 Z M465 191 C465 70 528 -10 622 -10 C718 -10 782 76 782 206 C782 319 718 395 622 395 C528 395 465 313 465 191 L465 191 Z M182 -2 L631 748 L622 752 L174 2 L182 -2 L182 -2 Z " />
<glyph glyph-name="fraction" unicode="&#x2044;" horiz-adv-x="486" d="M34 -2 L483 748 L474 752 L26 2 L34 -2 L34 -2 Z " />
<glyph glyph-name="Euro" unicode="&#x20ac;" horiz-adv-x="778" d="M736 8 L736 118 L720 132 L720 132 L736 118 L736 217 L720 217 C718 211 716 203 714 197 C697 143 650 82 598 44 L598 44 C556 13 512 -5 464 -5 C351 -5 270 101 246 268 L512 268 L524 350 L239 350 C239 366 239 383 240 399 L525 399 L537 481 L248 481 C273 648 358 754 475 754 C590 754 687 641 716 552 C718 546 720 538 722 532 L738 532 L738 738 L729 738 C728 731 728 723 727 716 C724 683 699 678 664 704 C617 739 560 759 473 759 C282 759 144 651 104 481 L69 481 L57 399 L93 399 C92 383 92 366 93 350 L57 350 L45 268 L104 268 C143 98 278 -10 464 -10 C551 -10 615 13 667 51 C700 72 724 64 727 31 C728 24 728 16 729 9 L736 8 L736 8 Z " />
<glyph glyph-name="F_sc" unicode="&#xa730;" horiz-adv-x="547" d="M409 173 L409 430 L397 430 L389 384 C381 336 345 304 297 304 L252 304 L252 580 L367 580 C415 580 455 548 469 500 L482 454 L494 454 C490 492 483 544 479 582 L479 583 L35 583 L35 576 L61 576 C103 576 131 548 131 506 L131 77 C131 35 103 7 61 7 L35 7 L35 0 L348 0 L348 7 L322 7 C280 7 252 35 252 77 L252 299 L297 299 C345 299 381 267 389 219 L397 173 L409 173 L409 173 Z " />
<glyph glyph-name="S_sc" unicode="&#xa731;" horiz-adv-x="470" d="M48 200 L48 -25 L58 -25 C59 -17 59 -7 60 1 C63 35 88 45 123 26 C133 19 143 13 154 8 C159 4 164 0 169 -3 L171 1 C192 -7 215 -11 238 -11 C354 -11 431 58 431 162 C431 243 378 317 275 354 C196 383 156 427 156 471 C156 554 193 603 258 582 C302 568 347 509 370 435 C372 428 374 420 376 413 L393 413 L393 603 L383 603 C382 598 382 590 381 585 C378 562 360 554 335 563 C320 572 303 579 285 584 C276 589 267 593 258 596 L258 590 C141 606 60 534 60 425 C60 337 108 261 201 227 C288 195 333 158 333 126 C333 47 295 -5 237 -5 C213 -5 188 5 164 23 C122 58 87 126 66 199 L48 200 L48 200 Z " />
<glyph glyph-name="X_sc" unicode="&#xf078;" horiz-adv-x="689" d="M367 0 L664 0 L664 7 C628 7 598 21 573 53 L382 339 L550 521 C580 554 622 576 655 576 L686 576 L686 583 L437 583 L437 576 L493 576 C526 576 531 554 506 521 L507 521 L377 347 L261 521 L262 521 C240 554 247 576 280 576 L316 576 L316 583 L20 583 L20 576 C56 576 86 562 111 531 L290 263 L134 61 C108 29 71 8 38 8 L6 8 L6 1 L251 1 L251 8 L195 8 C162 8 156 30 180 63 L179 63 L305 240 L423 63 L422 63 C444 30 437 8 404 8 L368 8 L367 0 L367 0 Z " />
</font>
</svg>
