<?xml version="1.0" encoding="UTF-8"?>
<svg xmlns="http://www.w3.org/2000/svg" xmlns:xlink="http://www.w3.org/1999/xlink" version="1.2" >
<font id="Gunma Light">
<font-face  font-family="Gunma" units-per-em="1024" ascent="975" descent="-300" font-style="normal" font-weight="300" font-stretch="normal" cap-height="1042" x-height="488" underline-position="-125" underline-thickness="50" />
<missing-glyph  horiz-adv-x="100" d="" />
<glyph glyph-name="NULL" d="" />
<glyph glyph-name="CR" unicode="&#xd;" horiz-adv-x="256" d="" />
<glyph glyph-name="space" unicode="&#x20;" horiz-adv-x="208" d="" />
<glyph glyph-name="exclam" unicode="&#x21;" horiz-adv-x="207" d="M143 34 C143 84 65 84 65 34 C65 -17 143 -17 143 34 L143 34 Z M104 755 C77 755 67 720 70 668 L98 210 L109 210 L137 668 C140 720 130 755 104 755 L104 755 Z " />
<glyph glyph-name="quotedbl" unicode="&#x22;" horiz-adv-x="291" d="M216 750 C203 750 195 732 199 705 L219 560 L225 560 L245 705 C249 732 241 750 228 750 L216 750 L216 750 Z M96 750 C83 750 75 732 79 705 L99 560 L105 560 L125 705 C129 732 121 750 108 750 L96 750 L96 750 Z " />
<glyph glyph-name="numbersign" unicode="&#x23;" horiz-adv-x="484" d="M361 679 L333 481 L198 481 L226 679 L222 679 L194 481 L64 481 L58 439 L188 439 L157 221 L25 221 L19 179 L151 179 L125 0 L129 0 L155 179 L290 179 L264 0 L267 0 L293 179 L413 179 L419 221 L299 221 L330 439 L458 439 L464 481 L336 481 L364 679 L361 679 L361 679 Z M192 439 L327 439 L296 221 L161 221 L192 439 L192 439 Z " />
<glyph glyph-name="dollar" unicode="&#x24;" horiz-adv-x="513" d="M52 228 L52 10 L62 10 C63 18 63 28 64 36 C67 72 93 76 129 47 L129 48 C145 35 163 25 181 14 L181 15 C190 11 199 7 208 4 L208 -74 L227 -74 L227 -2 C247 -7 266 -9 288 -8 L288 -73 L307 -73 L307 -7 C407 4 473 79 473 186 C473 271 416 354 307 406 L307 741 C352 716 391 659 408 591 C410 583 412 571 414 563 L431 563 L431 745 L421 745 C420 740 420 733 419 728 C416 706 401 699 380 709 C359 726 334 740 307 749 L307 826 L288 826 L288 755 C268 760 248 762 226 761 L226 826 L207 826 L207 759 C124 747 70 677 70 575 C70 501 117 427 207 371 L207 11 C141 42 94 114 74 200 C72 209 70 220 68 229 L52 228 L52 228 Z M61 154 L61 154 L61 154 L61 154 Z M226 360 C245 350 268 340 287 330 L287 -6 C265 -7 246 -4 226 3 L226 360 L226 360 Z M306 319 C382 274 420 219 420 166 C420 74 375 9 306 -4 L306 319 L306 319 Z M226 449 L226 758 C248 759 268 755 288 748 L288 414 C265 425 245 437 227 449 L226 449 L226 449 Z M208 463 C151 506 122 555 122 601 C122 683 156 741 208 755 L208 463 L208 463 Z " />
<glyph glyph-name="percent" unicode="&#x25;" horiz-adv-x="775" d="M84 565 C84 680 118 757 169 757 C222 757 258 671 258 543 C258 432 223 358 171 358 C119 358 84 441 84 565 L84 565 Z M30 555 C30 435 86 355 170 355 C253 355 309 438 309 562 C309 681 253 760 170 760 C86 760 30 678 30 555 L30 555 Z M529 204 C529 317 564 392 616 392 C673 392 711 308 711 182 C711 69 674 -7 618 -7 C565 -7 529 77 529 204 L529 204 Z M475 194 C475 72 532 -10 617 -10 C705 -10 763 74 763 201 C763 317 705 395 617 395 C532 395 475 315 475 194 L475 194 Z M172 -1 L620 749 L617 751 L168 1 L172 -1 L172 -1 Z " />
<glyph glyph-name="ampersand" unicode="&#x26;" horiz-adv-x="897" d="M310 472 L317 465 C409 493 471 552 471 613 C471 701 409 760 315 760 C217 760 152 697 152 603 C152 565 206 500 287 403 C287 403 366 314 502 152 C430 81 352 41 277 41 C174 41 105 111 105 217 C105 322 165 410 256 438 L247 441 C128 404 48 308 48 201 C48 74 127 -10 245 -10 C336 -10 431 43 517 136 C527 124 538 111 549 98 C603 33 664 -10 701 -10 C768 -10 820 53 832 148 L823 151 C814 81 775 35 724 35 C694 35 643 71 597 126 C582 144 567 162 553 179 C620 264 680 373 726 500 L713 500 C668 376 608 271 541 193 C411 347 336 431 336 431 C255 528 201 593 201 632 C201 701 247 747 316 747 C383 747 427 695 427 616 C427 551 381 493 311 472 L310 472 L310 472 Z " />
<glyph glyph-name="quotesingle" unicode="&#x27;" horiz-adv-x="188" d="M96 750 C83 750 75 732 79 705 L99 560 L105 560 L125 705 C129 732 121 750 108 750 L96 750 L96 750 Z " />
<glyph glyph-name="parenleft" unicode="&#x28;" horiz-adv-x="194" d="M177 760 C107 676 60 544 60 273 C60 2 107 -130 177 -214 L184 -208 C135 -149 102 -26 102 273 C102 572 135 695 184 754 L177 760 L177 760 Z " />
<glyph glyph-name="parenright" unicode="&#x29;" horiz-adv-x="147" d="M7 754 C62 718 99 526 99 273 C99 20 62 -172 7 -208 L10 -214 C86 -165 137 30 137 273 C137 516 86 711 10 760 L7 754 L7 754 Z " />
<glyph glyph-name="asterisk" unicode="&#x2a;" horiz-adv-x="272" d="M262 675 C287 685 269 721 249 708 L150 630 L262 675 L262 675 Z M55 555 L150 630 L38 585 C12 575 33 539 56 556 L55 555 L55 555 Z M265 585 L265 585 L151 631 L246 556 C257 548 267 550 273 561 C279 570 276 579 265 584 L265 585 L265 585 Z M39 675 C44 684 56 705 56 705 C45 713 35 711 29 701 C23 690 26 680 39 675 L39 675 Z M39 675 L151 630 L56 705 L39 675 L39 675 Z M134 510 C132 497 139 489 151 489 C163 489 170 497 168 510 L151 630 L134 510 L134 510 Z M151 630 L168 750 C172 778 129 778 133 750 L151 630 L151 630 Z " />
<glyph glyph-name="plus" unicode="&#x2b;" horiz-adv-x="587" d="M272 444 L272 269 L100 269 L100 231 L272 231 L272 57 L315 57 L315 231 L487 231 L487 269 L315 269 L315 444 L272 444 L272 444 Z " />
<glyph glyph-name="comma" unicode="&#x2c;" horiz-adv-x="258" d="M175 45 C200 -41 149 -109 66 -109 L66 -112 C140 -112 189 -64 189 9 C189 51 178 84 160 101 C151 110 140 115 126 115 C90 115 66 91 66 55 C66 19 90 -5 126 -5 C153 -5 172 15 175 46 L175 45 L175 45 Z " />
<glyph glyph-name="hyphen" unicode="&#x2d;" horiz-adv-x="397" d="M80 262 L317 262 L317 308 L80 308 L80 262 L80 262 Z " />
<glyph glyph-name="period" unicode="&#x2e;" horiz-adv-x="195" d="M164 34 C164 84 86 84 86 34 C86 -17 164 -17 164 34 L164 34 Z " />
<glyph glyph-name="slash" unicode="&#x2f;" horiz-adv-x="380" d="M318 770 L36 -80 L68 -80 L350 770 L318 770 L318 770 Z " />
<glyph glyph-name="zero" unicode="0" horiz-adv-x="606" d="M74 250 C74 378 166 487 305 487 C430 487 536 392 536 250 C536 122 444 13 305 13 C180 13 74 108 74 250 L74 250 Z M49 250 C49 94 167 -10 305 -10 C459 -10 561 110 561 250 C561 406 443 510 305 510 C151 510 49 390 49 250 L49 250 Z " />
<glyph glyph-name="one" unicode="1" horiz-adv-x="307" d="M257 7 L231 7 C201 7 181 27 181 57 L181 443 C181 473 201 493 231 493 L257 493 L257 500 L50 500 L50 493 L76 493 C106 493 126 473 126 443 L126 57 C126 27 106 7 76 7 L50 7 L50 0 L257 0 L257 7 L257 7 Z " />
<glyph glyph-name="two" unicode="2" horiz-adv-x="497" d="M361 49 C308 49 225 49 122 49 C277 139 396 240 396 342 C396 442 335 509 243 509 C149 509 69 423 44 293 L56 290 C77 396 140 467 215 467 C291 467 341 412 341 330 C341 204 194 93 21 5 L29 -1 C33 1 37 3 40 5 C38 3 37 2 36 1 C212 1 392 0 392 0 L421 48 C434 66 447 85 458 101 L456 106 C437 75 400 54 360 51 L361 49 L361 49 Z " />
<glyph glyph-name="three" unicode="3" horiz-adv-x="379" d="M18 -221 L20 -232 C211 -212 339 -119 339 -1 C339 96 248 160 112 160 C111 160 108 160 105 160 C247 222 341 296 341 383 C341 459 283 509 197 509 C114 509 44 445 22 350 L34 346 C51 420 108 470 175 470 C239 470 282 428 282 364 C282 278 207 213 94 165 L94 159 C93 158 93 157 95 155 C207 139 282 70 282 -18 C282 -124 177 -205 19 -222 L18 -221 L18 -221 Z " />
<glyph glyph-name="four" unicode="4" horiz-adv-x="557" d="M536 103 L531 87 C525 60 503 42 476 42 L382 42 L382 530 L375 530 L15 10 L15 0 L327 0 L327 -220 L382 -220 L382 0 L470 0 C501 0 515 -18 515 -46 C515 -46 523 -49 525 -49 L535 21 C538 45 543 76 546 100 C544 100 536 103 536 103 L536 103 Z M327 428 L327 42 L63 42 L327 428 L327 428 Z " />
<glyph glyph-name="five" unicode="5" horiz-adv-x="396" d="M254 500 L100 500 L54 220 L64 211 L87 211 C226 211 318 138 318 29 C318 -103 214 -203 59 -222 L60 -233 C244 -210 366 -98 366 48 C366 181 257 269 94 269 L81 269 L110 451 L308 452 L316 500 C316 500 325 544 325 546 L314 546 C306 519 285 500 254 500 L254 500 Z " />
<glyph glyph-name="six" unicode="6" horiz-adv-x="534" d="M517 750 C241 691 57 506 57 287 C57 109 145 -10 276 -10 C400 -10 482 90 482 239 C482 372 396 461 268 461 C205 461 155 431 127 380 C173 560 319 699 520 742 L517 750 L517 750 Z M113 258 C113 378 175 458 269 458 C364 458 428 372 428 242 C428 93 368 -7 277 -7 C179 -7 113 99 113 258 L113 258 Z " />
<glyph glyph-name="seven" unicode="7" horiz-adv-x="405" d="M49 404 L54 412 C68 436 93 452 118 455 L384 453 L388 461 L112 -220 L154 -220 L401 485 L401 500 L143 500 C111 500 103 516 110 538 C110 538 100 542 98 544 C92 531 88 515 83 500 L82 500 L65 457 C57 441 49 423 43 409 C45 408 51 403 51 403 L49 404 L49 404 Z " />
<glyph glyph-name="eight" unicode="8" horiz-adv-x="510" d="M214 385 C222 381 231 377 240 373 C353 324 428 276 428 199 C428 75 360 -8 259 -8 C161 -8 95 65 95 174 C95 267 142 348 214 385 L214 385 Z M211 387 C111 342 46 259 46 174 C46 64 131 -10 258 -10 C385 -10 470 64 470 176 C470 297 399 359 290 411 C382 453 442 525 442 597 C442 695 367 760 255 760 C144 760 70 689 70 583 C70 502 125 432 210 387 L211 387 L211 387 Z M287 412 C279 416 270 420 261 424 C173 462 115 527 115 603 C115 697 172 759 257 759 C340 759 396 692 396 592 C396 516 353 447 287 413 L287 412 L287 412 Z " />
<glyph glyph-name="nine" unicode="9" horiz-adv-x="534" d="M17 -250 C293 -191 477 -6 477 213 C477 391 389 510 258 510 C134 510 52 410 52 261 C52 128 138 39 266 39 C329 39 379 69 407 120 C361 -60 215 -199 14 -242 L17 -250 L17 -250 Z M421 242 C421 122 359 42 265 42 C170 42 106 128 106 258 C106 407 166 507 257 507 C355 507 421 401 421 242 L421 242 Z " />
<glyph glyph-name="colon" unicode="&#x3a;" horiz-adv-x="135" d="M164 424 C164 474 86 474 86 424 C86 373 164 373 164 424 L164 424 Z M164 34 C164 84 86 84 86 34 C86 -17 164 -17 164 34 L164 34 Z " />
<glyph glyph-name="semicolon" unicode="&#x3b;" horiz-adv-x="258" d="M164 424 C164 474 86 474 86 424 C86 373 164 373 164 424 L164 424 Z M175 45 C200 -41 149 -109 66 -109 L66 -112 C140 -112 189 -64 189 9 C189 51 178 84 160 101 C151 110 140 115 126 115 C90 115 66 91 66 55 C66 19 90 -5 126 -5 C153 -5 172 15 175 46 L175 45 L175 45 Z " />
<glyph glyph-name="equal" unicode="&#x3d;" horiz-adv-x="495" d="M79 212 L79 188 L425 188 L425 212 L79 212 L79 212 Z M79 312 L79 288 L425 288 L425 312 L79 312 L79 312 Z " />
<glyph glyph-name="question" unicode="&#x3f;" horiz-adv-x="304" d="M164 34 C164 84 86 84 86 34 C86 -17 164 -17 164 34 L164 34 Z M122 180 C122 180 123 359 125 360 C211 360 245 396 282 451 C299 476 310 517 310 553 C310 677 244 760 145 760 C114 760 93 744 93 719 C93 703 105 692 123 692 C136 692 152 702 165 702 C242 702 294 640 294 547 C294 528 284 500 269 478 C244 440 214 415 106 415 C110 416 112 180 112 180 L122 180 L122 180 Z " />
<glyph glyph-name="at" unicode="&#x40;" horiz-adv-x="1092" d="M994 0 C927 -144 750 -240 552 -240 C280 -240 98 -40 98 259 C98 557 277 756 546 756 C815 756 995 591 995 343 C995 140 920 5 808 5 C695 5 640 83 669 200 L739 480 L687 480 L665 392 C653 452 610 490 550 490 C390 490 283 372 283 196 C283 86 347 12 442 12 C511 12 574 59 609 133 C614 43 684 -14 799 -14 C942 -14 1037 129 1037 343 C1037 600 841 771 546 771 C251 771 55 566 55 259 C55 -46 259 -249 564 -249 C763 -249 942 -149 1012 0 L994 0 L994 0 Z M656 356 L617 200 C593 106 535 43 472 43 C395 43 344 109 344 207 C344 368 426 475 549 475 C613 475 656 427 656 356 L656 356 Z " />
<glyph glyph-name="A" unicode="A" horiz-adv-x="683" d="M259 9 L236 9 C178 9 148 46 162 103 L215 296 L448 296 L502 100 C514 45 484 9 427 9 L404 9 L404 0 L681 0 L681 9 L668 9 C627 9 589 44 570 97 C507 321 444 545 381 769 L375 769 C378 750 362 725 330 720 C273 516 217 312 160 108 C143 48 93 8 33 8 L6 8 L6 -1 L259 -1 L259 9 L259 9 Z M216 298 L331 716 L447 298 L216 298 L216 298 Z " />
<glyph glyph-name="B" unicode="B" horiz-adv-x="583" d="M326 1 L276 1 C236 1 209 23 209 55 L209 385 L347 385 C422 385 472 309 472 194 C472 38 414 1 326 1 L326 1 Z M69 741 L95 741 C125 741 145 721 145 691 L145 59 C145 29 125 9 95 9 L69 9 L69 0 L329 0 C457 0 543 37 543 194 C543 310 467 387 354 387 L345 387 C455 399 525 469 525 568 C525 677 478 749 280 749 L69 749 L69 741 L69 741 Z M308 386 L209 386 L209 747 L276 747 C426 747 461 673 461 561 C461 456 400 386 308 386 L308 386 Z " />
<glyph glyph-name="C" unicode="C" horiz-adv-x="669" d="M623 12 L623 206 L606 206 C604 198 602 188 600 180 C583 117 536 55 483 25 C446 4 406 -8 361 -8 C223 -8 131 145 131 375 C131 604 227 757 371 757 C416 757 454 746 488 726 L488 726 C539 697 584 634 601 570 C603 562 605 552 607 544 L624 544 L624 735 L614 735 C613 729 613 720 612 714 C608 682 582 679 546 706 L546 706 C501 740 447 760 370 760 C184 760 60 606 60 375 C60 144 180 -10 360 -10 C435 -10 494 11 544 46 L544 46 C581 72 608 67 612 34 C613 27 613 19 614 12 L623 12 L623 12 Z " />
<glyph glyph-name="D" unicode="D" horiz-adv-x="765" d="M273 2 C215 2 209 22 209 51 L209 748 L301 748 C525 748 640 599 640 375 C640 129 493 2 273 2 L273 2 Z M69 743 L95 743 C125 743 145 723 145 693 L145 57 C145 27 125 7 95 7 L69 7 L69 0 L276 0 C536 0 710 128 710 375 C710 600 574 750 309 750 L69 750 L69 743 L69 743 Z " />
<glyph glyph-name="E" unicode="E" horiz-adv-x="579" d="M426 259 L426 513 L414 513 L406 467 C398 419 362 387 314 387 L209 387 L209 748 L374 748 C422 748 462 716 476 668 L489 622 L501 622 C497 660 491 711 486 749 L486 750 L49 750 L49 743 L75 743 C117 743 145 715 145 673 L145 77 C145 35 117 7 75 7 L49 7 L49 0 L511 0 L511 1 C517 36 525 83 531 118 L519 118 L513 101 C493 42 437 2 374 2 L260 2 C214 2 209 22 209 51 L209 385 L314 385 C362 385 398 353 406 305 L414 259 L426 259 L426 259 Z " />
<glyph glyph-name="F" unicode="F" horiz-adv-x="554" d="M416 259 L416 513 L404 513 L396 467 C388 419 352 387 304 387 L209 387 L209 748 L374 748 C422 748 462 716 476 668 L489 622 L501 622 C497 660 491 711 486 749 L486 750 L49 750 L49 743 L75 743 C117 743 145 715 145 673 L145 77 C145 35 117 7 75 7 L49 7 L49 0 L305 0 L305 7 L279 7 C237 7 209 35 209 77 L209 385 L304 385 C352 385 388 353 396 305 L404 259 L416 259 L416 259 Z " />
<glyph glyph-name="G" unicode="G" horiz-adv-x="740" d="M623 544 L623 735 L613 735 C612 729 612 720 611 714 C607 682 581 679 545 706 L545 706 C500 740 446 760 369 760 C183 760 59 606 59 375 C59 144 182 -10 367 -10 C511 -10 604 14 682 51 L681 53 C659 43 635 34 607 27 L607 232 C607 283 636 317 680 317 L693 317 L693 326 L457 326 L457 317 L470 317 C514 317 543 283 543 232 C543 180 543 117 543 71 C536 31 472 4 378 4 C229 4 130 153 130 376 C130 605 226 758 370 758 C415 758 453 747 487 727 L487 727 C538 698 583 635 600 571 C602 563 604 553 606 545 L623 544 L623 544 Z M460 6 C435 5 408 4 378 4 C398 4 429 5 459 6 L460 6 L460 6 Z " />
<glyph glyph-name="H" unicode="H" horiz-adv-x="768" d="M708 7 L682 7 C652 7 632 27 632 57 L632 693 C632 723 652 743 682 743 L708 743 L708 750 L492 750 L492 743 L518 743 C548 743 568 723 568 693 L568 386 L245 386 L245 693 C245 723 265 743 295 743 L321 743 L321 750 L105 750 L105 743 L131 743 C161 743 181 723 181 693 L181 57 C181 27 161 7 131 7 L105 7 L105 0 L321 0 L321 7 L295 7 C265 7 245 27 245 57 L245 383 L568 383 L568 57 C568 27 548 7 518 7 L492 7 L492 0 L708 0 L708 7 L708 7 Z " />
<glyph glyph-name="I" unicode="I" horiz-adv-x="349" d="M289 7 L263 7 C233 7 213 27 213 57 L213 693 C213 723 233 743 263 743 L289 743 L289 750 L73 750 L73 743 L99 743 C129 743 149 723 149 693 L149 57 C149 27 129 7 99 7 L73 7 L73 0 L289 0 L289 7 L289 7 Z " />
<glyph glyph-name="J" unicode="J" horiz-adv-x="349" d="M289 750 L73 750 L73 743 L99 743 C129 743 149 723 149 693 L149 -39 C149 -188 82 -216 34 -216 C2 -216 18 -164 -14 -164 C-31 -164 -43 -176 -43 -193 C-43 -209 -13 -220 31 -220 C108 -220 214 -172 214 83 C214 242 213 569 213 697 C215 725 235 743 264 743 L290 743 L289 750 L289 750 Z " />
<glyph glyph-name="K" unicode="K" horiz-adv-x="664" d="M285 750 L69 750 L69 743 L95 743 C125 743 145 723 145 693 L145 57 C145 27 125 7 95 7 L69 7 L69 0 L285 0 L285 7 L259 7 C229 7 209 27 209 57 L209 375 L507 0 L658 0 L658 7 L632 7 C605 7 573 23 549 48 L255 417 C320 504 385 591 451 678 C480 717 526 743 565 743 L596 743 L596 750 L334 750 L334 743 L375 743 C435 743 446 703 402 643 L402 643 L208 375 L208 693 C208 723 228 743 258 743 L284 743 L285 750 L285 750 Z " />
<glyph glyph-name="L" unicode="L" horiz-adv-x="573" d="M289 750 L73 750 L73 743 L99 743 C129 743 149 723 149 693 L149 57 C149 27 129 7 99 7 L73 7 L73 0 L507 0 L507 11 C513 47 521 92 527 127 L515 127 L509 110 C489 51 433 11 370 11 L264 11 C218 11 213 27 213 51 L213 693 C213 723 233 743 263 743 L289 743 L289 750 L289 750 Z " />
<glyph glyph-name="M" unicode="M" horiz-adv-x="809" d="M53 743 L79 743 C108 743 134 725 146 697 L128 50 C124 24 104 7 76 7 L50 7 L50 0 L224 0 L224 7 L198 7 C170 7 151 25 150 52 L162 655 C242 437 322 218 403 0 L419 0 L639 684 C644 475 651 265 655 57 C656 27 637 7 607 7 L581 7 L581 0 L797 0 L797 7 L771 7 C743 7 723 24 719 51 C713 265 706 480 701 693 C700 723 719 743 749 743 L775 743 L775 750 L637 750 L430 86 L204 750 L54 750 L53 743 L53 743 Z " />
<glyph glyph-name="N" unicode="N" horiz-adv-x="710" d="M11 743 L38 743 C67 743 98 724 117 696 L132 673 L131 58 L131 58 C131 28 111 8 81 8 L55 8 L55 1 L227 1 L227 8 L201 8 C171 8 151 28 151 58 L151 58 L149 647 C285 432 421 216 557 1 L570 1 L575 694 L575 694 C575 724 595 744 625 744 L651 744 L651 751 L480 751 L480 744 L506 744 C536 744 556 724 556 694 L557 122 L164 751 L12 751 L11 743 L11 743 Z " />
<glyph glyph-name="O" unicode="O" horiz-adv-x="771" d="M130 375 C130 604 231 757 382 757 C540 757 646 604 646 375 C646 146 537 -7 373 -7 C227 -7 130 146 130 375 L130 375 Z M59 375 C59 144 185 -10 373 -10 C579 -10 716 144 716 375 C716 606 583 760 383 760 C189 760 59 606 59 375 L59 375 Z " />
<glyph glyph-name="P" unicode="P" horiz-adv-x="524" d="M302 7 L276 7 C246 7 226 27 226 57 L226 351 L268 351 C410 351 504 410 504 540 C504 666 426 750 309 750 L85 750 L85 743 L111 743 C141 743 161 723 161 693 L161 57 C161 27 141 7 111 7 L85 7 L85 0 L302 0 L302 7 L302 7 Z M226 365 L226 739 L293 739 C384 739 444 664 444 551 C444 423 374 365 268 365 L226 365 L226 365 Z " />
<glyph glyph-name="Q" unicode="Q" horiz-adv-x="766" d="M1025 -53 L1024 -52 C995 -77 884 -93 748 -93 C569 -93 402 -58 330 -7 C344 -9 359 -10 374 -10 C580 -10 717 144 717 375 C717 606 584 760 384 760 C190 760 60 606 60 375 C60 189 142 53 272 7 C384 -77 572 -134 743 -134 C855 -134 969 -102 1027 -53 L1025 -53 L1025 -53 Z M132 375 C132 604 233 757 384 757 C542 757 648 604 648 375 C648 145 538 -9 372 -9 C228 -9 132 145 132 375 L132 375 Z " />
<glyph glyph-name="R" unicode="R" horiz-adv-x="670" d="M69 743 L95 743 C125 743 145 723 145 693 L145 57 C145 27 125 7 95 7 L69 7 L69 0 L285 0 L285 7 L259 7 C229 7 209 27 209 57 L209 364 L308 364 C322 332 381 218 464 67 C499 3 507 0 660 0 L660 5 C577 5 572 7 539 67 C456 219 395 331 374 370 C467 386 525 441 525 541 C525 667 440 751 312 751 L70 751 L69 743 L69 743 Z M210 381 L210 738 L293 738 C390 738 454 664 454 553 C454 434 397 381 312 381 L210 381 L210 381 Z " />
<glyph glyph-name="S" unicode="S" horiz-adv-x="513" d="M181 13 L181 14 C212 -1 246 -9 280 -9 C395 -9 472 69 472 185 C472 272 413 357 299 409 C182 462 121 534 121 600 C121 726 197 788 300 744 C348 721 389 662 407 591 C409 583 411 571 413 563 L430 563 L430 745 L420 745 C419 740 419 733 418 728 C415 706 400 699 379 709 C340 741 288 760 234 760 C136 760 71 686 71 574 C71 487 136 399 261 342 C367 294 421 228 421 165 C421 62 365 -7 281 -7 C245 -7 209 6 176 29 C132 62 92 128 75 199 C73 208 71 219 69 228 L52 228 L52 10 L62 10 C63 18 63 28 64 36 C67 72 93 76 129 47 L129 48 C145 35 163 25 181 14 L181 13 L181 13 Z M62 154 L62 154 L62 154 L62 154 Z " />
<glyph glyph-name="T" unicode="T" horiz-adv-x="741" d="M663 786 L659 781 C648 762 607 750 559 750 L183 750 C135 750 94 762 83 781 L79 786 L70 786 C64 773 57 756 52 743 C52 743 53 743 55 743 L55 742 L47 742 C32 705 22 655 7 618 L19 618 L38 649 C67 700 120 734 171 734 L339 734 L339 57 C339 27 319 7 289 7 L263 7 L263 0 L479 0 L479 7 L453 7 C423 7 403 27 403 57 L403 734 L571 734 C622 734 675 700 704 649 L723 618 L735 618 C720 656 709 705 693 743 C693 743 692 743 689 743 C688 745 687 747 686 749 L686 751 L685 751 C681 763 676 777 671 788 L663 786 L663 786 Z " />
<glyph glyph-name="U" unicode="U" horiz-adv-x="647" d="M617 36 L591 29 C561 21 541 36 541 66 L541 750 L401 750 L401 743 L427 743 C457 743 477 723 477 693 L477 171 C438 88 353 32 263 32 C210 32 174 104 174 213 L174 750 L34 750 L34 743 L60 743 C90 743 110 723 110 693 L110 213 C110 79 161 -10 237 -10 C338 -10 434 51 477 142 L477 0 L509 0 C541 9 585 21 617 29 L617 36 L617 36 Z " />
<glyph glyph-name="V" unicode="V" horiz-adv-x="706" d="M688 750 L443 750 L443 741 L481 741 C538 741 565 705 550 650 L364 93 L180 648 C164 704 191 741 249 741 L272 741 L272 750 L9 750 L9 741 L19 741 C52 741 87 702 107 644 C181 426 255 208 329 -10 L342 -10 C418 207 494 424 570 641 C591 701 633 741 674 741 L686 741 L688 750 L688 750 Z " />
<glyph glyph-name="W" unicode="W" horiz-adv-x="1011" d="M622 750 L362 750 L362 741 L372 741 C407 741 440 710 456 664 L506 499 L344 77 L170 661 L171 661 C157 709 179 741 227 741 L245 741 L245 750 L10 750 L10 741 L20 741 C53 741 84 711 100 666 C171 440 242 215 312 -11 L329 -11 L516 468 C564 308 612 148 660 -12 L676 -12 L865 664 C879 709 917 739 960 739 L973 739 L973 748 L728 748 L728 739 L782 739 C830 739 853 707 840 659 L840 659 L687 88 L526 661 C514 708 537 739 584 739 L622 739 L622 750 L622 750 Z " />
<glyph glyph-name="X" unicode="X" horiz-adv-x="721" d="M280 750 L51 750 L51 743 C87 743 116 729 138 696 L331 359 L137 57 C116 27 82 7 51 7 L20 7 L20 0 L243 0 L243 7 L187 7 C155 7 146 27 163 57 L340 344 C394 250 449 155 502 61 C521 28 512 6 479 6 L442 6 L442 -1 L671 -1 L671 6 C635 6 606 20 584 53 L381 408 L578 696 C601 724 634 742 664 742 L695 742 L695 749 L469 749 L469 742 L526 742 C559 742 567 720 547 687 L547 687 L379 411 C327 503 273 596 222 687 C203 720 212 742 245 742 L282 742 L280 750 L280 750 Z " />
<glyph glyph-name="Y" unicode="Y" horiz-adv-x="639" d="M239 750 L10 750 L10 743 C49 743 80 725 100 688 L100 688 L293 328 L293 77 C293 35 265 7 223 7 L197 7 L197 0 L454 0 L454 7 L428 7 C386 7 358 35 358 77 L358 338 L528 688 C544 721 576 743 609 743 L641 743 L641 750 L436 750 L436 743 L494 743 C527 743 538 721 522 688 L522 688 L357 342 C297 457 235 573 176 688 C159 721 169 743 202 743 L239 743 L239 750 L239 750 Z " />
<glyph glyph-name="Z" unicode="Z" horiz-adv-x="615" d="M68 732 C68 732 61 659 58 616 L70 616 L74 633 C90 692 143 731 206 733 L509 736 L26 13 L26 0 L574 0 L576 9 C576 9 587 59 605 135 L593 135 L586 118 C564 62 512 23 454 17 L102 13 L579 736 L579 749 L72 749 L68 732 L68 732 Z " />
<glyph glyph-name="bracketleft" unicode="&#x5b;" horiz-adv-x="286" d="M126 734 L336 734 L336 750 L107 750 L107 -195 L336 -195 L336 -179 L126 -179 L126 734 L126 734 Z " />
<glyph glyph-name="backslash" unicode="&#x5c;" horiz-adv-x="338" d="M36 770 L296 -80 L328 -80 L68 770 L36 770 L36 770 Z " />
<glyph glyph-name="bracketright" unicode="&#x5d;" horiz-adv-x="289" d="M160 734 L160 -179 L-50 -179 L-50 -195 L179 -195 L179 750 L-50 750 L-50 734 L160 734 L160 734 Z " />
<glyph glyph-name="asciicircum" unicode="&#x5e;" horiz-adv-x="298" d="M169 763 C165 769 155 783 149 783 C143 783 134 770 130 764 L0 564 L7 558 L150 722 L291 558 L299 564 L169 763 L169 763 Z " />
<glyph glyph-name="underscore" unicode="&#x5f;" horiz-adv-x="381" d="M5 -50 L5 -80 L376 -80 L376 -50 L5 -50 L5 -50 Z " />
<glyph glyph-name="grave" unicode="&#x60;" horiz-adv-x="298" d="M-56 753 C-56 748 -28 722 13 686 L153 563 L159 570 L38 711 C3 753 -23 781 -29 781 C-44 781 -56 768 -56 753 L-56 753 Z " />
<glyph glyph-name="a" unicode="a" horiz-adv-x="479" d="M489 81 L482 84 C477 54 453 34 423 34 C389 34 367 54 367 84 L367 358 C367 463 317 510 243 510 C140 510 72 414 72 360 C72 337 83 321 100 321 C120 321 134 337 134 349 C134 363 114 384 114 395 C114 435 164 507 240 507 C283 507 312 467 312 378 L312 264 C136 163 52 111 52 81 C52 26 93 -10 155 -10 C194 -10 246 17 311 87 C311 32 346 -5 400 -5 C444 -5 479 29 488 81 L489 81 L489 81 Z M311 262 L311 87 C263 38 220 18 183 18 C137 18 106 45 106 86 C106 136 172 181 311 261 L311 262 L311 262 Z " />
<glyph glyph-name="b" unicode="b" horiz-adv-x="482" d="M10 722 L21 722 C48 723 66 707 66 680 L66 0 L69 0 L91 73 C125 22 181 -10 244 -10 C359 -10 436 95 436 252 C436 404 359 505 243 505 C197 505 149 471 120 419 L120 750 L93 750 C68 743 34 736 9 729 L10 722 L10 722 Z M120 110 L120 411 C146 458 187 488 226 488 C315 488 374 391 374 245 C374 96 323 -3 246 -3 C195 -3 145 41 120 110 L120 110 Z " />
<glyph glyph-name="c" unicode="c" horiz-adv-x="429" d="M399 128 L397 129 C363 52 300 1 240 1 C156 1 100 107 100 266 C100 411 159 508 248 508 C283 508 322 467 344 405 C350 389 361 378 372 378 C394 378 405 389 399 405 C376 468 316 510 249 510 C127 510 45 401 45 238 C45 89 121 -10 234 -10 C296 -10 362 45 399 128 L399 128 Z " />
<glyph glyph-name="d" unicode="d" horiz-adv-x="551" d="M349 721 L360 721 C387 722 405 706 405 679 L405 399 C379 461 327 510 274 510 C123 510 45 407 45 253 C45 98 128 -5 252 -5 C308 -5 369 27 405 75 L405 0 L432 0 L432 -1 C463 8 505 19 536 27 L536 34 L510 27 C480 19 460 34 460 64 L460 750 L433 750 L433 751 C408 744 374 735 349 728 L349 721 L349 721 Z M405 375 L405 78 C377 42 326 18 274 18 C170 18 101 118 101 268 C101 404 162 494 281 494 C334 494 385 439 405 375 L405 375 Z " />
<glyph glyph-name="e" unicode="e" horiz-adv-x="486" d="M109 340 L456 340 C434 462 364 510 271 510 C135 510 45 433 45 234 C45 88 127 -10 251 -10 C333 -10 408 48 440 135 L439 135 C410 55 336 2 255 2 C164 2 103 104 103 257 C103 288 105 316 109 341 L109 340 L109 340 Z M395 344 L109 343 C128 461 188 509 271 509 C328 509 374 463 395 344 L395 344 Z " />
<glyph glyph-name="f" unicode="f" horiz-adv-x="310" d="M229 7 L188 7 C179 7 173 13 173 22 L173 471 L300 471 L300 500 L173 500 C173 643 205 738 266 738 C298 738 328 635 354 635 C381 635 399 653 399 680 C399 725 354 755 286 755 C175 755 118 653 118 500 L17 477 L17 471 L118 471 L118 22 C118 13 112 7 103 7 L62 7 L62 0 L229 0 L229 7 L229 7 Z " />
<glyph glyph-name="g" unicode="g" horiz-adv-x="487" d="M506 462 C506 481 492 494 471 494 C434 494 400 472 381 437 C354 482 305 509 242 509 C146 509 82 445 82 349 C82 260 135 198 217 188 C121 183 59 151 59 105 C59 56 95 21 151 14 C91 -5 52 -47 52 -95 C52 -177 132 -232 252 -232 C372 -232 452 -171 452 -79 C452 9 404 67 282 67 L175 67 C125 67 91 89 91 121 C91 160 151 186 242 186 C338 186 402 251 402 348 C402 380 395 408 382 432 C395 448 416 458 439 458 C452 458 470 436 483 436 C497 436 506 446 506 460 L506 462 L506 462 Z M156 14 C161 14 166 14 171 14 L275 14 C369 14 406 -28 406 -91 C406 -174 344 -229 251 -229 C158 -229 96 -170 96 -81 C96 -37 119 -1 155 14 L156 14 L156 14 Z M241 188 C178 188 136 252 136 348 C136 443 178 506 241 506 C304 506 346 443 346 348 C346 252 304 188 241 188 L241 188 Z " />
<glyph glyph-name="h" unicode="h" horiz-adv-x="488" d="M26 721 L37 721 C64 722 82 706 82 679 L82 22 C82 13 76 7 67 7 L26 7 L26 0 L193 0 L193 7 L152 7 C143 7 137 13 137 22 L137 375 C158 433 209 471 265 471 C319 471 347 427 347 360 L347 22 C347 13 341 7 332 7 L291 7 L291 0 L458 0 L458 7 L417 7 C408 7 402 13 402 22 L402 360 C402 450 366 510 296 510 C230 510 166 457 137 377 L137 750 L110 750 L110 751 C85 744 51 735 26 728 L26 721 L26 721 Z " />
<glyph glyph-name="i" unicode="i" horiz-adv-x="233" d="M155 650 C155 672 141 686 120 686 C98 686 84 672 84 650 C84 605 155 604 155 650 L155 650 Z M36 471 L47 471 C74 472 92 456 92 429 L92 22 C92 13 86 7 77 7 L36 7 L36 0 L203 0 L203 7 L162 7 C153 7 147 13 147 22 L147 500 L120 500 C112 498 102 493 92 493 C92 490 39 479 36 478 L36 471 L36 471 Z " />
<glyph glyph-name="j" unicode="j" horiz-adv-x="231" d="M149 650 C149 672 135 686 114 686 C92 686 78 672 78 650 C78 605 149 604 149 650 L149 650 Z M30 471 L41 471 C68 472 86 456 86 429 L86 32 C86 -49 70 -112 45 -126 C11 -126 -35 -100 -69 -100 C-96 -100 -114 -116 -114 -140 C-114 -169 -90 -187 -54 -185 C-47 -185 -5 -163 51 -130 C105 -99 141 -34 141 32 L141 500 L114 500 C106 498 96 493 86 493 C86 490 33 479 30 478 L30 471 L30 471 Z " />
<glyph glyph-name="k" unicode="k" horiz-adv-x="433" d="M438 500 L195 500 L195 493 L254 493 C314 493 313 453 252 393 L164 307 L163 309 L137 284 L137 750 L110 750 C102 748 92 743 82 743 C82 740 29 729 26 728 L26 721 L37 721 C64 722 82 706 82 679 L82 22 C82 13 76 7 67 7 L26 7 L26 0 L193 0 L193 7 L152 7 C143 7 137 13 137 22 L137 257 L293 43 C307 21 302 7 279 7 L268 7 L268 0 L428 0 L428 7 C401 7 375 24 351 57 L351 57 L169 302 L307 438 C345 471 391 493 426 493 L438 493 L438 500 L438 500 Z " />
<glyph glyph-name="l" unicode="l" horiz-adv-x="223" d="M26 722 L37 722 C64 723 82 707 82 680 L82 22 C82 13 76 7 67 7 L26 7 L26 0 L193 0 L193 7 L152 7 C143 7 137 13 137 22 L137 750 L110 750 C85 743 51 736 26 729 L26 722 L26 722 Z " />
<glyph glyph-name="m" unicode="m" horiz-adv-x="745" d="M26 472 L37 472 C64 473 82 457 82 430 L82 22 C82 13 76 7 67 7 L26 7 L26 0 L193 0 L193 7 L152 7 C143 7 137 13 137 22 L137 380 C157 433 205 469 258 469 C320 469 344 425 344 360 L344 22 C344 13 338 7 329 7 L288 7 L288 0 L454 0 L454 7 L413 7 C404 7 398 13 398 22 L398 360 C398 369 398 377 397 385 C418 435 466 469 519 469 C581 469 605 425 605 360 L605 22 C605 13 599 7 590 7 L549 7 L549 0 L715 0 L715 7 L674 7 C665 7 659 13 659 22 L659 360 C659 450 626 510 542 510 C483 510 425 461 396 387 C390 462 356 510 281 510 C223 510 165 459 137 382 L137 500 L110 500 C85 493 51 486 26 479 L26 472 L26 472 Z " />
<glyph glyph-name="n" unicode="n" horiz-adv-x="484" d="M27 473 L38 472 C64 474 81 460 83 436 C83 339 82 139 82 23 C82 14 76 8 67 8 L26 8 L26 1 L193 1 L193 8 L152 8 C143 8 137 14 137 23 L137 376 C161 441 212 485 265 485 C317 485 344 428 344 343 L344 23 C344 14 338 8 329 8 L288 8 L288 1 L454 1 L454 8 L413 8 C404 8 398 14 398 23 L398 343 C398 444 358 511 281 511 C222 511 165 460 137 384 L137 501 L110 501 L107 500 C82 494 51 487 27 481 L27 473 L27 473 Z " />
<glyph glyph-name="o" unicode="o" horiz-adv-x="572" d="M106 250 C106 404 178 507 286 507 C395 507 467 404 467 250 C467 96 395 -7 286 -7 C178 -7 106 96 106 250 L106 250 Z M45 250 C45 94 141 -10 286 -10 C431 -10 527 94 527 250 C527 406 431 510 286 510 C141 510 45 406 45 250 L45 250 Z " />
<glyph glyph-name="p" unicode="p" horiz-adv-x="486" d="M11 472 L22 472 C49 473 67 457 67 430 L67 -198 C67 -207 61 -213 52 -213 L11 -213 L11 -220 L178 -220 L178 -213 L137 -213 C128 -213 122 -207 122 -198 L122 42 C151 12 188 -5 226 -5 C355 -5 441 114 441 254 C441 408 365 510 250 510 C202 510 152 480 122 434 L122 499 L95 499 C70 492 36 485 11 478 L11 472 L11 472 Z M122 129 L122 411 C151 456 192 486 225 486 C319 486 382 386 382 236 C382 113 321 8 230 8 C188 8 145 56 123 129 L122 129 L122 129 Z " />
<glyph glyph-name="q" unicode="q" horiz-adv-x="514" d="M509 -213 L468 -213 C459 -213 453 -207 453 -198 L453 500 L450 500 L432 440 L424 432 C388 480 330 510 266 510 C114 510 36 407 36 253 C36 114 127 22 263 22 C299 22 352 41 398 71 L398 -198 C398 -207 392 -213 383 -213 L342 -213 L342 -220 L509 -220 L509 -213 L509 -213 Z M398 390 L398 90 C351 59 297 39 262 39 C161 39 93 131 93 268 C93 405 151 497 263 497 C321 497 374 454 399 389 L398 390 L398 390 Z " />
<glyph glyph-name="r" unicode="r" horiz-adv-x="322" d="M27 472 L38 472 C65 473 83 457 83 430 L83 22 C83 13 77 7 68 7 L27 7 L27 0 L194 0 L194 7 L153 7 C144 7 138 13 138 22 L138 395 C149 449 186 484 234 484 C242 484 247 470 247 449 C247 408 312 407 312 449 C312 486 291 510 259 510 C197 510 150 467 137 400 L137 500 L110 500 C85 493 51 486 26 479 L27 472 L27 472 Z " />
<glyph glyph-name="s" unicode="s" horiz-adv-x="390" d="M215 501 C223 498 230 494 237 489 C229 493 221 497 213 500 L215 501 L215 501 Z M61 164 L61 7 L68 7 C69 12 69 17 70 22 C72 37 95 33 129 13 C153 -3 180 -12 207 -12 C288 -12 342 41 342 121 C342 184 300 240 219 269 C142 296 103 348 103 404 C103 465 135 506 183 506 C205 506 228 497 248 482 C245 484 242 486 239 488 C274 464 299 419 305 368 C306 363 306 357 307 352 L315 352 L315 498 L308 498 C307 494 307 489 306 485 C305 475 278 479 240 496 L240 496 C222 504 203 508 183 508 C112 508 64 459 64 385 C64 318 109 258 195 227 C264 203 299 156 299 105 C299 36 262 -10 207 -10 C186 -10 164 -1 143 15 C106 44 78 94 72 148 C71 153 71 159 70 164 L61 164 L61 164 Z M70 97 L70 97 L70 97 L70 97 Z " />
<glyph glyph-name="t" unicode="t" horiz-adv-x="324" d="M282 500 L146 500 L146 620 L142 620 L26 496 L26 486 L91 486 L91 133 C91 30 136 -10 203 -10 C241 -10 285 22 314 71 L307 75 C286 40 251 16 219 16 C174 16 144 45 144 121 L146 471 L282 471 L282 500 L282 500 Z " />
<glyph glyph-name="u" unicode="u" horiz-adv-x="461" d="M446 32 L430 27 C400 19 380 34 380 64 L380 500 L270 500 L270 493 L311 493 C320 493 326 487 326 478 L326 127 C300 67 257 28 214 28 C165 28 133 79 133 155 L133 500 L22 500 L22 493 L63 493 C72 493 78 487 78 478 L78 155 C78 56 122 -10 188 -10 C239 -10 293 43 327 124 L327 0 L354 0 C382 7 419 17 447 25 L446 32 L446 32 Z " />
<glyph glyph-name="v" unicode="v" horiz-adv-x="452" d="M429 500 L293 500 L293 493 L301 493 C328 493 340 471 331 438 L331 438 L234 96 L136 445 C130 479 146 493 177 493 L177 500 L7 500 L7 493 C43 493 68 475 78 438 L78 438 L204 -10 L220 -10 L358 443 C371 477 395 493 429 493 L429 500 L429 500 Z " />
<glyph glyph-name="w" unicode="w" horiz-adv-x="678" d="M194 500 L23 500 L23 493 C57 493 81 478 93 444 L216 -10 L233 -10 L330 314 L419 -10 L435 -10 C484 139 532 289 581 438 C594 476 620 493 656 493 L656 500 L521 500 L521 493 C553 493 568 479 560 444 L419 -10 L451 95 C420 209 389 323 358 437 C348 475 364 492 398 492 L398 499 L227 499 L227 492 C263 492 288 474 298 437 C306 408 314 378 322 349 L250 99 C219 212 188 325 158 437 C148 475 164 492 198 492 L194 500 L194 500 Z " />
<glyph glyph-name="x" unicode="x" horiz-adv-x="475" d="M282 0 L457 0 L457 7 C422 7 395 23 375 57 L262 278 L356 447 C377 479 404 493 438 493 L438 500 L304 500 L304 493 C334 493 347 479 332 445 L255 291 C230 340 205 389 180 438 C163 471 169 493 196 493 L204 493 L204 500 L29 500 L29 493 C64 493 91 477 111 443 L218 234 C182 177 146 120 110 63 C86 26 56 8 19 8 L19 1 L152 1 L152 8 L144 8 C118 8 113 30 132 63 L224 222 C251 169 279 116 306 63 C323 30 317 8 290 8 L282 8 L282 0 L282 0 Z " />
<glyph glyph-name="y" unicode="y" horiz-adv-x="472" d="M457 500 L321 500 L321 493 C352 493 367 480 359 447 L243 94 L146 439 L147 439 C138 472 150 494 177 494 L185 494 L185 501 L15 501 L15 494 C51 494 76 476 86 439 L86 439 L209 2 C189 -51 170 -105 151 -159 C144 -179 130 -192 124 -192 C102 -192 97 -172 74 -172 C49 -172 33 -188 33 -213 C33 -240 51 -258 79 -258 C101 -258 144 -221 164 -166 L222 -8 C275 141 328 290 381 439 C395 477 421 494 457 494 L457 500 L457 500 Z " />
<glyph glyph-name="z" unicode="z" horiz-adv-x="442" d="M69 523 C55 475 60 486 34 392 L48 392 L56 406 C80 451 129 482 180 483 L337 486 L40 13 L40 0 L333 0 L388 -7 C388 -7 389 -4 390 1 L398 20 L395 20 C400 42 407 75 410 109 L396 109 L391 95 C374 51 331 20 281 18 L107 15 L402 488 L402 501 L107 501 C86 501 80 509 80 524 L69 523 L69 523 Z " />
<glyph glyph-name="braceleft" unicode="&#x7b;" horiz-adv-x="220" d="M215 750 L175 750 C107 750 61 708 61 645 L61 383 C61 337 44 311 15 311 L15 309 C44 309 61 280 61 230 L61 -25 C61 -88 107 -130 175 -130 L215 -130 L215 -129 L177 -129 C133 -129 104 -87 104 -25 L104 199 C104 266 71 310 21 310 C71 310 104 351 104 413 L103 645 C103 707 133 749 177 749 L215 749 L215 750 L215 750 Z " />
<glyph glyph-name="bar" unicode="&#x7c;" horiz-adv-x="163" d="M60 800 L60 -250 L103 -250 L103 800 L60 800 L60 800 Z " />
<glyph glyph-name="braceright" unicode="&#x7d;" horiz-adv-x="220" d="M5 750 L5 749 L43 749 C87 749 117 707 117 645 L116 413 C116 351 149 310 199 310 C149 310 116 266 116 199 L116 -25 C116 -87 87 -129 43 -129 L5 -129 L5 -130 L45 -130 C113 -130 159 -88 159 -25 L159 230 C159 280 176 309 205 309 L205 311 C176 311 159 337 159 383 L159 645 C159 708 113 750 45 750 L5 750 L5 750 Z " />
<glyph glyph-name="asciitilde" unicode="&#x7e;" horiz-adv-x="298" d="M29 310 C29 349 44 375 67 375 C111 375 171 310 215 310 C249 310 271 350 271 409 L270 409 C270 373 253 349 227 349 C183 349 124 414 80 414 C48 414 27 372 27 310 L29 310 L29 310 Z " />
<glyph glyph-name="exclamdown" unicode="&#xa1;" horiz-adv-x="207" d="M64 466 C64 416 142 416 142 466 C142 517 64 517 64 466 L64 466 Z M103 -255 C130 -255 140 -220 137 -168 C137 -168 109 153 109 290 L98 290 C98 153 70 -168 70 -168 C67 -220 77 -255 103 -255 L103 -255 Z " />
<glyph glyph-name="cent" unicode="&#xa2;" horiz-adv-x="429" d="M224 575 L224 508 C116 494 45 389 45 237 C45 92 117 -5 224 -11 L224 -76 L244 -76 L244 -11 C303 -5 364 48 399 127 L397 128 C364 53 303 3 244 1 L244 508 C283 509 321 469 344 405 C350 389 361 378 372 378 C394 378 405 389 399 405 C376 469 315 511 245 509 L245 574 L224 575 L224 575 Z M225 1 C150 14 101 116 101 265 C101 397 150 489 225 505 L225 1 L225 1 Z " />
<glyph glyph-name="acute" unicode="&#xb4;" horiz-adv-x="298" d="M156 563 L296 686 C337 723 365 749 365 753 C365 768 353 781 338 781 C334 781 308 753 271 711 L149 570 L156 563 L156 563 Z " />
<glyph glyph-name="questiondown" unicode="&#xbf;" horiz-adv-x="304" d="M140 466 C140 416 218 416 218 466 C218 517 140 517 140 466 L140 466 Z M182 320 C182 320 181 141 179 140 C93 140 59 104 22 49 C5 24 -6 -17 -6 -53 C-6 -177 60 -260 159 -260 C190 -260 211 -244 211 -219 C211 -203 199 -192 181 -192 C168 -192 152 -202 139 -202 C62 -202 10 -140 10 -47 C10 -28 20 0 35 22 C60 60 90 85 198 85 C194 84 192 320 192 320 L182 320 L182 320 Z " />
<glyph glyph-name="Agrave" unicode="&#xc0;" horiz-adv-x="683" d="M154 1003 C154 998 182 972 223 936 L363 813 L370 820 L248 961 C212 1003 187 1031 181 1031 C166 1031 154 1018 154 1003 L154 1003 Z M259 9 L236 9 C178 9 148 46 162 103 L215 296 L448 296 L502 100 C514 45 484 9 427 9 L404 9 L404 0 L681 0 L681 9 L668 9 C627 9 589 44 570 97 C507 321 444 545 381 769 L375 769 C378 750 362 725 330 720 C273 516 217 312 160 108 C143 48 93 8 33 8 L6 8 L6 -1 L259 -1 L259 9 L259 9 Z M216 298 L331 716 L447 298 L216 298 L216 298 Z " />
<glyph glyph-name="Aacute" unicode="&#xc1;" horiz-adv-x="683" d="M366 813 L506 936 C547 973 575 999 575 1003 C575 1018 563 1031 548 1031 C544 1031 518 1003 481 961 L359 820 L366 813 L366 813 Z M259 9 L236 9 C178 9 148 46 162 103 L215 296 L448 296 L502 100 C514 45 484 9 427 9 L404 9 L404 0 L681 0 L681 9 L668 9 C627 9 589 44 570 97 C507 321 444 545 381 769 L375 769 C378 750 362 725 330 720 C273 516 217 312 160 108 C143 48 93 8 33 8 L6 8 L6 -1 L259 -1 L259 9 L259 9 Z M216 298 L331 716 L447 298 L216 298 L216 298 Z " />
<glyph glyph-name="Acircumflex" unicode="&#xc2;" horiz-adv-x="683" d="M379 1013 C375 1019 365 1033 360 1033 C353 1033 344 1020 340 1014 L210 814 L217 808 L360 972 L502 808 L509 814 L379 1013 L379 1013 Z M259 9 L236 9 C178 9 148 46 162 103 L215 296 L448 296 L502 100 C514 45 484 9 427 9 L404 9 L404 0 L681 0 L681 9 L668 9 C627 9 589 44 570 97 C507 321 444 545 381 769 L375 769 C378 750 362 725 330 720 C273 516 217 312 160 108 C143 48 93 8 33 8 L6 8 L6 -1 L259 -1 L259 9 L259 9 Z M216 298 L331 716 L447 298 L216 298 L216 298 Z " />
<glyph glyph-name="Atilde" unicode="&#xc3;" horiz-adv-x="683" d="M239 870 C239 909 254 935 277 935 C322 935 381 870 426 870 C460 870 482 910 482 969 L480 969 C480 933 463 909 438 909 C394 909 334 974 290 974 C258 974 237 932 237 870 L239 870 L239 870 Z M259 9 L236 9 C178 9 148 46 162 103 L215 296 L448 296 L502 100 C514 45 484 9 427 9 L404 9 L404 0 L681 0 L681 9 L668 9 C627 9 589 44 570 97 C507 321 444 545 381 769 L375 769 C378 750 362 725 330 720 C273 516 217 312 160 108 C143 48 93 8 33 8 L6 8 L6 -1 L259 -1 L259 9 L259 9 Z M216 298 L331 716 L447 298 L216 298 L216 298 Z " />
<glyph glyph-name="Adieresis" unicode="&#xc4;" horiz-adv-x="683" d="M463 900 C463 922 449 936 428 936 C406 936 392 922 392 900 C392 855 463 854 463 900 L463 900 Z M327 900 C327 922 313 936 291 936 C270 936 256 922 256 900 C256 854 327 855 327 900 L327 900 Z M259 9 L236 9 C178 9 148 46 162 103 L215 296 L448 296 L502 100 C514 45 484 9 427 9 L404 9 L404 0 L681 0 L681 9 L668 9 C627 9 589 44 570 97 C507 321 444 545 381 769 L375 769 C378 750 362 725 330 720 C273 516 217 312 160 108 C143 48 93 8 33 8 L6 8 L6 -1 L259 -1 L259 9 L259 9 Z M216 298 L331 716 L447 298 L216 298 L216 298 Z " />
<glyph glyph-name="Aring" unicode="&#xc5;" horiz-adv-x="683" d="M279 905 C279 954 311 987 360 987 C408 987 440 954 440 905 C440 861 403 823 360 823 C316 823 279 861 279 905 L279 905 Z M263 905 C263 854 308 810 360 810 C412 810 456 854 456 905 C456 962 418 1000 360 1000 C302 1000 263 962 263 905 L263 905 Z M259 9 L236 9 C178 9 148 46 162 103 L215 296 L448 296 L502 100 C514 45 484 9 427 9 L404 9 L404 0 L681 0 L681 9 L668 9 C627 9 589 44 570 97 C507 321 444 545 381 769 L375 769 C378 750 362 725 330 720 C273 516 217 312 160 108 C143 48 93 8 33 8 L6 8 L6 -1 L259 -1 L259 9 L259 9 Z M216 298 L331 716 L447 298 L216 298 L216 298 Z " />
<glyph glyph-name="Egrave" unicode="&#xc8;" horiz-adv-x="579" d="M110 1003 C110 998 138 972 179 936 L319 813 L326 820 L204 961 C168 1003 143 1031 137 1031 C122 1031 110 1018 110 1003 L110 1003 Z M426 259 L426 513 L414 513 L406 467 C398 419 362 387 314 387 L209 387 L209 748 L374 748 C422 748 462 716 476 668 L489 622 L501 622 C497 660 491 711 486 749 L486 750 L49 750 L49 743 L75 743 C117 743 145 715 145 673 L145 77 C145 35 117 7 75 7 L49 7 L49 0 L511 0 L511 1 C517 36 525 83 531 118 L519 118 L513 101 C493 42 437 2 374 2 L260 2 C214 2 209 22 209 51 L209 385 L314 385 C362 385 398 353 406 305 L414 259 L426 259 L426 259 Z " />
<glyph glyph-name="Eacute" unicode="&#xc9;" horiz-adv-x="579" d="M322 813 L462 936 C503 973 531 999 531 1003 C531 1018 519 1031 504 1031 C500 1031 474 1003 437 961 L315 820 L322 813 L322 813 Z M426 259 L426 513 L414 513 L406 467 C398 419 362 387 314 387 L209 387 L209 748 L374 748 C422 748 462 716 476 668 L489 622 L501 622 C497 660 491 711 486 749 L486 750 L49 750 L49 743 L75 743 C117 743 145 715 145 673 L145 77 C145 35 117 7 75 7 L49 7 L49 0 L511 0 L511 1 C517 36 525 83 531 118 L519 118 L513 101 C493 42 437 2 374 2 L260 2 C214 2 209 22 209 51 L209 385 L314 385 C362 385 398 353 406 305 L414 259 L426 259 L426 259 Z " />
<glyph glyph-name="Ecircumflex" unicode="&#xca;" horiz-adv-x="579" d="M335 1013 C331 1019 321 1033 316 1033 C309 1033 300 1020 296 1014 L166 814 L173 808 L316 972 L458 808 L465 814 L335 1013 L335 1013 Z M426 259 L426 513 L414 513 L406 467 C398 419 362 387 314 387 L209 387 L209 748 L374 748 C422 748 462 716 476 668 L489 622 L501 622 C497 660 491 711 486 749 L486 750 L49 750 L49 743 L75 743 C117 743 145 715 145 673 L145 77 C145 35 117 7 75 7 L49 7 L49 0 L511 0 L511 1 C517 36 525 83 531 118 L519 118 L513 101 C493 42 437 2 374 2 L260 2 C214 2 209 22 209 51 L209 385 L314 385 C362 385 398 353 406 305 L414 259 L426 259 L426 259 Z " />
<glyph glyph-name="Edieresis" unicode="&#xcb;" horiz-adv-x="579" d="M419 900 C419 922 405 936 384 936 C362 936 348 922 348 900 C348 855 419 854 419 900 L419 900 Z M283 900 C283 922 269 936 247 936 C226 936 212 922 212 900 C212 854 283 855 283 900 L283 900 Z M426 259 L426 513 L414 513 L406 467 C398 419 362 387 314 387 L209 387 L209 748 L374 748 C422 748 462 716 476 668 L489 622 L501 622 C497 660 491 711 486 749 L486 750 L49 750 L49 743 L75 743 C117 743 145 715 145 673 L145 77 C145 35 117 7 75 7 L49 7 L49 0 L511 0 L511 1 C517 36 525 83 531 118 L519 118 L513 101 C493 42 437 2 374 2 L260 2 C214 2 209 22 209 51 L209 385 L314 385 C362 385 398 353 406 305 L414 259 L426 259 L426 259 Z " />
<glyph glyph-name="Igrave" unicode="&#xcc;" horiz-adv-x="349" d="M-24 1003 C-24 998 4 972 45 936 L184 813 L191 820 L70 961 C35 1003 9 1031 4 1031 C-11 1031 -24 1018 -24 1003 L-24 1003 Z M289 7 L263 7 C233 7 213 27 213 57 L213 693 C213 723 233 743 263 743 L289 743 L289 750 L73 750 L73 743 L99 743 C129 743 149 723 149 693 L149 57 C149 27 129 7 99 7 L73 7 L73 0 L289 0 L289 7 L289 7 Z " />
<glyph glyph-name="Iacute" unicode="&#xcd;" horiz-adv-x="349" d="M188 813 L327 936 C368 973 396 1000 396 1003 C396 1018 383 1031 368 1031 C365 1031 339 1003 302 961 L181 820 L188 813 L188 813 Z M289 7 L263 7 C233 7 213 27 213 57 L213 693 C213 723 233 743 263 743 L289 743 L289 750 L73 750 L73 743 L99 743 C129 743 149 723 149 693 L149 57 C149 27 129 7 99 7 L73 7 L73 0 L289 0 L289 7 L289 7 Z " />
<glyph glyph-name="Icircumflex" unicode="&#xce;" horiz-adv-x="349" d="M200 1013 C196 1019 186 1033 181 1033 C175 1033 166 1020 162 1014 L32 814 L39 808 L181 972 L323 808 L330 814 L200 1013 L200 1013 Z M289 7 L263 7 C233 7 213 27 213 57 L213 693 C213 723 233 743 263 743 L289 743 L289 750 L73 750 L73 743 L99 743 C129 743 149 723 149 693 L149 57 C149 27 129 7 99 7 L73 7 L73 0 L289 0 L289 7 L289 7 Z " />
<glyph glyph-name="Idieresis" unicode="&#xcf;" horiz-adv-x="349" d="M285 900 C285 922 271 936 249 936 C228 936 214 922 214 900 C214 854 285 855 285 900 L285 900 Z M148 900 C148 922 134 936 113 936 C91 936 77 922 77 900 C77 855 148 854 148 900 L148 900 Z M289 7 L263 7 C233 7 213 27 213 57 L213 693 C213 723 233 743 263 743 L289 743 L289 750 L73 750 L73 743 L99 743 C129 743 149 723 149 693 L149 57 C149 27 129 7 99 7 L73 7 L73 0 L289 0 L289 7 L289 7 Z " />
<glyph glyph-name="Ntilde" unicode="&#xd1;" horiz-adv-x="710" d="M232 870 C232 909 247 935 270 935 C315 935 374 870 419 870 C453 870 475 910 475 969 L473 969 C473 933 456 909 431 909 C387 909 327 974 283 974 C251 974 230 932 230 870 L232 870 L232 870 Z M11 743 L38 743 C67 743 98 724 117 696 L132 673 L131 58 L131 58 C131 28 111 8 81 8 L55 8 L55 1 L227 1 L227 8 L201 8 C171 8 151 28 151 58 L151 58 L149 647 C285 432 421 216 557 1 L570 1 L575 694 L575 694 C575 724 595 744 625 744 L651 744 L651 751 L480 751 L480 744 L506 744 C536 744 556 724 556 694 L557 122 L164 751 L12 751 L11 743 L11 743 Z " />
<glyph glyph-name="Ograve" unicode="&#xd2;" horiz-adv-x="771" d="M130 375 C130 604 231 757 382 757 C540 757 646 604 646 375 C646 146 537 -7 373 -7 C227 -7 130 146 130 375 L130 375 Z M59 375 C59 144 185 -10 373 -10 C579 -10 716 144 716 375 C716 606 583 760 383 760 C189 760 59 606 59 375 L59 375 Z M178 1003 C178 998 206 972 247 936 L386 813 L393 820 L272 961 C237 1003 211 1031 206 1031 C191 1031 178 1018 178 1003 L178 1003 Z " />
<glyph glyph-name="Oacute" unicode="&#xd3;" horiz-adv-x="771" d="M390 813 L529 936 C570 973 598 1000 598 1003 C598 1018 585 1031 570 1031 C567 1031 541 1003 504 961 L383 820 L390 813 L390 813 Z M130 375 C130 604 231 757 382 757 C540 757 646 604 646 375 C646 146 537 -7 373 -7 C227 -7 130 146 130 375 L130 375 Z M59 375 C59 144 185 -10 373 -10 C579 -10 716 144 716 375 C716 606 583 760 383 760 C189 760 59 606 59 375 L59 375 Z " />
<glyph glyph-name="Ocircumflex" unicode="&#xd4;" horiz-adv-x="771" d="M130 375 C130 604 231 757 382 757 C540 757 646 604 646 375 C646 146 537 -7 373 -7 C227 -7 130 146 130 375 L130 375 Z M59 375 C59 144 185 -10 373 -10 C579 -10 716 144 716 375 C716 606 583 760 383 760 C189 760 59 606 59 375 L59 375 Z M402 1013 C398 1019 388 1033 383 1033 C377 1033 368 1020 364 1014 L234 814 L241 808 L383 972 L525 808 L532 814 L402 1013 L402 1013 Z " />
<glyph glyph-name="Otilde" unicode="&#xd5;" horiz-adv-x="771" d="M263 870 C263 909 278 935 301 935 C346 935 405 870 450 870 C483 870 505 910 505 969 L503 969 C503 933 487 909 462 909 C417 909 358 974 313 974 C282 974 261 932 261 870 L263 870 L263 870 Z M130 375 C130 604 231 757 382 757 C540 757 646 604 646 375 C646 146 537 -7 373 -7 C227 -7 130 146 130 375 L130 375 Z M59 375 C59 144 185 -10 373 -10 C579 -10 716 144 716 375 C716 606 583 760 383 760 C189 760 59 606 59 375 L59 375 Z " />
<glyph glyph-name="Odieresis" unicode="&#xd6;" horiz-adv-x="771" d="M487 900 C487 922 473 936 451 936 C430 936 416 922 416 900 C416 854 487 855 487 900 L487 900 Z M350 900 C350 922 336 936 315 936 C293 936 279 922 279 900 C279 855 350 854 350 900 L350 900 Z M130 375 C130 604 231 757 382 757 C540 757 646 604 646 375 C646 146 537 -7 373 -7 C227 -7 130 146 130 375 L130 375 Z M59 375 C59 144 185 -10 373 -10 C579 -10 716 144 716 375 C716 606 583 760 383 760 C189 760 59 606 59 375 L59 375 Z " />
<glyph glyph-name="Oslash" unicode="&#xd8;" horiz-adv-x="771" d="M61 -11 C61 -11 92 25 149 91 C204 26 281 -11 373 -11 C579 -11 716 143 716 374 C716 488 684 583 627 650 C657 685 688 721 719 758 L715 760 C684 724 654 689 625 655 C567 722 484 760 384 760 C190 760 60 606 60 375 C60 259 92 163 147 96 C89 29 58 -8 58 -8 L61 -11 L61 -11 Z M594 620 C416 411 272 243 178 133 C147 197 130 280 130 376 C130 605 231 758 382 758 C473 758 547 707 593 620 L594 620 L594 620 Z M595 616 C628 553 646 471 646 376 C646 147 537 -6 373 -6 C290 -6 223 44 181 129 C274 238 418 406 597 615 L595 616 L595 616 Z " />
<glyph glyph-name="Ugrave" unicode="&#xd9;" horiz-adv-x="647" d="M120 1003 C120 998 148 972 189 936 L329 813 L336 820 L214 961 C178 1003 153 1031 147 1031 C132 1031 120 1018 120 1003 L120 1003 Z M617 36 L591 29 C561 21 541 36 541 66 L541 750 L401 750 L401 743 L427 743 C457 743 477 723 477 693 L477 171 C438 88 353 32 263 32 C210 32 174 104 174 213 L174 750 L34 750 L34 743 L60 743 C90 743 110 723 110 693 L110 213 C110 79 161 -10 237 -10 C338 -10 434 51 477 142 L477 0 L509 0 C541 9 585 21 617 29 L617 36 L617 36 Z " />
<glyph glyph-name="Uacute" unicode="&#xda;" horiz-adv-x="647" d="M332 813 L472 936 C513 973 541 999 541 1003 C541 1018 529 1031 514 1031 C510 1031 484 1003 447 961 L325 820 L332 813 L332 813 Z M617 36 L591 29 C561 21 541 36 541 66 L541 750 L401 750 L401 743 L427 743 C457 743 477 723 477 693 L477 171 C438 88 353 32 263 32 C210 32 174 104 174 213 L174 750 L34 750 L34 743 L60 743 C90 743 110 723 110 693 L110 213 C110 79 161 -10 237 -10 C338 -10 434 51 477 142 L477 0 L509 0 C541 9 585 21 617 29 L617 36 L617 36 Z " />
<glyph glyph-name="Ucircumflex" unicode="&#xdb;" horiz-adv-x="647" d="M345 1013 C341 1019 331 1033 326 1033 C319 1033 310 1020 306 1014 L176 814 L183 808 L326 972 L468 808 L475 814 L345 1013 L345 1013 Z M617 36 L591 29 C561 21 541 36 541 66 L541 750 L401 750 L401 743 L427 743 C457 743 477 723 477 693 L477 171 C438 88 353 32 263 32 C210 32 174 104 174 213 L174 750 L34 750 L34 743 L60 743 C90 743 110 723 110 693 L110 213 C110 79 161 -10 237 -10 C338 -10 434 51 477 142 L477 0 L509 0 C541 9 585 21 617 29 L617 36 L617 36 Z " />
<glyph glyph-name="Udieresis" unicode="&#xdc;" horiz-adv-x="647" d="M429 900 C429 922 415 936 394 936 C372 936 358 922 358 900 C358 855 429 854 429 900 L429 900 Z M293 900 C293 922 279 936 257 936 C236 936 222 922 222 900 C222 854 293 855 293 900 L293 900 Z M617 36 L591 29 C561 21 541 36 541 66 L541 750 L401 750 L401 743 L427 743 C457 743 477 723 477 693 L477 171 C438 88 353 32 263 32 C210 32 174 104 174 213 L174 750 L34 750 L34 743 L60 743 C90 743 110 723 110 693 L110 213 C110 79 161 -10 237 -10 C338 -10 434 51 477 142 L477 0 L509 0 C541 9 585 21 617 29 L617 36 L617 36 Z " />
<glyph glyph-name="Yacute" unicode="&#xdd;" horiz-adv-x="639" d="M332 813 L472 936 C513 973 541 999 541 1003 C541 1018 529 1031 514 1031 C510 1031 484 1003 447 961 L325 820 L332 813 L332 813 Z M239 750 L10 750 L10 743 C49 743 80 725 100 688 L100 688 L293 328 L293 77 C293 35 265 7 223 7 L197 7 L197 0 L454 0 L454 7 L428 7 C386 7 358 35 358 77 L358 338 L528 688 C544 721 576 743 609 743 L641 743 L641 750 L436 750 L436 743 L494 743 C527 743 538 721 522 688 L522 688 L357 342 C297 457 235 573 176 688 C159 721 169 743 202 743 L239 743 L239 750 L239 750 Z " />
<glyph glyph-name="agrave" unicode="&#xe0;" horiz-adv-x="479" d="M489 81 L482 84 C477 54 453 34 423 34 C389 34 367 54 367 84 L367 358 C367 463 317 510 243 510 C140 510 72 414 72 360 C72 337 83 321 100 321 C120 321 134 337 134 349 C134 363 114 384 114 395 C114 435 164 507 240 507 C283 507 312 467 312 378 L312 264 C136 163 52 111 52 81 C52 26 93 -10 155 -10 C194 -10 246 17 311 87 C311 32 346 -5 400 -5 C444 -5 479 29 488 81 L489 81 L489 81 Z M37 753 C37 748 65 722 106 686 L245 563 L252 570 L131 711 C96 753 70 781 65 781 C50 781 37 768 37 753 L37 753 Z M311 262 L311 87 C263 38 220 18 183 18 C137 18 106 45 106 86 C106 136 172 181 311 261 L311 262 L311 262 Z " />
<glyph glyph-name="aacute" unicode="&#xe1;" horiz-adv-x="479" d="M250 563 L389 686 C430 723 458 750 458 753 C458 768 445 781 430 781 C427 781 401 753 364 711 L243 570 L250 563 L250 563 Z M489 81 L482 84 C477 54 453 34 423 34 C389 34 367 54 367 84 L367 358 C367 463 317 510 243 510 C140 510 72 414 72 360 C72 337 83 321 100 321 C120 321 134 337 134 349 C134 363 114 384 114 395 C114 435 164 507 240 507 C283 507 312 467 312 378 L312 264 C136 163 52 111 52 81 C52 26 93 -10 155 -10 C194 -10 246 17 311 87 C311 32 346 -5 400 -5 C444 -5 479 29 488 81 L489 81 L489 81 Z M311 262 L311 87 C263 38 220 18 183 18 C137 18 106 45 106 86 C106 136 172 181 311 261 L311 262 L311 262 Z " />
<glyph glyph-name="acircumflex" unicode="&#xe2;" horiz-adv-x="479" d="M489 81 L482 84 C477 54 453 34 423 34 C389 34 367 54 367 84 L367 358 C367 463 317 510 243 510 C140 510 72 414 72 360 C72 337 83 321 100 321 C120 321 134 337 134 349 C134 363 114 384 114 395 C114 435 164 507 240 507 C283 507 312 467 312 378 L312 264 C136 163 52 111 52 81 C52 26 93 -10 155 -10 C194 -10 246 17 311 87 C311 32 346 -5 400 -5 C444 -5 479 29 488 81 L489 81 L489 81 Z M261 763 C257 769 247 783 242 783 C236 783 227 770 223 764 L93 564 L100 558 L242 722 L384 558 L391 564 L261 763 L261 763 Z M311 262 L311 87 C263 38 220 18 183 18 C137 18 106 45 106 86 C106 136 172 181 311 261 L311 262 L311 262 Z " />
<glyph glyph-name="atilde" unicode="&#xe3;" horiz-adv-x="479" d="M123 620 C123 659 138 685 161 685 C206 685 265 620 310 620 C343 620 365 660 365 719 L363 719 C363 683 347 659 322 659 C277 659 218 724 173 724 C142 724 121 682 121 620 L123 620 L123 620 Z M489 81 L482 84 C477 54 453 34 423 34 C389 34 367 54 367 84 L367 358 C367 463 317 510 243 510 C140 510 72 414 72 360 C72 337 83 321 100 321 C120 321 134 337 134 349 C134 363 114 384 114 395 C114 435 164 507 240 507 C283 507 312 467 312 378 L312 264 C136 163 52 111 52 81 C52 26 93 -10 155 -10 C194 -10 246 17 311 87 C311 32 346 -5 400 -5 C444 -5 479 29 488 81 L489 81 L489 81 Z M311 262 L311 87 C263 38 220 18 183 18 C137 18 106 45 106 86 C106 136 172 181 311 261 L311 262 L311 262 Z " />
<glyph glyph-name="adieresis" unicode="&#xe4;" horiz-adv-x="479" d="M347 650 C347 672 333 686 311 686 C290 686 276 672 276 650 C276 604 347 605 347 650 L347 650 Z M210 650 C210 672 196 686 175 686 C153 686 139 672 139 650 C139 605 210 604 210 650 L210 650 Z M489 81 L482 84 C477 54 453 34 423 34 C389 34 367 54 367 84 L367 358 C367 463 317 510 243 510 C140 510 72 414 72 360 C72 337 83 321 100 321 C120 321 134 337 134 349 C134 363 114 384 114 395 C114 435 164 507 240 507 C283 507 312 467 312 378 L312 264 C136 163 52 111 52 81 C52 26 93 -10 155 -10 C194 -10 246 17 311 87 C311 32 346 -5 400 -5 C444 -5 479 29 488 81 L489 81 L489 81 Z M311 262 L311 87 C263 38 220 18 183 18 C137 18 106 45 106 86 C106 136 172 181 311 261 L311 262 L311 262 Z " />
<glyph glyph-name="aring" unicode="&#xe5;" horiz-adv-x="479" d="M163 655 C163 704 195 737 243 737 C291 737 323 704 323 655 C323 611 286 573 243 573 C200 573 163 611 163 655 L163 655 Z M147 655 C147 604 191 560 243 560 C295 560 339 604 339 655 C339 712 301 750 243 750 C185 750 147 712 147 655 L147 655 Z M489 81 L482 84 C477 54 453 34 423 34 C389 34 367 54 367 84 L367 358 C367 463 317 510 243 510 C140 510 72 414 72 360 C72 337 83 321 100 321 C120 321 134 337 134 349 C134 363 114 384 114 395 C114 435 164 507 240 507 C283 507 312 467 312 378 L312 264 C136 163 52 111 52 81 C52 26 93 -10 155 -10 C194 -10 246 17 311 87 C311 32 346 -5 400 -5 C444 -5 479 29 488 81 L489 81 L489 81 Z M311 262 L311 87 C263 38 220 18 183 18 C137 18 106 45 106 86 C106 136 172 181 311 261 L311 262 L311 262 Z " />
<glyph glyph-name="egrave" unicode="&#xe8;" horiz-adv-x="486" d="M66 753 C66 748 94 722 135 686 L274 563 L281 570 L160 711 C125 753 99 781 94 781 C79 781 66 768 66 753 L66 753 Z M109 340 L456 340 C434 462 364 510 271 510 C135 510 45 433 45 234 C45 88 127 -10 251 -10 C333 -10 408 48 440 135 L439 135 C410 55 336 2 255 2 C164 2 103 104 103 257 C103 288 105 316 109 341 L109 340 L109 340 Z M395 344 L109 343 C128 461 188 509 271 509 C328 509 374 463 395 344 L395 344 Z " />
<glyph glyph-name="eacute" unicode="&#xe9;" horiz-adv-x="486" d="M278 563 L417 686 C458 723 486 750 486 753 C486 768 473 781 458 781 C455 781 429 753 392 711 L271 570 L278 563 L278 563 Z M109 340 L456 340 C434 462 364 510 271 510 C135 510 45 433 45 234 C45 88 127 -10 251 -10 C333 -10 408 48 440 135 L439 135 C410 55 336 2 255 2 C164 2 103 104 103 257 C103 288 105 316 109 341 L109 340 L109 340 Z M395 344 L109 343 C128 461 188 509 271 509 C328 509 374 463 395 344 L395 344 Z " />
<glyph glyph-name="ecircumflex" unicode="&#xea;" horiz-adv-x="486" d="M290 763 C286 769 276 783 271 783 C265 783 256 770 252 764 L122 564 L129 558 L271 722 L413 558 L420 564 L290 763 L290 763 Z M109 340 L456 340 C434 462 364 510 271 510 C135 510 45 433 45 234 C45 88 127 -10 251 -10 C333 -10 408 48 440 135 L439 135 C410 55 336 2 255 2 C164 2 103 104 103 257 C103 288 105 316 109 341 L109 340 L109 340 Z M395 344 L109 343 C128 461 188 509 271 509 C328 509 374 463 395 344 L395 344 Z " />
<glyph glyph-name="edieresis" unicode="&#xeb;" horiz-adv-x="486" d="M375 650 C375 672 361 686 339 686 C318 686 304 672 304 650 C304 604 375 605 375 650 L375 650 Z M238 650 C238 672 224 686 203 686 C181 686 167 672 167 650 C167 605 238 604 238 650 L238 650 Z M109 340 L456 340 C434 462 364 510 271 510 C135 510 45 433 45 234 C45 88 127 -10 251 -10 C333 -10 408 48 440 135 L439 135 C410 55 336 2 255 2 C164 2 103 104 103 257 C103 288 105 316 109 341 L109 340 L109 340 Z M395 344 L109 343 C128 461 188 509 271 509 C328 509 374 463 395 344 L395 344 Z " />
<glyph glyph-name="igrave" unicode="&#xec;" horiz-adv-x="279" d="M-55 753 C-55 748 -27 722 14 686 L154 563 L161 570 L39 711 C3 753 -22 781 -28 781 C-43 781 -55 768 -55 753 L-55 753 Z M67 471 L108 482 C117 485 123 480 123 471 L123 22 C123 13 117 7 108 7 L67 7 L67 0 L234 0 L234 7 L193 7 C184 7 178 13 178 22 L178 500 L151 500 L151 501 C126 494 92 485 67 478 L67 471 L67 471 Z " />
<glyph glyph-name="iacute" unicode="&#xed;" horiz-adv-x="279" d="M-55 753 C-55 748 -27 722 14 686 L154 563 L161 570 L39 711 C3 753 -22 781 -28 781 C-43 781 -55 768 -55 753 L-55 753 Z M67 471 L108 482 C117 485 123 480 123 471 L123 22 C123 13 117 7 108 7 L67 7 L67 0 L234 0 L234 7 L193 7 C184 7 178 13 178 22 L178 500 L151 500 L151 501 C126 494 92 485 67 478 L67 471 L67 471 Z " />
<glyph glyph-name="icircumflex" unicode="&#xee;" horiz-adv-x="279" d="M170 763 C166 769 156 783 151 783 C144 783 135 770 131 764 L1 564 L8 558 L151 722 L293 558 L300 564 L170 763 L170 763 Z M67 471 L108 482 C117 485 123 480 123 471 L123 22 C123 13 117 7 108 7 L67 7 L67 0 L234 0 L234 7 L193 7 C184 7 178 13 178 22 L178 500 L151 500 L151 501 C126 494 92 485 67 478 L67 471 L67 471 Z " />
<glyph glyph-name="idieresis" unicode="&#xef;" horiz-adv-x="279" d="M254 650 C254 672 240 686 219 686 C197 686 183 672 183 650 C183 605 254 604 254 650 L254 650 Z M118 650 C118 672 104 686 82 686 C61 686 47 672 47 650 C47 604 118 605 118 650 L118 650 Z M67 471 L108 482 C117 485 123 480 123 471 L123 22 C123 13 117 7 108 7 L67 7 L67 0 L234 0 L234 7 L193 7 C184 7 178 13 178 22 L178 500 L151 500 L151 501 C126 494 92 485 67 478 L67 471 L67 471 Z " />
<glyph glyph-name="ntilde" unicode="&#xf1;" horiz-adv-x="484" d="M120 620 C120 659 135 685 158 685 C203 685 262 620 307 620 C341 620 363 660 363 719 L361 719 C361 683 344 659 319 659 C275 659 215 724 171 724 C139 724 118 682 118 620 L120 620 L120 620 Z M27 473 L38 472 C64 474 81 460 83 436 C83 339 82 139 82 23 C82 14 76 8 67 8 L26 8 L26 1 L193 1 L193 8 L152 8 C143 8 137 14 137 23 L137 376 C161 441 212 485 265 485 C317 485 344 428 344 343 L344 23 C344 14 338 8 329 8 L288 8 L288 1 L454 1 L454 8 L413 8 C404 8 398 14 398 23 L398 343 C398 444 358 511 281 511 C222 511 165 460 137 384 L137 501 L110 501 L107 500 C82 494 51 487 27 481 L27 473 L27 473 Z " />
<glyph glyph-name="ograve" unicode="&#xf2;" horiz-adv-x="572" d="M106 250 C106 404 178 507 286 507 C395 507 467 404 467 250 C467 96 395 -7 286 -7 C178 -7 106 96 106 250 L106 250 Z M45 250 C45 94 141 -10 286 -10 C431 -10 527 94 527 250 C527 406 431 510 286 510 C141 510 45 406 45 250 L45 250 Z M81 753 C81 748 109 722 150 686 L289 563 L296 570 L175 711 C140 753 114 781 109 781 C94 781 81 768 81 753 L81 753 Z " />
<glyph glyph-name="oacute" unicode="&#xf3;" horiz-adv-x="572" d="M293 563 L432 686 C473 723 501 750 501 753 C501 768 488 781 473 781 C470 781 444 753 407 711 L286 570 L293 563 L293 563 Z M106 250 C106 404 178 507 286 507 C395 507 467 404 467 250 C467 96 395 -7 286 -7 C178 -7 106 96 106 250 L106 250 Z M45 250 C45 94 141 -10 286 -10 C431 -10 527 94 527 250 C527 406 431 510 286 510 C141 510 45 406 45 250 L45 250 Z " />
<glyph glyph-name="ocircumflex" unicode="&#xf4;" horiz-adv-x="572" d="M106 250 C106 404 178 507 286 507 C395 507 467 404 467 250 C467 96 395 -7 286 -7 C178 -7 106 96 106 250 L106 250 Z M45 250 C45 94 141 -10 286 -10 C431 -10 527 94 527 250 C527 406 431 510 286 510 C141 510 45 406 45 250 L45 250 Z M305 763 C301 769 291 783 286 783 C280 783 271 770 267 764 L137 564 L144 558 L286 722 L428 558 L435 564 L305 763 L305 763 Z " />
<glyph glyph-name="otilde" unicode="&#xf5;" horiz-adv-x="572" d="M166 620 C166 659 181 685 204 685 C249 685 308 620 353 620 C386 620 408 660 408 719 L406 719 C406 683 390 659 365 659 C320 659 261 724 216 724 C185 724 164 682 164 620 L166 620 L166 620 Z M106 250 C106 404 178 507 286 507 C395 507 467 404 467 250 C467 96 395 -7 286 -7 C178 -7 106 96 106 250 L106 250 Z M45 250 C45 94 141 -10 286 -10 C431 -10 527 94 527 250 C527 406 431 510 286 510 C141 510 45 406 45 250 L45 250 Z " />
<glyph glyph-name="odieresis" unicode="&#xf6;" horiz-adv-x="572" d="M390 650 C390 672 376 686 354 686 C333 686 319 672 319 650 C319 604 390 605 390 650 L390 650 Z M253 650 C253 672 239 686 218 686 C196 686 182 672 182 650 C182 605 253 604 253 650 L253 650 Z M106 250 C106 404 178 507 286 507 C395 507 467 404 467 250 C467 96 395 -7 286 -7 C178 -7 106 96 106 250 L106 250 Z M45 250 C45 94 141 -10 286 -10 C431 -10 527 94 527 250 C527 406 431 510 286 510 C141 510 45 406 45 250 L45 250 Z " />
<glyph glyph-name="oslash" unicode="&#xf8;" horiz-adv-x="572" d="M46 -11 C46 -11 69 14 112 60 C154 15 214 -11 286 -11 C431 -11 527 93 527 249 C527 326 503 391 461 436 C482 459 504 483 527 507 L525 509 C502 485 480 461 459 438 C417 483 357 509 285 509 C140 509 44 405 44 249 C44 172 68 107 110 62 C67 16 44 -9 44 -9 L46 -11 L46 -11 Z M433 411 C308 276 206 166 138 93 C117 135 105 189 105 251 C105 405 177 508 285 508 C349 508 400 472 431 411 L433 411 L433 411 Z M432 408 C453 366 465 312 465 250 C465 96 393 -7 284 -7 C220 -7 169 29 138 90 C206 163 308 273 433 408 L432 408 L432 408 Z " />
<glyph glyph-name="ugrave" unicode="&#xf9;" horiz-adv-x="461" d="M24 753 C24 748 52 722 93 686 L233 563 L240 570 L118 711 C82 753 57 781 51 781 C36 781 24 768 24 753 L24 753 Z M446 32 L430 27 C400 19 380 34 380 64 L380 500 L270 500 L270 493 L311 493 C320 493 326 487 326 478 L326 127 C300 67 257 28 214 28 C165 28 133 79 133 155 L133 500 L22 500 L22 493 L63 493 C72 493 78 487 78 478 L78 155 C78 56 122 -10 188 -10 C239 -10 293 43 327 124 L327 0 L354 0 C382 7 419 17 447 25 L446 32 L446 32 Z " />
<glyph glyph-name="uacute" unicode="&#xfa;" horiz-adv-x="461" d="M236 563 L376 686 C417 723 445 749 445 753 C445 768 433 781 418 781 C414 781 388 753 351 711 L229 570 L236 563 L236 563 Z M446 32 L430 27 C400 19 380 34 380 64 L380 500 L270 500 L270 493 L311 493 C320 493 326 487 326 478 L326 127 C300 67 257 28 214 28 C165 28 133 79 133 155 L133 500 L22 500 L22 493 L63 493 C72 493 78 487 78 478 L78 155 C78 56 122 -10 188 -10 C239 -10 293 43 327 124 L327 0 L354 0 C382 7 419 17 447 25 L446 32 L446 32 Z " />
<glyph glyph-name="ucircumflex" unicode="&#xfb;" horiz-adv-x="461" d="M249 763 C245 769 235 783 230 783 C223 783 214 770 210 764 L80 564 L87 558 L230 722 L372 558 L379 564 L249 763 L249 763 Z M446 32 L430 27 C400 19 380 34 380 64 L380 500 L270 500 L270 493 L311 493 C320 493 326 487 326 478 L326 127 C300 67 257 28 214 28 C165 28 133 79 133 155 L133 500 L22 500 L22 493 L63 493 C72 493 78 487 78 478 L78 155 C78 56 122 -10 188 -10 C239 -10 293 43 327 124 L327 0 L354 0 C382 7 419 17 447 25 L446 32 L446 32 Z " />
<glyph glyph-name="udieresis" unicode="&#xfc;" horiz-adv-x="461" d="M333 650 C333 672 319 686 298 686 C276 686 262 672 262 650 C262 605 333 604 333 650 L333 650 Z M197 650 C197 672 183 686 161 686 C140 686 126 672 126 650 C126 604 197 605 197 650 L197 650 Z M446 32 L430 27 C400 19 380 34 380 64 L380 500 L270 500 L270 493 L311 493 C320 493 326 487 326 478 L326 127 C300 67 257 28 214 28 C165 28 133 79 133 155 L133 500 L22 500 L22 493 L63 493 C72 493 78 487 78 478 L78 155 C78 56 122 -10 188 -10 C239 -10 293 43 327 124 L327 0 L354 0 C382 7 419 17 447 25 L446 32 L446 32 Z " />
<glyph glyph-name="ydieresis" unicode="&#xff;" horiz-adv-x="456" d="M349 650 C349 672 335 686 313 686 C292 686 278 672 278 650 C278 604 349 605 349 650 L349 650 Z M212 650 C212 672 198 686 177 686 C155 686 141 672 141 650 C141 605 212 604 212 650 L212 650 Z M449 500 L313 500 L313 493 C344 493 359 480 351 447 L235 94 L138 439 L139 439 C130 472 142 494 169 494 L177 494 L177 501 L7 501 L7 494 C43 494 68 476 78 439 L78 439 L201 2 C181 -51 162 -105 143 -159 C136 -179 122 -192 116 -192 C94 -192 89 -172 66 -172 C41 -172 25 -188 25 -213 C25 -240 43 -258 71 -258 C93 -258 136 -221 156 -166 L214 -8 C267 141 320 290 373 439 C387 477 413 494 449 494 L449 500 L449 500 Z " />
<glyph glyph-name="Amacron" unicode="&#x100;" horiz-adv-x="683" d="M234 900 L485 900 L485 939 L234 939 L234 900 L234 900 Z M259 9 L236 9 C178 9 148 46 162 103 L215 296 L448 296 L502 100 C514 45 484 9 427 9 L404 9 L404 0 L681 0 L681 9 L668 9 C627 9 589 44 570 97 C507 321 444 545 381 769 L375 769 C378 750 362 725 330 720 C273 516 217 312 160 108 C143 48 93 8 33 8 L6 8 L6 -1 L259 -1 L259 9 L259 9 Z M216 298 L331 716 L447 298 L216 298 L216 298 Z " />
<glyph glyph-name="amacron" unicode="&#x101;" horiz-adv-x="479" d="M118 650 L368 650 L368 689 L118 689 L118 650 L118 650 Z M489 81 L482 84 C477 54 453 34 423 34 C389 34 367 54 367 84 L367 358 C367 463 317 510 243 510 C140 510 72 414 72 360 C72 337 83 321 100 321 C120 321 134 337 134 349 C134 363 114 384 114 395 C114 435 164 507 240 507 C283 507 312 467 312 378 L312 264 C136 163 52 111 52 81 C52 26 93 -10 155 -10 C194 -10 246 17 311 87 C311 32 346 -5 400 -5 C444 -5 479 29 488 81 L489 81 L489 81 Z M311 262 L311 87 C263 38 220 18 183 18 C137 18 106 45 106 86 C106 136 172 181 311 261 L311 262 L311 262 Z " />
<glyph glyph-name="Abreve" unicode="&#x102;" horiz-adv-x="683" d="M252 995 C256 930 299 886 360 886 C421 886 463 929 467 993 L456 995 C454 953 415 925 360 925 C304 925 265 953 263 996 L252 995 L252 995 Z M259 9 L236 9 C178 9 148 46 162 103 L215 296 L448 296 L502 100 C514 45 484 9 427 9 L404 9 L404 0 L681 0 L681 9 L668 9 C627 9 589 44 570 97 C507 321 444 545 381 769 L375 769 C378 750 362 725 330 720 C273 516 217 312 160 108 C143 48 93 8 33 8 L6 8 L6 -1 L259 -1 L259 9 L259 9 Z M216 298 L331 716 L447 298 L216 298 L216 298 Z " />
<glyph glyph-name="abreve" unicode="&#x103;" horiz-adv-x="479" d="M135 745 C139 680 182 636 243 636 C304 636 346 679 350 743 L339 745 C337 703 298 675 243 675 C188 675 149 703 147 746 L135 745 L135 745 Z M489 81 L482 84 C477 54 453 34 423 34 C389 34 367 54 367 84 L367 358 C367 463 317 510 243 510 C140 510 72 414 72 360 C72 337 83 321 100 321 C120 321 134 337 134 349 C134 363 114 384 114 395 C114 435 164 507 240 507 C283 507 312 467 312 378 L312 264 C136 163 52 111 52 81 C52 26 93 -10 155 -10 C194 -10 246 17 311 87 C311 32 346 -5 400 -5 C444 -5 479 29 488 81 L489 81 L489 81 Z M311 262 L311 87 C263 38 220 18 183 18 C137 18 106 45 106 86 C106 136 172 181 311 261 L311 262 L311 262 Z " />
<glyph glyph-name="Cacute" unicode="&#x106;" horiz-adv-x="669" d="M376 813 L515 936 C556 973 584 1000 584 1003 C584 1018 571 1031 556 1031 C553 1031 527 1003 490 961 L369 820 L376 813 L376 813 Z M623 12 L623 206 L606 206 C604 198 602 188 600 180 C583 117 536 55 483 25 C446 4 406 -8 361 -8 C223 -8 131 145 131 375 C131 604 227 757 371 757 C416 757 454 746 488 726 L488 726 C539 697 584 634 601 570 C603 562 605 552 607 544 L624 544 L624 735 L614 735 C613 729 613 720 612 714 C608 682 582 679 546 706 L546 706 C501 740 447 760 370 760 C184 760 60 606 60 375 C60 144 180 -10 360 -10 C435 -10 494 11 544 46 L544 46 C581 72 608 67 612 34 C613 27 613 19 614 12 L623 12 L623 12 Z " />
<glyph glyph-name="Ccircumflex" unicode="&#x108;" horiz-adv-x="669" d="M623 12 L623 206 L606 206 C604 198 602 188 600 180 C583 117 536 55 483 25 C446 4 406 -8 361 -8 C223 -8 131 145 131 375 C131 604 227 757 371 757 C416 757 454 746 488 726 L488 726 C539 697 584 634 601 570 C603 562 605 552 607 544 L624 544 L624 735 L614 735 C613 729 613 720 612 714 C608 682 582 679 546 706 L546 706 C501 740 447 760 370 760 C184 760 60 606 60 375 C60 144 180 -10 360 -10 C435 -10 494 11 544 46 L544 46 C581 72 608 67 612 34 C613 27 613 19 614 12 L623 12 L623 12 Z M389 1013 C385 1019 375 1033 370 1033 C364 1033 355 1020 351 1014 L221 814 L228 808 L370 972 L512 808 L519 814 L389 1013 L389 1013 Z " />
<glyph glyph-name="Cdot" unicode="&#x10a;" horiz-adv-x="669" d="M404 900 C404 947 334 947 334 900 C334 854 404 854 404 900 L404 900 Z M623 12 L623 206 L606 206 C604 198 602 188 600 180 C583 117 536 55 483 25 C446 4 406 -8 361 -8 C223 -8 131 145 131 375 C131 604 227 757 371 757 C416 757 454 746 488 726 L488 726 C539 697 584 634 601 570 C603 562 605 552 607 544 L624 544 L624 735 L614 735 C613 729 613 720 612 714 C608 682 582 679 546 706 L546 706 C501 740 447 760 370 760 C184 760 60 606 60 375 C60 144 180 -10 360 -10 C435 -10 494 11 544 46 L544 46 C581 72 608 67 612 34 C613 27 613 19 614 12 L623 12 L623 12 Z " />
<glyph glyph-name="cdot" unicode="&#x10b;" horiz-adv-x="429" d="M284 650 C284 697 214 697 214 650 C214 604 284 604 284 650 L284 650 Z M399 128 L397 129 C363 52 300 1 240 1 C156 1 100 107 100 266 C100 411 159 508 248 508 C283 508 322 467 344 405 C350 389 361 378 372 378 C394 378 405 389 399 405 C376 468 316 510 249 510 C127 510 45 401 45 238 C45 89 121 -10 234 -10 C296 -10 362 45 399 128 L399 128 Z " />
<glyph glyph-name="Ccaron" unicode="&#x10c;" horiz-adv-x="669" d="M511 1042 L369 878 L227 1042 L220 1036 L350 836 C354 830 363 817 369 817 C374 817 384 831 388 837 L518 1036 L511 1042 L511 1042 Z M623 12 L623 206 L606 206 C604 198 602 188 600 180 C583 117 536 55 483 25 C446 4 406 -8 361 -8 C223 -8 131 145 131 375 C131 604 227 757 371 757 C416 757 454 746 488 726 L488 726 C539 697 584 634 601 570 C603 562 605 552 607 544 L624 544 L624 735 L614 735 C613 729 613 720 612 714 C608 682 582 679 546 706 L546 706 C501 740 447 760 370 760 C184 760 60 606 60 375 C60 144 180 -10 360 -10 C435 -10 494 11 544 46 L544 46 C581 72 608 67 612 34 C613 27 613 19 614 12 L623 12 L623 12 Z " />
<glyph glyph-name="ccaron" unicode="&#x10d;" horiz-adv-x="429" d="M391 792 L249 628 L107 792 L100 786 L230 586 C234 580 243 567 249 567 C254 567 264 581 268 587 L398 786 L391 792 L391 792 Z M399 128 L397 129 C363 52 300 1 240 1 C156 1 100 107 100 266 C100 411 159 508 248 508 C283 508 322 467 344 405 C350 389 361 378 372 378 C394 378 405 389 399 405 C376 468 316 510 249 510 C127 510 45 401 45 238 C45 89 121 -10 234 -10 C296 -10 362 45 399 128 L399 128 Z " />
<glyph glyph-name="Dcaron" unicode="&#x10e;" horiz-adv-x="765" d="M535 1042 L393 878 L250 1042 L243 1036 L373 836 C377 830 386 817 393 817 C398 817 408 831 412 837 L542 1036 L535 1042 L535 1042 Z M273 2 C215 2 209 22 209 51 L209 748 L301 748 C525 748 640 599 640 375 C640 129 493 2 273 2 L273 2 Z M69 743 L95 743 C125 743 145 723 145 693 L145 57 C145 27 125 7 95 7 L69 7 L69 0 L276 0 C536 0 710 128 710 375 C710 600 574 750 309 750 L69 750 L69 743 L69 743 Z " />
<glyph glyph-name="dcaron" unicode="&#x10f;" horiz-adv-x="551" d="M542 759 C530 759 522 698 518 653 L508 541 L517 540 L547 646 C559 687 567 729 567 751 C567 757 557 759 542 759 L542 759 Z M349 721 L360 721 C387 722 405 706 405 679 L405 399 C379 461 327 510 274 510 C123 510 45 407 45 253 C45 98 128 -5 252 -5 C308 -5 369 27 405 75 L405 0 L432 0 L432 -1 C463 8 505 19 536 27 L536 34 L510 27 C480 19 460 34 460 64 L460 750 L433 750 L433 751 C408 744 374 735 349 728 L349 721 L349 721 Z M405 375 L405 78 C377 42 326 18 274 18 C170 18 101 118 101 268 C101 404 162 494 281 494 C334 494 385 439 405 375 L405 375 Z " />
<glyph glyph-name="Emacron" unicode="&#x112;" horiz-adv-x="579" d="M190 900 L441 900 L441 939 L190 939 L190 900 L190 900 Z M426 259 L426 513 L414 513 L406 467 C398 419 362 387 314 387 L209 387 L209 748 L374 748 C422 748 462 716 476 668 L489 622 L501 622 C497 660 491 711 486 749 L486 750 L49 750 L49 743 L75 743 C117 743 145 715 145 673 L145 77 C145 35 117 7 75 7 L49 7 L49 0 L511 0 L511 1 C517 36 525 83 531 118 L519 118 L513 101 C493 42 437 2 374 2 L260 2 C214 2 209 22 209 51 L209 385 L314 385 C362 385 398 353 406 305 L414 259 L426 259 L426 259 Z " />
<glyph glyph-name="emacron" unicode="&#x113;" horiz-adv-x="486" d="M146 650 L396 650 L396 689 L146 689 L146 650 L146 650 Z M109 340 L456 340 C434 462 364 510 271 510 C135 510 45 433 45 234 C45 88 127 -10 251 -10 C333 -10 408 48 440 135 L439 135 C410 55 336 2 255 2 C164 2 103 104 103 257 C103 288 105 316 109 341 L109 340 L109 340 Z M395 344 L109 343 C128 461 188 509 271 509 C328 509 374 463 395 344 L395 344 Z " />
<glyph glyph-name="Ebreve" unicode="&#x114;" horiz-adv-x="579" d="M208 995 C212 930 255 886 316 886 C377 886 419 929 423 993 L412 995 C410 953 371 925 316 925 C260 925 221 953 219 996 L208 995 L208 995 Z M426 259 L426 513 L414 513 L406 467 C398 419 362 387 314 387 L209 387 L209 748 L374 748 C422 748 462 716 476 668 L489 622 L501 622 C497 660 491 711 486 749 L486 750 L49 750 L49 743 L75 743 C117 743 145 715 145 673 L145 77 C145 35 117 7 75 7 L49 7 L49 0 L511 0 L511 1 C517 36 525 83 531 118 L519 118 L513 101 C493 42 437 2 374 2 L260 2 C214 2 209 22 209 51 L209 385 L314 385 C362 385 398 353 406 305 L414 259 L426 259 L426 259 Z " />
<glyph glyph-name="ebreve" unicode="&#x115;" horiz-adv-x="486" d="M163 745 C167 680 210 636 271 636 C332 636 374 679 378 743 L367 745 C365 703 326 675 271 675 C216 675 177 703 175 746 L163 745 L163 745 Z M109 340 L456 340 C434 462 364 510 271 510 C135 510 45 433 45 234 C45 88 127 -10 251 -10 C333 -10 408 48 440 135 L439 135 C410 55 336 2 255 2 C164 2 103 104 103 257 C103 288 105 316 109 341 L109 340 L109 340 Z M395 344 L109 343 C128 461 188 509 271 509 C328 509 374 463 395 344 L395 344 Z " />
<glyph glyph-name="Edot" unicode="&#x116;" horiz-adv-x="579" d="M351 900 C351 922 337 936 316 936 C294 936 280 922 280 900 C280 855 351 854 351 900 L351 900 Z M426 259 L426 513 L414 513 L406 467 C398 419 362 387 314 387 L209 387 L209 748 L374 748 C422 748 462 716 476 668 L489 622 L501 622 C497 660 491 711 486 749 L486 750 L49 750 L49 743 L75 743 C117 743 145 715 145 673 L145 77 C145 35 117 7 75 7 L49 7 L49 0 L511 0 L511 1 C517 36 525 83 531 118 L519 118 L513 101 C493 42 437 2 374 2 L260 2 C214 2 209 22 209 51 L209 385 L314 385 C362 385 398 353 406 305 L414 259 L426 259 L426 259 Z " />
<glyph glyph-name="edot" unicode="&#x117;" horiz-adv-x="486" d="M306 650 C306 697 236 697 236 650 C236 604 306 604 306 650 L306 650 Z M109 340 L456 340 C434 462 364 510 271 510 C135 510 45 433 45 234 C45 88 127 -10 251 -10 C333 -10 408 48 440 135 L439 135 C410 55 336 2 255 2 C164 2 103 104 103 257 C103 288 105 316 109 341 L109 340 L109 340 Z M395 344 L109 343 C128 461 188 509 271 509 C328 509 374 463 395 344 L395 344 Z " />
<glyph glyph-name="Ecaron" unicode="&#x11a;" horiz-adv-x="579" d="M458 1042 L316 878 L173 1042 L166 1036 L296 836 C300 830 309 817 316 817 C321 817 331 831 335 837 L465 1036 L458 1042 L458 1042 Z M426 259 L426 513 L414 513 L406 467 C398 419 362 387 314 387 L209 387 L209 748 L374 748 C422 748 462 716 476 668 L489 622 L501 622 C497 660 491 711 486 749 L486 750 L49 750 L49 743 L75 743 C117 743 145 715 145 673 L145 77 C145 35 117 7 75 7 L49 7 L49 0 L511 0 L511 1 C517 36 525 83 531 118 L519 118 L513 101 C493 42 437 2 374 2 L260 2 C214 2 209 22 209 51 L209 385 L314 385 C362 385 398 353 406 305 L414 259 L426 259 L426 259 Z " />
<glyph glyph-name="ecaron" unicode="&#x11b;" horiz-adv-x="486" d="M413 792 L271 628 L129 792 L122 786 L252 586 C256 580 265 567 271 567 C276 567 286 581 290 587 L420 786 L413 792 L413 792 Z M109 340 L456 340 C434 462 364 510 271 510 C135 510 45 433 45 234 C45 88 127 -10 251 -10 C333 -10 408 48 440 135 L439 135 C410 55 336 2 255 2 C164 2 103 104 103 257 C103 288 105 316 109 341 L109 340 L109 340 Z M395 344 L109 343 C128 461 188 509 271 509 C328 509 374 463 395 344 L395 344 Z " />
<glyph glyph-name="Gcircumflex" unicode="&#x11c;" horiz-adv-x="740" d="M623 544 L623 735 L613 735 C612 729 612 720 611 714 C607 682 581 679 545 706 L545 706 C500 740 446 760 369 760 C183 760 59 606 59 375 C59 144 182 -10 367 -10 C511 -10 604 14 682 51 L681 53 C659 43 635 34 607 27 L607 232 C607 283 636 317 680 317 L693 317 L693 326 L457 326 L457 317 L470 317 C514 317 543 283 543 232 C543 180 543 117 543 71 C536 31 472 4 378 4 C229 4 130 153 130 376 C130 605 226 758 370 758 C415 758 453 747 487 727 L487 727 C538 698 583 635 600 571 C602 563 604 553 606 545 L623 544 L623 544 Z M388 1014 C384 1020 374 1034 369 1034 C363 1034 354 1021 350 1015 L220 815 L227 809 L369 973 L511 809 L518 815 L388 1014 L388 1014 Z M460 6 C435 5 408 4 378 4 C398 4 429 5 459 6 L460 6 L460 6 Z " />
<glyph glyph-name="Gbreve" unicode="&#x11e;" horiz-adv-x="740" d="M261 995 C265 930 308 886 369 886 C430 886 472 929 476 993 L465 995 C463 953 424 925 369 925 C314 925 275 953 273 996 L261 995 L261 995 Z M623 544 L623 735 L613 735 C612 729 612 720 611 714 C607 682 581 679 545 706 L545 706 C500 740 446 760 369 760 C183 760 59 606 59 375 C59 144 182 -10 367 -10 C511 -10 604 14 682 51 L681 53 C659 43 635 34 607 27 L607 232 C607 283 636 317 680 317 L693 317 L693 326 L457 326 L457 317 L470 317 C514 317 543 283 543 232 C543 180 543 117 543 71 C536 31 472 4 378 4 C229 4 130 153 130 376 C130 605 226 758 370 758 C415 758 453 747 487 727 L487 727 C538 698 583 635 600 571 C602 563 604 553 606 545 L623 544 L623 544 Z M460 6 C435 5 408 4 378 4 C398 4 429 5 459 6 L460 6 L460 6 Z " />
<glyph glyph-name="gbreve" unicode="&#x11f;" horiz-adv-x="487" d="M134 745 C138 680 181 636 242 636 C303 636 345 679 349 743 L338 745 C336 703 297 675 242 675 C187 675 148 703 146 746 L134 745 L134 745 Z M506 462 C506 481 492 494 471 494 C434 494 400 472 381 437 C354 482 305 509 242 509 C146 509 82 445 82 349 C82 260 135 198 217 188 C121 183 59 151 59 105 C59 56 95 21 151 14 C91 -5 52 -47 52 -95 C52 -177 132 -232 252 -232 C372 -232 452 -171 452 -79 C452 9 404 67 282 67 L175 67 C125 67 91 89 91 121 C91 160 151 186 242 186 C338 186 402 251 402 348 C402 380 395 408 382 432 C395 448 416 458 439 458 C452 458 470 436 483 436 C497 436 506 446 506 460 L506 462 L506 462 Z M156 14 C161 14 166 14 171 14 L275 14 C369 14 406 -28 406 -91 C406 -174 344 -229 251 -229 C158 -229 96 -170 96 -81 C96 -37 119 -1 155 14 L156 14 L156 14 Z M241 188 C178 188 136 252 136 348 C136 443 178 506 241 506 C304 506 346 443 346 348 C346 252 304 188 241 188 L241 188 Z " />
<glyph glyph-name="Gdot" unicode="&#x120;" horiz-adv-x="740" d="M404 900 C404 947 334 947 334 900 C334 854 404 854 404 900 L404 900 Z M623 544 L623 735 L613 735 C612 729 612 720 611 714 C607 682 581 679 545 706 L545 706 C500 740 446 760 369 760 C183 760 59 606 59 375 C59 144 182 -10 367 -10 C511 -10 604 14 682 51 L681 53 C659 43 635 34 607 27 L607 232 C607 283 636 317 680 317 L693 317 L693 326 L457 326 L457 317 L470 317 C514 317 543 283 543 232 C543 180 543 117 543 71 C536 31 472 4 378 4 C229 4 130 153 130 376 C130 605 226 758 370 758 C415 758 453 747 487 727 L487 727 C538 698 583 635 600 571 C602 563 604 553 606 545 L623 544 L623 544 Z M460 6 C435 5 408 4 378 4 C398 4 429 5 459 6 L460 6 L460 6 Z " />
<glyph glyph-name="gdot" unicode="&#x121;" horiz-adv-x="487" d="M277 650 C277 697 207 697 207 650 C207 604 277 604 277 650 L277 650 Z M506 462 C506 481 492 494 471 494 C434 494 400 472 381 437 C354 482 305 509 242 509 C146 509 82 445 82 349 C82 260 135 198 217 188 C121 183 59 151 59 105 C59 56 95 21 151 14 C91 -5 52 -47 52 -95 C52 -177 132 -232 252 -232 C372 -232 452 -171 452 -79 C452 9 404 67 282 67 L175 67 C125 67 91 89 91 121 C91 160 151 186 242 186 C338 186 402 251 402 348 C402 380 395 408 382 432 C395 448 416 458 439 458 C452 458 470 436 483 436 C497 436 506 446 506 460 L506 462 L506 462 Z M156 14 C161 14 166 14 171 14 L275 14 C369 14 406 -28 406 -91 C406 -174 344 -229 251 -229 C158 -229 96 -170 96 -81 C96 -37 119 -1 155 14 L156 14 L156 14 Z M241 188 C178 188 136 252 136 348 C136 443 178 506 241 506 C304 506 346 443 346 348 C346 252 304 188 241 188 L241 188 Z " />
<glyph glyph-name="Hcircumflex" unicode="&#x124;" horiz-adv-x="768" d="M426 1013 C422 1019 412 1033 407 1033 C400 1033 391 1020 387 1014 L257 814 L264 808 L407 972 L549 808 L556 814 L426 1013 L426 1013 Z M708 7 L682 7 C652 7 632 27 632 57 L632 693 C632 723 652 743 682 743 L708 743 L708 750 L492 750 L492 743 L518 743 C548 743 568 723 568 693 L568 386 L245 386 L245 693 C245 723 265 743 295 743 L321 743 L321 750 L105 750 L105 743 L131 743 C161 743 181 723 181 693 L181 57 C181 27 161 7 131 7 L105 7 L105 0 L321 0 L321 7 L295 7 C265 7 245 27 245 57 L245 383 L568 383 L568 57 C568 27 548 7 518 7 L492 7 L492 0 L708 0 L708 7 L708 7 Z " />
<glyph glyph-name="Itilde" unicode="&#x128;" horiz-adv-x="349" d="M61 870 C61 909 76 935 99 935 C144 935 203 870 248 870 C281 870 303 910 303 969 L301 969 C301 933 285 909 260 909 C215 909 156 974 111 974 C80 974 59 932 59 870 L61 870 L61 870 Z M289 7 L263 7 C233 7 213 27 213 57 L213 693 C213 723 233 743 263 743 L289 743 L289 750 L73 750 L73 743 L99 743 C129 743 149 723 149 693 L149 57 C149 27 129 7 99 7 L73 7 L73 0 L289 0 L289 7 L289 7 Z " />
<glyph glyph-name="itilde" unicode="&#x129;" horiz-adv-x="279" d="M30 620 C30 659 45 685 68 685 C113 685 172 620 217 620 C251 620 273 660 273 719 L271 719 C271 683 254 659 229 659 C185 659 125 724 81 724 C49 724 28 682 28 620 L30 620 L30 620 Z M67 471 L108 482 C117 485 123 480 123 471 L123 22 C123 13 117 7 108 7 L67 7 L67 0 L234 0 L234 7 L193 7 C184 7 178 13 178 22 L178 500 L151 500 L151 501 C126 494 92 485 67 478 L67 471 L67 471 Z " />
<glyph glyph-name="Imacron" unicode="&#x12a;" horiz-adv-x="349" d="M56 900 L306 900 L306 939 L56 939 L56 900 L56 900 Z M289 7 L263 7 C233 7 213 27 213 57 L213 693 C213 723 233 743 263 743 L289 743 L289 750 L73 750 L73 743 L99 743 C129 743 149 723 149 693 L149 57 C149 27 129 7 99 7 L73 7 L73 0 L289 0 L289 7 L289 7 Z " />
<glyph glyph-name="imacron" unicode="&#x12b;" horiz-adv-x="279" d="M25 650 L276 650 L276 689 L25 689 L25 650 L25 650 Z M67 471 L108 482 C117 485 123 480 123 471 L123 22 C123 13 117 7 108 7 L67 7 L67 0 L234 0 L234 7 L193 7 C184 7 178 13 178 22 L178 500 L151 500 L151 501 C126 494 92 485 67 478 L67 471 L67 471 Z " />
<glyph glyph-name="Ibreve" unicode="&#x12c;" horiz-adv-x="349" d="M73 995 C77 930 120 886 181 886 C242 886 284 929 288 993 L277 995 C275 953 236 925 181 925 C126 925 87 953 85 996 L73 995 L73 995 Z M289 7 L263 7 C233 7 213 27 213 57 L213 693 C213 723 233 743 263 743 L289 743 L289 750 L73 750 L73 743 L99 743 C129 743 149 723 149 693 L149 57 C149 27 129 7 99 7 L73 7 L73 0 L289 0 L289 7 L289 7 Z " />
<glyph glyph-name="ibreve" unicode="&#x12d;" horiz-adv-x="279" d="M43 745 C47 680 90 636 151 636 C212 636 254 679 258 743 L247 745 C245 703 206 675 151 675 C95 675 56 703 54 746 L43 745 L43 745 Z M67 471 L108 482 C117 485 123 480 123 471 L123 22 C123 13 117 7 108 7 L67 7 L67 0 L234 0 L234 7 L193 7 C184 7 178 13 178 22 L178 500 L151 500 L151 501 C126 494 92 485 67 478 L67 471 L67 471 Z " />
<glyph glyph-name="Idot" unicode="&#x130;" horiz-adv-x="349" d="M216 900 C216 947 146 947 146 900 C146 854 216 854 216 900 L216 900 Z M289 7 L263 7 C233 7 213 27 213 57 L213 693 C213 723 233 743 263 743 L289 743 L289 750 L73 750 L73 743 L99 743 C129 743 149 723 149 693 L149 57 C149 27 129 7 99 7 L73 7 L73 0 L289 0 L289 7 L289 7 Z " />
<glyph glyph-name="dotlessi" unicode="&#x131;" horiz-adv-x="279" d="M67 471 L108 482 C117 485 123 480 123 471 L123 22 C123 13 117 7 108 7 L67 7 L67 0 L234 0 L234 7 L193 7 C184 7 178 13 178 22 L178 500 L151 500 L151 501 C126 494 92 485 67 478 L67 471 L67 471 Z " />
<glyph glyph-name="Jcircumflex" unicode="&#x134;" horiz-adv-x="349" d="M200 1013 C196 1019 186 1033 181 1033 C175 1033 166 1020 162 1014 L32 814 L39 808 L181 972 L323 808 L330 814 L200 1013 L200 1013 Z M289 750 L73 750 L73 743 L99 743 C129 743 149 723 149 693 L149 -39 C149 -188 82 -216 34 -216 C2 -216 18 -164 -14 -164 C-31 -164 -43 -176 -43 -193 C-43 -209 -13 -220 31 -220 C108 -220 214 -172 214 83 C214 242 213 569 213 697 C215 725 235 743 264 743 L290 743 L289 750 L289 750 Z " />
<glyph glyph-name="Lacute" unicode="&#x139;" horiz-adv-x="573" d="M188 813 L327 936 C368 973 396 1000 396 1003 C396 1018 383 1031 368 1031 C365 1031 339 1003 302 961 L181 820 L188 813 L188 813 Z M289 750 L73 750 L73 743 L99 743 C129 743 149 723 149 693 L149 57 C149 27 129 7 99 7 L73 7 L73 0 L507 0 L507 11 C513 47 521 92 527 127 L515 127 L509 110 C489 51 433 11 370 11 L264 11 C218 11 213 27 213 51 L213 693 C213 723 233 743 263 743 L289 743 L289 750 L289 750 Z " />
<glyph glyph-name="Lcaron" unicode="&#x13d;" horiz-adv-x="573" d="M386 809 C374 809 366 748 362 703 L352 591 L361 590 L391 696 C403 737 411 779 411 801 C411 807 401 809 386 809 L386 809 Z M289 750 L73 750 L73 743 L99 743 C129 743 149 723 149 693 L149 57 C149 27 129 7 99 7 L73 7 L73 0 L507 0 L507 11 C513 47 521 92 527 127 L515 127 L509 110 C489 51 433 11 370 11 L264 11 C218 11 213 27 213 51 L213 693 C213 723 233 743 263 743 L289 743 L289 750 L289 750 Z " />
<glyph glyph-name="lcaron" unicode="&#x13e;" horiz-adv-x="223" d="M219 759 C207 759 199 698 195 653 L185 541 L194 540 L224 646 C236 687 244 729 244 751 C244 757 234 759 219 759 L219 759 Z M26 722 L37 722 C64 723 82 707 82 680 L82 22 C82 13 76 7 67 7 L26 7 L26 0 L193 0 L193 7 L152 7 C143 7 137 13 137 22 L137 750 L110 750 C85 743 51 736 26 729 L26 722 L26 722 Z " />
<glyph glyph-name="Nacute" unicode="&#x143;" horiz-adv-x="710" d="M259 813 L399 936 C440 973 468 999 468 1003 C468 1018 456 1031 441 1031 C437 1031 411 1003 374 961 L252 820 L259 813 L259 813 Z M11 743 L38 743 C67 743 98 724 117 696 L132 673 L131 58 L131 58 C131 28 111 8 81 8 L55 8 L55 1 L227 1 L227 8 L201 8 C171 8 151 28 151 58 L151 58 L149 647 C285 432 421 216 557 1 L570 1 L575 694 L575 694 C575 724 595 744 625 744 L651 744 L651 751 L480 751 L480 744 L506 744 C536 744 556 724 556 694 L557 122 L164 751 L12 751 L11 743 L11 743 Z " />
<glyph glyph-name="Ncaron" unicode="&#x147;" horiz-adv-x="710" d="M495 1042 L353 878 L210 1042 L203 1036 L333 836 C337 830 346 817 353 817 C358 817 368 831 372 837 L502 1036 L495 1042 L495 1042 Z M11 743 L38 743 C67 743 98 724 117 696 L132 673 L131 58 L131 58 C131 28 111 8 81 8 L55 8 L55 1 L227 1 L227 8 L201 8 C171 8 151 28 151 58 L151 58 L149 647 C285 432 421 216 557 1 L570 1 L575 694 L575 694 C575 724 595 744 625 744 L651 744 L651 751 L480 751 L480 744 L506 744 C536 744 556 724 556 694 L557 122 L164 751 L12 751 L11 743 L11 743 Z " />
<glyph glyph-name="ncaron" unicode="&#x148;" horiz-adv-x="484" d="M383 792 L241 628 L98 792 L91 786 L221 586 C225 580 234 567 241 567 C246 567 256 581 260 587 L390 786 L383 792 L383 792 Z M27 473 L38 472 C64 474 81 460 83 436 C83 339 82 139 82 23 C82 14 76 8 67 8 L26 8 L26 1 L193 1 L193 8 L152 8 C143 8 137 14 137 23 L137 376 C161 441 212 485 265 485 C317 485 344 428 344 343 L344 23 C344 14 338 8 329 8 L288 8 L288 1 L454 1 L454 8 L413 8 C404 8 398 14 398 23 L398 343 C398 444 358 511 281 511 C222 511 165 460 137 384 L137 501 L110 501 L107 500 C82 494 51 487 27 481 L27 473 L27 473 Z " />
<glyph glyph-name="Omacron" unicode="&#x14c;" horiz-adv-x="771" d="M258 900 L508 900 L508 939 L258 939 L258 900 L258 900 Z M130 375 C130 604 231 757 382 757 C540 757 646 604 646 375 C646 146 537 -7 373 -7 C227 -7 130 146 130 375 L130 375 Z M59 375 C59 144 185 -10 373 -10 C579 -10 716 144 716 375 C716 606 583 760 383 760 C189 760 59 606 59 375 L59 375 Z " />
<glyph glyph-name="omacron" unicode="&#x14d;" horiz-adv-x="572" d="M161 650 L411 650 L411 689 L161 689 L161 650 L161 650 Z M106 250 C106 404 178 507 286 507 C395 507 467 404 467 250 C467 96 395 -7 286 -7 C178 -7 106 96 106 250 L106 250 Z M45 250 C45 94 141 -10 286 -10 C431 -10 527 94 527 250 C527 406 431 510 286 510 C141 510 45 406 45 250 L45 250 Z " />
<glyph glyph-name="Obreve" unicode="&#x14e;" horiz-adv-x="771" d="M275 995 C279 930 322 886 383 886 C444 886 486 929 490 993 L479 995 C477 953 438 925 383 925 C328 925 289 953 287 996 L275 995 L275 995 Z M130 375 C130 604 231 757 382 757 C540 757 646 604 646 375 C646 146 537 -7 373 -7 C227 -7 130 146 130 375 L130 375 Z M59 375 C59 144 185 -10 373 -10 C579 -10 716 144 716 375 C716 606 583 760 383 760 C189 760 59 606 59 375 L59 375 Z " />
<glyph glyph-name="obreve" unicode="&#x14f;" horiz-adv-x="572" d="M178 745 C182 680 225 636 286 636 C347 636 389 679 393 743 L382 745 C380 703 341 675 286 675 C231 675 192 703 190 746 L178 745 L178 745 Z M106 250 C106 404 178 507 286 507 C395 507 467 404 467 250 C467 96 395 -7 286 -7 C178 -7 106 96 106 250 L106 250 Z M45 250 C45 94 141 -10 286 -10 C431 -10 527 94 527 250 C527 406 431 510 286 510 C141 510 45 406 45 250 L45 250 Z " />
<glyph glyph-name="Racute" unicode="&#x154;" horiz-adv-x="670" d="M306 813 L445 936 C486 973 514 1000 514 1003 C514 1018 501 1031 486 1031 C483 1031 457 1003 420 961 L299 820 L306 813 L306 813 Z M69 743 L95 743 C125 743 145 723 145 693 L145 57 C145 27 125 7 95 7 L69 7 L69 0 L285 0 L285 7 L259 7 C229 7 209 27 209 57 L209 364 L308 364 C322 332 381 218 464 67 C499 3 507 0 660 0 L660 5 C577 5 572 7 539 67 C456 219 395 331 374 370 C467 386 525 441 525 541 C525 667 440 751 312 751 L70 751 L69 743 L69 743 Z M210 381 L210 738 L293 738 C390 738 454 664 454 553 C454 434 397 381 312 381 L210 381 L210 381 Z " />
<glyph glyph-name="Rcaron" unicode="&#x158;" horiz-adv-x="670" d="M441 1042 L299 878 L157 1042 L150 1036 L280 836 C284 830 293 817 299 817 C304 817 314 831 318 837 L448 1036 L441 1042 L441 1042 Z M69 743 L95 743 C125 743 145 723 145 693 L145 57 C145 27 125 7 95 7 L69 7 L69 0 L285 0 L285 7 L259 7 C229 7 209 27 209 57 L209 364 L308 364 C322 332 381 218 464 67 C499 3 507 0 660 0 L660 5 C577 5 572 7 539 67 C456 219 395 331 374 370 C467 386 525 441 525 541 C525 667 440 751 312 751 L70 751 L69 743 L69 743 Z M210 381 L210 738 L293 738 C390 738 454 664 454 553 C454 434 397 381 312 381 L210 381 L210 381 Z " />
<glyph glyph-name="rcaron" unicode="&#x159;" horiz-adv-x="322" d="M335 792 L193 628 L50 792 L43 786 L173 586 C177 580 186 567 193 567 C198 567 208 581 212 587 L342 786 L335 792 L335 792 Z M27 472 L38 472 C65 473 83 457 83 430 L83 22 C83 13 77 7 68 7 L27 7 L27 0 L194 0 L194 7 L153 7 C144 7 138 13 138 22 L138 395 C149 449 186 484 234 484 C242 484 247 470 247 449 C247 408 312 407 312 449 C312 486 291 510 259 510 C197 510 150 467 137 400 L137 500 L110 500 C85 493 51 486 26 479 L27 472 L27 472 Z " />
<glyph glyph-name="Sacute" unicode="&#x15a;" horiz-adv-x="513" d="M264 813 L404 936 C445 973 473 999 473 1003 C473 1018 461 1031 446 1031 C442 1031 416 1003 379 961 L257 820 L264 813 L264 813 Z M181 13 L181 14 C212 -1 246 -9 280 -9 C395 -9 472 69 472 185 C472 272 413 357 299 409 C182 462 121 534 121 600 C121 726 197 788 300 744 C348 721 389 662 407 591 C409 583 411 571 413 563 L430 563 L430 745 L420 745 C419 740 419 733 418 728 C415 706 400 699 379 709 C340 741 288 760 234 760 C136 760 71 686 71 574 C71 487 136 399 261 342 C367 294 421 228 421 165 C421 62 365 -7 281 -7 C245 -7 209 6 176 29 C132 62 92 128 75 199 C73 208 71 219 69 228 L52 228 L52 10 L62 10 C63 18 63 28 64 36 C67 72 93 76 129 47 L129 48 C145 35 163 25 181 14 L181 13 L181 13 Z M62 154 L62 154 L62 154 L62 154 Z " />
<glyph glyph-name="Scircumflex" unicode="&#x15c;" horiz-adv-x="513" d="M181 13 L181 14 C212 -1 246 -9 280 -9 C395 -9 472 69 472 185 C472 272 413 357 299 409 C182 462 121 534 121 600 C121 726 197 788 300 744 C348 721 389 662 407 591 C409 583 411 571 413 563 L430 563 L430 745 L420 745 C419 740 419 733 418 728 C415 706 400 699 379 709 C340 741 288 760 234 760 C136 760 71 686 71 574 C71 487 136 399 261 342 C367 294 421 228 421 165 C421 62 365 -7 281 -7 C245 -7 209 6 176 29 C132 62 92 128 75 199 C73 208 71 219 69 228 L52 228 L52 10 L62 10 C63 18 63 28 64 36 C67 72 93 76 129 47 L129 48 C145 35 163 25 181 14 L181 13 L181 13 Z M277 1014 C273 1020 263 1034 258 1034 C251 1034 242 1021 238 1015 L108 815 L115 809 L258 973 L400 809 L407 815 L277 1014 L277 1014 Z M62 154 L62 154 L62 154 L62 154 Z " />
<glyph glyph-name="Scaron" unicode="&#x160;" horiz-adv-x="513" d="M400 1042 L258 878 L115 1042 L108 1036 L238 836 C242 830 251 817 258 817 C263 817 273 831 277 837 L407 1036 L400 1042 L400 1042 Z M181 13 L181 14 C212 -1 246 -9 280 -9 C395 -9 472 69 472 185 C472 272 413 357 299 409 C182 462 121 534 121 600 C121 726 197 788 300 744 C348 721 389 662 407 591 C409 583 411 571 413 563 L430 563 L430 745 L420 745 C419 740 419 733 418 728 C415 706 400 699 379 709 C340 741 288 760 234 760 C136 760 71 686 71 574 C71 487 136 399 261 342 C367 294 421 228 421 165 C421 62 365 -7 281 -7 C245 -7 209 6 176 29 C132 62 92 128 75 199 C73 208 71 219 69 228 L52 228 L52 10 L62 10 C63 18 63 28 64 36 C67 72 93 76 129 47 L129 48 C145 35 163 25 181 14 L181 13 L181 13 Z M62 154 L62 154 L62 154 L62 154 Z " />
<glyph glyph-name="scaron" unicode="&#x161;" horiz-adv-x="390" d="M347 792 L205 628 L63 792 L56 786 L186 586 C190 580 199 567 205 567 C210 567 220 581 224 587 L354 786 L347 792 L347 792 Z M215 501 C223 498 230 494 237 489 C229 493 221 497 213 500 L215 501 L215 501 Z M61 164 L61 7 L68 7 C69 12 69 17 70 22 C72 37 95 33 129 13 C153 -3 180 -12 207 -12 C288 -12 342 41 342 121 C342 184 300 240 219 269 C142 296 103 348 103 404 C103 465 135 506 183 506 C205 506 228 497 248 482 C245 484 242 486 239 488 C274 464 299 419 305 368 C306 363 306 357 307 352 L315 352 L315 498 L308 498 C307 494 307 489 306 485 C305 475 278 479 240 496 L240 496 C222 504 203 508 183 508 C112 508 64 459 64 385 C64 318 109 258 195 227 C264 203 299 156 299 105 C299 36 262 -10 207 -10 C186 -10 164 -1 143 15 C106 44 78 94 72 148 C71 153 71 159 70 164 L61 164 L61 164 Z M70 97 L70 97 L70 97 L70 97 Z " />
<glyph glyph-name="Tcaron" unicode="&#x164;" horiz-adv-x="741" d="M513 1042 L371 878 L229 1042 L222 1036 L352 836 C356 830 365 817 371 817 C376 817 386 831 390 837 L520 1036 L513 1042 L513 1042 Z M663 786 L659 781 C648 762 607 750 559 750 L183 750 C135 750 94 762 83 781 L79 786 L70 786 C64 773 57 756 52 743 C52 743 53 743 55 743 L55 742 L47 742 C32 705 22 655 7 618 L19 618 L38 649 C67 700 120 734 171 734 L339 734 L339 57 C339 27 319 7 289 7 L263 7 L263 0 L479 0 L479 7 L453 7 C423 7 403 27 403 57 L403 734 L571 734 C622 734 675 700 704 649 L723 618 L735 618 C720 656 709 705 693 743 C693 743 692 743 689 743 C688 745 687 747 686 749 L686 751 L685 751 C681 763 676 777 671 788 L663 786 L663 786 Z " />
<glyph glyph-name="tcaron" unicode="&#x165;" horiz-adv-x="324" d="M282 500 L146 500 L146 620 L142 620 L26 496 L26 486 L91 486 L91 133 C91 30 136 -10 203 -10 C241 -10 285 22 314 71 L307 75 C286 40 251 16 219 16 C174 16 144 45 144 121 L146 471 L282 471 L282 500 L282 500 Z M366 759 C354 759 346 698 342 653 L332 541 L341 540 L371 646 C383 687 391 729 391 751 C391 757 381 759 366 759 L366 759 Z " />
<glyph glyph-name="Utilde" unicode="&#x168;" horiz-adv-x="647" d="M205 870 C205 909 220 935 243 935 C288 935 347 870 392 870 C426 870 448 910 448 969 L446 969 C446 933 429 909 404 909 C360 909 300 974 256 974 C224 974 203 932 203 870 L205 870 L205 870 Z M617 36 L591 29 C561 21 541 36 541 66 L541 750 L401 750 L401 743 L427 743 C457 743 477 723 477 693 L477 171 C438 88 353 32 263 32 C210 32 174 104 174 213 L174 750 L34 750 L34 743 L60 743 C90 743 110 723 110 693 L110 213 C110 79 161 -10 237 -10 C338 -10 434 51 477 142 L477 0 L509 0 C541 9 585 21 617 29 L617 36 L617 36 Z " />
<glyph glyph-name="utilde" unicode="&#x169;" horiz-adv-x="461" d="M109 620 C109 659 124 685 147 685 C192 685 251 620 296 620 C330 620 352 660 352 719 L350 719 C350 683 333 659 308 659 C264 659 204 724 160 724 C128 724 107 682 107 620 L109 620 L109 620 Z M446 32 L430 27 C400 19 380 34 380 64 L380 500 L270 500 L270 493 L311 493 C320 493 326 487 326 478 L326 127 C300 67 257 28 214 28 C165 28 133 79 133 155 L133 500 L22 500 L22 493 L63 493 C72 493 78 487 78 478 L78 155 C78 56 122 -10 188 -10 C239 -10 293 43 327 124 L327 0 L354 0 C382 7 419 17 447 25 L446 32 L446 32 Z " />
<glyph glyph-name="Umacron" unicode="&#x16a;" horiz-adv-x="647" d="M200 900 L451 900 L451 939 L200 939 L200 900 L200 900 Z M617 36 L591 29 C561 21 541 36 541 66 L541 750 L401 750 L401 743 L427 743 C457 743 477 723 477 693 L477 171 C438 88 353 32 263 32 C210 32 174 104 174 213 L174 750 L34 750 L34 743 L60 743 C90 743 110 723 110 693 L110 213 C110 79 161 -10 237 -10 C338 -10 434 51 477 142 L477 0 L509 0 C541 9 585 21 617 29 L617 36 L617 36 Z " />
<glyph glyph-name="umacron" unicode="&#x16b;" horiz-adv-x="461" d="M104 650 L355 650 L355 689 L104 689 L104 650 L104 650 Z M446 32 L430 27 C400 19 380 34 380 64 L380 500 L270 500 L270 493 L311 493 C320 493 326 487 326 478 L326 127 C300 67 257 28 214 28 C165 28 133 79 133 155 L133 500 L22 500 L22 493 L63 493 C72 493 78 487 78 478 L78 155 C78 56 122 -10 188 -10 C239 -10 293 43 327 124 L327 0 L354 0 C382 7 419 17 447 25 L446 32 L446 32 Z " />
<glyph glyph-name="Ubreve" unicode="&#x16c;" horiz-adv-x="647" d="M218 995 C222 930 265 886 326 886 C387 886 429 929 433 993 L422 995 C420 953 381 925 326 925 C270 925 231 953 229 996 L218 995 L218 995 Z M617 36 L591 29 C561 21 541 36 541 66 L541 750 L401 750 L401 743 L427 743 C457 743 477 723 477 693 L477 171 C438 88 353 32 263 32 C210 32 174 104 174 213 L174 750 L34 750 L34 743 L60 743 C90 743 110 723 110 693 L110 213 C110 79 161 -10 237 -10 C338 -10 434 51 477 142 L477 0 L509 0 C541 9 585 21 617 29 L617 36 L617 36 Z " />
<glyph glyph-name="ubreve" unicode="&#x16d;" horiz-adv-x="461" d="M122 745 C126 680 169 636 230 636 C291 636 333 679 337 743 L326 745 C324 703 285 675 230 675 C174 675 135 703 133 746 L122 745 L122 745 Z M446 32 L430 27 C400 19 380 34 380 64 L380 500 L270 500 L270 493 L311 493 C320 493 326 487 326 478 L326 127 C300 67 257 28 214 28 C165 28 133 79 133 155 L133 500 L22 500 L22 493 L63 493 C72 493 78 487 78 478 L78 155 C78 56 122 -10 188 -10 C239 -10 293 43 327 124 L327 0 L354 0 C382 7 419 17 447 25 L446 32 L446 32 Z " />
<glyph glyph-name="Uring" unicode="&#x16e;" horiz-adv-x="647" d="M245 905 C245 954 277 987 326 987 C374 987 406 954 406 905 C406 861 369 823 326 823 C282 823 245 861 245 905 L245 905 Z M229 905 C229 854 274 810 326 810 C378 810 422 854 422 905 C422 962 384 1000 326 1000 C268 1000 229 962 229 905 L229 905 Z M617 36 L591 29 C561 21 541 36 541 66 L541 750 L401 750 L401 743 L427 743 C457 743 477 723 477 693 L477 171 C438 88 353 32 263 32 C210 32 174 104 174 213 L174 750 L34 750 L34 743 L60 743 C90 743 110 723 110 693 L110 213 C110 79 161 -10 237 -10 C338 -10 434 51 477 142 L477 0 L509 0 C541 9 585 21 617 29 L617 36 L617 36 Z " />
<glyph glyph-name="uring" unicode="&#x16f;" horiz-adv-x="461" d="M149 655 C149 704 181 737 230 737 C278 737 310 704 310 655 C310 611 273 573 230 573 C186 573 149 611 149 655 L149 655 Z M133 655 C133 604 178 560 230 560 C282 560 326 604 326 655 C326 712 288 750 230 750 C172 750 133 712 133 655 L133 655 Z M446 32 L430 27 C400 19 380 34 380 64 L380 500 L270 500 L270 493 L311 493 C320 493 326 487 326 478 L326 127 C300 67 257 28 214 28 C165 28 133 79 133 155 L133 500 L22 500 L22 493 L63 493 C72 493 78 487 78 478 L78 155 C78 56 122 -10 188 -10 C239 -10 293 43 327 124 L327 0 L354 0 C382 7 419 17 447 25 L446 32 L446 32 Z " />
<glyph glyph-name="Wcircumflex" unicode="&#x174;" horiz-adv-x="985" d="M622 750 L362 750 L362 741 L372 741 C407 741 440 710 456 664 L506 499 L344 77 L170 661 L171 661 C157 709 179 741 227 741 L245 741 L245 750 L10 750 L10 741 L20 741 C53 741 84 711 100 666 C171 440 242 215 312 -11 L329 -11 L516 468 C564 308 612 148 660 -12 L676 -12 L865 664 C879 709 917 739 960 739 L973 739 L973 748 L728 748 L728 739 L782 739 C830 739 853 707 840 659 L840 659 L687 88 L526 661 C514 708 537 739 584 739 L622 739 L622 750 L622 750 Z M500 1011 C496 1017 486 1031 481 1031 C475 1031 466 1018 462 1012 L332 812 L339 806 L481 970 L623 806 L630 812 L500 1011 L500 1011 Z " />
<glyph glyph-name="Ycircumflex" unicode="&#x176;" horiz-adv-x="639" d="M239 750 L10 750 L10 743 C49 743 80 725 100 688 L100 688 L293 328 L293 77 C293 35 265 7 223 7 L197 7 L197 0 L454 0 L454 7 L428 7 C386 7 358 35 358 77 L358 338 L528 688 C544 721 576 743 609 743 L641 743 L641 750 L436 750 L436 743 L494 743 C527 743 538 721 522 688 L522 688 L357 342 C297 457 235 573 176 688 C159 721 169 743 202 743 L239 743 L239 750 L239 750 Z M345 1013 C341 1019 331 1033 326 1033 C319 1033 310 1020 306 1014 L176 814 L183 808 L326 972 L468 808 L475 814 L345 1013 L345 1013 Z " />
<glyph glyph-name="Ydieresis" unicode="&#x178;" horiz-adv-x="639" d="M429 900 C429 922 415 936 394 936 C372 936 358 922 358 900 C358 855 429 854 429 900 L429 900 Z M293 900 C293 922 279 936 257 936 C236 936 222 922 222 900 C222 854 293 855 293 900 L293 900 Z M239 750 L10 750 L10 743 C49 743 80 725 100 688 L100 688 L293 328 L293 77 C293 35 265 7 223 7 L197 7 L197 0 L454 0 L454 7 L428 7 C386 7 358 35 358 77 L358 338 L528 688 C544 721 576 743 609 743 L641 743 L641 750 L436 750 L436 743 L494 743 C527 743 538 721 522 688 L522 688 L357 342 C297 457 235 573 176 688 C159 721 169 743 202 743 L239 743 L239 750 L239 750 Z " />
<glyph glyph-name="Zacute" unicode="&#x179;" horiz-adv-x="615" d="M330 813 L470 936 C511 973 539 999 539 1003 C539 1018 527 1031 512 1031 C508 1031 482 1003 445 961 L323 820 L330 813 L330 813 Z M68 732 C68 732 61 659 58 616 L70 616 L74 633 C90 692 143 731 206 733 L509 736 L26 13 L26 0 L574 0 L576 9 C576 9 587 59 605 135 L593 135 L586 118 C564 62 512 23 454 17 L102 13 L579 736 L579 749 L72 749 L68 732 L68 732 Z " />
<glyph glyph-name="Zdot" unicode="&#x17b;" horiz-adv-x="615" d="M359 900 C359 922 345 936 324 936 C302 936 288 922 288 900 C288 855 359 854 359 900 L359 900 Z M68 732 C68 732 61 659 58 616 L70 616 L74 633 C90 692 143 731 206 733 L509 736 L26 13 L26 0 L574 0 L576 9 C576 9 587 59 605 135 L593 135 L586 118 C564 62 512 23 454 17 L102 13 L579 736 L579 749 L72 749 L68 732 L68 732 Z " />
<glyph glyph-name="zdot" unicode="&#x17c;" horiz-adv-x="442" d="M270 650 C270 672 256 686 235 686 C213 686 199 672 199 650 C199 605 270 604 270 650 L270 650 Z M69 523 C55 475 60 486 34 392 L48 392 L56 406 C80 451 129 482 180 483 L337 486 L40 13 L40 0 L333 0 L388 -7 C388 -7 389 -4 390 1 L398 20 L395 20 C400 42 407 75 410 109 L396 109 L391 95 C374 51 331 20 281 18 L107 15 L402 488 L402 501 L107 501 C86 501 80 509 80 524 L69 523 L69 523 Z " />
<glyph glyph-name="Zcaron" unicode="&#x17d;" horiz-adv-x="615" d="M466 1042 L324 878 L181 1042 L174 1036 L304 836 C308 830 317 817 324 817 C329 817 339 831 343 837 L473 1036 L466 1042 L466 1042 Z M68 732 C68 732 61 659 58 616 L70 616 L74 633 C90 692 143 731 206 733 L509 736 L26 13 L26 0 L574 0 L576 9 C576 9 587 59 605 135 L593 135 L586 118 C564 62 512 23 454 17 L102 13 L579 736 L579 749 L72 749 L68 732 L68 732 Z " />
<glyph glyph-name="zcaron" unicode="&#x17e;" horiz-adv-x="442" d="M377 792 L235 628 L92 792 L85 786 L215 586 C219 580 228 567 235 567 C240 567 250 581 254 587 L384 786 L377 792 L377 792 Z M69 523 C55 475 60 486 34 392 L48 392 L56 406 C80 451 129 482 180 483 L337 486 L40 13 L40 0 L333 0 L388 -7 C388 -7 389 -4 390 1 L398 20 L395 20 C400 42 407 75 410 109 L396 109 L391 95 C374 51 331 20 281 18 L107 15 L402 488 L402 501 L107 501 C86 501 80 509 80 524 L69 523 L69 523 Z " />
<glyph glyph-name="oogonek" unicode="&#x1eb;" horiz-adv-x="696" d="M892 -53 L891 -52 C862 -77 767 -93 655 -93 C514 -93 372 -58 297 -7 C311 -9 325 -10 340 -10 C524 -10 647 111 647 292 C647 473 528 593 350 593 C177 593 62 473 62 292 C62 150 131 45 241 7 C354 -75 517 -129 649 -129 C740 -129 838 -98 893 -52 L892 -53 L892 -53 Z M125 293 C125 472 215 592 349 592 C490 592 584 472 584 293 C584 112 485 -8 337 -8 C210 -8 125 112 125 293 L125 293 Z " />
<glyph glyph-name="Adotabove" unicode="&#x226;" horiz-adv-x="683" d="M395 900 C395 922 381 936 360 936 C338 936 324 922 324 900 C324 855 395 854 395 900 L395 900 Z M259 9 L236 9 C178 9 148 46 162 103 L215 296 L448 296 L502 100 C514 45 484 9 427 9 L404 9 L404 0 L681 0 L681 9 L668 9 C627 9 589 44 570 97 C507 321 444 545 381 769 L375 769 C378 750 362 725 330 720 C273 516 217 312 160 108 C143 48 93 8 33 8 L6 8 L6 -1 L259 -1 L259 9 L259 9 Z M216 298 L331 716 L447 298 L216 298 L216 298 Z " />
<glyph glyph-name="G_sc" unicode="&#x262;" horiz-adv-x="672" d="M555 406 L555 596 L545 596 C544 590 544 581 543 575 C540 544 514 538 478 559 L478 559 C461 569 440 578 421 585 L420 583 C395 589 367 593 333 593 C170 593 61 473 61 292 C61 111 171 -10 335 -10 C405 -10 464 -1 517 14 L539 19 L539 21 C565 30 590 40 614 51 L613 53 C590 42 566 33 539 25 L539 159 C539 210 568 244 612 244 L625 244 L625 253 L395 253 L395 244 L408 244 C452 244 481 210 481 159 C481 125 481 88 481 59 C475 24 422 1 344 1 C213 1 125 117 125 291 C125 470 209 590 334 590 C368 590 396 584 421 574 C470 553 514 496 531 430 C533 422 535 412 537 404 L555 406 L555 406 Z M375 0 C365 0 354 0 343 0 C352 0 363 0 375 0 L375 0 Z " />
<glyph glyph-name="I_sc" unicode="&#x26a;" horiz-adv-x="346" d="M286 7 L260 7 C230 7 210 27 210 57 L210 526 C210 556 230 576 260 576 L286 576 L286 583 L76 583 L76 576 L102 576 C132 576 152 556 152 526 L152 57 C152 27 132 7 102 7 L76 7 L76 0 L286 0 L286 7 L286 7 Z " />
<glyph glyph-name="N_sc" unicode="&#x274;" horiz-adv-x="644" d="M18 576 L44 576 C71 576 101 560 122 535 L132 520 L131 57 L131 57 C131 27 111 7 81 7 L55 7 L55 0 L224 0 L224 7 L198 7 C168 7 148 27 148 57 L148 57 L146 499 C261 333 376 167 491 1 L503 1 L507 527 L507 527 C507 557 527 577 557 577 L583 577 L583 584 L414 584 L414 577 L440 577 C470 577 490 557 490 527 L491 79 L486 87 L160 584 L17 584 L18 576 L18 576 Z " />
<glyph glyph-name="R_sc" unicode="&#x280;" horiz-adv-x="560" d="M71 576 L97 576 C127 576 147 556 147 526 L147 57 C147 27 127 7 97 7 L71 7 L71 0 L281 0 L281 7 L255 7 C225 7 205 27 205 57 L205 281 L261 281 C273 253 321 166 387 52 C416 2 422 0 550 0 L550 4 C485 4 482 6 455 52 C388 167 339 252 320 284 C404 296 457 339 457 419 C457 517 380 582 264 582 L71 582 L71 576 L71 576 Z M205 295 L205 571 L246 571 C334 571 393 515 393 430 C393 337 341 295 264 295 L205 295 L205 295 Z " />
<glyph glyph-name="Y_sc" unicode="&#x28f;" horiz-adv-x="570" d="M233 583 L12 583 L12 576 C48 576 76 562 98 531 L261 254 L261 77 C261 35 233 7 191 7 L165 7 L165 0 L415 0 L415 7 L389 7 C347 7 319 35 319 77 L319 263 L459 528 C477 557 508 576 539 576 L570 576 L570 583 L367 583 L367 576 L424 576 C455 576 467 557 454 527 L318 266 C270 351 220 437 173 522 C154 555 163 577 196 577 L233 577 L233 583 L233 583 Z " />
<glyph glyph-name="B_sc" unicode="&#x299;" horiz-adv-x="504" d="M322 1 L272 1 C232 1 205 23 205 55 L205 299 L344 299 C378 299 400 240 400 151 C400 29 369 1 322 1 L322 1 Z M71 574 L97 574 C127 574 147 554 147 524 L147 59 C147 29 127 9 97 9 L71 9 L71 0 L325 0 C408 0 464 29 464 151 C464 241 418 301 350 301 L332 301 C403 312 448 366 448 443 C448 527 411 583 255 583 L71 583 L71 574 L71 574 Z M304 301 L205 301 L205 581 L251 581 C364 581 391 523 391 437 C391 355 356 301 304 301 L304 301 Z " />
<glyph glyph-name="H_sc" unicode="&#x29c;" horiz-adv-x="704" d="M644 7 L618 7 C588 7 568 27 568 57 L568 526 C568 556 588 576 618 576 L644 576 L644 583 L434 583 L434 576 L460 576 C490 576 510 556 510 526 L510 300 L241 300 L241 526 C241 556 261 576 291 576 L317 576 L317 583 L107 583 L107 576 L133 576 C163 576 183 556 183 526 L183 57 C183 27 163 7 133 7 L107 7 L107 0 L317 0 L317 7 L291 7 C261 7 241 27 241 57 L241 298 L510 298 L510 57 C510 27 490 7 460 7 L434 7 L434 0 L644 0 L644 7 L644 7 Z " />
<glyph glyph-name="L_sc" unicode="&#x29f;" horiz-adv-x="507" d="M286 583 L76 583 L76 576 L102 576 C132 576 152 556 152 526 L152 57 C152 27 132 7 102 7 L76 7 L76 0 L441 0 L441 10 C441 10 460 118 461 126 L449 126 L443 109 C423 50 367 10 304 10 L261 10 C215 10 210 26 210 51 L210 526 C210 556 230 576 260 576 L286 576 L286 583 L286 583 Z " />
<glyph glyph-name="circumflex" unicode="&#x2c6;" horiz-adv-x="298" d="M169 763 C165 769 155 783 149 783 C143 783 134 770 130 764 L0 564 L7 558 L150 722 L291 558 L299 564 L169 763 L169 763 Z " />
<glyph glyph-name="caron" unicode="&#x2c7;" horiz-adv-x="298" d="M291 792 L150 628 L7 792 L0 786 L130 586 C134 580 143 567 149 567 C155 567 165 581 169 587 L299 786 L291 792 L291 792 Z " />
<glyph glyph-name="firsttonechinese" unicode="&#x2c9;" horiz-adv-x="298" d="M24 650 L275 650 L275 689 L24 689 L24 650 L24 650 Z " />
<glyph glyph-name="breve" unicode="&#x2d8;" horiz-adv-x="298" d="M42 745 C46 680 88 636 149 636 C210 636 253 679 257 743 L246 745 C244 703 205 675 149 675 C94 675 55 703 53 746 L42 745 L42 745 Z " />
<glyph glyph-name="dotaccent" unicode="&#x2d9;" horiz-adv-x="298" d="M185 650 C185 672 171 686 149 686 C128 686 114 672 114 650 C114 604 185 605 185 650 L185 650 Z " />
<glyph glyph-name="ring" unicode="&#x2da;" horiz-adv-x="298" d="M69 655 C69 704 101 737 149 737 C198 737 230 704 230 655 C230 611 193 573 149 573 C106 573 69 611 69 655 L69 655 Z M53 655 C53 604 97 560 149 560 C201 560 246 604 246 655 C246 712 207 750 149 750 C91 750 53 712 53 655 L53 655 Z " />
<glyph glyph-name="A_sc" unicode="&#x1d00;" horiz-adv-x="620" d="M259 9 L236 9 C179 9 151 45 164 101 L203 230 L403 230 L442 101 C455 45 427 9 370 9 L347 9 L347 0 L617 0 L617 9 L604 9 C562 9 522 46 502 102 C450 269 397 435 346 602 L340 602 C343 585 328 564 301 559 L159 96 C138 43 88 8 32 8 L6 8 L6 -1 L258 -1 L259 9 L259 9 Z M203 231 L302 556 L401 231 L203 231 L203 231 Z " />
<glyph glyph-name="C_sc" unicode="&#x1d04;" horiz-adv-x="601" d="M478 559 L478 559 C461 569 440 578 421 585 L420 583 C395 589 367 593 333 593 C170 593 61 473 61 292 C61 111 167 -10 325 -10 C359 -10 389 -6 416 1 L417 -1 C439 8 463 18 482 30 C515 46 539 37 543 6 C544 -1 544 -9 545 -16 L555 -16 L555 94 L478 559 L478 559 Z M414 8 L414 8 C387 -2 358 -8 326 -8 C205 -8 125 112 125 292 C125 471 209 591 334 591 C368 591 396 585 421 575 L414 8 L414 8 Z " />
<glyph glyph-name="D_sc" unicode="&#x1d05;" horiz-adv-x="697" d="M249 2 C209 2 205 22 205 51 L205 581 L268 581 C473 581 578 465 578 292 C578 101 446 2 249 2 L249 2 Z M71 576 L97 576 C127 576 147 556 147 526 L147 57 C147 27 127 7 97 7 L71 7 L71 0 L252 0 C486 0 642 99 642 292 C642 467 517 583 275 583 L71 583 L71 576 L71 576 Z " />
<glyph glyph-name="E_sc" unicode="&#x1d07;" horiz-adv-x="525" d="M372 173 L372 428 L360 428 L352 382 C344 334 308 302 260 302 L205 302 L205 581 L320 581 C368 581 408 549 422 501 L435 455 L447 455 C443 493 437 544 432 582 L432 583 L51 583 L51 576 L77 576 C119 576 147 548 147 506 L147 77 C147 35 119 7 77 7 L51 7 L51 0 L457 0 L457 1 C463 36 471 83 477 118 L465 118 L459 101 C439 42 383 2 320 2 L256 2 C210 2 205 22 205 51 L205 299 L260 299 C308 299 344 267 352 219 L360 173 L372 173 L372 173 Z " />
<glyph glyph-name="J_sc" unicode="&#x1d0a;" horiz-adv-x="346" d="M286 583 L76 583 L76 576 L102 576 C132 576 152 556 152 526 L152 -33 C152 -188 92 -217 48 -217 C20 -217 33 -171 5 -171 C-11 -171 -22 -181 -22 -197 C-22 -211 5 -220 46 -220 C115 -220 210 -172 210 77 L210 526 C210 556 230 576 260 576 L286 576 L286 583 L286 583 Z " />
<glyph glyph-name="K_sc" unicode="&#x1d0b;" horiz-adv-x="591" d="M312 576 C372 576 383 536 339 476 L205 292 L205 526 C205 556 225 576 255 576 L312 576 L312 576 Z M528 583 L71 583 L71 576 L97 576 C127 576 147 556 147 526 L147 57 C147 27 127 7 97 7 L71 7 L71 0 L281 0 L281 7 L255 7 C225 7 205 27 205 57 L205 292 L447 0 L585 0 L585 7 L559 7 C529 7 493 27 469 57 L469 57 L247 331 L391 522 C420 555 461 576 496 576 L528 576 L528 583 L528 583 Z " />
<glyph glyph-name="M_sc" unicode="&#x1d0d;" horiz-adv-x="740" d="M705 583 L574 583 L398 80 L196 583 L53 583 L53 576 L79 576 C106 576 132 559 146 533 C140 374 134 215 128 56 C127 26 106 6 76 6 L50 6 L50 -1 L222 -1 L222 6 L196 6 C166 6 147 26 148 56 L148 56 L160 501 C230 334 300 166 371 -1 L385 -1 L577 531 L593 56 C594 26 575 6 545 6 L519 6 L519 -1 L729 -1 L729 6 L703 6 C673 6 652 26 651 56 L651 56 L632 530 C633 557 651 575 679 575 L705 575 L705 583 L705 583 Z " />
<glyph glyph-name="O_sc" unicode="&#x1d0f;" horiz-adv-x="701" d="M124 292 C124 471 214 591 348 591 C489 591 583 471 583 292 C583 112 485 -8 339 -8 C210 -8 124 112 124 292 L124 292 Z M61 292 C61 111 172 -10 339 -10 C523 -10 646 111 646 292 C646 473 527 593 349 593 C176 593 61 473 61 292 L61 292 Z " />
<glyph glyph-name="P_sc" unicode="&#x1d18;" horiz-adv-x="437" d="M295 7 L269 7 C239 7 219 27 219 57 L219 272 L248 272 C349 272 417 318 417 420 C417 518 361 583 277 583 L85 583 L85 576 L111 576 C141 576 161 556 161 526 L161 57 C161 27 141 7 111 7 L85 7 L85 0 L295 0 L295 7 L295 7 Z M219 284 L219 573 L263 573 C322 573 362 516 362 430 C362 329 316 284 248 284 L219 284 L219 284 Z " />
<glyph glyph-name="T_sc" unicode="&#x1d1b;" horiz-adv-x="691" d="M613 619 L609 614 C598 595 557 583 509 583 L183 583 C135 583 94 595 83 614 L79 619 L70 619 C69 616 58 583 56 583 L56 582 C55 580 54 578 53 576 C53 576 54 576 55 576 L55 575 L47 575 C32 538 22 489 7 452 L19 452 L38 483 C67 534 120 568 171 568 L317 568 L317 56 C317 26 297 6 267 6 L241 6 L241 -1 L451 -1 L451 6 L425 6 C395 6 375 26 375 56 L375 568 L521 568 C572 568 625 534 654 483 L673 452 L685 452 C670 490 659 539 644 576 C644 576 642 576 638 576 C638 577 638 578 638 579 L638 582 L637 582 C633 594 629 607 624 618 L613 619 L613 619 Z " />
<glyph glyph-name="U_sc" unicode="&#x1d1c;" horiz-adv-x="576" d="M546 35 L520 28 C490 20 470 35 470 65 L470 583 L336 583 L336 576 L362 576 C392 576 412 556 412 526 L412 154 C376 78 303 27 229 27 C194 27 170 95 170 198 L170 583 L36 583 L36 576 L62 576 C92 576 112 556 112 526 L112 198 C112 73 149 -10 205 -10 C291 -10 373 45 412 128 L412 0 L441 0 C444 1 470 7 470 8 C495 15 523 22 546 28 L546 35 L546 35 Z " />
<glyph glyph-name="V_sc" unicode="&#x1d20;" horiz-adv-x="635" d="M617 583 L375 583 L375 574 L413 574 C472 574 497 536 478 478 L336 92 L183 479 C162 536 187 574 245 574 L267 574 L267 583 L11 583 L11 574 L21 574 C55 574 92 534 115 474 L115 474 C176 313 238 152 298 -10 L310 -10 L497 474 C520 534 563 574 604 574 L617 574 L617 583 L617 583 Z " />
<glyph glyph-name="W_sc" unicode="&#x1d21;" horiz-adv-x="878" d="M865 583 L623 583 L623 574 L676 574 C723 574 746 543 733 497 L606 80 L472 502 C461 546 483 575 528 575 L566 575 L566 584 L313 584 L313 575 L324 575 C357 575 389 548 406 506 C419 467 433 428 445 390 L314 71 C266 212 216 354 169 495 C153 543 173 575 221 575 L239 575 L239 584 L11 584 L11 575 L21 575 C55 575 88 543 105 495 C164 327 223 159 282 -9 L296 -9 L455 364 C496 240 537 116 578 -8 L593 -8 C646 160 699 328 753 496 C768 544 807 576 851 576 L864 576 L865 583 L865 583 Z " />
<glyph glyph-name="Z_sc" unicode="&#x1d22;" horiz-adv-x="565" d="M71 451 L75 468 C90 524 137 563 195 568 L464 571 L26 12 L26 0 L524 0 L526 8 C526 8 537 58 555 133 L543 133 L536 116 C512 57 453 18 390 16 L95 13 L527 572 L527 583 L478 583 L474 584 L473 583 L71 583 L70 567 C70 567 64 495 60 451 L71 451 L71 451 Z " />
<glyph glyph-name="Wgrave" unicode="&#x1e80;" horiz-adv-x="985" d="M622 750 L362 750 L362 741 L372 741 C407 741 440 710 456 664 L506 499 L344 77 L170 661 L171 661 C157 709 179 741 227 741 L245 741 L245 750 L10 750 L10 741 L20 741 C53 741 84 711 100 666 C171 440 242 215 312 -11 L329 -11 L516 468 C564 308 612 148 660 -12 L676 -12 L865 664 C879 709 917 739 960 739 L973 739 L973 748 L728 748 L728 739 L782 739 C830 739 853 707 840 659 L840 659 L687 88 L526 661 C514 708 537 739 584 739 L622 739 L622 750 L622 750 Z M276 1001 C276 996 304 970 345 934 L484 811 L491 818 L370 959 C335 1001 309 1029 304 1029 C289 1029 276 1016 276 1001 L276 1001 Z " />
<glyph glyph-name="Wacute" unicode="&#x1e82;" horiz-adv-x="985" d="M488 813 L627 936 C668 973 696 1000 696 1003 C696 1018 683 1031 668 1031 C665 1031 639 1003 602 961 L481 820 L488 813 L488 813 Z M622 750 L362 750 L362 741 L372 741 C407 741 440 710 456 664 L506 499 L344 77 L170 661 L171 661 C157 709 179 741 227 741 L245 741 L245 750 L10 750 L10 741 L20 741 C53 741 84 711 100 666 C171 440 242 215 312 -11 L329 -11 L516 468 C564 308 612 148 660 -12 L676 -12 L865 664 C879 709 917 739 960 739 L973 739 L973 748 L728 748 L728 739 L782 739 C830 739 853 707 840 659 L840 659 L687 88 L526 661 C514 708 537 739 584 739 L622 739 L622 750 L622 750 Z " />
<glyph glyph-name="Wdieresis" unicode="&#x1e84;" horiz-adv-x="985" d="M585 900 C585 922 571 936 549 936 C528 936 514 922 514 900 C514 854 585 855 585 900 L585 900 Z M448 900 C448 922 434 936 413 936 C391 936 377 922 377 900 C377 855 448 854 448 900 L448 900 Z M622 750 L362 750 L362 741 L372 741 C407 741 440 710 456 664 L506 499 L344 77 L170 661 L171 661 C157 709 179 741 227 741 L245 741 L245 750 L10 750 L10 741 L20 741 C53 741 84 711 100 666 C171 440 242 215 312 -11 L329 -11 L516 468 C564 308 612 148 660 -12 L676 -12 L865 664 C879 709 917 739 960 739 L973 739 L973 748 L728 748 L728 739 L782 739 C830 739 853 707 840 659 L840 659 L687 88 L526 661 C514 708 537 739 584 739 L622 739 L622 750 L622 750 Z " />
<glyph glyph-name="Etilde" unicode="&#x1ebc;" horiz-adv-x="579" d="M195 870 C195 909 210 935 233 935 C278 935 337 870 382 870 C416 870 438 910 438 969 L436 969 C436 933 419 909 394 909 C350 909 290 974 246 974 C214 974 193 932 193 870 L195 870 L195 870 Z M426 259 L426 513 L414 513 L406 467 C398 419 362 387 314 387 L209 387 L209 748 L374 748 C422 748 462 716 476 668 L489 622 L501 622 C497 660 491 711 486 749 L486 750 L49 750 L49 743 L75 743 C117 743 145 715 145 673 L145 77 C145 35 117 7 75 7 L49 7 L49 0 L511 0 L511 1 C517 36 525 83 531 118 L519 118 L513 101 C493 42 437 2 374 2 L260 2 C214 2 209 22 209 51 L209 385 L314 385 C362 385 398 353 406 305 L414 259 L426 259 L426 259 Z " />
<glyph glyph-name="Ygrave" unicode="&#x1ef2;" horiz-adv-x="639" d="M239 750 L10 750 L10 743 C49 743 80 725 100 688 L100 688 L293 328 L293 77 C293 35 265 7 223 7 L197 7 L197 0 L454 0 L454 7 L428 7 C386 7 358 35 358 77 L358 338 L528 688 C544 721 576 743 609 743 L641 743 L641 750 L436 750 L436 743 L494 743 C527 743 538 721 522 688 L522 688 L357 342 C297 457 235 573 176 688 C159 721 169 743 202 743 L239 743 L239 750 L239 750 Z M120 1003 C120 998 148 972 189 936 L329 813 L336 820 L214 961 C178 1003 153 1031 147 1031 C132 1031 120 1018 120 1003 L120 1003 Z " />
<glyph glyph-name="quoteleft" unicode="&#x2018;" horiz-adv-x="421" d="M90 640 C83 640 78 637 74 632 C74 633 74 634 74 635 C74 694 96 740 130 749 L120 760 C83 750 58 696 58 625 C58 603 71 588 90 588 C124 588 124 640 90 640 L90 640 Z " />
<glyph glyph-name="quoteright" unicode="&#x2019;" horiz-adv-x="37" d="M94 716 C94 652 79 605 56 599 L67 588 C93 595 111 651 111 728 C111 747 98 760 78 760 C44 760 44 708 78 708 C85 708 90 711 94 716 L94 716 Z " />
<glyph glyph-name="quotedblleft" unicode="&#x201c;" horiz-adv-x="421" d="M160 640 C153 640 148 637 144 632 C144 633 144 634 144 635 C144 694 166 740 200 749 L190 760 C153 750 128 696 128 625 C128 603 141 588 160 588 C194 588 194 640 160 640 L160 640 Z M78 640 C71 640 66 637 62 632 C62 633 62 634 62 635 C62 694 84 740 118 749 L108 760 C71 750 46 696 46 625 C46 603 59 588 78 588 C112 588 112 640 78 640 L78 640 Z " />
<glyph glyph-name="quotedblright" unicode="&#x201d;" horiz-adv-x="421" d="M176 716 C176 652 161 605 138 599 L149 588 C175 595 193 651 193 728 C193 747 180 760 160 760 C126 760 126 708 160 708 C167 708 172 711 176 716 L176 716 Z M94 716 C94 652 79 605 56 599 L67 588 C93 595 111 651 111 728 C111 747 98 760 78 760 C44 760 44 708 78 708 C85 708 90 711 94 716 L94 716 Z " />
<glyph glyph-name="perthousand" unicode="&#x2030;" horiz-adv-x="1083" d="M846 205 C846 317 880 392 931 392 C984 392 1020 308 1020 183 C1020 69 985 -7 933 -7 C881 -7 846 78 846 205 L846 205 Z M792 194 C792 72 848 -10 932 -10 C1015 -10 1071 75 1071 202 C1071 318 1015 395 932 395 C848 395 792 315 792 194 L792 194 Z M84 565 C84 680 118 757 169 757 C222 757 258 671 258 543 C258 432 223 358 171 358 C119 358 84 441 84 565 L84 565 Z M30 555 C30 435 86 355 170 355 C253 355 309 438 309 562 C309 681 253 760 170 760 C86 760 30 678 30 555 L30 555 Z M529 204 C529 317 564 392 616 392 C673 392 711 308 711 182 C711 69 674 -7 618 -7 C565 -7 529 77 529 204 L529 204 Z M475 194 C475 72 532 -10 617 -10 C705 -10 763 74 763 201 C763 317 705 395 617 395 C532 395 475 315 475 194 L475 194 Z M172 -1 L620 749 L617 751 L168 1 L172 -1 L172 -1 Z " />
<glyph glyph-name="fraction" unicode="&#x2044;" horiz-adv-x="489" d="M32 -1 L480 749 L477 751 L28 1 L32 -1 L32 -1 Z " />
<glyph glyph-name="Euro" unicode="&#x20ac;" horiz-adv-x="719" d="M673 12 L673 122 C666 114 658 105 650 97 C658 105 665 113 672 122 L664 129 L664 129 L672 122 L672 206 L656 206 C654 199 652 188 650 181 C635 121 591 61 540 29 C500 5 457 -9 409 -9 C284 -9 197 116 181 310 L463 310 L469 349 L179 349 C179 365 179 382 180 398 L470 398 L475 437 L183 437 C199 630 290 755 420 755 C466 755 504 743 539 723 C590 693 634 631 651 567 C653 560 655 549 657 542 L673 542 L673 733 L664 733 C663 726 663 718 662 711 C659 679 635 675 601 699 C555 736 500 758 420 758 C252 758 134 632 113 437 L62 437 L56 398 L110 398 C109 382 109 365 110 349 L56 349 L50 310 L113 310 C133 115 247 -11 410 -11 C516 -11 589 30 650 94 C632 76 613 59 598 48 C633 73 659 66 662 33 C663 26 663 18 664 11 L673 12 L673 12 Z M598 48 C597 47 596 46 595 45 C596 46 597 47 598 48 L598 48 Z " />
<glyph glyph-name="F_sc" unicode="&#xa730;" horiz-adv-x="500" d="M362 173 L362 428 L350 428 L342 382 C334 334 298 302 250 302 L205 302 L205 582 L320 582 C368 582 408 550 422 502 L435 456 L447 456 C443 494 437 545 432 583 L51 583 L51 576 L77 576 C119 576 147 548 147 506 L147 77 C147 35 119 7 77 7 L51 7 L51 0 L301 0 L301 7 L275 7 C233 7 205 35 205 77 L205 299 L250 299 C298 299 334 267 342 219 L350 173 L362 173 L362 173 Z " />
<glyph glyph-name="S_sc" unicode="&#xa731;" horiz-adv-x="462" d="M190 -5 L191 -1 C211 -7 232 -10 253 -10 C354 -10 422 51 422 142 C422 210 371 278 271 322 C170 366 118 421 118 469 C118 557 169 606 247 587 C296 572 339 519 356 449 C358 441 360 429 362 421 L379 421 L379 602 L369 602 C368 597 368 589 367 584 C364 561 348 553 325 561 C298 578 266 589 229 594 L231 592 C137 600 75 541 75 447 C75 379 130 309 238 262 C330 221 378 170 378 125 C378 46 329 -7 255 -7 C231 -7 207 -1 184 10 C137 35 96 95 79 166 C77 175 75 186 73 195 L56 195 L56 -22 L66 -22 C67 -14 67 -4 68 4 C71 41 99 50 136 26 L136 26 C153 15 174 3 193 -4 L190 -5 L190 -5 Z M374 497 L374 497 L374 497 L374 497 Z " />
<glyph glyph-name="X_sc" unicode="&#xf078;" horiz-adv-x="626" d="M380 0 L602 0 L602 7 C563 7 533 22 509 57 L345 319 L502 528 C527 557 563 576 594 576 L625 576 L625 583 L402 583 L402 576 L458 576 C491 576 498 554 476 521 L476 521 L343 323 C302 389 260 455 219 521 C198 554 207 576 240 576 L276 576 L276 583 L55 583 L55 576 C93 576 123 561 147 527 L302 278 C251 206 200 134 148 62 C124 29 87 7 54 7 L23 7 L23 0 L243 0 L243 7 L187 7 C154 7 147 29 170 62 L169 62 L309 267 C351 199 395 130 437 62 C458 29 449 7 416 7 L380 7 L380 0 L380 0 Z " />
</font>
</svg>
