<?xml version="1.0" encoding="UTF-8"?>
<svg xmlns="http://www.w3.org/2000/svg" xmlns:xlink="http://www.w3.org/1999/xlink" version="1.2" >
<font id="Gunma Regular">
<font-face  font-family="Gunma" units-per-em="1024" ascent="975" descent="-300" font-style="normal" font-weight="400" font-stretch="normal" cap-height="1044" x-height="488" underline-position="-125" underline-thickness="50" />
<missing-glyph  horiz-adv-x="100" d="" />
<glyph glyph-name="NULL" d="" />
<glyph glyph-name="CR" unicode="&#xd;" horiz-adv-x="256" d="" />
<glyph glyph-name="space" unicode="&#x20;" horiz-adv-x="208" d="" />
<glyph glyph-name="exclam" unicode="&#x21;" horiz-adv-x="244" d="M122 -5 C158 -5 182 19 182 55 C182 91 158 115 122 115 C86 115 62 91 62 55 C62 19 86 -5 122 -5 L122 -5 Z M122 755 C81 755 64 713 70 650 L114 210 L130 210 L174 650 C180 713 163 755 122 755 L122 755 Z " />
<glyph glyph-name="quotedbl" unicode="&#x22;" horiz-adv-x="291" d="M212 750 C193 750 181 732 187 705 L217 560 L227 560 L257 705 C263 732 252 750 232 750 L212 750 L212 750 Z M92 750 C73 750 61 732 67 705 L97 560 L107 560 L137 705 C143 732 132 750 112 750 L92 750 L92 750 Z " />
<glyph glyph-name="numbersign" unicode="&#x23;" horiz-adv-x="489" d="M361 667 L335 493 L204 493 L230 667 L222 667 L196 493 L67 493 L58 427 L186 427 L157 233 L26 233 L16 167 L147 167 L122 0 L130 0 L155 167 L286 167 L261 0 L268 0 L293 167 L412 167 L422 233 L303 233 L332 427 L460 427 L469 493 L342 493 L368 667 L361 667 L361 667 Z M194 427 L325 427 L296 233 L165 233 L194 427 L194 427 Z " />
<glyph glyph-name="dollar" unicode="&#x24;" horiz-adv-x="518" d="M50 231 L50 9 L60 9 C61 17 61 27 62 35 C65 70 89 76 122 52 C146 31 173 15 202 5 L202 -73 L232 -73 L232 -4 C249 -7 264 -8 282 -7 L282 -72 L312 -72 L312 -4 C413 12 478 89 478 199 C478 296 421 383 312 426 L312 738 C356 713 397 654 416 587 C418 580 420 569 422 562 L439 562 L439 748 L429 748 C428 743 428 736 427 731 C424 709 408 703 385 715 C364 732 340 745 314 753 L314 829 L284 829 L284 761 C268 764 252 765 234 764 L234 829 L204 829 L204 760 C120 743 66 670 66 567 C66 475 113 393 204 345 L204 21 C143 55 98 126 75 210 C73 217 71 228 69 235 L50 231 L50 231 Z M67 158 L67 158 L67 158 L67 158 Z M234 331 C251 324 269 318 284 311 L284 2 C266 1 251 3 234 8 L234 331 L234 331 Z M314 294 C371 259 400 215 400 171 C400 88 367 28 314 8 L314 294 L314 294 Z M234 465 L234 757 C252 759 268 756 284 751 L284 438 C266 446 249 455 234 465 L234 465 Z M204 487 C165 521 145 562 145 604 C145 673 168 725 204 746 L204 487 L204 487 Z " />
<glyph glyph-name="percent" unicode="&#x25;" horiz-adv-x="783" d="M114 570 C114 680 137 754 171 754 C211 754 237 667 237 536 C237 431 213 361 176 361 C139 361 114 445 114 570 L114 570 Z M30 553 C30 434 88 355 174 355 C259 355 316 439 316 565 C316 682 259 760 174 760 C88 760 30 677 30 553 L30 553 Z M552 209 C552 317 577 389 615 389 C661 389 691 303 691 175 C691 68 663 -4 620 -4 C579 -4 552 81 552 209 L552 209 Z M468 192 C468 71 528 -10 618 -10 C710 -10 771 76 771 204 C771 319 710 395 618 395 C528 395 468 314 468 192 L468 192 Z M178 -3 L626 747 L618 753 L169 3 L178 -3 L178 -3 Z " />
<glyph glyph-name="ampersand" unicode="&#x26;" horiz-adv-x="901" d="M326 465 C424 497 489 555 489 612 C489 701 419 761 315 761 C213 761 145 697 145 600 C145 560 181 509 238 440 C119 401 40 307 40 201 C40 76 122 -8 245 -8 C333 -8 424 40 507 125 C516 114 525 103 535 92 C585 32 651 -8 700 -8 C770 -8 824 54 835 148 L820 153 C813 98 779 61 735 61 C697 61 647 91 609 136 C593 155 578 173 563 190 C628 273 686 379 730 501 L710 501 C667 384 610 285 545 211 C391 394 363 422 326 467 L326 465 L326 465 Z M318 477 C258 550 220 603 220 646 C220 704 258 742 315 742 C378 742 420 692 420 618 C420 555 380 499 319 477 L318 477 L318 477 Z M485 152 C423 100 357 71 293 71 C194 71 128 133 128 226 C128 322 173 402 243 432 C290 375 313 353 483 151 L485 152 L485 152 Z " />
<glyph glyph-name="quotesingle" unicode="&#x27;" horiz-adv-x="188" d="M92 750 C73 750 61 732 67 705 L97 560 L107 560 L137 705 C143 732 132 750 112 750 L92 750 L92 750 Z " />
<glyph glyph-name="parenleft" unicode="&#x28;" horiz-adv-x="222" d="M201 760 C116 659 60 522 60 273 C60 24 116 -113 201 -214 L212 -205 C160 -144 126 -20 126 273 C126 566 160 690 212 751 L201 760 L201 760 Z " />
<glyph glyph-name="parenright" unicode="&#x29;" horiz-adv-x="167" d="M5 750 C60 714 97 523 97 273 C97 23 60 -168 5 -204 L10 -214 C98 -157 157 38 157 273 C157 508 98 703 10 760 L5 750 L5 750 Z " />
<glyph glyph-name="asterisk" unicode="&#x2a;" horiz-adv-x="296" d="M245 716 L245 716 L151 632 L176 750 C180 770 170 783 150 783 C130 783 120 770 124 750 L148 633 L59 713 C44 726 27 724 17 707 C7 689 14 674 33 667 L147 630 L33 593 C14 586 7 571 17 554 C27 536 44 534 59 547 C51 561 33 593 33 593 L59 547 L148 627 L124 510 C120 490 130 477 150 477 C170 477 180 490 176 510 L151 628 L241 547 C256 534 273 536 283 554 C292 570 285 584 268 591 L265 592 L153 629 L266 666 C285 673 292 688 282 706 C272 723 258 727 243 715 L245 716 L245 716 Z " />
<glyph glyph-name="plus" unicode="&#x2b;" horiz-adv-x="587" d="M261 444 L261 280 L100 280 L100 220 L261 220 L261 57 L327 57 L327 220 L487 220 L487 280 L327 280 L327 444 L261 444 L261 444 Z " />
<glyph glyph-name="comma" unicode="&#x2c;" horiz-adv-x="259" d="M172 33 C192 -48 143 -107 65 -107 L65 -111 C139 -111 189 -62 189 11 C189 55 176 89 155 105 C147 112 137 116 125 116 C89 116 65 92 65 56 C65 20 89 -4 125 -4 C148 -4 165 11 171 34 L172 33 L172 33 Z " />
<glyph glyph-name="hyphen" unicode="&#x2d;" horiz-adv-x="397" d="M80 250 L317 250 L317 320 L80 320 L80 250 L80 250 Z " />
<glyph glyph-name="period" unicode="&#x2e;" horiz-adv-x="195" d="M125 -5 C161 -5 185 19 185 55 C185 91 161 115 125 115 C89 115 65 91 65 55 C65 19 89 -5 125 -5 L125 -5 Z " />
<glyph glyph-name="slash" unicode="&#x2f;" horiz-adv-x="389" d="M309 770 L27 -80 L77 -80 L359 770 L309 770 L309 770 Z " />
<glyph glyph-name="zero" unicode="0" horiz-adv-x="610" d="M85 250 C85 372 173 475 305 475 C424 475 525 385 525 250 C525 128 437 25 305 25 C186 25 85 115 85 250 L85 250 Z M45 250 C45 94 165 -10 305 -10 C461 -10 565 110 565 250 C565 406 445 510 305 510 C149 510 45 390 45 250 L45 250 Z " />
<glyph glyph-name="one" unicode="1" horiz-adv-x="337" d="M287 7 L261 7 C231 7 211 27 211 57 L211 443 C211 473 231 493 261 493 L287 493 L287 500 L50 500 L50 493 L76 493 C106 493 126 473 126 443 L126 57 C126 27 106 7 76 7 L50 7 L50 0 L287 0 L287 7 L287 7 Z " />
<glyph glyph-name="two" unicode="2" horiz-adv-x="508" d="M382 75 C333 75 258 75 166 75 C305 160 407 253 407 344 C407 443 345 509 251 509 C151 509 68 423 43 293 L60 289 C78 382 137 444 207 444 C276 444 322 396 322 324 C322 225 234 137 116 63 C83 45 51 25 16 7 L28 -2 C30 -1 32 0 34 1 C33 0 32 -1 31 -2 C211 -2 395 -3 395 -3 L442 72 C442 72 476 121 478 123 L476 128 C457 97 420 76 380 73 L382 75 L382 75 Z " />
<glyph glyph-name="three" unicode="3" horiz-adv-x="401" d="M17 -215 L20 -232 C225 -210 361 -115 361 7 C361 105 281 173 159 180 C274 238 347 307 347 386 C347 460 288 510 199 510 C114 510 42 446 20 351 L39 346 C53 408 104 450 165 450 C220 450 256 413 256 357 C256 270 193 210 99 170 L99 153 C203 138 272 70 272 -17 C272 -120 170 -199 17 -215 L17 -215 Z " />
<glyph glyph-name="four" unicode="4" horiz-adv-x="557" d="M539 126 L534 110 C528 83 506 65 479 65 L382 65 L382 530 L371 530 L15 15 L15 0 L297 0 L297 -220 L382 -220 L382 0 L470 0 C501 0 515 -18 515 -46 C515 -46 523 -49 525 -49 C529 -24 533 8 537 33 L536 33 C540 60 545 96 549 123 C547 123 539 126 539 126 L539 126 Z M89 65 L297 371 L297 65 L89 65 L89 65 Z " />
<glyph glyph-name="five" unicode="5" horiz-adv-x="403" d="M261 500 L77 500 L31 201 L47 187 L85 187 C213 187 298 121 298 21 C298 -105 202 -200 59 -218 L60 -234 C248 -211 373 -97 373 50 C373 186 261 277 94 277 L72 277 L93 424 L310 426 L321 490 C325 509 329 529 332 546 L321 546 C313 519 292 500 261 500 L261 500 Z " />
<glyph glyph-name="six" unicode="6" horiz-adv-x="535" d="M517 750 C237 690 50 507 50 291 C50 110 139 -10 273 -10 C398 -10 482 90 482 239 C482 372 401 461 279 461 C227 461 184 438 156 399 C206 570 339 699 519 737 L517 750 L517 750 Z M134 246 C134 372 191 456 276 456 C348 456 396 371 396 243 C396 94 346 -5 271 -5 C189 -5 134 95 134 246 L134 246 Z " />
<glyph glyph-name="seven" unicode="7" horiz-adv-x="407" d="M40 379 L45 387 C59 411 84 427 109 430 L374 428 L107 -220 L172 -220 L403 485 L403 500 L143 500 C111 500 103 516 110 538 C110 538 100 542 98 544 C91 531 86 516 81 501 L81 501 L55 433 C47 417 39 400 33 386 C35 385 41 380 41 380 L40 379 L40 379 Z " />
<glyph glyph-name="eight" unicode="8" horiz-adv-x="510" d="M198 375 C208 369 218 364 229 359 C333 313 403 271 403 207 C403 79 343 -7 254 -7 C170 -7 114 65 114 173 C114 261 146 337 198 375 L198 375 Z M190 379 C98 332 39 253 39 173 C39 63 125 -11 253 -11 C383 -11 469 62 469 172 C469 301 404 366 303 417 C388 460 442 529 442 597 C442 694 366 759 251 759 C139 759 64 687 64 579 C64 495 113 425 189 380 L190 379 L190 379 Z M294 422 C283 427 272 432 261 437 C183 471 131 534 131 612 C131 699 180 757 254 757 C323 757 369 690 369 590 C369 519 340 456 293 422 L294 422 L294 422 Z " />
<glyph glyph-name="nine" unicode="9" horiz-adv-x="535" d="M18 -250 C298 -190 485 -7 485 209 C485 390 396 510 262 510 C137 510 53 410 53 261 C53 128 134 39 256 39 C308 39 351 62 379 101 C329 -70 196 -199 16 -237 L18 -250 L18 -250 Z M401 254 C401 128 344 44 259 44 C187 44 139 129 139 257 C139 406 189 505 264 505 C346 505 401 405 401 254 L401 254 Z " />
<glyph glyph-name="colon" unicode="&#x3a;" horiz-adv-x="135" d="M125 385 C161 385 185 409 185 445 C185 481 161 505 125 505 C89 505 65 481 65 445 C65 409 89 385 125 385 L125 385 Z M125 -5 C161 -5 185 19 185 55 C185 91 161 115 125 115 C89 115 65 91 65 55 C65 19 89 -5 125 -5 L125 -5 Z " />
<glyph glyph-name="semicolon" unicode="&#x3b;" horiz-adv-x="259" d="M125 385 C161 385 185 409 185 445 C185 481 161 505 125 505 C89 505 65 481 65 445 C65 409 89 385 125 385 L125 385 Z M172 33 C192 -48 143 -107 65 -107 L65 -111 C139 -111 189 -62 189 11 C189 55 176 89 155 105 C147 112 137 116 125 116 C89 116 65 92 65 56 C65 20 89 -4 125 -4 C148 -4 165 11 171 34 L172 33 L172 33 Z " />
<glyph glyph-name="equal" unicode="&#x3d;" horiz-adv-x="500" d="M83 219 L83 181 L430 181 L430 219 L83 219 L83 219 Z M83 319 L83 281 L430 281 L430 319 L83 319 L83 319 Z " />
<glyph glyph-name="question" unicode="&#x3f;" horiz-adv-x="299" d="M125 -5 C161 -5 185 19 185 55 C185 91 161 115 125 115 C89 115 65 91 65 55 C65 19 89 -5 125 -5 L125 -5 Z M125 210 L125 360 C218 360 251 394 285 444 C303 471 315 515 315 555 C315 678 247 760 145 760 C97 760 65 735 65 697 C65 672 83 655 111 655 C131 655 157 670 176 670 C244 670 289 620 289 545 C289 529 280 505 266 485 C248 458 222 440 97 440 C105 437 110 210 110 210 L125 210 L125 210 Z M97 440 L97 440 L97 440 L97 440 Z " />
<glyph glyph-name="at" unicode="&#x40;" horiz-adv-x="1110" d="M991 0 C924 -143 754 -238 566 -238 C300 -238 122 -39 122 259 C122 556 295 754 555 754 C815 754 989 590 989 343 C989 141 918 7 811 7 C719 7 677 84 706 200 L776 480 L696 480 L677 404 C662 457 618 490 559 490 C389 490 276 371 276 192 C276 82 342 8 440 8 C515 8 581 49 619 115 C628 31 692 -21 796 -21 C951 -21 1055 125 1055 344 C1055 605 855 779 555 779 C255 779 55 571 55 260 C55 -47 267 -252 585 -252 C775 -252 949 -151 1020 1 L991 0 L991 0 Z M665 357 L626 201 C604 114 547 56 484 56 C416 56 370 117 370 209 C370 364 445 467 557 467 C622 467 665 423 665 357 L665 357 Z " />
<glyph glyph-name="A" unicode="A" horiz-adv-x="714" d="M397 0 L711 0 L711 9 L699 9 C655 9 614 49 596 109 C531 329 467 550 401 770 L391 770 C395 747 365 727 316 720 L319 710 C265 510 212 309 158 109 C142 49 91 9 31 9 L5 9 L5 0 L262 0 L262 9 L238 9 C178 9 149 49 165 109 L165 109 L214 294 L439 294 L495 100 C507 45 478 9 421 9 L398 9 L397 0 L397 0 Z M216 299 L322 703 L438 299 L216 299 L216 299 Z " />
<glyph glyph-name="B" unicode="B" horiz-adv-x="629" d="M349 2 L299 2 C261 2 236 23 236 55 L236 385 L367 385 C434 385 479 309 479 195 C479 39 427 2 349 2 L349 2 Z M60 741 L86 741 C116 741 136 721 136 691 L136 59 C136 29 116 9 86 9 L60 9 L60 0 L356 0 C496 0 589 37 589 195 C589 309 509 386 388 389 C494 406 561 474 561 570 C561 678 513 750 307 750 L60 750 L60 741 L60 741 Z M334 389 L236 389 L236 746 C236 746 298 746 298 745 C430 745 461 671 461 560 C461 457 410 389 334 389 L334 389 Z " />
<glyph glyph-name="C" unicode="C" horiz-adv-x="699" d="M655 10 L655 212 L638 212 C636 205 634 196 632 189 C615 130 568 69 515 35 L515 34 C476 9 434 -5 388 -5 C251 -5 160 147 160 375 C160 602 255 754 397 754 C517 754 604 657 632 561 C634 554 636 545 638 538 L655 538 L655 737 L645 737 C644 731 644 722 643 716 C639 684 613 680 578 706 C532 740 476 760 395 760 C188 760 50 606 50 375 C50 144 184 -10 386 -10 C467 -10 529 12 580 49 C615 71 639 65 643 32 C644 25 644 17 645 10 L655 10 L655 10 Z M643 131 L643 131 L643 131 L643 131 Z " />
<glyph glyph-name="D" unicode="D" horiz-adv-x="802" d="M296 4 C242 4 236 23 236 51 L236 746 L319 746 C529 746 637 598 637 375 C637 130 501 4 296 4 L296 4 Z M60 743 L86 743 C116 743 136 723 136 693 L136 57 C136 27 116 7 86 7 L60 7 L60 0 L303 0 C569 0 747 128 747 375 C747 600 607 750 336 750 L60 750 L60 743 L60 743 Z " />
<glyph glyph-name="E" unicode="E" horiz-adv-x="606" d="M453 259 L453 516 L441 516 L433 470 C425 422 389 390 341 390 L236 390 L236 745 L402 745 C450 745 490 713 504 665 L517 619 L529 619 C525 658 518 709 514 748 L513 748 L513 750 L40 750 L40 743 L66 743 C108 743 136 715 136 673 L136 77 C136 35 108 7 66 7 L40 7 L40 0 L538 0 L538 2 C545 38 553 85 559 121 L547 121 L541 104 C521 45 465 5 402 5 L287 5 C241 5 236 23 236 51 L236 385 L341 385 C389 385 425 353 433 305 L441 259 L453 259 L453 259 Z " />
<glyph glyph-name="F" unicode="F" horiz-adv-x="581" d="M443 259 L443 516 L431 516 L423 470 C415 422 379 390 331 390 L236 390 L236 746 L401 746 C449 746 489 714 503 666 L516 620 L528 620 C524 658 517 710 513 748 L513 750 L40 750 L40 743 L66 743 C108 743 136 715 136 673 L136 77 C136 35 108 7 66 7 L40 7 L40 0 L332 0 L332 7 L306 7 C264 7 236 35 236 77 L236 385 L331 385 C379 385 415 353 423 305 L431 259 L443 259 L443 259 Z " />
<glyph glyph-name="G" unicode="G" horiz-adv-x="773" d="M655 538 L655 737 L645 737 C644 731 644 722 643 716 C639 684 613 680 578 706 C532 740 476 760 395 760 C188 760 50 606 50 375 C50 144 189 -10 397 -10 C541 -10 634 14 712 51 L710 54 C690 45 667 37 639 30 L639 231 C639 282 668 316 712 316 L725 316 L725 325 L453 325 L453 316 L466 316 C510 316 539 282 539 231 C540 231 540 116 540 105 C538 48 487 10 411 10 C259 10 158 156 158 375 C158 602 253 754 395 754 C515 754 602 657 630 561 C632 554 634 545 636 538 L655 538 L655 538 Z " />
<glyph glyph-name="H" unicode="H" horiz-adv-x="804" d="M744 7 L718 7 C688 7 668 27 668 57 L668 693 C668 723 688 743 718 743 L744 743 L744 750 L492 750 L492 743 L518 743 C548 743 568 723 568 693 L568 389 L272 389 L272 693 C272 723 292 743 322 743 L348 743 L348 750 L96 750 L96 743 L122 743 C152 743 172 723 172 693 L172 57 C172 27 152 7 122 7 L96 7 L96 0 L348 0 L348 7 L322 7 C292 7 272 27 272 57 L272 383 L568 383 L568 57 C568 27 548 7 518 7 L492 7 L492 0 L744 0 L744 7 L744 7 Z " />
<glyph glyph-name="I" unicode="I" horiz-adv-x="367" d="M307 7 L281 7 C251 7 231 27 231 57 L231 693 C231 723 251 743 281 743 L307 743 L307 750 L55 750 L55 743 L81 743 C111 743 131 723 131 693 L131 57 C131 27 111 7 81 7 L55 7 L55 0 L307 0 L307 7 L307 7 Z " />
<glyph glyph-name="J" unicode="J" horiz-adv-x="367" d="M307 750 L55 750 L55 743 L81 743 C111 743 131 723 131 693 L131 -72 C131 -190 66 -212 19 -212 C-30 -212 -6 -132 -56 -132 C-83 -132 -101 -150 -101 -177 C-101 -203 -55 -220 13 -220 C105 -220 231 -166 231 116 L231 693 C231 723 251 743 281 743 L307 743 L307 750 L307 750 Z " />
<glyph glyph-name="K" unicode="K" horiz-adv-x="713" d="M312 750 L60 750 L60 743 L86 743 C116 743 136 723 136 693 L136 57 C136 27 116 7 86 7 L60 7 L60 0 L312 0 L312 7 L286 7 C256 7 236 27 236 57 L236 375 L512 0 L708 0 L708 7 L682 7 C655 7 623 24 601 50 L309 441 L490 682 C519 719 563 744 601 744 L632 744 L632 751 L357 751 L357 744 L398 744 C458 744 470 704 427 644 L427 644 L237 376 L237 694 C237 724 257 744 287 744 L313 744 L312 750 L312 750 Z " />
<glyph glyph-name="L" unicode="L" horiz-adv-x="591" d="M307 750 L55 750 L55 743 L81 743 C111 743 131 723 131 693 L131 57 C131 27 111 7 81 7 L55 7 L55 0 L525 0 L525 13 C532 49 540 96 546 132 L534 132 L528 115 C508 56 452 16 389 16 L282 16 C236 16 231 30 231 50 L231 692 C231 722 251 742 281 742 L307 742 L307 750 L307 750 Z " />
<glyph glyph-name="M" unicode="M" horiz-adv-x="841" d="M578 0 L830 0 L830 7 L804 7 C776 7 756 25 753 52 C746 266 739 480 733 693 C732 723 751 743 781 743 L807 743 L807 750 L636 750 L448 134 L243 750 L50 750 L50 743 L76 743 C106 743 133 723 144 694 L124 52 C121 25 101 7 73 7 L47 7 L47 0 L234 0 L234 7 L208 7 C178 7 158 27 159 57 L169 629 C248 419 328 210 407 0 L432 0 L639 648 L654 49 C652 23 633 6 606 6 L580 6 L578 0 L578 0 Z " />
<glyph glyph-name="N" unicode="N" horiz-adv-x="726" d="M-16 743 L10 743 C37 743 68 726 88 700 L129 639 L128 56 C128 26 108 6 78 6 L52 6 L52 -1 L234 -1 L234 6 L208 6 C178 6 158 26 158 56 L158 56 L155 600 C291 400 427 200 562 -1 L582 -1 L589 700 C592 725 612 741 639 741 L665 741 L665 748 L483 748 L483 741 L509 741 C539 741 559 721 559 691 L559 691 L561 177 C434 368 306 558 178 748 L-17 748 L-16 743 L-16 743 Z " />
<glyph glyph-name="O" unicode="O" horiz-adv-x="810" d="M159 375 C159 602 254 754 397 754 C546 754 646 602 646 375 C646 148 543 -4 389 -4 C251 -4 159 148 159 375 L159 375 Z M50 375 C50 144 185 -10 388 -10 C608 -10 755 144 755 375 C755 606 612 760 398 760 C189 760 50 606 50 375 L50 375 Z " />
<glyph glyph-name="P" unicode="P" horiz-adv-x="567" d="M337 7 L311 7 C281 7 261 27 261 57 L261 344 L303 344 C449 344 547 404 547 539 C547 666 466 750 344 750 L85 750 L85 743 L111 743 C141 743 161 723 161 693 L161 57 C161 27 141 7 111 7 L85 7 L85 0 L337 0 L337 7 L337 7 Z M261 365 L261 733 L319 733 C400 733 454 662 454 555 C454 424 394 365 303 365 L261 365 L261 365 Z " />
<glyph glyph-name="Q" unicode="Q" horiz-adv-x="805" d="M1064 -51 L1062 -49 C1032 -74 915 -91 769 -91 C588 -91 419 -57 334 -6 C351 -9 369 -10 388 -10 C608 -10 755 144 755 375 C755 606 612 760 398 760 C189 760 50 606 50 375 C50 212 117 87 228 28 C372 -82 585 -156 758 -156 C867 -156 989 -114 1064 -51 L1064 -51 Z M159 375 C159 602 254 754 397 754 C546 754 646 602 646 375 C646 146 540 -7 382 -7 C248 -7 159 146 159 375 L159 375 Z " />
<glyph glyph-name="R" unicode="R" horiz-adv-x="708" d="M60 743 L86 743 C116 743 136 723 136 693 L136 57 C136 27 116 7 86 7 L60 7 L60 0 L312 0 L312 7 L286 7 C256 7 236 27 236 57 L236 355 L304 355 C322 316 384 207 469 67 C508 3 517 0 698 0 L698 7 C626 7 621 9 586 67 C498 212 432 321 405 365 C501 386 561 442 561 539 C561 666 460 751 309 751 L60 751 L60 743 L60 743 Z M236 381 L236 731 L279 731 C382 731 451 662 451 559 C451 436 394 381 309 381 L236 381 L236 381 Z " />
<glyph glyph-name="S" unicode="S" horiz-adv-x="518" d="M65 154 L65 154 L65 154 L65 154 Z M50 231 L50 9 L60 9 C61 17 61 27 62 35 C65 70 89 76 122 52 C166 14 219 -9 272 -9 C396 -9 478 73 478 197 C478 297 418 386 302 428 C197 466 143 532 143 602 C143 724 208 785 303 742 L303 742 C350 720 395 658 415 586 C417 579 419 568 421 561 L438 561 L438 747 L428 747 C427 742 427 735 426 730 C423 708 407 702 384 714 C346 745 296 763 243 763 C136 763 65 684 65 566 C65 461 126 369 243 326 C346 289 399 230 399 170 C399 68 349 0 273 0 C240 0 205 14 173 40 C132 74 93 140 74 209 C72 216 70 227 68 234 L50 231 L50 231 Z " />
<glyph glyph-name="T" unicode="T" horiz-adv-x="741" d="M663 786 L659 781 C648 762 607 750 559 750 L183 750 C135 750 94 762 83 781 L79 786 L70 786 C63 771 54 753 48 738 C32 699 22 648 6 609 L18 609 L37 640 C66 691 119 725 170 725 L321 725 L321 57 C321 27 301 7 271 7 L245 7 L245 0 L497 0 L497 7 L471 7 C441 7 421 27 421 57 L421 725 L572 725 C623 725 676 691 705 640 L724 609 L736 609 C720 648 709 699 693 738 C687 753 679 771 672 786 L663 786 L663 786 Z " />
<glyph glyph-name="U" unicode="U" horiz-adv-x="701" d="M671 40 L645 33 C615 25 595 40 595 70 L595 750 L419 750 L419 743 L445 743 C475 743 495 723 495 693 L495 183 C459 106 382 54 303 54 C242 54 201 118 201 213 L201 750 L25 750 L25 743 L51 743 C81 743 101 723 101 693 L101 213 C101 79 165 -10 262 -10 C360 -10 454 49 495 138 L495 0 L545 0 C549 1 595 11 595 13 C621 20 648 27 671 33 L671 40 L671 40 Z " />
<glyph glyph-name="V" unicode="V" horiz-adv-x="747" d="M729 750 L470 750 L470 741 L508 741 C566 741 592 703 575 646 L404 144 L216 643 C195 701 220 740 279 740 L302 740 L302 749 L-2 749 L-2 740 L8 740 C39 740 74 706 97 654 C182 432 266 210 351 -11 L371 -11 L610 640 C632 700 674 740 716 740 L728 740 L729 750 L729 750 Z " />
<glyph glyph-name="W" unicode="W" horiz-adv-x="1051" d="M275 750 L1 750 L1 741 L11 741 C45 741 79 709 96 661 L96 661 C177 437 258 213 339 -11 L364 -11 L528 453 C584 298 640 144 696 -11 L721 -11 L909 671 C925 713 961 740 1001 740 L1014 740 L1014 749 L755 749 L755 740 L809 740 C857 740 880 708 868 660 L868 660 L734 137 L558 669 C548 712 570 740 615 740 L653 740 L653 749 L354 749 L354 740 L365 740 C401 740 437 708 454 660 L454 660 C473 606 493 552 512 499 L384 119 C325 299 264 480 206 660 C190 708 211 740 259 740 L277 740 L275 750 L275 750 Z " />
<glyph glyph-name="X" unicode="X" horiz-adv-x="756" d="M247 7 L191 7 C160 7 150 27 167 57 L337 326 C389 238 442 149 493 61 C512 28 504 6 471 6 L434 6 L434 -1 L706 -1 L706 6 C669 6 639 21 616 55 L401 419 L608 694 C633 723 669 742 700 742 L731 742 L731 749 L489 749 L489 742 L545 742 C577 742 585 721 566 689 L397 427 C346 513 294 600 244 686 C224 719 233 741 266 741 L303 741 L303 748 L32 748 L32 741 C69 741 98 727 120 695 L326 346 L129 52 C107 23 73 4 43 4 L12 4 L12 -3 L249 -3 L247 7 L247 7 Z " />
<glyph glyph-name="Y" unicode="Y" horiz-adv-x="675" d="M271 750 L0 750 L0 743 C36 743 65 729 87 697 L296 323 L296 78 C296 36 268 8 226 8 L200 8 L200 1 L492 1 L492 8 L466 8 C424 8 396 36 396 78 L396 338 L567 695 C584 725 614 744 645 744 L677 744 L677 751 L467 751 L467 744 L525 744 C558 744 569 722 554 689 L554 689 L394 345 L209 689 L210 689 C192 722 202 744 235 744 L272 744 L271 750 L271 750 Z " />
<glyph glyph-name="Z" unicode="Z" horiz-adv-x="615" d="M70 606 L74 624 C90 683 142 723 205 724 L205 724 L470 728 L25 20 L25 0 L573 0 L576 15 C577 15 588 66 606 146 L594 146 L587 128 C565 73 514 34 456 28 L142 22 L577 730 L577 750 L70 750 L67 722 L68 722 C66 702 63 660 58 606 L70 606 L70 606 Z " />
<glyph glyph-name="bracketleft" unicode="&#x5b;" horiz-adv-x="295" d="M135 725 L345 725 L345 750 L105 750 L105 -195 L345 -195 L345 -170 L135 -170 L135 725 L135 725 Z " />
<glyph glyph-name="backslash" unicode="&#x5c;" horiz-adv-x="347" d="M27 770 L287 -80 L337 -80 L77 770 L27 770 L27 770 Z " />
<glyph glyph-name="bracketright" unicode="&#x5d;" horiz-adv-x="298" d="M158 725 L158 -170 L-52 -170 L-52 -195 L188 -195 L188 750 L-52 750 L-52 725 L158 725 L158 725 Z " />
<glyph glyph-name="asciicircum" unicode="&#x5e;" horiz-adv-x="298" d="M179 755 C173 764 159 785 149 785 C140 785 126 764 120 755 L-3 566 L9 556 L149 695 L290 556 L301 566 L179 755 L179 755 Z " />
<glyph glyph-name="underscore" unicode="&#x5f;" horiz-adv-x="381" d="M5 -50 L5 -97 L376 -97 L376 -50 L5 -50 L5 -50 Z " />
<glyph glyph-name="grave" unicode="&#x60;" horiz-adv-x="298" d="M-54 746 C-54 738 -28 714 10 682 L152 562 L162 573 L49 721 C19 761 -4 788 -12 788 C-35 788 -54 769 -54 746 L-54 746 Z " />
<glyph glyph-name="a" unicode="a" horiz-adv-x="479" d="M489 103 L481 106 C476 76 452 56 421 56 C389 56 367 74 367 102 L367 355 C367 462 316 510 240 510 C135 510 65 414 65 360 C65 324 85 300 114 300 C141 300 159 325 159 343 C159 361 139 385 139 403 C139 439 177 504 233 504 C294 504 282 376 282 262 C121 169 44 121 44 88 C44 29 84 -10 145 -10 C180 -10 225 16 283 82 C291 29 330 -5 385 -5 C435 -5 477 38 488 103 L489 103 L489 103 Z M281 258 C281 163 279 107 281 86 C247 49 216 34 189 34 C152 34 128 59 128 96 C128 160 177 198 280 257 L281 258 L281 258 Z " />
<glyph glyph-name="b" unicode="b" horiz-adv-x="520" d="M10 718 L21 718 C48 720 66 703 66 676 L66 0 L71 0 L101 65 C137 19 195 -9 260 -9 C388 -9 474 96 474 254 C474 405 394 506 274 506 C226 506 179 477 150 432 L150 751 L108 751 C78 743 39 734 9 726 L10 718 L10 718 Z M150 111 L150 418 C174 455 211 478 247 478 C326 478 379 384 379 242 C379 98 332 2 262 2 C217 2 174 45 150 111 L150 111 Z " />
<glyph glyph-name="c" unicode="c" horiz-adv-x="462" d="M432 128 L429 129 C397 58 337 10 278 10 C191 10 133 115 133 273 C133 413 192 506 280 506 C298 506 325 466 347 405 C356 380 373 363 390 363 C424 363 441 380 432 405 C409 468 349 510 281 510 C139 510 45 400 45 236 C45 88 133 -10 266 -10 C329 -10 395 45 432 128 L432 128 Z " />
<glyph glyph-name="d" unicode="d" horiz-adv-x="558" d="M326 717 L337 717 C364 718 382 702 382 675 L382 419 C354 471 307 510 259 510 C118 510 45 406 45 251 C45 97 122 -5 238 -5 C290 -5 346 25 381 71 L381 0 L423 0 L423 -1 C459 9 506 22 542 31 L542 38 L516 31 C486 23 466 38 466 68 L466 750 L424 750 L381 739 C381 736 328 725 325 724 L326 717 L326 717 Z M381 375 L381 78 C357 49 314 30 272 30 C187 30 131 128 131 274 C131 401 178 485 268 485 C316 485 363 434 381 375 L381 375 Z " />
<glyph glyph-name="e" unicode="e" horiz-adv-x="494" d="M139 340 L464 340 C442 462 371 510 276 510 C137 510 45 432 45 231 C45 86 129 -10 255 -10 C338 -10 414 48 446 135 L443 135 C416 61 344 11 262 11 C186 11 135 113 135 266 C135 293 136 318 139 340 L139 340 Z M369 346 L140 345 C155 460 206 506 276 506 C314 506 349 461 370 345 L369 346 L369 346 Z " />
<glyph glyph-name="f" unicode="f" horiz-adv-x="333" d="M252 7 L211 7 C202 7 196 13 196 22 L196 455 L323 455 L323 500 L196 500 C196 637 224 729 279 729 C314 729 348 635 377 635 C404 635 422 653 422 680 C422 725 377 755 309 755 C178 755 111 653 111 500 L17 465 L17 455 L111 455 L111 22 C111 13 105 7 96 7 L55 7 L55 0 L252 0 L252 7 L252 7 Z " />
<glyph glyph-name="g" unicode="g" horiz-adv-x="487" d="M508 479 C508 510 486 530 453 530 C420 530 383 504 359 464 C330 493 288 510 238 510 C140 510 74 446 74 350 C74 265 125 205 204 191 C113 185 55 152 55 105 C55 52 87 14 137 3 C81 -16 45 -53 45 -95 C45 -176 127 -230 249 -230 C371 -230 452 -165 452 -68 C452 23 404 84 281 84 L171 84 C131 84 104 102 104 130 C104 165 158 188 239 188 C337 188 402 253 402 350 C402 395 388 433 363 461 C373 472 387 479 402 479 C423 479 450 444 471 444 C493 444 507 459 507 481 L508 479 L508 479 Z M238 194 C191 194 159 257 159 352 C159 446 191 508 238 508 C285 508 316 446 316 352 C316 257 285 194 238 194 L238 194 Z M147 3 C153 2 159 2 165 2 L270 2 C348 2 379 -33 379 -86 C379 -169 327 -224 248 -224 C168 -224 114 -164 114 -73 C114 -39 126 -11 146 3 L147 3 L147 3 Z " />
<glyph glyph-name="h" unicode="h" horiz-adv-x="534" d="M19 717 L30 717 C57 719 75 702 75 675 L75 22 C75 13 69 7 60 7 L19 7 L19 0 L216 0 L216 7 L175 7 C166 7 160 13 160 22 L160 380 C175 422 225 450 284 450 C336 450 363 402 363 330 L363 22 C363 13 357 7 348 7 L307 7 L307 0 L504 0 L504 7 L463 7 C454 7 448 13 448 22 L448 330 C448 438 409 510 333 510 C257 510 187 460 160 385 L160 750 L118 750 L118 751 C88 743 49 732 19 724 L19 717 L19 717 Z " />
<glyph glyph-name="i" unicode="i" horiz-adv-x="256" d="M128 615 C161 615 183 637 183 670 C183 703 161 725 128 725 C95 725 73 703 73 670 C73 637 95 615 128 615 L128 615 Z M29 467 L40 467 C67 469 85 452 85 425 L85 22 C85 13 79 7 70 7 L29 7 L29 0 L226 0 L226 7 L185 7 C176 7 170 13 170 22 L170 500 L128 500 C115 497 101 493 86 489 L85 489 C85 486 32 475 29 474 L29 467 L29 467 Z " />
<glyph glyph-name="j" unicode="j" horiz-adv-x="261" d="M129 615 C162 615 184 637 184 670 C184 703 162 725 129 725 C96 725 74 703 74 670 C74 637 96 615 129 615 L129 615 Z M30 467 L41 467 C68 469 86 452 86 425 L86 50 C86 -38 68 -107 41 -123 C8 -123 -36 -100 -69 -100 C-96 -100 -114 -116 -114 -140 C-114 -169 -90 -187 -54 -185 C-47 -185 -5 -163 51 -130 C123 -88 171 -16 171 50 L171 500 L129 500 C116 497 102 493 87 489 L86 489 C86 486 33 475 30 474 L30 467 L30 467 Z " />
<glyph glyph-name="k" unicode="k" horiz-adv-x="506" d="M19 717 L30 717 C57 719 75 702 75 675 L75 22 C75 13 69 7 60 7 L19 7 L19 0 L216 0 L216 7 L175 7 C166 7 160 13 160 22 L160 257 L324 43 C339 21 334 6 311 6 L301 6 L301 -1 L499 -1 L499 6 C474 6 451 19 427 46 L215 317 L352 434 C395 469 447 492 484 492 L496 492 L496 499 L249 499 L249 492 L306 492 C366 492 360 452 290 392 L211 323 L210 324 L159 282 L159 749 L117 749 C104 746 90 742 75 738 L74 738 C74 735 21 724 18 723 L19 717 L19 717 Z " />
<glyph glyph-name="l" unicode="l" horiz-adv-x="246" d="M19 718 L30 718 C57 720 75 703 75 676 L75 22 C75 13 69 7 60 7 L19 7 L19 0 L216 0 L216 7 L175 7 C166 7 160 13 160 22 L160 750 L118 750 C88 742 49 733 19 725 L19 718 L19 718 Z " />
<glyph glyph-name="m" unicode="m" horiz-adv-x="784" d="M19 468 L30 468 C57 470 75 453 75 426 L75 22 C75 13 69 7 60 7 L19 7 L19 0 L216 0 L216 7 L175 7 C166 7 160 13 160 22 L160 385 C174 422 219 447 273 447 C324 447 344 400 344 330 L344 22 C344 13 338 7 329 7 L288 7 L288 0 L485 0 L485 7 L444 7 C435 7 429 13 429 22 L429 330 C429 351 428 370 425 388 C440 423 486 447 542 447 C593 447 613 400 613 330 L613 22 C613 13 607 7 598 7 L557 7 L557 0 L754 0 L754 7 L713 7 C704 7 698 13 698 22 L698 330 C698 438 664 510 577 510 C512 510 450 463 424 392 C412 465 376 511 307 511 C245 511 185 463 159 391 L159 501 L117 501 C87 493 48 484 18 476 L19 468 L19 468 Z " />
<glyph glyph-name="n" unicode="n" horiz-adv-x="515" d="M20 469 L31 469 C57 470 74 456 76 432 C76 335 75 137 75 22 C75 13 69 7 60 7 L19 7 L19 0 L216 0 L216 7 L175 7 C166 7 160 13 160 22 L160 378 C180 432 229 468 283 468 C323 468 344 418 344 342 L344 22 C344 13 338 7 329 7 L288 7 L288 0 L485 0 L485 7 L444 7 C435 7 429 13 429 22 L429 342 C429 443 388 510 308 510 C245 510 186 462 160 391 L160 500 L118 500 L117 500 C117 500 28 478 20 476 L20 469 L20 469 Z " />
<glyph glyph-name="o" unicode="o" horiz-adv-x="580" d="M139 250 C139 402 199 504 290 504 C381 504 442 402 442 250 C442 98 381 -4 290 -4 C199 -4 139 98 139 250 L139 250 Z M45 250 C45 94 143 -10 290 -10 C437 -10 535 94 535 250 C535 406 437 510 290 510 C143 510 45 406 45 250 L45 250 Z " />
<glyph glyph-name="p" unicode="p" horiz-adv-x="518" d="M4 468 L15 468 C42 470 60 453 60 426 L60 -198 C60 -207 54 -213 45 -213 L4 -213 L4 -220 L201 -220 L201 -213 L160 -213 C151 -213 145 -207 145 -198 L145 26 C176 6 213 -5 253 -5 C385 -5 473 116 473 257 C473 409 394 510 276 510 C227 510 176 483 145 441 L145 501 L103 501 C73 493 34 484 4 476 L4 468 L4 468 Z M145 131 L145 407 C173 449 209 476 237 476 C322 476 379 378 379 231 C379 115 331 17 258 17 C211 17 166 63 145 131 L145 131 Z " />
<glyph glyph-name="q" unicode="q" horiz-adv-x="509" d="M504 -213 L463 -213 C454 -213 448 -207 448 -198 L448 500 L443 500 L415 440 L414 439 C378 483 322 510 260 510 C109 510 31 406 31 251 C31 114 116 22 243 22 C272 22 319 40 363 68 L363 -198 C363 -207 357 -213 348 -213 L307 -213 L307 -220 L504 -220 L504 -213 L504 -213 Z M256 491 C299 491 341 451 364 390 L364 98 C318 68 270 49 243 49 C169 49 120 139 120 275 C120 405 167 491 257 491 L256 491 L256 491 Z " />
<glyph glyph-name="r" unicode="r" horiz-adv-x="371" d="M20 468 L31 468 C58 470 76 453 76 426 L76 22 C76 13 70 7 61 7 L20 7 L20 0 L217 0 L217 7 L176 7 C167 7 161 13 161 22 L161 399 C173 443 203 471 242 471 C253 471 261 457 261 436 C261 406 281 386 311 386 C341 386 361 406 361 436 C361 481 329 511 282 511 C222 511 176 472 161 411 L161 501 L119 501 C89 493 50 484 20 476 L20 468 L20 468 Z " />
<glyph glyph-name="s" unicode="s" horiz-adv-x="395" d="M320 351 L320 501 L313 501 C312 497 312 492 311 488 C310 478 287 480 254 493 C234 503 212 509 190 509 C111 509 58 457 58 379 C58 301 99 238 179 217 C245 199 279 156 279 105 C279 14 213 -38 148 14 C110 45 81 102 68 167 L60 167 L60 7 L67 7 C68 12 68 17 69 22 C71 37 96 31 132 9 L132 9 C153 -4 176 -11 198 -11 C286 -11 345 45 345 129 C345 200 301 258 217 281 C152 298 119 348 119 408 C119 474 159 522 216 501 L216 501 C260 484 297 422 311 351 L320 351 L320 351 Z " />
<glyph glyph-name="t" unicode="t" horiz-adv-x="358" d="M312 500 L176 500 L176 620 L170 620 L26 466 L26 456 L91 456 L91 160 C91 38 143 -10 220 -10 C274 -10 325 32 348 96 L337 100 C322 58 285 30 246 30 C203 30 174 61 174 141 L176 455 L312 455 L312 500 L312 500 Z " />
<glyph glyph-name="u" unicode="u" horiz-adv-x="492" d="M477 36 L461 31 C431 23 411 38 411 68 L411 500 L270 500 L270 493 L311 493 C320 493 326 487 326 478 L326 129 C304 80 267 48 229 48 C186 48 157 90 157 154 L157 499 L16 499 L16 492 L57 492 C66 492 72 486 72 477 L72 154 C72 55 119 -11 189 -11 C240 -11 294 42 328 123 L328 -1 L370 -1 L370 -2 C403 7 446 19 479 28 L477 36 L477 36 Z " />
<glyph glyph-name="v" unicode="v" horiz-adv-x="495" d="M210 500 L7 500 L7 493 C42 493 66 478 80 444 L232 -10 L257 -10 L401 447 C415 479 438 492 472 492 L472 499 L323 499 L323 492 L331 492 C359 492 371 470 361 437 L361 437 L275 138 C242 238 208 338 175 437 C164 470 175 492 202 492 L210 492 L210 500 L210 500 Z " />
<glyph glyph-name="w" unicode="w" horiz-adv-x="764" d="M741 500 L591 500 L591 493 L599 493 C626 493 637 471 627 438 L627 438 L531 135 L427 441 C416 478 431 494 463 494 L463 501 L258 501 L258 494 C294 494 321 477 334 439 L364 351 L253 -9 L278 -9 L381 302 L486 -9 L511 -9 L670 449 C685 481 709 494 743 494 L741 500 L741 500 Z M230 501 L25 501 L25 494 C61 494 88 477 101 439 L101 439 L255 -9 L300 137 L194 445 C185 480 199 494 231 494 L230 501 L230 501 Z " />
<glyph glyph-name="x" unicode="x" horiz-adv-x="517" d="M287 0 L499 0 L499 7 C466 7 440 21 420 52 L294 293 L397 445 C422 478 451 493 485 493 L485 500 L339 500 L339 493 L347 493 C371 493 377 474 361 445 L283 315 L218 439 L219 439 C202 472 208 494 234 494 L242 494 L242 501 L30 501 L30 494 C63 494 89 480 109 449 L223 231 L109 58 C84 24 55 8 20 8 L20 1 L166 1 L166 8 L158 8 C132 8 127 30 146 63 L146 63 L232 213 L311 63 L310 63 C327 30 321 8 295 8 L287 8 L287 0 L287 0 Z " />
<glyph glyph-name="y" unicode="y" horiz-adv-x="515" d="M499 500 L351 500 L351 493 C382 493 397 480 389 447 L286 134 L182 441 C171 478 186 494 218 494 L218 501 L15 501 L15 494 C51 494 78 477 91 439 L239 3 C218 -49 199 -102 179 -155 C170 -178 156 -193 152 -193 C130 -193 125 -164 102 -164 C75 -164 57 -182 57 -209 C57 -239 77 -259 107 -259 C133 -259 179 -222 200 -166 L260 -9 C315 143 371 294 427 445 C442 478 467 493 501 493 L499 500 L499 500 Z " />
<glyph glyph-name="z" unicode="z" horiz-adv-x="442" d="M71 523 C68 512 64 496 61 485 L71 485 L71 484 L61 484 C61 484 50 443 33 381 L47 381 L55 395 C77 437 120 467 167 473 L302 477 L40 20 L40 0 L130 0 C216 -1 305 1 389 -1 C389 -1 392 10 396 28 C402 51 408 84 411 119 L397 119 L392 105 C375 60 331 28 280 27 L142 23 L401 480 L401 500 L108 500 C87 500 81 508 81 523 L71 523 L71 523 Z " />
<glyph glyph-name="braceleft" unicode="&#x7b;" horiz-adv-x="226" d="M221 750 L181 750 C109 750 61 707 61 643 L61 383 C61 337 44 312 15 312 L15 308 C44 308 61 280 61 230 L61 -23 C61 -87 109 -130 181 -130 L221 -130 L221 -127 L185 -127 C150 -127 127 -85 127 -23 L127 182 C127 259 85 310 23 310 C85 310 127 358 127 430 L127 643 C127 705 150 747 185 747 L221 747 L221 750 L221 750 Z " />
<glyph glyph-name="bar" unicode="&#x7c;" horiz-adv-x="186" d="M60 800 L60 -250 L126 -250 L126 800 L60 800 L60 800 Z " />
<glyph glyph-name="braceright" unicode="&#x7d;" horiz-adv-x="226" d="M5 750 L5 747 L41 747 C76 747 99 705 99 643 L99 430 C99 358 141 310 203 310 C141 310 99 259 99 182 L99 -23 C99 -85 76 -127 41 -127 L5 -127 L5 -130 L45 -130 C117 -130 165 -87 165 -23 L165 230 C165 280 182 308 211 308 L211 312 C182 312 165 337 165 383 L165 643 C165 707 117 750 45 750 L5 750 L5 750 Z " />
<glyph glyph-name="asciitilde" unicode="&#x7e;" horiz-adv-x="298" d="M29 310 C29 346 43 370 65 370 C108 370 166 305 209 305 C247 305 273 353 273 425 L269 425 C269 389 253 365 229 365 C186 365 128 430 85 430 C50 430 26 382 26 310 L29 310 L29 310 Z " />
<glyph glyph-name="exclamdown" unicode="&#xa1;" horiz-adv-x="244" d="M122 505 C86 505 62 481 62 445 C62 409 86 385 122 385 C158 385 182 409 182 445 C182 481 158 505 122 505 L122 505 Z M122 -255 C163 -255 180 -213 174 -150 C174 -150 130 158 130 290 L114 290 C114 158 70 -150 70 -150 C64 -213 81 -255 122 -255 L122 -255 Z " />
<glyph glyph-name="cent" unicode="&#xa2;" horiz-adv-x="462" d="M251 575 L251 508 C126 494 45 388 45 236 C45 94 126 -2 251 -9 L251 -74 L281 -74 L281 -8 C339 0 398 53 432 129 L429 130 C398 60 339 12 281 10 L281 506 C299 505 325 465 347 405 C356 380 373 363 390 363 C424 363 441 380 432 405 C409 468 349 510 281 510 L281 575 L251 575 L251 575 Z M251 14 C179 34 133 133 133 274 C133 398 179 485 251 503 L251 14 L251 14 Z " />
<glyph glyph-name="acute" unicode="&#xb4;" horiz-adv-x="298" d="M157 562 L299 682 C337 715 363 740 363 746 C363 769 344 788 321 788 C315 788 292 761 260 721 L146 573 L157 562 L157 562 Z " />
<glyph glyph-name="questiondown" unicode="&#xbf;" horiz-adv-x="299" d="M174 505 C138 505 114 481 114 445 C114 409 138 385 174 385 C210 385 234 409 234 445 C234 481 210 505 174 505 L174 505 Z M174 290 L174 140 C81 140 48 106 14 56 C-4 29 -16 -15 -16 -55 C-16 -178 52 -260 154 -260 C202 -260 234 -235 234 -197 C234 -172 216 -155 188 -155 C168 -155 142 -170 123 -170 C55 -170 10 -120 10 -45 C10 -29 19 -5 33 15 C51 42 77 60 202 60 C194 63 189 290 189 290 L174 290 L174 290 Z M202 60 L202 60 L202 60 L202 60 Z " />
<glyph glyph-name="Agrave" unicode="&#xc0;" horiz-adv-x="714" d="M397 0 L711 0 L711 9 L699 9 C655 9 614 49 596 109 C531 329 467 550 401 770 L391 770 C395 747 365 727 316 720 L319 710 C265 510 212 309 158 109 C142 49 91 9 31 9 L5 9 L5 0 L262 0 L262 9 L238 9 C178 9 149 49 165 109 L165 109 L214 294 L439 294 L495 100 C507 45 478 9 421 9 L398 9 L397 0 L397 0 Z M163 996 C163 988 189 964 227 932 L369 812 L380 823 L266 971 C236 1011 213 1038 205 1038 C182 1038 163 1019 163 996 L163 996 Z M216 299 L322 703 L438 299 L216 299 L216 299 Z " />
<glyph glyph-name="Aacute" unicode="&#xc1;" horiz-adv-x="714" d="M374 812 L516 932 C554 965 580 990 580 996 C580 1019 561 1038 538 1038 C532 1038 509 1011 477 971 L363 823 L374 812 L374 812 Z M397 0 L711 0 L711 9 L699 9 C655 9 614 49 596 109 C531 329 467 550 401 770 L391 770 C395 747 365 727 316 720 L319 710 C265 510 212 309 158 109 C142 49 91 9 31 9 L5 9 L5 0 L262 0 L262 9 L238 9 C178 9 149 49 165 109 L165 109 L214 294 L439 294 L495 100 C507 45 478 9 421 9 L398 9 L397 0 L397 0 Z M216 299 L322 703 L438 299 L216 299 L216 299 Z " />
<glyph glyph-name="Acircumflex" unicode="&#xc2;" horiz-adv-x="714" d="M397 0 L711 0 L711 9 L699 9 C655 9 614 49 596 109 C531 329 467 550 401 770 L391 770 C395 747 365 727 316 720 L319 710 C265 510 212 309 158 109 C142 49 91 9 31 9 L5 9 L5 0 L262 0 L262 9 L238 9 C178 9 149 49 165 109 L165 109 L214 294 L439 294 L495 100 C507 45 478 9 421 9 L398 9 L397 0 L397 0 Z M397 1005 C391 1014 377 1035 367 1035 C357 1035 343 1014 337 1005 L215 816 L227 806 L367 945 L507 806 L519 816 L397 1005 L397 1005 Z M216 299 L322 703 L438 299 L216 299 L216 299 Z " />
<glyph glyph-name="Atilde" unicode="&#xc3;" horiz-adv-x="714" d="M246 870 C246 906 260 930 282 930 C325 930 383 865 426 865 C464 865 489 913 489 985 L486 985 C486 949 470 925 446 925 C403 925 345 990 301 990 C266 990 243 942 243 870 L246 870 L246 870 Z M397 0 L711 0 L711 9 L699 9 C655 9 614 49 596 109 C531 329 467 550 401 770 L391 770 C395 747 365 727 316 720 L319 710 C265 510 212 309 158 109 C142 49 91 9 31 9 L5 9 L5 0 L262 0 L262 9 L238 9 C178 9 149 49 165 109 L165 109 L214 294 L439 294 L495 100 C507 45 478 9 421 9 L398 9 L397 0 L397 0 Z M216 299 L322 703 L438 299 L216 299 L216 299 Z " />
<glyph glyph-name="Adieresis" unicode="&#xc4;" horiz-adv-x="714" d="M439 865 C472 865 494 887 494 920 C494 953 472 975 439 975 C406 975 384 953 384 920 C384 887 406 865 439 865 L439 865 Z M293 865 C326 865 348 887 348 920 C348 953 326 975 293 975 C260 975 238 953 238 920 C238 887 260 865 293 865 L293 865 Z M397 0 L711 0 L711 9 L699 9 C655 9 614 49 596 109 C531 329 467 550 401 770 L391 770 C395 747 365 727 316 720 L319 710 C265 510 212 309 158 109 C142 49 91 9 31 9 L5 9 L5 0 L262 0 L262 9 L238 9 C178 9 149 49 165 109 L165 109 L214 294 L439 294 L495 100 C507 45 478 9 421 9 L398 9 L397 0 L397 0 Z M216 299 L322 703 L438 299 L216 299 L216 299 Z " />
<glyph glyph-name="Aring" unicode="&#xc5;" horiz-adv-x="714" d="M294 905 C294 950 323 980 366 980 C410 980 439 950 439 905 C439 865 405 830 366 830 C327 830 294 865 294 905 L294 905 Z M269 905 C269 854 314 810 366 810 C419 810 464 854 464 905 C464 962 425 1000 366 1000 C308 1000 269 962 269 905 L269 905 Z M397 0 L711 0 L711 9 L699 9 C655 9 614 49 596 109 C531 329 467 550 401 770 L391 770 C395 747 365 727 316 720 L319 710 C265 510 212 309 158 109 C142 49 91 9 31 9 L5 9 L5 0 L262 0 L262 9 L238 9 C178 9 149 49 165 109 L165 109 L214 294 L439 294 L495 100 C507 45 478 9 421 9 L398 9 L397 0 L397 0 Z M216 299 L322 703 L438 299 L216 299 L216 299 Z " />
<glyph glyph-name="Egrave" unicode="&#xc8;" horiz-adv-x="606" d="M121 996 C121 988 147 964 185 932 L327 812 L337 823 L224 971 C194 1011 171 1038 163 1038 C140 1038 121 1019 121 996 L121 996 Z M453 259 L453 516 L441 516 L433 470 C425 422 389 390 341 390 L236 390 L236 745 L402 745 C450 745 490 713 504 665 L517 619 L529 619 C525 658 518 709 514 748 L513 748 L513 750 L40 750 L40 743 L66 743 C108 743 136 715 136 673 L136 77 C136 35 108 7 66 7 L40 7 L40 0 L538 0 L538 2 C545 38 553 85 559 121 L547 121 L541 104 C521 45 465 5 402 5 L287 5 C241 5 236 23 236 51 L236 385 L341 385 C389 385 425 353 433 305 L441 259 L453 259 L453 259 Z " />
<glyph glyph-name="Eacute" unicode="&#xc9;" horiz-adv-x="606" d="M332 812 L474 932 C512 965 538 990 538 996 C538 1019 519 1038 496 1038 C490 1038 466 1011 435 971 L322 823 L332 812 L332 812 Z M453 259 L453 516 L441 516 L433 470 C425 422 389 390 341 390 L236 390 L236 745 L402 745 C450 745 490 713 504 665 L517 619 L529 619 C525 658 518 709 514 748 L513 748 L513 750 L40 750 L40 743 L66 743 C108 743 136 715 136 673 L136 77 C136 35 108 7 66 7 L40 7 L40 0 L538 0 L538 2 C545 38 553 85 559 121 L547 121 L541 104 C521 45 465 5 402 5 L287 5 C241 5 236 23 236 51 L236 385 L341 385 C389 385 425 353 433 305 L441 259 L453 259 L453 259 Z " />
<glyph glyph-name="Ecircumflex" unicode="&#xca;" horiz-adv-x="606" d="M355 1005 C349 1014 335 1035 325 1035 C315 1035 301 1014 295 1005 L173 816 L184 806 L324 945 L465 806 L476 816 L355 1005 L355 1005 Z M453 259 L453 516 L441 516 L433 470 C425 422 389 390 341 390 L236 390 L236 745 L402 745 C450 745 490 713 504 665 L517 619 L529 619 C525 658 518 709 514 748 L513 748 L513 750 L40 750 L40 743 L66 743 C108 743 136 715 136 673 L136 77 C136 35 108 7 66 7 L40 7 L40 0 L538 0 L538 2 C545 38 553 85 559 121 L547 121 L541 104 C521 45 465 5 402 5 L287 5 C241 5 236 23 236 51 L236 385 L341 385 C389 385 425 353 433 305 L441 259 L453 259 L453 259 Z " />
<glyph glyph-name="Edieresis" unicode="&#xcb;" horiz-adv-x="606" d="M397 865 C430 865 452 887 452 920 C452 953 430 975 397 975 C364 975 342 953 342 920 C342 887 364 865 397 865 L397 865 Z M252 865 C285 865 307 887 307 920 C307 953 285 975 252 975 C219 975 197 953 197 920 C197 887 219 865 252 865 L252 865 Z M453 259 L453 516 L441 516 L433 470 C425 422 389 390 341 390 L236 390 L236 745 L402 745 C450 745 490 713 504 665 L517 619 L529 619 C525 658 518 709 514 748 L513 748 L513 750 L40 750 L40 743 L66 743 C108 743 136 715 136 673 L136 77 C136 35 108 7 66 7 L40 7 L40 0 L538 0 L538 2 C545 38 553 85 559 121 L547 121 L541 104 C521 45 465 5 402 5 L287 5 C241 5 236 23 236 51 L236 385 L341 385 C389 385 425 353 433 305 L441 259 L453 259 L453 259 Z " />
<glyph glyph-name="Igrave" unicode="&#xcc;" horiz-adv-x="367" d="M-23 996 C-23 988 3 964 41 932 L183 812 L194 823 L80 971 C50 1011 27 1038 19 1038 C-4 1038 -23 1019 -23 996 L-23 996 Z M307 7 L281 7 C251 7 231 27 231 57 L231 693 C231 723 251 743 281 743 L307 743 L307 750 L55 750 L55 743 L81 743 C111 743 131 723 131 693 L131 57 C131 27 111 7 81 7 L55 7 L55 0 L307 0 L307 7 L307 7 Z " />
<glyph glyph-name="Iacute" unicode="&#xcd;" horiz-adv-x="367" d="M189 812 L331 932 C369 965 395 990 395 996 C395 1019 376 1038 353 1038 C347 1038 324 1011 292 971 L178 823 L189 812 L189 812 Z M307 7 L281 7 C251 7 231 27 231 57 L231 693 C231 723 251 743 281 743 L307 743 L307 750 L55 750 L55 743 L81 743 C111 743 131 723 131 693 L131 57 C131 27 111 7 81 7 L55 7 L55 0 L307 0 L307 7 L307 7 Z " />
<glyph glyph-name="Icircumflex" unicode="&#xce;" horiz-adv-x="367" d="M211 1005 C205 1014 191 1035 181 1035 C171 1035 157 1014 151 1005 L29 816 L41 806 L181 945 L321 806 L333 816 L211 1005 L211 1005 Z M307 7 L281 7 C251 7 231 27 231 57 L231 693 C231 723 251 743 281 743 L307 743 L307 750 L55 750 L55 743 L81 743 C111 743 131 723 131 693 L131 57 C131 27 111 7 81 7 L55 7 L55 0 L307 0 L307 7 L307 7 Z " />
<glyph glyph-name="Idieresis" unicode="&#xcf;" horiz-adv-x="367" d="M254 865 C287 865 309 887 309 920 C309 953 287 975 254 975 C221 975 199 953 199 920 C199 887 221 865 254 865 L254 865 Z M108 865 C141 865 163 887 163 920 C163 953 141 975 108 975 C75 975 53 953 53 920 C53 887 75 865 108 865 L108 865 Z M307 7 L281 7 C251 7 231 27 231 57 L231 693 C231 723 251 743 281 743 L307 743 L307 750 L55 750 L55 743 L81 743 C111 743 131 723 131 693 L131 57 C131 27 111 7 81 7 L55 7 L55 0 L307 0 L307 7 L307 7 Z " />
<glyph glyph-name="Ntilde" unicode="&#xd1;" horiz-adv-x="726" d="M239 870 C239 906 254 930 276 930 C319 930 376 865 419 865 C457 865 483 913 483 985 L480 985 C480 949 464 925 439 925 C396 925 338 990 295 990 C260 990 236 942 236 870 L239 870 L239 870 Z M-16 743 L10 743 C37 743 68 726 88 700 L129 639 L128 56 C128 26 108 6 78 6 L52 6 L52 -1 L234 -1 L234 6 L208 6 C178 6 158 26 158 56 L158 56 L155 600 C291 400 427 200 562 -1 L582 -1 L589 700 C592 725 612 741 639 741 L665 741 L665 748 L483 748 L483 741 L509 741 C539 741 559 721 559 691 L559 691 L561 177 C434 368 306 558 178 748 L-17 748 L-16 743 L-16 743 Z " />
<glyph glyph-name="Ograve" unicode="&#xd2;" horiz-adv-x="810" d="M159 375 C159 602 254 754 397 754 C546 754 646 602 646 375 C646 148 543 -4 389 -4 C251 -4 159 148 159 375 L159 375 Z M50 375 C50 144 185 -10 388 -10 C608 -10 755 144 755 375 C755 606 612 760 398 760 C189 760 50 606 50 375 L50 375 Z M194 996 C194 988 220 964 258 932 L400 812 L411 823 L297 971 C267 1011 244 1038 236 1038 C213 1038 194 1019 194 996 L194 996 Z " />
<glyph glyph-name="Oacute" unicode="&#xd3;" horiz-adv-x="810" d="M406 812 L548 932 C586 965 612 990 612 996 C612 1019 593 1038 570 1038 C564 1038 541 1011 509 971 L395 823 L406 812 L406 812 Z M159 375 C159 602 254 754 397 754 C546 754 646 602 646 375 C646 148 543 -4 389 -4 C251 -4 159 148 159 375 L159 375 Z M50 375 C50 144 185 -10 388 -10 C608 -10 755 144 755 375 C755 606 612 760 398 760 C189 760 50 606 50 375 L50 375 Z " />
<glyph glyph-name="Ocircumflex" unicode="&#xd4;" horiz-adv-x="810" d="M159 375 C159 602 254 754 397 754 C546 754 646 602 646 375 C646 148 543 -4 389 -4 C251 -4 159 148 159 375 L159 375 Z M50 375 C50 144 185 -10 388 -10 C608 -10 755 144 755 375 C755 606 612 760 398 760 C189 760 50 606 50 375 L50 375 Z M428 1005 C422 1014 408 1035 398 1035 C388 1035 374 1014 368 1005 L246 816 L258 806 L398 945 L538 806 L550 816 L428 1005 L428 1005 Z " />
<glyph glyph-name="Otilde" unicode="&#xd5;" horiz-adv-x="810" d="M278 870 C278 906 292 930 314 930 C357 930 415 865 458 865 C496 865 521 913 521 985 L518 985 C518 949 502 925 478 925 C435 925 377 990 333 990 C298 990 275 942 275 870 L278 870 L278 870 Z M159 375 C159 602 254 754 397 754 C546 754 646 602 646 375 C646 148 543 -4 389 -4 C251 -4 159 148 159 375 L159 375 Z M50 375 C50 144 185 -10 388 -10 C608 -10 755 144 755 375 C755 606 612 760 398 760 C189 760 50 606 50 375 L50 375 Z " />
<glyph glyph-name="Odieresis" unicode="&#xd6;" horiz-adv-x="810" d="M471 865 C504 865 526 887 526 920 C526 953 504 975 471 975 C438 975 416 953 416 920 C416 887 438 865 471 865 L471 865 Z M325 865 C358 865 380 887 380 920 C380 953 358 975 325 975 C292 975 270 953 270 920 C270 887 292 865 325 865 L325 865 Z M159 375 C159 602 254 754 397 754 C546 754 646 602 646 375 C646 148 543 -4 389 -4 C251 -4 159 148 159 375 L159 375 Z M50 375 C50 144 185 -10 388 -10 C608 -10 755 144 755 375 C755 606 612 760 398 760 C189 760 50 606 50 375 L50 375 Z " />
<glyph glyph-name="Oslash" unicode="&#xd8;" horiz-adv-x="810" d="M54 -13 L148 90 C207 26 289 -10 387 -10 C607 -10 754 144 754 375 C754 488 720 583 660 650 L758 757 L750 763 L653 657 C591 723 503 760 398 760 C189 760 50 606 50 375 C50 260 83 164 141 97 L45 -7 L54 -13 L54 -13 Z M602 602 L194 156 C171 216 158 290 158 375 C158 602 253 754 396 754 C487 754 560 697 603 601 L602 602 L602 602 Z M607 591 C632 532 646 458 646 374 C646 147 543 -5 389 -5 C306 -5 239 51 199 145 L607 591 L607 591 Z " />
<glyph glyph-name="Ugrave" unicode="&#xd9;" horiz-adv-x="701" d="M144 996 C144 988 170 964 208 932 L350 812 L361 823 L247 971 C217 1011 194 1038 186 1038 C163 1038 144 1019 144 996 L144 996 Z M671 40 L645 33 C615 25 595 40 595 70 L595 750 L419 750 L419 743 L445 743 C475 743 495 723 495 693 L495 183 C459 106 382 54 303 54 C242 54 201 118 201 213 L201 750 L25 750 L25 743 L51 743 C81 743 101 723 101 693 L101 213 C101 79 165 -10 262 -10 C360 -10 454 49 495 138 L495 0 L545 0 C549 1 595 11 595 13 C621 20 648 27 671 33 L671 40 L671 40 Z " />
<glyph glyph-name="Uacute" unicode="&#xda;" horiz-adv-x="701" d="M356 812 L498 932 C536 965 562 990 562 996 C562 1019 543 1038 520 1038 C514 1038 491 1011 459 971 L345 823 L356 812 L356 812 Z M671 40 L645 33 C615 25 595 40 595 70 L595 750 L419 750 L419 743 L445 743 C475 743 495 723 495 693 L495 183 C459 106 382 54 303 54 C242 54 201 118 201 213 L201 750 L25 750 L25 743 L51 743 C81 743 101 723 101 693 L101 213 C101 79 165 -10 262 -10 C360 -10 454 49 495 138 L495 0 L545 0 C549 1 595 11 595 13 C621 20 648 27 671 33 L671 40 L671 40 Z " />
<glyph glyph-name="Ucircumflex" unicode="&#xdb;" horiz-adv-x="701" d="M378 1005 C372 1014 358 1035 348 1035 C338 1035 324 1014 318 1005 L196 816 L208 806 L348 945 L488 806 L500 816 L378 1005 L378 1005 Z M671 40 L645 33 C615 25 595 40 595 70 L595 750 L419 750 L419 743 L445 743 C475 743 495 723 495 693 L495 183 C459 106 382 54 303 54 C242 54 201 118 201 213 L201 750 L25 750 L25 743 L51 743 C81 743 101 723 101 693 L101 213 C101 79 165 -10 262 -10 C360 -10 454 49 495 138 L495 0 L545 0 C549 1 595 11 595 13 C621 20 648 27 671 33 L671 40 L671 40 Z " />
<glyph glyph-name="Udieresis" unicode="&#xdc;" horiz-adv-x="701" d="M421 865 C454 865 476 887 476 920 C476 953 454 975 421 975 C388 975 366 953 366 920 C366 887 388 865 421 865 L421 865 Z M275 865 C308 865 330 887 330 920 C330 953 308 975 275 975 C242 975 220 953 220 920 C220 887 242 865 275 865 L275 865 Z M671 40 L645 33 C615 25 595 40 595 70 L595 750 L419 750 L419 743 L445 743 C475 743 495 723 495 693 L495 183 C459 106 382 54 303 54 C242 54 201 118 201 213 L201 750 L25 750 L25 743 L51 743 C81 743 101 723 101 693 L101 213 C101 79 165 -10 262 -10 C360 -10 454 49 495 138 L495 0 L545 0 C549 1 595 11 595 13 C621 20 648 27 671 33 L671 40 L671 40 Z " />
<glyph glyph-name="Yacute" unicode="&#xdd;" horiz-adv-x="675" d="M354 812 L496 932 C534 965 560 990 560 996 C560 1019 541 1038 518 1038 C512 1038 489 1011 457 971 L343 823 L354 812 L354 812 Z M271 750 L0 750 L0 743 C36 743 65 729 87 697 L296 323 L296 78 C296 36 268 8 226 8 L200 8 L200 1 L492 1 L492 8 L466 8 C424 8 396 36 396 78 L396 338 L567 695 C584 725 614 744 645 744 L677 744 L677 751 L467 751 L467 744 L525 744 C558 744 569 722 554 689 L554 689 L394 345 L209 689 L210 689 C192 722 202 744 235 744 L272 744 L271 750 L271 750 Z " />
<glyph glyph-name="agrave" unicode="&#xe0;" horiz-adv-x="479" d="M489 103 L481 106 C476 76 452 56 421 56 C389 56 367 74 367 102 L367 355 C367 462 316 510 240 510 C135 510 65 414 65 360 C65 324 85 300 114 300 C141 300 159 325 159 343 C159 361 139 385 139 403 C139 439 177 504 233 504 C294 504 282 376 282 262 C121 169 44 121 44 88 C44 29 84 -10 145 -10 C180 -10 225 16 283 82 C291 29 330 -5 385 -5 C435 -5 477 38 488 103 L489 103 L489 103 Z M35 746 C35 738 61 714 99 682 L241 562 L252 573 L138 721 C108 761 85 788 77 788 C54 788 35 769 35 746 L35 746 Z M281 258 C281 163 279 107 281 86 C247 49 216 34 189 34 C152 34 128 59 128 96 C128 160 177 198 280 257 L281 258 L281 258 Z " />
<glyph glyph-name="aacute" unicode="&#xe1;" horiz-adv-x="479" d="M248 562 L390 682 C428 715 454 740 454 746 C454 769 435 788 412 788 C406 788 383 761 351 721 L237 573 L248 562 L248 562 Z M489 103 L481 106 C476 76 452 56 421 56 C389 56 367 74 367 102 L367 355 C367 462 316 510 240 510 C135 510 65 414 65 360 C65 324 85 300 114 300 C141 300 159 325 159 343 C159 361 139 385 139 403 C139 439 177 504 233 504 C294 504 282 376 282 262 C121 169 44 121 44 88 C44 29 84 -10 145 -10 C180 -10 225 16 283 82 C291 29 330 -5 385 -5 C435 -5 477 38 488 103 L489 103 L489 103 Z M281 258 C281 163 279 107 281 86 C247 49 216 34 189 34 C152 34 128 59 128 96 C128 160 177 198 280 257 L281 258 L281 258 Z " />
<glyph glyph-name="acircumflex" unicode="&#xe2;" horiz-adv-x="479" d="M489 103 L481 106 C476 76 452 56 421 56 C389 56 367 74 367 102 L367 355 C367 462 316 510 240 510 C135 510 65 414 65 360 C65 324 85 300 114 300 C141 300 159 325 159 343 C159 361 139 385 139 403 C139 439 177 504 233 504 C294 504 282 376 282 262 C121 169 44 121 44 88 C44 29 84 -10 145 -10 C180 -10 225 16 283 82 C291 29 330 -5 385 -5 C435 -5 477 38 488 103 L489 103 L489 103 Z M269 755 C263 764 249 785 239 785 C229 785 215 764 209 755 L87 566 L99 556 L239 695 L379 556 L391 566 L269 755 L269 755 Z M281 258 C281 163 279 107 281 86 C247 49 216 34 189 34 C152 34 128 59 128 96 C128 160 177 198 280 257 L281 258 L281 258 Z " />
<glyph glyph-name="atilde" unicode="&#xe3;" horiz-adv-x="479" d="M120 620 C120 656 134 680 156 680 C199 680 257 615 300 615 C338 615 363 663 363 735 L360 735 C360 699 344 675 320 675 C277 675 219 740 175 740 C140 740 117 692 117 620 L120 620 L120 620 Z M489 103 L481 106 C476 76 452 56 421 56 C389 56 367 74 367 102 L367 355 C367 462 316 510 240 510 C135 510 65 414 65 360 C65 324 85 300 114 300 C141 300 159 325 159 343 C159 361 139 385 139 403 C139 439 177 504 233 504 C294 504 282 376 282 262 C121 169 44 121 44 88 C44 29 84 -10 145 -10 C180 -10 225 16 283 82 C291 29 330 -5 385 -5 C435 -5 477 38 488 103 L489 103 L489 103 Z M281 258 C281 163 279 107 281 86 C247 49 216 34 189 34 C152 34 128 59 128 96 C128 160 177 198 280 257 L281 258 L281 258 Z " />
<glyph glyph-name="adieresis" unicode="&#xe4;" horiz-adv-x="479" d="M313 615 C346 615 368 637 368 670 C368 703 346 725 313 725 C280 725 258 703 258 670 C258 637 280 615 313 615 L313 615 Z M167 615 C200 615 222 637 222 670 C222 703 200 725 167 725 C134 725 112 703 112 670 C112 637 134 615 167 615 L167 615 Z M489 103 L481 106 C476 76 452 56 421 56 C389 56 367 74 367 102 L367 355 C367 462 316 510 240 510 C135 510 65 414 65 360 C65 324 85 300 114 300 C141 300 159 325 159 343 C159 361 139 385 139 403 C139 439 177 504 233 504 C294 504 282 376 282 262 C121 169 44 121 44 88 C44 29 84 -10 145 -10 C180 -10 225 16 283 82 C291 29 330 -5 385 -5 C435 -5 477 38 488 103 L489 103 L489 103 Z M281 258 C281 163 279 107 281 86 C247 49 216 34 189 34 C152 34 128 59 128 96 C128 160 177 198 280 257 L281 258 L281 258 Z " />
<glyph glyph-name="aring" unicode="&#xe5;" horiz-adv-x="479" d="M168 655 C168 700 197 730 240 730 C284 730 313 700 313 655 C313 615 279 580 240 580 C201 580 168 615 168 655 L168 655 Z M143 655 C143 604 188 560 240 560 C293 560 338 604 338 655 C338 712 299 750 240 750 C182 750 143 712 143 655 L143 655 Z M489 103 L481 106 C476 76 452 56 421 56 C389 56 367 74 367 102 L367 355 C367 462 316 510 240 510 C135 510 65 414 65 360 C65 324 85 300 114 300 C141 300 159 325 159 343 C159 361 139 385 139 403 C139 439 177 504 233 504 C294 504 282 376 282 262 C121 169 44 121 44 88 C44 29 84 -10 145 -10 C180 -10 225 16 283 82 C291 29 330 -5 385 -5 C435 -5 477 38 488 103 L489 103 L489 103 Z M281 258 C281 163 279 107 281 86 C247 49 216 34 189 34 C152 34 128 59 128 96 C128 160 177 198 280 257 L281 258 L281 258 Z " />
<glyph glyph-name="egrave" unicode="&#xe8;" horiz-adv-x="494" d="M72 746 C72 738 98 714 136 682 L278 562 L289 573 L175 721 C145 761 122 788 114 788 C91 788 72 769 72 746 L72 746 Z M139 340 L464 340 C442 462 371 510 276 510 C137 510 45 432 45 231 C45 86 129 -10 255 -10 C338 -10 414 48 446 135 L443 135 C416 61 344 11 262 11 C186 11 135 113 135 266 C135 293 136 318 139 340 L139 340 Z M369 346 L140 345 C155 460 206 506 276 506 C314 506 349 461 370 345 L369 346 L369 346 Z " />
<glyph glyph-name="eacute" unicode="&#xe9;" horiz-adv-x="494" d="M284 562 L426 682 C464 715 490 740 490 746 C490 769 471 788 448 788 C442 788 419 761 387 721 L273 573 L284 562 L284 562 Z M139 340 L464 340 C442 462 371 510 276 510 C137 510 45 432 45 231 C45 86 129 -10 255 -10 C338 -10 414 48 446 135 L443 135 C416 61 344 11 262 11 C186 11 135 113 135 266 C135 293 136 318 139 340 L139 340 Z M369 346 L140 345 C155 460 206 506 276 506 C314 506 349 461 370 345 L369 346 L369 346 Z " />
<glyph glyph-name="ecircumflex" unicode="&#xea;" horiz-adv-x="494" d="M306 755 C300 764 286 785 276 785 C266 785 252 764 246 755 L124 566 L136 556 L276 695 L416 556 L428 566 L306 755 L306 755 Z M139 340 L464 340 C442 462 371 510 276 510 C137 510 45 432 45 231 C45 86 129 -10 255 -10 C338 -10 414 48 446 135 L443 135 C416 61 344 11 262 11 C186 11 135 113 135 266 C135 293 136 318 139 340 L139 340 Z M369 346 L140 345 C155 460 206 506 276 506 C314 506 349 461 370 345 L369 346 L369 346 Z " />
<glyph glyph-name="edieresis" unicode="&#xeb;" horiz-adv-x="494" d="M349 615 C382 615 404 637 404 670 C404 703 382 725 349 725 C316 725 294 703 294 670 C294 637 316 615 349 615 L349 615 Z M203 615 C236 615 258 637 258 670 C258 703 236 725 203 725 C170 725 148 703 148 670 C148 637 170 615 203 615 L203 615 Z M139 340 L464 340 C442 462 371 510 276 510 C137 510 45 432 45 231 C45 86 129 -10 255 -10 C338 -10 414 48 446 135 L443 135 C416 61 344 11 262 11 C186 11 135 113 135 266 C135 293 136 318 139 340 L139 340 Z M369 346 L140 345 C155 460 206 506 276 506 C314 506 349 461 370 345 L369 346 L369 346 Z " />
<glyph glyph-name="igrave" unicode="&#xec;" horiz-adv-x="302" d="M-45 746 C-45 738 -19 714 19 682 L161 562 L171 573 L58 721 C28 761 5 788 -3 788 C-26 788 -45 769 -45 746 L-45 746 Z M60 467 L101 478 C110 481 116 476 116 467 L116 22 C116 13 110 7 101 7 L60 7 L60 0 L257 0 L257 7 L216 7 C207 7 201 13 201 22 L201 500 L159 500 L159 501 C129 493 90 482 60 474 L60 467 L60 467 Z " />
<glyph glyph-name="iacute" unicode="&#xed;" horiz-adv-x="302" d="M-45 746 C-45 738 -19 714 19 682 L161 562 L171 573 L58 721 C28 761 5 788 -3 788 C-26 788 -45 769 -45 746 L-45 746 Z M60 467 L101 478 C110 481 116 476 116 467 L116 22 C116 13 110 7 101 7 L60 7 L60 0 L257 0 L257 7 L216 7 C207 7 201 13 201 22 L201 500 L159 500 L159 501 C129 493 90 482 60 474 L60 467 L60 467 Z " />
<glyph glyph-name="icircumflex" unicode="&#xee;" horiz-adv-x="302" d="M189 755 C183 764 169 785 159 785 C149 785 135 764 129 755 L7 566 L18 556 L158 695 L299 556 L310 566 L189 755 L189 755 Z M60 467 L101 478 C110 481 116 476 116 467 L116 22 C116 13 110 7 101 7 L60 7 L60 0 L257 0 L257 7 L216 7 C207 7 201 13 201 22 L201 500 L159 500 L159 501 C129 493 90 482 60 474 L60 467 L60 467 Z " />
<glyph glyph-name="idieresis" unicode="&#xef;" horiz-adv-x="302" d="M231 615 C264 615 286 637 286 670 C286 703 264 725 231 725 C198 725 176 703 176 670 C176 637 198 615 231 615 L231 615 Z M86 615 C119 615 141 637 141 670 C141 703 119 725 86 725 C53 725 31 703 31 670 C31 637 53 615 86 615 L86 615 Z M60 467 L101 478 C110 481 116 476 116 467 L116 22 C116 13 110 7 101 7 L60 7 L60 0 L257 0 L257 7 L216 7 C207 7 201 13 201 22 L201 500 L159 500 L159 501 C129 493 90 482 60 474 L60 467 L60 467 Z " />
<glyph glyph-name="ntilde" unicode="&#xf1;" horiz-adv-x="515" d="M132 620 C132 656 146 680 168 680 C211 680 269 615 312 615 C350 615 375 663 375 735 L372 735 C372 699 356 675 332 675 C289 675 231 740 187 740 C152 740 129 692 129 620 L132 620 L132 620 Z M20 469 L31 469 C57 470 74 456 76 432 C76 335 75 137 75 22 C75 13 69 7 60 7 L19 7 L19 0 L216 0 L216 7 L175 7 C166 7 160 13 160 22 L160 378 C180 432 229 468 283 468 C323 468 344 418 344 342 L344 22 C344 13 338 7 329 7 L288 7 L288 0 L485 0 L485 7 L444 7 C435 7 429 13 429 22 L429 342 C429 443 388 510 308 510 C245 510 186 462 160 391 L160 500 L118 500 L117 500 C117 500 28 478 20 476 L20 469 L20 469 Z " />
<glyph glyph-name="ograve" unicode="&#xf2;" horiz-adv-x="580" d="M139 250 C139 402 199 504 290 504 C381 504 442 402 442 250 C442 98 381 -4 290 -4 C199 -4 139 98 139 250 L139 250 Z M45 250 C45 94 143 -10 290 -10 C437 -10 535 94 535 250 C535 406 437 510 290 510 C143 510 45 406 45 250 L45 250 Z M86 746 C86 738 112 714 150 682 L292 562 L303 573 L189 721 C159 761 136 788 128 788 C105 788 86 769 86 746 L86 746 Z " />
<glyph glyph-name="oacute" unicode="&#xf3;" horiz-adv-x="580" d="M298 562 L440 682 C478 715 504 740 504 746 C504 769 485 788 462 788 C456 788 433 761 401 721 L287 573 L298 562 L298 562 Z M139 250 C139 402 199 504 290 504 C381 504 442 402 442 250 C442 98 381 -4 290 -4 C199 -4 139 98 139 250 L139 250 Z M45 250 C45 94 143 -10 290 -10 C437 -10 535 94 535 250 C535 406 437 510 290 510 C143 510 45 406 45 250 L45 250 Z " />
<glyph glyph-name="ocircumflex" unicode="&#xf4;" horiz-adv-x="580" d="M139 250 C139 402 199 504 290 504 C381 504 442 402 442 250 C442 98 381 -4 290 -4 C199 -4 139 98 139 250 L139 250 Z M45 250 C45 94 143 -10 290 -10 C437 -10 535 94 535 250 C535 406 437 510 290 510 C143 510 45 406 45 250 L45 250 Z M320 755 C314 764 300 785 290 785 C280 785 266 764 260 755 L138 566 L150 556 L290 695 L430 556 L442 566 L320 755 L320 755 Z " />
<glyph glyph-name="otilde" unicode="&#xf5;" horiz-adv-x="580" d="M170 620 C170 656 184 680 206 680 C249 680 307 615 350 615 C388 615 413 663 413 735 L410 735 C410 699 394 675 370 675 C327 675 269 740 225 740 C190 740 167 692 167 620 L170 620 L170 620 Z M139 250 C139 402 199 504 290 504 C381 504 442 402 442 250 C442 98 381 -4 290 -4 C199 -4 139 98 139 250 L139 250 Z M45 250 C45 94 143 -10 290 -10 C437 -10 535 94 535 250 C535 406 437 510 290 510 C143 510 45 406 45 250 L45 250 Z " />
<glyph glyph-name="odieresis" unicode="&#xf6;" horiz-adv-x="580" d="M363 615 C396 615 418 637 418 670 C418 703 396 725 363 725 C330 725 308 703 308 670 C308 637 330 615 363 615 L363 615 Z M217 615 C250 615 272 637 272 670 C272 703 250 725 217 725 C184 725 162 703 162 670 C162 637 184 615 217 615 L217 615 Z M139 250 C139 402 199 504 290 504 C381 504 442 402 442 250 C442 98 381 -4 290 -4 C199 -4 139 98 139 250 L139 250 Z M45 250 C45 94 143 -10 290 -10 C437 -10 535 94 535 250 C535 406 437 510 290 510 C143 510 45 406 45 250 L45 250 Z " />
<glyph glyph-name="oslash" unicode="&#xf8;" horiz-adv-x="580" d="M47 -12 L114 59 C157 15 218 -10 290 -10 C437 -10 535 94 535 250 C535 327 511 391 469 436 L536 508 L532 512 L465 441 C422 485 361 510 289 510 C142 510 44 406 44 250 C44 173 68 109 110 64 L43 -8 L47 -12 L47 -12 Z M420 392 L159 115 C146 153 139 199 139 251 C139 403 199 505 290 505 C348 505 394 463 420 393 L420 392 L420 392 Z M422 387 C435 349 442 303 442 251 C442 99 381 -3 290 -3 C232 -3 186 39 161 109 L422 387 L422 387 Z " />
<glyph glyph-name="ugrave" unicode="&#xf9;" horiz-adv-x="492" d="M37 746 C37 738 63 714 101 682 L243 562 L254 573 L140 721 C110 761 87 788 79 788 C56 788 37 769 37 746 L37 746 Z M477 36 L461 31 C431 23 411 38 411 68 L411 500 L270 500 L270 493 L311 493 C320 493 326 487 326 478 L326 129 C304 80 267 48 229 48 C186 48 157 90 157 154 L157 499 L16 499 L16 492 L57 492 C66 492 72 486 72 477 L72 154 C72 55 119 -11 189 -11 C240 -11 294 42 328 123 L328 -1 L370 -1 L370 -2 C403 7 446 19 479 28 L477 36 L477 36 Z " />
<glyph glyph-name="uacute" unicode="&#xfa;" horiz-adv-x="492" d="M249 562 L391 682 C429 715 455 740 455 746 C455 769 436 788 413 788 C407 788 384 761 352 721 L238 573 L249 562 L249 562 Z M477 36 L461 31 C431 23 411 38 411 68 L411 500 L270 500 L270 493 L311 493 C320 493 326 487 326 478 L326 129 C304 80 267 48 229 48 C186 48 157 90 157 154 L157 499 L16 499 L16 492 L57 492 C66 492 72 486 72 477 L72 154 C72 55 119 -11 189 -11 C240 -11 294 42 328 123 L328 -1 L370 -1 L370 -2 C403 7 446 19 479 28 L477 36 L477 36 Z " />
<glyph glyph-name="ucircumflex" unicode="&#xfb;" horiz-adv-x="492" d="M271 755 C265 764 251 785 241 785 C231 785 217 764 211 755 L89 566 L101 556 L241 695 L381 556 L393 566 L271 755 L271 755 Z M477 36 L461 31 C431 23 411 38 411 68 L411 500 L270 500 L270 493 L311 493 C320 493 326 487 326 478 L326 129 C304 80 267 48 229 48 C186 48 157 90 157 154 L157 499 L16 499 L16 492 L57 492 C66 492 72 486 72 477 L72 154 C72 55 119 -11 189 -11 C240 -11 294 42 328 123 L328 -1 L370 -1 L370 -2 C403 7 446 19 479 28 L477 36 L477 36 Z " />
<glyph glyph-name="udieresis" unicode="&#xfc;" horiz-adv-x="492" d="M314 615 C347 615 369 637 369 670 C369 703 347 725 314 725 C281 725 259 703 259 670 C259 637 281 615 314 615 L314 615 Z M168 615 C201 615 223 637 223 670 C223 703 201 725 168 725 C135 725 113 703 113 670 C113 637 135 615 168 615 L168 615 Z M477 36 L461 31 C431 23 411 38 411 68 L411 500 L270 500 L270 493 L311 493 C320 493 326 487 326 478 L326 129 C304 80 267 48 229 48 C186 48 157 90 157 154 L157 499 L16 499 L16 492 L57 492 C66 492 72 486 72 477 L72 154 C72 55 119 -11 189 -11 C240 -11 294 42 328 123 L328 -1 L370 -1 L370 -2 C403 7 446 19 479 28 L477 36 L477 36 Z " />
<glyph glyph-name="ydieresis" unicode="&#xff;" horiz-adv-x="499" d="M349 615 C382 615 404 637 404 670 C404 703 382 725 349 725 C316 725 294 703 294 670 C294 637 316 615 349 615 L349 615 Z M204 615 C237 615 259 637 259 670 C259 703 237 725 204 725 C171 725 149 703 149 670 C149 637 171 615 204 615 L204 615 Z M491 500 L343 500 L343 493 C374 493 389 480 381 447 L278 134 L174 441 C163 478 178 494 210 494 L210 501 L7 501 L7 494 C43 494 70 477 83 439 L231 3 C210 -49 191 -102 171 -155 C162 -178 148 -193 144 -193 C122 -193 117 -164 94 -164 C67 -164 49 -182 49 -209 C49 -239 69 -259 99 -259 C125 -259 171 -222 192 -166 L252 -9 C307 143 363 294 419 445 C434 478 459 493 493 493 L491 500 L491 500 Z " />
<glyph glyph-name="Amacron" unicode="&#x100;" horiz-adv-x="714" d="M241 895 L491 895 L491 954 L241 954 L241 895 L241 895 Z M397 0 L711 0 L711 9 L699 9 C655 9 614 49 596 109 C531 329 467 550 401 770 L391 770 C395 747 365 727 316 720 L319 710 C265 510 212 309 158 109 C142 49 91 9 31 9 L5 9 L5 0 L262 0 L262 9 L238 9 C178 9 149 49 165 109 L165 109 L214 294 L439 294 L495 100 C507 45 478 9 421 9 L398 9 L397 0 L397 0 Z M216 299 L322 703 L438 299 L216 299 L216 299 Z " />
<glyph glyph-name="amacron" unicode="&#x101;" horiz-adv-x="479" d="M115 645 L365 645 L365 704 L115 704 L115 645 L115 645 Z M489 103 L481 106 C476 76 452 56 421 56 C389 56 367 74 367 102 L367 355 C367 462 316 510 240 510 C135 510 65 414 65 360 C65 324 85 300 114 300 C141 300 159 325 159 343 C159 361 139 385 139 403 C139 439 177 504 233 504 C294 504 282 376 282 262 C121 169 44 121 44 88 C44 29 84 -10 145 -10 C180 -10 225 16 283 82 C291 29 330 -5 385 -5 C435 -5 477 38 488 103 L489 103 L489 103 Z M281 258 C281 163 279 107 281 86 C247 49 216 34 189 34 C152 34 128 59 128 96 C128 160 177 198 280 257 L281 258 L281 258 Z " />
<glyph glyph-name="Abreve" unicode="&#x102;" horiz-adv-x="714" d="M250 994 C257 920 303 870 366 870 C429 870 476 919 482 992 L464 995 C461 956 421 930 366 930 C311 930 272 957 268 997 L250 994 L250 994 Z M397 0 L711 0 L711 9 L699 9 C655 9 614 49 596 109 C531 329 467 550 401 770 L391 770 C395 747 365 727 316 720 L319 710 C265 510 212 309 158 109 C142 49 91 9 31 9 L5 9 L5 0 L262 0 L262 9 L238 9 C178 9 149 49 165 109 L165 109 L214 294 L439 294 L495 100 C507 45 478 9 421 9 L398 9 L397 0 L397 0 Z M216 299 L322 703 L438 299 L216 299 L216 299 Z " />
<glyph glyph-name="abreve" unicode="&#x103;" horiz-adv-x="479" d="M124 744 C131 670 177 620 240 620 C303 620 350 669 356 742 L338 745 C335 706 295 680 240 680 C185 680 146 707 142 747 L124 744 L124 744 Z M489 103 L481 106 C476 76 452 56 421 56 C389 56 367 74 367 102 L367 355 C367 462 316 510 240 510 C135 510 65 414 65 360 C65 324 85 300 114 300 C141 300 159 325 159 343 C159 361 139 385 139 403 C139 439 177 504 233 504 C294 504 282 376 282 262 C121 169 44 121 44 88 C44 29 84 -10 145 -10 C180 -10 225 16 283 82 C291 29 330 -5 385 -5 C435 -5 477 38 488 103 L489 103 L489 103 Z M281 258 C281 163 279 107 281 86 C247 49 216 34 189 34 C152 34 128 59 128 96 C128 160 177 198 280 257 L281 258 L281 258 Z " />
<glyph glyph-name="Cacute" unicode="&#x106;" horiz-adv-x="699" d="M403 812 L545 932 C583 965 609 990 609 996 C609 1019 590 1038 567 1038 C561 1038 538 1011 506 971 L392 823 L403 812 L403 812 Z M655 10 L655 212 L638 212 C636 205 634 196 632 189 C615 130 568 69 515 35 L515 34 C476 9 434 -5 388 -5 C251 -5 160 147 160 375 C160 602 255 754 397 754 C517 754 604 657 632 561 C634 554 636 545 638 538 L655 538 L655 737 L645 737 C644 731 644 722 643 716 C639 684 613 680 578 706 C532 740 476 760 395 760 C188 760 50 606 50 375 C50 144 184 -10 386 -10 C467 -10 529 12 580 49 C615 71 639 65 643 32 C644 25 644 17 645 10 L655 10 L655 10 Z M643 131 L643 131 L643 131 L643 131 Z " />
<glyph glyph-name="Ccircumflex" unicode="&#x108;" horiz-adv-x="699" d="M655 10 L655 212 L638 212 C636 205 634 196 632 189 C615 130 568 69 515 35 L515 34 C476 9 434 -5 388 -5 C251 -5 160 147 160 375 C160 602 255 754 397 754 C517 754 604 657 632 561 C634 554 636 545 638 538 L655 538 L655 737 L645 737 C644 731 644 722 643 716 C639 684 613 680 578 706 C532 740 476 760 395 760 C188 760 50 606 50 375 C50 144 184 -10 386 -10 C467 -10 529 12 580 49 C615 71 639 65 643 32 C644 25 644 17 645 10 L655 10 L655 10 Z M425 1005 C419 1014 405 1035 395 1035 C385 1035 371 1014 365 1005 L243 816 L255 806 L395 945 L535 806 L547 816 L425 1005 L425 1005 Z M643 131 L643 131 L643 131 L643 131 Z " />
<glyph glyph-name="Cdot" unicode="&#x10a;" horiz-adv-x="699" d="M395 865 C428 865 450 887 450 920 C450 953 428 975 395 975 C362 975 340 953 340 920 C340 887 362 865 395 865 L395 865 Z M655 10 L655 212 L638 212 C636 205 634 196 632 189 C615 130 568 69 515 35 L515 34 C476 9 434 -5 388 -5 C251 -5 160 147 160 375 C160 602 255 754 397 754 C517 754 604 657 632 561 C634 554 636 545 638 538 L655 538 L655 737 L645 737 C644 731 644 722 643 716 C639 684 613 680 578 706 C532 740 476 760 395 760 C188 760 50 606 50 375 C50 144 184 -10 386 -10 C467 -10 529 12 580 49 C615 71 639 65 643 32 C644 25 644 17 645 10 L655 10 L655 10 Z M643 131 L643 131 L643 131 L643 131 Z " />
<glyph glyph-name="cdot" unicode="&#x10b;" horiz-adv-x="462" d="M281 615 C314 615 336 637 336 670 C336 703 314 725 281 725 C248 725 226 703 226 670 C226 637 248 615 281 615 L281 615 Z M432 128 L429 129 C397 58 337 10 278 10 C191 10 133 115 133 273 C133 413 192 506 280 506 C298 506 325 466 347 405 C356 380 373 363 390 363 C424 363 441 380 432 405 C409 468 349 510 281 510 C139 510 45 400 45 236 C45 88 133 -10 266 -10 C329 -10 395 45 432 128 L432 128 Z " />
<glyph glyph-name="Ccaron" unicode="&#x10c;" horiz-adv-x="699" d="M535 1044 L395 905 L255 1044 L243 1034 L365 845 C371 836 385 815 395 815 C405 815 419 836 425 845 L547 1034 L535 1044 L535 1044 Z M655 10 L655 212 L638 212 C636 205 634 196 632 189 C615 130 568 69 515 35 L515 34 C476 9 434 -5 388 -5 C251 -5 160 147 160 375 C160 602 255 754 397 754 C517 754 604 657 632 561 C634 554 636 545 638 538 L655 538 L655 737 L645 737 C644 731 644 722 643 716 C639 684 613 680 578 706 C532 740 476 760 395 760 C188 760 50 606 50 375 C50 144 184 -10 386 -10 C467 -10 529 12 580 49 C615 71 639 65 643 32 C644 25 644 17 645 10 L655 10 L655 10 Z M643 131 L643 131 L643 131 L643 131 Z " />
<glyph glyph-name="ccaron" unicode="&#x10d;" horiz-adv-x="462" d="M421 794 L281 655 L141 794 L129 784 L251 595 C257 586 271 565 281 565 C291 565 305 586 311 595 L433 784 L421 794 L421 794 Z M432 128 L429 129 C397 58 337 10 278 10 C191 10 133 115 133 273 C133 413 192 506 280 506 C298 506 325 466 347 405 C356 380 373 363 390 363 C424 363 441 380 432 405 C409 468 349 510 281 510 C139 510 45 400 45 236 C45 88 133 -10 266 -10 C329 -10 395 45 432 128 L432 128 Z " />
<glyph glyph-name="Dcaron" unicode="&#x10e;" horiz-adv-x="802" d="M527 1044 L386 905 L246 1044 L235 1034 L357 845 C363 836 377 815 387 815 C397 815 411 836 417 845 L538 1034 L527 1044 L527 1044 Z M296 4 C242 4 236 23 236 51 L236 746 L319 746 C529 746 637 598 637 375 C637 130 501 4 296 4 L296 4 Z M60 743 L86 743 C116 743 136 723 136 693 L136 57 C136 27 116 7 86 7 L60 7 L60 0 L303 0 C569 0 747 128 747 375 C747 600 607 750 336 750 L60 750 L60 743 L60 743 Z " />
<glyph glyph-name="dcaron" unicode="&#x10f;" horiz-adv-x="558" d="M550 758 C533 758 524 695 521 650 L513 539 L528 536 L565 641 C579 679 588 721 588 746 C588 755 573 758 550 758 L550 758 Z M326 717 L337 717 C364 718 382 702 382 675 L382 419 C354 471 307 510 259 510 C118 510 45 406 45 251 C45 97 122 -5 238 -5 C290 -5 346 25 381 71 L381 0 L423 0 L423 -1 C459 9 506 22 542 31 L542 38 L516 31 C486 23 466 38 466 68 L466 750 L424 750 L381 739 C381 736 328 725 325 724 L326 717 L326 717 Z M381 375 L381 78 C357 49 314 30 272 30 C187 30 131 128 131 274 C131 401 178 485 268 485 C316 485 363 434 381 375 L381 375 Z " />
<glyph glyph-name="Emacron" unicode="&#x112;" horiz-adv-x="606" d="M199 895 L450 895 L450 954 L199 954 L199 895 L199 895 Z M453 259 L453 516 L441 516 L433 470 C425 422 389 390 341 390 L236 390 L236 745 L402 745 C450 745 490 713 504 665 L517 619 L529 619 C525 658 518 709 514 748 L513 748 L513 750 L40 750 L40 743 L66 743 C108 743 136 715 136 673 L136 77 C136 35 108 7 66 7 L40 7 L40 0 L538 0 L538 2 C545 38 553 85 559 121 L547 121 L541 104 C521 45 465 5 402 5 L287 5 C241 5 236 23 236 51 L236 385 L341 385 C389 385 425 353 433 305 L441 259 L453 259 L453 259 Z " />
<glyph glyph-name="emacron" unicode="&#x113;" horiz-adv-x="494" d="M151 645 L401 645 L401 704 L151 704 L151 645 L151 645 Z M139 340 L464 340 C442 462 371 510 276 510 C137 510 45 432 45 231 C45 86 129 -10 255 -10 C338 -10 414 48 446 135 L443 135 C416 61 344 11 262 11 C186 11 135 113 135 266 C135 293 136 318 139 340 L139 340 Z M369 346 L140 345 C155 460 206 506 276 506 C314 506 349 461 370 345 L369 346 L369 346 Z " />
<glyph glyph-name="Ebreve" unicode="&#x114;" horiz-adv-x="606" d="M208 994 C215 920 261 870 325 870 C388 870 435 919 441 992 L423 995 C420 956 380 930 325 930 C269 930 230 957 226 997 L208 994 L208 994 Z M453 259 L453 516 L441 516 L433 470 C425 422 389 390 341 390 L236 390 L236 745 L402 745 C450 745 490 713 504 665 L517 619 L529 619 C525 658 518 709 514 748 L513 748 L513 750 L40 750 L40 743 L66 743 C108 743 136 715 136 673 L136 77 C136 35 108 7 66 7 L40 7 L40 0 L538 0 L538 2 C545 38 553 85 559 121 L547 121 L541 104 C521 45 465 5 402 5 L287 5 C241 5 236 23 236 51 L236 385 L341 385 C389 385 425 353 433 305 L441 259 L453 259 L453 259 Z " />
<glyph glyph-name="ebreve" unicode="&#x115;" horiz-adv-x="494" d="M160 744 C167 670 213 620 276 620 C339 620 386 669 392 742 L374 745 C371 706 331 680 276 680 C221 680 182 707 178 747 L160 744 L160 744 Z M139 340 L464 340 C442 462 371 510 276 510 C137 510 45 432 45 231 C45 86 129 -10 255 -10 C338 -10 414 48 446 135 L443 135 C416 61 344 11 262 11 C186 11 135 113 135 266 C135 293 136 318 139 340 L139 340 Z M369 346 L140 345 C155 460 206 506 276 506 C314 506 349 461 370 345 L369 346 L369 346 Z " />
<glyph glyph-name="Edot" unicode="&#x116;" horiz-adv-x="606" d="M325 865 C358 865 380 887 380 920 C380 953 358 975 325 975 C292 975 270 953 270 920 C270 887 292 865 325 865 L325 865 Z M453 259 L453 516 L441 516 L433 470 C425 422 389 390 341 390 L236 390 L236 745 L402 745 C450 745 490 713 504 665 L517 619 L529 619 C525 658 518 709 514 748 L513 748 L513 750 L40 750 L40 743 L66 743 C108 743 136 715 136 673 L136 77 C136 35 108 7 66 7 L40 7 L40 0 L538 0 L538 2 C545 38 553 85 559 121 L547 121 L541 104 C521 45 465 5 402 5 L287 5 C241 5 236 23 236 51 L236 385 L341 385 C389 385 425 353 433 305 L441 259 L453 259 L453 259 Z " />
<glyph glyph-name="edot" unicode="&#x117;" horiz-adv-x="494" d="M276 615 C309 615 331 637 331 670 C331 703 309 725 276 725 C243 725 221 703 221 670 C221 637 243 615 276 615 L276 615 Z M139 340 L464 340 C442 462 371 510 276 510 C137 510 45 432 45 231 C45 86 129 -10 255 -10 C338 -10 414 48 446 135 L443 135 C416 61 344 11 262 11 C186 11 135 113 135 266 C135 293 136 318 139 340 L139 340 Z M369 346 L140 345 C155 460 206 506 276 506 C314 506 349 461 370 345 L369 346 L369 346 Z " />
<glyph glyph-name="Ecaron" unicode="&#x11a;" horiz-adv-x="606" d="M465 1044 L324 905 L184 1044 L173 1034 L295 845 C301 836 315 815 325 815 C335 815 349 836 355 845 L476 1034 L465 1044 L465 1044 Z M453 259 L453 516 L441 516 L433 470 C425 422 389 390 341 390 L236 390 L236 745 L402 745 C450 745 490 713 504 665 L517 619 L529 619 C525 658 518 709 514 748 L513 748 L513 750 L40 750 L40 743 L66 743 C108 743 136 715 136 673 L136 77 C136 35 108 7 66 7 L40 7 L40 0 L538 0 L538 2 C545 38 553 85 559 121 L547 121 L541 104 C521 45 465 5 402 5 L287 5 C241 5 236 23 236 51 L236 385 L341 385 C389 385 425 353 433 305 L441 259 L453 259 L453 259 Z " />
<glyph glyph-name="ecaron" unicode="&#x11b;" horiz-adv-x="494" d="M416 794 L276 655 L136 794 L124 784 L246 595 C252 586 266 565 276 565 C286 565 300 586 306 595 L428 784 L416 794 L416 794 Z M139 340 L464 340 C442 462 371 510 276 510 C137 510 45 432 45 231 C45 86 129 -10 255 -10 C338 -10 414 48 446 135 L443 135 C416 61 344 11 262 11 C186 11 135 113 135 266 C135 293 136 318 139 340 L139 340 Z M369 346 L140 345 C155 460 206 506 276 506 C314 506 349 461 370 345 L369 346 L369 346 Z " />
<glyph glyph-name="Gcircumflex" unicode="&#x11c;" horiz-adv-x="773" d="M655 538 L655 737 L645 737 C644 731 644 722 643 716 C639 684 613 680 578 706 C532 740 476 760 395 760 C188 760 50 606 50 375 C50 144 189 -10 397 -10 C541 -10 634 14 712 51 L710 54 C690 45 667 37 639 30 L639 231 C639 282 668 316 712 316 L725 316 L725 325 L453 325 L453 316 L466 316 C510 316 539 282 539 231 C540 231 540 116 540 105 C538 48 487 10 411 10 C259 10 158 156 158 375 C158 602 253 754 395 754 C515 754 602 657 630 561 C632 554 634 545 636 538 L655 538 L655 538 Z M423 1005 C417 1014 403 1035 393 1035 C383 1035 369 1014 363 1005 L241 816 L253 806 L393 945 L533 806 L545 816 L423 1005 L423 1005 Z " />
<glyph glyph-name="Gbreve" unicode="&#x11e;" horiz-adv-x="773" d="M279 994 C286 920 332 870 395 870 C458 870 505 919 511 992 L493 995 C490 956 450 930 395 930 C340 930 301 957 297 997 L279 994 L279 994 Z M655 538 L655 737 L645 737 C644 731 644 722 643 716 C639 684 613 680 578 706 C532 740 476 760 395 760 C188 760 50 606 50 375 C50 144 189 -10 397 -10 C541 -10 634 14 712 51 L710 54 C690 45 667 37 639 30 L639 231 C639 282 668 316 712 316 L725 316 L725 325 L453 325 L453 316 L466 316 C510 316 539 282 539 231 C540 231 540 116 540 105 C538 48 487 10 411 10 C259 10 158 156 158 375 C158 602 253 754 395 754 C515 754 602 657 630 561 C632 554 634 545 636 538 L655 538 L655 538 Z " />
<glyph glyph-name="gbreve" unicode="&#x11f;" horiz-adv-x="487" d="M123 744 C130 670 176 620 239 620 C302 620 349 669 355 742 L337 745 C334 706 294 680 239 680 C184 680 145 707 141 747 L123 744 L123 744 Z M508 479 C508 510 486 530 453 530 C420 530 383 504 359 464 C330 493 288 510 238 510 C140 510 74 446 74 350 C74 265 125 205 204 191 C113 185 55 152 55 105 C55 52 87 14 137 3 C81 -16 45 -53 45 -95 C45 -176 127 -230 249 -230 C371 -230 452 -165 452 -68 C452 23 404 84 281 84 L171 84 C131 84 104 102 104 130 C104 165 158 188 239 188 C337 188 402 253 402 350 C402 395 388 433 363 461 C373 472 387 479 402 479 C423 479 450 444 471 444 C493 444 507 459 507 481 L508 479 L508 479 Z M238 194 C191 194 159 257 159 352 C159 446 191 508 238 508 C285 508 316 446 316 352 C316 257 285 194 238 194 L238 194 Z M147 3 C153 2 159 2 165 2 L270 2 C348 2 379 -33 379 -86 C379 -169 327 -224 248 -224 C168 -224 114 -164 114 -73 C114 -39 126 -11 146 3 L147 3 L147 3 Z " />
<glyph glyph-name="Gdot" unicode="&#x120;" horiz-adv-x="773" d="M395 865 C428 865 450 887 450 920 C450 953 428 975 395 975 C362 975 340 953 340 920 C340 887 362 865 395 865 L395 865 Z M655 538 L655 737 L645 737 C644 731 644 722 643 716 C639 684 613 680 578 706 C532 740 476 760 395 760 C188 760 50 606 50 375 C50 144 189 -10 397 -10 C541 -10 634 14 712 51 L710 54 C690 45 667 37 639 30 L639 231 C639 282 668 316 712 316 L725 316 L725 325 L453 325 L453 316 L466 316 C510 316 539 282 539 231 C540 231 540 116 540 105 C538 48 487 10 411 10 C259 10 158 156 158 375 C158 602 253 754 395 754 C515 754 602 657 630 561 C632 554 634 545 636 538 L655 538 L655 538 Z " />
<glyph glyph-name="gdot" unicode="&#x121;" horiz-adv-x="487" d="M239 615 C272 615 294 637 294 670 C294 703 272 725 239 725 C206 725 184 703 184 670 C184 637 206 615 239 615 L239 615 Z M508 479 C508 510 486 530 453 530 C420 530 383 504 359 464 C330 493 288 510 238 510 C140 510 74 446 74 350 C74 265 125 205 204 191 C113 185 55 152 55 105 C55 52 87 14 137 3 C81 -16 45 -53 45 -95 C45 -176 127 -230 249 -230 C371 -230 452 -165 452 -68 C452 23 404 84 281 84 L171 84 C131 84 104 102 104 130 C104 165 158 188 239 188 C337 188 402 253 402 350 C402 395 388 433 363 461 C373 472 387 479 402 479 C423 479 450 444 471 444 C493 444 507 459 507 481 L508 479 L508 479 Z M238 194 C191 194 159 257 159 352 C159 446 191 508 238 508 C285 508 316 446 316 352 C316 257 285 194 238 194 L238 194 Z M147 3 C153 2 159 2 165 2 L270 2 C348 2 379 -33 379 -86 C379 -169 327 -224 248 -224 C168 -224 114 -164 114 -73 C114 -39 126 -11 146 3 L147 3 L147 3 Z " />
<glyph glyph-name="Hcircumflex" unicode="&#x124;" horiz-adv-x="804" d="M450 1005 C444 1014 430 1035 420 1035 C410 1035 396 1014 390 1005 L268 816 L280 806 L420 945 L560 806 L572 816 L450 1005 L450 1005 Z M744 7 L718 7 C688 7 668 27 668 57 L668 693 C668 723 688 743 718 743 L744 743 L744 750 L492 750 L492 743 L518 743 C548 743 568 723 568 693 L568 389 L272 389 L272 693 C272 723 292 743 322 743 L348 743 L348 750 L96 750 L96 743 L122 743 C152 743 172 723 172 693 L172 57 C172 27 152 7 122 7 L96 7 L96 0 L348 0 L348 7 L322 7 C292 7 272 27 272 57 L272 383 L568 383 L568 57 C568 27 548 7 518 7 L492 7 L492 0 L744 0 L744 7 L744 7 Z " />
<glyph glyph-name="Itilde" unicode="&#x128;" horiz-adv-x="367" d="M61 870 C61 906 75 930 97 930 C140 930 198 865 241 865 C279 865 304 913 304 985 L301 985 C301 949 285 925 261 925 C218 925 160 990 116 990 C81 990 58 942 58 870 L61 870 L61 870 Z M307 7 L281 7 C251 7 231 27 231 57 L231 693 C231 723 251 743 281 743 L307 743 L307 750 L55 750 L55 743 L81 743 C111 743 131 723 131 693 L131 57 C131 27 111 7 81 7 L55 7 L55 0 L307 0 L307 7 L307 7 Z " />
<glyph glyph-name="itilde" unicode="&#x129;" horiz-adv-x="302" d="M38 620 C38 656 53 680 75 680 C118 680 175 615 218 615 C256 615 282 663 282 735 L279 735 C279 699 263 675 238 675 C195 675 137 740 94 740 C59 740 35 692 35 620 L38 620 L38 620 Z M60 467 L101 478 C110 481 116 476 116 467 L116 22 C116 13 110 7 101 7 L60 7 L60 0 L257 0 L257 7 L216 7 C207 7 201 13 201 22 L201 500 L159 500 L159 501 C129 493 90 482 60 474 L60 467 L60 467 Z " />
<glyph glyph-name="Imacron" unicode="&#x12a;" horiz-adv-x="367" d="M56 895 L306 895 L306 954 L56 954 L56 895 L56 895 Z M307 7 L281 7 C251 7 231 27 231 57 L231 693 C231 723 251 743 281 743 L307 743 L307 750 L55 750 L55 743 L81 743 C111 743 131 723 131 693 L131 57 C131 27 111 7 81 7 L55 7 L55 0 L307 0 L307 7 L307 7 Z " />
<glyph glyph-name="imacron" unicode="&#x12b;" horiz-adv-x="302" d="M33 645 L284 645 L284 704 L33 704 L33 645 L33 645 Z M60 467 L101 478 C110 481 116 476 116 467 L116 22 C116 13 110 7 101 7 L60 7 L60 0 L257 0 L257 7 L216 7 C207 7 201 13 201 22 L201 500 L159 500 L159 501 C129 493 90 482 60 474 L60 467 L60 467 Z " />
<glyph glyph-name="Ibreve" unicode="&#x12c;" horiz-adv-x="367" d="M65 994 C72 920 118 870 181 870 C244 870 291 919 297 992 L279 995 C276 956 236 930 181 930 C126 930 87 957 83 997 L65 994 L65 994 Z M307 7 L281 7 C251 7 231 27 231 57 L231 693 C231 723 251 743 281 743 L307 743 L307 750 L55 750 L55 743 L81 743 C111 743 131 723 131 693 L131 57 C131 27 111 7 81 7 L55 7 L55 0 L307 0 L307 7 L307 7 Z " />
<glyph glyph-name="ibreve" unicode="&#x12d;" horiz-adv-x="302" d="M42 744 C49 670 95 620 159 620 C222 620 269 669 275 742 L257 745 C254 706 214 680 159 680 C103 680 64 707 60 747 L42 744 L42 744 Z M60 467 L101 478 C110 481 116 476 116 467 L116 22 C116 13 110 7 101 7 L60 7 L60 0 L257 0 L257 7 L216 7 C207 7 201 13 201 22 L201 500 L159 500 L159 501 C129 493 90 482 60 474 L60 467 L60 467 Z " />
<glyph glyph-name="Idot" unicode="&#x130;" horiz-adv-x="367" d="M181 865 C214 865 236 887 236 920 C236 953 214 975 181 975 C148 975 126 953 126 920 C126 887 148 865 181 865 L181 865 Z M307 7 L281 7 C251 7 231 27 231 57 L231 693 C231 723 251 743 281 743 L307 743 L307 750 L55 750 L55 743 L81 743 C111 743 131 723 131 693 L131 57 C131 27 111 7 81 7 L55 7 L55 0 L307 0 L307 7 L307 7 Z " />
<glyph glyph-name="dotlessi" unicode="&#x131;" horiz-adv-x="302" d="M60 467 L101 478 C110 481 116 476 116 467 L116 22 C116 13 110 7 101 7 L60 7 L60 0 L257 0 L257 7 L216 7 C207 7 201 13 201 22 L201 500 L159 500 L159 501 C129 493 90 482 60 474 L60 467 L60 467 Z " />
<glyph glyph-name="Jcircumflex" unicode="&#x134;" horiz-adv-x="367" d="M211 1005 C205 1014 191 1035 181 1035 C171 1035 157 1014 151 1005 L29 816 L41 806 L181 945 L321 806 L333 816 L211 1005 L211 1005 Z M307 750 L55 750 L55 743 L81 743 C111 743 131 723 131 693 L131 -72 C131 -190 66 -212 19 -212 C-30 -212 -6 -132 -56 -132 C-83 -132 -101 -150 -101 -177 C-101 -203 -55 -220 13 -220 C105 -220 231 -166 231 116 L231 693 C231 723 251 743 281 743 L307 743 L307 750 L307 750 Z " />
<glyph glyph-name="Lacute" unicode="&#x139;" horiz-adv-x="591" d="M189 812 L331 932 C369 965 395 990 395 996 C395 1019 376 1038 353 1038 C347 1038 324 1011 292 971 L178 823 L189 812 L189 812 Z M307 750 L55 750 L55 743 L81 743 C111 743 131 723 131 693 L131 57 C131 27 111 7 81 7 L55 7 L55 0 L525 0 L525 13 C532 49 540 96 546 132 L534 132 L528 115 C508 56 452 16 389 16 L282 16 C236 16 231 30 231 50 L231 692 C231 722 251 742 281 742 L307 742 L307 750 L307 750 Z " />
<glyph glyph-name="Lcaron" unicode="&#x13d;" horiz-adv-x="591" d="M406 808 C388 808 379 745 376 700 L368 589 L383 586 L421 691 C435 728 444 770 444 796 C444 805 429 808 406 808 L406 808 Z M307 750 L55 750 L55 743 L81 743 C111 743 131 723 131 693 L131 57 C131 27 111 7 81 7 L55 7 L55 0 L525 0 L525 13 C532 49 540 96 546 132 L534 132 L528 115 C508 56 452 16 389 16 L282 16 C236 16 231 30 231 50 L231 692 C231 722 251 742 281 742 L307 742 L307 750 L307 750 Z " />
<glyph glyph-name="lcaron" unicode="&#x13e;" horiz-adv-x="246" d="M243 758 C226 758 217 695 214 650 L206 539 L221 536 L258 641 C272 679 281 721 281 746 C281 755 266 758 243 758 L243 758 Z M19 718 L30 718 C57 720 75 703 75 676 L75 22 C75 13 69 7 60 7 L19 7 L19 0 L216 0 L216 7 L175 7 C166 7 160 13 160 22 L160 750 L118 750 C88 742 49 733 19 725 L19 718 L19 718 Z " />
<glyph glyph-name="Nacute" unicode="&#x143;" horiz-adv-x="726" d="M267 812 L409 932 C447 965 473 990 473 996 C473 1019 454 1038 431 1038 C425 1038 401 1011 370 971 L257 823 L267 812 L267 812 Z M-16 743 L10 743 C37 743 68 726 88 700 L129 639 L128 56 C128 26 108 6 78 6 L52 6 L52 -1 L234 -1 L234 6 L208 6 C178 6 158 26 158 56 L158 56 L155 600 C291 400 427 200 562 -1 L582 -1 L589 700 C592 725 612 741 639 741 L665 741 L665 748 L483 748 L483 741 L509 741 C539 741 559 721 559 691 L559 691 L561 177 C434 368 306 558 178 748 L-17 748 L-16 743 L-16 743 Z " />
<glyph glyph-name="Ncaron" unicode="&#x147;" horiz-adv-x="726" d="M500 1044 L359 905 L219 1044 L208 1034 L330 845 C336 836 350 815 360 815 C370 815 384 836 390 845 L511 1034 L500 1044 L500 1044 Z M-16 743 L10 743 C37 743 68 726 88 700 L129 639 L128 56 C128 26 108 6 78 6 L52 6 L52 -1 L234 -1 L234 6 L208 6 C178 6 158 26 158 56 L158 56 L155 600 C291 400 427 200 562 -1 L582 -1 L589 700 C592 725 612 741 639 741 L665 741 L665 748 L483 748 L483 741 L509 741 C539 741 559 721 559 691 L559 691 L561 177 C434 368 306 558 178 748 L-17 748 L-16 743 L-16 743 Z " />
<glyph glyph-name="ncaron" unicode="&#x148;" horiz-adv-x="515" d="M392 794 L252 655 L112 794 L100 784 L222 595 C228 586 242 565 252 565 C262 565 276 586 282 595 L404 784 L392 794 L392 794 Z M20 469 L31 469 C57 470 74 456 76 432 C76 335 75 137 75 22 C75 13 69 7 60 7 L19 7 L19 0 L216 0 L216 7 L175 7 C166 7 160 13 160 22 L160 378 C180 432 229 468 283 468 C323 468 344 418 344 342 L344 22 C344 13 338 7 329 7 L288 7 L288 0 L485 0 L485 7 L444 7 C435 7 429 13 429 22 L429 342 C429 443 388 510 308 510 C245 510 186 462 160 391 L160 500 L118 500 L117 500 C117 500 28 478 20 476 L20 469 L20 469 Z " />
<glyph glyph-name="Omacron" unicode="&#x14c;" horiz-adv-x="810" d="M273 895 L523 895 L523 954 L273 954 L273 895 L273 895 Z M159 375 C159 602 254 754 397 754 C546 754 646 602 646 375 C646 148 543 -4 389 -4 C251 -4 159 148 159 375 L159 375 Z M50 375 C50 144 185 -10 388 -10 C608 -10 755 144 755 375 C755 606 612 760 398 760 C189 760 50 606 50 375 L50 375 Z " />
<glyph glyph-name="omacron" unicode="&#x14d;" horiz-adv-x="580" d="M165 645 L415 645 L415 704 L165 704 L165 645 L165 645 Z M139 250 C139 402 199 504 290 504 C381 504 442 402 442 250 C442 98 381 -4 290 -4 C199 -4 139 98 139 250 L139 250 Z M45 250 C45 94 143 -10 290 -10 C437 -10 535 94 535 250 C535 406 437 510 290 510 C143 510 45 406 45 250 L45 250 Z " />
<glyph glyph-name="Obreve" unicode="&#x14e;" horiz-adv-x="810" d="M282 994 C289 920 335 870 398 870 C461 870 508 919 514 992 L496 995 C493 956 453 930 398 930 C343 930 304 957 300 997 L282 994 L282 994 Z M159 375 C159 602 254 754 397 754 C546 754 646 602 646 375 C646 148 543 -4 389 -4 C251 -4 159 148 159 375 L159 375 Z M50 375 C50 144 185 -10 388 -10 C608 -10 755 144 755 375 C755 606 612 760 398 760 C189 760 50 606 50 375 L50 375 Z " />
<glyph glyph-name="obreve" unicode="&#x14f;" horiz-adv-x="580" d="M174 744 C181 670 227 620 290 620 C353 620 400 669 406 742 L388 745 C385 706 345 680 290 680 C235 680 196 707 192 747 L174 744 L174 744 Z M139 250 C139 402 199 504 290 504 C381 504 442 402 442 250 C442 98 381 -4 290 -4 C199 -4 139 98 139 250 L139 250 Z M45 250 C45 94 143 -10 290 -10 C437 -10 535 94 535 250 C535 406 437 510 290 510 C143 510 45 406 45 250 L45 250 Z " />
<glyph glyph-name="Racute" unicode="&#x154;" horiz-adv-x="708" d="M301 812 L443 932 C481 965 507 990 507 996 C507 1019 488 1038 465 1038 C459 1038 435 1011 404 971 L291 823 L301 812 L301 812 Z M60 743 L86 743 C116 743 136 723 136 693 L136 57 C136 27 116 7 86 7 L60 7 L60 0 L312 0 L312 7 L286 7 C256 7 236 27 236 57 L236 355 L304 355 C322 316 384 207 469 67 C508 3 517 0 698 0 L698 7 C626 7 621 9 586 67 C498 212 432 321 405 365 C501 386 561 442 561 539 C561 666 460 751 309 751 L60 751 L60 743 L60 743 Z M236 381 L236 731 L279 731 C382 731 451 662 451 559 C451 436 394 381 309 381 L236 381 L236 381 Z " />
<glyph glyph-name="Rcaron" unicode="&#x158;" horiz-adv-x="708" d="M434 1044 L293 905 L153 1044 L142 1034 L264 845 C270 836 284 815 294 815 C304 815 318 836 324 845 L445 1034 L434 1044 L434 1044 Z M60 743 L86 743 C116 743 136 723 136 693 L136 57 C136 27 116 7 86 7 L60 7 L60 0 L312 0 L312 7 L286 7 C256 7 236 27 236 57 L236 355 L304 355 C322 316 384 207 469 67 C508 3 517 0 698 0 L698 7 C626 7 621 9 586 67 C498 212 432 321 405 365 C501 386 561 442 561 539 C561 666 460 751 309 751 L60 751 L60 743 L60 743 Z M236 381 L236 731 L279 731 C382 731 451 662 451 559 C451 436 394 381 309 381 L236 381 L236 381 Z " />
<glyph glyph-name="rcaron" unicode="&#x159;" horiz-adv-x="371" d="M351 794 L211 655 L71 794 L59 784 L181 595 C187 586 201 565 211 565 C221 565 235 586 241 595 L363 784 L351 794 L351 794 Z M20 468 L31 468 C58 470 76 453 76 426 L76 22 C76 13 70 7 61 7 L20 7 L20 0 L217 0 L217 7 L176 7 C167 7 161 13 161 22 L161 399 C173 443 203 471 242 471 C253 471 261 457 261 436 C261 406 281 386 311 386 C341 386 361 406 361 436 C361 481 329 511 282 511 C222 511 176 472 161 411 L161 501 L119 501 C89 493 50 484 20 476 L20 468 L20 468 Z " />
<glyph glyph-name="Sacute" unicode="&#x15a;" horiz-adv-x="518" d="M265 812 L407 932 C445 965 471 990 471 996 C471 1019 452 1038 429 1038 C423 1038 400 1011 368 971 L254 823 L265 812 L265 812 Z M65 154 L65 154 L65 154 L65 154 Z M50 231 L50 9 L60 9 C61 17 61 27 62 35 C65 70 89 76 122 52 C166 14 219 -9 272 -9 C396 -9 478 73 478 197 C478 297 418 386 302 428 C197 466 143 532 143 602 C143 724 208 785 303 742 L303 742 C350 720 395 658 415 586 C417 579 419 568 421 561 L438 561 L438 747 L428 747 C427 742 427 735 426 730 C423 708 407 702 384 714 C346 745 296 763 243 763 C136 763 65 684 65 566 C65 461 126 369 243 326 C346 289 399 230 399 170 C399 68 349 0 273 0 C240 0 205 14 173 40 C132 74 93 140 74 209 C72 216 70 227 68 234 L50 231 L50 231 Z " />
<glyph glyph-name="Scircumflex" unicode="&#x15c;" horiz-adv-x="518" d="M287 1005 C281 1014 267 1035 257 1035 C247 1035 233 1014 227 1005 L105 816 L117 806 L257 945 L397 806 L409 816 L287 1005 L287 1005 Z M65 154 L65 154 L65 154 L65 154 Z M50 231 L50 9 L60 9 C61 17 61 27 62 35 C65 70 89 76 122 52 C166 14 219 -9 272 -9 C396 -9 478 73 478 197 C478 297 418 386 302 428 C197 466 143 532 143 602 C143 724 208 785 303 742 L303 742 C350 720 395 658 415 586 C417 579 419 568 421 561 L438 561 L438 747 L428 747 C427 742 427 735 426 730 C423 708 407 702 384 714 C346 745 296 763 243 763 C136 763 65 684 65 566 C65 461 126 369 243 326 C346 289 399 230 399 170 C399 68 349 0 273 0 C240 0 205 14 173 40 C132 74 93 140 74 209 C72 216 70 227 68 234 L50 231 L50 231 Z " />
<glyph glyph-name="Scaron" unicode="&#x160;" horiz-adv-x="518" d="M397 1044 L257 905 L117 1044 L105 1034 L227 845 C233 836 247 815 257 815 C267 815 281 836 287 845 L409 1034 L397 1044 L397 1044 Z M65 154 L65 154 L65 154 L65 154 Z M50 231 L50 9 L60 9 C61 17 61 27 62 35 C65 70 89 76 122 52 C166 14 219 -9 272 -9 C396 -9 478 73 478 197 C478 297 418 386 302 428 C197 466 143 532 143 602 C143 724 208 785 303 742 L303 742 C350 720 395 658 415 586 C417 579 419 568 421 561 L438 561 L438 747 L428 747 C427 742 427 735 426 730 C423 708 407 702 384 714 C346 745 296 763 243 763 C136 763 65 684 65 566 C65 461 126 369 243 326 C346 289 399 230 399 170 C399 68 349 0 273 0 C240 0 205 14 173 40 C132 74 93 140 74 209 C72 216 70 227 68 234 L50 231 L50 231 Z " />
<glyph glyph-name="scaron" unicode="&#x161;" horiz-adv-x="395" d="M338 794 L198 655 L58 794 L46 784 L168 595 C174 586 188 565 198 565 C208 565 222 586 228 595 L350 784 L338 794 L338 794 Z M320 351 L320 501 L313 501 C312 497 312 492 311 488 C310 478 287 480 254 493 C234 503 212 509 190 509 C111 509 58 457 58 379 C58 301 99 238 179 217 C245 199 279 156 279 105 C279 14 213 -38 148 14 C110 45 81 102 68 167 L60 167 L60 7 L67 7 C68 12 68 17 69 22 C71 37 96 31 132 9 L132 9 C153 -4 176 -11 198 -11 C286 -11 345 45 345 129 C345 200 301 258 217 281 C152 298 119 348 119 408 C119 474 159 522 216 501 L216 501 C260 484 297 422 311 351 L320 351 L320 351 Z " />
<glyph glyph-name="Tcaron" unicode="&#x164;" horiz-adv-x="741" d="M511 1044 L371 905 L231 1044 L219 1034 L341 845 C347 836 361 815 371 815 C381 815 395 836 401 845 L523 1034 L511 1044 L511 1044 Z M663 786 L659 781 C648 762 607 750 559 750 L183 750 C135 750 94 762 83 781 L79 786 L70 786 C63 771 54 753 48 738 C32 699 22 648 6 609 L18 609 L37 640 C66 691 119 725 170 725 L321 725 L321 57 C321 27 301 7 271 7 L245 7 L245 0 L497 0 L497 7 L471 7 C441 7 421 27 421 57 L421 725 L572 725 C623 725 676 691 705 640 L724 609 L736 609 C720 648 709 699 693 738 C687 753 679 771 672 786 L663 786 L663 786 Z " />
<glyph glyph-name="tcaron" unicode="&#x165;" horiz-adv-x="358" d="M312 500 L176 500 L176 620 L170 620 L26 466 L26 456 L91 456 L91 160 C91 38 143 -10 220 -10 C274 -10 325 32 348 96 L337 100 C322 58 285 30 246 30 C203 30 174 61 174 141 L176 455 L312 455 L312 500 L312 500 Z M401 758 C384 758 375 695 372 650 L364 539 L379 536 L416 641 C430 679 439 721 439 746 C439 755 424 758 401 758 L401 758 Z " />
<glyph glyph-name="Utilde" unicode="&#x168;" horiz-adv-x="701" d="M228 870 C228 906 242 930 264 930 C307 930 365 865 408 865 C446 865 471 913 471 985 L468 985 C468 949 452 925 428 925 C385 925 327 990 283 990 C248 990 225 942 225 870 L228 870 L228 870 Z M671 40 L645 33 C615 25 595 40 595 70 L595 750 L419 750 L419 743 L445 743 C475 743 495 723 495 693 L495 183 C459 106 382 54 303 54 C242 54 201 118 201 213 L201 750 L25 750 L25 743 L51 743 C81 743 101 723 101 693 L101 213 C101 79 165 -10 262 -10 C360 -10 454 49 495 138 L495 0 L545 0 C549 1 595 11 595 13 C621 20 648 27 671 33 L671 40 L671 40 Z " />
<glyph glyph-name="utilde" unicode="&#x169;" horiz-adv-x="492" d="M121 620 C121 656 135 680 157 680 C200 680 258 615 301 615 C339 615 364 663 364 735 L361 735 C361 699 345 675 321 675 C278 675 220 740 176 740 C141 740 118 692 118 620 L121 620 L121 620 Z M477 36 L461 31 C431 23 411 38 411 68 L411 500 L270 500 L270 493 L311 493 C320 493 326 487 326 478 L326 129 C304 80 267 48 229 48 C186 48 157 90 157 154 L157 499 L16 499 L16 492 L57 492 C66 492 72 486 72 477 L72 154 C72 55 119 -11 189 -11 C240 -11 294 42 328 123 L328 -1 L370 -1 L370 -2 C403 7 446 19 479 28 L477 36 L477 36 Z " />
<glyph glyph-name="Umacron" unicode="&#x16a;" horiz-adv-x="701" d="M223 895 L473 895 L473 954 L223 954 L223 895 L223 895 Z M671 40 L645 33 C615 25 595 40 595 70 L595 750 L419 750 L419 743 L445 743 C475 743 495 723 495 693 L495 183 C459 106 382 54 303 54 C242 54 201 118 201 213 L201 750 L25 750 L25 743 L51 743 C81 743 101 723 101 693 L101 213 C101 79 165 -10 262 -10 C360 -10 454 49 495 138 L495 0 L545 0 C549 1 595 11 595 13 C621 20 648 27 671 33 L671 40 L671 40 Z " />
<glyph glyph-name="umacron" unicode="&#x16b;" horiz-adv-x="492" d="M116 645 L366 645 L366 704 L116 704 L116 645 L116 645 Z M477 36 L461 31 C431 23 411 38 411 68 L411 500 L270 500 L270 493 L311 493 C320 493 326 487 326 478 L326 129 C304 80 267 48 229 48 C186 48 157 90 157 154 L157 499 L16 499 L16 492 L57 492 C66 492 72 486 72 477 L72 154 C72 55 119 -11 189 -11 C240 -11 294 42 328 123 L328 -1 L370 -1 L370 -2 C403 7 446 19 479 28 L477 36 L477 36 Z " />
<glyph glyph-name="Ubreve" unicode="&#x16c;" horiz-adv-x="701" d="M232 994 C239 920 285 870 348 870 C411 870 458 919 464 992 L446 995 C443 956 403 930 348 930 C293 930 254 957 250 997 L232 994 L232 994 Z M671 40 L645 33 C615 25 595 40 595 70 L595 750 L419 750 L419 743 L445 743 C475 743 495 723 495 693 L495 183 C459 106 382 54 303 54 C242 54 201 118 201 213 L201 750 L25 750 L25 743 L51 743 C81 743 101 723 101 693 L101 213 C101 79 165 -10 262 -10 C360 -10 454 49 495 138 L495 0 L545 0 C549 1 595 11 595 13 C621 20 648 27 671 33 L671 40 L671 40 Z " />
<glyph glyph-name="ubreve" unicode="&#x16d;" horiz-adv-x="492" d="M125 744 C132 670 178 620 241 620 C304 620 351 669 357 742 L339 745 C336 706 296 680 241 680 C186 680 147 707 143 747 L125 744 L125 744 Z M477 36 L461 31 C431 23 411 38 411 68 L411 500 L270 500 L270 493 L311 493 C320 493 326 487 326 478 L326 129 C304 80 267 48 229 48 C186 48 157 90 157 154 L157 499 L16 499 L16 492 L57 492 C66 492 72 486 72 477 L72 154 C72 55 119 -11 189 -11 C240 -11 294 42 328 123 L328 -1 L370 -1 L370 -2 C403 7 446 19 479 28 L477 36 L477 36 Z " />
<glyph glyph-name="Uring" unicode="&#x16e;" horiz-adv-x="701" d="M276 905 C276 950 305 980 348 980 C392 980 421 950 421 905 C421 865 387 830 348 830 C309 830 276 865 276 905 L276 905 Z M251 905 C251 854 296 810 348 810 C401 810 446 854 446 905 C446 962 407 1000 348 1000 C290 1000 251 962 251 905 L251 905 Z M671 40 L645 33 C615 25 595 40 595 70 L595 750 L419 750 L419 743 L445 743 C475 743 495 723 495 693 L495 183 C459 106 382 54 303 54 C242 54 201 118 201 213 L201 750 L25 750 L25 743 L51 743 C81 743 101 723 101 693 L101 213 C101 79 165 -10 262 -10 C360 -10 454 49 495 138 L495 0 L545 0 C549 1 595 11 595 13 C621 20 648 27 671 33 L671 40 L671 40 Z " />
<glyph glyph-name="uring" unicode="&#x16f;" horiz-adv-x="492" d="M169 655 C169 700 198 730 241 730 C285 730 314 700 314 655 C314 615 280 580 241 580 C202 580 169 615 169 655 L169 655 Z M144 655 C144 604 189 560 241 560 C294 560 339 604 339 655 C339 712 300 750 241 750 C183 750 144 712 144 655 L144 655 Z M477 36 L461 31 C431 23 411 38 411 68 L411 500 L270 500 L270 493 L311 493 C320 493 326 487 326 478 L326 129 C304 80 267 48 229 48 C186 48 157 90 157 154 L157 499 L16 499 L16 492 L57 492 C66 492 72 486 72 477 L72 154 C72 55 119 -11 189 -11 C240 -11 294 42 328 123 L328 -1 L370 -1 L370 -2 C403 7 446 19 479 28 L477 36 L477 36 Z " />
<glyph glyph-name="Wcircumflex" unicode="&#x174;" horiz-adv-x="1025" d="M275 750 L1 750 L1 741 L11 741 C45 741 79 709 96 661 L96 661 C177 437 258 213 339 -11 L364 -11 L528 453 C584 298 640 144 696 -11 L721 -11 L909 671 C925 713 961 740 1001 740 L1014 740 L1014 749 L755 749 L755 740 L809 740 C857 740 880 708 868 660 L868 660 L734 137 L558 669 C548 712 570 740 615 740 L653 740 L653 749 L354 749 L354 740 L365 740 C401 740 437 708 454 660 L454 660 C473 606 493 552 512 499 L384 119 C325 299 264 480 206 660 C190 708 211 740 259 740 L277 740 L275 750 L275 750 Z M529 1004 C523 1013 509 1034 499 1034 C489 1034 475 1013 469 1004 L347 815 L358 805 L498 944 L639 805 L650 815 L529 1004 L529 1004 Z " />
<glyph glyph-name="Ycircumflex" unicode="&#x176;" horiz-adv-x="675" d="M271 750 L0 750 L0 743 C36 743 65 729 87 697 L296 323 L296 78 C296 36 268 8 226 8 L200 8 L200 1 L492 1 L492 8 L466 8 C424 8 396 36 396 78 L396 338 L567 695 C584 725 614 744 645 744 L677 744 L677 751 L467 751 L467 744 L525 744 C558 744 569 722 554 689 L554 689 L394 345 L209 689 L210 689 C192 722 202 744 235 744 L272 744 L271 750 L271 750 Z M377 1006 C371 1015 357 1036 347 1036 C337 1036 323 1015 317 1006 L195 817 L207 807 L347 946 L487 807 L499 817 L377 1006 L377 1006 Z " />
<glyph glyph-name="Ydieresis" unicode="&#x178;" horiz-adv-x="675" d="M419 865 C452 865 474 887 474 920 C474 953 452 975 419 975 C386 975 364 953 364 920 C364 887 386 865 419 865 L419 865 Z M273 865 C306 865 328 887 328 920 C328 953 306 975 273 975 C240 975 218 953 218 920 C218 887 240 865 273 865 L273 865 Z M271 750 L0 750 L0 743 C36 743 65 729 87 697 L296 323 L296 78 C296 36 268 8 226 8 L200 8 L200 1 L492 1 L492 8 L466 8 C424 8 396 36 396 78 L396 338 L567 695 C584 725 614 744 645 744 L677 744 L677 751 L467 751 L467 744 L525 744 C558 744 569 722 554 689 L554 689 L394 345 L209 689 L210 689 C192 722 202 744 235 744 L272 744 L271 750 L271 750 Z " />
<glyph glyph-name="Zacute" unicode="&#x179;" horiz-adv-x="615" d="M331 812 L473 932 C511 965 537 990 537 996 C537 1019 518 1038 495 1038 C489 1038 465 1011 434 971 L321 823 L331 812 L331 812 Z M70 606 L74 624 C90 683 142 723 205 724 L205 724 L470 728 L25 20 L25 0 L573 0 L576 15 C577 15 588 66 606 146 L594 146 L587 128 C565 73 514 34 456 28 L142 22 L577 730 L577 750 L70 750 L67 722 L68 722 C66 702 63 660 58 606 L70 606 L70 606 Z " />
<glyph glyph-name="Zdot" unicode="&#x17b;" horiz-adv-x="615" d="M324 865 C357 865 379 887 379 920 C379 953 357 975 324 975 C291 975 269 953 269 920 C269 887 291 865 324 865 L324 865 Z M70 606 L74 624 C90 683 142 723 205 724 L205 724 L470 728 L25 20 L25 0 L573 0 L576 15 C577 15 588 66 606 146 L594 146 L587 128 C565 73 514 34 456 28 L142 22 L577 730 L577 750 L70 750 L67 722 L68 722 C66 702 63 660 58 606 L70 606 L70 606 Z " />
<glyph glyph-name="zdot" unicode="&#x17c;" horiz-adv-x="442" d="M237 615 C270 615 292 637 292 670 C292 703 270 725 237 725 C204 725 182 703 182 670 C182 637 204 615 237 615 L237 615 Z M71 523 C68 512 64 496 61 485 L71 485 L71 484 L61 484 C61 484 50 443 33 381 L47 381 L55 395 C77 437 120 467 167 473 L302 477 L40 20 L40 0 L130 0 C216 -1 305 1 389 -1 C389 -1 392 10 396 28 C402 51 408 84 411 119 L397 119 L392 105 C375 60 331 28 280 27 L142 23 L401 480 L401 500 L108 500 C87 500 81 508 81 523 L71 523 L71 523 Z " />
<glyph glyph-name="Zcaron" unicode="&#x17d;" horiz-adv-x="615" d="M464 1044 L323 905 L183 1044 L172 1034 L294 845 C300 836 314 815 324 815 C334 815 348 836 354 845 L475 1034 L464 1044 L464 1044 Z M70 606 L74 624 C90 683 142 723 205 724 L205 724 L470 728 L25 20 L25 0 L573 0 L576 15 C577 15 588 66 606 146 L594 146 L587 128 C565 73 514 34 456 28 L142 22 L577 730 L577 750 L70 750 L67 722 L68 722 C66 702 63 660 58 606 L70 606 L70 606 Z " />
<glyph glyph-name="zcaron" unicode="&#x17e;" horiz-adv-x="442" d="M377 794 L236 655 L96 794 L85 784 L207 595 C213 586 227 565 237 565 C247 565 261 586 267 595 L388 784 L377 794 L377 794 Z M71 523 C68 512 64 496 61 485 L71 485 L71 484 L61 484 C61 484 50 443 33 381 L47 381 L55 395 C77 437 120 467 167 473 L302 477 L40 20 L40 0 L130 0 C216 -1 305 1 389 -1 C389 -1 392 10 396 28 C402 51 408 84 411 119 L397 119 L392 105 C375 60 331 28 280 27 L142 23 L401 480 L401 500 L108 500 C87 500 81 508 81 523 L71 523 L71 523 Z " />
<glyph glyph-name="oogonek" unicode="&#x1eb;" horiz-adv-x="731" d="M927 -51 L926 -50 C897 -75 796 -91 674 -91 C529 -91 384 -58 302 -7 C318 -9 335 -10 353 -10 C550 -10 682 111 682 292 C682 473 554 593 363 593 C178 593 54 473 54 292 C54 169 110 74 202 26 C346 -79 532 -149 666 -149 C753 -149 858 -109 929 -50 L927 -51 L927 -51 Z M285 6 C203 42 152 148 152 293 C152 471 236 589 363 589 C496 589 585 471 585 293 C585 113 491 -7 349 -7 C327 -7 306 -3 287 5 C286 5 286 5 285 5 L285 6 L285 6 Z " />
<glyph glyph-name="Adotabove" unicode="&#x226;" horiz-adv-x="714" d="M366 865 C399 865 421 887 421 920 C421 953 399 975 366 975 C333 975 311 953 311 920 C311 887 333 865 366 865 L366 865 Z M397 0 L711 0 L711 9 L699 9 C655 9 614 49 596 109 C531 329 467 550 401 770 L391 770 C395 747 365 727 316 720 L319 710 C265 510 212 309 158 109 C142 49 91 9 31 9 L5 9 L5 0 L262 0 L262 9 L238 9 C178 9 149 49 165 109 L165 109 L214 294 L439 294 L495 100 C507 45 478 9 421 9 L398 9 L397 0 L397 0 Z M216 299 L322 703 L438 299 L216 299 L216 299 Z " />
<glyph glyph-name="G_sc" unicode="&#x262;" horiz-adv-x="701" d="M583 401 L583 598 L573 598 C572 592 572 583 571 577 C568 547 543 540 510 558 C493 568 472 575 452 584 L451 583 C424 590 393 594 355 594 C173 594 51 474 51 293 C51 112 175 -9 360 -9 C433 -9 493 0 547 16 L567 20 L567 22 C592 30 616 40 639 51 L638 54 C617 44 594 35 567 28 L567 159 C567 210 596 244 640 244 L653 244 L653 253 L391 253 L391 244 L404 244 C448 244 477 210 477 159 C478 159 478 96 478 90 C475 41 435 8 375 8 C240 8 150 122 150 292 C150 470 233 588 357 588 C397 588 430 579 459 563 C503 536 542 483 559 425 C561 418 563 408 565 401 L583 401 L583 401 Z " />
<glyph glyph-name="I_sc" unicode="&#x26a;" horiz-adv-x="362" d="M302 7 L276 7 C246 7 226 27 226 57 L226 526 C226 556 246 576 276 576 L302 576 L302 583 L60 583 L60 576 L86 576 C116 576 136 556 136 526 L136 57 C136 27 116 7 86 7 L60 7 L60 0 L302 0 L302 7 L302 7 Z " />
<glyph glyph-name="N_sc" unicode="&#x274;" horiz-adv-x="658" d="M-9 576 L17 576 C44 576 76 559 98 533 L130 491 L129 57 L129 57 C129 27 109 7 79 7 L53 7 L53 0 L232 0 L232 7 L206 7 C176 7 156 27 156 57 L156 57 L154 460 C269 307 384 154 499 0 L517 0 L522 534 C525 560 545 577 572 577 L598 577 L598 584 L419 584 L419 577 L445 577 C475 577 495 557 495 527 L495 527 L497 118 C389 273 282 429 174 584 L-9 584 L-9 576 L-9 576 Z " />
<glyph glyph-name="R_sc" unicode="&#x280;" horiz-adv-x="593" d="M63 576 L89 576 C119 576 139 556 139 526 L139 57 C139 27 119 7 89 7 L63 7 L63 0 L305 0 L305 7 L279 7 C249 7 229 27 229 57 L229 273 L258 273 C274 241 324 157 393 51 C425 1 433 -1 584 -1 L584 6 C529 6 526 8 498 51 C428 160 375 243 352 280 C439 297 492 341 492 418 C492 517 401 583 264 583 L65 583 L63 576 L63 576 Z M231 296 L231 565 C328 565 393 516 393 435 C393 339 341 296 264 296 L231 296 L231 296 Z " />
<glyph glyph-name="Y_sc" unicode="&#x28f;" horiz-adv-x="603" d="M262 583 L3 583 L3 576 C41 576 71 561 94 528 L264 249 L264 78 C264 36 236 8 194 8 L168 8 L168 1 L450 1 L450 8 L424 8 C382 8 354 36 354 78 L354 262 L495 532 C513 559 543 577 573 577 L604 577 L604 584 L396 584 L396 577 L453 577 C486 577 497 555 480 522 L481 522 L352 269 C303 353 252 438 204 522 C185 555 193 577 226 577 L263 577 L262 583 L262 583 Z " />
<glyph glyph-name="B_sc" unicode="&#x299;" horiz-adv-x="545" d="M361 300 C388 300 406 241 406 152 C406 30 381 2 343 2 L293 2 C255 2 229 23 229 55 L229 299 L329 299 C338 299 361 300 361 300 L361 300 Z M63 574 L89 574 C119 574 139 554 139 524 L139 59 C139 29 119 9 89 9 L63 9 L63 0 L349 0 C443 0 505 29 505 152 C505 246 452 303 369 303 C437 318 480 371 480 445 C480 528 442 584 279 584 L63 584 L63 574 L63 574 Z M327 304 L229 304 L229 580 L271 580 C368 580 391 522 391 435 C391 356 365 304 327 304 L327 304 Z " />
<glyph glyph-name="H_sc" unicode="&#x29c;" horiz-adv-x="736" d="M676 7 L650 7 C620 7 600 27 600 57 L600 526 C600 556 620 576 650 576 L676 576 L676 583 L434 583 L434 576 L460 576 C490 576 510 556 510 526 L510 303 L265 303 L265 526 C265 556 285 576 315 576 L341 576 L341 583 L99 583 L99 576 L125 576 C155 576 175 556 175 526 L175 57 C175 27 155 7 125 7 L99 7 L99 0 L341 0 L341 7 L315 7 C285 7 265 27 265 57 L265 298 L510 298 L510 57 C510 27 490 7 460 7 L434 7 L434 0 L676 0 L676 7 L676 7 Z " />
<glyph glyph-name="L_sc" unicode="&#x29f;" horiz-adv-x="523" d="M302 583 L60 583 L60 576 L86 576 C116 576 136 556 136 526 L136 57 C136 27 116 7 86 7 L60 7 L60 0 L457 0 L457 7 C463 44 472 94 478 131 L466 131 L460 114 C440 55 384 15 321 15 L277 15 C231 15 226 29 226 51 L226 526 C226 556 246 576 276 576 L302 576 L302 583 L302 583 Z " />
<glyph glyph-name="circumflex" unicode="&#x2c6;" horiz-adv-x="298" d="M179 755 C173 764 159 785 149 785 C140 785 126 764 120 755 L-3 566 L9 556 L149 695 L290 556 L301 566 L179 755 L179 755 Z " />
<glyph glyph-name="caron" unicode="&#x2c7;" horiz-adv-x="298" d="M290 794 L149 655 L9 794 L-3 784 L120 595 C126 586 140 565 149 565 C159 565 173 586 179 595 L301 784 L290 794 L290 794 Z " />
<glyph glyph-name="firsttonechinese" unicode="&#x2c9;" horiz-adv-x="298" d="M24 645 L275 645 L275 704 L24 704 L24 645 L24 645 Z " />
<glyph glyph-name="breve" unicode="&#x2d8;" horiz-adv-x="298" d="M33 744 C40 670 86 620 149 620 C213 620 260 669 266 742 L248 745 C245 706 205 680 149 680 C94 680 55 707 51 747 L33 744 L33 744 Z " />
<glyph glyph-name="dotaccent" unicode="&#x2d9;" horiz-adv-x="298" d="M149 615 C182 615 204 637 204 670 C204 703 182 725 149 725 C116 725 94 703 94 670 C94 637 116 615 149 615 L149 615 Z " />
<glyph glyph-name="ring" unicode="&#x2da;" horiz-adv-x="298" d="M77 655 C77 700 106 730 149 730 C193 730 222 700 222 655 C222 615 188 580 149 580 C110 580 77 615 77 655 L77 655 Z M52 655 C52 604 97 560 149 560 C202 560 247 604 247 655 C247 712 208 750 149 750 C91 750 52 712 52 655 L52 655 Z " />
<glyph glyph-name="A_sc" unicode="&#x1d00;" horiz-adv-x="648" d="M342 0 L645 0 L645 9 L632 9 C591 9 552 44 531 97 C476 266 420 434 366 603 L357 603 C360 585 333 568 289 562 L292 552 L292 552 L162 108 C144 49 93 9 33 9 L7 9 L7 0 L262 0 L262 9 L239 9 C179 9 151 49 168 109 L168 109 L202 228 L395 228 C407 188 420 148 432 109 C451 49 424 9 364 9 L341 9 L342 0 L342 0 Z M203 233 L294 546 L394 233 L203 233 L203 233 Z " />
<glyph glyph-name="C_sc" unicode="&#x1d04;" horiz-adv-x="627" d="M572 102 L572 102 L572 102 L572 102 Z M583 -17 L583 182 L566 182 C564 175 562 165 560 158 C544 102 505 50 460 23 C427 5 391 -5 349 -5 C230 -5 151 114 151 292 C151 470 234 588 358 588 C398 588 431 579 460 563 C504 536 543 483 560 425 C562 418 564 408 566 401 L583 401 L583 598 L573 598 C572 592 572 583 571 577 C568 547 543 540 510 558 C493 568 472 575 452 584 L451 583 C424 590 393 594 355 594 C173 594 51 474 51 293 C51 112 169 -9 346 -9 C385 -9 419 -4 448 5 L449 4 C469 13 490 20 508 31 C542 48 566 38 570 7 C571 0 571 -8 572 -15 L583 -17 L583 -17 Z " />
<glyph glyph-name="D_sc" unicode="&#x1d05;" horiz-adv-x="730" d="M270 4 C233 4 229 23 229 51 L229 579 L283 579 C476 579 576 464 576 292 C576 102 454 4 270 4 L270 4 Z M63 576 L89 576 C119 576 139 556 139 526 L139 57 C139 27 119 7 89 7 L63 7 L63 0 L276 0 C515 0 675 99 675 292 C675 467 547 583 299 583 L63 583 L63 576 L63 576 Z " />
<glyph glyph-name="E_sc" unicode="&#x1d07;" horiz-adv-x="549" d="M396 173 L396 430 L384 430 L376 384 C368 336 332 304 284 304 L229 304 L229 579 L345 579 C393 579 433 547 447 499 L460 453 L472 453 C468 491 461 543 457 581 L456 581 L456 583 L43 583 L43 576 L69 576 C111 576 139 548 139 506 L139 77 C139 35 111 7 69 7 L43 7 L43 0 L481 0 L481 2 L482 2 C488 37 496 85 502 120 L490 120 L484 103 C464 44 408 4 345 4 L280 4 C234 4 229 23 229 51 L229 299 L284 299 C332 299 368 267 376 219 L384 173 L396 173 L396 173 Z " />
<glyph glyph-name="J_sc" unicode="&#x1d0a;" horiz-adv-x="362" d="M302 583 L60 583 L60 576 L86 576 C116 576 136 556 136 526 L136 -63 C136 -189 77 -213 35 -213 C-9 -213 12 -141 -32 -141 C-57 -141 -73 -157 -73 -181 C-73 -204 -32 -220 30 -220 C112 -220 226 -168 226 107 L226 526 C226 556 246 576 276 576 L302 576 L302 583 L302 583 Z " />
<glyph glyph-name="K_sc" unicode="&#x1d0b;" horiz-adv-x="634" d="M359 476 L359 476 L229 292 L229 526 C229 556 249 576 279 576 L330 576 C390 576 401 536 359 476 L359 476 Z M63 576 L89 576 C119 576 139 556 139 526 L139 57 C139 27 119 7 89 7 L63 7 L63 0 L305 0 L305 7 L279 7 C249 7 229 27 229 57 L229 292 L452 0 L629 0 L629 7 L602 7 C573 7 540 26 517 54 L293 352 C333 405 373 458 413 511 C442 550 488 576 527 576 L558 576 L558 583 L63 583 L63 576 L63 576 Z " />
<glyph glyph-name="M_sc" unicode="&#x1d0d;" horiz-adv-x="769" d="M734 583 L573 583 L416 124 L231 583 L50 583 L50 576 L76 576 C103 576 129 559 143 533 C137 374 131 215 124 56 C123 26 102 6 72 6 L46 6 L46 -1 L230 -1 L230 6 L204 6 C176 6 157 23 155 49 L165 482 C234 321 303 159 373 -1 L396 -1 L397 4 L575 500 C580 352 585 204 589 56 C590 26 571 6 541 6 L515 6 L515 -1 L757 -1 L757 6 L731 6 C701 6 680 26 679 56 L679 56 L659 531 C661 557 679 574 707 574 L733 574 L734 583 L734 583 Z " />
<glyph glyph-name="O_sc" unicode="&#x1d0f;" horiz-adv-x="736" d="M150 292 C150 470 234 588 361 588 C494 588 583 470 583 292 C583 114 491 -5 353 -5 C231 -5 150 114 150 292 L150 292 Z M53 292 C53 111 173 -10 352 -10 C549 -10 681 111 681 292 C681 473 553 593 362 593 C177 593 53 473 53 292 L53 292 Z " />
<glyph glyph-name="P_sc" unicode="&#x1d18;" horiz-adv-x="476" d="M327 7 L301 7 C271 7 251 27 251 57 L251 265 L280 265 C386 265 456 313 456 419 C456 517 397 583 309 583 L85 583 L85 576 L111 576 C141 576 161 556 161 526 L161 57 C161 27 141 7 111 7 L85 7 L85 0 L327 0 L327 7 L327 7 Z M251 284 L251 568 L287 568 C338 568 372 514 372 433 C372 330 335 284 280 284 L251 284 L251 284 Z " />
<glyph glyph-name="T_sc" unicode="&#x1d1b;" horiz-adv-x="691" d="M622 619 L613 619 L609 614 C598 595 557 583 509 583 L183 583 C135 583 94 595 83 614 L79 619 L70 619 C64 605 55 587 49 573 C49 573 51 573 55 573 L55 572 L47 572 C32 534 21 483 6 445 L18 445 L37 476 C66 527 119 561 170 561 L301 561 L301 57 C301 27 281 7 251 7 L225 7 L225 0 L467 0 L467 7 L441 7 C411 7 391 27 391 57 L391 561 L522 561 C573 561 626 527 655 476 L674 445 L686 445 C670 484 659 534 643 573 C637 586 628 605 622 619 L622 619 Z " />
<glyph glyph-name="U_sc" unicode="&#x1d1c;" horiz-adv-x="624" d="M594 39 L568 32 C538 24 518 39 518 69 L518 583 L352 583 L352 576 L378 576 C408 576 428 556 428 526 L428 165 C395 95 330 48 264 48 C222 48 194 108 194 198 L194 583 L28 583 L28 576 L54 576 C84 576 104 556 104 526 L104 198 C104 73 154 -10 228 -10 C311 -10 391 44 428 124 L428 0 L473 0 C477 1 518 10 518 12 C544 19 571 26 593 32 L594 39 L594 39 Z " />
<glyph glyph-name="V_sc" unicode="&#x1d20;" horiz-adv-x="673" d="M654 583 L400 583 L400 574 L438 574 C498 574 523 534 500 474 L318 -10 L336 -10 C402 151 467 313 533 474 C557 534 601 574 642 574 L654 574 L654 583 L654 583 Z M295 583 L3 583 L3 574 L13 574 C44 574 79 540 105 488 C176 322 247 156 318 -10 L375 142 L220 474 C192 534 213 574 273 574 L295 574 L295 583 L295 583 Z " />
<glyph glyph-name="W_sc" unicode="&#x1d21;" horiz-adv-x="913" d="M593 583 L305 583 L305 574 L316 574 C350 574 384 547 404 506 L451 388 L349 108 L200 494 L201 494 C182 542 202 574 250 574 L267 574 L267 583 L5 583 L5 574 C47 574 80 549 102 498 C170 329 238 159 307 -10 L330 -10 L331 -5 L467 351 C515 231 563 110 611 -10 L634 -10 L793 503 C810 546 847 574 888 574 L901 574 L901 583 L647 583 L647 574 L700 574 C748 574 771 542 757 494 L757 494 L650 124 L504 503 C491 546 511 574 557 574 L594 574 L593 583 L593 583 Z " />
<glyph glyph-name="Z_sc" unicode="&#x1d22;" horiz-adv-x="565" d="M70 442 L74 460 C90 519 142 559 205 560 L429 563 L25 18 L25 0 L523 0 L526 13 L526 13 L556 143 L544 143 L537 125 C513 66 454 27 391 25 L132 20 L527 565 L527 583 L70 583 L69 571 C69 571 65 519 58 442 L70 442 L70 442 Z " />
<glyph glyph-name="Wgrave" unicode="&#x1e80;" horiz-adv-x="1025" d="M275 750 L1 750 L1 741 L11 741 C45 741 79 709 96 661 L96 661 C177 437 258 213 339 -11 L364 -11 L528 453 C584 298 640 144 696 -11 L721 -11 L909 671 C925 713 961 740 1001 740 L1014 740 L1014 749 L755 749 L755 740 L809 740 C857 740 880 708 868 660 L868 660 L734 137 L558 669 C548 712 570 740 615 740 L653 740 L653 749 L354 749 L354 740 L365 740 C401 740 437 708 454 660 L454 660 C473 606 493 552 512 499 L384 119 C325 299 264 480 206 660 C190 708 211 740 259 740 L277 740 L275 750 L275 750 Z M295 995 C295 987 321 963 359 931 L501 811 L511 822 L398 970 C368 1010 345 1037 337 1037 C314 1037 295 1018 295 995 L295 995 Z " />
<glyph glyph-name="Wacute" unicode="&#x1e82;" horiz-adv-x="1025" d="M504 812 L646 932 C684 965 710 990 710 996 C710 1019 691 1038 668 1038 C662 1038 638 1011 607 971 L494 823 L504 812 L504 812 Z M275 750 L1 750 L1 741 L11 741 C45 741 79 709 96 661 L96 661 C177 437 258 213 339 -11 L364 -11 L528 453 C584 298 640 144 696 -11 L721 -11 L909 671 C925 713 961 740 1001 740 L1014 740 L1014 749 L755 749 L755 740 L809 740 C857 740 880 708 868 660 L868 660 L734 137 L558 669 C548 712 570 740 615 740 L653 740 L653 749 L354 749 L354 740 L365 740 C401 740 437 708 454 660 L454 660 C473 606 493 552 512 499 L384 119 C325 299 264 480 206 660 C190 708 211 740 259 740 L277 740 L275 750 L275 750 Z " />
<glyph glyph-name="Wdieresis" unicode="&#x1e84;" horiz-adv-x="1025" d="M569 865 C602 865 624 887 624 920 C624 953 602 975 569 975 C536 975 514 953 514 920 C514 887 536 865 569 865 L569 865 Z M424 865 C457 865 479 887 479 920 C479 953 457 975 424 975 C391 975 369 953 369 920 C369 887 391 865 424 865 L424 865 Z M275 750 L1 750 L1 741 L11 741 C45 741 79 709 96 661 L96 661 C177 437 258 213 339 -11 L364 -11 L528 453 C584 298 640 144 696 -11 L721 -11 L909 671 C925 713 961 740 1001 740 L1014 740 L1014 749 L755 749 L755 740 L809 740 C857 740 880 708 868 660 L868 660 L734 137 L558 669 C548 712 570 740 615 740 L653 740 L653 749 L354 749 L354 740 L365 740 C401 740 437 708 454 660 L454 660 C473 606 493 552 512 499 L384 119 C325 299 264 480 206 660 C190 708 211 740 259 740 L277 740 L275 750 L275 750 Z " />
<glyph glyph-name="Etilde" unicode="&#x1ebc;" horiz-adv-x="606" d="M204 870 C204 906 219 930 241 930 C284 930 341 865 384 865 C422 865 448 913 448 985 L445 985 C445 949 429 925 404 925 C361 925 303 990 260 990 C225 990 201 942 201 870 L204 870 L204 870 Z M453 259 L453 516 L441 516 L433 470 C425 422 389 390 341 390 L236 390 L236 745 L402 745 C450 745 490 713 504 665 L517 619 L529 619 C525 658 518 709 514 748 L513 748 L513 750 L40 750 L40 743 L66 743 C108 743 136 715 136 673 L136 77 C136 35 108 7 66 7 L40 7 L40 0 L538 0 L538 2 C545 38 553 85 559 121 L547 121 L541 104 C521 45 465 5 402 5 L287 5 C241 5 236 23 236 51 L236 385 L341 385 C389 385 425 353 433 305 L441 259 L453 259 L453 259 Z " />
<glyph glyph-name="Ygrave" unicode="&#x1ef2;" horiz-adv-x="675" d="M271 750 L0 750 L0 743 C36 743 65 729 87 697 L296 323 L296 78 C296 36 268 8 226 8 L200 8 L200 1 L492 1 L492 8 L466 8 C424 8 396 36 396 78 L396 338 L567 695 C584 725 614 744 645 744 L677 744 L677 751 L467 751 L467 744 L525 744 C558 744 569 722 554 689 L554 689 L394 345 L209 689 L210 689 C192 722 202 744 235 744 L272 744 L271 750 L271 750 Z M143 997 C143 989 169 965 207 933 L349 813 L360 824 L246 972 C216 1012 193 1039 185 1039 C162 1039 143 1020 143 997 L143 997 Z " />
<glyph glyph-name="quoteleft" unicode="&#x2018;" horiz-adv-x="482" d="M90 640 C80 640 72 636 66 628 C64 690 92 739 130 749 L120 760 C72 747 40 689 40 614 C40 582 60 560 90 560 C142 560 142 640 90 640 L90 640 Z " />
<glyph glyph-name="quoteright" unicode="&#x2019;" horiz-adv-x="98" d="M102 692 C101 628 77 580 42 570 L53 559 C98 571 128 631 128 710 C128 739 108 759 78 759 C26 759 26 679 78 679 C88 679 96 683 102 691 L102 692 L102 692 Z " />
<glyph glyph-name="quotedblleft" unicode="&#x201c;" horiz-adv-x="482" d="M217 640 C207 640 199 636 193 628 C191 690 219 739 257 749 L247 760 C199 747 167 689 167 614 C167 582 187 560 217 560 C269 560 269 640 217 640 L217 640 Z M78 640 C68 640 60 636 54 628 C52 690 80 739 118 749 L108 760 C60 747 28 689 28 614 C28 582 48 560 78 560 C130 560 130 640 78 640 L78 640 Z " />
<glyph glyph-name="quotedblright" unicode="&#x201d;" horiz-adv-x="482" d="M241 692 C240 628 216 580 181 570 L192 559 C237 571 267 631 267 710 C267 739 247 759 217 759 C165 759 165 679 217 679 C227 679 235 683 241 691 L241 692 L241 692 Z M102 691 C101 627 77 579 42 569 L53 558 C98 570 128 630 128 709 C128 738 108 758 78 758 C26 758 26 678 78 678 C88 678 96 682 102 690 L102 691 L102 691 Z " />
<glyph glyph-name="perthousand" unicode="&#x2030;" horiz-adv-x="1099" d="M884 209 C884 317 907 389 942 389 C982 389 1008 303 1008 175 C1008 68 984 -4 947 -4 C909 -4 884 81 884 209 L884 209 Z M801 193 C801 71 859 -10 945 -10 C1030 -10 1087 76 1087 204 C1087 319 1030 395 945 395 C859 395 801 314 801 193 L801 193 Z M114 570 C114 680 137 754 171 754 C211 754 237 667 237 536 C237 431 213 361 176 361 C139 361 114 445 114 570 L114 570 Z M30 553 C30 434 88 355 174 355 C259 355 316 439 316 565 C316 682 259 760 174 760 C88 760 30 677 30 553 L30 553 Z M552 209 C552 317 577 389 615 389 C661 389 691 303 691 175 C691 68 663 -4 620 -4 C579 -4 552 81 552 209 L552 209 Z M468 192 C468 71 528 -10 618 -10 C710 -10 771 76 771 204 C771 319 710 395 618 395 C528 395 468 314 468 192 L468 192 Z M178 -3 L626 747 L618 753 L169 3 L178 -3 L178 -3 Z " />
<glyph glyph-name="fraction" unicode="&#x2044;" horiz-adv-x="486" d="M34 -3 L483 747 L474 753 L26 3 L34 -3 L34 -3 Z " />
<glyph glyph-name="Euro" unicode="&#x20ac;" horiz-adv-x="749" d="M705 10 L705 120 L693 130 L693 130 L705 119 L705 211 L689 211 C687 204 685 195 683 188 C655 93 557 -6 437 -6 C318 -6 234 109 214 288 L487 288 L496 349 L209 349 C209 365 209 382 210 398 L497 398 L506 459 L215 459 C236 638 324 752 447 752 C495 752 535 738 572 713 L572 713 C622 679 667 617 684 559 C686 552 688 543 690 536 L706 536 L706 735 L697 735 C696 728 696 720 695 713 C692 682 669 677 637 698 C589 736 532 759 446 759 C266 759 138 642 108 460 L65 460 L56 399 L102 399 C101 383 101 366 102 350 L56 350 L47 289 L108 289 C137 107 261 -10 437 -10 C518 -10 580 12 631 49 C666 73 692 67 695 33 C696 26 696 18 697 11 L705 10 L705 10 Z M631 50 C630 49 629 48 628 47 C629 48 630 49 631 50 L631 50 Z " />
<glyph glyph-name="F_sc" unicode="&#xa730;" horiz-adv-x="524" d="M386 173 L386 430 L374 430 L366 384 C358 336 322 304 274 304 L229 304 L229 580 L344 580 C392 580 432 548 446 500 L459 454 L471 454 C467 492 460 544 456 582 L456 583 L43 583 L43 576 L69 576 C111 576 139 548 139 506 L139 77 C139 35 111 7 69 7 L43 7 L43 0 L325 0 L325 7 L299 7 C257 7 229 35 229 77 L229 299 L274 299 C322 299 358 267 366 219 L374 173 L386 173 L386 173 Z " />
<glyph glyph-name="S_sc" unicode="&#xa731;" horiz-adv-x="466" d="M373 495 L373 495 L373 495 L373 495 Z M50 197 L50 -24 L60 -24 C61 -16 61 -6 62 2 C65 37 90 47 124 28 C135 21 146 15 158 10 C165 5 172 1 179 -2 L181 1 C202 -6 224 -10 246 -10 C355 -10 427 55 427 152 C427 228 375 299 273 338 C184 372 138 422 138 471 C138 559 187 606 261 581 C306 564 346 511 365 443 C367 436 369 425 371 418 L388 418 L388 603 L378 603 C377 598 377 590 376 585 C373 562 355 554 330 563 C312 574 292 582 270 587 C261 590 252 593 243 595 L244 592 C138 603 67 537 67 436 C67 356 119 283 219 245 C309 211 355 166 355 126 C355 23 276 -32 187 10 C139 33 94 97 74 171 C72 179 70 189 68 197 L50 197 L50 197 Z " />
<glyph glyph-name="X_sc" unicode="&#xf078;" horiz-adv-x="657" d="M655 583 L418 583 L418 576 L474 576 C507 576 513 554 490 521 L490 521 L359 336 L237 524 C218 555 226 576 258 576 L294 576 L294 583 L35 583 L35 576 C74 576 107 558 131 521 L131 521 L293 270 C241 201 190 132 138 63 C113 30 75 8 42 8 L11 8 L11 1 L244 1 L244 8 L188 8 C157 8 149 28 168 58 L304 253 L429 60 C448 29 440 8 408 8 L372 8 L372 1 L631 1 L631 8 C592 8 559 26 535 63 L362 330 L529 530 C556 558 593 576 623 576 L654 576 L655 583 L655 583 Z " />
</font>
</svg>
