<?xml version="1.0" encoding="UTF-8"?>
<svg xmlns="http://www.w3.org/2000/svg" xmlns:xlink="http://www.w3.org/1999/xlink" version="1.2" >
<font id="Gunma Round">
<font-face  font-family="Gunma" units-per-em="1024" ascent="975" descent="-300" font-style="normal" font-weight="400" font-stretch="normal" cap-height="1044" x-height="488" underline-position="-125" underline-thickness="50" />
<missing-glyph  horiz-adv-x="100" d="" />
<glyph glyph-name="NULL" d="" />
<glyph glyph-name="CR" unicode="&#xd;" horiz-adv-x="256" d="" />
<glyph glyph-name="space" unicode="&#x20;" horiz-adv-x="208" d="" />
<glyph glyph-name="exclam" unicode="&#x21;" horiz-adv-x="244" d="M122 -5 C158 -5 182 19 182 55 C182 91 158 115 122 115 C86 115 62 91 62 55 C62 19 86 -5 122 -5 L122 -5 Z M122 755 C81 755 64 713 70 650 L113.204 217.96 C113.641 213.588 117.606 210 122 210 C126.394 210 130.359 213.588 130.796 217.96 L174 650 C180 713 163 755 122 755 L122 755 Z " />
<glyph glyph-name="quotedbl" unicode="&#x22;" horiz-adv-x="291" d="M212 750 C193 750 181 732 187 705 L215.987 564.896 C216.535 562.25 219.297 560 222 560 C224.703 560 227.465 562.25 228.013 564.896 L257 705 C263 732 252 750 232 750 L212 750 L212 750 Z M92 750 C73 750 61 732 67 705 L95.987 564.896 C96.5345 562.25 99.2974 560 102 560 C104.703 560 107.465 562.25 108.013 564.896 L137 705 C143 732 132 750 112 750 L92 750 L92 750 Z " />
<glyph glyph-name="numbersign" unicode="&#x23;" horiz-adv-x="489" d="M360.483 663.538 L342.824 545.36 C338.553 516.776 310.96 493 282.059 493 L269.5 493 C233.743 493 208.396 522.416 213.68 557.781 L229.409 663.044 C229.732 665.204 228.184 667 226 667 C223.816 667 221.732 665.204 221.409 663.044 L203.824 545.36 C199.553 516.776 171.96 493 143.059 493 L100.305 493 C82.0904 493 64.9611 478.048 62.5 460 C60.0389 441.952 73.0904 427 91.3054 427 L122 427 C156.938 427 181.703 398.257 176.538 363.703 L164.827 285.357 C160.554 256.775 132.961 233 104.062 233 L59.3766 233 C41.1616 233 23.7287 218.009 21 200 C18.2713 181.991 31.1616 167 49.3766 167 L81.5 167 C117.256 167 142.596 137.583 137.303 102.222 L122.592 3.95592 C122.269 1.79643 123.816 0 126 0 C128.184 0 130.269 1.79643 130.592 3.95592 L147.164 114.656 C151.442 143.23 179.035 167 207.927 167 L220.5 167 C256.256 167 281.596 137.583 276.303 102.222 L261.518 3.46143 C261.235 1.57188 262.589 0 264.5 0 C266.411 0 268.235 1.57188 268.518 3.46143 L285.164 114.656 C289.442 143.23 317.035 167 345.927 167 L378.623 167 C396.838 167 414.271 181.991 417 200 C419.729 218.009 406.838 233 388.623 233 L362.5 233 C330.019 233 306.994 259.722 311.797 291.846 L324.173 374.643 C328.446 403.225 356.039 427 384.938 427 L426.695 427 C444.91 427 462.039 441.952 464.5 460 C466.961 478.048 453.91 493 435.695 493 L405.5 493 C370.835 493 346.261 521.518 351.384 555.803 L367.483 663.538 C367.765 665.428 366.411 667 364.5 667 C362.589 667 360.765 665.428 360.483 663.538 L360.483 663.538 Z M246.938 427 L259.5 427 C295.257 427 320.603 397.584 315.316 362.22 L303.827 285.357 C299.554 256.775 271.961 233 243.062 233 L230.5 233 C194.743 233 169.397 262.416 174.684 297.78 L186.173 374.643 C190.446 403.225 218.039 427 246.938 427 L246.938 427 Z " />
<glyph glyph-name="dollar" unicode="&#x24;" horiz-adv-x="518" d="M50 221.292 L50 14 C50 11.2402 52.2402 9 55 9 L55.9689 9 C58.2841 9 60.2697 11.2304 60.4583 13.5379 C61.0331 20.5702 61.1818 28.4545 62 35 C64.925 69.125 87.8131 75.6819 119.542 53.7438 C119.695 53.6378 123.664 50.5558 123.806 50.4344 C143.125 33.8349 164.349 20.4514 186.964 10.7959 C193.597 7.96409 202 -3.12588 202 -10.3379 L202 -58 C202 -66.2796 208.72 -73 217 -73 C225.28 -73 232 -66.2796 232 -58 L232 -12.6313 C232 -8.0868 236.603 -4.81561 241.104 -5.43802 C251.565 -6.8843 261.584 -7.52066 272.449 -7.34711 C277.23 -7.27074 282 -11.2321 282 -16.0139 L282 -57 C282 -65.2796 288.72 -72 297 -72 C305.28 -72 312 -65.2796 312 -57 L312 -38 C312 -23.0355 333.948 0.0311389 348.131 4.80469 C428.234 31.7656 478 102.75 478 199 C478 283.875 434.359 361.094 350.428 407.879 C335.228 416.351 312 450.409 312 467.81 L312 712.697 C312 725.945 321.244 732.889 331.533 724.543 C367.805 695.12 399.85 643.95 416 587 C417.636 581.273 419.273 572.868 420.909 566.167 C421.391 564.193 423.608 562 425.64 562 L430.5 562 C435.192 562 439 565.808 439 570.5 L439 743 C439 745.76 436.76 748 434 748 L431.55 748 C430.067 748 428.829 747.215 428.627 745.746 C427.98 741.041 427.857 735.286 427 731 C424.207 710.517 410.145 703.904 389.657 712.773 C388.763 713.16 380.31 718.694 379.535 719.283 C363.558 731.396 345.973 741.255 327.19 748.45 C321.093 750.785 314 760.072 314 766.601 L314 814 C314 822.28 307.28 829 299 829 C290.72 829 284 822.28 284 814 L284 769.139 C284 764.889 279.47 761.843 275.261 762.438 C265.037 763.884 254.666 764.521 243.632 764.347 C238.852 764.272 234 768.233 234 773.014 L234 814 C234 822.28 227.28 829 219 829 C210.72 829 204 822.28 204 814 L204 794.5 C204 779.899 187.501 756.495 173.953 751.051 C107.344 724.281 66 657.125 66 567 C66 486.5 101.984 413.656 171.943 364.547 C183.753 356.257 204 322.373 204 307.945 L204 55.9178 C204 37.3279 187.733 30.1892 173.477 42.1207 C127.924 80.2481 93.975 140.7 75 210 C73.3636 215.727 71.7273 224.132 70.0909 230.833 C69.5956 232.861 67.481 234.68 65.438 234.25 L59.5 233 C54.3688 231.92 50 226.535 50 221.292 L50 221.292 Z M67 158 L67 158 L67 158 L67 158 Z M242.939 327.428 C254.174 323.05 265.539 318.95 275.923 314.572 C279.965 312.868 284 307.11 284 302.724 L284 11.0139 C284 5.7264 279.737 1.72391 274.449 1.75207 C263.584 1.80992 253.565 3.08264 243.104 5.57025 C238.217 6.73254 234 11.8362 234 16.86 L234 321.808 C234 326.439 238.624 329.11 242.939 327.428 L242.939 327.428 Z M341.347 274.846 C380.262 243.6 400 207.3 400 171 C400 102.525 377.539 49.7044 339.918 22.0839 C326.047 11.9001 314 19.1159 314 36.324 L314 260.556 C314 277.349 328.253 285.36 341.347 274.846 L341.347 274.846 Z M234 474.014 L234 747.945 C234 753.439 238.139 757.524 243.632 757.613 C254.666 757.792 265.037 756.167 275.261 753.511 C279.82 752.327 284 747.329 284 742.618 L284 447.849 C284 442.81 279.999 439.769 275.441 441.917 C263.436 447.574 251.967 453.694 241.35 460.277 C237.611 462.594 234 469.616 234 474.014 L234 474.014 Z M185.276 505.461 C158.613 535.381 145 569.35 145 604 C145 662.65 161.618 709.018 188.711 734.505 C196.82 742.133 204 736.295 204 725.161 L204 512.87 C204 501.526 192.823 496.992 185.276 505.461 L185.276 505.461 Z " />
<glyph glyph-name="percent" unicode="&#x25;" horiz-adv-x="783" d="M114 570 C114 680 137 754 171 754 C211 754 237 667 237 536 C237 431 213 361 176 361 C139 361 114 445 114 570 L114 570 Z M30 553 C30 434 88 355 174 355 C259 355 316 439 316 565 C316 682 259 760 174 760 C88 760 30 677 30 553 L30 553 Z M552 209 C552 317 577 389 615 389 C661 389 691 303 691 175 C691 68 663 -4 620 -4 C579 -4 552 81 552 209 L552 209 Z M468 192 C468 71 528 -10 618 -10 C710 -10 771 76 771 204 C771 319 710 395 618 395 C528 395 468 314 468 192 L468 192 Z M180.773 1.64306 L623.436 742.707 C624.843 745.064 624.196 748.353 622 750 C619.804 751.647 616.842 751.065 615.432 748.71 L171.778 7.64033 C170.246 5.08203 171.019 1.65396 173.5 4.44089e-016 C175.981 -1.65388 179.244 -0.916627 180.773 1.64306 L180.773 1.64306 Z " />
<glyph glyph-name="ampersand" unicode="&#x26;" horiz-adv-x="901" d="M354.378 475.353 C436.35 508.59 489 560.7 489 612 C489 701 419 761 315 761 C213 761 145 697 145 600 C145 567 169.503 526.513 210.085 474.609 C222.681 458.498 213.759 431.737 195.326 422.881 C100.484 377.313 40 293.75 40 201 C40 76 122 -8 245 -8 C330.8 -8 419.452 37.63 500.76 118.695 C503.484 121.41 508.827 122.763 511.267 119.789 C518.867 110.526 526.579 101.263 535 92 C585 32 651 -8 700 -8 C768.25 -8 821.29 50.9387 834.095 141.01 C834.714 145.369 831.676 149.108 827.5 150.5 C823.617 151.794 819.481 148.914 818.75 144.887 C809.575 94.3925 776.8 61 735 61 C697 61 647 91 609 136 C595.581 151.935 582.865 167.168 570.262 181.696 C566.317 186.244 564.194 191.493 567.862 196.268 C629.275 276.206 684.213 376.744 726.674 491.88 C728.48 496.776 725.218 501 720 501 C714.877 501 708.554 497.054 706.749 492.259 C671.792 399.382 627.971 318.138 578.358 252.109 C561.197 229.271 530.871 227.807 512.419 249.616 C410.525 370.05 373.81 410.075 345.322 443.096 C335.849 454.077 340.939 469.904 354.378 475.353 L354.378 475.353 Z M296.563 503.457 C249.094 563.094 220 608.375 220 646 C220 704 258 742 315 742 C378 742 420 692 420 618 C420 566.025 392.435 518.814 348.534 491.529 C329.49 479.692 310.527 485.913 296.563 503.457 L296.563 503.457 Z M452.115 126.845 C399.961 90.7381 345.8 71 293 71 C194 71 128 133 128 226 C128 307.6 160.512 377.64 213.255 415.24 C233.374 429.582 250.336 422.893 266.468 404.179 C300.665 364.507 338.811 323.453 459.574 180.473 C475.336 161.811 472.199 140.75 452.115 126.845 L452.115 126.845 Z " />
<glyph glyph-name="quotesingle" unicode="&#x27;" horiz-adv-x="188" d="M92 750 C73 750 61 732 67 705 L95.987 564.896 C96.5345 562.25 99.2974 560 102 560 C104.703 560 107.465 562.25 108.013 564.896 L137 705 C143 732 132 750 112 750 L92 750 L92 750 Z " />
<glyph glyph-name="parenleft" unicode="&#x28;" horiz-adv-x="222" d="M194.68 752.356 C113.235 652.08 60 515.775 60 273 C60 30.225 113.235 -106.08 194.68 -206.356 C197.196 -209.455 203.411 -212.028 206.5 -209.5 C209.434 -207.099 210.495 -203.272 208.134 -200.305 C158.321 -137.694 126 -12.675 126 273 C126 558.675 158.321 683.694 208.134 746.305 C210.495 749.272 209.434 753.099 206.5 755.5 C203.411 758.028 197.196 755.455 194.68 752.356 L194.68 752.356 Z " />
<glyph glyph-name="parenright" unicode="&#x29;" horiz-adv-x="167" d="M9.09095 747.011 C61.8269 704.413 97 516.75 97 273 C97 29.25 61.8269 -158.413 9.09095 -201.011 C6.97221 -202.722 6.28197 -206.564 7.5 -209 C8.94576 -211.892 13.9437 -211.387 16.5452 -209.468 C100.913 -147.225 157 43.875 157 273 C157 502.125 100.913 693.225 16.5452 755.468 C13.9437 757.387 8.94576 757.892 7.5 755 C6.28197 752.564 6.97221 748.722 9.09095 747.011 L9.09095 747.011 Z " />
<glyph glyph-name="asterisk" unicode="&#x2a;" horiz-adv-x="296" d="M245 716 L195.97 672.186 C181.291 659.069 159.42 671.742 163.5 691 L176 750 C180 770 170 783 150 783 C130 783 120 770 124 750 L136 691.5 C139.936 672.313 118.154 659.828 103.587 672.922 L59 713 C44 726 27 724 17 707 C7 689 14 674 33 667 L90 648.5 C108.477 642.503 108.477 617.497 90 611.5 L33 593 C14 586 7 571 17 554 C25.4 538.88 38.7392 535.05 51.6833 541.916 C56.6036 544.526 58.0829 548.598 55.333 553.441 C46.52 568.964 33 593 33 593 C33 593 42.0278 577.028 42.033 577.019 L46 570 C53.0062 557.604 68.0592 555.143 78.6486 564.662 L103.587 587.078 C118.154 600.172 139.936 587.687 136 568.5 L124 510 C120 490 130 477 150 477 C170 477 180 490 176 510 L163.5 569 C159.44 588.165 181.266 600.76 195.828 587.655 L241 547 C256 534 273 536 283 554 C292 570 283.5 584.5 266.5 591.5 L209.45 610.349 C190.954 616.46 190.988 641.438 209.5 647.5 L266 666 C285 673 292 688 282 706 C272 723 259 727.5 244 715.5 L245 716 Z " />
<glyph glyph-name="plus" unicode="&#x2b;" horiz-adv-x="587" d="M261 411 L261 341.44 C261 307.527 233.473 280 199.56 280 L130 280 C113.441 280 100 266.559 100 250 C100 233.441 113.441 220 130 220 L199.56 220 C233.473 220 261 192.473 261 158.56 L261 90 C261 71.785 275.785 57 294 57 C312.215 57 327 71.785 327 90 L327 158.56 C327 192.473 354.527 220 388.44 220 L457 220 C473.559 220 487 233.441 487 250 C487 266.559 473.559 280 457 280 L388.44 280 C354.527 280 327 307.527 327 341.44 L327 411 C327 429.215 312.215 444 294 444 C275.785 444 261 429.215 261 411 L261 411 Z " />
<glyph glyph-name="comma" unicode="&#x2c;" horiz-adv-x="259" d="M174.487 21.0051 C184.717 -40.1404 154.706 -88.0422 103.071 -103.615 C103.071 -103.615 101.759 -102.276 101.759 -102.276 L102.818 -106.134 C102.818 -106.134 101.506 -104.794 101.506 -104.794 C154.969 -91.7537 189 -49.225 189 11 C189 55 176 89 155 105 C147 112 137 116 125 116 C89 116 65 92 65 56 C65 20 89 -4 125 -4 C144.167 -4 159.514 6.06944 167.569 22.7361 C168.886 25.4595 173.988 23.9885 174.487 21.0051 L174.487 21.0051 Z " />
<glyph glyph-name="hyphen" unicode="&#x2d;" horiz-adv-x="397" d="M115 250 L282 250 C301.319 250 317 265.681 317 285 C317 304.319 301.319 320 282 320 L115 320 C95.681 320 80 304.319 80 285 C80 265.681 95.681 250 115 250 L115 250 Z " />
<glyph glyph-name="period" unicode="&#x2e;" horiz-adv-x="195" d="M125 -5 C161 -5 185 19 185 55 C185 91 161 115 125 115 C89 115 65 91 65 55 C65 19 89 -5 125 -5 L125 -5 Z " />
<glyph glyph-name="slash" unicode="&#x2f;" horiz-adv-x="389" d="M301.128 746.272 L34.8722 -56.2718 C30.748 -68.7028 38.9027 -80 52 -80 C65.0973 -80 80.748 -68.7028 84.8722 -56.2718 L351.128 746.272 C355.252 758.703 347.097 770 334 770 C320.903 770 305.252 758.703 301.128 746.272 L301.128 746.272 Z " />
<glyph glyph-name="zero" unicode="0" horiz-adv-x="610" d="M85 250 C85 372 173 475 305 475 C424 475 525 385 525 250 C525 128 437 25 305 25 C186 25 85 115 85 250 L85 250 Z M45 250 C45 94 165 -10 305 -10 C461 -10 565 110 565 250 C565 406 445 510 305 510 C149 510 45 390 45 250 L45 250 Z " />
<glyph glyph-name="one" unicode="1" horiz-adv-x="337" d="M283.5 7 L261 7 C231 7 211 27 211 57 L211 443 C211 473 231 493 261 493 L283.5 493 C285.432 493 287 494.568 287 496.5 C287 498.432 285.432 500 283.5 500 L53.5 500 C51.5681 500 50 498.432 50 496.5 C50 494.568 51.5681 493 53.5 493 L76 493 C106 493 126 473 126 443 L126 57 C126 27 106 7 76 7 L53.5 7 C51.5681 7 50 5.4319 50 3.5 C50 1.5681 51.5681 0 53.5 0 L283.5 0 C285.432 0 287 1.5681 287 3.5 C287 5.4319 285.432 7 283.5 7 L283.5 7 Z " />
<glyph glyph-name="two" unicode="2" horiz-adv-x="508" d="M382 75 L247.465 75 C224.461 75 216.428 107.048 235.227 120.306 C337.576 192.489 407 268.925 407 344 C407 443 345 509 251 509 C153.5 509 72.1606 427.246 44.9831 302.667 C43.9301 297.84 46.691 292.132 51.5 291 C56.0776 289.923 60.42 291.323 61.4264 295.916 C80.9569 385.061 138.75 444 207 444 C276 444 322 396 322 324 C322 225 234 137 116 63 C85.475 46.35 55.8056 27.9887 23.8261 11.0821 C20.5576 9.35413 19.0423 4.71826 22 2.5 L28 -2 L32.5 -0.5 C212.5 -0.5 395 -3 395 -3 C395 -3 395.342 -2.45459 413.35 26.2821 L442 72 C442 72 476 121 478 123 L477 125.5 C476.564 126.591 475.185 126.68 474.543 125.696 C455.197 96.0106 420 76.925 381 74 L382 75 Z " />
<glyph glyph-name="three" unicode="3" horiz-adv-x="401" d="M18.5 -223.5 C19.3434 -228.279 30.4305 -230.826 35.2446 -230.214 C231.715 -205.233 361 -111.95 361 7 C361 87.85 306.55 148.281 218.988 170.887 C204.175 174.711 202.361 203.373 215.35 211.455 C297.314 262.456 347 320.825 347 386 C347 460 288 510 199 510 C116.125 510 45.6081 449.16 21.7432 358.066 C20.3291 352.669 24.1038 349.92 29.5 348.5 C34.4166 347.206 39.9395 350.27 41.3741 355.147 C58.125 412.095 107.05 450 165 450 C220 450 256 413 256 357 C256 272.175 196.111 213.017 105.991 173.038 C102.136 171.327 99 165.718 99 161.5 C99 157.004 102.303 152.54 106.734 151.776 C206.407 134.588 272 67.825 272 -17 C272 -117.425 175.036 -195.035 28.3786 -213.682 C23.7621 -214.269 17.6913 -218.917 18.5 -223.5 L18.5 -223.5 Z " />
<glyph glyph-name="four" unicode="4" horiz-adv-x="557" d="M537.726 121.922 L534 110 C528 83 506 65 479 65 L430.5 65 C403.729 65 382 86.7295 382 113.5 L382 524.5 C382 527.536 379.536 530 376.5 530 C374.003 530 369.293 527.53 367.873 525.476 L19.2647 21.1695 C17.9262 19.2331 15 9.85399 15 7.5 C15 3.36022 18.3602 0 22.5 0 L235.56 0 C269.473 0 297 -27.527 297 -61.44 L297 -177.5 C297 -200.959 316.041 -220 339.5 -220 C362.959 -220 382 -200.959 382 -177.5 L382 -44 C382 -19.7133 401.713 0 426 0 L470 0 C499.278 0 513.392 -16.0556 514.87 -41.4273 C515.018 -43.969 517.561 -46.7684 520 -47.5 C522.751 -48.3253 525.227 -47.6098 525.662 -44.7709 C529.39 -20.466 532.722 9.38889 536.5 33 C540.5 60 545 96 549 123 C547 123 539 126 539 126 C539 126 538.391 124.051 537.726 121.922 L537.726 121.922 Z M147.465 151.011 L210.989 244.465 C237.678 283.728 297 265.475 297 218 L297 126.44 C297 92.527 269.473 65 235.56 65 L193 65 C145.525 65 120.776 111.747 147.465 151.011 L147.465 151.011 Z " />
<glyph glyph-name="five" unicode="5" horiz-adv-x="403" d="M261 500 L129.711 500 C100.954 500 73.3576 476.324 68.985 447.902 L32.6164 211.507 C31.8634 206.612 35.2733 197.261 39 194 C41.9078 191.456 53.7664 187 57.6301 187 L85 187 C213 187 298 121 298 21 C298 -101.85 206.74 -195.231 69.6361 -216.506 C65.4061 -217.163 59.233 -221.728 59.5 -226 C59.7823 -230.516 69.5053 -232.772 73.9809 -232.105 C254.172 -205.279 373 -93.325 373 50 C373 186 261 277 94 277 L83 277 C76.9894 277 72.7056 281.939 73.5556 287.889 L85.534 371.738 C89.6081 400.256 116.984 424.221 145.79 424.487 L277.532 425.701 C295.166 425.863 312.513 440.621 315.5 458 L321 490 L330.94 540.603 C331.514 543.526 329.479 546 326.5 546 C323.805 546 320.538 544.342 319.629 541.805 C310.762 517.053 290.368 500 261 500 L261 500 Z " />
<glyph glyph-name="six" unicode="6" horiz-adv-x="535" d="M496.176 745.271 C227.767 680.829 50 501.6 50 291 C50 110 139 -10 273 -10 C398 -10 482 90 482 239 C482 372 401 461 279 461 C236.1 461 199.326 445.346 172.046 417.967 C169.01 414.92 162.7 420.268 164.118 424.329 C219.418 582.672 348 700.9 519 737 C522.546 737.749 518.551 739.918 518 743.5 C517.436 747.164 499.781 746.136 496.176 745.271 L496.176 745.271 Z M134 246 C134 372 191 456 276 456 C348 456 396 371 396 243 C396 94 346 -5 271 -5 C189 -5 134 95 134 246 L134 246 Z " />
<glyph glyph-name="seven" unicode="7" horiz-adv-x="407" d="M42.0612 382.298 L45 387 C58.2222 409.667 81.2562 425.198 104.835 429.38 C105.394 429.48 112.339 429.975 112.906 429.971 L282.981 428.687 C329.575 428.335 357.075 386.924 339.324 343.842 L119.381 -189.951 C113.063 -205.286 122.914 -220 139.5 -220 C156.547 -220 176.812 -205.315 182.12 -189.116 L400.665 477.873 C401.066 479.098 403 491.211 403 492.5 C403 496.64 399.64 500 395.5 500 L143 500 C114 500 104.711 513.141 108.434 531.979 C108.935 534.514 111.959 537.199 109.566 538.176 C107.625 538.969 99.75 542.25 98 544 C91 531 86 516 81 501 L56.081 435.827 C56.0249 435.68 54.0266 431.048 53.9567 430.908 C46.3081 415.527 38.7391 399.391 33 386 C35 385 40.5 379.5 40.5 379.5 C40.5 379.5 41.1561 380.85 42.0612 382.298 L42.0612 382.298 Z " />
<glyph glyph-name="eight" unicode="8" horiz-adv-x="510" d="M204.008 371.512 C212.04 367 220.2 363 229 359 C333 313 403 271 403 207 C403 79 343 -7 254 -7 C170 -7 114 65 114 173 C114 258.8 144.42 333.193 194.138 372.079 C196.488 373.917 201.407 372.973 204.008 371.512 L204.008 371.512 Z M150.915 355.795 C81.6275 308.277 39 241 39 173 C39 63 125 -11 253 -11 C383 -11 469 62 469 172 C469 281.65 422.038 345.06 345.922 392.936 C330.296 402.765 329.517 431.252 344.654 441.819 C405.246 484.119 442 540.9 442 597 C442 694 366 759 251 759 C139 759 64 687 64 579 C64 509.7 97.6909 449.588 152.158 405.404 C165.547 394.542 165.134 365.546 150.915 355.795 L150.915 355.795 Z M277.5 429.5 L261 437 C183 471 131 534 131 612 C131 699 180 757 254 757 C323 757 369 690 369 590 C369 526.1 345.915 468.68 307.035 433.049 C299.313 425.973 287.035 425.166 277.5 429.5 L277.5 429.5 Z " />
<glyph glyph-name="nine" unicode="9" horiz-adv-x="535" d="M38.8242 -245.271 C307.233 -180.829 485 -1.6 485 209 C485 390 396 510 262 510 C137 510 53 410 53 261 C53 128 134 39 256 39 C298.9 39 335.674 54.6544 362.954 82.0325 C365.99 85.0797 372.3 79.7322 370.882 75.6711 C315.583 -82.6725 187 -200.9 16 -237 C12.4537 -237.749 16.4489 -239.918 17 -243.5 C17.5638 -247.164 35.219 -246.136 38.8242 -245.271 L38.8242 -245.271 Z M401 254 C401 128 344 44 259 44 C187 44 139 129 139 257 C139 406 189 505 264 505 C346 505 401 405 401 254 L401 254 Z " />
<glyph glyph-name="colon" unicode="&#x3a;" horiz-adv-x="135" d="M125 385 C161 385 185 409 185 445 C185 481 161 505 125 505 C89 505 65 481 65 445 C65 409 89 385 125 385 L125 385 Z M125 -5 C161 -5 185 19 185 55 C185 91 161 115 125 115 C89 115 65 91 65 55 C65 19 89 -5 125 -5 L125 -5 Z " />
<glyph glyph-name="semicolon" unicode="&#x3b;" horiz-adv-x="259" d="M125 385 C161 385 185 409 185 445 C185 481 161 505 125 505 C89 505 65 481 65 445 C65 409 89 385 125 385 L125 385 Z M174.487 21.0051 C184.717 -40.1404 154.706 -88.0422 103.071 -103.615 C103.071 -103.615 101.759 -102.276 101.759 -102.276 L102.818 -106.134 C102.818 -106.134 101.506 -104.794 101.506 -104.794 C154.969 -91.7537 189 -49.225 189 11 C189 55 176 89 155 105 C147 112 137 116 125 116 C89 116 65 92 65 56 C65 20 89 -4 125 -4 C144.167 -4 159.514 6.06944 167.569 22.7361 C168.886 25.4595 173.988 23.9885 174.487 21.0051 L174.487 21.0051 Z " />
<glyph glyph-name="equal" unicode="&#x3d;" horiz-adv-x="500" d="M83 200 C83 189.513 91.5126 181 102 181 L411 181 C421.487 181 430 189.513 430 200 C430 210.487 421.487 219 411 219 L102 219 C91.5126 219 83 210.487 83 200 L83 200 Z M83 300 C83 289.513 91.5126 281 102 281 L411 281 C421.487 281 430 289.513 430 300 C430 310.487 421.487 319 411 319 L102 319 C91.5126 319 83 310.487 83 300 L83 300 Z " />
<glyph glyph-name="question" unicode="&#x3f;" horiz-adv-x="299" d="M125 -5 C161 -5 185 19 185 55 C185 91 161 115 125 115 C89 115 65 91 65 55 C65 19 89 -5 125 -5 L125 -5 Z M125 217.5 L125 313.5 C125 335.269 147.123 359.722 168.639 363.027 C229.581 372.39 256.95 402.75 285 444 C303 471 315 515 315 555 C315 678 247 760 145 760 C97 760 65 735 65 697 C65 672 83 655 111 655 C131 655 157 670 176 670 C244 670 289 620 289 545 C289 529 280 505 266 485 C248 458 222 440 97 440 C96.4432 440 98.009 438.457 98.1772 437.926 C105.488 414.867 110 210 110 210 C110 210 113.268 210 117.5 210 C121.64 210 125 213.36 125 217.5 L125 217.5 Z M97 440 L97 440 L97 440 L97 440 Z " />
<glyph glyph-name="at" unicode="&#x40;" horiz-adv-x="1110" d="M985.783 -10.6343 C915.489 -147.691 749.3 -238 566 -238 C300 -238 122 -39 122 259 C122 556 295 754 555 754 C815 754 989 590 989 343 C989 141 918 7 811 7 C719 7 677 84 706 200 L766.299 441.194 C771.494 461.974 757.42 480 736 480 L735.17 480 C714.195 480 691.587 462.349 686.5 442 L683.68 430.719 C681.973 423.892 669.889 423.732 666.536 429.918 C646.141 467.539 607.675 490 559 490 C389 490 276 371 276 192 C276 82 342 8 440 8 C501.875 8 557.624 35.9056 596.579 82.7326 C603.235 90.7333 623.359 89.2799 626.712 79.4275 C648.1 16.57 707.6 -21 796 -21 C951 -21 1055 125 1055 344 C1055 605 855 779 555 779 C255 779 55 571 55 260 C55 -47 267 -252 585 -252 C770.25 -252 940.29 -155.987 1014.48 -10.3036 C1017.79 -3.81445 1012.78 0.750962 1005.5 0.5 C998.786 0.268492 988.849 -4.65688 985.783 -10.6343 L985.783 -10.6343 Z M663.166 349.662 L626 201 C604 114 547 56 484 56 C416 56 370 117 370 209 C370 364 445 467 557 467 C618.75 467 660.645 427.29 664.68 366.732 C664.789 365.104 663.561 351.246 663.166 349.662 L663.166 349.662 Z " />
<glyph glyph-name="A" unicode="A" horiz-adv-x="714" d="M401.528 0 L706.5 0 C708.984 0 711 2.01613 711 4.5 C711 6.98386 708.984 9 706.5 9 L699 9 C655 9 614 49 596 109 C531 329 467 550 401 770 C400.24 772.532 398.643 770 396 770 C393.783 770 391.433 767.094 391.333 764.88 C390.419 744.635 362.876 727.429 319.639 720.549 C316.864 720.108 316.692 717.692 317.5 715 C317.936 713.547 315.243 696.078 314.848 694.613 C262.281 499.693 210.615 303.872 158 109 C142 49 91 9 31 9 L9.5 9 C7.01614 9 5 6.98386 5 4.5 C5 2.01613 7.01614 0 9.5 0 L257.5 0 C259.984 0 262 2.01613 262 4.5 C262 6.98386 259.984 9 257.5 9 L238 9 C178 9 149 49 165 109 L201.893 248.291 C208.353 272.68 236.055 294 261.285 294 L392.787 294 C417.294 294 445.02 273.146 451.817 249.6 L495 100 C507 45 478 9 421 9 L402.528 9 C400.044 9 397.774 6.96867 397.5 4.5 C397.226 2.03133 399.044 0 401.528 0 L401.528 0 Z M236.212 376.033 L269 501 C283.945 557.961 363.382 558.875 379.634 502.273 L415.49 377.396 C427.432 335.804 399.709 299 356.436 299 L295.64 299 C253.12 299 225.421 334.905 236.212 376.033 L236.212 376.033 Z " />
<glyph glyph-name="B" unicode="B" horiz-adv-x="629" d="M349 2 L299 2 C261 2 236 23 236 55 L236 323.56 C236 357.473 263.527 385 297.44 385 L367 385 C434 385 479 309 479 195 C479 39 427 2 349 2 L349 2 Z M64.5 741 L86 741 C116 741 136 721 136 691 L136 59 C136 29 116 9 86 9 L64.5 9 C62.0161 9 60 6.98386 60 4.5 C60 2.01613 62.0161 0 64.5 0 L356 0 C496 0 589 37 589 195 C589 291.9 531.2 362.068 439.551 382.78 C434.659 383.886 435.218 400.734 439.917 402.487 C515.398 430.657 561 490.8 561 570 C561 678 513 750 307 750 L64.5 750 C62.0161 750 60 747.984 60 745.5 C60 743.016 62.0161 741 64.5 741 L64.5 741 Z M334 389 L285 389 C257.953 389 236 410.953 236 438 L236 715 C236 732.115 219 746.004 236.114 746 C239.061 745.999 298 745.975 298 745 C430 745 461 671 461 560 C461 457 410 389 334 389 L334 389 Z " />
<glyph glyph-name="C" unicode="C" horiz-adv-x="699" d="M655 15 L655 203.5 C655 208.192 651.192 212 646.5 212 L641.64 212 C639.647 212 637.168 209.01 636.667 207.081 C635.111 201.099 633.556 194.444 632 189 C615 130 568 68.5 515 34.5 C476 9.5 434 -5 388 -5 C251 -5 160 147 160 375 C160 602 255 754 397 754 C517 754 604 657 632 561 C634 554 636 545 638 538 C638.531 536.142 639.708 538 641.64 538 L646.5 538 C651.192 538 655 541.808 655 546.5 L655 732 C655 734.76 652.76 737 650 737 L648.041 737 C646.299 737 644.911 736.627 644.701 734.897 C643.988 729.037 643.889 721.333 643 716 C639 684 613 680 578 706 C532 740 476 760 395 760 C188 760 50 606 50 375 C50 144 184 -10 386 -10 C467 -10 529 12 580 49 C615 71 639 65 643 32 C643.889 25.7778 643.988 18.7654 644.701 12.3676 C644.923 10.3792 646.535 10 648.536 10 L650 10 C652.76 10 655 12.2402 655 15 L655 15 Z M643 131 L643 131 L643 131 L643 131 Z " />
<glyph glyph-name="D" unicode="D" horiz-adv-x="802" d="M296 4 C242 4 236 23 236 51 L236 704.5 C236 727.407 254.593 746 277.5 746 L319 746 C529 746 637 598 637 375 C637 130 501 4 296 4 L296 4 Z M63.5 743 L86 743 C116 743 136 723 136 693 L136 57 C136 27 116 7 86 7 L63.5 7 C61.5681 7 60 5.4319 60 3.5 C60 1.5681 61.5681 0 63.5 0 L303 0 C569 0 747 128 747 375 C747 600 607 750 336 750 L63.5 750 C61.5681 750 60 748.432 60 746.5 C60 744.568 61.5681 743 63.5 743 L63.5 743 Z " />
<glyph glyph-name="E" unicode="E" horiz-adv-x="606" d="M453 265 L453 510 C453 513.312 450.312 516 447 516 C443.737 516 440.531 513.303 439.972 510.089 L433 470 C425 422 389 390 341 390 L288.5 390 C259.522 390 236 413.522 236 442.5 L236 683.56 C236 717.473 263.527 745 297.44 745 L402 745 C450 745 490 713 504 665 L515.368 624.774 C516.235 621.707 519.813 619 523 619 C526.312 619 528.713 621.807 528.356 625.099 C524.775 658.137 518.927 699.029 514.958 733.414 C513.741 743.953 504.257 749.019 493.648 749.041 L43.5 749.993 C41.5681 749.997 40 748.432 40 746.5 C40 744.568 41.5681 743 43.5 743 L66 743 C108 743 136 715 136 673 L136 77 C136 35 108 7 66 7 L43.5 7 C41.5681 7 40 5.4319 40 3.5 C40 1.56811 41.5681 0.00314881 43.5 0.0070281 L519.663 0.963179 C529.703 0.983339 539.379 8.057 541.207 17.929 C546.993 49.177 553.131 85.801 558.085 115.513 C558.623 118.735 556.267 121 553 121 C549.877 121 546.042 118.287 545.003 115.342 L541 104 C521 45 465 5 402 5 L287 5 C241 5 236 23 236 51 L236 332.5 C236 361.478 259.522 385 288.5 385 L341 385 C389 385 425 353 433 305 L439.972 264.911 C440.531 261.697 443.737 259 447 259 C450.312 259 453 261.688 453 265 L453 265 Z " />
<glyph glyph-name="F" unicode="F" horiz-adv-x="581" d="M443 265 L443 510 C443 513.312 440.312 516 437 516 C433.737 516 430.531 513.303 429.972 510.089 L423 470 C415 422 379 390 331 390 L283.5 390 C257.281 390 236 411.281 236 437.5 L236 684.56 C236 718.473 263.527 746 297.44 746 L401 746 C449 746 489 714 503 666 L514.368 625.774 C515.235 622.707 518.813 620 522 620 C525.304 620 527.719 622.676 527.362 625.96 C523.84 658.338 518.506 699.777 514.674 733.708 C513.507 744.039 504.292 749.018 493.895 749.04 L43.5 749.993 C41.5681 749.997 40 748.432 40 746.5 C40 744.568 41.5681 743 43.5 743 L66 743 C108 743 136 715 136 673 L136 77 C136 35 108 7 66 7 L43.5 7 C41.5681 7 40 5.4319 40 3.5 C40 1.5681 41.5681 0 43.5 0 L328.5 0 C330.432 0 332 1.5681 332 3.5 C332 5.4319 330.432 7 328.5 7 L306 7 C264 7 236 35 236 77 L236 337.5 C236 363.719 257.281 385 283.5 385 L331 385 C379 385 415 353 423 305 L429.972 264.911 C430.531 261.697 433.737 259 437 259 C440.312 259 443 261.688 443 265 L443 265 Z " />
<glyph glyph-name="G" unicode="G" horiz-adv-x="773" d="M655 547.5 L655 732 C655 734.76 652.76 737 650 737 L648.041 737 C646.299 737 644.911 736.627 644.701 734.897 C643.988 729.037 643.889 721.333 643 716 C639 684 613 680 578 706 C532 740 476 760 395 760 C188 760 50 606 50 375 C50 144 189 -10 397 -10 C533.8 -10 623.67 13.0137 699.19 47.038 C699.301 47.0879 701.747 48.6151 701.634 48.5708 C687.492 43.03 671.573 38.3982 653.876 33.7866 C646.34 31.8229 639 36.6434 639 44.4309 L639 231 C639 282 668 316 712 316 L720.5 316 C722.984 316 725 318.016 725 320.5 C725 322.984 722.984 325 720.5 325 L457.5 325 C455.016 325 453 322.984 453 320.5 C453 318.016 455.016 316 457.5 316 L466 316 C510 316 539 282 539 231 C540 231 540 116 540 105 C538 48 487 10 411 10 C259 10 158 156 158 375 C158 602 253 754 395 754 C515 754 602 657 630 561 C632 554 634 545 636 538 C636.531 536.142 637.708 538 639.64 538 L645.5 538 C650.744 538 655 542.256 655 547.5 L655 547.5 Z " />
<glyph glyph-name="H" unicode="H" horiz-adv-x="804" d="M740.5 7 L718 7 C688 7 668 27 668 57 L668 693 C668 723 688 743 718 743 L740.5 743 C742.432 743 744 744.568 744 746.5 C744 748.432 742.432 750 740.5 750 L495.5 750 C493.568 750 492 748.432 492 746.5 C492 744.568 493.568 743 495.5 743 L518 743 C548 743 568 723 568 693 L568 450.44 C568 416.527 540.473 389 506.56 389 L333.44 389 C299.527 389 272 416.527 272 450.44 L272 693 C272 723 292 743 322 743 L344.5 743 C346.432 743 348 744.568 348 746.5 C348 748.432 346.432 750 344.5 750 L99.5 750 C97.5681 750 96 748.432 96 746.5 C96 744.568 97.5681 743 99.5 743 L122 743 C152 743 172 723 172 693 L172 57 C172 27 152 7 122 7 L99.5 7 C97.5681 7 96 5.4319 96 3.5 C96 1.5681 97.5681 0 99.5 0 L344.5 0 C346.432 0 348 1.5681 348 3.5 C348 5.4319 346.432 7 344.5 7 L322 7 C292 7 272 27 272 57 L272 321.56 C272 355.473 299.527 383 333.44 383 L506.56 383 C540.473 383 568 355.473 568 321.56 L568 57 C568 27 548 7 518 7 L495.5 7 C493.568 7 492 5.4319 492 3.5 C492 1.5681 493.568 0 495.5 0 L740.5 0 C742.432 0 744 1.5681 744 3.5 C744 5.4319 742.432 7 740.5 7 L740.5 7 Z " />
<glyph glyph-name="I" unicode="I" horiz-adv-x="367" d="M303.5 7 L281 7 C251 7 231 27 231 57 L231 693 C231 723 251 743 281 743 L303.5 743 C305.432 743 307 744.568 307 746.5 C307 748.432 305.432 750 303.5 750 L58.5 750 C56.5681 750 55 748.432 55 746.5 C55 744.568 56.5681 743 58.5 743 L81 743 C111 743 131 723 131 693 L131 57 C131 27 111 7 81 7 L58.5 7 C56.5681 7 55 5.4319 55 3.5 C55 1.5681 56.5681 0 58.5 0 L303.5 0 C305.432 0 307 1.5681 307 3.5 C307 5.4319 305.432 7 303.5 7 L303.5 7 Z " />
<glyph glyph-name="J" unicode="J" horiz-adv-x="367" d="M303.5 750 L58.5 750 C56.5681 750 55 748.432 55 746.5 C55 744.568 56.5681 743 58.5 743 L81 743 C111 743 131 723 131 693 L131 -72 C131 -190 66 -212 19 -212 C-30 -212 -6 -132 -56 -132 C-83 -132 -101 -150 -101 -177 C-101 -203 -55 -220 13 -220 C105 -220 231 -166 231 116 L231 693 C231 723 251 743 281 743 L303.5 743 C305.432 743 307 744.568 307 746.5 C307 748.432 305.432 750 303.5 750 L303.5 750 Z " />
<glyph glyph-name="K" unicode="K" horiz-adv-x="713" d="M308.959 750 L63.5 750 C61.5681 750 60 748.432 60 746.5 C60 744.568 61.5681 743 63.5 743 L86 743 C116 743 136 723 136 693 L136 57 C136 27 116 7 86 7 L63.5 7 C61.5681 7 60 5.4319 60 3.5 C60 1.5681 61.5681 0 63.5 0 L308.5 0 C310.432 0 312 1.5681 312 3.5 C312 5.4319 310.432 7 308.5 7 L286 7 C256 7 236 27 236 57 L236 216 C236 268.022 299.412 288.842 330.249 246.945 L493.585 25.0209 C501.771 13.898 529.256 0 543.067 0 L704.5 0 C706.432 0 708 1.5681 708 3.5 C708 5.4319 706.432 7 704.5 7 L682 7 C655 7 623 24 601 50 L336.533 404.133 C321.949 423.66 321.996 458.304 336.633 477.792 L490 682 C519 719 563 744 601 744 L628.5 744 C630.432 744 632 745.568 632 747.5 C632 749.432 630.432 751 628.5 751 L360.5 751 C358.568 751 357 749.432 357 747.5 C357 745.568 358.568 744 360.5 744 L398 744 C458 744 470 704 427 644 L328.958 505.71 C299.602 464.302 237 484.242 237 535 L237 694 C237 724 257 744 287 744 L309.959 744 C311.615 744 312.772 745.367 312.5 747 C312.228 748.633 310.615 750 308.959 750 L308.959 750 Z " />
<glyph glyph-name="L" unicode="L" horiz-adv-x="591" d="M303 750 L58.5 750 C56.5681 750 55 748.432 55 746.5 C55 744.568 56.5681 743 58.5 743 L81 743 C111 743 131 723 131 693 L131 57 C131 27 111 7 81 7 L58.5 7 C56.5681 7 55 5.4319 55 3.5 C55 1.5681 56.5681 0 58.5 0 L518.5 0 C522.088 0 525 2.91219 525 6.5 L525 7.08208 C525 7.68705 525.943 17.8856 526.057 18.4797 C532.44 51.8202 539.512 93.1797 545.085 126.52 C545.624 129.744 543.268 132 540 132 C536.877 132 533.042 129.287 532.003 126.342 L528 115 C508 56 452 16 389 16 L282 16 C236 16 231 30 231 50 L231 692 C231 722 251 742 281 742 L303 742 C305.208 742 307 743.792 307 746 C307 748.208 305.208 750 303 750 L303 750 Z " />
<glyph glyph-name="M" unicode="M" horiz-adv-x="841" d="M581.162 0 L826.5 0 C828.432 0 830 1.5681 830 3.5 C830 5.4319 828.432 7 826.5 7 L804 7 C776 7 756 25 753 52 C746 266 739 480 733 693 C732 723 751 743 781 743 L803.5 743 C805.432 743 807 744.568 807 746.5 C807 748.432 805.432 750 803.5 750 L681.487 750 C657.473 750 629.732 729.462 622.722 706.495 L504.232 318.249 C486.261 259.367 406.611 258.369 387.171 316.783 L256.99 707.961 C249.663 729.978 221.898 750 198.694 750 L53.5 750 C51.5681 750 50 748.432 50 746.5 C50 744.568 51.5681 743 53.5 743 L76 743 C102.25 743 126.203 727.688 139.15 704.432 C141.49 700.229 143.768 686.561 143.618 681.753 L124 52 C121 25 101 7 73 7 L50.5 7 C48.5681 7 47 5.4319 47 3.5 C47 1.5681 48.5681 0 50.5 0 L230.5 0 C232.432 0 234 1.5681 234 3.5 C234 5.4319 232.432 7 230.5 7 L208 7 C178 7 158 27 159 57 L167.039 516.833 C167.438 539.635 203.558 537.339 211.624 516.008 C276.686 343.942 342.179 172.308 407 0 C409.274 -6.04425 413.042 0 419.5 0 C426.072 0 433.804 5.64647 435.804 11.9072 L547.835 362.614 C564.342 414.289 645.142 402.731 646.5 348.5 L653.922 52.1293 C653.93 51.788 653.819 47.0685 653.78 46.7294 C650.875 22.0147 632.206 6 606 6 L583.162 6 C581.506 6 579.524 4.57093 579 3 C578.476 1.42907 579.506 0 581.162 0 L581.162 0 Z " />
<glyph glyph-name="N" unicode="N" horiz-adv-x="726" d="M-13.4505 743 L10 743 C37 743 68 726 88 700 L118.52 654.592 C121.755 649.779 128.978 626.013 128.968 620.213 L128 56 C128 26 108 6 78 6 L55.5 6 C53.5681 6 52 4.4319 52 2.5 C52 0.568105 53.5681 -1 55.5 -1 L230.5 -1 C232.432 -1 234 0.568105 234 2.5 C234 4.4319 232.432 6 230.5 6 L208 6 C178 6 158 26 158 56 L155.667 479.072 C155.462 516.303 205.465 525.786 226.395 494.995 C335.17 334.97 443.834 174.834 551.873 14.0731 C554.428 10.2721 567.42 -1 572 -1 C577.519 -1 582.045 3.48035 582.1 8.9995 L588.966 696.635 C588.973 697.276 589.574 703.689 589.704 704.317 C594.377 726.827 613.588 741 639 741 L661.5 741 C663.432 741 665 742.568 665 744.5 C665 746.432 663.432 748 661.5 748 L486.5 748 C484.568 748 483 746.432 483 744.5 C483 742.568 484.568 741 486.5 741 L509 741 C539 741 559 721 559 691 L560.554 291.683 C560.689 256.859 513.577 248.227 494.238 277.188 C395.566 424.966 296.398 572.248 197.2 719.5 C188.839 731.912 160.275 748 145.309 748 L-14.4505 748 C-15.8304 748 -16.7706 746.853 -16.5 745.5 C-16.2294 744.147 -14.8304 743 -13.4505 743 L-13.4505 743 Z " />
<glyph glyph-name="O" unicode="O" horiz-adv-x="810" d="M159 375 C159 602 254 754 397 754 C546 754 646 602 646 375 C646 148 543 -4 389 -4 C251 -4 159 148 159 375 L159 375 Z M50 375 C50 144 185 -10 388 -10 C608 -10 755 144 755 375 C755 606 612 760 398 760 C189 760 50 606 50 375 L50 375 Z " />
<glyph glyph-name="P" unicode="P" horiz-adv-x="567" d="M333.5 7 L311 7 C281 7 261 27 261 57 L261 323 C261 334.591 270.409 344 282 344 L303 344 C449 344 547 404 547 539 C547 666 466 750 344 750 L88.5 750 C86.5681 750 85 748.432 85 746.5 C85 744.568 86.5681 743 88.5 743 L111 743 C141 743 161 723 161 693 L161 57 C161 27 141 7 111 7 L88.5 7 C86.5681 7 85 5.4319 85 3.5 C85 1.5681 86.5681 0 88.5 0 L333.5 0 C335.432 0 337 1.5681 337 3.5 C337 5.4319 335.432 7 333.5 7 L333.5 7 Z M261 386 L261 704 C261 720.007 273.993 733 290 733 L319 733 C400 733 454 662 454 555 C454 424 394 365 303 365 L282 365 C270.409 365 261 374.409 261 386 L261 386 Z " />
<glyph glyph-name="Q" unicode="Q" horiz-adv-x="805" d="M1047.74 -58.9395 C1003.06 -78.75 896.75 -91 769 -91 C592.525 -91 427.457 -58.6788 340.531 -9.79286 C339.049 -8.95938 340.899 -7.10846 342.583 -7.33796 C357.028 -9.30556 372.167 -10 388 -10 C608 -10 755 144 755 375 C755 606 612 760 398 760 C189 760 50 606 50 375 C50 216.075 113.692 93.2738 219.758 32.5483 C219.946 32.4405 238.753 19.9465 238.928 19.8181 C382.625 -85.6538 589.325 -156 758 -156 C858.825 -156 970.773 -120.064 1046.36 -64.8118 C1046.39 -64.7871 1047.78 -58.9225 1047.74 -58.9395 L1047.74 -58.9395 Z M159 375 C159 602 254 754 397 754 C546 754 646 602 646 375 C646 146 540 -7 382 -7 C248 -7 159 146 159 375 L159 375 Z " />
<glyph glyph-name="R" unicode="R" horiz-adv-x="708" d="M64 743 L86 743 C116 743 136 723 136 693 L136 57 C136 27 116 7 86 7 L63.5 7 C61.5681 7 60 5.4319 60 3.5 C60 1.5681 61.5681 0 63.5 0 L308.5 0 C310.432 0 312 1.5681 312 3.5 C312 5.4319 310.432 7 308.5 7 L286 7 C256 7 236 27 236 57 L236 321 C236 339.767 251.233 355 270 355 L282.523 355 C292.594 355 308.175 346.13 312.771 337.17 C337.859 288.266 394.625 189.5 469 67 C508 3 517 0 698 0 C699.932 0 698 1.5681 698 3.5 C698 5.42813 694.652 7.00084 692.724 7.00459 C625.731 7.135 620.125 10.45 586 67 C511.2 190.25 452.295 287.49 419.725 340.91 C413.198 351.617 420.742 368.568 432.696 372.356 C512.4 397.61 561 451.7 561 539 C561 666 460 751 309 751 L64 751 C61.7921 751 60 749.208 60 747 C60 744.792 61.7921 743 64 743 L64 743 Z M236 417.5 L236 709.5 C236 721.367 245.633 731 257.5 731 L279 731 C382 731 451 662 451 559 C451 436 394 381 309 381 L272.5 381 C252.353 381 236 397.353 236 417.5 L236 417.5 Z " />
<glyph glyph-name="S" unicode="S" horiz-adv-x="518" d="M65 154 L65 154 L65 154 L65 154 Z M50 221.876 L50 14 C50 11.2402 52.2402 9 55 9 L55.9689 9 C58.2841 9 60.2697 11.2304 60.4583 13.5379 C61.0331 20.5702 61.1818 28.4545 62 35 C65 70 89 76 122 52 C166 14 219 -9 272 -9 C396 -9 478 73 478 197 C478 297 418 386 302 428 C197 466 143 532 143 602 C143 724 208 785 303 742 C350 720 395 658 415 586 C416.636 580.273 418.273 571.868 419.909 565.167 C420.391 563.193 422.608 561 424.64 561 L429.5 561 C434.192 561 438 564.808 438 569.5 L438 742 C438 744.76 435.76 747 433 747 L430.55 747 C429.067 747 427.829 746.215 427.627 744.746 C426.98 740.041 426.857 734.286 426 730 C423.207 709.517 409.145 702.904 388.657 711.773 C387.766 712.159 378.985 717.965 378.211 718.552 C340.993 746.755 293.35 763 243 763 C136 763 65 684 65 566 C65 461 126 369 243 326 C346 289 399 230 399 170 C399 68 349 0 273 0 C240 0 205 14 173 40 C132 74 93 140 74 209 C72.3636 214.727 70.7273 223.132 69.0909 229.833 C68.5967 231.857 66.4644 233.744 64.4095 233.402 L59 232.5 C54.0999 231.683 50 226.844 50 221.876 L50 221.876 Z " />
<glyph glyph-name="T" unicode="T" horiz-adv-x="741" d="M661 783.5 C660.996 783.495 657.132 778.208 657.128 778.203 C643.883 760.83 604.6 750 559 750 L183 750 C137.4 750 98.1175 760.83 84.8721 778.203 C84.8682 778.208 81.004 783.495 81 783.5 C80.138 784.578 77.1784 786 75.7984 786 L74.5 786 C72.2656 786 69.0861 784.043 68.1318 782.023 C61.4575 767.892 53.4783 751.696 48 738 C32.4103 700 22.5168 650.607 7.21914 612.023 C6.09886 609.198 8.96042 609 12 609 C14.8237 609 19.6598 611.708 21.1354 614.116 L37 640 C66 691 119 725 170 725 L259.56 725 C293.473 725 321 697.473 321 663.56 L321 57 C321 27 301 7 271 7 L248.5 7 C246.568 7 245 5.4319 245 3.5 C245 1.5681 246.568 0 248.5 0 L493.5 0 C495.432 0 497 1.5681 497 3.5 C497 5.4319 495.432 7 493.5 7 L471 7 C441 7 421 27 421 57 L421 663.56 C421 697.473 448.527 725 482.44 725 L572 725 C623 725 676 691 705 640 L720.865 614.116 C722.34 611.708 727.176 609 730 609 C733.021 609 734.665 612.273 733.577 615.091 C718.859 653.199 708.179 701 693 738 C687.522 751.696 680.376 767.892 673.847 782.023 C672.897 784.078 669.764 786 667.5 786 L666.202 786 C664.822 786 661.862 784.578 661 783.5 L661 783.5 Z " />
<glyph glyph-name="U" unicode="U" horiz-adv-x="701" d="M667.62 39.0901 L645 33 C615 25 595 40 595 70 L595 688.56 C595 722.473 567.473 750 533.56 750 L422.5 750 C420.568 750 419 748.432 419 746.5 C419 744.568 420.568 743 422.5 743 L445 743 C475 743 495 723 495 693 L495 196.653 C495 192.613 491.21 175.2 489.297 171.641 C451.295 100.93 378.05 54 303 54 C242 54 201 118 201 213 L201 688.56 C201 722.473 173.473 750 139.56 750 L28.5 750 C26.5681 750 25 748.432 25 746.5 C25 744.568 26.5681 743 28.5 743 L51 743 C81 743 101 723 101 693 L101 213 C101 79 165 -10 262 -10 C342.85 -10 420.977 30.1569 468.868 94.1867 C475.264 102.738 495 99.6832 495 89.0051 L495 25 C495 11.2007 506.201 0 520 0 L545 0 C549 1 595 11 595 13 C619.471 19.5882 644.827 26.1765 666.901 31.931 C668.71 32.4027 671 34.6303 671 36.5 C671 38.3655 669.422 39.5751 667.62 39.0901 L667.62 39.0901 Z " />
<glyph glyph-name="V" unicode="V" horiz-adv-x="747" d="M723.975 750 L474.5 750 C472.016 750 470 747.984 470 745.5 C470 743.016 472.016 741 474.5 741 L508 741 C566 741 592 703 575 646 L459.246 306.186 C439.868 249.297 364.782 248.096 343.593 304.335 L216 643 C195 701 220 740 279 740 L297.5 740 C299.984 740 302 742.016 302 744.5 C302 746.984 299.984 749 297.5 749 L2.5 749 C0.016135 749 -2 746.984 -2 744.5 C-2 742.016 0.016135 740 2.5 740 L8 740 C39 740 74 706 97 654 C179.875 437.55 261.799 221.1 344.627 5.57686 C346.476 0.766098 355.846 -11 361 -11 C366.182 -11 372.661 -6.47674 374.446 -1.61264 L610 640 C632 700 674 740 716 740 L722.975 740 C725.735 740 728.225 742.254 728.5 745 C728.775 747.746 726.735 750 723.975 750 L723.975 750 Z " />
<glyph glyph-name="W" unicode="W" horiz-adv-x="1051" d="M269.901 750 L5.5 750 C3.01613 750 1 747.984 1 745.5 C1 743.016 3.01613 741 5.5 741 L11 741 C45 741 79 709 96 661 L334.749 0.75506 C336.956 -5.3467 345.012 -11 351.5 -11 C358.005 -11 365.998 -5.3479 368.166 0.785502 L500.54 375.307 C510.144 402.481 548.344 396.724 558.154 369.624 C604.103 242.686 650.051 116.179 696 -11 C698.205 -17.103 702.011 -11 708.5 -11 C715.152 -11 722.554 -5.36183 724.322 1.05053 L908.224 668.184 C908.291 668.427 910.142 673.889 910.237 674.122 C926.803 714.333 962 740 1001 740 L1009.5 740 C1011.98 740 1014 742.016 1014 744.5 C1014 746.984 1011.98 749 1009.5 749 L759.5 749 C757.016 749 755 746.984 755 744.5 C755 742.016 757.016 740 759.5 740 L809 740 C857 740 880 708 868 660 L786.019 340.031 C770.517 279.527 687.788 276.685 668.171 335.983 L558.879 666.344 C558.798 666.588 557.36 671.945 557.31 672.197 C549.114 713.382 571.125 740 615 740 L648.5 740 C650.984 740 653 742.016 653 744.5 C653 746.984 650.984 749 648.5 749 L358.5 749 C356.016 749 354 746.984 354 744.5 C354 742.016 356.016 740 358.5 740 L365 740 C401 740 437 708 454 660 C470.625 612.75 488.016 565.5 504.832 518.92 C507.331 511.997 507.531 485.734 505.182 478.759 L414.234 208.756 C404.253 179.126 362.674 183.893 352.868 213.581 C303.742 362.319 253.85 511.5 206 660 C190 708 211 740 259 740 L271.901 740 C274.661 740 276.541 742.294 276 745 C275.459 747.706 272.661 750 269.901 750 L269.901 750 Z " />
<glyph glyph-name="X" unicode="X" horiz-adv-x="756" d="M241.901 7 L191 7 C160 7 150 27 167 57 L309.697 282.797 C323.103 304.01 351.593 301.314 364.376 279.719 C407.489 206.881 450.925 133.6 493 61 C512 28 504 6 471 6 L437.5 6 C435.568 6 434 4.4319 434 2.5 C434 0.568105 435.568 -1 437.5 -1 L702.5 -1 C704.432 -1 706 0.568105 706 2.5 C706 4.39224 705.13 5.98934 703.238 6.02819 C667.504 6.76187 638.425 21.85 616 55 L421.893 383.627 C411.236 401.671 413.104 435.08 425.707 451.823 L608 694 C633 723 669 742 700 742 L727.5 742 C729.432 742 731 743.568 731 745.5 C731 747.432 729.432 749 727.5 749 L492.5 749 C490.568 749 489 747.432 489 745.5 C489 743.568 490.568 742 492.5 742 L545 742 C577 742 585 721 566 689 L424.099 469.011 C410.72 448.269 382.755 451.011 370.149 472.231 C327.861 543.419 285.25 615.05 244 686 C224 719 233 741 266 741 L299.5 741 C301.432 741 303 742.568 303 744.5 C303 746.432 301.432 748 299.5 748 L35.5 748 C33.5681 748 32 746.432 32 744.5 C32 742.605 32.8655 741.01 34.76 740.974 C70.4456 740.289 98.55 726.2 120 695 L306.342 379.304 C316.125 362.729 315.186 329.862 304.472 313.873 L129 52 C107 23 73 4 43 4 L15.5 4 C13.5681 4 12 2.4319 12 0.5 C12 -1.4319 13.5681 -3 15.5 -3 L243.901 -3 C246.661 -3 248.541 -0.706256 248 2 C247.459 4.70626 244.661 7 241.901 7 L241.901 7 Z " />
<glyph glyph-name="Y" unicode="Y" horiz-adv-x="675" d="M267.959 750 L3.5 750 C1.5681 750 0 748.432 0 746.5 C0 744.606 0.793409 743.011 2.68688 742.974 C36.5544 742.306 64.1044 728.914 85.3369 699.366 C85.4642 699.189 88.2837 694.703 88.3901 694.512 L288.194 336.969 C290.296 333.208 296 311.306 296 306.998 L296 78 C296 36 268 8 226 8 L203.5 8 C201.568 8 200 6.4319 200 4.5 C200 2.5681 201.568 1 203.5 1 L488.5 1 C490.432 1 492 2.5681 492 4.5 C492 6.4319 490.432 8 488.5 8 L466 8 C424 8 396 36 396 78 L396 324.045 C396 327.372 400.591 347.585 402.029 350.586 L567 695 C584 725 614 744 645 744 L673.5 744 C675.432 744 677 745.568 677 747.5 C677 749.432 675.432 751 673.5 751 L470.5 751 C468.568 751 467 749.432 467 747.5 C467 745.568 468.568 744 470.5 744 L525 744 C558 744 569 722 554 689 L445.8 456.369 C422.92 407.178 361.588 405.432 335.947 453.241 L209.5 689 C191.5 722 202 744 235 744 L268.959 744 C270.615 744 271.772 745.367 271.5 747 C271.228 748.633 269.615 750 267.959 750 L267.959 750 Z " />
<glyph glyph-name="Z" unicode="Z" horiz-adv-x="615" d="M71.3016 611.857 L74 624 C90 683 142 723 205 724 L356.818 726.292 C409.203 727.082 437.644 676.52 409.764 632.163 L30.3215 28.4665 C28.7584 25.9797 25 12.9373 25 10 C25 4.4803 29.4803 0 35 0 L565.351 0 C569.491 0 573.688 3.44062 574.5 7.5 L576 15 C576.975 15 587.456 63.4819 604.663 140.055 C605.371 143.206 603.23 146 600 146 C596.913 146 592.944 143.285 591.825 140.408 L587 128 C565 73 514 34 456 28 L254.345 24.1467 C202.14 23.1492 173.488 73.2501 200.823 117.739 L571.765 721.48 C573.278 723.942 577 737.11 577 740 C577 745.52 572.52 750 567 750 L84.0557 750 C76.3281 750 69.4372 743.697 68.75 736 L67.5 722 C65.55 702.5 63.1247 662.086 58.3703 610.027 C58.0708 606.747 60.7061 606 64 606 C67.233 606 70.6003 608.701 71.3016 611.857 L71.3016 611.857 Z " />
<glyph glyph-name="bracketleft" unicode="&#x5b;" horiz-adv-x="295" d="M196.44 725 L332.5 725 C339.4 725 345 730.6 345 737.5 C345 744.4 339.4 750 332.5 750 L166.44 750 C132.527 750 105 722.473 105 688.56 L105 -133.56 C105 -167.473 132.527 -195 166.44 -195 L332.5 -195 C339.4 -195 345 -189.4 345 -182.5 C345 -175.6 339.4 -170 332.5 -170 L196.44 -170 C162.527 -170 135 -142.473 135 -108.56 L135 663.56 C135 697.473 162.527 725 196.44 725 L196.44 725 Z " />
<glyph glyph-name="backslash" unicode="&#x5c;" horiz-adv-x="347" d="M34.3126 746.093 L279.687 -56.0934 C283.547 -68.712 298.804 -80 312 -80 C325.196 -80 333.547 -68.712 329.687 -56.0934 L84.3126 746.093 C80.4528 758.712 65.1957 770 52 770 C38.8043 770 30.4528 758.712 34.3126 746.093 L34.3126 746.093 Z " />
<glyph glyph-name="bracketright" unicode="&#x5d;" horiz-adv-x="298" d="M158 663.56 L158 -108.56 C158 -142.473 130.473 -170 96.56 -170 L-39.5 -170 C-46.3996 -170 -52 -175.6 -52 -182.5 C-52 -189.4 -46.3996 -195 -39.5 -195 L126.56 -195 C160.473 -195 188 -167.473 188 -133.56 L188 688.56 C188 722.473 160.473 750 126.56 750 L-39.5 750 C-46.3996 750 -52 744.4 -52 737.5 C-52 730.6 -46.3996 725 -39.5 725 L96.56 725 C130.473 725 158 697.473 158 663.56 L158 663.56 Z " />
<glyph glyph-name="asciicircum" unicode="&#x5e;" horiz-adv-x="298" d="M179 755 C173 764 159 785 149 785 C140 785 126 764 120 755 L1.26015 572.546 C-1.07503 568.958 -0.288866 563.741 3 561 C6.29712 558.252 11.4968 558.479 14.5424 561.503 L105.865 652.173 C129.673 675.811 168.395 675.88 192.287 652.327 L284.707 561.218 C287.624 558.342 292.469 558.244 295.5 561 C298.495 563.723 299.164 568.845 296.969 572.245 L179 755 L179 755 Z " />
<glyph glyph-name="underscore" unicode="&#x5f;" horiz-adv-x="381" d="M5 -73.5 C5 -86.4713 15.5287 -97 28.5 -97 L352.5 -97 C365.471 -97 376 -86.4713 376 -73.5 C376 -60.5287 365.471 -50 352.5 -50 L28.5 -50 C15.5287 -50 5 -60.5287 5 -73.5 L5 -73.5 Z " />
<glyph glyph-name="grave" unicode="&#x60;" horiz-adv-x="298" d="M-54 746 C-54 738 -28 714 10 682 L146.323 566.798 C149.454 564.151 154.242 564.466 157 567.5 C159.715 570.486 159.938 575.7 157.489 578.908 L49 721 C19 761 -4 788 -12 788 C-35 788 -54 769 -54 746 L-54 746 Z " />
<glyph glyph-name="a" unicode="a" horiz-adv-x="479" d="M485 104.5 C482.955 105.267 480.613 103.702 480.109 101.576 C473.582 74.05 450.45 56 421 56 C389 56 367 74 367 102 L367 355 C367 462 316 510 240 510 C135 510 65 414 65 360 C65 324 85 300 114 300 C141 300 159 325 159 343 C159 361 139 385 139 403 C139 439 177 504 233 504 C287.9 504 283.67 400.32 282.275 296.478 C282.054 280.021 261.413 250.102 247.19 241.822 C109.883 161.884 44 118.525 44 88 C44 29 84 -10 145 -10 C176.5 -10 216.1 11.06 265.987 63.386 C272.706 70.434 286.345 65.04 289.968 56.001 C305.14 18.1412 339.625 -5 385 -5 C433.75 -5 475.37 35.8769 487.616 98.1666 C488.077 100.511 487.237 103.661 485 104.5 L485 104.5 Z M280.848 211.687 C280.487 154.656 279.66 116.392 280.426 95.5234 C280.578 91.3808 276.324 80.983 273.401 78.0433 C242.373 46.8344 213.975 34 189 34 C152 34 128 59 128 96 C128 150.4 163.764 186.376 237.748 232.178 C257.54 244.431 280.996 234.964 280.848 211.687 L280.848 211.687 Z " />
<glyph glyph-name="b" unicode="b" horiz-adv-x="520" d="M14.0311 718 L21 718 C48 720 66 703 66 676 L66 0 L71 0 L88.7609 38.482 C94.131 50.1171 112.368 51.1875 121.841 42.5573 C157.514 10.0575 206.375 -9 260 -9 C388 -9 474 96 474 254 C474 405 394 506 274 506 C234.4 506 195.481 486.262 166.788 454.085 C161.734 448.418 150 451.174 150 458.768 L150 730 C150 741.591 140.591 751 129 751 L116.051 751 C114.958 751 101.984 749.413 100.925 749.137 C72.8553 741.83 38.6518 733.842 11.3251 726.617 C9.18867 726.053 9.2259 724.193 9.5 722 C9.77385 719.809 11.8232 718 14.0311 718 L14.0311 718 Z M150 121.824 L150 399.818 C150 407.844 156.446 427.548 161.63 433.675 C185.078 461.382 216.4 478 247 478 C326 478 379 384 379 242 C379 98 332 2 262 2 C219.25 2 178.305 40.8075 153.74 101.275 C152.802 103.585 150 119.331 150 121.824 L150 121.824 Z " />
<glyph glyph-name="c" unicode="c" horiz-adv-x="462" d="M411.161 93.5127 C377.052 42.3297 326.675 10 278 10 C191 10 133 115 133 273 C133 413 192 506 280 506 C298 506 325 466 347 405 C356 380 373 363 390 363 C424 363 441 380 432 405 C409 468 349 510 281 510 C139 510 45 400 45 236 C45 88 133 -10 266 -10 C319.55 -10 375.267 29.7375 413.5 92.6311 C413.546 92.7064 411.21 93.5859 411.161 93.5127 L411.161 93.5127 Z " />
<glyph glyph-name="d" unicode="d" horiz-adv-x="558" d="M329.536 717 L337 717 C364 718 382 702 382 675 L382 448.53 C382 441.103 370.033 438.97 365.651 444.966 C337.519 483.456 298.6 510 259 510 C118 510 45 406 45 251 C45 97 122 -5 238 -5 C280.9 -5 326.523 15.4187 360.83 48.395 C367.395 54.7056 381 51.2056 381 42.0993 L381 21.0015 C381 9.41012 390.409 -0.112017 402 -0.25 L414.253 -0.395869 C415.581 -0.411681 429.996 1.43677 431.276 1.78966 C465.05 11.0968 506.397 22.0644 539.28 30.3185 C541.095 30.7743 542 32.6281 542 34.5 C542 36.3655 540.422 37.5751 538.62 37.0901 L516 31 C486 23 466 38 466 68 L466 729 C466 740.591 456.591 750 445 750 L431.734 750 C430.676 750 417.532 748.345 416.507 748.083 L381 739 C381 736 328 725 325 724 L325.5 720.5 C325.773 718.588 327.604 717 329.536 717 L329.536 717 Z M381 365.836 L381 96.8215 C381 87.0553 376.309 72.1153 368.985 65.6554 C344.123 43.7275 307.7 30 272 30 C187 30 131 128 131 274 C131 401 178 485 268 485 C313.6 485 358.298 438.972 378.086 383.785 C378.758 381.911 381 367.826 381 365.836 L381 365.836 Z " />
<glyph glyph-name="e" unicode="e" horiz-adv-x="494" d="M150.102 340 L402.016 340 C441.143 340 462.492 361.014 448.082 397.391 C416.415 477.33 354.375 510 276 510 C137 510 45 432 45 231 C45 86 129 -10 255 -10 C325.55 -10 389.959 31.905 427.346 97.9054 C427.374 97.9545 426.287 98.5417 426.256 98.4943 C391.515 45.0312 329.65 11 262 11 C186 11 135 113 135 266 C135 288.781 135.712 310.139 137.736 329.472 C138.391 335.726 143.813 340 150.102 340 L150.102 340 Z M310.058 345.743 L197.987 345.253 C161.954 345.096 140.871 364.606 151.091 399.159 C173.432 474.691 218.25 506 276 506 C307.35 506 336.318 475.712 357.288 399.976 C366.485 366.762 344.52 345.893 310.058 345.743 L310.058 345.743 Z " />
<glyph glyph-name="f" unicode="f" horiz-adv-x="333" d="M248.5 7 L211 7 C202 7 196 13 196 22 L196 393.56 C196 427.473 223.527 455 257.44 455 L300.5 455 C312.919 455 323 465.081 323 477.5 C323 489.919 312.919 500 300.5 500 L257.44 500 C221.212 500 195.414 522.31 197.887 558.454 C205.007 662.53 232.25 729 279 729 C314 729 348 635 377 635 C404 635 422 653 422 680 C422 725 377 755 309 755 C191.1 755 125.04 672.38 113.007 544.319 C111.215 525.245 88.9528 491.791 70.9987 485.106 L21.6857 466.745 C19.2619 465.842 17 462.586 17 460 C17 457.24 19.2402 455 22 455 L64 455 C89.9426 455 111 433.943 111 408 L111 22 C111 13 105 7 96 7 L58.5 7 C56.5681 7 55 5.4319 55 3.5 C55 1.5681 56.5681 0 58.5 0 L248.5 0 C250.432 0 252 1.5681 252 3.5 C252 5.4319 250.432 7 248.5 7 L248.5 7 Z " />
<glyph glyph-name="g" unicode="g" horiz-adv-x="487" d="M508 479 C508 510 486 530 453 530 C424.95 530 394.01 511.215 370.62 481.014 C365.334 474.19 349.553 472.97 342.607 478.096 C315.055 498.429 279.25 510 238 510 C140 510 74 446 74 350 C74 279.875 108.712 226.766 165.221 202.464 C169.754 200.514 170.226 187.355 165.362 186.521 C96.905 174.785 55 144.95 55 105 C55 61.275 76.78 27.7594 112.479 11.1913 C118.309 8.48561 118.985 -3.91338 113.204 -6.72112 C71.01 -27.2125 45 -59.3 45 -95 C45 -176 127 -230 249 -230 C371 -230 452 -165 452 -68 C452 23 404 84 281 84 L171 84 C131 84 104 102 104 130 C104 165 158 188 239 188 C337 188 402 253 402 350 C402 391.625 390.021 427.261 368.438 454.533 C365.75 457.929 364.499 462.819 367.76 465.67 C377.223 473.942 389.25 479 402 479 C423 479 450 444 471 444 C493 444 507.5 458 507.5 480 L508 479 Z M238 194 C191 194 159 257 159 352 C159 446 191 508 238 508 C285 508 316 446 316 352 C316 257 285 194 238 194 L238 194 Z M156 2.5 L165 2 L270 2 C348 2 379 -33 379 -86 C379 -169 327 -224 248 -224 C168 -224 114 -164 114 -73 C114 -43.359 123.5 -18.2781 139.188 -3.05809 C142.511 0.166092 151.377 2.75684 156 2.5 L156 2.5 Z " />
<glyph glyph-name="h" unicode="h" horiz-adv-x="534" d="M22.5 717 L30 717 C57 719 75 702 75 675 L75 22 C75 13 69 7 60 7 L22.5 7 C20.5681 7 19 5.4319 19 3.5 C19 1.5681 20.5681 0 22.5 0 L212.5 0 C214.432 0 216 1.5681 216 3.5 C216 5.4319 214.432 7 212.5 7 L175 7 C166 7 160 13 160 22 L160 369.358 C160 372.997 162.315 385.959 163.955 389.208 C182.551 426.043 229.425 450 284 450 C336 450 363 402 363 330 L363 22 C363 13 357 7 348 7 L310.5 7 C308.568 7 307 5.4319 307 3.5 C307 1.5681 308.568 0 310.5 0 L500.5 0 C502.432 0 504 1.5681 504 3.5 C504 5.4319 502.432 7 500.5 7 L463 7 C454 7 448 13 448 22 L448 330 C448 438 409 510 333 510 C270.3 510 211.684 475.969 177.927 421.944 C174.168 415.927 160 417.761 160 424.856 L160 728.999 C160 740.59 150.591 750.112 139 750.25 L126.453 750.399 C125.193 750.414 111.052 748.64 109.834 748.314 L22.381 724.905 C20.5782 724.422 19 722.366 19 720.5 C19 718.568 20.5681 717 22.5 717 L22.5 717 Z " />
<glyph glyph-name="i" unicode="i" horiz-adv-x="256" d="M128 615 C161 615 183 637 183 670 C183 703 161 725 128 725 C95 725 73 703 73 670 C73 637 95 615 128 615 L128 615 Z M32.5 467 L40 467 C67 469 85 452 85 425 L85 22 C85 13 79 7 70 7 L32.5 7 C30.5681 7 29 5.4319 29 3.5 C29 1.5681 30.5681 0 32.5 0 L222.5 0 C224.432 0 226 1.5681 226 3.5 C226 5.4319 224.432 7 222.5 7 L185 7 C176 7 170 13 170 22 L170 479 C170 490.591 160.591 500 149 500 L134.671 500 C133.744 500 122.634 498.728 121.734 498.508 C110.409 495.737 98.1316 492.368 85.5 489 C85.5 486 32 475 29 474 L29 470.5 C29 468.568 30.5681 467 32.5 467 L32.5 467 Z " />
<glyph glyph-name="j" unicode="j" horiz-adv-x="261" d="M129 615 C162 615 184 637 184 670 C184 703 162 725 129 725 C96 725 74 703 74 670 C74 637 96 615 129 615 L129 615 Z M33.5 467 L41 467 C68 469 86 452 86 425 L86 50 C86 -24.8 72.995 -85.8725 52.5121 -112.337 C42.3261 -125.498 41.4832 -124.275 25.0683 -121.534 C-5.27811 -116.467 -41.0769 -100 -69 -100 C-96 -100 -114 -116 -114 -140 C-114 -169 -90 -187 -54 -185 C-47 -185 -5 -163 51 -130 C123 -88 171 -16 171 50 L171 479 C171 490.591 161.591 500 150 500 L135.671 500 C134.744 500 123.634 498.728 122.734 498.508 C111.409 495.737 99.1316 492.368 86.5 489 C86.5 486 33 475 30 474 L30 470.5 C30 468.568 31.5681 467 33.5 467 L33.5 467 Z " />
<glyph glyph-name="k" unicode="k" horiz-adv-x="506" d="M22.0414 717 L30 717 C57 719 75 702 75 675 L75 22 C75 13 69 7 60 7 L22.5 7 C20.5681 7 19 5.4319 19 3.5 C19 1.5681 20.5681 0 22.5 0 L212.5 0 C214.432 0 216 1.5681 216 3.5 C216 5.4319 214.432 7 212.5 7 L175 7 C166 7 160 13 160 22 L160 139.5 C160 178.951 207.476 195.05 231.472 163.737 L324 43 C339 21 334 6 311 6 L304.5 6 C302.568 6 301 4.4319 301 2.5 C301 0.568105 302.568 -1 304.5 -1 L495.5 -1 C497.432 -1 499 0.568105 499 2.5 C499 4.32523 496.891 6.00741 495.069 6.10818 C471.576 7.4072 449.737 20.4211 427 46 L251.264 270.644 C231.266 296.208 235.074 334.144 259.755 355.221 L352 434 C395 469 447 492 484 492 L492.5 492 C494.432 492 496 493.568 496 495.5 C496 497.432 494.432 499 492.5 499 L252.5 499 C250.568 499 249 497.432 249 495.5 C249 493.568 250.568 492 252.5 492 L306 492 C366 492 360 452 290 392 L210.5 323.5 L184.75 302.75 C173.683 293.832 159 300.857 159 315.07 L159 728 C159 739.591 149.591 749 138 749 L123.671 749 C122.744 749 111.634 747.728 110.734 747.508 C99.4086 744.737 87.1316 741.368 74.5 738 C74.5 735 21 724 18 723 L18.5 720 C18.7722 718.367 20.3855 717 22.0414 717 L22.0414 717 Z " />
<glyph glyph-name="l" unicode="l" horiz-adv-x="246" d="M22.5 718 L30 718 C57 720 75 703 75 676 L75 22 C75 13 69 7 60 7 L22.5 7 C20.5681 7 19 5.4319 19 3.5 C19 1.5681 20.5681 0 22.5 0 L212.5 0 C214.432 0 216 1.5681 216 3.5 C216 5.4319 214.432 7 212.5 7 L175 7 C166 7 160 13 160 22 L160 729 C160 740.591 150.591 750 139 750 L126.051 750 C124.958 750 111.984 748.413 110.925 748.137 C82.0533 740.621 46.6923 732.385 19 725 C17.1964 724.519 19 723.367 19 721.5 C19 719.568 20.5681 718 22.5 718 L22.5 718 Z " />
<glyph glyph-name="m" unicode="m" horiz-adv-x="784" d="M23.0311 468 L30 468 C57 470 75 453 75 426 L75 22 C75 13 69 7 60 7 L22.5 7 C20.5681 7 19 5.4319 19 3.5 C19 1.5681 20.5681 0 22.5 0 L212.5 0 C214.432 0 216 1.5681 216 3.5 C216 5.4319 214.432 7 212.5 7 L175 7 C166 7 160 13 160 22 L160 373.765 C160 378.337 162.815 391.771 165.108 395.727 C183.09 426.75 224.4 447 273 447 C324 447 344 400 344 330 L344 22 C344 13 338 7 329 7 L291.5 7 C289.568 7 288 5.4319 288 3.5 C288 1.5681 289.568 0 291.5 0 L481.5 0 C483.432 0 485 1.5681 485 3.5 C485 5.4319 483.432 7 481.5 7 L444 7 C435 7 429 13 429 22 L429 330 C429 347.64 428.294 363.869 426.29 379.279 C425.825 382.86 427.062 392.57 428.889 395.684 C446.956 426.465 490.2 447 542 447 C593 447 613 400 613 330 L613 22 C613 13 607 7 598 7 L560.5 7 C558.568 7 557 5.4319 557 3.5 C557 1.5681 558.568 0 560.5 0 L750.5 0 C752.432 0 754 1.5681 754 3.5 C754 5.4319 752.432 7 750.5 7 L713 7 C704 7 698 13 698 22 L698 330 C698 438 664 510 577 510 C523.375 510 471.792 478.011 440.781 426.947 C436.185 419.379 418.209 419.331 415.447 427.743 C398.389 479.691 363.925 511 307 511 C255.85 511 206.061 478.33 175.602 426.466 C172.115 420.528 159 422.389 159 429.275 L159 480 C159 491.591 149.591 501 138 501 L125.051 501 C123.958 501 110.984 499.413 109.925 499.137 C81.8553 491.83 47.6518 483.842 20.3251 476.617 C18.1887 476.053 18.2259 474.193 18.5 472 C18.7739 469.809 20.8232 468 23.0311 468 L23.0311 468 Z " />
<glyph glyph-name="n" unicode="n" horiz-adv-x="515" d="M23.5 469 L31 469 C57 470 74 456 76 432 C76 335 75 137 75 22 C75 13 69 7 60 7 L22.5 7 C20.5681 7 19 5.4319 19 3.5 C19 1.5681 20.5681 0 22.5 0 L212.5 0 C214.432 0 216 1.5681 216 3.5 C216 5.4319 214.432 7 212.5 7 L175 7 C166 7 160 13 160 22 L160 366.988 C160 370.244 163.587 386.895 164.979 389.839 C187.378 437.198 233.05 468 283 468 C323 468 344 418 344 342 L344 22 C344 13 338 7 329 7 L291.5 7 C289.568 7 288 5.4319 288 3.5 C288 1.5681 289.568 0 291.5 0 L481.5 0 C483.432 0 485 1.5681 485 3.5 C485 5.4319 483.432 7 481.5 7 L444 7 C435 7 429 13 429 22 L429 342 C429 443 388 510 308 510 C256.025 510 206.773 477.33 176.526 426.028 C173.028 420.094 160 421.917 160 428.805 L160 478.75 C160 490.479 150.479 500 138.75 500 L124.951 500 C123.968 500 111.22 498.454 110.265 498.219 L23.3986 476.837 C21.577 476.388 20 474.376 20 472.5 C20 470.568 21.5681 469 23.5 469 L23.5 469 Z " />
<glyph glyph-name="o" unicode="o" horiz-adv-x="580" d="M139 250 C139 402 199 504 290 504 C381 504 442 402 442 250 C442 98 381 -4 290 -4 C199 -4 139 98 139 250 L139 250 Z M45 250 C45 94 143 -10 290 -10 C437 -10 535 94 535 250 C535 406 437 510 290 510 C143 510 45 406 45 250 L45 250 Z " />
<glyph glyph-name="p" unicode="p" horiz-adv-x="518" d="M8 468 L15 468 C42 470 60 453 60 426 L60 -198 C60 -207 54 -213 45 -213 L7.5 -213 C5.5681 -213 4 -214.568 4 -216.5 C4 -218.432 5.5681 -220 7.5 -220 L197.5 -220 C199.432 -220 201 -218.432 201 -216.5 C201 -214.568 199.432 -213 197.5 -213 L160 -213 C151 -213 145 -207 145 -198 L145 7.55413 C145 15.6172 154.623 19.993 161.81 16.3376 C189.042 2.48687 220 -5 253 -5 C385 -5 473 116 473 257 C473 409 394 510 276 510 C235.575 510 193.789 491.623 162.995 461.608 C157.23 455.989 145 459.051 145 467.101 L145 480 C145 491.591 135.591 501 124 501 L111.051 501 C109.958 501 96.9838 499.413 95.9254 499.137 C67.8553 491.83 33.6518 483.842 6.32514 476.617 C4.2569 476.071 4 474.139 4 472 C4 469.792 5.79212 468 8 468 L8 468 Z M145 140.271 L145 388.397 C145 395.591 151.414 416.356 155.844 422.023 C181.875 455.328 212.5 476 237 476 C322 476 379 378 379 231 C379 115 331 17 258 17 C213.35 17 170.505 58.515 148.327 120.968 C147.673 122.81 145 138.316 145 140.271 L145 140.271 Z " />
<glyph glyph-name="q" unicode="q" horiz-adv-x="509" d="M500.5 -213 L463 -213 C454 -213 448 -207 448 -198 L448 500 L443 500 L426.614 465.215 C421.221 453.768 403.295 452.584 393.797 460.944 C358.557 491.963 311.15 510 260 510 C109 510 31 406 31 251 C31 114 116 22 243 22 C266.925 22 303.101 34.2512 339.737 54.2616 C349.995 59.8647 363 53.612 363 41.9232 L363 -198 C363 -207 357 -213 348 -213 L310.5 -213 C308.568 -213 307 -214.568 307 -216.5 C307 -218.432 308.568 -220 310.5 -220 L500.5 -220 C502.432 -220 504 -218.432 504 -216.5 C504 -214.568 502.432 -213 500.5 -213 L500.5 -213 Z M256 491 C296.85 491 336.798 454.9 360.41 398.99 C361.449 396.529 364 381.474 364 378.802 L364 125.459 C364 111.21 352.205 90.296 339.79 83.3035 C301.843 61.9319 265.275 49 243 49 C169 49 120 139 120 275 C120 405 166.5 491 256.5 491 L256 491 Z " />
<glyph glyph-name="r" unicode="r" horiz-adv-x="371" d="M24 468 L31 468 C58 470 76 453 76 426 L76 22 C76 13 70 7 61 7 L23.5 7 C21.5681 7 20 5.4319 20 3.5 C20 1.5681 21.5681 0 23.5 0 L213.5 0 C215.432 0 217 1.5681 217 3.5 C217 5.4319 215.432 7 213.5 7 L176 7 C167 7 161 13 161 22 L161 390.772 C161 392.434 162.42 403.898 162.934 405.478 C176.022 445.73 204.95 471 242 471 C253 471 261 457 261 436 C261 406 281 386 311 386 C341 386 361 406 361 436 C361 481 329 511 282 511 C232.5 511 192.529 484.456 171.632 440.913 C169.904 437.312 161 438.415 161 442.409 L161 480 C161 491.591 151.591 501 140 501 L127.051 501 C125.958 501 112.984 499.413 111.925 499.137 C83.8553 491.83 49.6518 483.842 22.3251 476.617 C20.2569 476.071 20 474.139 20 472 C20 469.792 21.7921 468 24 468 L24 468 Z " />
<glyph glyph-name="s" unicode="s" horiz-adv-x="395" d="M320 355.5 L320 497.5 C320 499.432 318.432 501 316.5 501 L313 501 C312 497 312 492 311 488 C310.03 478.303 288.374 479.89 256.972 491.849 C256.855 491.893 252.037 493.966 251.924 494.02 C232.483 503.407 211.241 509 190 509 C111 509 58 457 58 379 C58 301 99 238 179 217 C245 199 279 156 279 105 C279 14 213 -38 148 14 C110.95 44.225 82.4556 99.1663 69.0049 162.14 C68.5598 164.224 66.1306 167 64 167 C61.7921 167 60 165.208 60 163 L60 10.5 C60 8.5681 61.5681 7 63.5 7 L64.4505 7 C65.9107 7 67.1551 7.69899 67.3732 9.14286 C68.0204 13.4286 68.1429 17.7143 69 22 C71 37 96 31 132 9 C153 -4 176 -11 198 -11 C286 -11 345 45 345 129 C345 200 301 258 217 281 C152 298 119 348 119 408 C119 474 159 522 216 501 C258.9 484.425 295.146 425.072 309.907 356.308 C310.408 353.973 313.113 351 315.5 351 C317.984 351 320 353.016 320 355.5 L320 355.5 Z " />
<glyph glyph-name="t" unicode="t" horiz-adv-x="358" d="M289.5 500 L236 500 C202.882 500 176 526.882 176 560 L176 617 C176 618.656 174.656 620 173 620 C171.79 620 168.777 618.692 167.951 617.809 L29.415 469.652 C28.1276 468.275 26 462.885 26 461 C26 458.24 28.2402 456 31 456 L58.5 456 C76.439 456 91 441.439 91 423.5 L91 160 C91 38 143 -10 220 -10 C272.65 -10 322.448 29.9262 346.223 91.2416 C347.42 94.3286 345.612 96.8685 342.5 98 C339.636 99.0414 335.774 96.6136 334.587 93.8067 C318.295 55.27 283.05 30 246 30 C203 30 174 61 174 141 L175.611 393.951 C175.826 427.648 203.353 455 237.05 455 L289.5 455 C301.919 455 312 465.081 312 477.5 C312 489.919 301.919 500 289.5 500 L289.5 500 Z " />
<glyph glyph-name="u" unicode="u" horiz-adv-x="492" d="M473.065 34.7702 L461 31 C431 23 411 38 411 68 L411 438.56 C411 472.473 383.473 500 349.56 500 L273.5 500 C271.568 500 270 498.432 270 496.5 C270 494.568 271.568 493 273.5 493 L311 493 C320 493 326 487 326 478 L326 142.16 C326 138.319 322.578 121.674 320.803 118.268 C298.444 75.38 264.15 48 229 48 C186 48 157 90 157 154 L157 437.56 C157 471.473 129.473 499 95.56 499 L19.5 499 C17.5681 499 16 497.432 16 495.5 C16 493.568 17.5681 492 19.5 492 L57 492 C66 492 72 486 72 477 L72 154 C72 55 119 -11 189 -11 C231.075 -11 275.192 25.0731 308.436 83.1815 C312.964 91.0971 328 88.1963 328 79.0768 L328 20.0015 C328 8.41012 337.409 -1.11202 349 -1.25 L361.4 -1.39762 C362.695 -1.41304 376.534 0.279278 377.784 0.619026 C408.674 9.01457 446.378 19.1138 476.442 27.3028 C478.638 27.901 478.552 29.7919 478 32 C477.449 34.2042 475.233 35.4479 473.065 34.7702 L473.065 34.7702 Z " />
<glyph glyph-name="v" unicode="v" horiz-adv-x="495" d="M206 500 L10.5 500 C8.5681 500 7 498.432 7 496.5 C7 494.61 7.71513 493.013 9.60439 492.972 C43.1937 492.238 66.35 477.15 80 444 L228.031 1.85331 C230.109 -4.35088 237.957 -10 244.5 -10 C251.081 -10 258.779 -4.35431 260.757 1.92215 L400.01 443.857 C400.096 444.131 401.946 449.104 402.067 449.364 C415.796 478.866 437.692 491.354 469.471 491.976 C471.364 492.013 472 493.606 472 495.5 C472 497.432 470.432 499 468.5 499 L326.5 499 C324.568 499 323 497.432 323 495.5 C323 493.568 324.568 492 326.5 492 L331 492 C359 492 371 470 361 437 L289.554 188.601 C285.03 172.871 262.765 174.965 257.594 190.495 C230.131 272.969 202.225 355.325 175 437 C164 470 175 492 202 492 L206 492 C208.208 492 210 493.792 210 496 C210 498.208 208.208 500 206 500 L206 500 Z " />
<glyph glyph-name="w" unicode="w" horiz-adv-x="764" d="M737.838 500 L594.5 500 C592.568 500 591 498.432 591 496.5 C591 494.568 592.568 493 594.5 493 L599 493 C626 493 637 471 627 438 L579 286.5 C563.296 236.934 496.592 236.24 479.86 285.469 L427 441 C416.275 477.075 430.266 493.187 460.632 493.97 C462.513 494.018 463 495.618 463 497.5 C463 499.432 461.432 501 459.5 501 L261.5 501 C259.568 501 258 499.432 258 497.5 C258 495.614 258.798 494.013 260.683 493.968 C295.341 493.137 321.325 476.05 334 439 L357.566 369.873 C359.651 363.756 360.029 338.122 358.125 331.945 L256.683 2.94508 C254.74 -3.35554 258.907 -9 265.5 -9 C272.05 -9 279.871 -3.35148 281.93 2.86615 L329.5 146.5 C346.6 198.131 416.001 198.331 433.399 146.8 L482.001 2.84322 C484.093 -3.35041 491.963 -9 498.5 -9 C505.018 -9 512.962 -3.34887 515.1 2.80864 L668.949 445.973 C669.04 446.234 671.019 451.118 671.142 451.364 C685.82 480.866 708.643 493.354 740.469 493.976 C742.101 494.007 742.516 495.451 742 497 C741.476 498.571 739.494 500 737.838 500 L737.838 500 Z M226.464 501 L28.5 501 C26.5681 501 25 499.432 25 497.5 C25 495.614 25.798 494.013 27.683 493.968 C62.3412 493.137 88.325 476.05 101 439 L230.168 63.2399 C238.244 39.7457 270.182 40.2586 277.5 64 L294.099 117.854 C296.019 124.084 295.602 149.78 293.48 155.945 L194 445 C185.231 479.103 198.297 493.268 228.574 493.972 C230.466 494.016 230.768 495.626 230.5 497.5 C230.227 499.412 228.396 501 226.464 501 L226.464 501 Z " />
<glyph glyph-name="x" unicode="x" horiz-adv-x="517" d="M291 0 L495.5 0 C497.432 0 499 1.5681 499 3.5 C499 5.39038 498.428 6.98567 496.538 7.0263 C465.52 7.69308 440.797 21.0625 421.511 49.7068 C421.395 49.8794 418.797 54.3009 418.701 54.4853 L311.011 260.463 C302.742 276.279 304.584 308.62 314.597 323.395 L397 445 C421.375 477.175 449.552 492.239 482.459 492.972 C484.348 493.014 485 494.611 485 496.5 C485 498.432 483.432 500 481.5 500 L342.5 500 C340.568 500 339 498.432 339 496.5 C339 494.568 340.568 493 342.5 493 L347 493 C371 493 377 474 361 445 L318.956 374.927 C302.044 346.74 265.919 347.838 250.75 377 L218.5 439 C201.5 472 208 494 234 494 L238.5 494 C240.432 494 242 495.568 242 497.5 C242 499.432 240.432 501 238.5 501 L33.5 501 C31.5681 501 30 499.432 30 497.5 C30 495.61 30.572 494.014 32.4619 493.974 C63.48 493.307 88.2031 479.937 107.489 451.293 C107.605 451.121 110.202 446.701 110.298 446.517 L206.233 263.064 C214.326 247.586 212.701 215.371 203.09 200.786 L109 58 C84.625 24.85 56.4475 8.81125 22.6138 8.03003 C20.727 7.98647 20 6.3873 20 4.5 C20 2.5681 21.5681 1 23.5 1 L162.5 1 C164.432 1 166 2.5681 166 4.5 C166 6.4319 164.432 8 162.5 8 L158 8 C132 8 127 30 146 63 L189.897 139.564 C209.486 173.732 252.988 172.896 271.25 138 L310.5 63 C327.5 30 321 8 295 8 L291 8 C288.792 8 287 6.20788 287 4 C287 1.79212 288.792 0 291 0 L291 0 Z " />
<glyph glyph-name="y" unicode="y" horiz-adv-x="515" d="M495.36 500 L354.5 500 C352.568 500 351 498.432 351 496.5 C351 494.612 351.527 493.016 353.414 492.973 C382.774 492.302 396.789 479.132 389 447 L336.66 287.947 C319.859 236.892 251.245 236.593 234 287.5 L182 441 C171.275 477.075 185.266 493.187 215.632 493.97 C217.513 494.018 218 495.618 218 497.5 C218 499.432 216.432 501 214.5 501 L18.5 501 C16.5681 501 15 499.432 15 497.5 C15 495.614 15.798 494.013 17.683 493.968 C52.3413 493.137 78.325 476.05 91 439 L231.667 24.6026 C234.245 17.0092 234.148 -9.08254 231.213 -16.5449 C213.234 -62.25 196.5 -108.625 179 -155 C170 -178 156 -193 152 -193 C130 -193 125 -164 102 -164 C75 -164 57 -182 57 -209 C57 -239 77 -259 107 -259 C133 -259 179 -222 200 -166 L260 -9 C315 143 371 294 427 445 C441.625 477.175 465.756 492.239 498.467 492.972 C500.366 493.014 500.522 494.674 500 496.5 C499.469 498.358 497.292 500 495.36 500 L495.36 500 Z " />
<glyph glyph-name="z" unicode="z" horiz-adv-x="442" d="M69.9029 518.926 C67.45 509.721 64.55 498.279 62.0971 489.074 C61.4055 486.478 63.3171 484.884 66 484.75 C66.2753 484.736 66.2753 484.264 66 484.25 C63.3738 484.119 61.6611 486.463 60.9795 483.923 C60.4599 481.988 50.1257 443.501 34.2637 385.61 C33.2791 382.017 36.2743 381 40 381 C43.3547 381 48.8086 384.165 50.473 387.078 L55 395 C76.45 435.95 117.863 465.493 163.483 472.505 C163.736 472.544 169.736 473.081 169.992 473.089 L234.5 475 C266.26 475.941 284.216 445.98 268.413 418.415 L44.9737 28.6754 C43.6082 26.2937 40 12.7453 40 10 C40 4.4803 44.4803 0 50 0 L130 0 C213.85 -0.975 300.552 0.901875 382.691 -0.857391 C385.745 -0.922805 388.238 -3.82123 389.035 -0.87207 C389.379 0.402344 392.25 11.125 396 28 C401.55 49.275 407.1 79.1063 410.276 111.162 C410.66 115.04 407.896 119 404 119 C400.361 119 395.869 115.835 394.646 112.408 L392 105 C375 60 331 28 280 27 L211 25 C178.423 24.0558 159.966 54.7015 176.035 83.0549 L396.069 471.3 C397.411 473.668 401 487.278 401 490 C401 495.52 396.52 500 391 500 L108 500 C89 500 82.2789 506.549 81.171 518.906 C80.9466 521.409 78.5134 523 76 523 C73.317 523 70.5937 521.519 69.9029 518.926 L69.9029 518.926 Z " />
<glyph glyph-name="braceleft" unicode="&#x7b;" horiz-adv-x="226" d="M202.984 750 L181 750 C109 750 61 707 61 643 L61 383 C61 345.05 49.4294 320.032 29.0957 312.438 C29.0957 312.438 29.1358 311.867 29.1358 311.867 L29.0556 307.868 C29.0556 307.868 29.0957 307.297 29.0957 307.297 C49.4294 298.887 61 271.25 61 230 L61 -23 C61 -87 109 -130 181 -130 L202.997 -129.175 C203.782 -129.146 203.785 -127.783 203 -127.75 L185 -127 C150 -127 127 -85 127 -23 L127 182 C127 245.525 98.4138 291.354 53.5946 305.448 C53.5946 305.448 53.6134 311.865 53.6134 311.865 L53.5758 307.865 C53.5758 307.865 53.5946 314.281 53.5946 314.281 C98.4137 327.535 127 370.6 127 430 L127 643 C127 705 150 747 185 747 L203 747.75 C203.414 747.767 203.398 750 202.984 750 L202.984 750 Z " />
<glyph glyph-name="bar" unicode="&#x7c;" horiz-adv-x="186" d="M60 767 L60 -217 C60 -235.215 74.785 -250 93 -250 C111.215 -250 126 -235.215 126 -217 L126 767 C126 785.215 111.215 800 93 800 C74.785 800 60 785.215 60 767 L60 767 Z " />
<glyph glyph-name="braceright" unicode="&#x7d;" horiz-adv-x="226" d="M23 747.75 L41 747 C76 747 99 705 99 643 L99 430 C99 370.6 127.586 327.535 172.405 314.281 C172.405 314.281 172.424 307.865 172.424 307.865 L172.387 311.865 C172.387 311.865 172.405 305.448 172.405 305.448 C127.586 291.354 99 245.525 99 182 L99 -23 C99 -85 76 -127 41 -127 L23 -127.75 C22.2147 -127.783 22.2175 -129.146 23.003 -129.175 L45 -130 C117 -130 165 -87 165 -23 L165 230 C165 271.25 176.571 298.887 196.904 307.297 C196.904 307.297 196.944 307.868 196.944 307.868 L196.864 311.867 C196.864 311.867 196.904 312.438 196.904 312.438 C176.571 320.032 165 345.05 165 383 L165 643 C165 707 117 750 45 750 L23.0156 750 C22.6016 750 22.5864 747.767 23 747.75 L23 747.75 Z " />
<glyph glyph-name="asciitilde" unicode="&#x7e;" horiz-adv-x="298" d="M27.1431 327.406 L31.1201 326.977 C31.1201 326.977 30.3877 328.598 30.3877 328.598 C34.4294 354.028 47.0526 370 65 370 C108 370 166 305 209 305 C244.15 305 267.321 346.07 270.599 409.215 C270.599 409.215 271.946 407.762 271.946 407.762 L267.983 408.298 C267.983 408.298 269.33 406.845 269.33 406.845 C264.345 381.158 248.692 365 229 365 C186 365 128 430 85 430 C52.625 430 30.9453 388.93 27.8755 325.785 C27.8755 325.785 27.1431 327.406 27.1431 327.406 L31.1201 326.977 C31.1201 326.977 30.3877 328.598 30.3877 328.598 L27.1431 327.406 Z " />
<glyph glyph-name="exclamdown" unicode="&#xa1;" horiz-adv-x="244" d="M122 505 C86 505 62 481 62 445 C62 409 86 385 122 385 C158 385 182 409 182 445 C182 481 158 505 122 505 L122 505 Z M122 -255 C163 -255 180 -213 174 -150 C174 -150 132.173 142.792 130.081 279.778 C130.015 284.125 126.348 290 122 290 C117.652 290 113.985 284.125 113.919 279.778 C111.827 142.792 70 -150 70 -150 C64 -213 81 -255 122 -255 L122 -255 Z " />
<glyph glyph-name="cent" unicode="&#xa2;" horiz-adv-x="462" d="M251 560 L251 541.5 C251 526.319 229.492 505.122 214.857 501.086 C110.61 472.34 45 372.8 45 236 C45 108.2 110.61 17.66 214.857 -4.273 C229.6 -7.37483 251 -26.4343 251 -41.5 L251 -59 C251 -67.2796 257.72 -74 266 -74 C274.28 -74 281 -67.2796 281 -59 L281 -37.2746 C281 -25.1463 295.609 -5.60092 306.989 -1.40637 C347.121 13.3864 385.319 48.7836 413.691 96.8964 C413.732 96.9649 411.73 95.0069 411.686 94.9405 C384.453 53.4815 346.331 24.1081 307.161 13.8936 C288.409 9.00383 281 19.6388 281 39.0172 L281 496.986 C281 503.889 281.996 507.055 288.102 503.834 C305.438 494.688 327.75 457.5 347 405 C356 380 373 363 390 363 C424 363 441 380 432 405 C412.45 458.55 366.168 496.928 310.962 507.236 C296.565 509.924 281 527.854 281 542.5 L281 560 C281 568.28 274.28 575 266 575 C257.72 575 251 568.28 251 560 L251 560 Z M220.422 28.2076 C166.235 64.645 133 154.15 133 274 C133 379.4 166.235 458.068 220.422 490.35 C241.193 502.725 251 490.069 251 465.892 L251 51.3631 C251 26.9406 240.689 14.5797 220.422 28.2076 L220.422 28.2076 Z " />
<glyph glyph-name="acute" unicode="&#xb4;" horiz-adv-x="298" d="M162.941 567.02 L299 682 C337 715 363 740 363 746 C363 769 344 788 321 788 C315 788 292 761 260 721 L150.746 579.162 C148.148 575.789 148.489 570.511 151.5 567.5 C154.525 564.475 159.673 564.259 162.941 567.02 L162.941 567.02 Z " />
<glyph glyph-name="questiondown" unicode="&#xbf;" horiz-adv-x="299" d="M174 505 C138 505 114 481 114 445 C114 409 138 385 174 385 C210 385 234 409 234 445 C234 481 210 505 174 505 L174 505 Z M174 282.5 L174 186.5 C174 164.731 151.877 140.278 130.361 136.973 C69.4194 127.61 42.05 97.25 14 56 C-4 29 -16 -15 -16 -55 C-16 -178 52 -260 154 -260 C202 -260 234 -235 234 -197 C234 -172 216 -155 188 -155 C168 -155 142 -170 123 -170 C55 -170 10 -120 10 -45 C10 -29 19 -5 33 15 C51 42 77 60 202 60 C202.557 60 200.991 61.5429 200.823 62.0736 C193.512 85.1325 189 290 189 290 C189 290 185.732 290 181.5 290 C177.36 290 174 286.64 174 282.5 L174 282.5 Z M202 60 L202 60 L202 60 L202 60 Z " />
<glyph glyph-name="Agrave" unicode="&#xc0;" horiz-adv-x="714" d="M401.528 0 L706.5 0 C708.984 0 711 2.01613 711 4.5 C711 6.98386 708.984 9 706.5 9 L699 9 C655 9 614 49 596 109 C531 329 467 550 401 770 C400.24 772.532 398.643 770 396 770 C393.783 770 391.433 767.094 391.333 764.88 C390.419 744.635 362.876 727.429 319.639 720.549 C316.864 720.108 316.692 717.692 317.5 715 C317.936 713.547 315.243 696.078 314.848 694.613 C262.281 499.693 210.615 303.872 158 109 C142 49 91 9 31 9 L9.5 9 C7.01614 9 5 6.98386 5 4.5 C5 2.01613 7.01614 0 9.5 0 L257.5 0 C259.984 0 262 2.01613 262 4.5 C262 6.98386 259.984 9 257.5 9 L238 9 C178 9 149 49 165 109 L201.893 248.291 C208.353 272.68 236.055 294 261.285 294 L392.787 294 C417.294 294 445.02 273.146 451.817 249.6 L495 100 C507 45 478 9 421 9 L402.528 9 C400.044 9 397.774 6.96867 397.5 4.5 C397.226 2.03133 399.044 0 401.528 0 L401.528 0 Z M163 996 C163 988 189 964 227 932 L363.059 817.02 C366.327 814.259 371.475 814.475 374.5 817.5 C377.511 820.511 377.852 825.789 375.254 829.162 L266 971 C236 1011 213 1038 205 1038 C182 1038 163 1019 163 996 L163 996 Z M236.212 376.033 L269 501 C283.945 557.961 363.382 558.875 379.634 502.273 L415.49 377.396 C427.432 335.804 399.709 299 356.436 299 L295.64 299 C253.12 299 225.421 334.905 236.212 376.033 L236.212 376.033 Z " />
<glyph glyph-name="Aacute" unicode="&#xc1;" horiz-adv-x="714" d="M379.941 817.02 L516 932 C554 965 580 990 580 996 C580 1019 561 1038 538 1038 C532 1038 509 1011 477 971 L367.746 829.162 C365.148 825.789 365.489 820.511 368.5 817.5 C371.525 814.475 376.673 814.259 379.941 817.02 L379.941 817.02 Z M401.528 0 L706.5 0 C708.984 0 711 2.01613 711 4.5 C711 6.98386 708.984 9 706.5 9 L699 9 C655 9 614 49 596 109 C531 329 467 550 401 770 C400.24 772.532 398.643 770 396 770 C393.783 770 391.433 767.094 391.333 764.88 C390.419 744.635 362.876 727.429 319.639 720.549 C316.864 720.108 316.692 717.692 317.5 715 C317.936 713.547 315.243 696.078 314.848 694.613 C262.281 499.693 210.615 303.872 158 109 C142 49 91 9 31 9 L9.5 9 C7.01614 9 5 6.98386 5 4.5 C5 2.01613 7.01614 0 9.5 0 L257.5 0 C259.984 0 262 2.01613 262 4.5 C262 6.98386 259.984 9 257.5 9 L238 9 C178 9 149 49 165 109 L201.893 248.291 C208.353 272.68 236.055 294 261.285 294 L392.787 294 C417.294 294 445.02 273.146 451.817 249.6 L495 100 C507 45 478 9 421 9 L402.528 9 C400.044 9 397.774 6.96867 397.5 4.5 C397.226 2.03133 399.044 0 401.528 0 L401.528 0 Z M236.212 376.033 L269 501 C283.945 557.961 363.382 558.875 379.634 502.273 L415.49 377.396 C427.432 335.804 399.709 299 356.436 299 L295.64 299 C253.12 299 225.421 334.905 236.212 376.033 L236.212 376.033 Z " />
<glyph glyph-name="Acircumflex" unicode="&#xc2;" horiz-adv-x="714" d="M401.528 0 L706.5 0 C708.984 0 711 2.01613 711 4.5 C711 6.98386 708.984 9 706.5 9 L699 9 C655 9 614 49 596 109 C531 329 467 550 401 770 C400.24 772.532 398.643 770 396 770 C393.783 770 391.433 767.094 391.333 764.88 C390.419 744.635 362.876 727.429 319.639 720.549 C316.864 720.108 316.692 717.692 317.5 715 C317.936 713.547 315.243 696.078 314.848 694.613 C262.281 499.693 210.615 303.872 158 109 C142 49 91 9 31 9 L9.5 9 C7.01614 9 5 6.98386 5 4.5 C5 2.01613 7.01614 0 9.5 0 L257.5 0 C259.984 0 262 2.01613 262 4.5 C262 6.98386 259.984 9 257.5 9 L238 9 C178 9 149 49 165 109 L201.893 248.291 C208.353 272.68 236.055 294 261.285 294 L392.787 294 C417.294 294 445.02 273.146 451.817 249.6 L495 100 C507 45 478 9 421 9 L402.528 9 C400.044 9 397.774 6.96867 397.5 4.5 C397.226 2.03133 399.044 0 401.528 0 L401.528 0 Z M397 1005 C391 1014 377 1035 367 1035 C357 1035 343 1014 337 1005 L219.236 822.562 C216.915 818.967 217.713 813.739 221 811 C224.297 808.252 229.497 808.479 232.542 811.503 L323.711 902.021 C347.605 925.743 386.395 925.743 410.289 902.021 L501.458 811.503 C504.503 808.479 509.703 808.252 513 811 C516.287 813.739 517.085 818.967 514.764 822.562 L397 1005 L397 1005 Z M236.212 376.033 L269 501 C283.945 557.961 363.382 558.875 379.634 502.273 L415.49 377.396 C427.432 335.804 399.709 299 356.436 299 L295.64 299 C253.12 299 225.421 334.905 236.212 376.033 L236.212 376.033 Z " />
<glyph glyph-name="Atilde" unicode="&#xc3;" horiz-adv-x="714" d="M244.135 887.404 L248.112 886.979 C248.112 886.979 247.388 888.598 247.388 888.598 C251.429 914.028 264.053 930 282 930 C325 930 383 865 426 865 C461.15 865 483.893 906.07 487.107 969.215 C487.107 969.215 488.473 967.768 488.473 967.768 L484.507 968.292 C484.507 968.292 485.872 966.845 485.872 966.845 C481.009 941.158 465.692 925 446 925 C403 925 345 990 301 990 C268.625 990 247.801 948.93 244.859 885.785 C244.859 885.785 244.135 887.404 244.135 887.404 L248.112 886.979 C248.112 886.979 247.388 888.598 247.388 888.598 L244.135 887.404 Z M401.528 0 L706.5 0 C708.984 0 711 2.01613 711 4.5 C711 6.98386 708.984 9 706.5 9 L699 9 C655 9 614 49 596 109 C531 329 467 550 401 770 C400.24 772.532 398.643 770 396 770 C393.783 770 391.433 767.094 391.333 764.88 C390.419 744.635 362.876 727.429 319.639 720.549 C316.864 720.108 316.692 717.692 317.5 715 C317.936 713.547 315.243 696.078 314.848 694.613 C262.281 499.693 210.615 303.872 158 109 C142 49 91 9 31 9 L9.5 9 C7.01614 9 5 6.98386 5 4.5 C5 2.01613 7.01614 0 9.5 0 L257.5 0 C259.984 0 262 2.01613 262 4.5 C262 6.98386 259.984 9 257.5 9 L238 9 C178 9 149 49 165 109 L201.893 248.291 C208.353 272.68 236.055 294 261.285 294 L392.787 294 C417.294 294 445.02 273.146 451.817 249.6 L495 100 C507 45 478 9 421 9 L402.528 9 C400.044 9 397.774 6.96867 397.5 4.5 C397.226 2.03133 399.044 0 401.528 0 L401.528 0 Z M236.212 376.033 L269 501 C283.945 557.961 363.382 558.875 379.634 502.273 L415.49 377.396 C427.432 335.804 399.709 299 356.436 299 L295.64 299 C253.12 299 225.421 334.905 236.212 376.033 L236.212 376.033 Z " />
<glyph glyph-name="Adieresis" unicode="&#xc4;" horiz-adv-x="714" d="M439 865 C472 865 494 887 494 920 C494 953 472 975 439 975 C406 975 384 953 384 920 C384 887 406 865 439 865 L439 865 Z M293 865 C326 865 348 887 348 920 C348 953 326 975 293 975 C260 975 238 953 238 920 C238 887 260 865 293 865 L293 865 Z M401.528 0 L706.5 0 C708.984 0 711 2.01613 711 4.5 C711 6.98386 708.984 9 706.5 9 L699 9 C655 9 614 49 596 109 C531 329 467 550 401 770 C400.24 772.532 398.643 770 396 770 C393.783 770 391.433 767.094 391.333 764.88 C390.419 744.635 362.876 727.429 319.639 720.549 C316.864 720.108 316.692 717.692 317.5 715 C317.936 713.547 315.243 696.078 314.848 694.613 C262.281 499.693 210.615 303.872 158 109 C142 49 91 9 31 9 L9.5 9 C7.01614 9 5 6.98386 5 4.5 C5 2.01613 7.01614 0 9.5 0 L257.5 0 C259.984 0 262 2.01613 262 4.5 C262 6.98386 259.984 9 257.5 9 L238 9 C178 9 149 49 165 109 L201.893 248.291 C208.353 272.68 236.055 294 261.285 294 L392.787 294 C417.294 294 445.02 273.146 451.817 249.6 L495 100 C507 45 478 9 421 9 L402.528 9 C400.044 9 397.774 6.96867 397.5 4.5 C397.226 2.03133 399.044 0 401.528 0 L401.528 0 Z M236.212 376.033 L269 501 C283.945 557.961 363.382 558.875 379.634 502.273 L415.49 377.396 C427.432 335.804 399.709 299 356.436 299 L295.64 299 C253.12 299 225.421 334.905 236.212 376.033 L236.212 376.033 Z " />
<glyph glyph-name="Aring" unicode="&#xc5;" horiz-adv-x="714" d="M294 905 C294 950 323 980 366 980 C410 980 439 950 439 905 C439 865 405 830 366 830 C327 830 294 865 294 905 L294 905 Z M269 905 C269 854 314 810 366 810 C419 810 464 854 464 905 C464 962 425 1000 366 1000 C308 1000 269 962 269 905 L269 905 Z M401.528 0 L706.5 0 C708.984 0 711 2.01613 711 4.5 C711 6.98386 708.984 9 706.5 9 L699 9 C655 9 614 49 596 109 C531 329 467 550 401 770 C400.24 772.532 398.643 770 396 770 C393.783 770 391.433 767.094 391.333 764.88 C390.419 744.635 362.876 727.429 319.639 720.549 C316.864 720.108 316.692 717.692 317.5 715 C317.936 713.547 315.243 696.078 314.848 694.613 C262.281 499.693 210.615 303.872 158 109 C142 49 91 9 31 9 L9.5 9 C7.01614 9 5 6.98386 5 4.5 C5 2.01613 7.01614 0 9.5 0 L257.5 0 C259.984 0 262 2.01613 262 4.5 C262 6.98386 259.984 9 257.5 9 L238 9 C178 9 149 49 165 109 L201.893 248.291 C208.353 272.68 236.055 294 261.285 294 L392.787 294 C417.294 294 445.02 273.146 451.817 249.6 L495 100 C507 45 478 9 421 9 L402.528 9 C400.044 9 397.774 6.96867 397.5 4.5 C397.226 2.03133 399.044 0 401.528 0 L401.528 0 Z M236.212 376.033 L269 501 C283.945 557.961 363.382 558.875 379.634 502.273 L415.49 377.396 C427.432 335.804 399.709 299 356.436 299 L295.64 299 C253.12 299 225.421 334.905 236.212 376.033 L236.212 376.033 Z " />
<glyph glyph-name="Egrave" unicode="&#xc8;" horiz-adv-x="606" d="M121 996 C121 988 147 964 185 932 L321.323 816.798 C324.454 814.151 329.242 814.466 332 817.5 C334.715 820.486 334.938 825.7 332.489 828.908 L224 971 C194 1011 171 1038 163 1038 C140 1038 121 1019 121 996 L121 996 Z M453 265 L453 510 C453 513.312 450.312 516 447 516 C443.737 516 440.531 513.303 439.972 510.089 L433 470 C425 422 389 390 341 390 L288.5 390 C259.522 390 236 413.522 236 442.5 L236 683.56 C236 717.473 263.527 745 297.44 745 L402 745 C450 745 490 713 504 665 L515.368 624.774 C516.235 621.707 519.813 619 523 619 C526.312 619 528.713 621.807 528.356 625.099 C524.775 658.137 518.927 699.029 514.958 733.414 C513.741 743.953 504.257 749.019 493.648 749.041 L43.5 749.993 C41.5681 749.997 40 748.432 40 746.5 C40 744.568 41.5681 743 43.5 743 L66 743 C108 743 136 715 136 673 L136 77 C136 35 108 7 66 7 L43.5 7 C41.5681 7 40 5.4319 40 3.5 C40 1.56811 41.5681 0.00314881 43.5 0.0070281 L519.663 0.963179 C529.703 0.983339 539.379 8.057 541.207 17.929 C546.993 49.177 553.131 85.801 558.085 115.513 C558.623 118.735 556.267 121 553 121 C549.877 121 546.042 118.287 545.003 115.342 L541 104 C521 45 465 5 402 5 L287 5 C241 5 236 23 236 51 L236 332.5 C236 361.478 259.522 385 288.5 385 L341 385 C389 385 425 353 433 305 L439.972 264.911 C440.531 261.697 443.737 259 447 259 C450.312 259 453 261.688 453 265 L453 265 Z " />
<glyph glyph-name="Eacute" unicode="&#xc9;" horiz-adv-x="606" d="M337.677 816.798 L474 932 C512 965 538 990 538 996 C538 1019 519 1038 496 1038 C490 1038 466 1011 435 971 L326.511 828.908 C324.062 825.7 324.285 820.486 327 817.5 C329.758 814.466 334.546 814.151 337.677 816.798 L337.677 816.798 Z M453 265 L453 510 C453 513.312 450.312 516 447 516 C443.737 516 440.531 513.303 439.972 510.089 L433 470 C425 422 389 390 341 390 L288.5 390 C259.522 390 236 413.522 236 442.5 L236 683.56 C236 717.473 263.527 745 297.44 745 L402 745 C450 745 490 713 504 665 L515.368 624.774 C516.235 621.707 519.813 619 523 619 C526.312 619 528.713 621.807 528.356 625.099 C524.775 658.137 518.927 699.029 514.958 733.414 C513.741 743.953 504.257 749.019 493.648 749.041 L43.5 749.993 C41.5681 749.997 40 748.432 40 746.5 C40 744.568 41.5681 743 43.5 743 L66 743 C108 743 136 715 136 673 L136 77 C136 35 108 7 66 7 L43.5 7 C41.5681 7 40 5.4319 40 3.5 C40 1.56811 41.5681 0.00314881 43.5 0.0070281 L519.663 0.963179 C529.703 0.983339 539.379 8.057 541.207 17.929 C546.993 49.177 553.131 85.801 558.085 115.513 C558.623 118.735 556.267 121 553 121 C549.877 121 546.042 118.287 545.003 115.342 L541 104 C521 45 465 5 402 5 L287 5 C241 5 236 23 236 51 L236 332.5 C236 361.478 259.522 385 288.5 385 L341 385 C389 385 425 353 433 305 L439.972 264.911 C440.531 261.697 443.737 259 447 259 C450.312 259 453 261.688 453 265 L453 265 Z " />
<glyph glyph-name="Ecircumflex" unicode="&#xca;" horiz-adv-x="606" d="M355 1005 C349 1014 335 1035 325 1035 C315 1035 301 1014 295 1005 L177.031 822.245 C174.836 818.845 175.505 813.723 178.5 811 C181.532 808.244 186.367 808.35 189.275 811.237 L280.865 902.173 C304.673 925.811 343.395 925.88 367.287 902.327 L459.707 811.218 C462.624 808.342 467.469 808.244 470.5 811 C473.493 813.721 474.173 818.854 471.992 822.26 L355 1005 L355 1005 Z M453 265 L453 510 C453 513.312 450.312 516 447 516 C443.737 516 440.531 513.303 439.972 510.089 L433 470 C425 422 389 390 341 390 L288.5 390 C259.522 390 236 413.522 236 442.5 L236 683.56 C236 717.473 263.527 745 297.44 745 L402 745 C450 745 490 713 504 665 L515.368 624.774 C516.235 621.707 519.813 619 523 619 C526.312 619 528.713 621.807 528.356 625.099 C524.775 658.137 518.927 699.029 514.958 733.414 C513.741 743.953 504.257 749.019 493.648 749.041 L43.5 749.993 C41.5681 749.997 40 748.432 40 746.5 C40 744.568 41.5681 743 43.5 743 L66 743 C108 743 136 715 136 673 L136 77 C136 35 108 7 66 7 L43.5 7 C41.5681 7 40 5.4319 40 3.5 C40 1.56811 41.5681 0.00314881 43.5 0.0070281 L519.663 0.963179 C529.703 0.983339 539.379 8.057 541.207 17.929 C546.993 49.177 553.131 85.801 558.085 115.513 C558.623 118.735 556.267 121 553 121 C549.877 121 546.042 118.287 545.003 115.342 L541 104 C521 45 465 5 402 5 L287 5 C241 5 236 23 236 51 L236 332.5 C236 361.478 259.522 385 288.5 385 L341 385 C389 385 425 353 433 305 L439.972 264.911 C440.531 261.697 443.737 259 447 259 C450.312 259 453 261.688 453 265 L453 265 Z " />
<glyph glyph-name="Edieresis" unicode="&#xcb;" horiz-adv-x="606" d="M397 865 C430 865 452 887 452 920 C452 953 430 975 397 975 C364 975 342 953 342 920 C342 887 364 865 397 865 L397 865 Z M252 865 C285 865 307 887 307 920 C307 953 285 975 252 975 C219 975 197 953 197 920 C197 887 219 865 252 865 L252 865 Z M453 265 L453 510 C453 513.312 450.312 516 447 516 C443.737 516 440.531 513.303 439.972 510.089 L433 470 C425 422 389 390 341 390 L288.5 390 C259.522 390 236 413.522 236 442.5 L236 683.56 C236 717.473 263.527 745 297.44 745 L402 745 C450 745 490 713 504 665 L515.368 624.774 C516.235 621.707 519.813 619 523 619 C526.312 619 528.713 621.807 528.356 625.099 C524.775 658.137 518.927 699.029 514.958 733.414 C513.741 743.953 504.257 749.019 493.648 749.041 L43.5 749.993 C41.5681 749.997 40 748.432 40 746.5 C40 744.568 41.5681 743 43.5 743 L66 743 C108 743 136 715 136 673 L136 77 C136 35 108 7 66 7 L43.5 7 C41.5681 7 40 5.4319 40 3.5 C40 1.56811 41.5681 0.00314881 43.5 0.0070281 L519.663 0.963179 C529.703 0.983339 539.379 8.057 541.207 17.929 C546.993 49.177 553.131 85.801 558.085 115.513 C558.623 118.735 556.267 121 553 121 C549.877 121 546.042 118.287 545.003 115.342 L541 104 C521 45 465 5 402 5 L287 5 C241 5 236 23 236 51 L236 332.5 C236 361.478 259.522 385 288.5 385 L341 385 C389 385 425 353 433 305 L439.972 264.911 C440.531 261.697 443.737 259 447 259 C450.312 259 453 261.688 453 265 L453 265 Z " />
<glyph glyph-name="Igrave" unicode="&#xcc;" horiz-adv-x="367" d="M-23 996 C-23 988 3 964 41 932 L177.059 817.02 C180.327 814.259 185.475 814.475 188.5 817.5 C191.511 820.511 191.852 825.789 189.254 829.162 L80 971 C50 1011 27 1038 19 1038 C-4 1038 -23 1019 -23 996 L-23 996 Z M303.5 7 L281 7 C251 7 231 27 231 57 L231 693 C231 723 251 743 281 743 L303.5 743 C305.432 743 307 744.568 307 746.5 C307 748.432 305.432 750 303.5 750 L58.5 750 C56.5681 750 55 748.432 55 746.5 C55 744.568 56.5681 743 58.5 743 L81 743 C111 743 131 723 131 693 L131 57 C131 27 111 7 81 7 L58.5 7 C56.5681 7 55 5.4319 55 3.5 C55 1.5681 56.5681 0 58.5 0 L303.5 0 C305.432 0 307 1.5681 307 3.5 C307 5.4319 305.432 7 303.5 7 L303.5 7 Z " />
<glyph glyph-name="Iacute" unicode="&#xcd;" horiz-adv-x="367" d="M194.941 817.02 L331 932 C369 965 395 990 395 996 C395 1019 376 1038 353 1038 C347 1038 324 1011 292 971 L182.746 829.162 C180.148 825.789 180.489 820.511 183.5 817.5 C186.525 814.475 191.673 814.259 194.941 817.02 L194.941 817.02 Z M303.5 7 L281 7 C251 7 231 27 231 57 L231 693 C231 723 251 743 281 743 L303.5 743 C305.432 743 307 744.568 307 746.5 C307 748.432 305.432 750 303.5 750 L58.5 750 C56.5681 750 55 748.432 55 746.5 C55 744.568 56.5681 743 58.5 743 L81 743 C111 743 131 723 131 693 L131 57 C131 27 111 7 81 7 L58.5 7 C56.5681 7 55 5.4319 55 3.5 C55 1.5681 56.5681 0 58.5 0 L303.5 0 C305.432 0 307 1.5681 307 3.5 C307 5.4319 305.432 7 303.5 7 L303.5 7 Z " />
<glyph glyph-name="Icircumflex" unicode="&#xce;" horiz-adv-x="367" d="M211 1005 C205 1014 191 1035 181 1035 C171 1035 157 1014 151 1005 L33.2357 822.562 C30.915 818.967 31.7126 813.739 35 811 C38.2971 808.252 43.4968 808.479 46.5424 811.503 L137.711 902.021 C161.605 925.743 200.395 925.743 224.289 902.021 L315.458 811.503 C318.503 808.479 323.703 808.252 327 811 C330.287 813.739 331.085 818.967 328.764 822.562 L211 1005 L211 1005 Z M303.5 7 L281 7 C251 7 231 27 231 57 L231 693 C231 723 251 743 281 743 L303.5 743 C305.432 743 307 744.568 307 746.5 C307 748.432 305.432 750 303.5 750 L58.5 750 C56.5681 750 55 748.432 55 746.5 C55 744.568 56.5681 743 58.5 743 L81 743 C111 743 131 723 131 693 L131 57 C131 27 111 7 81 7 L58.5 7 C56.5681 7 55 5.4319 55 3.5 C55 1.5681 56.5681 0 58.5 0 L303.5 0 C305.432 0 307 1.5681 307 3.5 C307 5.4319 305.432 7 303.5 7 L303.5 7 Z " />
<glyph glyph-name="Idieresis" unicode="&#xcf;" horiz-adv-x="367" d="M254 865 C287 865 309 887 309 920 C309 953 287 975 254 975 C221 975 199 953 199 920 C199 887 221 865 254 865 L254 865 Z M108 865 C141 865 163 887 163 920 C163 953 141 975 108 975 C75 975 53 953 53 920 C53 887 75 865 108 865 L108 865 Z M303.5 7 L281 7 C251 7 231 27 231 57 L231 693 C231 723 251 743 281 743 L303.5 743 C305.432 743 307 744.568 307 746.5 C307 748.432 305.432 750 303.5 750 L58.5 750 C56.5681 750 55 748.432 55 746.5 C55 744.568 56.5681 743 58.5 743 L81 743 C111 743 131 723 131 693 L131 57 C131 27 111 7 81 7 L58.5 7 C56.5681 7 55 5.4319 55 3.5 C55 1.5681 56.5681 0 58.5 0 L303.5 0 C305.432 0 307 1.5681 307 3.5 C307 5.4319 305.432 7 303.5 7 L303.5 7 Z " />
<glyph glyph-name="Ntilde" unicode="&#xd1;" horiz-adv-x="726" d="M237.189 887.416 L241.164 886.967 C241.164 886.967 240.477 888.598 240.477 888.598 C244.764 914.028 258.053 930 276 930 C319 930 376 865 419 865 C454.15 865 477.749 906.07 481.091 969.215 C481.091 969.215 482.502 967.986 482.502 967.986 L478.535 968.496 C478.535 968.496 479.946 967.267 479.946 967.267 C475.145 941.335 459.625 925 439 925 C396 925 338 990 295 990 C262.625 990 240.945 948.93 237.875 885.785 C237.875 885.785 237.189 887.416 237.189 887.416 L241.164 886.967 C241.164 886.967 240.477 888.598 240.477 888.598 L237.189 887.416 Z M-13.4505 743 L10 743 C37 743 68 726 88 700 L118.52 654.592 C121.755 649.779 128.978 626.013 128.968 620.213 L128 56 C128 26 108 6 78 6 L55.5 6 C53.5681 6 52 4.4319 52 2.5 C52 0.568105 53.5681 -1 55.5 -1 L230.5 -1 C232.432 -1 234 0.568105 234 2.5 C234 4.4319 232.432 6 230.5 6 L208 6 C178 6 158 26 158 56 L155.667 479.072 C155.462 516.303 205.465 525.786 226.395 494.995 C335.17 334.97 443.834 174.834 551.873 14.0731 C554.428 10.2721 567.42 -1 572 -1 C577.519 -1 582.045 3.48035 582.1 8.9995 L588.966 696.635 C588.973 697.276 589.574 703.689 589.704 704.317 C594.377 726.827 613.588 741 639 741 L661.5 741 C663.432 741 665 742.568 665 744.5 C665 746.432 663.432 748 661.5 748 L486.5 748 C484.568 748 483 746.432 483 744.5 C483 742.568 484.568 741 486.5 741 L509 741 C539 741 559 721 559 691 L560.554 291.683 C560.689 256.859 513.577 248.227 494.238 277.188 C395.566 424.966 296.398 572.248 197.2 719.5 C188.839 731.912 160.275 748 145.309 748 L-14.4505 748 C-15.8304 748 -16.7706 746.853 -16.5 745.5 C-16.2294 744.147 -14.8304 743 -13.4505 743 L-13.4505 743 Z " />
<glyph glyph-name="Ograve" unicode="&#xd2;" horiz-adv-x="810" d="M159 375 C159 602 254 754 397 754 C546 754 646 602 646 375 C646 148 543 -4 389 -4 C251 -4 159 148 159 375 L159 375 Z M50 375 C50 144 185 -10 388 -10 C608 -10 755 144 755 375 C755 606 612 760 398 760 C189 760 50 606 50 375 L50 375 Z M194 996 C194 988 220 964 258 932 L394.059 817.02 C397.327 814.259 402.475 814.475 405.5 817.5 C408.511 820.511 408.852 825.789 406.254 829.162 L297 971 C267 1011 244 1038 236 1038 C213 1038 194 1019 194 996 L194 996 Z " />
<glyph glyph-name="Oacute" unicode="&#xd3;" horiz-adv-x="810" d="M411.941 817.02 L548 932 C586 965 612 990 612 996 C612 1019 593 1038 570 1038 C564 1038 541 1011 509 971 L399.746 829.162 C397.148 825.789 397.489 820.511 400.5 817.5 C403.525 814.475 408.673 814.259 411.941 817.02 L411.941 817.02 Z M159 375 C159 602 254 754 397 754 C546 754 646 602 646 375 C646 148 543 -4 389 -4 C251 -4 159 148 159 375 L159 375 Z M50 375 C50 144 185 -10 388 -10 C608 -10 755 144 755 375 C755 606 612 760 398 760 C189 760 50 606 50 375 L50 375 Z " />
<glyph glyph-name="Ocircumflex" unicode="&#xd4;" horiz-adv-x="810" d="M159 375 C159 602 254 754 397 754 C546 754 646 602 646 375 C646 148 543 -4 389 -4 C251 -4 159 148 159 375 L159 375 Z M50 375 C50 144 185 -10 388 -10 C608 -10 755 144 755 375 C755 606 612 760 398 760 C189 760 50 606 50 375 L50 375 Z M428 1005 C422 1014 408 1035 398 1035 C388 1035 374 1014 368 1005 L250.236 822.562 C247.915 818.967 248.713 813.739 252 811 C255.297 808.252 260.497 808.479 263.542 811.503 L354.711 902.021 C378.605 925.743 417.395 925.743 441.289 902.021 L532.458 811.503 C535.503 808.479 540.703 808.252 544 811 C547.287 813.739 548.085 818.967 545.764 822.562 L428 1005 L428 1005 Z " />
<glyph glyph-name="Otilde" unicode="&#xd5;" horiz-adv-x="810" d="M276.135 887.404 L280.112 886.979 C280.112 886.979 279.388 888.598 279.388 888.598 C283.429 914.028 296.053 930 314 930 C357 930 415 865 458 865 C493.15 865 515.893 906.07 519.107 969.215 C519.107 969.215 520.473 967.768 520.473 967.768 L516.507 968.292 C516.507 968.292 517.872 966.845 517.872 966.845 C513.009 941.158 497.692 925 478 925 C435 925 377 990 333 990 C300.625 990 279.801 948.93 276.859 885.785 C276.859 885.785 276.135 887.404 276.135 887.404 L280.112 886.979 C280.112 886.979 279.388 888.598 279.388 888.598 L276.135 887.404 Z M159 375 C159 602 254 754 397 754 C546 754 646 602 646 375 C646 148 543 -4 389 -4 C251 -4 159 148 159 375 L159 375 Z M50 375 C50 144 185 -10 388 -10 C608 -10 755 144 755 375 C755 606 612 760 398 760 C189 760 50 606 50 375 L50 375 Z " />
<glyph glyph-name="Odieresis" unicode="&#xd6;" horiz-adv-x="810" d="M471 865 C504 865 526 887 526 920 C526 953 504 975 471 975 C438 975 416 953 416 920 C416 887 438 865 471 865 L471 865 Z M325 865 C358 865 380 887 380 920 C380 953 358 975 325 975 C292 975 270 953 270 920 C270 887 292 865 325 865 L325 865 Z M159 375 C159 602 254 754 397 754 C546 754 646 602 646 375 C646 148 543 -4 389 -4 C251 -4 159 148 159 375 L159 375 Z M50 375 C50 144 185 -10 388 -10 C608 -10 755 144 755 375 C755 606 612 760 398 760 C189 760 50 606 50 375 L50 375 Z " />
<glyph glyph-name="Oslash" unicode="&#xd8;" horiz-adv-x="810" d="M57.6457 -9.00519 L118.661 57.8522 C132.616 73.1428 164.943 72.0186 181.051 59.0154 C236.19 14.5025 306.15 -10 387 -10 C607 -10 754 144 754 375 C754 468.225 730.859 549.199 689.068 612.306 C677.597 629.629 676.34 667.841 690.373 683.162 L754.623 753.313 C756.478 755.338 756.197 758.352 754 760 C751.803 761.648 748.479 761.338 746.625 759.311 L683.566 690.402 C669.103 674.597 634.96 675.713 618.109 688.943 C559.679 734.817 484.625 760 398 760 C189 760 50 606 50 375 C50 280.125 72.4606 198.182 112.89 134.786 C123.851 117.597 124.774 79.4216 110.946 64.4419 L48.6684 -3.02594 C46.6686 -5.19238 47.0468 -8.36456 49.5 -10 C51.9553 -11.6369 55.6565 -11.1849 57.6457 -9.00519 L57.6457 -9.00519 Z M574.769 572.233 L215.686 179.706 C204.56 167.543 189.228 168.194 184.335 183.935 C167.392 238.447 158 302.75 158 375 C158 602 253 754 396 754 C475.625 754 541.086 710.742 585.014 635.615 C597.06 615.012 590.878 589.842 574.769 572.233 L574.769 572.233 Z M617.497 563.454 C635.885 509.575 646 445.4 646 374 C646 147 543 -5 389 -5 C316.375 -5 256 37.875 215.244 111.566 C204.067 131.776 210.088 157.121 225.677 174.161 L585.374 567.36 C596.722 579.764 612.068 579.365 617.497 563.454 L617.497 563.454 Z " />
<glyph glyph-name="Ugrave" unicode="&#xd9;" horiz-adv-x="701" d="M144 996 C144 988 170 964 208 932 L344.059 817.02 C347.327 814.259 352.475 814.475 355.5 817.5 C358.511 820.511 358.852 825.789 356.254 829.162 L247 971 C217 1011 194 1038 186 1038 C163 1038 144 1019 144 996 L144 996 Z M667.62 39.0901 L645 33 C615 25 595 40 595 70 L595 688.56 C595 722.473 567.473 750 533.56 750 L422.5 750 C420.568 750 419 748.432 419 746.5 C419 744.568 420.568 743 422.5 743 L445 743 C475 743 495 723 495 693 L495 196.653 C495 192.613 491.21 175.2 489.297 171.641 C451.295 100.93 378.05 54 303 54 C242 54 201 118 201 213 L201 688.56 C201 722.473 173.473 750 139.56 750 L28.5 750 C26.5681 750 25 748.432 25 746.5 C25 744.568 26.5681 743 28.5 743 L51 743 C81 743 101 723 101 693 L101 213 C101 79 165 -10 262 -10 C342.85 -10 420.977 30.1569 468.868 94.1867 C475.264 102.738 495 99.6832 495 89.0051 L495 25 C495 11.2007 506.201 0 520 0 L545 0 C549 1 595 11 595 13 C619.471 19.5882 644.827 26.1765 666.901 31.931 C668.71 32.4027 671 34.6303 671 36.5 C671 38.3655 669.422 39.5751 667.62 39.0901 L667.62 39.0901 Z " />
<glyph glyph-name="Uacute" unicode="&#xda;" horiz-adv-x="701" d="M361.941 817.02 L498 932 C536 965 562 990 562 996 C562 1019 543 1038 520 1038 C514 1038 491 1011 459 971 L349.746 829.162 C347.148 825.789 347.489 820.511 350.5 817.5 C353.525 814.475 358.673 814.259 361.941 817.02 L361.941 817.02 Z M667.62 39.0901 L645 33 C615 25 595 40 595 70 L595 688.56 C595 722.473 567.473 750 533.56 750 L422.5 750 C420.568 750 419 748.432 419 746.5 C419 744.568 420.568 743 422.5 743 L445 743 C475 743 495 723 495 693 L495 196.653 C495 192.613 491.21 175.2 489.297 171.641 C451.295 100.93 378.05 54 303 54 C242 54 201 118 201 213 L201 688.56 C201 722.473 173.473 750 139.56 750 L28.5 750 C26.5681 750 25 748.432 25 746.5 C25 744.568 26.5681 743 28.5 743 L51 743 C81 743 101 723 101 693 L101 213 C101 79 165 -10 262 -10 C342.85 -10 420.977 30.1569 468.868 94.1867 C475.264 102.738 495 99.6832 495 89.0051 L495 25 C495 11.2007 506.201 0 520 0 L545 0 C549 1 595 11 595 13 C619.471 19.5882 644.827 26.1765 666.901 31.931 C668.71 32.4027 671 34.6303 671 36.5 C671 38.3655 669.422 39.5751 667.62 39.0901 L667.62 39.0901 Z " />
<glyph glyph-name="Ucircumflex" unicode="&#xdb;" horiz-adv-x="701" d="M378 1005 C372 1014 358 1035 348 1035 C338 1035 324 1014 318 1005 L200.236 822.562 C197.915 818.967 198.713 813.739 202 811 C205.297 808.252 210.497 808.479 213.542 811.503 L304.711 902.021 C328.605 925.743 367.395 925.743 391.289 902.021 L482.458 811.503 C485.503 808.479 490.703 808.252 494 811 C497.287 813.739 498.085 818.967 495.764 822.562 L378 1005 L378 1005 Z M667.62 39.0901 L645 33 C615 25 595 40 595 70 L595 688.56 C595 722.473 567.473 750 533.56 750 L422.5 750 C420.568 750 419 748.432 419 746.5 C419 744.568 420.568 743 422.5 743 L445 743 C475 743 495 723 495 693 L495 196.653 C495 192.613 491.21 175.2 489.297 171.641 C451.295 100.93 378.05 54 303 54 C242 54 201 118 201 213 L201 688.56 C201 722.473 173.473 750 139.56 750 L28.5 750 C26.5681 750 25 748.432 25 746.5 C25 744.568 26.5681 743 28.5 743 L51 743 C81 743 101 723 101 693 L101 213 C101 79 165 -10 262 -10 C342.85 -10 420.977 30.1569 468.868 94.1867 C475.264 102.738 495 99.6832 495 89.0051 L495 25 C495 11.2007 506.201 0 520 0 L545 0 C549 1 595 11 595 13 C619.471 19.5882 644.827 26.1765 666.901 31.931 C668.71 32.4027 671 34.6303 671 36.5 C671 38.3655 669.422 39.5751 667.62 39.0901 L667.62 39.0901 Z " />
<glyph glyph-name="Udieresis" unicode="&#xdc;" horiz-adv-x="701" d="M421 865 C454 865 476 887 476 920 C476 953 454 975 421 975 C388 975 366 953 366 920 C366 887 388 865 421 865 L421 865 Z M275 865 C308 865 330 887 330 920 C330 953 308 975 275 975 C242 975 220 953 220 920 C220 887 242 865 275 865 L275 865 Z M667.62 39.0901 L645 33 C615 25 595 40 595 70 L595 688.56 C595 722.473 567.473 750 533.56 750 L422.5 750 C420.568 750 419 748.432 419 746.5 C419 744.568 420.568 743 422.5 743 L445 743 C475 743 495 723 495 693 L495 196.653 C495 192.613 491.21 175.2 489.297 171.641 C451.295 100.93 378.05 54 303 54 C242 54 201 118 201 213 L201 688.56 C201 722.473 173.473 750 139.56 750 L28.5 750 C26.5681 750 25 748.432 25 746.5 C25 744.568 26.5681 743 28.5 743 L51 743 C81 743 101 723 101 693 L101 213 C101 79 165 -10 262 -10 C342.85 -10 420.977 30.1569 468.868 94.1867 C475.264 102.738 495 99.6832 495 89.0051 L495 25 C495 11.2007 506.201 0 520 0 L545 0 C549 1 595 11 595 13 C619.471 19.5882 644.827 26.1765 666.901 31.931 C668.71 32.4027 671 34.6303 671 36.5 C671 38.3655 669.422 39.5751 667.62 39.0901 L667.62 39.0901 Z " />
<glyph glyph-name="Yacute" unicode="&#xdd;" horiz-adv-x="675" d="M359.941 817.02 L496 932 C534 965 560 990 560 996 C560 1019 541 1038 518 1038 C512 1038 489 1011 457 971 L347.746 829.162 C345.148 825.789 345.489 820.511 348.5 817.5 C351.525 814.475 356.673 814.259 359.941 817.02 L359.941 817.02 Z M267.959 750 L3.5 750 C1.5681 750 0 748.432 0 746.5 C0 744.606 0.793409 743.011 2.68688 742.974 C36.5544 742.306 64.1044 728.914 85.3369 699.366 C85.4642 699.189 88.2837 694.703 88.3901 694.512 L288.194 336.969 C290.296 333.208 296 311.306 296 306.998 L296 78 C296 36 268 8 226 8 L203.5 8 C201.568 8 200 6.4319 200 4.5 C200 2.5681 201.568 1 203.5 1 L488.5 1 C490.432 1 492 2.5681 492 4.5 C492 6.4319 490.432 8 488.5 8 L466 8 C424 8 396 36 396 78 L396 324.045 C396 327.372 400.591 347.585 402.029 350.586 L567 695 C584 725 614 744 645 744 L673.5 744 C675.432 744 677 745.568 677 747.5 C677 749.432 675.432 751 673.5 751 L470.5 751 C468.568 751 467 749.432 467 747.5 C467 745.568 468.568 744 470.5 744 L525 744 C558 744 569 722 554 689 L445.8 456.369 C422.92 407.178 361.588 405.432 335.947 453.241 L209.5 689 C191.5 722 202 744 235 744 L268.959 744 C270.615 744 271.772 745.367 271.5 747 C271.228 748.633 269.615 750 267.959 750 L267.959 750 Z " />
<glyph glyph-name="agrave" unicode="&#xe0;" horiz-adv-x="479" d="M485 104.5 C482.955 105.267 480.613 103.702 480.109 101.576 C473.582 74.05 450.45 56 421 56 C389 56 367 74 367 102 L367 355 C367 462 316 510 240 510 C135 510 65 414 65 360 C65 324 85 300 114 300 C141 300 159 325 159 343 C159 361 139 385 139 403 C139 439 177 504 233 504 C287.9 504 283.67 400.32 282.275 296.478 C282.054 280.021 261.413 250.102 247.19 241.822 C109.883 161.884 44 118.525 44 88 C44 29 84 -10 145 -10 C176.5 -10 216.1 11.06 265.987 63.386 C272.706 70.434 286.345 65.04 289.968 56.001 C305.14 18.1412 339.625 -5 385 -5 C433.75 -5 475.37 35.8769 487.616 98.1666 C488.077 100.511 487.237 103.661 485 104.5 L485 104.5 Z M35 746 C35 738 61 714 99 682 L235.059 567.02 C238.327 564.259 243.475 564.475 246.5 567.5 C249.511 570.511 249.852 575.789 247.254 579.162 L138 721 C108 761 85 788 77 788 C54 788 35 769 35 746 L35 746 Z M280.848 211.687 C280.487 154.656 279.66 116.392 280.426 95.5234 C280.578 91.3808 276.324 80.983 273.401 78.0433 C242.373 46.8344 213.975 34 189 34 C152 34 128 59 128 96 C128 150.4 163.764 186.376 237.748 232.178 C257.54 244.431 280.996 234.964 280.848 211.687 L280.848 211.687 Z " />
<glyph glyph-name="aacute" unicode="&#xe1;" horiz-adv-x="479" d="M253.941 567.02 L390 682 C428 715 454 740 454 746 C454 769 435 788 412 788 C406 788 383 761 351 721 L241.746 579.162 C239.148 575.789 239.489 570.511 242.5 567.5 C245.525 564.475 250.673 564.259 253.941 567.02 L253.941 567.02 Z M485 104.5 C482.955 105.267 480.613 103.702 480.109 101.576 C473.582 74.05 450.45 56 421 56 C389 56 367 74 367 102 L367 355 C367 462 316 510 240 510 C135 510 65 414 65 360 C65 324 85 300 114 300 C141 300 159 325 159 343 C159 361 139 385 139 403 C139 439 177 504 233 504 C287.9 504 283.67 400.32 282.275 296.478 C282.054 280.021 261.413 250.102 247.19 241.822 C109.883 161.884 44 118.525 44 88 C44 29 84 -10 145 -10 C176.5 -10 216.1 11.06 265.987 63.386 C272.706 70.434 286.345 65.04 289.968 56.001 C305.14 18.1412 339.625 -5 385 -5 C433.75 -5 475.37 35.8769 487.616 98.1666 C488.077 100.511 487.237 103.661 485 104.5 L485 104.5 Z M280.848 211.687 C280.487 154.656 279.66 116.392 280.426 95.5234 C280.578 91.3808 276.324 80.983 273.401 78.0433 C242.373 46.8344 213.975 34 189 34 C152 34 128 59 128 96 C128 150.4 163.764 186.376 237.748 232.178 C257.54 244.431 280.996 234.964 280.848 211.687 L280.848 211.687 Z " />
<glyph glyph-name="acircumflex" unicode="&#xe2;" horiz-adv-x="479" d="M485 104.5 C482.955 105.267 480.613 103.702 480.109 101.576 C473.582 74.05 450.45 56 421 56 C389 56 367 74 367 102 L367 355 C367 462 316 510 240 510 C135 510 65 414 65 360 C65 324 85 300 114 300 C141 300 159 325 159 343 C159 361 139 385 139 403 C139 439 177 504 233 504 C287.9 504 283.67 400.32 282.275 296.478 C282.054 280.021 261.413 250.102 247.19 241.822 C109.883 161.884 44 118.525 44 88 C44 29 84 -10 145 -10 C176.5 -10 216.1 11.06 265.987 63.386 C272.706 70.434 286.345 65.04 289.968 56.001 C305.14 18.1412 339.625 -5 385 -5 C433.75 -5 475.37 35.8769 487.616 98.1666 C488.077 100.511 487.237 103.661 485 104.5 L485 104.5 Z M269 755 C263 764 249 785 239 785 C229 785 215 764 209 755 L91.2357 572.562 C88.915 568.967 89.7126 563.739 93 561 C96.2971 558.252 101.497 558.479 104.542 561.503 L195.711 652.021 C219.605 675.743 258.395 675.743 282.289 652.021 L373.458 561.503 C376.503 558.479 381.703 558.252 385 561 C388.287 563.739 389.085 568.967 386.764 572.562 L269 755 L269 755 Z M280.848 211.687 C280.487 154.656 279.66 116.392 280.426 95.5234 C280.578 91.3808 276.324 80.983 273.401 78.0433 C242.373 46.8344 213.975 34 189 34 C152 34 128 59 128 96 C128 150.4 163.764 186.376 237.748 232.178 C257.54 244.431 280.996 234.964 280.848 211.687 L280.848 211.687 Z " />
<glyph glyph-name="atilde" unicode="&#xe3;" horiz-adv-x="479" d="M118.135 637.404 L122.112 636.979 C122.112 636.979 121.388 638.598 121.388 638.598 C125.429 664.028 138.053 680 156 680 C199 680 257 615 300 615 C335.15 615 357.893 656.07 361.107 719.215 C361.107 719.215 362.473 717.768 362.473 717.768 L358.507 718.292 C358.507 718.292 359.872 716.845 359.872 716.845 C355.009 691.158 339.692 675 320 675 C277 675 219 740 175 740 C142.625 740 121.801 698.93 118.859 635.785 C118.859 635.785 118.135 637.404 118.135 637.404 L122.112 636.979 C122.112 636.979 121.388 638.598 121.388 638.598 L118.135 637.404 Z M485 104.5 C482.955 105.267 480.613 103.702 480.109 101.576 C473.582 74.05 450.45 56 421 56 C389 56 367 74 367 102 L367 355 C367 462 316 510 240 510 C135 510 65 414 65 360 C65 324 85 300 114 300 C141 300 159 325 159 343 C159 361 139 385 139 403 C139 439 177 504 233 504 C287.9 504 283.67 400.32 282.275 296.478 C282.054 280.021 261.413 250.102 247.19 241.822 C109.883 161.884 44 118.525 44 88 C44 29 84 -10 145 -10 C176.5 -10 216.1 11.06 265.987 63.386 C272.706 70.434 286.345 65.04 289.968 56.001 C305.14 18.1412 339.625 -5 385 -5 C433.75 -5 475.37 35.8769 487.616 98.1666 C488.077 100.511 487.237 103.661 485 104.5 L485 104.5 Z M280.848 211.687 C280.487 154.656 279.66 116.392 280.426 95.5234 C280.578 91.3808 276.324 80.983 273.401 78.0433 C242.373 46.8344 213.975 34 189 34 C152 34 128 59 128 96 C128 150.4 163.764 186.376 237.748 232.178 C257.54 244.431 280.996 234.964 280.848 211.687 L280.848 211.687 Z " />
<glyph glyph-name="adieresis" unicode="&#xe4;" horiz-adv-x="479" d="M313 615 C346 615 368 637 368 670 C368 703 346 725 313 725 C280 725 258 703 258 670 C258 637 280 615 313 615 L313 615 Z M167 615 C200 615 222 637 222 670 C222 703 200 725 167 725 C134 725 112 703 112 670 C112 637 134 615 167 615 L167 615 Z M485 104.5 C482.955 105.267 480.613 103.702 480.109 101.576 C473.582 74.05 450.45 56 421 56 C389 56 367 74 367 102 L367 355 C367 462 316 510 240 510 C135 510 65 414 65 360 C65 324 85 300 114 300 C141 300 159 325 159 343 C159 361 139 385 139 403 C139 439 177 504 233 504 C287.9 504 283.67 400.32 282.275 296.478 C282.054 280.021 261.413 250.102 247.19 241.822 C109.883 161.884 44 118.525 44 88 C44 29 84 -10 145 -10 C176.5 -10 216.1 11.06 265.987 63.386 C272.706 70.434 286.345 65.04 289.968 56.001 C305.14 18.1412 339.625 -5 385 -5 C433.75 -5 475.37 35.8769 487.616 98.1666 C488.077 100.511 487.237 103.661 485 104.5 L485 104.5 Z M280.848 211.687 C280.487 154.656 279.66 116.392 280.426 95.5234 C280.578 91.3808 276.324 80.983 273.401 78.0433 C242.373 46.8344 213.975 34 189 34 C152 34 128 59 128 96 C128 150.4 163.764 186.376 237.748 232.178 C257.54 244.431 280.996 234.964 280.848 211.687 L280.848 211.687 Z " />
<glyph glyph-name="aring" unicode="&#xe5;" horiz-adv-x="479" d="M168 655 C168 700 197 730 240 730 C284 730 313 700 313 655 C313 615 279 580 240 580 C201 580 168 615 168 655 L168 655 Z M143 655 C143 604 188 560 240 560 C293 560 338 604 338 655 C338 712 299 750 240 750 C182 750 143 712 143 655 L143 655 Z M485 104.5 C482.955 105.267 480.613 103.702 480.109 101.576 C473.582 74.05 450.45 56 421 56 C389 56 367 74 367 102 L367 355 C367 462 316 510 240 510 C135 510 65 414 65 360 C65 324 85 300 114 300 C141 300 159 325 159 343 C159 361 139 385 139 403 C139 439 177 504 233 504 C287.9 504 283.67 400.32 282.275 296.478 C282.054 280.021 261.413 250.102 247.19 241.822 C109.883 161.884 44 118.525 44 88 C44 29 84 -10 145 -10 C176.5 -10 216.1 11.06 265.987 63.386 C272.706 70.434 286.345 65.04 289.968 56.001 C305.14 18.1412 339.625 -5 385 -5 C433.75 -5 475.37 35.8769 487.616 98.1666 C488.077 100.511 487.237 103.661 485 104.5 L485 104.5 Z M280.848 211.687 C280.487 154.656 279.66 116.392 280.426 95.5234 C280.578 91.3808 276.324 80.983 273.401 78.0433 C242.373 46.8344 213.975 34 189 34 C152 34 128 59 128 96 C128 150.4 163.764 186.376 237.748 232.178 C257.54 244.431 280.996 234.964 280.848 211.687 L280.848 211.687 Z " />
<glyph glyph-name="egrave" unicode="&#xe8;" horiz-adv-x="494" d="M72 746 C72 738 98 714 136 682 L272.059 567.02 C275.327 564.259 280.475 564.475 283.5 567.5 C286.511 570.511 286.852 575.789 284.254 579.162 L175 721 C145 761 122 788 114 788 C91 788 72 769 72 746 L72 746 Z M150.102 340 L402.016 340 C441.143 340 462.492 361.014 448.082 397.391 C416.415 477.33 354.375 510 276 510 C137 510 45 432 45 231 C45 86 129 -10 255 -10 C325.55 -10 389.959 31.905 427.346 97.9054 C427.374 97.9545 426.287 98.5417 426.256 98.4943 C391.515 45.0312 329.65 11 262 11 C186 11 135 113 135 266 C135 288.781 135.712 310.139 137.736 329.472 C138.391 335.726 143.813 340 150.102 340 L150.102 340 Z M310.058 345.743 L197.987 345.253 C161.954 345.096 140.871 364.606 151.091 399.159 C173.432 474.691 218.25 506 276 506 C307.35 506 336.318 475.712 357.288 399.976 C366.485 366.762 344.52 345.893 310.058 345.743 L310.058 345.743 Z " />
<glyph glyph-name="eacute" unicode="&#xe9;" horiz-adv-x="494" d="M289.941 567.02 L426 682 C464 715 490 740 490 746 C490 769 471 788 448 788 C442 788 419 761 387 721 L277.746 579.162 C275.148 575.789 275.489 570.511 278.5 567.5 C281.525 564.475 286.673 564.259 289.941 567.02 L289.941 567.02 Z M150.102 340 L402.016 340 C441.143 340 462.492 361.014 448.082 397.391 C416.415 477.33 354.375 510 276 510 C137 510 45 432 45 231 C45 86 129 -10 255 -10 C325.55 -10 389.959 31.905 427.346 97.9054 C427.374 97.9545 426.287 98.5417 426.256 98.4943 C391.515 45.0312 329.65 11 262 11 C186 11 135 113 135 266 C135 288.781 135.712 310.139 137.736 329.472 C138.391 335.726 143.813 340 150.102 340 L150.102 340 Z M310.058 345.743 L197.987 345.253 C161.954 345.096 140.871 364.606 151.091 399.159 C173.432 474.691 218.25 506 276 506 C307.35 506 336.318 475.712 357.288 399.976 C366.485 366.762 344.52 345.893 310.058 345.743 L310.058 345.743 Z " />
<glyph glyph-name="ecircumflex" unicode="&#xea;" horiz-adv-x="494" d="M306 755 C300 764 286 785 276 785 C266 785 252 764 246 755 L128.236 572.562 C125.915 568.967 126.713 563.739 130 561 C133.297 558.252 138.497 558.479 141.542 561.503 L232.711 652.021 C256.605 675.743 295.395 675.743 319.289 652.021 L410.458 561.503 C413.503 558.479 418.703 558.252 422 561 C425.287 563.739 426.085 568.967 423.764 572.562 L306 755 L306 755 Z M150.102 340 L402.016 340 C441.143 340 462.492 361.014 448.082 397.391 C416.415 477.33 354.375 510 276 510 C137 510 45 432 45 231 C45 86 129 -10 255 -10 C325.55 -10 389.959 31.905 427.346 97.9054 C427.374 97.9545 426.287 98.5417 426.256 98.4943 C391.515 45.0312 329.65 11 262 11 C186 11 135 113 135 266 C135 288.781 135.712 310.139 137.736 329.472 C138.391 335.726 143.813 340 150.102 340 L150.102 340 Z M310.058 345.743 L197.987 345.253 C161.954 345.096 140.871 364.606 151.091 399.159 C173.432 474.691 218.25 506 276 506 C307.35 506 336.318 475.712 357.288 399.976 C366.485 366.762 344.52 345.893 310.058 345.743 L310.058 345.743 Z " />
<glyph glyph-name="edieresis" unicode="&#xeb;" horiz-adv-x="494" d="M349 615 C382 615 404 637 404 670 C404 703 382 725 349 725 C316 725 294 703 294 670 C294 637 316 615 349 615 L349 615 Z M203 615 C236 615 258 637 258 670 C258 703 236 725 203 725 C170 725 148 703 148 670 C148 637 170 615 203 615 L203 615 Z M150.102 340 L402.016 340 C441.143 340 462.492 361.014 448.082 397.391 C416.415 477.33 354.375 510 276 510 C137 510 45 432 45 231 C45 86 129 -10 255 -10 C325.55 -10 389.959 31.905 427.346 97.9054 C427.374 97.9545 426.287 98.5417 426.256 98.4943 C391.515 45.0312 329.65 11 262 11 C186 11 135 113 135 266 C135 288.781 135.712 310.139 137.736 329.472 C138.391 335.726 143.813 340 150.102 340 L150.102 340 Z M310.058 345.743 L197.987 345.253 C161.954 345.096 140.871 364.606 151.091 399.159 C173.432 474.691 218.25 506 276 506 C307.35 506 336.318 475.712 357.288 399.976 C366.485 366.762 344.52 345.893 310.058 345.743 L310.058 345.743 Z " />
<glyph glyph-name="igrave" unicode="&#xec;" horiz-adv-x="302" d="M-45 746 C-45 738 -19 714 19 682 L155.323 566.798 C158.454 564.151 163.242 564.466 166 567.5 C168.715 570.486 168.938 575.7 166.489 578.908 L58 721 C28 761 5 788 -3 788 C-26 788 -45 769 -45 746 L-45 746 Z M63.3804 467.907 L101 478 C110 481 116 476 116 467 L116 22 C116 13 110 7 101 7 L63.5 7 C61.5681 7 60 5.4319 60 3.5 C60 1.5681 61.5681 0 63.5 0 L253.5 0 C255.432 0 257 1.5681 257 3.5 C257 5.4319 255.432 7 253.5 7 L216 7 C207 7 201 13 201 22 L201 478.999 C201 490.59 191.591 500.112 180 500.25 L167.453 500.399 C166.193 500.414 152.052 498.64 150.834 498.314 L63.381 474.905 C61.5782 474.422 60 472.366 60 470.5 C60 468.634 61.5783 467.423 63.3804 467.907 L63.3804 467.907 Z " />
<glyph glyph-name="iacute" unicode="&#xed;" horiz-adv-x="302" d="M-45 746 C-45 738 -19 714 19 682 L155.323 566.798 C158.454 564.151 163.242 564.466 166 567.5 C168.715 570.486 168.938 575.7 166.489 578.908 L58 721 C28 761 5 788 -3 788 C-26 788 -45 769 -45 746 L-45 746 Z M63.3804 467.907 L101 478 C110 481 116 476 116 467 L116 22 C116 13 110 7 101 7 L63.5 7 C61.5681 7 60 5.4319 60 3.5 C60 1.5681 61.5681 0 63.5 0 L253.5 0 C255.432 0 257 1.5681 257 3.5 C257 5.4319 255.432 7 253.5 7 L216 7 C207 7 201 13 201 22 L201 478.999 C201 490.59 191.591 500.112 180 500.25 L167.453 500.399 C166.193 500.414 152.052 498.64 150.834 498.314 L63.381 474.905 C61.5782 474.422 60 472.366 60 470.5 C60 468.634 61.5783 467.423 63.3804 467.907 L63.3804 467.907 Z " />
<glyph glyph-name="icircumflex" unicode="&#xee;" horiz-adv-x="302" d="M189 755 C183 764 169 785 159 785 C149 785 135 764 129 755 L11.0312 572.245 C8.83615 568.845 9.5052 563.723 12.5 561 C15.5319 558.244 20.3671 558.35 23.2748 561.237 L114.865 652.173 C138.673 675.811 177.395 675.88 201.287 652.327 L293.707 561.218 C296.624 558.342 301.469 558.244 304.5 561 C307.493 563.721 308.173 568.854 305.992 572.26 L189 755 L189 755 Z M63.3804 467.907 L101 478 C110 481 116 476 116 467 L116 22 C116 13 110 7 101 7 L63.5 7 C61.5681 7 60 5.4319 60 3.5 C60 1.5681 61.5681 0 63.5 0 L253.5 0 C255.432 0 257 1.5681 257 3.5 C257 5.4319 255.432 7 253.5 7 L216 7 C207 7 201 13 201 22 L201 478.999 C201 490.59 191.591 500.112 180 500.25 L167.453 500.399 C166.193 500.414 152.052 498.64 150.834 498.314 L63.381 474.905 C61.5782 474.422 60 472.366 60 470.5 C60 468.634 61.5783 467.423 63.3804 467.907 L63.3804 467.907 Z " />
<glyph glyph-name="idieresis" unicode="&#xef;" horiz-adv-x="302" d="M231 615 C264 615 286 637 286 670 C286 703 264 725 231 725 C198 725 176 703 176 670 C176 637 198 615 231 615 L231 615 Z M86 615 C119 615 141 637 141 670 C141 703 119 725 86 725 C53 725 31 703 31 670 C31 637 53 615 86 615 L86 615 Z M63.3804 467.907 L101 478 C110 481 116 476 116 467 L116 22 C116 13 110 7 101 7 L63.5 7 C61.5681 7 60 5.4319 60 3.5 C60 1.5681 61.5681 0 63.5 0 L253.5 0 C255.432 0 257 1.5681 257 3.5 C257 5.4319 255.432 7 253.5 7 L216 7 C207 7 201 13 201 22 L201 478.999 C201 490.59 191.591 500.112 180 500.25 L167.453 500.399 C166.193 500.414 152.052 498.64 150.834 498.314 L63.381 474.905 C61.5782 474.422 60 472.366 60 470.5 C60 468.634 61.5783 467.423 63.3804 467.907 L63.3804 467.907 Z " />
<glyph glyph-name="ntilde" unicode="&#xf1;" horiz-adv-x="515" d="M130.135 637.404 L134.112 636.979 C134.112 636.979 133.388 638.598 133.388 638.598 C137.429 664.028 150.053 680 168 680 C211 680 269 615 312 615 C347.15 615 369.893 656.07 373.107 719.215 C373.107 719.215 374.473 717.768 374.473 717.768 L370.507 718.292 C370.507 718.292 371.872 716.845 371.872 716.845 C367.009 691.158 351.692 675 332 675 C289 675 231 740 187 740 C154.625 740 133.801 698.93 130.859 635.785 C130.859 635.785 130.135 637.404 130.135 637.404 L134.112 636.979 C134.112 636.979 133.388 638.598 133.388 638.598 L130.135 637.404 Z M23.5 469 L31 469 C57 470 74 456 76 432 C76 335 75 137 75 22 C75 13 69 7 60 7 L22.5 7 C20.5681 7 19 5.4319 19 3.5 C19 1.5681 20.5681 0 22.5 0 L212.5 0 C214.432 0 216 1.5681 216 3.5 C216 5.4319 214.432 7 212.5 7 L175 7 C166 7 160 13 160 22 L160 366.988 C160 370.244 163.587 386.895 164.979 389.839 C187.378 437.198 233.05 468 283 468 C323 468 344 418 344 342 L344 22 C344 13 338 7 329 7 L291.5 7 C289.568 7 288 5.4319 288 3.5 C288 1.5681 289.568 0 291.5 0 L481.5 0 C483.432 0 485 1.5681 485 3.5 C485 5.4319 483.432 7 481.5 7 L444 7 C435 7 429 13 429 22 L429 342 C429 443 388 510 308 510 C256.025 510 206.773 477.33 176.526 426.028 C173.028 420.094 160 421.917 160 428.805 L160 478.75 C160 490.479 150.479 500 138.75 500 L124.951 500 C123.968 500 111.22 498.454 110.265 498.219 L23.3986 476.837 C21.577 476.388 20 474.376 20 472.5 C20 470.568 21.5681 469 23.5 469 L23.5 469 Z " />
<glyph glyph-name="ograve" unicode="&#xf2;" horiz-adv-x="580" d="M139 250 C139 402 199 504 290 504 C381 504 442 402 442 250 C442 98 381 -4 290 -4 C199 -4 139 98 139 250 L139 250 Z M45 250 C45 94 143 -10 290 -10 C437 -10 535 94 535 250 C535 406 437 510 290 510 C143 510 45 406 45 250 L45 250 Z M86 746 C86 738 112 714 150 682 L286.059 567.02 C289.327 564.259 294.475 564.475 297.5 567.5 C300.511 570.511 300.852 575.789 298.254 579.162 L189 721 C159 761 136 788 128 788 C105 788 86 769 86 746 L86 746 Z " />
<glyph glyph-name="oacute" unicode="&#xf3;" horiz-adv-x="580" d="M303.941 567.02 L440 682 C478 715 504 740 504 746 C504 769 485 788 462 788 C456 788 433 761 401 721 L291.746 579.162 C289.148 575.789 289.489 570.511 292.5 567.5 C295.525 564.475 300.673 564.259 303.941 567.02 L303.941 567.02 Z M139 250 C139 402 199 504 290 504 C381 504 442 402 442 250 C442 98 381 -4 290 -4 C199 -4 139 98 139 250 L139 250 Z M45 250 C45 94 143 -10 290 -10 C437 -10 535 94 535 250 C535 406 437 510 290 510 C143 510 45 406 45 250 L45 250 Z " />
<glyph glyph-name="ocircumflex" unicode="&#xf4;" horiz-adv-x="580" d="M139 250 C139 402 199 504 290 504 C381 504 442 402 442 250 C442 98 381 -4 290 -4 C199 -4 139 98 139 250 L139 250 Z M45 250 C45 94 143 -10 290 -10 C437 -10 535 94 535 250 C535 406 437 510 290 510 C143 510 45 406 45 250 L45 250 Z M320 755 C314 764 300 785 290 785 C280 785 266 764 260 755 L142.236 572.562 C139.915 568.967 140.713 563.739 144 561 C147.297 558.252 152.497 558.479 155.542 561.503 L246.711 652.021 C270.605 675.743 309.395 675.743 333.289 652.021 L424.458 561.503 C427.503 558.479 432.703 558.252 436 561 C439.287 563.739 440.085 568.967 437.764 572.562 L320 755 L320 755 Z " />
<glyph glyph-name="otilde" unicode="&#xf5;" horiz-adv-x="580" d="M168.135 637.404 L172.112 636.979 C172.112 636.979 171.388 638.598 171.388 638.598 C175.429 664.028 188.053 680 206 680 C249 680 307 615 350 615 C385.15 615 407.893 656.07 411.107 719.215 C411.107 719.215 412.473 717.768 412.473 717.768 L408.507 718.292 C408.507 718.292 409.872 716.845 409.872 716.845 C405.009 691.158 389.692 675 370 675 C327 675 269 740 225 740 C192.625 740 171.801 698.93 168.859 635.785 C168.859 635.785 168.135 637.404 168.135 637.404 L172.112 636.979 C172.112 636.979 171.388 638.598 171.388 638.598 L168.135 637.404 Z M139 250 C139 402 199 504 290 504 C381 504 442 402 442 250 C442 98 381 -4 290 -4 C199 -4 139 98 139 250 L139 250 Z M45 250 C45 94 143 -10 290 -10 C437 -10 535 94 535 250 C535 406 437 510 290 510 C143 510 45 406 45 250 L45 250 Z " />
<glyph glyph-name="odieresis" unicode="&#xf6;" horiz-adv-x="580" d="M363 615 C396 615 418 637 418 670 C418 703 396 725 363 725 C330 725 308 703 308 670 C308 637 330 615 363 615 L363 615 Z M217 615 C250 615 272 637 272 670 C272 703 250 725 217 725 C184 725 162 703 162 670 C162 637 184 615 217 615 L217 615 Z M139 250 C139 402 199 504 290 504 C381 504 442 402 442 250 C442 98 381 -4 290 -4 C199 -4 139 98 139 250 L139 250 Z M45 250 C45 94 143 -10 290 -10 C437 -10 535 94 535 250 C535 406 437 510 290 510 C143 510 45 406 45 250 L45 250 Z " />
<glyph glyph-name="oslash" unicode="&#xf8;" horiz-adv-x="580" d="M48.9412 -9.94289 L92.8879 36.6275 C102.869 47.2042 126.597 46.4564 138.191 37.6778 C178.687 7.01563 230.6 -10 290 -10 C437 -10 535 94 535 250 C535 313.525 518.665 368.202 489.364 410.662 C481.243 422.43 480.226 448.064 489.967 458.531 L534.073 505.929 C535.136 507.072 535.103 508.897 534 510 C532.897 511.103 531.13 511.078 530.059 509.943 L486.112 463.373 C476.131 452.796 452.403 453.544 440.809 462.322 C400.313 492.984 348.4 510 289 510 C142 510 44 406 44 250 C44 186.475 60.335 131.798 89.6359 89.3385 C97.7571 77.5701 98.7741 51.9364 89.0335 41.4688 L44.9268 -5.9294 C43.864 -7.07157 43.8968 -8.89677 45 -10 C46.1035 -11.1035 47.8702 -11.0779 48.9412 -9.94289 L48.9412 -9.94289 Z M394.396 364.826 L172.771 129.615 C165.774 122.19 155.362 125.816 152.732 135.674 C143.764 169.284 139 208.1 139 251 C139 403 199 505 290 505 C337.85 505 377.532 476.073 404.555 426.643 C415.546 406.538 410.109 381.503 394.396 364.826 L394.396 364.826 Z M428.268 366.326 C437.236 332.716 442 293.9 442 251 C442 99 381 -3 290 -3 C242.15 -3 202.468 25.5862 176.006 74.8975 C165.191 95.0526 170.782 119.419 186.438 136.095 L408.255 372.36 C415.231 379.791 425.641 376.173 428.268 366.326 L428.268 366.326 Z " />
<glyph glyph-name="ugrave" unicode="&#xf9;" horiz-adv-x="492" d="M37 746 C37 738 63 714 101 682 L237.059 567.02 C240.327 564.259 245.475 564.475 248.5 567.5 C251.511 570.511 251.852 575.789 249.254 579.162 L140 721 C110 761 87 788 79 788 C56 788 37 769 37 746 L37 746 Z M473.065 34.7702 L461 31 C431 23 411 38 411 68 L411 438.56 C411 472.473 383.473 500 349.56 500 L273.5 500 C271.568 500 270 498.432 270 496.5 C270 494.568 271.568 493 273.5 493 L311 493 C320 493 326 487 326 478 L326 142.16 C326 138.319 322.578 121.674 320.803 118.268 C298.444 75.38 264.15 48 229 48 C186 48 157 90 157 154 L157 437.56 C157 471.473 129.473 499 95.56 499 L19.5 499 C17.5681 499 16 497.432 16 495.5 C16 493.568 17.5681 492 19.5 492 L57 492 C66 492 72 486 72 477 L72 154 C72 55 119 -11 189 -11 C231.075 -11 275.192 25.0731 308.436 83.1815 C312.964 91.0971 328 88.1963 328 79.0768 L328 20.0015 C328 8.41012 337.409 -1.11202 349 -1.25 L361.4 -1.39762 C362.695 -1.41304 376.534 0.279278 377.784 0.619026 C408.674 9.01457 446.378 19.1138 476.442 27.3028 C478.638 27.901 478.552 29.7919 478 32 C477.449 34.2042 475.233 35.4479 473.065 34.7702 L473.065 34.7702 Z " />
<glyph glyph-name="uacute" unicode="&#xfa;" horiz-adv-x="492" d="M254.941 567.02 L391 682 C429 715 455 740 455 746 C455 769 436 788 413 788 C407 788 384 761 352 721 L242.746 579.162 C240.148 575.789 240.489 570.511 243.5 567.5 C246.525 564.475 251.673 564.259 254.941 567.02 L254.941 567.02 Z M473.065 34.7702 L461 31 C431 23 411 38 411 68 L411 438.56 C411 472.473 383.473 500 349.56 500 L273.5 500 C271.568 500 270 498.432 270 496.5 C270 494.568 271.568 493 273.5 493 L311 493 C320 493 326 487 326 478 L326 142.16 C326 138.319 322.578 121.674 320.803 118.268 C298.444 75.38 264.15 48 229 48 C186 48 157 90 157 154 L157 437.56 C157 471.473 129.473 499 95.56 499 L19.5 499 C17.5681 499 16 497.432 16 495.5 C16 493.568 17.5681 492 19.5 492 L57 492 C66 492 72 486 72 477 L72 154 C72 55 119 -11 189 -11 C231.075 -11 275.192 25.0731 308.436 83.1815 C312.964 91.0971 328 88.1963 328 79.0768 L328 20.0015 C328 8.41012 337.409 -1.11202 349 -1.25 L361.4 -1.39762 C362.695 -1.41304 376.534 0.279278 377.784 0.619026 C408.674 9.01457 446.378 19.1138 476.442 27.3028 C478.638 27.901 478.552 29.7919 478 32 C477.449 34.2042 475.233 35.4479 473.065 34.7702 L473.065 34.7702 Z " />
<glyph glyph-name="ucircumflex" unicode="&#xfb;" horiz-adv-x="492" d="M271 755 C265 764 251 785 241 785 C231 785 217 764 211 755 L93.2357 572.562 C90.915 568.967 91.7126 563.739 95 561 C98.2971 558.252 103.497 558.479 106.542 561.503 L197.711 652.021 C221.605 675.743 260.395 675.743 284.289 652.021 L375.458 561.503 C378.503 558.479 383.703 558.252 387 561 C390.287 563.739 391.085 568.967 388.764 572.562 L271 755 L271 755 Z M473.065 34.7702 L461 31 C431 23 411 38 411 68 L411 438.56 C411 472.473 383.473 500 349.56 500 L273.5 500 C271.568 500 270 498.432 270 496.5 C270 494.568 271.568 493 273.5 493 L311 493 C320 493 326 487 326 478 L326 142.16 C326 138.319 322.578 121.674 320.803 118.268 C298.444 75.38 264.15 48 229 48 C186 48 157 90 157 154 L157 437.56 C157 471.473 129.473 499 95.56 499 L19.5 499 C17.5681 499 16 497.432 16 495.5 C16 493.568 17.5681 492 19.5 492 L57 492 C66 492 72 486 72 477 L72 154 C72 55 119 -11 189 -11 C231.075 -11 275.192 25.0731 308.436 83.1815 C312.964 91.0971 328 88.1963 328 79.0768 L328 20.0015 C328 8.41012 337.409 -1.11202 349 -1.25 L361.4 -1.39762 C362.695 -1.41304 376.534 0.279278 377.784 0.619026 C408.674 9.01457 446.378 19.1138 476.442 27.3028 C478.638 27.901 478.552 29.7919 478 32 C477.449 34.2042 475.233 35.4479 473.065 34.7702 L473.065 34.7702 Z " />
<glyph glyph-name="udieresis" unicode="&#xfc;" horiz-adv-x="492" d="M314 615 C347 615 369 637 369 670 C369 703 347 725 314 725 C281 725 259 703 259 670 C259 637 281 615 314 615 L314 615 Z M168 615 C201 615 223 637 223 670 C223 703 201 725 168 725 C135 725 113 703 113 670 C113 637 135 615 168 615 L168 615 Z M473.065 34.7702 L461 31 C431 23 411 38 411 68 L411 438.56 C411 472.473 383.473 500 349.56 500 L273.5 500 C271.568 500 270 498.432 270 496.5 C270 494.568 271.568 493 273.5 493 L311 493 C320 493 326 487 326 478 L326 142.16 C326 138.319 322.578 121.674 320.803 118.268 C298.444 75.38 264.15 48 229 48 C186 48 157 90 157 154 L157 437.56 C157 471.473 129.473 499 95.56 499 L19.5 499 C17.5681 499 16 497.432 16 495.5 C16 493.568 17.5681 492 19.5 492 L57 492 C66 492 72 486 72 477 L72 154 C72 55 119 -11 189 -11 C231.075 -11 275.192 25.0731 308.436 83.1815 C312.964 91.0971 328 88.1963 328 79.0768 L328 20.0015 C328 8.41012 337.409 -1.11202 349 -1.25 L361.4 -1.39762 C362.695 -1.41304 376.534 0.279278 377.784 0.619026 C408.674 9.01457 446.378 19.1138 476.442 27.3028 C478.638 27.901 478.552 29.7919 478 32 C477.449 34.2042 475.233 35.4479 473.065 34.7702 L473.065 34.7702 Z " />
<glyph glyph-name="ydieresis" unicode="&#xff;" horiz-adv-x="499" d="M349 615 C382 615 404 637 404 670 C404 703 382 725 349 725 C316 725 294 703 294 670 C294 637 316 615 349 615 L349 615 Z M204 615 C237 615 259 637 259 670 C259 703 237 725 204 725 C171 725 149 703 149 670 C149 637 171 615 204 615 L204 615 Z M487.36 500 L346.5 500 C344.568 500 343 498.432 343 496.5 C343 494.612 343.527 493.016 345.414 492.973 C374.774 492.302 388.789 479.132 381 447 L328.66 287.947 C311.859 236.892 243.245 236.593 226 287.5 L174 441 C163.275 477.075 177.266 493.187 207.632 493.97 C209.513 494.018 210 495.618 210 497.5 C210 499.432 208.432 501 206.5 501 L10.5 501 C8.5681 501 7 499.432 7 497.5 C7 495.614 7.79801 494.013 9.68305 493.968 C44.3413 493.137 70.325 476.05 83 439 L223.667 24.6026 C226.245 17.0092 226.148 -9.08254 223.213 -16.5449 C205.234 -62.25 188.5 -108.625 171 -155 C162 -178 148 -193 144 -193 C122 -193 117 -164 94 -164 C67 -164 49 -182 49 -209 C49 -239 69 -259 99 -259 C125 -259 171 -222 192 -166 L252 -9 C307 143 363 294 419 445 C433.625 477.175 457.756 492.239 490.467 492.972 C492.366 493.014 492.522 494.674 492 496.5 C491.469 498.358 489.292 500 487.36 500 L487.36 500 Z " />
<glyph glyph-name="Amacron" unicode="&#x100;" horiz-adv-x="714" d="M270.5 895 L461.5 895 C477.783 895 491 908.217 491 924.5 C491 940.783 477.783 954 461.5 954 L270.5 954 C254.217 954 241 940.783 241 924.5 C241 908.217 254.217 895 270.5 895 L270.5 895 Z M401.528 0 L706.5 0 C708.984 0 711 2.01613 711 4.5 C711 6.98386 708.984 9 706.5 9 L699 9 C655 9 614 49 596 109 C531 329 467 550 401 770 C400.24 772.532 398.643 770 396 770 C393.783 770 391.433 767.094 391.333 764.88 C390.419 744.635 362.876 727.429 319.639 720.549 C316.864 720.108 316.692 717.692 317.5 715 C317.936 713.547 315.243 696.078 314.848 694.613 C262.281 499.693 210.615 303.872 158 109 C142 49 91 9 31 9 L9.5 9 C7.01614 9 5 6.98386 5 4.5 C5 2.01613 7.01614 0 9.5 0 L257.5 0 C259.984 0 262 2.01613 262 4.5 C262 6.98386 259.984 9 257.5 9 L238 9 C178 9 149 49 165 109 L201.893 248.291 C208.353 272.68 236.055 294 261.285 294 L392.787 294 C417.294 294 445.02 273.146 451.817 249.6 L495 100 C507 45 478 9 421 9 L402.528 9 C400.044 9 397.774 6.96867 397.5 4.5 C397.226 2.03133 399.044 0 401.528 0 L401.528 0 Z M236.212 376.033 L269 501 C283.945 557.961 363.382 558.875 379.634 502.273 L415.49 377.396 C427.432 335.804 399.709 299 356.436 299 L295.64 299 C253.12 299 225.421 334.905 236.212 376.033 L236.212 376.033 Z " />
<glyph glyph-name="amacron" unicode="&#x101;" horiz-adv-x="479" d="M144.5 645 L335.5 645 C351.783 645 365 658.217 365 674.5 C365 690.783 351.783 704 335.5 704 L144.5 704 C128.217 704 115 690.783 115 674.5 C115 658.217 128.217 645 144.5 645 L144.5 645 Z M485 104.5 C482.955 105.267 480.613 103.702 480.109 101.576 C473.582 74.05 450.45 56 421 56 C389 56 367 74 367 102 L367 355 C367 462 316 510 240 510 C135 510 65 414 65 360 C65 324 85 300 114 300 C141 300 159 325 159 343 C159 361 139 385 139 403 C139 439 177 504 233 504 C287.9 504 283.67 400.32 282.275 296.478 C282.054 280.021 261.413 250.102 247.19 241.822 C109.883 161.884 44 118.525 44 88 C44 29 84 -10 145 -10 C176.5 -10 216.1 11.06 265.987 63.386 C272.706 70.434 286.345 65.04 289.968 56.001 C305.14 18.1412 339.625 -5 385 -5 C433.75 -5 475.37 35.8769 487.616 98.1666 C488.077 100.511 487.237 103.661 485 104.5 L485 104.5 Z M280.848 211.687 C280.487 154.656 279.66 116.392 280.426 95.5234 C280.578 91.3808 276.324 80.983 273.401 78.0433 C242.373 46.8344 213.975 34 189 34 C152 34 128 59 128 96 C128 150.4 163.764 186.376 237.748 232.178 C257.54 244.431 280.996 234.964 280.848 211.687 L280.848 211.687 Z " />
<glyph glyph-name="Abreve" unicode="&#x102;" horiz-adv-x="714" d="M251.34 983.083 C261.642 915.125 306.15 870 366 870 C425.85 870 471.26 914.222 480.796 981.233 C481.548 986.523 478.27 992.622 473 993.5 C468.721 994.213 463.674 990.68 462.71 986.45 C454.916 952.246 416.875 930 366 930 C315.125 930 277.94 953.102 269.483 988.225 C268.457 992.485 263.322 996.22 259 995.5 C253.746 994.624 250.541 988.35 251.34 983.083 L251.34 983.083 Z M401.528 0 L706.5 0 C708.984 0 711 2.01613 711 4.5 C711 6.98386 708.984 9 706.5 9 L699 9 C655 9 614 49 596 109 C531 329 467 550 401 770 C400.24 772.532 398.643 770 396 770 C393.783 770 391.433 767.094 391.333 764.88 C390.419 744.635 362.876 727.429 319.639 720.549 C316.864 720.108 316.692 717.692 317.5 715 C317.936 713.547 315.243 696.078 314.848 694.613 C262.281 499.693 210.615 303.872 158 109 C142 49 91 9 31 9 L9.5 9 C7.01614 9 5 6.98386 5 4.5 C5 2.01613 7.01614 0 9.5 0 L257.5 0 C259.984 0 262 2.01613 262 4.5 C262 6.98386 259.984 9 257.5 9 L238 9 C178 9 149 49 165 109 L201.893 248.291 C208.353 272.68 236.055 294 261.285 294 L392.787 294 C417.294 294 445.02 273.146 451.817 249.6 L495 100 C507 45 478 9 421 9 L402.528 9 C400.044 9 397.774 6.96867 397.5 4.5 C397.226 2.03133 399.044 0 401.528 0 L401.528 0 Z M236.212 376.033 L269 501 C283.945 557.961 363.382 558.875 379.634 502.273 L415.49 377.396 C427.432 335.804 399.709 299 356.436 299 L295.64 299 C253.12 299 225.421 334.905 236.212 376.033 L236.212 376.033 Z " />
<glyph glyph-name="abreve" unicode="&#x103;" horiz-adv-x="479" d="M125.34 733.083 C135.642 665.125 180.15 620 240 620 C299.85 620 345.26 664.222 354.796 731.233 C355.548 736.523 352.27 742.622 347 743.5 C342.721 744.213 337.674 740.68 336.71 736.45 C328.916 702.246 290.875 680 240 680 C189.125 680 151.94 703.102 143.483 738.225 C142.457 742.485 137.322 746.22 133 745.5 C127.746 744.624 124.541 738.35 125.34 733.083 L125.34 733.083 Z M485 104.5 C482.955 105.267 480.613 103.702 480.109 101.576 C473.582 74.05 450.45 56 421 56 C389 56 367 74 367 102 L367 355 C367 462 316 510 240 510 C135 510 65 414 65 360 C65 324 85 300 114 300 C141 300 159 325 159 343 C159 361 139 385 139 403 C139 439 177 504 233 504 C287.9 504 283.67 400.32 282.275 296.478 C282.054 280.021 261.413 250.102 247.19 241.822 C109.883 161.884 44 118.525 44 88 C44 29 84 -10 145 -10 C176.5 -10 216.1 11.06 265.987 63.386 C272.706 70.434 286.345 65.04 289.968 56.001 C305.14 18.1412 339.625 -5 385 -5 C433.75 -5 475.37 35.8769 487.616 98.1666 C488.077 100.511 487.237 103.661 485 104.5 L485 104.5 Z M280.848 211.687 C280.487 154.656 279.66 116.392 280.426 95.5234 C280.578 91.3808 276.324 80.983 273.401 78.0433 C242.373 46.8344 213.975 34 189 34 C152 34 128 59 128 96 C128 150.4 163.764 186.376 237.748 232.178 C257.54 244.431 280.996 234.964 280.848 211.687 L280.848 211.687 Z " />
<glyph glyph-name="Cacute" unicode="&#x106;" horiz-adv-x="699" d="M408.941 817.02 L545 932 C583 965 609 990 609 996 C609 1019 590 1038 567 1038 C561 1038 538 1011 506 971 L396.746 829.162 C394.148 825.789 394.489 820.511 397.5 817.5 C400.525 814.475 405.673 814.259 408.941 817.02 L408.941 817.02 Z M655 15 L655 203.5 C655 208.192 651.192 212 646.5 212 L641.64 212 C639.647 212 637.168 209.01 636.667 207.081 C635.111 201.099 633.556 194.444 632 189 C615 130 568 68.5 515 34.5 C476 9.5 434 -5 388 -5 C251 -5 160 147 160 375 C160 602 255 754 397 754 C517 754 604 657 632 561 C634 554 636 545 638 538 C638.531 536.142 639.708 538 641.64 538 L646.5 538 C651.192 538 655 541.808 655 546.5 L655 732 C655 734.76 652.76 737 650 737 L648.041 737 C646.299 737 644.911 736.627 644.701 734.897 C643.988 729.037 643.889 721.333 643 716 C639 684 613 680 578 706 C532 740 476 760 395 760 C188 760 50 606 50 375 C50 144 184 -10 386 -10 C467 -10 529 12 580 49 C615 71 639 65 643 32 C643.889 25.7778 643.988 18.7654 644.701 12.3676 C644.923 10.3792 646.535 10 648.536 10 L650 10 C652.76 10 655 12.2402 655 15 L655 15 Z M643 131 L643 131 L643 131 L643 131 Z " />
<glyph glyph-name="Ccircumflex" unicode="&#x108;" horiz-adv-x="699" d="M655 15 L655 203.5 C655 208.192 651.192 212 646.5 212 L641.64 212 C639.647 212 637.168 209.01 636.667 207.081 C635.111 201.099 633.556 194.444 632 189 C615 130 568 68.5 515 34.5 C476 9.5 434 -5 388 -5 C251 -5 160 147 160 375 C160 602 255 754 397 754 C517 754 604 657 632 561 C634 554 636 545 638 538 C638.531 536.142 639.708 538 641.64 538 L646.5 538 C651.192 538 655 541.808 655 546.5 L655 732 C655 734.76 652.76 737 650 737 L648.041 737 C646.299 737 644.911 736.627 644.701 734.897 C643.988 729.037 643.889 721.333 643 716 C639 684 613 680 578 706 C532 740 476 760 395 760 C188 760 50 606 50 375 C50 144 184 -10 386 -10 C467 -10 529 12 580 49 C615 71 639 65 643 32 C643.889 25.7778 643.988 18.7654 644.701 12.3676 C644.923 10.3792 646.535 10 648.536 10 L650 10 C652.76 10 655 12.2402 655 15 L655 15 Z M425 1005 C419 1014 405 1035 395 1035 C385 1035 371 1014 365 1005 L247.236 822.562 C244.915 818.967 245.713 813.739 249 811 C252.297 808.252 257.497 808.479 260.542 811.503 L351.711 902.021 C375.605 925.743 414.395 925.743 438.289 902.021 L529.458 811.503 C532.503 808.479 537.703 808.252 541 811 C544.287 813.739 545.085 818.967 542.764 822.562 L425 1005 L425 1005 Z M643 131 L643 131 L643 131 L643 131 Z " />
<glyph glyph-name="Cdot" unicode="&#x10a;" horiz-adv-x="699" d="M395 865 C428 865 450 887 450 920 C450 953 428 975 395 975 C362 975 340 953 340 920 C340 887 362 865 395 865 L395 865 Z M655 15 L655 203.5 C655 208.192 651.192 212 646.5 212 L641.64 212 C639.647 212 637.168 209.01 636.667 207.081 C635.111 201.099 633.556 194.444 632 189 C615 130 568 68.5 515 34.5 C476 9.5 434 -5 388 -5 C251 -5 160 147 160 375 C160 602 255 754 397 754 C517 754 604 657 632 561 C634 554 636 545 638 538 C638.531 536.142 639.708 538 641.64 538 L646.5 538 C651.192 538 655 541.808 655 546.5 L655 732 C655 734.76 652.76 737 650 737 L648.041 737 C646.299 737 644.911 736.627 644.701 734.897 C643.988 729.037 643.889 721.333 643 716 C639 684 613 680 578 706 C532 740 476 760 395 760 C188 760 50 606 50 375 C50 144 184 -10 386 -10 C467 -10 529 12 580 49 C615 71 639 65 643 32 C643.889 25.7778 643.988 18.7654 644.701 12.3676 C644.923 10.3792 646.535 10 648.536 10 L650 10 C652.76 10 655 12.2402 655 15 L655 15 Z M643 131 L643 131 L643 131 L643 131 Z " />
<glyph glyph-name="cdot" unicode="&#x10b;" horiz-adv-x="462" d="M281 615 C314 615 336 637 336 670 C336 703 314 725 281 725 C248 725 226 703 226 670 C226 637 248 615 281 615 L281 615 Z M411.161 93.5127 C377.052 42.3297 326.675 10 278 10 C191 10 133 115 133 273 C133 413 192 506 280 506 C298 506 325 466 347 405 C356 380 373 363 390 363 C424 363 441 380 432 405 C409 468 349 510 281 510 C139 510 45 400 45 236 C45 88 133 -10 266 -10 C319.55 -10 375.267 29.7375 413.5 92.6311 C413.546 92.7064 411.21 93.5859 411.161 93.5127 L411.161 93.5127 Z " />
<glyph glyph-name="Ccaron" unicode="&#x10c;" horiz-adv-x="699" d="M529.458 1038.5 L438.289 947.979 C414.395 924.257 375.605 924.257 351.711 947.979 L260.542 1038.5 C257.497 1041.52 252.297 1041.75 249 1039 C245.713 1036.26 244.915 1031.03 247.236 1027.44 L365 845 C371 836 385 815 395 815 C405 815 419 836 425 845 L542.764 1027.44 C545.085 1031.03 544.287 1036.26 541 1039 C537.703 1041.75 532.503 1041.52 529.458 1038.5 L529.458 1038.5 Z M655 15 L655 203.5 C655 208.192 651.192 212 646.5 212 L641.64 212 C639.647 212 637.168 209.01 636.667 207.081 C635.111 201.099 633.556 194.444 632 189 C615 130 568 68.5 515 34.5 C476 9.5 434 -5 388 -5 C251 -5 160 147 160 375 C160 602 255 754 397 754 C517 754 604 657 632 561 C634 554 636 545 638 538 C638.531 536.142 639.708 538 641.64 538 L646.5 538 C651.192 538 655 541.808 655 546.5 L655 732 C655 734.76 652.76 737 650 737 L648.041 737 C646.299 737 644.911 736.627 644.701 734.897 C643.988 729.037 643.889 721.333 643 716 C639 684 613 680 578 706 C532 740 476 760 395 760 C188 760 50 606 50 375 C50 144 184 -10 386 -10 C467 -10 529 12 580 49 C615 71 639 65 643 32 C643.889 25.7778 643.988 18.7654 644.701 12.3676 C644.923 10.3792 646.535 10 648.536 10 L650 10 C652.76 10 655 12.2402 655 15 L655 15 Z M643 131 L643 131 L643 131 L643 131 Z " />
<glyph glyph-name="ccaron" unicode="&#x10d;" horiz-adv-x="462" d="M415.458 788.497 L324.289 697.979 C300.395 674.257 261.605 674.257 237.711 697.979 L146.542 788.497 C143.497 791.521 138.297 791.748 135 789 C131.713 786.261 130.915 781.033 133.236 777.438 L251 595 C257 586 271 565 281 565 C291 565 305 586 311 595 L428.764 777.438 C431.085 781.033 430.287 786.261 427 789 C423.703 791.748 418.503 791.521 415.458 788.497 L415.458 788.497 Z M411.161 93.5127 C377.052 42.3297 326.675 10 278 10 C191 10 133 115 133 273 C133 413 192 506 280 506 C298 506 325 466 347 405 C356 380 373 363 390 363 C424 363 441 380 432 405 C409 468 349 510 281 510 C139 510 45 400 45 236 C45 88 133 -10 266 -10 C319.55 -10 375.267 29.7375 413.5 92.6311 C413.546 92.7064 411.21 93.5859 411.161 93.5127 L411.161 93.5127 Z " />
<glyph glyph-name="Dcaron" unicode="&#x10e;" horiz-adv-x="802" d="M521.707 1038.78 L429.287 947.673 C405.395 924.12 366.673 924.189 342.865 947.827 L251.275 1038.76 C248.367 1041.65 243.532 1041.76 240.5 1039 C237.505 1036.28 236.836 1031.16 239.031 1027.76 L357 845 C363 836 377 815 387 815 C397 815 411 836 417 845 L533.992 1027.74 C536.173 1031.15 535.493 1036.28 532.5 1039 C529.469 1041.76 524.624 1041.66 521.707 1038.78 L521.707 1038.78 Z M296 4 C242 4 236 23 236 51 L236 704.5 C236 727.407 254.593 746 277.5 746 L319 746 C529 746 637 598 637 375 C637 130 501 4 296 4 L296 4 Z M63.5 743 L86 743 C116 743 136 723 136 693 L136 57 C136 27 116 7 86 7 L63.5 7 C61.5681 7 60 5.4319 60 3.5 C60 1.5681 61.5681 0 63.5 0 L303 0 C569 0 747 128 747 375 C747 600 607 750 336 750 L63.5 750 C61.5681 750 60 748.432 60 746.5 C60 744.568 61.5681 743 63.5 743 L63.5 743 Z " />
<glyph glyph-name="dcaron" unicode="&#x10f;" horiz-adv-x="558" d="M550 758 C533 758 524 695 521 650 L513.55 546.629 C513.249 542.451 516.393 538.321 520.5 537.5 C524.598 536.68 529.153 539.272 530.542 543.214 L565 641 C579 679 588 721 588 746 C588 755 573 758 550 758 L550 758 Z M329.536 717 L337 717 C364 718 382 702 382 675 L382 448.53 C382 441.103 370.033 438.97 365.651 444.966 C337.519 483.456 298.6 510 259 510 C118 510 45 406 45 251 C45 97 122 -5 238 -5 C280.9 -5 326.523 15.4187 360.83 48.395 C367.395 54.7056 381 51.2056 381 42.0993 L381 21.0015 C381 9.41012 390.409 -0.112017 402 -0.25 L414.253 -0.395869 C415.581 -0.411681 429.996 1.43677 431.276 1.78966 C465.05 11.0968 506.397 22.0644 539.28 30.3185 C541.095 30.7743 542 32.6281 542 34.5 C542 36.3655 540.422 37.5751 538.62 37.0901 L516 31 C486 23 466 38 466 68 L466 729 C466 740.591 456.591 750 445 750 L431.734 750 C430.676 750 417.532 748.345 416.507 748.083 L381 739 C381 736 328 725 325 724 L325.5 720.5 C325.773 718.588 327.604 717 329.536 717 L329.536 717 Z M381 365.836 L381 96.8215 C381 87.0553 376.309 72.1153 368.985 65.6554 C344.123 43.7275 307.7 30 272 30 C187 30 131 128 131 274 C131 401 178 485 268 485 C313.6 485 358.298 438.972 378.086 383.785 C378.758 381.911 381 367.826 381 365.836 L381 365.836 Z " />
<glyph glyph-name="Emacron" unicode="&#x112;" horiz-adv-x="606" d="M228.5 895 L420.5 895 C436.783 895 450 908.217 450 924.5 C450 940.783 436.783 954 420.5 954 L228.5 954 C212.217 954 199 940.783 199 924.5 C199 908.217 212.217 895 228.5 895 L228.5 895 Z M453 265 L453 510 C453 513.312 450.312 516 447 516 C443.737 516 440.531 513.303 439.972 510.089 L433 470 C425 422 389 390 341 390 L288.5 390 C259.522 390 236 413.522 236 442.5 L236 683.56 C236 717.473 263.527 745 297.44 745 L402 745 C450 745 490 713 504 665 L515.368 624.774 C516.235 621.707 519.813 619 523 619 C526.312 619 528.713 621.807 528.356 625.099 C524.775 658.137 518.927 699.029 514.958 733.414 C513.741 743.953 504.257 749.019 493.648 749.041 L43.5 749.993 C41.5681 749.997 40 748.432 40 746.5 C40 744.568 41.5681 743 43.5 743 L66 743 C108 743 136 715 136 673 L136 77 C136 35 108 7 66 7 L43.5 7 C41.5681 7 40 5.4319 40 3.5 C40 1.56811 41.5681 0.00314881 43.5 0.0070281 L519.663 0.963179 C529.703 0.983339 539.379 8.057 541.207 17.929 C546.993 49.177 553.131 85.801 558.085 115.513 C558.623 118.735 556.267 121 553 121 C549.877 121 546.042 118.287 545.003 115.342 L541 104 C521 45 465 5 402 5 L287 5 C241 5 236 23 236 51 L236 332.5 C236 361.478 259.522 385 288.5 385 L341 385 C389 385 425 353 433 305 L439.972 264.911 C440.531 261.697 443.737 259 447 259 C450.312 259 453 261.688 453 265 L453 265 Z " />
<glyph glyph-name="emacron" unicode="&#x113;" horiz-adv-x="494" d="M180.5 645 L371.5 645 C387.783 645 401 658.217 401 674.5 C401 690.783 387.783 704 371.5 704 L180.5 704 C164.217 704 151 690.783 151 674.5 C151 658.217 164.217 645 180.5 645 L180.5 645 Z M150.102 340 L402.016 340 C441.143 340 462.492 361.014 448.082 397.391 C416.415 477.33 354.375 510 276 510 C137 510 45 432 45 231 C45 86 129 -10 255 -10 C325.55 -10 389.959 31.905 427.346 97.9054 C427.374 97.9545 426.287 98.5417 426.256 98.4943 C391.515 45.0312 329.65 11 262 11 C186 11 135 113 135 266 C135 288.781 135.712 310.139 137.736 329.472 C138.391 335.726 143.813 340 150.102 340 L150.102 340 Z M310.058 345.743 L197.987 345.253 C161.954 345.096 140.871 364.606 151.091 399.159 C173.432 474.691 218.25 506 276 506 C307.35 506 336.318 475.712 357.288 399.976 C366.485 366.762 344.52 345.893 310.058 345.743 L310.058 345.743 Z " />
<glyph glyph-name="Ebreve" unicode="&#x114;" horiz-adv-x="606" d="M209.34 983.083 C219.645 915.125 264.2 870 325 870 C384.85 870 430.26 914.222 439.796 981.233 C440.548 986.523 437.27 992.622 432 993.5 C427.721 994.213 422.674 990.68 421.71 986.45 C413.916 952.246 375.875 930 325 930 C273.2 930 235.946 953.102 227.483 988.225 C226.457 992.484 221.321 996.22 217 995.5 C211.745 994.624 208.541 988.35 209.34 983.083 L209.34 983.083 Z M453 265 L453 510 C453 513.312 450.312 516 447 516 C443.737 516 440.531 513.303 439.972 510.089 L433 470 C425 422 389 390 341 390 L288.5 390 C259.522 390 236 413.522 236 442.5 L236 683.56 C236 717.473 263.527 745 297.44 745 L402 745 C450 745 490 713 504 665 L515.368 624.774 C516.235 621.707 519.813 619 523 619 C526.312 619 528.713 621.807 528.356 625.099 C524.775 658.137 518.927 699.029 514.958 733.414 C513.741 743.953 504.257 749.019 493.648 749.041 L43.5 749.993 C41.5681 749.997 40 748.432 40 746.5 C40 744.568 41.5681 743 43.5 743 L66 743 C108 743 136 715 136 673 L136 77 C136 35 108 7 66 7 L43.5 7 C41.5681 7 40 5.4319 40 3.5 C40 1.56811 41.5681 0.00314881 43.5 0.0070281 L519.663 0.963179 C529.703 0.983339 539.379 8.057 541.207 17.929 C546.993 49.177 553.131 85.801 558.085 115.513 C558.623 118.735 556.267 121 553 121 C549.877 121 546.042 118.287 545.003 115.342 L541 104 C521 45 465 5 402 5 L287 5 C241 5 236 23 236 51 L236 332.5 C236 361.478 259.522 385 288.5 385 L341 385 C389 385 425 353 433 305 L439.972 264.911 C440.531 261.697 443.737 259 447 259 C450.312 259 453 261.688 453 265 L453 265 Z " />
<glyph glyph-name="ebreve" unicode="&#x115;" horiz-adv-x="494" d="M161.34 733.083 C171.642 665.125 216.15 620 276 620 C335.85 620 381.26 664.222 390.796 731.233 C391.548 736.523 388.27 742.622 383 743.5 C378.721 744.213 373.674 740.68 372.71 736.45 C364.916 702.246 326.875 680 276 680 C225.125 680 187.94 703.102 179.483 738.225 C178.457 742.485 173.322 746.22 169 745.5 C163.746 744.624 160.541 738.35 161.34 733.083 L161.34 733.083 Z M150.102 340 L402.016 340 C441.143 340 462.492 361.014 448.082 397.391 C416.415 477.33 354.375 510 276 510 C137 510 45 432 45 231 C45 86 129 -10 255 -10 C325.55 -10 389.959 31.905 427.346 97.9054 C427.374 97.9545 426.287 98.5417 426.256 98.4943 C391.515 45.0312 329.65 11 262 11 C186 11 135 113 135 266 C135 288.781 135.712 310.139 137.736 329.472 C138.391 335.726 143.813 340 150.102 340 L150.102 340 Z M310.058 345.743 L197.987 345.253 C161.954 345.096 140.871 364.606 151.091 399.159 C173.432 474.691 218.25 506 276 506 C307.35 506 336.318 475.712 357.288 399.976 C366.485 366.762 344.52 345.893 310.058 345.743 L310.058 345.743 Z " />
<glyph glyph-name="Edot" unicode="&#x116;" horiz-adv-x="606" d="M325 865 C358 865 380 887 380 920 C380 953 358 975 325 975 C292 975 270 953 270 920 C270 887 292 865 325 865 L325 865 Z M453 265 L453 510 C453 513.312 450.312 516 447 516 C443.737 516 440.531 513.303 439.972 510.089 L433 470 C425 422 389 390 341 390 L288.5 390 C259.522 390 236 413.522 236 442.5 L236 683.56 C236 717.473 263.527 745 297.44 745 L402 745 C450 745 490 713 504 665 L515.368 624.774 C516.235 621.707 519.813 619 523 619 C526.312 619 528.713 621.807 528.356 625.099 C524.775 658.137 518.927 699.029 514.958 733.414 C513.741 743.953 504.257 749.019 493.648 749.041 L43.5 749.993 C41.5681 749.997 40 748.432 40 746.5 C40 744.568 41.5681 743 43.5 743 L66 743 C108 743 136 715 136 673 L136 77 C136 35 108 7 66 7 L43.5 7 C41.5681 7 40 5.4319 40 3.5 C40 1.56811 41.5681 0.00314881 43.5 0.0070281 L519.663 0.963179 C529.703 0.983339 539.379 8.057 541.207 17.929 C546.993 49.177 553.131 85.801 558.085 115.513 C558.623 118.735 556.267 121 553 121 C549.877 121 546.042 118.287 545.003 115.342 L541 104 C521 45 465 5 402 5 L287 5 C241 5 236 23 236 51 L236 332.5 C236 361.478 259.522 385 288.5 385 L341 385 C389 385 425 353 433 305 L439.972 264.911 C440.531 261.697 443.737 259 447 259 C450.312 259 453 261.688 453 265 L453 265 Z " />
<glyph glyph-name="edot" unicode="&#x117;" horiz-adv-x="494" d="M276 615 C309 615 331 637 331 670 C331 703 309 725 276 725 C243 725 221 703 221 670 C221 637 243 615 276 615 L276 615 Z M150.102 340 L402.016 340 C441.143 340 462.492 361.014 448.082 397.391 C416.415 477.33 354.375 510 276 510 C137 510 45 432 45 231 C45 86 129 -10 255 -10 C325.55 -10 389.959 31.905 427.346 97.9054 C427.374 97.9545 426.287 98.5417 426.256 98.4943 C391.515 45.0312 329.65 11 262 11 C186 11 135 113 135 266 C135 288.781 135.712 310.139 137.736 329.472 C138.391 335.726 143.813 340 150.102 340 L150.102 340 Z M310.058 345.743 L197.987 345.253 C161.954 345.096 140.871 364.606 151.091 399.159 C173.432 474.691 218.25 506 276 506 C307.35 506 336.318 475.712 357.288 399.976 C366.485 366.762 344.52 345.893 310.058 345.743 L310.058 345.743 Z " />
<glyph glyph-name="Ecaron" unicode="&#x11a;" horiz-adv-x="606" d="M459.707 1038.78 L367.287 947.673 C343.395 924.12 304.673 924.189 280.865 947.827 L189.275 1038.76 C186.367 1041.65 181.532 1041.76 178.5 1039 C175.505 1036.28 174.836 1031.16 177.031 1027.76 L295 845 C301 836 315 815 325 815 C335 815 349 836 355 845 L471.992 1027.74 C474.173 1031.15 473.493 1036.28 470.5 1039 C467.469 1041.76 462.624 1041.66 459.707 1038.78 L459.707 1038.78 Z M453 265 L453 510 C453 513.312 450.312 516 447 516 C443.737 516 440.531 513.303 439.972 510.089 L433 470 C425 422 389 390 341 390 L288.5 390 C259.522 390 236 413.522 236 442.5 L236 683.56 C236 717.473 263.527 745 297.44 745 L402 745 C450 745 490 713 504 665 L515.368 624.774 C516.235 621.707 519.813 619 523 619 C526.312 619 528.713 621.807 528.356 625.099 C524.775 658.137 518.927 699.029 514.958 733.414 C513.741 743.953 504.257 749.019 493.648 749.041 L43.5 749.993 C41.5681 749.997 40 748.432 40 746.5 C40 744.568 41.5681 743 43.5 743 L66 743 C108 743 136 715 136 673 L136 77 C136 35 108 7 66 7 L43.5 7 C41.5681 7 40 5.4319 40 3.5 C40 1.56811 41.5681 0.00314881 43.5 0.0070281 L519.663 0.963179 C529.703 0.983339 539.379 8.057 541.207 17.929 C546.993 49.177 553.131 85.801 558.085 115.513 C558.623 118.735 556.267 121 553 121 C549.877 121 546.042 118.287 545.003 115.342 L541 104 C521 45 465 5 402 5 L287 5 C241 5 236 23 236 51 L236 332.5 C236 361.478 259.522 385 288.5 385 L341 385 C389 385 425 353 433 305 L439.972 264.911 C440.531 261.697 443.737 259 447 259 C450.312 259 453 261.688 453 265 L453 265 Z " />
<glyph glyph-name="ecaron" unicode="&#x11b;" horiz-adv-x="494" d="M410.458 788.497 L319.289 697.979 C295.395 674.257 256.605 674.257 232.711 697.979 L141.542 788.497 C138.497 791.521 133.297 791.748 130 789 C126.713 786.261 125.915 781.033 128.236 777.438 L246 595 C252 586 266 565 276 565 C286 565 300 586 306 595 L423.764 777.438 C426.085 781.033 425.287 786.261 422 789 C418.703 791.748 413.503 791.521 410.458 788.497 L410.458 788.497 Z M150.102 340 L402.016 340 C441.143 340 462.492 361.014 448.082 397.391 C416.415 477.33 354.375 510 276 510 C137 510 45 432 45 231 C45 86 129 -10 255 -10 C325.55 -10 389.959 31.905 427.346 97.9054 C427.374 97.9545 426.287 98.5417 426.256 98.4943 C391.515 45.0312 329.65 11 262 11 C186 11 135 113 135 266 C135 288.781 135.712 310.139 137.736 329.472 C138.391 335.726 143.813 340 150.102 340 L150.102 340 Z M310.058 345.743 L197.987 345.253 C161.954 345.096 140.871 364.606 151.091 399.159 C173.432 474.691 218.25 506 276 506 C307.35 506 336.318 475.712 357.288 399.976 C366.485 366.762 344.52 345.893 310.058 345.743 L310.058 345.743 Z " />
<glyph glyph-name="Gcircumflex" unicode="&#x11c;" horiz-adv-x="773" d="M655 547.5 L655 732 C655 734.76 652.76 737 650 737 L648.041 737 C646.299 737 644.911 736.627 644.701 734.897 C643.988 729.037 643.889 721.333 643 716 C639 684 613 680 578 706 C532 740 476 760 395 760 C188 760 50 606 50 375 C50 144 189 -10 397 -10 C533.8 -10 623.67 13.0137 699.19 47.038 C699.301 47.0879 701.747 48.6151 701.634 48.5708 C687.492 43.03 671.573 38.3982 653.876 33.7866 C646.34 31.8229 639 36.6434 639 44.4309 L639 231 C639 282 668 316 712 316 L720.5 316 C722.984 316 725 318.016 725 320.5 C725 322.984 722.984 325 720.5 325 L457.5 325 C455.016 325 453 322.984 453 320.5 C453 318.016 455.016 316 457.5 316 L466 316 C510 316 539 282 539 231 C540 231 540 116 540 105 C538 48 487 10 411 10 C259 10 158 156 158 375 C158 602 253 754 395 754 C515 754 602 657 630 561 C632 554 634 545 636 538 C636.531 536.142 637.708 538 639.64 538 L645.5 538 C650.744 538 655 542.256 655 547.5 L655 547.5 Z M423 1005 C417 1014 403 1035 393 1035 C383 1035 369 1014 363 1005 L245.236 822.562 C242.915 818.967 243.713 813.739 247 811 C250.297 808.252 255.497 808.479 258.542 811.503 L349.711 902.021 C373.605 925.743 412.395 925.743 436.289 902.021 L527.458 811.503 C530.503 808.479 535.703 808.252 539 811 C542.287 813.739 543.085 818.967 540.764 822.562 L423 1005 L423 1005 Z " />
<glyph glyph-name="Gbreve" unicode="&#x11e;" horiz-adv-x="773" d="M280.34 983.083 C290.642 915.125 335.15 870 395 870 C454.85 870 500.26 914.222 509.796 981.233 C510.548 986.523 507.27 992.622 502 993.5 C497.721 994.213 492.674 990.68 491.71 986.45 C483.916 952.246 445.875 930 395 930 C344.125 930 306.94 953.102 298.483 988.225 C297.457 992.485 292.322 996.22 288 995.5 C282.746 994.624 279.541 988.35 280.34 983.083 L280.34 983.083 Z M655 547.5 L655 732 C655 734.76 652.76 737 650 737 L648.041 737 C646.299 737 644.911 736.627 644.701 734.897 C643.988 729.037 643.889 721.333 643 716 C639 684 613 680 578 706 C532 740 476 760 395 760 C188 760 50 606 50 375 C50 144 189 -10 397 -10 C533.8 -10 623.67 13.0137 699.19 47.038 C699.301 47.0879 701.747 48.6151 701.634 48.5708 C687.492 43.03 671.573 38.3982 653.876 33.7866 C646.34 31.8229 639 36.6434 639 44.4309 L639 231 C639 282 668 316 712 316 L720.5 316 C722.984 316 725 318.016 725 320.5 C725 322.984 722.984 325 720.5 325 L457.5 325 C455.016 325 453 322.984 453 320.5 C453 318.016 455.016 316 457.5 316 L466 316 C510 316 539 282 539 231 C540 231 540 116 540 105 C538 48 487 10 411 10 C259 10 158 156 158 375 C158 602 253 754 395 754 C515 754 602 657 630 561 C632 554 634 545 636 538 C636.531 536.142 637.708 538 639.64 538 L645.5 538 C650.744 538 655 542.256 655 547.5 L655 547.5 Z " />
<glyph glyph-name="gbreve" unicode="&#x11f;" horiz-adv-x="487" d="M124.34 733.083 C134.642 665.125 179.15 620 239 620 C298.85 620 344.26 664.222 353.796 731.233 C354.548 736.523 351.27 742.622 346 743.5 C341.721 744.213 336.674 740.68 335.71 736.45 C327.916 702.246 289.875 680 239 680 C188.125 680 150.94 703.102 142.483 738.225 C141.457 742.485 136.322 746.22 132 745.5 C126.746 744.624 123.541 738.35 124.34 733.083 L124.34 733.083 Z M508 479 C508 510 486 530 453 530 C424.95 530 394.01 511.215 370.62 481.014 C365.334 474.19 349.553 472.97 342.607 478.096 C315.055 498.429 279.25 510 238 510 C140 510 74 446 74 350 C74 279.875 108.712 226.766 165.221 202.464 C169.754 200.514 170.226 187.355 165.362 186.521 C96.905 174.785 55 144.95 55 105 C55 61.275 76.78 27.7594 112.479 11.1913 C118.309 8.48561 118.985 -3.91338 113.204 -6.72112 C71.01 -27.2125 45 -59.3 45 -95 C45 -176 127 -230 249 -230 C371 -230 452 -165 452 -68 C452 23 404 84 281 84 L171 84 C131 84 104 102 104 130 C104 165 158 188 239 188 C337 188 402 253 402 350 C402 391.625 390.021 427.261 368.438 454.533 C365.75 457.929 364.499 462.819 367.76 465.67 C377.223 473.942 389.25 479 402 479 C423 479 450 444 471 444 C493 444 507.5 458 507.5 480 L508 479 Z M238 194 C191 194 159 257 159 352 C159 446 191 508 238 508 C285 508 316 446 316 352 C316 257 285 194 238 194 L238 194 Z M156 2.5 L165 2 L270 2 C348 2 379 -33 379 -86 C379 -169 327 -224 248 -224 C168 -224 114 -164 114 -73 C114 -43.359 123.5 -18.2781 139.188 -3.05809 C142.511 0.166092 151.377 2.75684 156 2.5 L156 2.5 Z " />
<glyph glyph-name="Gdot" unicode="&#x120;" horiz-adv-x="773" d="M395 865 C428 865 450 887 450 920 C450 953 428 975 395 975 C362 975 340 953 340 920 C340 887 362 865 395 865 L395 865 Z M655 547.5 L655 732 C655 734.76 652.76 737 650 737 L648.041 737 C646.299 737 644.911 736.627 644.701 734.897 C643.988 729.037 643.889 721.333 643 716 C639 684 613 680 578 706 C532 740 476 760 395 760 C188 760 50 606 50 375 C50 144 189 -10 397 -10 C533.8 -10 623.67 13.0137 699.19 47.038 C699.301 47.0879 701.747 48.6151 701.634 48.5708 C687.492 43.03 671.573 38.3982 653.876 33.7866 C646.34 31.8229 639 36.6434 639 44.4309 L639 231 C639 282 668 316 712 316 L720.5 316 C722.984 316 725 318.016 725 320.5 C725 322.984 722.984 325 720.5 325 L457.5 325 C455.016 325 453 322.984 453 320.5 C453 318.016 455.016 316 457.5 316 L466 316 C510 316 539 282 539 231 C540 231 540 116 540 105 C538 48 487 10 411 10 C259 10 158 156 158 375 C158 602 253 754 395 754 C515 754 602 657 630 561 C632 554 634 545 636 538 C636.531 536.142 637.708 538 639.64 538 L645.5 538 C650.744 538 655 542.256 655 547.5 L655 547.5 Z " />
<glyph glyph-name="gdot" unicode="&#x121;" horiz-adv-x="487" d="M239 615 C272 615 294 637 294 670 C294 703 272 725 239 725 C206 725 184 703 184 670 C184 637 206 615 239 615 L239 615 Z M508 479 C508 510 486 530 453 530 C424.95 530 394.01 511.215 370.62 481.014 C365.334 474.19 349.553 472.97 342.607 478.096 C315.055 498.429 279.25 510 238 510 C140 510 74 446 74 350 C74 279.875 108.712 226.766 165.221 202.464 C169.754 200.514 170.226 187.355 165.362 186.521 C96.905 174.785 55 144.95 55 105 C55 61.275 76.78 27.7594 112.479 11.1913 C118.309 8.48561 118.985 -3.91338 113.204 -6.72112 C71.01 -27.2125 45 -59.3 45 -95 C45 -176 127 -230 249 -230 C371 -230 452 -165 452 -68 C452 23 404 84 281 84 L171 84 C131 84 104 102 104 130 C104 165 158 188 239 188 C337 188 402 253 402 350 C402 391.625 390.021 427.261 368.438 454.533 C365.75 457.929 364.499 462.819 367.76 465.67 C377.223 473.942 389.25 479 402 479 C423 479 450 444 471 444 C493 444 507.5 458 507.5 480 L508 479 Z M238 194 C191 194 159 257 159 352 C159 446 191 508 238 508 C285 508 316 446 316 352 C316 257 285 194 238 194 L238 194 Z M156 2.5 L165 2 L270 2 C348 2 379 -33 379 -86 C379 -169 327 -224 248 -224 C168 -224 114 -164 114 -73 C114 -43.359 123.5 -18.2781 139.188 -3.05809 C142.511 0.166092 151.377 2.75684 156 2.5 L156 2.5 Z " />
<glyph glyph-name="Hcircumflex" unicode="&#x124;" horiz-adv-x="804" d="M450 1005 C444 1014 430 1035 420 1035 C410 1035 396 1014 390 1005 L272.236 822.562 C269.915 818.967 270.713 813.739 274 811 C277.297 808.252 282.497 808.479 285.542 811.503 L376.711 902.021 C400.605 925.743 439.395 925.743 463.289 902.021 L554.458 811.503 C557.503 808.479 562.703 808.252 566 811 C569.287 813.739 570.085 818.967 567.764 822.562 L450 1005 L450 1005 Z M740.5 7 L718 7 C688 7 668 27 668 57 L668 693 C668 723 688 743 718 743 L740.5 743 C742.432 743 744 744.568 744 746.5 C744 748.432 742.432 750 740.5 750 L495.5 750 C493.568 750 492 748.432 492 746.5 C492 744.568 493.568 743 495.5 743 L518 743 C548 743 568 723 568 693 L568 450.44 C568 416.527 540.473 389 506.56 389 L333.44 389 C299.527 389 272 416.527 272 450.44 L272 693 C272 723 292 743 322 743 L344.5 743 C346.432 743 348 744.568 348 746.5 C348 748.432 346.432 750 344.5 750 L99.5 750 C97.5681 750 96 748.432 96 746.5 C96 744.568 97.5681 743 99.5 743 L122 743 C152 743 172 723 172 693 L172 57 C172 27 152 7 122 7 L99.5 7 C97.5681 7 96 5.4319 96 3.5 C96 1.5681 97.5681 0 99.5 0 L344.5 0 C346.432 0 348 1.5681 348 3.5 C348 5.4319 346.432 7 344.5 7 L322 7 C292 7 272 27 272 57 L272 321.56 C272 355.473 299.527 383 333.44 383 L506.56 383 C540.473 383 568 355.473 568 321.56 L568 57 C568 27 548 7 518 7 L495.5 7 C493.568 7 492 5.4319 492 3.5 C492 1.5681 493.568 0 495.5 0 L740.5 0 C742.432 0 744 1.5681 744 3.5 C744 5.4319 742.432 7 740.5 7 L740.5 7 Z " />
<glyph glyph-name="Itilde" unicode="&#x128;" horiz-adv-x="367" d="M59.1349 887.404 L63.1123 886.979 C63.1123 886.979 62.3877 888.598 62.3877 888.598 C66.4294 914.028 79.0526 930 97 930 C140 930 198 865 241 865 C276.15 865 298.893 906.07 302.107 969.215 C302.107 969.215 303.473 967.768 303.473 967.768 L299.507 968.292 C299.507 968.292 300.872 966.845 300.872 966.845 C296.009 941.158 280.692 925 261 925 C218 925 160 990 116 990 C83.625 990 62.8009 948.93 59.8594 885.785 C59.8594 885.785 59.1349 887.404 59.1349 887.404 L63.1123 886.979 C63.1123 886.979 62.3877 888.598 62.3877 888.598 L59.1349 887.404 Z M303.5 7 L281 7 C251 7 231 27 231 57 L231 693 C231 723 251 743 281 743 L303.5 743 C305.432 743 307 744.568 307 746.5 C307 748.432 305.432 750 303.5 750 L58.5 750 C56.5681 750 55 748.432 55 746.5 C55 744.568 56.5681 743 58.5 743 L81 743 C111 743 131 723 131 693 L131 57 C131 27 111 7 81 7 L58.5 7 C56.5681 7 55 5.4319 55 3.5 C55 1.5681 56.5681 0 58.5 0 L303.5 0 C305.432 0 307 1.5681 307 3.5 C307 5.4319 305.432 7 303.5 7 L303.5 7 Z " />
<glyph glyph-name="itilde" unicode="&#x129;" horiz-adv-x="302" d="M36.1889 637.416 L40.1636 636.967 C40.1636 636.967 39.477 638.598 39.477 638.598 C43.7639 664.028 57.0526 680 75 680 C118 680 175 615 218 615 C253.15 615 276.749 656.07 280.091 719.215 C280.091 719.215 281.502 717.986 281.502 717.986 L277.535 718.496 C277.535 718.496 278.946 717.267 278.946 717.267 C274.145 691.335 258.625 675 238 675 C195 675 137 740 94 740 C61.625 740 39.9453 698.93 36.8755 635.785 C36.8755 635.785 36.1889 637.416 36.1889 637.416 L40.1636 636.967 C40.1636 636.967 39.477 638.598 39.477 638.598 L36.1889 637.416 Z M63.3804 467.907 L101 478 C110 481 116 476 116 467 L116 22 C116 13 110 7 101 7 L63.5 7 C61.5681 7 60 5.4319 60 3.5 C60 1.5681 61.5681 0 63.5 0 L253.5 0 C255.432 0 257 1.5681 257 3.5 C257 5.4319 255.432 7 253.5 7 L216 7 C207 7 201 13 201 22 L201 478.999 C201 490.59 191.591 500.112 180 500.25 L167.453 500.399 C166.193 500.414 152.052 498.64 150.834 498.314 L63.381 474.905 C61.5782 474.422 60 472.366 60 470.5 C60 468.634 61.5783 467.423 63.3804 467.907 L63.3804 467.907 Z " />
<glyph glyph-name="Imacron" unicode="&#x12a;" horiz-adv-x="367" d="M85.5 895 L276.5 895 C292.783 895 306 908.217 306 924.5 C306 940.783 292.783 954 276.5 954 L85.5 954 C69.2169 954 56 940.783 56 924.5 C56 908.217 69.2169 895 85.5 895 L85.5 895 Z M303.5 7 L281 7 C251 7 231 27 231 57 L231 693 C231 723 251 743 281 743 L303.5 743 C305.432 743 307 744.568 307 746.5 C307 748.432 305.432 750 303.5 750 L58.5 750 C56.5681 750 55 748.432 55 746.5 C55 744.568 56.5681 743 58.5 743 L81 743 C111 743 131 723 131 693 L131 57 C131 27 111 7 81 7 L58.5 7 C56.5681 7 55 5.4319 55 3.5 C55 1.5681 56.5681 0 58.5 0 L303.5 0 C305.432 0 307 1.5681 307 3.5 C307 5.4319 305.432 7 303.5 7 L303.5 7 Z " />
<glyph glyph-name="imacron" unicode="&#x12b;" horiz-adv-x="302" d="M62.5 645 L254.5 645 C270.783 645 284 658.217 284 674.5 C284 690.783 270.783 704 254.5 704 L62.5 704 C46.2169 704 33 690.783 33 674.5 C33 658.217 46.2169 645 62.5 645 L62.5 645 Z M63.3804 467.907 L101 478 C110 481 116 476 116 467 L116 22 C116 13 110 7 101 7 L63.5 7 C61.5681 7 60 5.4319 60 3.5 C60 1.5681 61.5681 0 63.5 0 L253.5 0 C255.432 0 257 1.5681 257 3.5 C257 5.4319 255.432 7 253.5 7 L216 7 C207 7 201 13 201 22 L201 478.999 C201 490.59 191.591 500.112 180 500.25 L167.453 500.399 C166.193 500.414 152.052 498.64 150.834 498.314 L63.381 474.905 C61.5782 474.422 60 472.366 60 470.5 C60 468.634 61.5783 467.423 63.3804 467.907 L63.3804 467.907 Z " />
<glyph glyph-name="Ibreve" unicode="&#x12c;" horiz-adv-x="367" d="M66.3397 983.083 C76.6425 915.125 121.15 870 181 870 C240.85 870 286.26 914.222 295.796 981.233 C296.548 986.523 293.27 992.622 288 993.5 C283.721 994.213 278.674 990.68 277.71 986.45 C269.916 952.246 231.875 930 181 930 C130.125 930 92.94 953.102 84.4826 988.225 C83.4569 992.485 78.3219 996.22 74 995.5 C68.7456 994.624 65.5413 988.35 66.3397 983.083 L66.3397 983.083 Z M303.5 7 L281 7 C251 7 231 27 231 57 L231 693 C231 723 251 743 281 743 L303.5 743 C305.432 743 307 744.568 307 746.5 C307 748.432 305.432 750 303.5 750 L58.5 750 C56.5681 750 55 748.432 55 746.5 C55 744.568 56.5681 743 58.5 743 L81 743 C111 743 131 723 131 693 L131 57 C131 27 111 7 81 7 L58.5 7 C56.5681 7 55 5.4319 55 3.5 C55 1.5681 56.5681 0 58.5 0 L303.5 0 C305.432 0 307 1.5681 307 3.5 C307 5.4319 305.432 7 303.5 7 L303.5 7 Z " />
<glyph glyph-name="ibreve" unicode="&#x12d;" horiz-adv-x="302" d="M43.3399 733.083 C53.645 665.125 98.2 620 159 620 C218.85 620 264.26 664.222 273.796 731.233 C274.548 736.523 271.27 742.622 266 743.5 C261.721 744.213 256.674 740.68 255.71 736.45 C247.916 702.246 209.875 680 159 680 C107.2 680 69.9456 703.102 61.483 738.225 C60.4569 742.484 55.3213 746.22 51 745.5 C45.7455 744.624 42.5412 738.35 43.3399 733.083 L43.3399 733.083 Z M63.3804 467.907 L101 478 C110 481 116 476 116 467 L116 22 C116 13 110 7 101 7 L63.5 7 C61.5681 7 60 5.4319 60 3.5 C60 1.5681 61.5681 0 63.5 0 L253.5 0 C255.432 0 257 1.5681 257 3.5 C257 5.4319 255.432 7 253.5 7 L216 7 C207 7 201 13 201 22 L201 478.999 C201 490.59 191.591 500.112 180 500.25 L167.453 500.399 C166.193 500.414 152.052 498.64 150.834 498.314 L63.381 474.905 C61.5782 474.422 60 472.366 60 470.5 C60 468.634 61.5783 467.423 63.3804 467.907 L63.3804 467.907 Z " />
<glyph glyph-name="Idot" unicode="&#x130;" horiz-adv-x="367" d="M181 865 C214 865 236 887 236 920 C236 953 214 975 181 975 C148 975 126 953 126 920 C126 887 148 865 181 865 L181 865 Z M303.5 7 L281 7 C251 7 231 27 231 57 L231 693 C231 723 251 743 281 743 L303.5 743 C305.432 743 307 744.568 307 746.5 C307 748.432 305.432 750 303.5 750 L58.5 750 C56.5681 750 55 748.432 55 746.5 C55 744.568 56.5681 743 58.5 743 L81 743 C111 743 131 723 131 693 L131 57 C131 27 111 7 81 7 L58.5 7 C56.5681 7 55 5.4319 55 3.5 C55 1.5681 56.5681 0 58.5 0 L303.5 0 C305.432 0 307 1.5681 307 3.5 C307 5.4319 305.432 7 303.5 7 L303.5 7 Z " />
<glyph glyph-name="dotlessi" unicode="&#x131;" horiz-adv-x="302" d="M63.3804 467.907 L101 478 C110 481 116 476 116 467 L116 22 C116 13 110 7 101 7 L63.5 7 C61.5681 7 60 5.4319 60 3.5 C60 1.5681 61.5681 0 63.5 0 L253.5 0 C255.432 0 257 1.5681 257 3.5 C257 5.4319 255.432 7 253.5 7 L216 7 C207 7 201 13 201 22 L201 478.999 C201 490.59 191.591 500.112 180 500.25 L167.453 500.399 C166.193 500.414 152.052 498.64 150.834 498.314 L63.381 474.905 C61.5782 474.422 60 472.366 60 470.5 C60 468.634 61.5783 467.423 63.3804 467.907 L63.3804 467.907 Z " />
<glyph glyph-name="Jcircumflex" unicode="&#x134;" horiz-adv-x="367" d="M211 1005 C205 1014 191 1035 181 1035 C171 1035 157 1014 151 1005 L33.2357 822.562 C30.915 818.967 31.7126 813.739 35 811 C38.2971 808.252 43.4968 808.479 46.5424 811.503 L137.711 902.021 C161.605 925.743 200.395 925.743 224.289 902.021 L315.458 811.503 C318.503 808.479 323.703 808.252 327 811 C330.287 813.739 331.085 818.967 328.764 822.562 L211 1005 L211 1005 Z M303.5 750 L58.5 750 C56.5681 750 55 748.432 55 746.5 C55 744.568 56.5681 743 58.5 743 L81 743 C111 743 131 723 131 693 L131 -72 C131 -190 66 -212 19 -212 C-30 -212 -6 -132 -56 -132 C-83 -132 -101 -150 -101 -177 C-101 -203 -55 -220 13 -220 C105 -220 231 -166 231 116 L231 693 C231 723 251 743 281 743 L303.5 743 C305.432 743 307 744.568 307 746.5 C307 748.432 305.432 750 303.5 750 L303.5 750 Z " />
<glyph glyph-name="Lacute" unicode="&#x139;" horiz-adv-x="591" d="M194.941 817.02 L331 932 C369 965 395 990 395 996 C395 1019 376 1038 353 1038 C347 1038 324 1011 292 971 L182.746 829.162 C180.148 825.789 180.489 820.511 183.5 817.5 C186.525 814.475 191.673 814.259 194.941 817.02 L194.941 817.02 Z M303 750 L58.5 750 C56.5681 750 55 748.432 55 746.5 C55 744.568 56.5681 743 58.5 743 L81 743 C111 743 131 723 131 693 L131 57 C131 27 111 7 81 7 L58.5 7 C56.5681 7 55 5.4319 55 3.5 C55 1.5681 56.5681 0 58.5 0 L518.5 0 C522.088 0 525 2.91219 525 6.5 L525 7.08208 C525 7.68705 525.943 17.8856 526.057 18.4797 C532.44 51.8202 539.512 93.1797 545.085 126.52 C545.624 129.744 543.268 132 540 132 C536.877 132 533.042 129.287 532.003 126.342 L528 115 C508 56 452 16 389 16 L282 16 C236 16 231 30 231 50 L231 692 C231 722 251 742 281 742 L303 742 C305.208 742 307 743.792 307 746 C307 748.208 305.208 750 303 750 L303 750 Z " />
<glyph glyph-name="Lcaron" unicode="&#x13d;" horiz-adv-x="591" d="M406 808 C388 808 379 745 376 700 L368.55 596.629 C368.249 592.451 371.393 588.321 375.5 587.5 C379.593 586.681 384.182 589.267 385.603 593.192 L421 691 C435 728 444 770 444 796 C444 805 429 808 406 808 L406 808 Z M303 750 L58.5 750 C56.5681 750 55 748.432 55 746.5 C55 744.568 56.5681 743 58.5 743 L81 743 C111 743 131 723 131 693 L131 57 C131 27 111 7 81 7 L58.5 7 C56.5681 7 55 5.4319 55 3.5 C55 1.5681 56.5681 0 58.5 0 L518.5 0 C522.088 0 525 2.91219 525 6.5 L525 7.08208 C525 7.68705 525.943 17.8856 526.057 18.4797 C532.44 51.8202 539.512 93.1797 545.085 126.52 C545.624 129.744 543.268 132 540 132 C536.877 132 533.042 129.287 532.003 126.342 L528 115 C508 56 452 16 389 16 L282 16 C236 16 231 30 231 50 L231 692 C231 722 251 742 281 742 L303 742 C305.208 742 307 743.792 307 746 C307 748.208 305.208 750 303 750 L303 750 Z " />
<glyph glyph-name="lcaron" unicode="&#x13e;" horiz-adv-x="246" d="M243 758 C226 758 217 695 214 650 L206.55 546.629 C206.249 542.451 209.393 538.321 213.5 537.5 C217.598 536.68 222.153 539.272 223.542 543.214 L258 641 C272 679 281 721 281 746 C281 755 266 758 243 758 L243 758 Z M22.5 718 L30 718 C57 720 75 703 75 676 L75 22 C75 13 69 7 60 7 L22.5 7 C20.5681 7 19 5.4319 19 3.5 C19 1.5681 20.5681 0 22.5 0 L212.5 0 C214.432 0 216 1.5681 216 3.5 C216 5.4319 214.432 7 212.5 7 L175 7 C166 7 160 13 160 22 L160 729 C160 740.591 150.591 750 139 750 L126.051 750 C124.958 750 111.984 748.413 110.925 748.137 C82.0533 740.621 46.6923 732.385 19 725 C17.1964 724.519 19 723.367 19 721.5 C19 719.568 20.5681 718 22.5 718 L22.5 718 Z " />
<glyph glyph-name="Nacute" unicode="&#x143;" horiz-adv-x="726" d="M272.677 816.798 L409 932 C447 965 473 990 473 996 C473 1019 454 1038 431 1038 C425 1038 401 1011 370 971 L261.511 828.908 C259.062 825.7 259.285 820.486 262 817.5 C264.758 814.466 269.546 814.151 272.677 816.798 L272.677 816.798 Z M-13.4505 743 L10 743 C37 743 68 726 88 700 L118.52 654.592 C121.755 649.779 128.978 626.013 128.968 620.213 L128 56 C128 26 108 6 78 6 L55.5 6 C53.5681 6 52 4.4319 52 2.5 C52 0.568105 53.5681 -1 55.5 -1 L230.5 -1 C232.432 -1 234 0.568105 234 2.5 C234 4.4319 232.432 6 230.5 6 L208 6 C178 6 158 26 158 56 L155.667 479.072 C155.462 516.303 205.465 525.786 226.395 494.995 C335.17 334.97 443.834 174.834 551.873 14.0731 C554.428 10.2721 567.42 -1 572 -1 C577.519 -1 582.045 3.48035 582.1 8.9995 L588.966 696.635 C588.973 697.276 589.574 703.689 589.704 704.317 C594.377 726.827 613.588 741 639 741 L661.5 741 C663.432 741 665 742.568 665 744.5 C665 746.432 663.432 748 661.5 748 L486.5 748 C484.568 748 483 746.432 483 744.5 C483 742.568 484.568 741 486.5 741 L509 741 C539 741 559 721 559 691 L560.554 291.683 C560.689 256.859 513.577 248.227 494.238 277.188 C395.566 424.966 296.398 572.248 197.2 719.5 C188.839 731.912 160.275 748 145.309 748 L-14.4505 748 C-15.8304 748 -16.7706 746.853 -16.5 745.5 C-16.2294 744.147 -14.8304 743 -13.4505 743 L-13.4505 743 Z " />
<glyph glyph-name="Ncaron" unicode="&#x147;" horiz-adv-x="726" d="M494.707 1038.78 L402.287 947.673 C378.395 924.12 339.673 924.189 315.865 947.827 L224.275 1038.76 C221.367 1041.65 216.532 1041.76 213.5 1039 C210.505 1036.28 209.836 1031.16 212.031 1027.76 L330 845 C336 836 350 815 360 815 C370 815 384 836 390 845 L506.992 1027.74 C509.173 1031.15 508.493 1036.28 505.5 1039 C502.469 1041.76 497.624 1041.66 494.707 1038.78 L494.707 1038.78 Z M-13.4505 743 L10 743 C37 743 68 726 88 700 L118.52 654.592 C121.755 649.779 128.978 626.013 128.968 620.213 L128 56 C128 26 108 6 78 6 L55.5 6 C53.5681 6 52 4.4319 52 2.5 C52 0.568105 53.5681 -1 55.5 -1 L230.5 -1 C232.432 -1 234 0.568105 234 2.5 C234 4.4319 232.432 6 230.5 6 L208 6 C178 6 158 26 158 56 L155.667 479.072 C155.462 516.303 205.465 525.786 226.395 494.995 C335.17 334.97 443.834 174.834 551.873 14.0731 C554.428 10.2721 567.42 -1 572 -1 C577.519 -1 582.045 3.48035 582.1 8.9995 L588.966 696.635 C588.973 697.276 589.574 703.689 589.704 704.317 C594.377 726.827 613.588 741 639 741 L661.5 741 C663.432 741 665 742.568 665 744.5 C665 746.432 663.432 748 661.5 748 L486.5 748 C484.568 748 483 746.432 483 744.5 C483 742.568 484.568 741 486.5 741 L509 741 C539 741 559 721 559 691 L560.554 291.683 C560.689 256.859 513.577 248.227 494.238 277.188 C395.566 424.966 296.398 572.248 197.2 719.5 C188.839 731.912 160.275 748 145.309 748 L-14.4505 748 C-15.8304 748 -16.7706 746.853 -16.5 745.5 C-16.2294 744.147 -14.8304 743 -13.4505 743 L-13.4505 743 Z " />
<glyph glyph-name="ncaron" unicode="&#x148;" horiz-adv-x="515" d="M386.458 788.497 L295.289 697.979 C271.395 674.257 232.605 674.257 208.711 697.979 L117.542 788.497 C114.497 791.521 109.297 791.748 106 789 C102.713 786.261 101.915 781.033 104.236 777.438 L222 595 C228 586 242 565 252 565 C262 565 276 586 282 595 L399.764 777.438 C402.085 781.033 401.287 786.261 398 789 C394.703 791.748 389.503 791.521 386.458 788.497 L386.458 788.497 Z M23.5 469 L31 469 C57 470 74 456 76 432 C76 335 75 137 75 22 C75 13 69 7 60 7 L22.5 7 C20.5681 7 19 5.4319 19 3.5 C19 1.5681 20.5681 0 22.5 0 L212.5 0 C214.432 0 216 1.5681 216 3.5 C216 5.4319 214.432 7 212.5 7 L175 7 C166 7 160 13 160 22 L160 366.988 C160 370.244 163.587 386.895 164.979 389.839 C187.378 437.198 233.05 468 283 468 C323 468 344 418 344 342 L344 22 C344 13 338 7 329 7 L291.5 7 C289.568 7 288 5.4319 288 3.5 C288 1.5681 289.568 0 291.5 0 L481.5 0 C483.432 0 485 1.5681 485 3.5 C485 5.4319 483.432 7 481.5 7 L444 7 C435 7 429 13 429 22 L429 342 C429 443 388 510 308 510 C256.025 510 206.773 477.33 176.526 426.028 C173.028 420.094 160 421.917 160 428.805 L160 478.75 C160 490.479 150.479 500 138.75 500 L124.951 500 C123.968 500 111.22 498.454 110.265 498.219 L23.3986 476.837 C21.577 476.388 20 474.376 20 472.5 C20 470.568 21.5681 469 23.5 469 L23.5 469 Z " />
<glyph glyph-name="Omacron" unicode="&#x14c;" horiz-adv-x="810" d="M302.5 895 L493.5 895 C509.783 895 523 908.217 523 924.5 C523 940.783 509.783 954 493.5 954 L302.5 954 C286.217 954 273 940.783 273 924.5 C273 908.217 286.217 895 302.5 895 L302.5 895 Z M159 375 C159 602 254 754 397 754 C546 754 646 602 646 375 C646 148 543 -4 389 -4 C251 -4 159 148 159 375 L159 375 Z M50 375 C50 144 185 -10 388 -10 C608 -10 755 144 755 375 C755 606 612 760 398 760 C189 760 50 606 50 375 L50 375 Z " />
<glyph glyph-name="omacron" unicode="&#x14d;" horiz-adv-x="580" d="M194.5 645 L385.5 645 C401.783 645 415 658.217 415 674.5 C415 690.783 401.783 704 385.5 704 L194.5 704 C178.217 704 165 690.783 165 674.5 C165 658.217 178.217 645 194.5 645 L194.5 645 Z M139 250 C139 402 199 504 290 504 C381 504 442 402 442 250 C442 98 381 -4 290 -4 C199 -4 139 98 139 250 L139 250 Z M45 250 C45 94 143 -10 290 -10 C437 -10 535 94 535 250 C535 406 437 510 290 510 C143 510 45 406 45 250 L45 250 Z " />
<glyph glyph-name="Obreve" unicode="&#x14e;" horiz-adv-x="810" d="M283.34 983.083 C293.642 915.125 338.15 870 398 870 C457.85 870 503.26 914.222 512.796 981.233 C513.548 986.523 510.27 992.622 505 993.5 C500.721 994.213 495.674 990.68 494.71 986.45 C486.916 952.246 448.875 930 398 930 C347.125 930 309.94 953.102 301.483 988.225 C300.457 992.485 295.322 996.22 291 995.5 C285.746 994.624 282.541 988.35 283.34 983.083 L283.34 983.083 Z M159 375 C159 602 254 754 397 754 C546 754 646 602 646 375 C646 148 543 -4 389 -4 C251 -4 159 148 159 375 L159 375 Z M50 375 C50 144 185 -10 388 -10 C608 -10 755 144 755 375 C755 606 612 760 398 760 C189 760 50 606 50 375 L50 375 Z " />
<glyph glyph-name="obreve" unicode="&#x14f;" horiz-adv-x="580" d="M175.34 733.083 C185.642 665.125 230.15 620 290 620 C349.85 620 395.26 664.222 404.796 731.233 C405.548 736.523 402.27 742.622 397 743.5 C392.721 744.213 387.674 740.68 386.71 736.45 C378.916 702.246 340.875 680 290 680 C239.125 680 201.94 703.102 193.483 738.225 C192.457 742.485 187.322 746.22 183 745.5 C177.746 744.624 174.541 738.35 175.34 733.083 L175.34 733.083 Z M139 250 C139 402 199 504 290 504 C381 504 442 402 442 250 C442 98 381 -4 290 -4 C199 -4 139 98 139 250 L139 250 Z M45 250 C45 94 143 -10 290 -10 C437 -10 535 94 535 250 C535 406 437 510 290 510 C143 510 45 406 45 250 L45 250 Z " />
<glyph glyph-name="Racute" unicode="&#x154;" horiz-adv-x="708" d="M306.677 816.798 L443 932 C481 965 507 990 507 996 C507 1019 488 1038 465 1038 C459 1038 435 1011 404 971 L295.511 828.908 C293.062 825.7 293.285 820.486 296 817.5 C298.758 814.466 303.546 814.151 306.677 816.798 L306.677 816.798 Z M64 743 L86 743 C116 743 136 723 136 693 L136 57 C136 27 116 7 86 7 L63.5 7 C61.5681 7 60 5.4319 60 3.5 C60 1.5681 61.5681 0 63.5 0 L308.5 0 C310.432 0 312 1.5681 312 3.5 C312 5.4319 310.432 7 308.5 7 L286 7 C256 7 236 27 236 57 L236 321 C236 339.767 251.233 355 270 355 L282.523 355 C292.594 355 308.175 346.13 312.771 337.17 C337.859 288.266 394.625 189.5 469 67 C508 3 517 0 698 0 C699.932 0 698 1.5681 698 3.5 C698 5.42813 694.652 7.00084 692.724 7.00459 C625.731 7.135 620.125 10.45 586 67 C511.2 190.25 452.295 287.49 419.725 340.91 C413.198 351.617 420.742 368.568 432.696 372.356 C512.4 397.61 561 451.7 561 539 C561 666 460 751 309 751 L64 751 C61.7921 751 60 749.208 60 747 C60 744.792 61.7921 743 64 743 L64 743 Z M236 417.5 L236 709.5 C236 721.367 245.633 731 257.5 731 L279 731 C382 731 451 662 451 559 C451 436 394 381 309 381 L272.5 381 C252.353 381 236 397.353 236 417.5 L236 417.5 Z " />
<glyph glyph-name="Rcaron" unicode="&#x158;" horiz-adv-x="708" d="M428.707 1038.78 L336.287 947.673 C312.395 924.12 273.673 924.189 249.865 947.827 L158.275 1038.76 C155.367 1041.65 150.532 1041.76 147.5 1039 C144.505 1036.28 143.836 1031.16 146.031 1027.76 L264 845 C270 836 284 815 294 815 C304 815 318 836 324 845 L440.992 1027.74 C443.173 1031.15 442.493 1036.28 439.5 1039 C436.469 1041.76 431.624 1041.66 428.707 1038.78 L428.707 1038.78 Z M64 743 L86 743 C116 743 136 723 136 693 L136 57 C136 27 116 7 86 7 L63.5 7 C61.5681 7 60 5.4319 60 3.5 C60 1.5681 61.5681 0 63.5 0 L308.5 0 C310.432 0 312 1.5681 312 3.5 C312 5.4319 310.432 7 308.5 7 L286 7 C256 7 236 27 236 57 L236 321 C236 339.767 251.233 355 270 355 L282.523 355 C292.594 355 308.175 346.13 312.771 337.17 C337.859 288.266 394.625 189.5 469 67 C508 3 517 0 698 0 C699.932 0 698 1.5681 698 3.5 C698 5.42813 694.652 7.00084 692.724 7.00459 C625.731 7.135 620.125 10.45 586 67 C511.2 190.25 452.295 287.49 419.725 340.91 C413.198 351.617 420.742 368.568 432.696 372.356 C512.4 397.61 561 451.7 561 539 C561 666 460 751 309 751 L64 751 C61.7921 751 60 749.208 60 747 C60 744.792 61.7921 743 64 743 L64 743 Z M236 417.5 L236 709.5 C236 721.367 245.633 731 257.5 731 L279 731 C382 731 451 662 451 559 C451 436 394 381 309 381 L272.5 381 C252.353 381 236 397.353 236 417.5 L236 417.5 Z " />
<glyph glyph-name="rcaron" unicode="&#x159;" horiz-adv-x="371" d="M345.458 788.497 L254.289 697.979 C230.395 674.257 191.605 674.257 167.711 697.979 L76.5424 788.497 C73.4968 791.521 68.2971 791.748 65 789 C61.7126 786.261 60.915 781.033 63.2357 777.438 L181 595 C187 586 201 565 211 565 C221 565 235 586 241 595 L358.764 777.438 C361.085 781.033 360.287 786.261 357 789 C353.703 791.748 348.503 791.521 345.458 788.497 L345.458 788.497 Z M24 468 L31 468 C58 470 76 453 76 426 L76 22 C76 13 70 7 61 7 L23.5 7 C21.5681 7 20 5.4319 20 3.5 C20 1.5681 21.5681 0 23.5 0 L213.5 0 C215.432 0 217 1.5681 217 3.5 C217 5.4319 215.432 7 213.5 7 L176 7 C167 7 161 13 161 22 L161 390.772 C161 392.434 162.42 403.898 162.934 405.478 C176.022 445.73 204.95 471 242 471 C253 471 261 457 261 436 C261 406 281 386 311 386 C341 386 361 406 361 436 C361 481 329 511 282 511 C232.5 511 192.529 484.456 171.632 440.913 C169.904 437.312 161 438.415 161 442.409 L161 480 C161 491.591 151.591 501 140 501 L127.051 501 C125.958 501 112.984 499.413 111.925 499.137 C83.8553 491.83 49.6518 483.842 22.3251 476.617 C20.2569 476.071 20 474.139 20 472 C20 469.792 21.7921 468 24 468 L24 468 Z " />
<glyph glyph-name="Sacute" unicode="&#x15a;" horiz-adv-x="518" d="M270.941 817.02 L407 932 C445 965 471 990 471 996 C471 1019 452 1038 429 1038 C423 1038 400 1011 368 971 L258.746 829.162 C256.148 825.789 256.489 820.511 259.5 817.5 C262.525 814.475 267.673 814.259 270.941 817.02 L270.941 817.02 Z M65 154 L65 154 L65 154 L65 154 Z M50 221.876 L50 14 C50 11.2402 52.2402 9 55 9 L55.9689 9 C58.2841 9 60.2697 11.2304 60.4583 13.5379 C61.0331 20.5702 61.1818 28.4545 62 35 C65 70 89 76 122 52 C166 14 219 -9 272 -9 C396 -9 478 73 478 197 C478 297 418 386 302 428 C197 466 143 532 143 602 C143 724 208 785 303 742 C350 720 395 658 415 586 C416.636 580.273 418.273 571.868 419.909 565.167 C420.391 563.193 422.608 561 424.64 561 L429.5 561 C434.192 561 438 564.808 438 569.5 L438 742 C438 744.76 435.76 747 433 747 L430.55 747 C429.067 747 427.829 746.215 427.627 744.746 C426.98 740.041 426.857 734.286 426 730 C423.207 709.517 409.145 702.904 388.657 711.773 C387.766 712.159 378.985 717.965 378.211 718.552 C340.993 746.755 293.35 763 243 763 C136 763 65 684 65 566 C65 461 126 369 243 326 C346 289 399 230 399 170 C399 68 349 0 273 0 C240 0 205 14 173 40 C132 74 93 140 74 209 C72.3636 214.727 70.7273 223.132 69.0909 229.833 C68.5967 231.857 66.4644 233.744 64.4095 233.402 L59 232.5 C54.0999 231.683 50 226.844 50 221.876 L50 221.876 Z " />
<glyph glyph-name="Scircumflex" unicode="&#x15c;" horiz-adv-x="518" d="M287 1005 C281 1014 267 1035 257 1035 C247 1035 233 1014 227 1005 L109.236 822.562 C106.915 818.967 107.713 813.739 111 811 C114.297 808.252 119.497 808.479 122.542 811.503 L213.711 902.021 C237.605 925.743 276.395 925.743 300.289 902.021 L391.458 811.503 C394.503 808.479 399.703 808.252 403 811 C406.287 813.739 407.085 818.967 404.764 822.562 L287 1005 L287 1005 Z M65 154 L65 154 L65 154 L65 154 Z M50 221.876 L50 14 C50 11.2402 52.2402 9 55 9 L55.9689 9 C58.2841 9 60.2697 11.2304 60.4583 13.5379 C61.0331 20.5702 61.1818 28.4545 62 35 C65 70 89 76 122 52 C166 14 219 -9 272 -9 C396 -9 478 73 478 197 C478 297 418 386 302 428 C197 466 143 532 143 602 C143 724 208 785 303 742 C350 720 395 658 415 586 C416.636 580.273 418.273 571.868 419.909 565.167 C420.391 563.193 422.608 561 424.64 561 L429.5 561 C434.192 561 438 564.808 438 569.5 L438 742 C438 744.76 435.76 747 433 747 L430.55 747 C429.067 747 427.829 746.215 427.627 744.746 C426.98 740.041 426.857 734.286 426 730 C423.207 709.517 409.145 702.904 388.657 711.773 C387.766 712.159 378.985 717.965 378.211 718.552 C340.993 746.755 293.35 763 243 763 C136 763 65 684 65 566 C65 461 126 369 243 326 C346 289 399 230 399 170 C399 68 349 0 273 0 C240 0 205 14 173 40 C132 74 93 140 74 209 C72.3636 214.727 70.7273 223.132 69.0909 229.833 C68.5967 231.857 66.4644 233.744 64.4095 233.402 L59 232.5 C54.0999 231.683 50 226.844 50 221.876 L50 221.876 Z " />
<glyph glyph-name="Scaron" unicode="&#x160;" horiz-adv-x="518" d="M391.458 1038.5 L300.289 947.979 C276.395 924.257 237.605 924.257 213.711 947.979 L122.542 1038.5 C119.497 1041.52 114.297 1041.75 111 1039 C107.713 1036.26 106.915 1031.03 109.236 1027.44 L227 845 C233 836 247 815 257 815 C267 815 281 836 287 845 L404.764 1027.44 C407.085 1031.03 406.287 1036.26 403 1039 C399.703 1041.75 394.503 1041.52 391.458 1038.5 L391.458 1038.5 Z M65 154 L65 154 L65 154 L65 154 Z M50 221.876 L50 14 C50 11.2402 52.2402 9 55 9 L55.9689 9 C58.2841 9 60.2697 11.2304 60.4583 13.5379 C61.0331 20.5702 61.1818 28.4545 62 35 C65 70 89 76 122 52 C166 14 219 -9 272 -9 C396 -9 478 73 478 197 C478 297 418 386 302 428 C197 466 143 532 143 602 C143 724 208 785 303 742 C350 720 395 658 415 586 C416.636 580.273 418.273 571.868 419.909 565.167 C420.391 563.193 422.608 561 424.64 561 L429.5 561 C434.192 561 438 564.808 438 569.5 L438 742 C438 744.76 435.76 747 433 747 L430.55 747 C429.067 747 427.829 746.215 427.627 744.746 C426.98 740.041 426.857 734.286 426 730 C423.207 709.517 409.145 702.904 388.657 711.773 C387.766 712.159 378.985 717.965 378.211 718.552 C340.993 746.755 293.35 763 243 763 C136 763 65 684 65 566 C65 461 126 369 243 326 C346 289 399 230 399 170 C399 68 349 0 273 0 C240 0 205 14 173 40 C132 74 93 140 74 209 C72.3636 214.727 70.7273 223.132 69.0909 229.833 C68.5967 231.857 66.4644 233.744 64.4095 233.402 L59 232.5 C54.0999 231.683 50 226.844 50 221.876 L50 221.876 Z " />
<glyph glyph-name="scaron" unicode="&#x161;" horiz-adv-x="395" d="M332.458 788.497 L241.289 697.979 C217.395 674.257 178.605 674.257 154.711 697.979 L63.5424 788.497 C60.4968 791.521 55.2971 791.748 52 789 C48.7126 786.261 47.915 781.033 50.2357 777.438 L168 595 C174 586 188 565 198 565 C208 565 222 586 228 595 L345.764 777.438 C348.085 781.033 347.287 786.261 344 789 C340.703 791.748 335.503 791.521 332.458 788.497 L332.458 788.497 Z M320 355.5 L320 497.5 C320 499.432 318.432 501 316.5 501 L313 501 C312 497 312 492 311 488 C310.03 478.303 288.374 479.89 256.972 491.849 C256.855 491.893 252.037 493.966 251.924 494.02 C232.483 503.407 211.241 509 190 509 C111 509 58 457 58 379 C58 301 99 238 179 217 C245 199 279 156 279 105 C279 14 213 -38 148 14 C110.95 44.225 82.4556 99.1663 69.0049 162.14 C68.5598 164.224 66.1306 167 64 167 C61.7921 167 60 165.208 60 163 L60 10.5 C60 8.5681 61.5681 7 63.5 7 L64.4505 7 C65.9107 7 67.1551 7.69899 67.3732 9.14286 C68.0204 13.4286 68.1429 17.7143 69 22 C71 37 96 31 132 9 C153 -4 176 -11 198 -11 C286 -11 345 45 345 129 C345 200 301 258 217 281 C152 298 119 348 119 408 C119 474 159 522 216 501 C258.9 484.425 295.146 425.072 309.907 356.308 C310.408 353.973 313.113 351 315.5 351 C317.984 351 320 353.016 320 355.5 L320 355.5 Z " />
<glyph glyph-name="Tcaron" unicode="&#x164;" horiz-adv-x="741" d="M505.458 1038.5 L414.289 947.979 C390.395 924.257 351.605 924.257 327.711 947.979 L236.542 1038.5 C233.497 1041.52 228.297 1041.75 225 1039 C221.713 1036.26 220.915 1031.03 223.236 1027.44 L341 845 C347 836 361 815 371 815 C381 815 395 836 401 845 L518.764 1027.44 C521.085 1031.03 520.287 1036.26 517 1039 C513.703 1041.75 508.503 1041.52 505.458 1038.5 L505.458 1038.5 Z M661 783.5 C660.996 783.495 657.132 778.208 657.128 778.203 C643.883 760.83 604.6 750 559 750 L183 750 C137.4 750 98.1175 760.83 84.8721 778.203 C84.8682 778.208 81.004 783.495 81 783.5 C80.138 784.578 77.1784 786 75.7984 786 L74.5 786 C72.2656 786 69.0861 784.043 68.1318 782.023 C61.4575 767.892 53.4783 751.696 48 738 C32.4103 700 22.5168 650.607 7.21914 612.023 C6.09886 609.198 8.96042 609 12 609 C14.8237 609 19.6598 611.708 21.1354 614.116 L37 640 C66 691 119 725 170 725 L259.56 725 C293.473 725 321 697.473 321 663.56 L321 57 C321 27 301 7 271 7 L248.5 7 C246.568 7 245 5.4319 245 3.5 C245 1.5681 246.568 0 248.5 0 L493.5 0 C495.432 0 497 1.5681 497 3.5 C497 5.4319 495.432 7 493.5 7 L471 7 C441 7 421 27 421 57 L421 663.56 C421 697.473 448.527 725 482.44 725 L572 725 C623 725 676 691 705 640 L720.865 614.116 C722.34 611.708 727.176 609 730 609 C733.021 609 734.665 612.273 733.577 615.091 C718.859 653.199 708.179 701 693 738 C687.522 751.696 680.376 767.892 673.847 782.023 C672.897 784.078 669.764 786 667.5 786 L666.202 786 C664.822 786 661.862 784.578 661 783.5 L661 783.5 Z " />
<glyph glyph-name="tcaron" unicode="&#x165;" horiz-adv-x="358" d="M289.5 500 L236 500 C202.882 500 176 526.882 176 560 L176 617 C176 618.656 174.656 620 173 620 C171.79 620 168.777 618.692 167.951 617.809 L29.415 469.652 C28.1276 468.275 26 462.885 26 461 C26 458.24 28.2402 456 31 456 L58.5 456 C76.439 456 91 441.439 91 423.5 L91 160 C91 38 143 -10 220 -10 C272.65 -10 322.448 29.9262 346.223 91.2416 C347.42 94.3286 345.612 96.8685 342.5 98 C339.636 99.0414 335.774 96.6136 334.587 93.8067 C318.295 55.27 283.05 30 246 30 C203 30 174 61 174 141 L175.611 393.951 C175.826 427.648 203.353 455 237.05 455 L289.5 455 C301.919 455 312 465.081 312 477.5 C312 489.919 301.919 500 289.5 500 L289.5 500 Z M401 758 C384 758 375 695 372 650 L364.55 546.629 C364.249 542.451 367.393 538.321 371.5 537.5 C375.598 536.68 380.153 539.272 381.542 543.214 L416 641 C430 679 439 721 439 746 C439 755 424 758 401 758 L401 758 Z " />
<glyph glyph-name="Utilde" unicode="&#x168;" horiz-adv-x="701" d="M226.135 887.404 L230.112 886.979 C230.112 886.979 229.388 888.598 229.388 888.598 C233.429 914.028 246.053 930 264 930 C307 930 365 865 408 865 C443.15 865 465.893 906.07 469.107 969.215 C469.107 969.215 470.473 967.768 470.473 967.768 L466.507 968.292 C466.507 968.292 467.872 966.845 467.872 966.845 C463.009 941.158 447.692 925 428 925 C385 925 327 990 283 990 C250.625 990 229.801 948.93 226.859 885.785 C226.859 885.785 226.135 887.404 226.135 887.404 L230.112 886.979 C230.112 886.979 229.388 888.598 229.388 888.598 L226.135 887.404 Z M667.62 39.0901 L645 33 C615 25 595 40 595 70 L595 688.56 C595 722.473 567.473 750 533.56 750 L422.5 750 C420.568 750 419 748.432 419 746.5 C419 744.568 420.568 743 422.5 743 L445 743 C475 743 495 723 495 693 L495 196.653 C495 192.613 491.21 175.2 489.297 171.641 C451.295 100.93 378.05 54 303 54 C242 54 201 118 201 213 L201 688.56 C201 722.473 173.473 750 139.56 750 L28.5 750 C26.5681 750 25 748.432 25 746.5 C25 744.568 26.5681 743 28.5 743 L51 743 C81 743 101 723 101 693 L101 213 C101 79 165 -10 262 -10 C342.85 -10 420.977 30.1569 468.868 94.1867 C475.264 102.738 495 99.6832 495 89.0051 L495 25 C495 11.2007 506.201 0 520 0 L545 0 C549 1 595 11 595 13 C619.471 19.5882 644.827 26.1765 666.901 31.931 C668.71 32.4027 671 34.6303 671 36.5 C671 38.3655 669.422 39.5751 667.62 39.0901 L667.62 39.0901 Z " />
<glyph glyph-name="utilde" unicode="&#x169;" horiz-adv-x="492" d="M119.135 637.404 L123.112 636.979 C123.112 636.979 122.388 638.598 122.388 638.598 C126.429 664.028 139.053 680 157 680 C200 680 258 615 301 615 C336.15 615 358.893 656.07 362.107 719.215 C362.107 719.215 363.473 717.768 363.473 717.768 L359.507 718.292 C359.507 718.292 360.872 716.845 360.872 716.845 C356.009 691.158 340.692 675 321 675 C278 675 220 740 176 740 C143.625 740 122.801 698.93 119.859 635.785 C119.859 635.785 119.135 637.404 119.135 637.404 L123.112 636.979 C123.112 636.979 122.388 638.598 122.388 638.598 L119.135 637.404 Z M473.065 34.7702 L461 31 C431 23 411 38 411 68 L411 438.56 C411 472.473 383.473 500 349.56 500 L273.5 500 C271.568 500 270 498.432 270 496.5 C270 494.568 271.568 493 273.5 493 L311 493 C320 493 326 487 326 478 L326 142.16 C326 138.319 322.578 121.674 320.803 118.268 C298.444 75.38 264.15 48 229 48 C186 48 157 90 157 154 L157 437.56 C157 471.473 129.473 499 95.56 499 L19.5 499 C17.5681 499 16 497.432 16 495.5 C16 493.568 17.5681 492 19.5 492 L57 492 C66 492 72 486 72 477 L72 154 C72 55 119 -11 189 -11 C231.075 -11 275.192 25.0731 308.436 83.1815 C312.964 91.0971 328 88.1963 328 79.0768 L328 20.0015 C328 8.41012 337.409 -1.11202 349 -1.25 L361.4 -1.39762 C362.695 -1.41304 376.534 0.279278 377.784 0.619026 C408.674 9.01457 446.378 19.1138 476.442 27.3028 C478.638 27.901 478.552 29.7919 478 32 C477.449 34.2042 475.233 35.4479 473.065 34.7702 L473.065 34.7702 Z " />
<glyph glyph-name="Umacron" unicode="&#x16a;" horiz-adv-x="701" d="M252.5 895 L443.5 895 C459.783 895 473 908.217 473 924.5 C473 940.783 459.783 954 443.5 954 L252.5 954 C236.217 954 223 940.783 223 924.5 C223 908.217 236.217 895 252.5 895 L252.5 895 Z M667.62 39.0901 L645 33 C615 25 595 40 595 70 L595 688.56 C595 722.473 567.473 750 533.56 750 L422.5 750 C420.568 750 419 748.432 419 746.5 C419 744.568 420.568 743 422.5 743 L445 743 C475 743 495 723 495 693 L495 196.653 C495 192.613 491.21 175.2 489.297 171.641 C451.295 100.93 378.05 54 303 54 C242 54 201 118 201 213 L201 688.56 C201 722.473 173.473 750 139.56 750 L28.5 750 C26.5681 750 25 748.432 25 746.5 C25 744.568 26.5681 743 28.5 743 L51 743 C81 743 101 723 101 693 L101 213 C101 79 165 -10 262 -10 C342.85 -10 420.977 30.1569 468.868 94.1867 C475.264 102.738 495 99.6832 495 89.0051 L495 25 C495 11.2007 506.201 0 520 0 L545 0 C549 1 595 11 595 13 C619.471 19.5882 644.827 26.1765 666.901 31.931 C668.71 32.4027 671 34.6303 671 36.5 C671 38.3655 669.422 39.5751 667.62 39.0901 L667.62 39.0901 Z " />
<glyph glyph-name="umacron" unicode="&#x16b;" horiz-adv-x="492" d="M145.5 645 L336.5 645 C352.783 645 366 658.217 366 674.5 C366 690.783 352.783 704 336.5 704 L145.5 704 C129.217 704 116 690.783 116 674.5 C116 658.217 129.217 645 145.5 645 L145.5 645 Z M473.065 34.7702 L461 31 C431 23 411 38 411 68 L411 438.56 C411 472.473 383.473 500 349.56 500 L273.5 500 C271.568 500 270 498.432 270 496.5 C270 494.568 271.568 493 273.5 493 L311 493 C320 493 326 487 326 478 L326 142.16 C326 138.319 322.578 121.674 320.803 118.268 C298.444 75.38 264.15 48 229 48 C186 48 157 90 157 154 L157 437.56 C157 471.473 129.473 499 95.56 499 L19.5 499 C17.5681 499 16 497.432 16 495.5 C16 493.568 17.5681 492 19.5 492 L57 492 C66 492 72 486 72 477 L72 154 C72 55 119 -11 189 -11 C231.075 -11 275.192 25.0731 308.436 83.1815 C312.964 91.0971 328 88.1963 328 79.0768 L328 20.0015 C328 8.41012 337.409 -1.11202 349 -1.25 L361.4 -1.39762 C362.695 -1.41304 376.534 0.279278 377.784 0.619026 C408.674 9.01457 446.378 19.1138 476.442 27.3028 C478.638 27.901 478.552 29.7919 478 32 C477.449 34.2042 475.233 35.4479 473.065 34.7702 L473.065 34.7702 Z " />
<glyph glyph-name="Ubreve" unicode="&#x16c;" horiz-adv-x="701" d="M233.34 983.083 C243.642 915.125 288.15 870 348 870 C407.85 870 453.26 914.222 462.796 981.233 C463.548 986.523 460.27 992.622 455 993.5 C450.721 994.213 445.674 990.68 444.71 986.45 C436.916 952.246 398.875 930 348 930 C297.125 930 259.94 953.102 251.483 988.225 C250.457 992.485 245.322 996.22 241 995.5 C235.746 994.624 232.541 988.35 233.34 983.083 L233.34 983.083 Z M667.62 39.0901 L645 33 C615 25 595 40 595 70 L595 688.56 C595 722.473 567.473 750 533.56 750 L422.5 750 C420.568 750 419 748.432 419 746.5 C419 744.568 420.568 743 422.5 743 L445 743 C475 743 495 723 495 693 L495 196.653 C495 192.613 491.21 175.2 489.297 171.641 C451.295 100.93 378.05 54 303 54 C242 54 201 118 201 213 L201 688.56 C201 722.473 173.473 750 139.56 750 L28.5 750 C26.5681 750 25 748.432 25 746.5 C25 744.568 26.5681 743 28.5 743 L51 743 C81 743 101 723 101 693 L101 213 C101 79 165 -10 262 -10 C342.85 -10 420.977 30.1569 468.868 94.1867 C475.264 102.738 495 99.6832 495 89.0051 L495 25 C495 11.2007 506.201 0 520 0 L545 0 C549 1 595 11 595 13 C619.471 19.5882 644.827 26.1765 666.901 31.931 C668.71 32.4027 671 34.6303 671 36.5 C671 38.3655 669.422 39.5751 667.62 39.0901 L667.62 39.0901 Z " />
<glyph glyph-name="ubreve" unicode="&#x16d;" horiz-adv-x="492" d="M126.34 733.083 C136.642 665.125 181.15 620 241 620 C300.85 620 346.26 664.222 355.796 731.233 C356.548 736.523 353.27 742.622 348 743.5 C343.721 744.213 338.674 740.68 337.71 736.45 C329.916 702.246 291.875 680 241 680 C190.125 680 152.94 703.102 144.483 738.225 C143.457 742.485 138.322 746.22 134 745.5 C128.746 744.624 125.541 738.35 126.34 733.083 L126.34 733.083 Z M473.065 34.7702 L461 31 C431 23 411 38 411 68 L411 438.56 C411 472.473 383.473 500 349.56 500 L273.5 500 C271.568 500 270 498.432 270 496.5 C270 494.568 271.568 493 273.5 493 L311 493 C320 493 326 487 326 478 L326 142.16 C326 138.319 322.578 121.674 320.803 118.268 C298.444 75.38 264.15 48 229 48 C186 48 157 90 157 154 L157 437.56 C157 471.473 129.473 499 95.56 499 L19.5 499 C17.5681 499 16 497.432 16 495.5 C16 493.568 17.5681 492 19.5 492 L57 492 C66 492 72 486 72 477 L72 154 C72 55 119 -11 189 -11 C231.075 -11 275.192 25.0731 308.436 83.1815 C312.964 91.0971 328 88.1963 328 79.0768 L328 20.0015 C328 8.41012 337.409 -1.11202 349 -1.25 L361.4 -1.39762 C362.695 -1.41304 376.534 0.279278 377.784 0.619026 C408.674 9.01457 446.378 19.1138 476.442 27.3028 C478.638 27.901 478.552 29.7919 478 32 C477.449 34.2042 475.233 35.4479 473.065 34.7702 L473.065 34.7702 Z " />
</font>
</svg>
