<?xml version="1.0" encoding="UTF-8"?>
<svg xmlns="http://www.w3.org/2000/svg" xmlns:xlink="http://www.w3.org/1999/xlink" version="1.2" >
<font id="Gunma Smooth">
<font-face  font-family="Gunma" units-per-em="1024" ascent="975" descent="-300" font-style="normal" font-weight="400" font-stretch="normal" cap-height="1044" x-height="488" underline-position="-125" underline-thickness="50" />
<missing-glyph  horiz-adv-x="100" d="" />
<glyph glyph-name="NULL" d="" />
<glyph glyph-name="CR" unicode="&#xd;" horiz-adv-x="256" d="" />
<glyph glyph-name="space" unicode="&#x20;" horiz-adv-x="208" d="" />
<glyph glyph-name="exclam" unicode="&#x21;" horiz-adv-x="244" d="M122 -5 C158 -5 182 19 182 55 C182 91 158 115 122 115 C86 115 62 91 62 55 C62 19 86 -5 122 -5 L122 -5 Z M122 755 C101.5 755 87 744.5 78.375 726.125 C58.2586 683.268 78.4 566 92 430 C105.6 294 117.055 210 122 210 C126.945 210 138.4 294 152 430 C165.6 566 185.741 683.268 165.625 726.125 C157 744.5 142.5 755 122 755 L122 755 Z " />
<glyph glyph-name="quotedbl" unicode="&#x22;" horiz-adv-x="291" d="M212 750 C193 750 181 732 187 705 L202 632.5 C211.273 587.682 218.909 560 222 560 C225.091 560 232.727 587.682 242 632.5 L257 705 C263 732 252 750 232 750 L212 750 L212 750 Z M92 750 C73 750 61 732 67 705 L82 632.5 C91.2727 587.682 98.9091 560 102 560 C105.091 560 112.727 587.682 122 632.5 L137 705 C143 732 132 750 112 750 L92 750 L92 750 Z " />
<glyph glyph-name="numbersign" unicode="&#x23;" horiz-adv-x="489" d="M348 580 C339.964 526.218 309.991 493 269.5 493 C229.009 493 208.964 526.218 217 580 C225.036 633.782 228.473 667 226 667 C223.527 667 217.036 633.782 209 580 C200.964 526.218 171.373 493 131.5 493 C91.6273 493 65.2818 480.4 62.5 460 C59.7182 439.6 82.4364 427 122 427 C161.564 427 180.464 389.964 171.5 330 C162.536 270.036 131.991 233 91.5 233 C51.0091 233 24.0909 220.4 21 200 C17.9091 179.6 41.0091 167 81.5 167 C121.991 167 142.227 135.118 134.5 83.5 C126.773 31.8818 123.527 0 126 0 C128.473 0 134.773 31.8818 142.5 83.5 C150.227 135.118 180.009 167 220.5 167 C260.991 167 281.227 135.118 273.5 83.5 C265.773 31.8818 262.336 0 264.5 0 C266.664 0 272.773 31.8818 280.5 83.5 C288.227 135.118 315.718 167 352.5 167 C389.282 167 413.909 179.6 417 200 C420.091 220.4 399.282 233 362.5 233 C325.718 233 308.536 270.036 317.5 330 C326.464 389.964 356.436 427 396 427 C435.564 427 461.718 439.6 464.5 460 C467.282 480.4 444.755 493 405.5 493 C366.245 493 346.964 526.218 355 580 C363.036 633.782 366.664 667 364.5 667 C362.336 667 356.036 633.782 348 580 L348 580 Z M259.5 427 C299.991 427 319.464 389.964 310.5 330 C301.536 270.036 270.991 233 230.5 233 C190.009 233 170.536 270.036 179.5 330 C188.464 389.964 219.009 427 259.5 427 L259.5 427 Z " />
<glyph glyph-name="dollar" unicode="&#x24;" horiz-adv-x="518" d="M50 120 C50 51.3818 51.9091 9 55 9 C58.0909 9 60.5529 13.9523 61 22 C61.4471 30.0477 59.3398 59.7627 80.75 65.625 C106.652 72.7171 135.045 39.142 160.125 24.375 C184.704 9.90325 202 -9.89091 202 -34 C202 -58.1091 207.727 -73 217 -73 C226.273 -73 232 -59.8273 232 -38.5 C232 -17.1727 241.319 -6.05807 256.625 -7 C272.282 -7.96349 282 -19.4091 282 -39.5 C282 -59.5909 287.727 -72 297 -72 C306.273 -72 312 -59.0182 312 -38 C312 -16.9818 378.649 -3.47879 432.875 62.25 C461.75 97.25 478 144 478 199 C478 247.5 463.75 293.5 435.875 332.75 C380.376 410.897 312 485.564 312 582 C312 678.436 343.289 721.823 373.375 678.25 C408.751 627.016 417.276 582.257 419 574.5 C420.724 566.743 425.245 562 430.5 562 C435.755 562 439 597.509 439 655 C439 712.491 437.091 748 434 748 C430.909 748 428.439 744.773 428 739.5 C427.561 734.227 427.808 715.677 413.5 710.25 C396.8 703.915 373.373 725.565 351.375 737.375 C329.311 749.22 314 767.509 314 791 C314 814.491 308.273 829 299 829 C289.727 829 284 816.018 284 795 C284 773.982 274.828 763.086 259.75 764 C243.861 764.963 234 776.409 234 796.5 C234 816.591 228.273 829 219 829 C209.727 829 204 815.827 204 794.5 C204 773.173 146.657 755.54 103.5 695.75 C79.5 662.5 66 618.5 66 567 C66 521 77.75 477.5 100.875 439.5 C145.826 365.634 204 283.145 204 183 C204 82.8545 162.818 40.6133 125.25 96.75 C82.6519 160.402 73.7239 214.743 72 222.5 C70.2761 230.257 65.3727 234.236 59.5 233 C53.6273 231.764 50 188.618 50 120 L50 120 Z M67 158 L67 158 L67 158 L67 158 Z M259.75 321 C274.896 315.209 284 252.009 284 156.5 C284 60.9909 274.201 0.832992 258.625 2.75 C243.177 4.65133 234 69.6636 234 169.5 C234 269.336 243.8 327.099 259.75 321 L259.75 321 Z M378.375 235.875 C392.75 215 400 193 400 171 C400 129.5 391.75 93.75 376.875 65.875 C352.004 19.2683 314 62.6 314 151 C314 239.4 347.966 280.034 378.375 235.875 L378.375 235.875 Z M234 611 C234 701.255 243.976 758.776 259.75 756.625 C274.998 754.546 284 691.245 284 594.5 C284 497.755 273.705 442.244 257.875 450.75 C242.734 458.885 234 520.745 234 611 L234 611 Z M159.875 542.5 C150 562.25 145 583 145 604 C145 638.5 150.75 668.75 161 693 C177.426 731.862 204 696.555 204 616.5 C204 536.445 179.477 503.296 159.875 542.5 L159.875 542.5 Z " />
<glyph glyph-name="percent" unicode="&#x25;" horiz-adv-x="783" d="M114 570 C114 680 137 754 171 754 C211 754 237 667 237 536 C237 431 213 361 176 361 C139 361 114 445 114 570 L114 570 Z M30 553 C30 434 88 355 174 355 C259 355 316 439 316 565 C316 682 259 760 174 760 C88 760 30 677 30 553 L30 553 Z M552 209 C552 317 577 389 615 389 C661 389 691 303 691 175 C691 68 663 -4 620 -4 C579 -4 552 81 552 209 L552 209 Z M468 192 C468 71 528 -10 618 -10 C710 -10 771 76 771 204 C771 319 710 395 618 395 C528 395 468 314 468 192 L468 192 Z M402 372 C540.473 603.818 624.473 748.145 622 750 C619.527 751.855 532.282 609.818 393.5 378 C254.718 146.182 170.718 1.85455 173.5 0 C176.282 -1.85455 263.527 140.182 402 372 L402 372 Z " />
<glyph glyph-name="ampersand" unicode="&#x26;" horiz-adv-x="901" d="M444.25 529.125 C472.75 554.75 489 583.5 489 612 C489 701 419 761 315 761 C213 761 145 697 145 600 C145 580 154 557.25 170.125 530.875 C206.699 471.052 162.315 427.3 94.375 345.625 C59.75 304 40 254 40 201 C40 76 122 -8 245 -8 C289 -8 333.75 4 377.875 26.625 C467.17 72.4109 512.111 118.624 520.625 108.5 C525.25 103 530 97.5 535 92 C585 32 651 -8 700 -8 C735 -8 766 7.5 789.625 34.75 C839.029 91.7349 832.136 148.955 827.5 150.5 C822.864 152.045 821.77 119.324 791.375 86.375 C776.5 70.25 757 61 735 61 C697 61 647 91 609 136 C601 145.5 593.25 154.75 585.625 163.75 C571.777 180.095 605.084 239.523 654.375 330.875 C709.026 432.162 726.182 501 720 501 C713.818 501 690.11 435.127 635.75 339.875 C587.454 255.248 487.714 280.545 391.625 390.25 C350.803 436.856 382.413 473.526 444.25 529.125 L444.25 529.125 Z M246.5 572.75 C229.5 600.5 220 624.5 220 646 C220 704 258 742 315 742 C378 742 420 692 420 618 C420 586.5 409.875 556.75 392.125 532.125 C358.878 486.001 285.09 509.758 246.5 572.75 L246.5 572.75 Z M389.75 92 C357.5 78.25 325 71 293 71 C194 71 128 133 128 226 C128 274 139.25 318 159.25 353.75 C193.843 415.586 271.055 398.912 317.375 346.125 C421.839 227.076 453.765 119.293 389.75 92 L389.75 92 Z " />
<glyph glyph-name="quotesingle" unicode="&#x27;" horiz-adv-x="188" d="M92 750 C73 750 61 732 67 705 L82 632.5 C91.2727 587.682 98.9091 560 102 560 C105.091 560 112.727 587.682 122 632.5 L137 705 C143 732 132 750 112 750 L92 750 L92 750 Z " />
<glyph glyph-name="parenleft" unicode="&#x28;" horiz-adv-x="222" d="M98.625 572 C74 494 60 397.5 60 273 C60 148.5 74 52 98.625 -26 C138.465 -152.193 203.1 -212.282 206.5 -209.5 C209.9 -206.718 169.361 -152.637 149.5 -53 C134.5 22.25 126 126.5 126 273 C126 419.5 134.5 523.75 149.5 599 C169.361 698.637 209.9 752.718 206.5 755.5 C203.1 758.282 138.465 698.193 98.625 572 L98.625 572 Z " />
<glyph glyph-name="parenright" unicode="&#x29;" horiz-adv-x="167" d="M71.625 591.75 C87.75 508.25 97 398 97 273 C97 148 87.75 37.75 71.625 -45.75 C51.499 -149.968 5.95455 -205.909 7.5 -209 C9.04545 -212.091 79.6144 -159.366 116.5 -37.25 C142.25 48 157 155.5 157 273 C157 390.5 142.25 498 116.5 583.25 C79.6144 705.366 9.04545 758.091 7.5 755 C5.95455 751.909 51.499 695.968 71.625 591.75 L71.625 591.75 Z " />
<glyph glyph-name="asterisk" unicode="&#x2a;" horiz-adv-x="296" d="M198 674 C168.945 648.036 155.773 654.527 163.5 691 C171.227 727.473 181.27 762.155 172 774 C167.5 779.75 160 783 150 783 C140 783 132.5 779.75 128 774 C118.73 762.155 128.582 727.664 136 691.5 C143.418 655.336 131.009 648.273 103.5 673 C75.9909 697.727 51.0212 723.27 36.125 721.25 C21.515 719.269 8.33051 696.731 14.125 682.875 C20.0072 668.809 54.7636 659.936 90 648.5 C125.236 637.064 125.236 622.936 90 611.5 C54.7636 600.064 20.0801 591.231 14.125 577.25 C11.25 570.5 12 562.5 17 554 C22 545 28.75 540 36.125 538.875 C50.9598 536.612 52.8609 557.769 43 575.25 C36.8122 586.219 37.9636 584.218 46 570 C54.0364 555.782 75.9909 562.273 103.5 587 C131.009 611.727 143.418 604.664 136 568.5 C128.582 532.336 118.73 497.845 128 486 C132.5 480.25 140 477 150 477 C160 477 167.5 480.25 172 486 C181.27 497.845 171.227 532.527 163.5 569 C155.773 605.473 168.182 612.536 196 587.5 C223.818 562.464 249.04 536.612 263.875 538.875 C271.25 540 278 545 283 554 C287.5 562 287.625 569.625 284.5 576.125 C278.159 589.314 244.832 598.659 209.75 610.25 C174.668 621.841 174.573 636.064 209.5 647.5 C244.427 658.936 278.993 667.809 284.875 681.875 C290.669 695.731 278.694 717.831 264.875 721.625 C251.906 725.185 227.055 699.964 198 674 L198 674 Z " />
<glyph glyph-name="plus" unicode="&#x2b;" horiz-adv-x="587" d="M261 362 C261 311.309 230.264 280 180.5 280 C130.736 280 100 268.545 100 250 C100 231.455 130.736 220 180.5 220 C230.264 220 261 188.882 261 138.5 C261 88.1182 273.6 57 294 57 C314.4 57 327 88.1182 327 138.5 C327 188.882 357.545 220 407 220 C456.455 220 487 231.455 487 250 C487 268.545 456.455 280 407 280 C357.545 280 327 311.309 327 362 C327 412.691 314.4 444 294 444 C273.6 444 261 412.691 261 362 L261 362 Z " />
<glyph glyph-name="comma" unicode="&#x2c;" horiz-adv-x="259" d="M155.25 -68.375 C117.969 -116.888 112.159 -117.253 154.75 -76.375 C176.5 -55.5 189 -25.5 189 11 C189 55 176 89 155 105 C147 112 137 116 125 116 C89 116 65 92 65 56 C65 20 89 -4 125 -4 C136.5 -4 146.625 -0.375 154.625 6.125 C170.054 18.661 193.954 -18.0108 155.25 -68.375 L155.25 -68.375 Z " />
<glyph glyph-name="hyphen" unicode="&#x2d;" horiz-adv-x="397" d="M198.5 250 C271.755 250 317 263.364 317 285 C317 306.636 271.755 320 198.5 320 C125.245 320 80 306.636 80 285 C80 263.364 125.245 250 198.5 250 L198.5 250 Z " />
<glyph glyph-name="period" unicode="&#x2e;" horiz-adv-x="195" d="M125 -5 C161 -5 185 19 185 55 C185 91 161 115 125 115 C89 115 65 91 65 55 C65 19 89 -5 125 -5 L125 -5 Z " />
<glyph glyph-name="slash" unicode="&#x2f;" horiz-adv-x="389" d="M168 345 C80.8364 82.2727 36.5455 -80 52 -80 C67.4545 -80 130.836 82.2727 218 345 C305.164 607.727 349.455 770 334 770 C318.545 770 255.164 607.727 168 345 L168 345 Z " />
<glyph glyph-name="zero" unicode="0" horiz-adv-x="610" d="M85 250 C85 372 173 475 305 475 C424 475 525 385 525 250 C525 128 437 25 305 25 C186 25 85 115 85 250 L85 250 Z M45 250 C45 94 165 -10 305 -10 C461 -10 565 110 565 250 C565 406 445 510 305 510 C149 510 45 390 45 250 L45 250 Z " />
<glyph glyph-name="one" unicode="1" horiz-adv-x="337" d="M274 7 L261 7 C231 7 211 27 211 57 L211 443 C211 473 231 493 261 493 L274 493 C282.036 493 287 494.336 287 496.5 C287 498.664 241.755 500 168.5 500 C95.2455 500 50 498.664 50 496.5 C50 494.336 54.9636 493 63 493 L76 493 C106 493 126 473 126 443 L126 57 C126 27 106 7 76 7 L63 7 C54.9636 7 50 5.66364 50 3.5 C50 1.33636 95.2455 0 168.5 0 C241.755 0 287 1.33636 287 3.5 C287 5.66364 282.036 7 274 7 L274 7 Z " />
<glyph glyph-name="two" unicode="2" horiz-adv-x="508" d="M382 75 L274 75 C207.236 75 246.164 109.667 338.625 207.25 C381.5 252.5 407 298.5 407 344 C407 443 345 509 251 509 C201 509 155.25 487.5 118.875 449.75 C44.1762 372.228 46.2455 292.236 51.5 291 C56.7545 289.764 60.9367 345.478 114 401.375 C139.75 428.5 172 444 207 444 C276 444 322 396 322 324 C322 225 234 137 116 63 C99.5 54 83.25 44.5 66.75 35 C35.6981 17.1217 18.2909 5.28182 22 2.5 L28 -2 L32.5 -0.5 C122.5 -0.5 213.125 -1.125 281.25 -1.75 C351.569 -2.39513 403.973 11.3182 418.5 34.5 L442 72 C442 72 476 121 478 123 L477 125.5 C476.382 127.045 465.74 107.088 436.375 90.5 C420 81.25 401 75.5 381 74 L382 75 Z " />
<glyph glyph-name="three" unicode="3" horiz-adv-x="401" d="M18.5 -223.5 C19.4273 -228.755 135.405 -242.406 267.375 -150 C327 -108.25 361 -54 361 7 C361 56 341 97.5 305.75 127.625 C232.525 190.204 225.104 200.294 296.125 275.125 C328.75 309.5 347 346.5 347 386 C347 460 288 510 199 510 C156.5 510 117.25 494 85.875 466.125 C24.5774 411.665 23.6273 350.045 29.5 348.5 C35.3727 346.955 42.4705 386.685 84.375 421.25 C106.5 439.5 134.5 450 165 450 C220 450 256 413 256 357 C256 313.5 240.25 276.75 212.75 245.875 C156.53 182.756 99 166.755 99 161.5 C99 156.245 163.565 154.928 224.5 95 C254.75 65.25 272 26.5 272 -17 C272 -68.5 246.5 -114 201.875 -148.625 C105.938 -223.063 17.5727 -218.245 18.5 -223.5 L18.5 -223.5 Z " />
<glyph glyph-name="four" unicode="4" horiz-adv-x="557" d="M536.5 118 C534.955 113.055 532.591 92.2788 514.375 77.375 C504.75 69.5 492.5 65 479 65 L430.5 65 C400.518 65 382 153.773 382 297.5 C382 441.227 379.9 530 376.5 530 C373.1 530 303.036 431.682 193 272.5 C82.9636 113.318 15 12.1364 15 7.5 C15 2.86364 68.8364 0 156 0 C243.164 0 297 -42 297 -110 C297 -178 313.227 -220 339.5 -220 C365.773 -220 382 -178 382 -110 C382 -42 398.8 0 426 0 L470 0 C485.5 0 496.75 -4.5 504.125 -12.5 C518.883 -28.5084 516.909 -46.5727 520 -47.5 C523.091 -48.4273 527.411 -33.3748 530.75 -8 C534.089 17.3748 538.995 50.167 542.75 78 C544.875 93.75 547 109.5 549 123 C548 123 545.5 123.75 543.25 124.5 C540.607 125.381 538.045 122.945 536.5 118 L536.5 118 Z M193 218 C257.291 312.582 297 312.582 297 218 C297 123.418 257.291 65 193 65 C128.709 65 128.709 123.418 193 218 L193 218 Z " />
<glyph glyph-name="five" unicode="5" horiz-adv-x="403" d="M261 500 L169 500 C112.127 500 68.2182 442.918 54 350.5 C39.7818 258.082 34.0545 198.327 39 194 C43.9455 189.673 54.2545 187 66 187 L85 187 C213 187 298 121 298 21 C298 -42 274 -97.25 232.125 -139 C148.818 -222.059 59.1909 -221.055 59.5 -226 C59.8091 -230.945 174.328 -240.882 287 -138.5 C341.75 -88.75 373 -23.5 373 50 C373 186 261 277 94 277 L83 277 C76.2 277 76.0091 305.064 82.5 350.5 C88.9909 395.936 134.427 424.382 201.5 425 C268.573 425.618 312.1 438.218 315.5 458 L321 490 L326.5 518 C329.9 535.309 329.9 546 326.5 546 C323.1 546 318.632 528.128 299.625 512.875 C289.5 504.75 276.5 500 261 500 L261 500 Z " />
<glyph glyph-name="six" unicode="6" horiz-adv-x="535" d="M178.5 579 C96.75 498.75 50 399 50 291 C50 110 139 -10 273 -10 C398 -10 482 90 482 239 C482 372 401 461 279 461 C253 461 229.25 455.25 208.5 444.625 C170.228 425.028 173.536 509.397 288.75 617.875 C405.429 727.732 518.618 739.482 518 743.5 C517.382 747.518 345.802 743.232 178.5 579 L178.5 579 Z M134 246 C134 372 191 456 276 456 C348 456 396 371 396 243 C396 94 346 -5 271 -5 C189 -5 134 95 134 246 L134 246 Z " />
<glyph glyph-name="seven" unicode="7" horiz-adv-x="407" d="M42.5 383 C44.0455 385.473 52.0097 402.543 72.875 416.375 C92.7682 429.563 159.591 429.618 241.5 429 C323.409 428.382 323.027 304.291 240.5 104 C157.973 -96.2909 119.409 -220 139.5 -220 C159.591 -220 216.1 -85.4091 287.5 132.5 C358.9 350.409 403 487.864 403 492.5 C403 497.136 353.364 500 273 500 L143 500 C127 500 117 504 111.875 510.75 C101.664 524.198 107.964 538.789 104.75 540.25 C102 541.5 99 543 98 544 C91 531 86 516 81 501 L68 467 C59.9636 445.982 50.3202 423.833 43.25 408.75 C39.5 400.75 36 393 33 386 C34 385.5 35.875 383.875 37.5 382.375 C39.3875 380.633 40.9545 380.527 42.5 383 L42.5 383 Z " />
<glyph glyph-name="eight" unicode="8" horiz-adv-x="510" d="M213.125 366.625 C222.815 361.662 285.43 345.064 355 289.75 C385.5 265.5 403 239 403 207 C403 79 343 -7 254 -7 C170 -7 114 65 114 173 C114 217 122 258 136.5 292.75 C160.948 351.341 203.612 371.497 213.125 366.625 L213.125 366.625 Z M80 288.375 C53.75 252.75 39 213 39 173 C39 63 125 -11 253 -11 C383 -11 469 62 469 172 C469 236.5 452.75 285 423.875 323.75 C367.485 399.425 355.322 434.338 404.375 497.625 C428.5 528.75 442 563 442 597 C442 694 366 759 251 759 C139 759 64 687 64 579 C64 537 76.375 498.375 98.25 464.625 C140.208 399.89 132.264 359.305 80 288.375 L80 288.375 Z M277.5 429.5 C267.3 434.136 211.061 450.055 166.75 508 C144 537.75 131 573 131 612 C131 699 180 757 254 757 C323 757 369 690 369 590 C369 554.5 361.875 521 348.875 492.125 C326.199 441.758 287.7 424.864 277.5 429.5 L277.5 429.5 Z " />
<glyph glyph-name="nine" unicode="9" horiz-adv-x="535" d="M356.5 -79 C438.25 1.25 485 101 485 209 C485 390 396 510 262 510 C137 510 53 410 53 261 C53 128 134 39 256 39 C282 39 305.75 44.75 326.5 55.375 C364.772 74.9721 361.464 -9.39712 246.25 -117.875 C129.571 -227.732 16.3818 -239.482 17 -243.5 C17.6182 -247.518 189.198 -243.232 356.5 -79 L356.5 -79 Z M401 254 C401 128 344 44 259 44 C187 44 139 129 139 257 C139 406 189 505 264 505 C346 505 401 405 401 254 L401 254 Z " />
<glyph glyph-name="colon" unicode="&#x3a;" horiz-adv-x="135" d="M125 385 C161 385 185 409 185 445 C185 481 161 505 125 505 C89 505 65 481 65 445 C65 409 89 385 125 385 L125 385 Z M125 -5 C161 -5 185 19 185 55 C185 91 161 115 125 115 C89 115 65 91 65 55 C65 19 89 -5 125 -5 L125 -5 Z " />
<glyph glyph-name="semicolon" unicode="&#x3b;" horiz-adv-x="259" d="M125 385 C161 385 185 409 185 445 C185 481 161 505 125 505 C89 505 65 481 65 445 C65 409 89 385 125 385 L125 385 Z M155.25 -68.375 C117.969 -116.888 112.159 -117.253 154.75 -76.375 C176.5 -55.5 189 -25.5 189 11 C189 55 176 89 155 105 C147 112 137 116 125 116 C89 116 65 92 65 56 C65 20 89 -4 125 -4 C136.5 -4 146.625 -0.375 154.625 6.125 C170.054 18.661 193.954 -18.0108 155.25 -68.375 L155.25 -68.375 Z " />
<glyph glyph-name="equal" unicode="&#x3d;" horiz-adv-x="500" d="M83 200 C83 188.255 149.245 181 256.5 181 C363.755 181 430 188.255 430 200 C430 211.745 363.755 219 256.5 219 C149.245 219 83 211.745 83 200 L83 200 Z M83 300 C83 288.255 149.245 281 256.5 281 C363.755 281 430 288.255 430 300 C430 311.745 363.755 319 256.5 319 C149.245 319 83 311.745 83 300 L83 300 Z " />
<glyph glyph-name="question" unicode="&#x3f;" horiz-adv-x="299" d="M125 -5 C161 -5 185 19 185 55 C185 91 161 115 125 115 C89 115 65 91 65 55 C65 19 89 -5 125 -5 L125 -5 Z M125 285 C125 331.364 171.884 349.476 227.125 383.25 C271.378 410.306 297.842 461.749 306.75 494.625 C312 514 315 535 315 555 C315 678 247 760 145 760 C97 760 65 735 65 697 C65 672 83 655 111 655 C131 655 157 670 176 670 C244 670 289 620 289 545 C289 537 286.75 527 282.75 516.5 C274.899 495.89 254.024 462.842 221.625 452.375 C147.955 428.574 103.665 395.845 106.5 323.875 C109.272 253.501 112.864 210 117.5 210 C122.136 210 125 238.636 125 285 L125 285 Z M97 440 L97 440 L97 440 L97 440 Z " />
<glyph glyph-name="at" unicode="&#x40;" horiz-adv-x="1110" d="M823.875 -172.625 C749.5 -214.25 660 -238 566 -238 C300 -238 122 -39 122 259 C122 556 295 754 555 754 C815 754 989 590 989 343 C989 141 918 7 811 7 C719 7 677 84 706 200 L741 340 C762.636 426.545 760.727 480 736 480 C711.273 480 692.373 465.491 686.5 442 C680.627 418.509 672.31 439.101 634.5 466.875 C614.25 481.75 588.5 490 559 490 C389 490 276 371 276 192 C276 82 342 8 440 8 C477.5 8 512.75 18.25 543.375 36.75 C600.956 71.5337 616.954 58.3426 671.875 15.5 C702 -8 744 -21 796 -21 C951 -21 1055 125 1055 344 C1055 605 855 779 555 779 C255 779 55 571 55 260 C55 -47 267 -252 585 -252 C680 -252 771 -226.75 847.125 -182.5 C981.863 -104.179 1014.46 0.809091 1005.5 0.5 C996.536 0.190909 953.488 -100.085 823.875 -172.625 L823.875 -172.625 Z M645.5 279 L626 201 C604 114 547 56 484 56 C416 56 370 117 370 209 C370 364 445 467 557 467 C589.5 467 616.5 456 635.375 436.75 C672.195 399.198 657.555 327.218 645.5 279 L645.5 279 Z " />
<glyph glyph-name="A" unicode="A" horiz-adv-x="714" d="M554 0 C651.055 0 711 1.71818 711 4.5 C711 7.28182 708.709 9 705 9 L699 9 C655 9 614 49 596 109 C563.5 219 531.25 329.25 498.875 439.5 C438.839 643.947 399.091 770 396 770 C392.909 770 391.717 751.228 373.375 739 C342.288 718.275 316.573 718.091 317.5 715 C318.427 711.909 288.081 595.312 238.5 409.5 C188.919 223.688 152.982 69.5199 111 36.5 C88.75 19 61 9 31 9 L18 9 C9.96364 9 5 7.28182 5 4.5 C5 1.71818 54.0636 0 133.5 0 C212.936 0 262 1.71818 262 4.5 C262 7.28182 257.418 9 250 9 L238 9 C208 9 185.75 19 173 36.5 C146.448 72.9436 174.355 144.318 189.5 201.5 C204.645 258.682 256.955 294 326.5 294 C396.045 294 449.691 256.964 467 197 L495 100 C507 45 478 9 421 9 L409.5 9 C402.391 9 397.809 7.28182 397.5 4.5 C397.191 1.71818 456.945 0 554 0 L554 0 Z M269 501 C301.764 625.873 344.145 625.873 380 501 C415.855 376.127 395.618 299 327 299 C258.382 299 236.236 376.127 269 501 L269 501 Z " />
<glyph glyph-name="B" unicode="B" horiz-adv-x="629" d="M349 2 L299 2 C261 2 236 23 236 55 L236 220 C236 322 261.009 385 301.5 385 L367 385 C434 385 479 309 479 195 C479 39 427 2 349 2 L349 2 Z M73 741 L86 741 C116 741 136 721 136 691 L136 59 C136 29 116 9 86 9 L73 9 C64.9636 9 60 7.28182 60 4.5 C60 1.71818 116.509 0 208 0 L356 0 C496 0 589 37 589 195 C589 252 569 299.75 533.875 333.625 C464.446 400.583 454.121 387.491 514.25 449.875 C544.25 481 561 522 561 570 C561 678 513 750 307 750 L183.5 750 C107.155 750 60 748.282 60 745.5 C60 742.718 64.9636 741 73 741 L73 741 Z M334 389 L285 389 C254.709 389 236 457.155 236 567.5 C236 677.845 247.837 746.03 267 745.875 C282.5 745.75 298 745.5 298 745 C430 745 461 671 461 560 C461 457 410 389 334 389 L334 389 Z " />
<glyph glyph-name="C" unicode="C" horiz-adv-x="699" d="M655 111 C655 173.436 651.755 212 646.5 212 C641.245 212 636.782 207.628 635 200.5 C634 196.5 633 192.5 632 189 C615 130 568 68.5 515 34.5 C476 9.5 434 -5 388 -5 C251 -5 160 147 160 375 C160 602 255 754 397 754 C517 754 604 657 632 561 C633 557.5 634 553.5 635 549.5 C636.782 542.372 641.245 538 646.5 538 C651.755 538 655 575.991 655 637.5 C655 699.009 653.091 737 650 737 C646.909 737 644.434 733.006 644 726.5 C643.566 719.994 642.857 692.44 622.125 689.25 C593.288 684.814 551.52 729.682 499.625 745.75 C469.75 755 435.5 760 395 760 C188 760 50 606 50 375 C50 144 184 -10 386 -10 C467 -10 529 12 580 49 C597.5 60 612.25 64 623.125 61.125 C644.198 55.5539 643.546 27.8129 644 21 C644.454 14.1871 646.909 10 650 10 C653.091 10 655 48.5636 655 111 L655 111 Z M643 131 L643 131 L643 131 L643 131 Z " />
<glyph glyph-name="D" unicode="D" horiz-adv-x="802" d="M296 4 C242 4 236 23 236 51 L236 398.5 C236 613.318 251.845 746 277.5 746 L319 746 C529 746 637 598 637 375 C637 130 501 4 296 4 L296 4 Z M73 743 L86 743 C116 743 136 723 136 693 L136 57 C136 27 116 7 86 7 L73 7 C64.9636 7 60 5.66364 60 3.5 C60 1.33636 106.391 0 181.5 0 L303 0 C569 0 747 128 747 375 C747 600 607 750 336 750 L198 750 C112.691 750 60 748.664 60 746.5 C60 744.336 64.9636 743 73 743 L73 743 Z " />
<glyph glyph-name="E" unicode="E" horiz-adv-x="606" d="M453 387.5 C453 466.936 450.709 516 447 516 C443.291 516 439.473 507.218 437 493 C434.527 478.782 432.596 438.771 402 412 C386 398 365 390 341 390 L288.5 390 C256.045 390 236 457.773 236 567.5 C236 677.227 267.691 745 319 745 L402 745 C450 745 490 713 504 665 L510.5 642 C514.518 627.782 519.291 619 523 619 C526.709 619 526.308 643.858 521.125 684 C515.942 724.142 422.902 749.191 276.625 749.5 C130.348 749.809 40 748.664 40 746.5 C40 744.336 44.9636 743 53 743 L66 743 C108 743 136 715 136 673 L136 77 C136 35 108 7 66 7 L53 7 C44.9636 7 40 5.66364 40 3.5 C40 1.33636 135.073 0.190909 289 0.5 C442.927 0.809091 542.463 23.8541 548.875 61 C555.273 98.0671 556.709 121 553 121 C549.291 121 545.855 117.755 544 112.5 C542.145 107.245 532.59 64.427 487.625 32.375 C463.25 15 433.5 5 402 5 L287 5 C241 5 236 23 236 51 L236 218 C236 321.236 256.045 385 288.5 385 L341 385 C365 385 386 377 402 363 C432.596 336.229 434.527 296.218 437 282 C439.473 267.782 443.291 259 447 259 C450.709 259 453 308.064 453 387.5 L453 387.5 Z " />
<glyph glyph-name="F" unicode="F" horiz-adv-x="581" d="M443 387.5 C443 466.936 440.709 516 437 516 C433.291 516 429.473 507.218 427 493 C424.527 478.782 422.596 438.771 392 412 C376 398 355 390 331 390 L283.5 390 C254.136 390 236 457.964 236 568 C236 678.036 267.5 746 318.5 746 L401 746 C449 746 489 714 503 666 L509.5 643 C513.518 628.782 518.291 620 522 620 C525.709 620 525.317 644.649 520.5 684.5 C515.683 724.351 422.7 749.191 276.5 749.5 C130.3 749.809 40 748.664 40 746.5 C40 744.336 44.9636 743 53 743 L66 743 C108 743 136 715 136 673 L136 77 C136 35 108 7 66 7 L53 7 C44.9636 7 40 5.66364 40 3.5 C40 1.33636 95.7455 0 186 0 C276.255 0 332 1.33636 332 3.5 C332 5.66364 327.036 7 319 7 L306 7 C264 7 236 35 236 77 L236 231 C236 326.2 254.136 385 283.5 385 L331 385 C355 385 376 377 392 363 C422.596 336.229 424.527 296.218 427 282 C429.473 267.782 433.291 259 437 259 C440.709 259 443 308.064 443 387.5 L443 387.5 Z " />
<glyph glyph-name="G" unicode="G" horiz-adv-x="773" d="M655 637.5 C655 699.009 653.091 737 650 737 C646.909 737 644.434 733.006 644 726.5 C643.566 719.994 642.857 692.44 622.125 689.25 C593.288 684.814 551.52 729.682 499.625 745.75 C469.75 755 435.5 760 395 760 C188 760 50 606 50 375 C50 144 189 -10 397 -10 C469 -10 528 -3.625 578.75 7.375 C663.172 25.6734 698.779 46.7771 678 40.5 C654.099 33.2799 639 68.3727 639 130.5 L639 231 C639 282 668 316 712 316 L718.5 316 C722.518 316 725 317.718 725 320.5 C725 323.282 673.073 325 589 325 C504.927 325 453 323.282 453 320.5 C453 317.718 455.482 316 459.5 316 L466 316 C510 316 539 282 539 231 C540 231 540 116 540 105 C538 48 487 10 411 10 C259 10 158 156 158 375 C158 602 253 754 395 754 C515 754 602 657 630 561 C631 557.5 632 553.5 633 549.5 C634.782 542.372 639.627 538 645.5 538 C651.373 538 655 575.991 655 637.5 L655 637.5 Z " />
<glyph glyph-name="H" unicode="H" horiz-adv-x="804" d="M731 7 L718 7 C688 7 668 27 668 57 L668 693 C668 723 688 743 718 743 L731 743 C739.036 743 744 744.336 744 746.5 C744 748.664 695.891 750 618 750 C540.109 750 492 748.664 492 746.5 C492 744.336 496.964 743 505 743 L518 743 C548 743 568 723 568 693 L568 541 C568 447.036 511.491 389 420 389 C328.509 389 272 447.036 272 541 L272 693 C272 723 292 743 322 743 L335 743 C343.036 743 348 744.336 348 746.5 C348 748.664 299.891 750 222 750 C144.109 750 96 748.664 96 746.5 C96 744.336 100.964 743 109 743 L122 743 C152 743 172 723 172 693 L172 57 C172 27 152 7 122 7 L109 7 C100.964 7 96 5.66364 96 3.5 C96 1.33636 144.109 0 222 0 C299.891 0 348 1.33636 348 3.5 C348 5.66364 343.036 7 335 7 L322 7 C292 7 272 27 272 57 L272 220 C272 320.764 328.509 383 420 383 C511.491 383 568 320.764 568 220 L568 57 C568 27 548 7 518 7 L505 7 C496.964 7 492 5.66364 492 3.5 C492 1.33636 540.109 0 618 0 C695.891 0 744 1.33636 744 3.5 C744 5.66364 739.036 7 731 7 L731 7 Z " />
<glyph glyph-name="I" unicode="I" horiz-adv-x="367" d="M294 7 L281 7 C251 7 231 27 231 57 L231 693 C231 723 251 743 281 743 L294 743 C302.036 743 307 744.336 307 746.5 C307 748.664 258.891 750 181 750 C103.109 750 55 748.664 55 746.5 C55 744.336 59.9636 743 68 743 L81 743 C111 743 131 723 131 693 L131 57 C131 27 111 7 81 7 L68 7 C59.9636 7 55 5.66364 55 3.5 C55 1.33636 103.109 0 181 0 C258.891 0 307 1.33636 307 3.5 C307 5.66364 302.036 7 294 7 L294 7 Z " />
<glyph glyph-name="J" unicode="J" horiz-adv-x="367" d="M181 750 C103.109 750 55 748.664 55 746.5 C55 744.336 59.9636 743 68 743 L81 743 C111 743 131 723 131 693 L131 -72 C131 -190 66 -212 19 -212 C-30 -212 -6 -132 -56 -132 C-83 -132 -101 -150 -101 -177 C-101 -203 -55 -220 13 -220 C105 -220 231 -166 231 116 L231 693 C231 723 251 743 281 743 L294 743 C302.036 743 307 744.336 307 746.5 C307 748.664 258.891 750 181 750 L181 750 Z " />
<glyph glyph-name="K" unicode="K" horiz-adv-x="713" d="M186 750 C108.109 750 60 748.664 60 746.5 C60 744.336 64.9636 743 73 743 L86 743 C116 743 136 723 136 693 L136 57 C136 27 116 7 86 7 L73 7 C64.9636 7 60 5.66364 60 3.5 C60 1.33636 108.109 0 186 0 C263.891 0 312 1.33636 312 3.5 C312 5.66364 307.036 7 299 7 L286 7 C256 7 236 27 236 57 L236 216 C236 314.291 288.691 303.409 374 187.5 C459.309 71.5909 549.418 0 610 0 C670.582 0 708 1.33636 708 3.5 C708 5.66364 703.036 7 695 7 L682 7 C655 7 623 24 601 50 L455 245.5 C364.745 366.355 343.555 487.009 399.5 561.5 L490 682 C519 719 563 744 601 744 L616.5 744 C626.082 744 632 745.336 632 747.5 C632 749.664 579.5 751 494.5 751 C409.5 751 357 749.664 357 747.5 C357 745.336 364.827 744 377.5 744 L398 744 C428 744 446 734 451.125 716.5 C464.4 671.17 390.727 592.836 332 510 C273.273 427.164 237 436.709 237 535 L237 694 C237 724 257 744 287 744 L300 744 C308.036 744 312.809 745.145 312.5 747 C312.191 748.855 263.891 750 186 750 L186 750 Z " />
<glyph glyph-name="L" unicode="L" horiz-adv-x="591" d="M181 750 C103.109 750 55 748.664 55 746.5 C55 744.336 59.9636 743 68 743 L81 743 C111 743 131 723 131 693 L131 57 C131 27 111 7 81 7 L68 7 C59.9636 7 55 5.66364 55 3.5 C55 1.33636 144.727 0 290 0 C435.273 0 525 2.48182 525 6.5 C525 10.5182 529.44 35.6667 535.875 72.5 C542.296 109.254 543.709 132 540 132 C536.291 132 532.855 128.755 531 123.5 C529.145 118.245 519.59 75.427 474.625 43.375 C450.25 26 420.5 16 389 16 L282 16 C236 16 231 30 231 50 L231 692 C231 722 251 742 281 742 L294 742 C302.036 742 307 743.527 307 746 C307 748.473 258.891 750 181 750 L181 750 Z " />
<glyph glyph-name="M" unicode="M" horiz-adv-x="841" d="M704 0 C781.891 0 830 1.33636 830 3.5 C830 5.66364 825.036 7 817 7 L804 7 C776 7 756 25 753 52 C749.5 159 746 266 742.625 372.875 C736.376 570.761 729.002 712.144 745.375 729.25 C753.75 738 766 743 781 743 L794 743 C802.036 743 807 744.336 807 746.5 C807 748.664 774.355 750 721.5 750 C668.645 750 600.109 632.4 542 442 C483.891 251.6 408.864 251.6 345.5 442 C282.136 632.4 206.155 750 146.5 750 C86.8455 750 50 748.664 50 746.5 C50 744.336 54.9636 743 63 743 L76 743 C91 743 105.25 738 117.125 729.375 C139.346 713.236 140.182 571.436 134 373 L124 52 C121 25 101 7 73 7 L60 7 C51.9636 7 47 5.66364 47 3.5 C47 1.33636 82.7 0 140.5 0 C198.3 0 234 1.33636 234 3.5 C234 5.66364 229.036 7 221 7 L208 7 C193 7 180.5 12 171.875 20.75 C155.181 37.6859 160.909 166.2 164 343 C167.091 519.8 214.25 508.848 288 314.5 C361.75 120.152 411.773 0 419.5 0 C427.227 0 471.518 123.709 535.5 324 C599.482 524.291 641.864 533.645 646.5 348.5 C651.136 163.355 655.264 31.9791 639.375 17.75 C631 10.25 619.5 6 606 6 L593 6 C584.964 6 579.618 4.85455 579 3 C578.382 1.14545 626.109 0 704 0 L704 0 Z " />
<glyph glyph-name="N" unicode="N" horiz-adv-x="726" d="M-3 743 L10 743 C37 743 68 726 88 700 L108.5 669.5 C121.173 650.645 128.809 527.7 128.5 347.5 C128.191 167.3 131.197 36.6972 114.25 19.75 C105.5 11 93 6 78 6 L65 6 C56.9636 6 52 4.66364 52 2.5 C52 0.336364 86.7455 -1 143 -1 C199.255 -1 234 0.336364 234 2.5 C234 4.66364 229.036 6 221 6 L208 6 C193 6 180.5 11 171.75 19.75 C154.803 36.6972 157.427 159.855 156.5 328 C155.573 496.145 233.021 485.527 358.875 299.875 C484.799 114.12 565.818 -1 572 -1 C578.182 -1 583.336 132.827 585.5 349.5 C587.664 566.173 588.755 716.647 605 729.875 C613.75 737 625.5 741 639 741 L652 741 C660.036 741 665 742.336 665 744.5 C665 746.664 630.255 748 574 748 C517.745 748 483 746.664 483 744.5 C483 742.336 487.964 741 496 741 L509 741 C524 741 536.5 736 545.25 727.25 C562.197 710.303 559.382 592.873 560 434 C560.618 275.127 488.381 286.391 369.875 462.875 C251.439 639.254 140.773 748 80.5 748 C20.2273 748 -16.8091 747.045 -16.5 745.5 C-16.1909 743.955 -11.0364 743 -3 743 L-3 743 Z " />
<glyph glyph-name="O" unicode="O" horiz-adv-x="810" d="M159 375 C159 602 254 754 397 754 C546 754 646 602 646 375 C646 148 543 -4 389 -4 C251 -4 159 148 159 375 L159 375 Z M50 375 C50 144 185 -10 388 -10 C608 -10 755 144 755 375 C755 606 612 760 398 760 C189 760 50 606 50 375 L50 375 Z " />
<glyph glyph-name="P" unicode="P" horiz-adv-x="567" d="M324 7 L311 7 C281 7 261 27 261 57 L261 200.5 C261 289.209 269.018 344 282 344 L303 344 C449 344 547 404 547 539 C547 666 466 750 344 750 L214.5 750 C134.445 750 85 748.664 85 746.5 C85 744.336 89.9636 743 98 743 L111 743 C141 743 161 723 161 693 L161 57 C161 27 141 7 111 7 L98 7 C89.9636 7 85 5.66364 85 3.5 C85 1.33636 133.109 0 211 0 C288.891 0 337 1.33636 337 3.5 C337 5.66364 332.036 7 324 7 L324 7 Z M261 549 C261 662.745 272.073 733 290 733 L319 733 C400 733 454 662 454 555 C454 424 394 365 303 365 L282 365 C269.018 365 261 435.255 261 549 L261 549 Z " />
<glyph glyph-name="Q" unicode="Q" horiz-adv-x="805" d="M959.5 -79.875 C908 -87 842 -91 769 -91 C678.5 -91 591 -82.5 515.5 -67.625 C399.244 -44.7202 343.947 -7.99288 360.25 -9.125 C369.25 -9.75 378.5 -10 388 -10 C608 -10 755 144 755 375 C755 606 612 760 398 760 C189 760 50 606 50 375 C50 293.5 66.75 221.5 97.375 162.5 C150.772 59.6288 314.558 -47.064 482.125 -105.25 C575 -137.5 671.5 -156 758 -156 C812.5 -156 870.25 -145.5 923.75 -127.125 C1017.05 -95.0809 1025.47 -70.7487 959.5 -79.875 L959.5 -79.875 Z M159 375 C159 602 254 754 397 754 C546 754 646 602 646 375 C646 146 540 -7 382 -7 C248 -7 159 146 159 375 L159 375 Z " />
<glyph glyph-name="R" unicode="R" horiz-adv-x="708" d="M73 743 L86 743 C116 743 136 723 136 693 L136 57 C136 27 116 7 86 7 L73 7 C64.9636 7 60 5.66364 60 3.5 C60 1.33636 108.109 0 186 0 C263.891 0 312 1.33636 312 3.5 C312 5.66364 307.036 7 299 7 L286 7 C256 7 236 27 236 57 L236 206 C236 298.109 248.982 355 270 355 C291.018 355 324.356 313.617 361.375 248.875 C426.222 135.463 480.426 24.154 530.25 9.5 C629.896 -19.8075 698 1.33636 698 3.5 C698 5.66364 666.558 -5.11609 628.125 15.25 C591.676 34.5646 542.727 138.362 472.625 253.875 C430.904 322.621 464.775 365.76 519 423.5 C546 452.25 561 490.5 561 539 C561 666 460 751 309 751 L184.5 751 C107.536 751 60 749.473 60 747 C60 744.527 64.9636 743 73 743 L73 743 Z M236 556 C236 664.182 244.209 731 257.5 731 L279 731 C382 731 451 662 451 559 C451 436 394 381 309 381 L272.5 381 C249.936 381 236 447.818 236 556 L236 556 Z " />
<glyph glyph-name="S" unicode="S" horiz-adv-x="518" d="M65 154 L65 154 L65 154 L65 154 Z M50 120 C50 51.3818 51.9091 9 55 9 C58.0909 9 60.5529 13.9523 61 22 C61.4471 30.0477 59.3398 59.7627 80.75 65.625 C91.25 68.5 105.5 64 122 52 C166 14 219 -9 272 -9 C396 -9 478 73 478 197 C478 247 463 294.25 433.5 334.25 C374.244 414.597 240.801 438.013 183.125 503 C156.5 533 143 567 143 602 C143 724 208 785 303 742 C326.5 731 349.5 710 369.125 682.75 C407.808 629.038 416.276 581.257 418 573.5 C419.724 565.743 424.245 561 429.5 561 C434.755 561 438 596.509 438 654 C438 711.491 436.091 747 433 747 C429.909 747 427.439 743.773 427 738.5 C426.561 733.227 426.808 714.677 412.5 709.25 C395.8 702.915 362.44 734.931 319.125 750.125 C295.25 758.5 269.5 763 243 763 C136 763 65 684 65 566 C65 513.5 80.25 464.25 110.125 422.75 C169.489 340.287 301.153 316.775 359.625 256.625 C385.75 229.75 399 200 399 170 C399 68 349 0 273 0 C240 0 205 14 173 40 C152.5 57 132.5 82 115.25 111.375 C82.074 167.87 72.7239 213.743 71 221.5 C69.2761 229.257 64.5636 233.427 59 232.5 C53.4364 231.573 50 188.618 50 120 L50 120 Z " />
<glyph glyph-name="T" unicode="T" horiz-adv-x="741" d="M661 783.5 C659.764 781.955 648.079 766.061 622.875 758.375 C605.25 753 583 750 559 750 L183 750 C159 750 136.75 753 119.125 758.375 C93.9209 766.061 82.2364 781.955 81 783.5 C79.7636 785.045 77.2818 786 74.5 786 C71.7182 786 65.6051 776.861 58.625 762 C54.75 753.75 51 745.5 48 738 C40 718.5 33.5 696 27 673.5 C15.362 633.215 8.29091 609 12 609 C15.7091 609 21.6273 614.918 27.5 624.5 C33.3727 634.082 51.0933 673.374 95.25 701.625 C118.5 716.5 144.5 725 170 725 L245.5 725 C292.173 725 321 597.473 321 391 L321 57 C321 27 301 7 271 7 L258 7 C249.964 7 245 5.66364 245 3.5 C245 1.33636 293.109 0 371 0 C448.891 0 497 1.33636 497 3.5 C497 5.66364 492.036 7 484 7 L471 7 C441 7 421 27 421 57 L421 391 C421 597.473 449.827 725 496.5 725 L572 725 C597.5 725 623.5 716.5 646.75 701.625 C690.907 673.374 708.627 634.082 714.5 624.5 C720.373 614.918 726.291 609 730 609 C733.709 609 726.577 633.243 714.5 673.5 C707.75 696 701 718.5 693 738 C690 745.5 686.5 753.75 682.875 762 C676.323 776.912 670.282 786 667.5 786 C664.718 786 662.236 785.045 661 783.5 L661 783.5 Z " />
<glyph glyph-name="U" unicode="U" horiz-adv-x="701" d="M658 36.5 L645 33 C615 25 595 40 595 70 L595 410 C595 620.182 561.4 750 507 750 C452.6 750 419 748.664 419 746.5 C419 744.336 423.964 743 432 743 L445 743 C475 743 495 723 495 693 L495 438 C495 280.364 478.147 132.03 415.125 89.625 C381.5 67 342.5 54 303 54 C242 54 201 118 201 213 L201 481.5 C201 647.482 167.4 750 113 750 C58.6 750 25 748.664 25 746.5 C25 744.336 29.9636 743 38 743 L51 743 C81 743 101 723 101 693 L101 213 C101 79 165 -10 262 -10 C311 -10 359 4.75 399.875 30.625 C474.803 78.0564 495 111.655 495 69 C495 26.3455 504.545 0 520 0 L545 0 C549 1 595 11 595 13 C608 16.5 621.25 20 634.125 23.375 C656.914 29.3489 671 34.3364 671 36.5 C671 38.6636 666.036 38.6636 658 36.5 L658 36.5 Z " />
<glyph glyph-name="V" unicode="V" horiz-adv-x="747" d="M599.5 750 C519.445 750 470 748.282 470 745.5 C470 742.718 477.255 741 489 741 L508 741 C566 741 592 703 575 646 L489.5 395 C436.645 239.836 368.109 239.264 310 393.5 L216 643 C195 701 220 740 279 740 L290.5 740 C297.609 740 302 741.718 302 744.5 C302 747.282 243.964 749 150 749 C56.0364 749 -2 747.282 -2 744.5 C-2 741.718 -0.0909091 740 3 740 L8 740 C39 740 74 706 97 654 C139.5 543 181.75 432 224 321.125 C302.271 115.721 354.818 -11 361 -11 C367.182 -11 416.627 113.282 490.5 314.5 C564.373 515.718 617.06 676.138 655.5 712.5 C674 730 695 740 716 740 L722 740 C725.709 740 728.191 741.909 728.5 745 C728.809 748.091 679.555 750 599.5 750 L599.5 750 Z " />
<glyph glyph-name="W" unicode="W" horiz-adv-x="1051" d="M138 750 C53.3091 750 1 748.282 1 745.5 C1 742.718 2.90909 741 6 741 L11 741 C28 741 45 733 59.875 719 C90.6345 690.05 142.391 532.709 217.5 325 C292.609 117.291 343.773 -11 351.5 -11 C359.227 -11 395.309 77.5818 446 221 C496.691 364.418 560.023 364.4 612 221 C663.977 77.5998 700.773 -11 708.5 -11 C716.227 -11 756.891 119.2 815 330 C873.109 540.8 915.139 698.104 946 721.25 C962 733.25 981 740 1001 740 L1007.5 740 C1011.52 740 1014 741.718 1014 744.5 C1014 747.282 964.555 749 884.5 749 C804.445 749 755 747.282 755 744.5 C755 741.718 765.309 740 782 740 L809 740 C857 740 880 708 868 660 L801 398.5 C759.582 236.845 700.4 238.564 646 403 C591.6 567.436 545.739 695.392 565.875 720.625 C575.75 733 592.5 740 615 740 L634 740 C645.745 740 653 741.718 653 744.5 C653 747.282 595.918 749 503.5 749 C411.082 749 354 747.282 354 744.5 C354 741.718 356.1 740 359.5 740 L365 740 C401 740 437 708 454 660 C463.5 633 473.25 606 483 579.125 C500.965 529.607 487.564 426.455 448 309 C408.436 191.545 349.968 222.313 294.625 389.5 C239.327 556.55 188.717 688.058 208.5 718 C217.75 732 235 740 259 740 L268 740 C273.564 740 276.618 741.909 276 745 C275.382 748.091 222.691 750 138 750 L138 750 Z " />
<glyph glyph-name="X" unicode="X" horiz-adv-x="756" d="M219 7 L191 7 C160 7 150 27 167 57 L252 191.5 C304.545 274.645 366.993 275.449 415.375 193.5 C441.5 149.25 467.5 105 493 61 C512 28 504 6 471 6 L452.5 6 C441.064 6 434 4.66364 434 2.5 C434 0.336364 485.927 -1 570 -1 C654.073 -1 706 0.336364 706 2.5 C706 4.66364 683.898 2.7375 655.75 17.75 C640.75 25.75 627.5 38 616 55 L508.5 237 C442.045 349.509 440.518 471.5 504.5 556.5 L608 694 C633 723 669 742 700 742 L715.5 742 C725.082 742 731 743.336 731 745.5 C731 747.664 684.8 749 610 749 C535.2 749 489 747.664 489 745.5 C489 743.336 499.691 742 517 742 L545 742 C577 742 585 721 566 689 L481.5 558 C429.264 477.018 367.58 476.405 320.125 556.5 C272.79 636.392 225.694 702.449 235.125 725.875 C239 735.5 249.5 741 266 741 L284.5 741 C295.936 741 303 742.336 303 744.5 C303 746.664 251.264 748 167.5 748 C83.7364 748 32 746.664 32 744.5 C32 742.336 53.6653 744.338 81.625 730 C96.25 722.5 109 711 120 695 L223 520.5 C286.673 412.627 288.391 289.873 227.5 199 L129 52 C107 23 73 4 43 4 L27.5 4 C17.9182 4 12 2.66364 12 0.5 C12 -1.66364 57.2455 -3 130.5 -3 C203.755 -3 248.618 -1.09091 248 2 C247.382 5.09091 236.309 7 219 7 L219 7 Z " />
<glyph glyph-name="Y" unicode="Y" horiz-adv-x="675" d="M135.5 750 C51.7364 750 0 748.664 0 746.5 C0 744.336 21.3094 746.193 48.75 732 C77.2179 717.275 126.9 625.6 191.5 510 C256.1 394.4 296 276.227 296 200.5 L296 78 C296 36 268 8 226 8 L213 8 C204.964 8 200 6.66364 200 4.5 C200 2.33636 255.745 1 346 1 C436.255 1 492 2.33636 492 4.5 C492 6.66364 487.036 8 479 8 L466 8 C424 8 396 36 396 78 L396 208 C396 288.364 428.645 406.155 481.5 516.5 L567 695 C584 725 614 744 645 744 L661 744 C670.891 744 677 745.336 677 747.5 C677 749.664 636.909 751 572 751 C507.091 751 467 749.664 467 747.5 C467 745.336 478.073 744 496 744 L525 744 C558 744 569 722 554 689 L474 517 C424.545 410.673 358.777 410.673 301.75 517 C244.723 623.327 192.552 706.261 203.125 728.875 C207.625 738.5 218.5 744 235 744 L253.5 744 C264.936 744 271.809 745.145 271.5 747 C271.191 748.855 219.264 750 135.5 750 L135.5 750 Z " />
<glyph glyph-name="Z" unicode="Z" horiz-adv-x="615" d="M72 615 L74 624 C90 683 142 723 205 724 L337.5 726 C419.409 727.236 385.045 592.836 247.5 374 C109.955 155.164 25 16.1818 25 10 C25 3.81818 129.618 0 299 0 C468.382 0 573.573 2.86364 574.5 7.5 L576 15 C576.5 15 579.5 27.75 584.625 50.5 C597.92 109.518 603.709 146 600 146 C596.291 146 592.664 142.564 590.5 137 L587 128 C565 73 514 34 456 28 L299 25 C201.945 23.1455 225.045 157.164 359.5 376 C493.955 594.836 577 733.818 577 740 C577 746.182 480.209 750 323.5 750 C166.791 750 69.5227 744.655 68.75 736 L67.5 722 C66.5 712 65.375 696.5 63.875 676.75 C60.5514 632.989 60.2909 606 64 606 C67.7091 606 70.7636 609.436 72 615 L72 615 Z " />
<glyph glyph-name="bracketleft" unicode="&#x5b;" horiz-adv-x="295" d="M240 725 C304.909 725 345 729.773 345 737.5 C345 745.227 299.182 750 225 750 C150.818 750 105 569.591 105 277.5 C105 -14.5909 150.818 -195 225 -195 C299.182 -195 345 -190.227 345 -182.5 C345 -174.773 304.909 -170 240 -170 C175.091 -170 135 0.863636 135 277.5 C135 554.136 175.091 725 240 725 L240 725 Z " />
<glyph glyph-name="backslash" unicode="&#x5c;" horiz-adv-x="347" d="M157 345 C237.364 82.2727 296.545 -80 312 -80 C327.455 -80 287.364 82.2727 207 345 C126.636 607.727 67.4545 770 52 770 C36.5455 770 76.6364 607.727 157 345 L157 345 Z " />
<glyph glyph-name="bracketright" unicode="&#x5d;" horiz-adv-x="298" d="M158 277.5 C158 0.863636 117.909 -170 53 -170 C-11.9091 -170 -52 -174.773 -52 -182.5 C-52 -190.227 -6.18182 -195 68 -195 C142.182 -195 188 -14.5909 188 277.5 C188 569.591 142.182 750 68 750 C-6.18182 750 -52 745.227 -52 737.5 C-52 729.773 -11.9091 725 53 725 C117.909 725 158 554.136 158 277.5 L158 277.5 Z " />
<glyph glyph-name="asciicircum" unicode="&#x5e;" horiz-adv-x="298" d="M165.5 773.375 C160 779.75 154 785 149 785 C144.5 785 138.75 779.75 133.375 773.375 C124.319 762.634 96.5182 718.918 58.5 660.5 C20.4818 602.082 -0.709091 564.091 3 561 C6.70909 557.909 35.7273 582.536 79 625.5 C122.273 668.464 175.918 668.464 219.5 625.5 C263.082 582.536 292.1 557.909 295.5 561 C298.9 564.091 277.709 602.082 240 660.5 C202.291 718.918 174.707 762.703 165.5 773.375 L165.5 773.375 Z " />
<glyph glyph-name="underscore" unicode="&#x5f;" horiz-adv-x="381" d="M5 -73.5 C5 -88.0273 75.8273 -97 190.5 -97 C305.173 -97 376 -88.0273 376 -73.5 C376 -58.9727 305.173 -50 190.5 -50 C75.8273 -50 5 -58.9727 5 -73.5 L5 -73.5 Z " />
<glyph glyph-name="grave" unicode="&#x60;" horiz-adv-x="298" d="M-54 746 C-54 738 -28 714 10 682 L81 622 C124.891 584.909 153.909 564.1 157 567.5 C160.091 570.9 140.427 601.255 105.5 647 L49 721 C19 761 -4 788 -12 788 C-35 788 -54 769 -54 746 L-54 746 Z " />
<glyph glyph-name="a" unicode="a" horiz-adv-x="479" d="M485 104.5 C482.527 105.427 480.469 86.1826 460.75 69.75 C450.25 61 436.5 56 421 56 C389 56 367 74 367 102 L367 355 C367 462 316 510 240 510 C135 510 65 414 65 360 C65 324 85 300 114 300 C141 300 159 325 159 343 C159 361 139 385 139 403 C139 439 177 504 233 504 C263.5 504 275.75 472 280.375 425.75 C290.448 325.02 208.817 227.34 102.625 152.5 C63.25 124.75 44 104.5 44 88 C44 29 84 -10 145 -10 C162.5 -10 182.5 -3.5 205.375 11.25 C259.942 46.4353 282.774 47.4603 316.375 18.625 C334 3.5 357.5 -5 385 -5 C410 -5 433.125 5.75 451.375 24.625 C488.64 63.1662 487.473 103.573 485 104.5 L485 104.5 Z M280.25 144.25 C279.934 108.239 266.513 64.7203 232.375 46.125 C217 37.75 202.5 34 189 34 C152 34 128 59 128 96 C128 128 140.375 153.625 165.625 178.625 C226.839 239.233 280.867 214.567 280.25 144.25 L280.25 144.25 Z " />
<glyph glyph-name="b" unicode="b" horiz-adv-x="520" d="M15.5 718 C18.9 718 38.2117 722.31 53.625 707.875 C61.5 700.5 66 689.5 66 676 L66 0 L71 0 L86 32.5 C95.2727 52.5909 120.684 33.7543 169.625 10.75 C196.75 -2 227.5 -9 260 -9 C388 -9 474 96 474 254 C474 405 394 506 274 506 C250 506 226.25 498.75 204.875 485.875 C164.153 461.346 150 492.9 150 591.5 C150 690.1 141.982 751 129 751 C116.018 751 89.1442 746.05 58.5 738.5 C27.8558 730.95 9.19091 724.473 9.5 722 C9.80909 719.527 12.1 718 15.5 718 L15.5 718 Z M150 264.5 C150 359.391 161.345 441.648 194 461.875 C210.75 472.25 229 478 247 478 C326 478 379 384 379 242 C379 98 332 2 262 2 C239.5 2 217.5 12.75 198.125 31.75 C157.202 71.8809 150 169.609 150 264.5 L150 264.5 Z " />
<glyph glyph-name="c" unicode="c" horiz-adv-x="462" d="M364.375 42.625 C337.625 21.875 307.5 10 278 10 C191 10 133 115 133 273 C133 413 192 506 280 506 C298 506 325 466 347 405 C356 380 373 363 390 363 C407 363 419.75 367.25 427.125 374.625 C440.572 388.072 422.11 447.172 373.375 481.125 C347 499.5 315 510 281 510 C139 510 45 400 45 236 C45 88 133 -10 266 -10 C297.5 -10 329.75 3.75 358.75 27.875 C417.707 76.9213 417.316 83.691 364.375 42.625 L364.375 42.625 Z " />
<glyph glyph-name="d" unicode="d" horiz-adv-x="558" d="M331.5 717 C334.9 717 354.038 720.85 369.625 706.5 C377.5 699.25 382 688.5 382 675 L382 547 C382 467.873 369.497 452.267 328 484 C306.75 500.25 283 510 259 510 C118 510 45 406 45 251 C45 97 122 -5 238 -5 C264 -5 291 2.5 315.875 15.75 C362.472 40.5705 381 57.4455 381 35.5 C381 13.5545 389.018 -0.0954545 402 -0.25 C414.982 -0.404545 445.663 5.86109 482.5 15.625 C519.222 25.3585 542 32.3364 542 34.5 C542 36.6636 537.036 36.6636 529 34.5 L516 31 C486 23 466 38 466 68 L466 409 C466 619.8 457.982 750 445 750 C432.018 750 415.791 747.9 402.5 744.5 L381 739 C381 736 328 725 325 724 L325.5 720.5 C325.809 718.336 328.1 717 331.5 717 L331.5 717 Z M381 226.5 C381 134.7 366.698 57.8684 333.25 43.125 C314.25 34.75 293 30 272 30 C187 30 131 128 131 274 C131 401 178 485 268 485 C292 485 315.75 472.25 335.75 452.125 C374.715 412.916 381 318.3 381 226.5 L381 226.5 Z " />
<glyph glyph-name="e" unicode="e" horiz-adv-x="494" d="M301.5 340 C401.955 340 466.778 412.333 397.375 470.75 C365 498 323.5 510 276 510 C137 510 45 432 45 231 C45 86 129 -10 255 -10 C296.5 -10 335.875 4.5 368.875 29.875 C432.337 78.6737 432.264 84.9366 373.875 45.25 C341.875 23.5 303 11 262 11 C186 11 135 113 135 266 C135 279.5 135.25 292.5 135.875 304.875 C136.975 326.647 201.045 340 301.5 340 L301.5 340 Z M254.5 345.5 C183.718 345.191 132.512 407.894 187.375 468.625 C210.75 494.5 241 506 276 506 C295 506 313.125 494.875 329.125 469.25 C371.743 400.994 325.282 345.809 254.5 345.5 L254.5 345.5 Z " />
<glyph glyph-name="f" unicode="f" horiz-adv-x="333" d="M231.5 7 L211 7 C202 7 196 13 196 22 L196 238.5 C196 372.336 220.245 455 259.5 455 C298.755 455 323 463.591 323 477.5 C323 491.409 298.755 500 259.5 500 C220.245 500 183.1 568.2 216.875 665.875 C230.75 706 251.5 729 279 729 C314 729 348 635 377 635 C404 635 422 653 422 680 C422 725 377 755 309 755 C243.5 755 194 729.5 160.875 684.875 C90.3211 589.827 93.0545 493.318 64 482.5 C34.9455 471.682 17 463.091 17 460 C17 456.909 34.9455 455 64 455 C93.0545 455 111 372.336 111 238.5 L111 22 C111 13 105 7 96 7 L75.5 7 C62.8273 7 55 5.66364 55 3.5 C55 1.33636 92.6091 0 153.5 0 C214.391 0 252 1.33636 252 3.5 C252 5.66364 244.173 7 231.5 7 L231.5 7 Z " />
<glyph glyph-name="g" unicode="g" horiz-adv-x="487" d="M508 479 C508 510 486 530 453 530 C436.5 530 419 523.5 402.625 512 C369.812 488.956 342.462 483.927 306.375 497.875 C286 505.75 263 510 238 510 C140 510 74 446 74 350 C74 307.5 86.75 271.25 109.375 243.875 C152.064 192.224 155.444 197.907 95.375 163.375 C69.5 148.5 55 128.5 55 105 C55 78.5 63 55.75 77.25 38.25 C104.329 4.99529 103.272 -2.2836 70 -37.375 C54 -54.25 45 -74 45 -95 C45 -176 127 -230 249 -230 C371 -230 452 -165 452 -68 C452 23 404 84 281 84 L171 84 C131 84 104 102 104 130 C104 165 158 188 239 188 C337 188 402 253 402 350 C402 372.5 398.5 393.25 391.875 411.875 C380.07 445.064 368.339 468.33 380.625 474.125 C387.25 477.25 394.5 479 402 479 C423 479 450 444 471 444 C493 444 507.5 458 507.5 480 L508 479 Z M238 194 C191 194 159 257 159 352 C159 446 191 508 238 508 C285 508 316 446 316 352 C316 257 285 194 238 194 L238 194 Z M156 2.5 C161.564 2.19091 185.045 2 217.5 2 L270 2 C348 2 379 -33 379 -86 C379 -169 327 -224 248 -224 C168 -224 114 -164 114 -73 C114 -56 117.125 -40.5 122.75 -27.5 C132.24 -5.56837 150.436 2.80909 156 2.5 L156 2.5 Z " />
<glyph glyph-name="h" unicode="h" horiz-adv-x="534" d="M24.5 717 C27.9 717 47.2117 721.31 62.625 706.875 C70.5 699.5 75 688.5 75 675 L75 22 C75 13 69 7 60 7 L39.5 7 C26.8273 7 19 5.66364 19 3.5 C19 1.33636 56.6091 0 117.5 0 C178.391 0 216 1.33636 216 3.5 C216 5.66364 208.173 7 195.5 7 L175 7 C166 7 160 13 160 22 L160 201 C160 311.655 168.787 410.073 205.5 430.75 C227.25 443 254.5 450 284 450 C336 450 363 402 363 330 L363 22 C363 13 357 7 348 7 L327.5 7 C314.827 7 307 5.66364 307 3.5 C307 1.33636 344.609 0 405.5 0 C466.391 0 504 1.33636 504 3.5 C504 5.66364 496.173 7 483.5 7 L463 7 C454 7 448 13 448 22 L448 330 C448 438 409 510 333 510 C295 510 258.5 497.5 228.125 475.625 C171.252 434.667 160 454.682 160 567.5 C160 680.318 151.982 750.095 139 750.25 C126.018 750.405 99.1 745.441 68.5 737.25 C37.9 729.059 19 722.664 19 720.5 C19 718.336 21.1 717 24.5 717 L24.5 717 Z " />
<glyph glyph-name="i" unicode="i" horiz-adv-x="256" d="M128 615 C161 615 183 637 183 670 C183 703 161 725 128 725 C95 725 73 703 73 670 C73 637 95 615 128 615 L128 615 Z M34.5 467 C37.9 467 57.2117 471.31 72.625 456.875 C80.5 449.5 85 438.5 85 425 L85 22 C85 13 79 7 70 7 L49.5 7 C36.8273 7 29 5.66364 29 3.5 C29 1.33636 66.6091 0 127.5 0 C188.391 0 226 1.33636 226 3.5 C226 5.66364 218.173 7 205.5 7 L185 7 C176 7 170 13 170 22 L170 261 C170 408.745 161.982 500 149 500 C136.018 500 120.133 498.199 107.5 494.875 C100.375 493 93 491 85.5 489 C85.5 486 32 475 29 474 L29 470.5 C29 468.336 31.1 467 34.5 467 L34.5 467 Z " />
<glyph glyph-name="j" unicode="j" horiz-adv-x="261" d="M129 615 C162 615 184 637 184 670 C184 703 162 725 129 725 C96 725 74 703 74 670 C74 637 96 615 129 615 L129 615 Z M35.5 467 C38.9 467 58.2117 471.31 73.625 456.875 C81.5 449.5 86 438.5 86 425 L86 50 C86 6 81.5 -33.25 73.625 -63.5 C63.0568 -104.095 19.2822 -121.441 -14 -111.5 C-33.25 -105.75 -52.5 -100 -69 -100 C-96 -100 -114 -116 -114 -140 C-114 -169 -90 -187 -54 -185 C-47 -185 -5 -163 51 -130 C123 -88 171 -16 171 50 L171 275 C171 414.091 162.982 500 150 500 C137.018 500 121.133 498.199 108.5 494.875 C101.375 493 94 491 86.5 489 C86.5 486 33 475 30 474 L30 470.5 C30 468.336 32.1 467 35.5 467 L35.5 467 Z " />
<glyph glyph-name="k" unicode="k" horiz-adv-x="506" d="M24.5 717 C27.9 717 47.2117 721.31 62.625 706.875 C70.5 699.5 75 688.5 75 675 L75 22 C75 13 69 7 60 7 L39.5 7 C26.8273 7 19 5.66364 19 3.5 C19 1.33636 56.6091 0 117.5 0 C178.391 0 216 1.33636 216 3.5 C216 5.66364 208.173 7 195.5 7 L175 7 C166 7 160 13 160 22 L160 139.5 C160 212.136 191.309 216.145 242 150 L324 43 C339 21 334 6 311 6 L306 6 C302.909 6 301 4.66364 301 2.5 C301 0.336364 338.8 -1 400 -1 C461.2 -1 499 0.336364 499 2.5 C499 4.66364 482.973 4.52304 462.625 15.875 C450.75 22.5 439 32.5 427 46 L321 181.5 C255.473 265.264 241.155 339.336 283.5 375.5 L352 434 C395 469 447 492 484 492 L490 492 C493.709 492 496 493.336 496 495.5 C496 497.664 448.845 499 372.5 499 C296.155 499 249 497.664 249 495.5 C249 493.336 259.882 492 277.5 492 L306 492 C336 492 349.5 482 346.75 464.5 C337.915 408.274 274.823 378.923 250.25 357.75 L210.5 323.5 L184.75 302.75 C168.832 289.923 159 371.155 159 515.5 C159 659.845 150.982 749 138 749 C125.018 749 109.133 747.199 96.5 743.875 C89.375 742 82 740 74.5 738 C74.5 735 21 724 18 723 L18.5 720 C18.8091 718.145 21.1 717 24.5 717 L24.5 717 Z " />
<glyph glyph-name="l" unicode="l" horiz-adv-x="246" d="M24.5 718 C27.9 718 47.2117 722.31 62.625 707.875 C70.5 700.5 75 689.5 75 676 L75 22 C75 13 69 7 60 7 L39.5 7 C26.8273 7 19 5.66364 19 3.5 C19 1.33636 56.6091 0 117.5 0 C178.391 0 216 1.33636 216 3.5 C216 5.66364 208.173 7 195.5 7 L175 7 C166 7 160 13 160 22 L160 386 C160 611.018 151.982 750 139 750 C126.018 750 99.1442 745.05 68.5 737.5 C37.8558 729.95 19 723.664 19 721.5 C19 719.336 21.1 718 24.5 718 L24.5 718 Z " />
<glyph glyph-name="m" unicode="m" horiz-adv-x="784" d="M24.5 468 C27.9 468 47.2117 472.31 62.625 457.875 C70.5 450.5 75 439.5 75 426 L75 22 C75 13 69 7 60 7 L39.5 7 C26.8273 7 19 5.66364 19 3.5 C19 1.33636 56.6091 0 117.5 0 C178.391 0 216 1.33636 216 3.5 C216 5.66364 208.173 7 195.5 7 L175 7 C166 7 160 13 160 22 L160 203.5 C160 315.7 168.401 411.65 201.5 429.875 C221.25 440.75 246 447 273 447 C324 447 344 400 344 330 L344 22 C344 13 338 7 329 7 L308.5 7 C295.827 7 288 5.66364 288 3.5 C288 1.33636 325.609 0 386.5 0 C447.391 0 485 1.33636 485 3.5 C485 5.66364 477.173 7 464.5 7 L444 7 C435 7 429 13 429 22 L429 330 C429 340.5 428.75 350.5 428.125 360.125 C427.001 377.428 434.722 413.616 468.125 430.625 C488.5 441 514 447 542 447 C593 447 613 400 613 330 L613 22 C613 13 607 7 598 7 L577.5 7 C564.827 7 557 5.66364 557 3.5 C557 1.33636 594.609 0 655.5 0 C716.391 0 754 1.33636 754 3.5 C754 5.66364 746.173 7 733.5 7 L713 7 C704 7 698 13 698 22 L698 330 C698 438 664 510 577 510 C544.5 510 512.75 498.25 485.875 477.625 C434.067 437.866 426.585 436.05 386.875 478.875 C367.75 499.5 341.5 511 307 511 C276 511 245.5 499 219.5 478 C168.539 436.839 159 412 159 446 C159 480 150.982 501 138 501 C125.018 501 98.1442 496.05 67.5 488.5 C36.8558 480.95 18.1909 474.473 18.5 472 C18.8091 469.527 21.1 468 24.5 468 L24.5 468 Z " />
<glyph glyph-name="n" unicode="n" horiz-adv-x="515" d="M25.5 469 C28.9 469 46.8431 472.754 62.5 459.875 C70.25 453.5 75 444 76 432 C76 335 75 137 75 22 C75 13 69 7 60 7 L39.5 7 C26.8273 7 19 5.66364 19 3.5 C19 1.33636 56.6091 0 117.5 0 C178.391 0 216 1.33636 216 3.5 C216 5.66364 208.173 7 195.5 7 L175 7 C166 7 160 13 160 22 L160 200 C160 310.036 168.132 413.495 208.75 443.25 C230.25 459 256 468 283 468 C323 468 344 418 344 342 L344 22 C344 13 338 7 329 7 L308.5 7 C295.827 7 288 5.66364 288 3.5 C288 1.33636 325.609 0 386.5 0 C447.391 0 485 1.33636 485 3.5 C485 5.66364 477.173 7 464.5 7 L444 7 C435 7 429 13 429 22 L429 342 C429 443 388 510 308 510 C276.5 510 246 498 220.125 477.125 C169.589 436.355 160 411.809 160 445.5 C160 479.191 151.886 500 138.75 500 C125.614 500 98.8864 495.418 68.75 488 C38.6136 480.582 20 474.664 20 472.5 C20 470.336 22.1 469 25.5 469 L25.5 469 Z " />
<glyph glyph-name="o" unicode="o" horiz-adv-x="580" d="M139 250 C139 402 199 504 290 504 C381 504 442 402 442 250 C442 98 381 -4 290 -4 C199 -4 139 98 139 250 L139 250 Z M45 250 C45 94 143 -10 290 -10 C437 -10 535 94 535 250 C535 406 437 510 290 510 C143 510 45 406 45 250 L45 250 Z " />
<glyph glyph-name="p" unicode="p" horiz-adv-x="518" d="M9.5 468 C12.9 468 32.2117 472.31 47.625 457.875 C55.5 450.5 60 439.5 60 426 L60 -198 C60 -207 54 -213 45 -213 L24.5 -213 C11.8273 -213 4 -214.336 4 -216.5 C4 -218.664 41.6091 -220 102.5 -220 C163.391 -220 201 -218.664 201 -216.5 C201 -214.336 193.173 -213 180.5 -213 L160 -213 C151 -213 145 -207 145 -198 L145 -86 C145 -16.7636 162.608 12.5635 195.625 3 C213.75 -2.25 233 -5 253 -5 C385 -5 473 116 473 257 C473 409 394 510 276 510 C251.5 510 226.5 503.25 203.75 491.25 C161.479 468.953 145 452.455 145 471 C145 489.545 136.982 501 124 501 C111.018 501 84.1442 496.05 53.5 488.5 C22.8558 480.95 4 474.473 4 472 C4 469.527 6.1 468 9.5 468 L9.5 468 Z M145 269 C145 354.309 157.309 431.982 191 457.25 C207 469.25 223 476 237 476 C322 476 379 378 379 231 C379 115 331 17 258 17 C234.5 17 211.5 28.5 191.75 48.5 C150.561 90.2099 145 183.691 145 269 L145 269 Z " />
<glyph glyph-name="q" unicode="q" horiz-adv-x="509" d="M483.5 -213 L463 -213 C454 -213 448 -207 448 -198 L448 500 L443 500 L428.75 469.75 C419.941 451.05 394.773 469.288 347 491.25 C320.625 503.375 291 510 260 510 C109 510 31 406 31 251 C31 114 116 22 243 22 C257.5 22 276.5 26.5 297.375 34.5 C339.907 50.7997 363 17.2182 363 -65 L363 -198 C363 -207 357 -213 348 -213 L327.5 -213 C314.827 -213 307 -214.336 307 -216.5 C307 -218.664 344.609 -220 405.5 -220 C466.391 -220 504 -218.664 504 -216.5 C504 -214.336 496.173 -213 483.5 -213 L483.5 -213 Z M256 491 C277.5 491 298.75 481 317.5 463.375 C356.628 426.595 364 334.255 364 244 C364 153.745 340.244 79.9013 296.375 62.25 C275.25 53.75 256.5 49 243 49 C169 49 120 139 120 275 C120 405 166.5 491 256.5 491 L256 491 Z " />
<glyph glyph-name="r" unicode="r" horiz-adv-x="371" d="M25.5 468 C28.9 468 48.2117 472.31 63.625 457.875 C71.5 450.5 76 439.5 76 426 L76 22 C76 13 70 7 61 7 L40.5 7 C27.8273 7 20 5.66364 20 3.5 C20 1.33636 57.6091 0 118.5 0 C179.391 0 217 1.33636 217 3.5 C217 5.66364 209.173 7 196.5 7 L176 7 C167 7 161 13 161 22 L161 210.5 C161 327.027 163.518 426.403 191.375 451.5 C205.25 464 222.5 471 242 471 C253 471 261 457 261 436 C261 406 281 386 311 386 C341 386 361 406 361 436 C361 481 329 511 282 511 C252 511 225.5 501.25 204.625 483.875 C164.27 450.286 161 428.182 161 456 C161 483.818 152.982 501 140 501 C127.018 501 100.144 496.05 69.5 488.5 C38.8558 480.95 20 474.473 20 472 C20 469.527 22.1 468 25.5 468 L25.5 468 Z " />
<glyph glyph-name="s" unicode="s" horiz-adv-x="395" d="M320 426 C320 472.364 318.664 501 316.5 501 L313 501 C312 497 312 492 311 488 C310.5 483 304.5 481 294.5 481.875 C268.635 484.138 242.745 499.635 222.75 504.75 C212 507.5 201 509 190 509 C111 509 58 457 58 379 C58 301 99 238 179 217 C245 199 279 156 279 105 C279 14 213 -38 148 14 C129 29.5 112.25 51.5 98.625 77.75 C71.7529 129.522 66.4727 167 64 167 C61.5273 167 60 136.455 60 87 C60 37.5455 61.3364 7 63.5 7 C65.6636 7 67.5346 9.84582 68 14.5 C68.4654 19.1542 75.5752 32.0036 87.75 29.375 C98.75 27 114 20 132 9 C153 -4 176 -11 198 -11 C286 -11 345 45 345 129 C345 164.5 334 196.75 312.5 223 C268.734 276.436 175.745 284.976 143.625 328.375 C127.25 350.5 119 378 119 408 C119 474 159 522 216 501 C238 492.5 258.25 472.75 274.75 446.25 C308.05 392.768 312.718 351 315.5 351 C318.282 351 320 379.636 320 426 L320 426 Z " />
<glyph glyph-name="t" unicode="t" horiz-adv-x="358" d="M244 500 C201.964 500 176 522.909 176 560 C176 597.091 174.855 620 173 620 C171.145 620 142.509 590.6 98 543 C53.4909 495.4 26 464.091 26 461 C26 457.909 38.4091 456 58.5 456 C78.5909 456 91 399.491 91 308 L91 160 C91 38 143 -10 220 -10 C247 -10 273.25 0.5 295.625 19 C339.992 55.6831 345.9 96.7636 342.5 98 C339.1 99.2364 331.184 72.7421 300.5 49.25 C284.5 37 265.5 30 246 30 C203 30 174 61 174 141 L175 298 C175.618 395.055 201.964 455 244 455 C286.036 455 312 463.591 312 477.5 C312 491.409 286.036 500 244 500 L244 500 Z " />
<glyph glyph-name="u" unicode="u" horiz-adv-x="492" d="M469 33.5 L461 31 C431 23 411 38 411 68 L411 284 C411 417.527 384.082 500 340.5 500 C296.918 500 270 498.664 270 496.5 C270 494.336 277.827 493 290.5 493 L311 493 C320 493 326 487 326 478 L326 303.5 C326 195.627 317.815 99.0623 283.5 70.125 C266.75 56 248 48 229 48 C186 48 157 90 157 154 L157 326.5 C157 433.136 130.082 499 86.5 499 C42.9182 499 16 497.664 16 495.5 C16 493.336 23.8273 492 36.5 492 L57 492 C66 492 72 486 72 477 L72 154 C72 55 119 -11 189 -11 C214.5 -11 240.75 2.25 264.875 25.625 C316.396 75.5439 328 99.3273 328 61 C328 22.6727 336.018 -1.09545 349 -1.25 C361.982 -1.40455 390.801 4.16025 424.5 13.25 C458.199 22.3398 478.618 29.5273 478 32 C477.382 34.4727 473.945 35.0455 469 33.5 L469 33.5 Z " />
<glyph glyph-name="v" unicode="v" horiz-adv-x="495" d="M108.5 500 C45.7545 500 7 498.664 7 496.5 C7 494.336 27.6889 496.878 51.375 481.25 C63.5 473.25 73 461 80 444 L156 217 C202.982 76.6727 236.773 -10 244.5 -10 C252.227 -10 284.491 77.2455 329 218.5 C373.509 359.755 405.624 467.077 429 481.5 C452.287 495.868 472 493.336 472 495.5 C472 497.664 443.555 499 397.5 499 C351.445 499 323 497.664 323 495.5 C323 493.336 324.527 492 327 492 L331 492 C345 492 355 486.5 360.25 476.875 C372.056 455.231 344.582 379.918 318 287.5 C291.418 195.082 256.095 195.287 225 287.875 C208.25 337.75 191.5 387.5 175 437 C164 470 175 492 202 492 L206 492 C208.473 492 210 493.527 210 496 C210 498.473 171.245 500 108.5 500 L108.5 500 Z " />
<glyph glyph-name="w" unicode="w" horiz-adv-x="764" d="M666 500 C619.636 500 591 498.664 591 496.5 C591 494.336 592.527 493 595 493 L599 493 C626 493 637 471 627 438 L579 286.5 C549.327 192.845 511.145 193.418 479 288 L427 441 C421.5 459.5 422.5 472.75 428.875 481.375 C442.245 499.463 463 495.336 463 497.5 C463 499.664 423.864 501 360.5 501 C297.136 501 258 499.664 258 497.5 C258 495.336 280.066 497.917 304.625 480.75 C317.5 471.75 327.5 458 334 439 L349 395 C358.273 367.8 342.809 282.273 308.5 171 C274.191 59.7273 257.773 -9 265.5 -9 C273.227 -9 297.664 50.3727 329.5 146.5 C361.336 242.627 401.045 242.627 433.5 146.5 C465.955 50.3727 490.773 -9 498.5 -9 C506.227 -9 541.355 78.4364 590.5 220 C639.645 361.564 675.334 469.125 699.375 483.5 C723.182 497.735 742.618 495.145 742 497 C741.382 498.855 712.364 500 666 500 L666 500 Z M127.5 501 C64.1364 501 25 499.664 25 497.5 C25 495.336 47.0663 497.917 71.625 480.75 C97.4895 462.67 130.4 353.473 178 215 C225.6 76.5273 263.591 18.8727 277.5 64 C291.409 109.127 279.764 195.8 247 291 L194 445 C189.5 462.5 190.75 474.75 197.125 482.625 C211.024 499.794 230.809 495.336 230.5 497.5 C230.191 499.664 190.864 501 127.5 501 L127.5 501 Z " />
<glyph glyph-name="x" unicode="x" horiz-adv-x="517" d="M393 0 C458.527 0 499 1.33636 499 3.5 C499 5.66364 479.248 4.0394 454.625 17.875 C428.425 32.5969 395.945 98.0091 357 172.5 C318.055 246.991 313.664 322.018 345.5 369 L397 445 C409.5 461.5 423 473.5 437.625 481.375 C464.176 495.672 485 494.336 485 496.5 C485 498.664 457.127 500 412 500 C366.873 500 339 498.664 339 496.5 C339 494.336 340.527 493 343 493 L347 493 C371 493 377 474 361 445 L322 380 C297.891 339.818 270.686 338.673 250.75 377 L218.5 439 C201.5 472 208 494 234 494 L238 494 C240.473 494 242 495.336 242 497.5 C242 499.664 201.527 501 136 501 C70.4727 501 30 499.664 30 497.5 C30 495.336 49.7523 496.961 74.375 483.125 C100.575 468.403 130.764 407.382 166 340 C201.236 272.618 201.236 197.973 166 144.5 L109 58 C96.5 41 83 28.5 68.25 20.25 C41.3921 5.2278 20 6.66364 20 4.5 C20 2.33636 47.8727 1 93 1 C138.127 1 166 2.33636 166 4.5 C166 6.66364 164.473 8 162 8 L158 8 C145 8 137.25 13.5 135.125 23.125 C129.617 48.0745 162.418 91.6364 189 138 C215.582 184.364 246.986 184.364 271.25 138 L310.5 63 C327.5 30 321 8 295 8 L291 8 C288.527 8 287 6.47273 287 4 C287 1.52727 327.473 0 393 0 L393 0 Z " />
<glyph glyph-name="y" unicode="y" horiz-adv-x="515" d="M425 500 C379.255 500 351 498.664 351 496.5 C351 494.336 370.057 498.592 384.625 482.375 C391.25 475 393 463.5 389 447 L337.5 290.5 C305.664 193.755 266.145 192.609 234 287.5 L182 441 C176.5 459.5 177.5 472.75 183.875 481.375 C197.245 499.463 218 495.336 218 497.5 C218 499.664 179.245 501 116.5 501 C53.7545 501 15 499.664 15 497.5 C15 495.336 37.0663 497.917 61.625 480.75 C74.5 471.75 84.5 458 91 439 L165 221 C210.745 86.2364 226.895 -26.8276 208.625 -75.625 C198.75 -102 189 -128.5 179 -155 C170 -178 156 -193 152 -193 C130 -193 125 -164 102 -164 C75 -164 57 -182 57 -209 C57 -239 77 -259 107 -259 C133 -259 179 -222 200 -166 L230 -87.5 C248.545 -38.9727 291.366 77.9527 343.125 218.375 C371 294 399 369.5 427 445 C434.5 461.5 444.5 473.5 456.875 481.375 C480.673 496.519 500.618 494.336 500 496.5 C499.382 498.664 470.745 500 425 500 L425 500 Z " />
<glyph glyph-name="z" unicode="z" horiz-adv-x="442" d="M66 504 C62.952 492.243 62.9091 484.905 66 484.75 C69.0909 484.595 69.0909 484.405 66 484.25 C62.9091 484.095 58.1036 473.21 53.375 455.75 C40.8545 409.521 35.6727 381 40 381 C44.3273 381 48.5273 383.673 51 388 C53.4727 392.327 66.0118 422.686 101.625 447.5 C137.216 472.299 192.773 473.764 234.5 475 C276.227 476.236 251.982 389.755 171 248.5 C90.0182 107.245 40 16.1818 40 10 C40 3.81818 57.1818 0 85 0 L130 0 C173 -0.5 216.75 -0.25 260.25 -0.125 C339.842 0.103714 389.8 1.94986 391 6.75 C392.25 11.75 394 19 396 28 C399 39.5 402 53.5 404.625 69 C409.828 99.7219 408.327 119 404 119 C399.673 119 396.045 116.327 394.5 112 L392 105 C383.5 82.5 368.25 63.25 348.75 49.5 C312.204 23.7302 253.655 26.2364 211 25 C168.345 23.7636 191.445 110.245 271.5 251.5 C351.555 392.755 401 483.818 401 490 C401 496.182 345.064 500 254.5 500 L108 500 C97.5 500 90.75 502 86.625 505.875 C78.5036 513.504 79.0909 523 76 523 C72.9091 523 69.048 515.757 66 504 L66 504 Z " />
<glyph glyph-name="braceleft" unicode="&#x7b;" horiz-adv-x="226" d="M201 750 L181 750 C109 750 61 707 61 643 L61 383 C61 360 56.75 341.75 48.875 329.25 C36.0363 308.871 36.5894 310.201 48.875 288.75 C56.75 275 61 255 61 230 L61 -23 C61 -55 73 -81.75 94 -100.5 C136.361 -138.323 188.636 -129.714 201 -129.25 C213.364 -128.786 214.127 -128.214 203 -127.75 C191.873 -127.286 158.17 -125.819 142.875 -98.25 C132.75 -80 127 -54 127 -23 L127 182 C127 220.5 116.5 252.5 98.25 274.875 C65.8024 314.657 64.9309 304.66 98.25 343 C116.5 364 127 394 127 430 L127 643 C127 674 132.75 700 142.875 718.25 C158.17 745.819 191.873 747.286 203 747.75 C214.127 748.214 213.364 750 201 750 L201 750 Z " />
<glyph glyph-name="bar" unicode="&#x7c;" horiz-adv-x="186" d="M60 275 C60 -49.5455 72.6 -250 93 -250 C113.4 -250 126 -49.5455 126 275 C126 599.545 113.4 800 93 800 C72.6 800 60 599.545 60 275 L60 275 Z " />
<glyph glyph-name="braceright" unicode="&#x7d;" horiz-adv-x="226" d="M23 747.75 C34.1273 747.286 67.8298 745.819 83.125 718.25 C93.25 700 99 674 99 643 L99 430 C99 394 109.5 364 127.75 343 C161.069 304.66 160.198 314.657 127.75 274.875 C109.5 252.5 99 220.5 99 182 L99 -23 C99 -54 93.25 -80 83.125 -98.25 C67.8298 -125.819 34.1273 -127.286 23 -127.75 C11.8727 -128.214 12.6364 -128.786 25 -129.25 C37.3636 -129.714 89.6386 -138.323 132 -100.5 C153 -81.75 165 -55 165 -23 L165 230 C165 255 169.25 275 177.125 288.75 C189.411 310.201 189.964 308.871 177.125 329.25 C169.25 341.75 165 360 165 383 L165 643 C165 707 117 750 45 750 L25 750 C12.6364 750 11.8727 748.214 23 747.75 L23 747.75 Z " />
<glyph glyph-name="asciitilde" unicode="&#x7e;" horiz-adv-x="298" d="M38.75 353.5 C45 364 54 370 65 370 C108 370 166 305 209 305 C228 305 243.5 317 254.25 338 C279.207 386.753 275.214 404.199 259 381.5 C251.5 371 241 365 229 365 C186 365 128 430 85 430 C67.5 430 53.125 418 43.125 397 C19.6324 347.666 24.6545 329.82 38.75 353.5 L38.75 353.5 Z " />
<glyph glyph-name="exclamdown" unicode="&#xa1;" horiz-adv-x="244" d="M122 505 C86 505 62 481 62 445 C62 409 86 385 122 385 C158 385 182 409 182 445 C182 481 158 505 122 505 L122 505 Z M122 -255 C142.5 -255 157 -244.5 165.625 -226.125 C185.741 -183.268 164.417 -85.0459 152 20.5 C132.469 186.509 126.945 290 122 290 C117.055 290 111.531 186.509 92 20.5 C79.5828 -85.0459 58.2586 -183.268 78.375 -226.125 C87 -244.5 101.5 -255 122 -255 L122 -255 Z " />
<glyph glyph-name="cent" unicode="&#xa2;" horiz-adv-x="462" d="M251 541.5 C251 520.791 165.397 508.4 101.125 423.75 C65.25 376.5 45 312 45 236 C45 165 65.25 105.5 101.125 62.875 C167.291 -15.74 251 -21.4091 251 -41.5 C251 -61.5909 256.727 -74 266 -74 C275.273 -74 281 -61.4 281 -41 C281 -20.6 321.926 -4.26395 364.75 35.25 C416.96 83.4247 417.635 85.4112 365.875 44.25 C321.591 9.03405 281 104.691 281 258 C281 411.309 298.179 499.574 312.5 477.625 C324 460 336 435 347 405 C356 380 373 363 390 363 C407 363 419.75 367.25 427.125 374.625 C440.572 388.072 422.11 447.172 373.375 481.125 C324.284 515.325 281 522.409 281 542.5 C281 562.591 275.273 575 266 575 C256.727 575 251 562.209 251 541.5 L251 541.5 Z M165 98.625 C144.5 143.5 133 203.5 133 274 C133 336 144.5 388.75 165 428.25 C197.447 490.771 251 409.645 251 258.5 C251 107.355 195.992 30.7827 165 98.625 L165 98.625 Z " />
<glyph glyph-name="acute" unicode="&#xb4;" horiz-adv-x="298" d="M228 622 C271.891 659.091 317.752 696.933 345.25 724.125 C356.5 735.25 363 743 363 746 C363 769 344 788 321 788 C318 788 310.75 781.25 300.25 769.5 C274.289 740.448 238.236 692.745 203 647 C167.764 601.255 148.1 570.9 151.5 567.5 C154.9 564.1 184.109 584.909 228 622 L228 622 Z " />
<glyph glyph-name="questiondown" unicode="&#xbf;" horiz-adv-x="299" d="M174 505 C138 505 114 481 114 445 C114 409 138 385 174 385 C210 385 234 409 234 445 C234 481 210 505 174 505 L174 505 Z M174 215 C174 168.636 127.116 150.524 71.875 116.75 C27.6221 89.6938 1.15832 38.2509 -7.75 5.375 C-13 -14 -16 -35 -16 -55 C-16 -178 52 -260 154 -260 C202 -260 234 -235 234 -197 C234 -172 216 -155 188 -155 C168 -155 142 -170 123 -170 C55 -170 10 -120 10 -45 C10 -37 12.25 -27 16.25 -16.5 C24.1013 4.10972 44.976 37.1576 77.375 47.625 C151.045 71.4262 195.335 104.155 192.5 176.125 C189.728 246.499 186.136 290 181.5 290 C176.864 290 174 261.364 174 215 L174 215 Z M202 60 L202 60 L202 60 L202 60 Z " />
<glyph glyph-name="Agrave" unicode="&#xc0;" horiz-adv-x="714" d="M554 0 C651.055 0 711 1.71818 711 4.5 C711 7.28182 708.709 9 705 9 L699 9 C655 9 614 49 596 109 C563.5 219 531.25 329.25 498.875 439.5 C438.839 643.947 399.091 770 396 770 C392.909 770 391.717 751.228 373.375 739 C342.288 718.275 316.573 718.091 317.5 715 C318.427 711.909 288.081 595.312 238.5 409.5 C188.919 223.688 152.982 69.5199 111 36.5 C88.75 19 61 9 31 9 L18 9 C9.96364 9 5 7.28182 5 4.5 C5 1.71818 54.0636 0 133.5 0 C212.936 0 262 1.71818 262 4.5 C262 7.28182 257.418 9 250 9 L238 9 C208 9 185.75 19 173 36.5 C146.448 72.9436 174.355 144.318 189.5 201.5 C204.645 258.682 256.955 294 326.5 294 C396.045 294 449.691 256.964 467 197 L495 100 C507 45 478 9 421 9 L409.5 9 C402.391 9 397.809 7.28182 397.5 4.5 C397.191 1.71818 456.945 0 554 0 L554 0 Z M163 996 C163 988 189 964 227 932 L298 872 C341.891 834.909 371.1 814.1 374.5 817.5 C377.9 820.9 358.236 851.255 323 897 L266 971 C236 1011 213 1038 205 1038 C182 1038 163 1019 163 996 L163 996 Z M269 501 C301.764 625.873 344.145 625.873 380 501 C415.855 376.127 395.618 299 327 299 C258.382 299 236.236 376.127 269 501 L269 501 Z " />
<glyph glyph-name="Aacute" unicode="&#xc1;" horiz-adv-x="714" d="M445 872 C488.891 909.091 534.752 946.933 562.25 974.125 C573.5 985.25 580 993 580 996 C580 1019 561 1038 538 1038 C535 1038 527.75 1031.25 517.25 1019.5 C491.289 990.448 455.236 942.745 420 897 C384.764 851.255 365.1 820.9 368.5 817.5 C371.9 814.1 401.109 834.909 445 872 L445 872 Z M554 0 C651.055 0 711 1.71818 711 4.5 C711 7.28182 708.709 9 705 9 L699 9 C655 9 614 49 596 109 C563.5 219 531.25 329.25 498.875 439.5 C438.839 643.947 399.091 770 396 770 C392.909 770 391.717 751.228 373.375 739 C342.288 718.275 316.573 718.091 317.5 715 C318.427 711.909 288.081 595.312 238.5 409.5 C188.919 223.688 152.982 69.5199 111 36.5 C88.75 19 61 9 31 9 L18 9 C9.96364 9 5 7.28182 5 4.5 C5 1.71818 54.0636 0 133.5 0 C212.936 0 262 1.71818 262 4.5 C262 7.28182 257.418 9 250 9 L238 9 C208 9 185.75 19 173 36.5 C146.448 72.9436 174.355 144.318 189.5 201.5 C204.645 258.682 256.955 294 326.5 294 C396.045 294 449.691 256.964 467 197 L495 100 C507 45 478 9 421 9 L409.5 9 C402.391 9 397.809 7.28182 397.5 4.5 C397.191 1.71818 456.945 0 554 0 L554 0 Z M269 501 C301.764 625.873 344.145 625.873 380 501 C415.855 376.127 395.618 299 327 299 C258.382 299 236.236 376.127 269 501 L269 501 Z " />
<glyph glyph-name="Acircumflex" unicode="&#xc2;" horiz-adv-x="714" d="M554 0 C651.055 0 711 1.71818 711 4.5 C711 7.28182 708.709 9 705 9 L699 9 C655 9 614 49 596 109 C563.5 219 531.25 329.25 498.875 439.5 C438.839 643.947 399.091 770 396 770 C392.909 770 391.717 751.228 373.375 739 C342.288 718.275 316.573 718.091 317.5 715 C318.427 711.909 288.081 595.312 238.5 409.5 C188.919 223.688 152.982 69.5199 111 36.5 C88.75 19 61 9 31 9 L18 9 C9.96364 9 5 7.28182 5 4.5 C5 1.71818 54.0636 0 133.5 0 C212.936 0 262 1.71818 262 4.5 C262 7.28182 257.418 9 250 9 L238 9 C208 9 185.75 19 173 36.5 C146.448 72.9436 174.355 144.318 189.5 201.5 C204.645 258.682 256.955 294 326.5 294 C396.045 294 449.691 256.964 467 197 L495 100 C507 45 478 9 421 9 L409.5 9 C402.391 9 397.809 7.28182 397.5 4.5 C397.191 1.71818 456.945 0 554 0 L554 0 Z M383.5 1023.38 C378 1029.75 372 1035 367 1035 C362 1035 356 1029.75 350.5 1023.38 C341.293 1012.7 313.709 968.918 276 910.5 C238.291 852.082 217.291 814.091 221 811 C224.709 807.909 253.727 832.536 297 875.5 C340.273 918.464 393.727 918.464 437 875.5 C480.273 832.536 509.291 807.909 513 811 C516.709 814.091 495.709 852.082 458 910.5 C420.291 968.918 392.707 1012.7 383.5 1023.38 L383.5 1023.38 Z M269 501 C301.764 625.873 344.145 625.873 380 501 C415.855 376.127 395.618 299 327 299 C258.382 299 236.236 376.127 269 501 L269 501 Z " />
<glyph glyph-name="Atilde" unicode="&#xc3;" horiz-adv-x="714" d="M255.75 913.5 C262 924 271 930 282 930 C325 930 383 865 426 865 C445 865 460.375 877 471 898 C495.713 946.845 491.76 964.294 475.75 941.5 C468.375 931 458 925 446 925 C403 925 345 990 301 990 C283.5 990 269.375 978 259.625 957 C236.637 907.488 241.654 889.82 255.75 913.5 L255.75 913.5 Z M554 0 C651.055 0 711 1.71818 711 4.5 C711 7.28182 708.709 9 705 9 L699 9 C655 9 614 49 596 109 C563.5 219 531.25 329.25 498.875 439.5 C438.839 643.947 399.091 770 396 770 C392.909 770 391.717 751.228 373.375 739 C342.288 718.275 316.573 718.091 317.5 715 C318.427 711.909 288.081 595.312 238.5 409.5 C188.919 223.688 152.982 69.5199 111 36.5 C88.75 19 61 9 31 9 L18 9 C9.96364 9 5 7.28182 5 4.5 C5 1.71818 54.0636 0 133.5 0 C212.936 0 262 1.71818 262 4.5 C262 7.28182 257.418 9 250 9 L238 9 C208 9 185.75 19 173 36.5 C146.448 72.9436 174.355 144.318 189.5 201.5 C204.645 258.682 256.955 294 326.5 294 C396.045 294 449.691 256.964 467 197 L495 100 C507 45 478 9 421 9 L409.5 9 C402.391 9 397.809 7.28182 397.5 4.5 C397.191 1.71818 456.945 0 554 0 L554 0 Z M269 501 C301.764 625.873 344.145 625.873 380 501 C415.855 376.127 395.618 299 327 299 C258.382 299 236.236 376.127 269 501 L269 501 Z " />
<glyph glyph-name="Adieresis" unicode="&#xc4;" horiz-adv-x="714" d="M439 865 C472 865 494 887 494 920 C494 953 472 975 439 975 C406 975 384 953 384 920 C384 887 406 865 439 865 L439 865 Z M293 865 C326 865 348 887 348 920 C348 953 326 975 293 975 C260 975 238 953 238 920 C238 887 260 865 293 865 L293 865 Z M554 0 C651.055 0 711 1.71818 711 4.5 C711 7.28182 708.709 9 705 9 L699 9 C655 9 614 49 596 109 C563.5 219 531.25 329.25 498.875 439.5 C438.839 643.947 399.091 770 396 770 C392.909 770 391.717 751.228 373.375 739 C342.288 718.275 316.573 718.091 317.5 715 C318.427 711.909 288.081 595.312 238.5 409.5 C188.919 223.688 152.982 69.5199 111 36.5 C88.75 19 61 9 31 9 L18 9 C9.96364 9 5 7.28182 5 4.5 C5 1.71818 54.0636 0 133.5 0 C212.936 0 262 1.71818 262 4.5 C262 7.28182 257.418 9 250 9 L238 9 C208 9 185.75 19 173 36.5 C146.448 72.9436 174.355 144.318 189.5 201.5 C204.645 258.682 256.955 294 326.5 294 C396.045 294 449.691 256.964 467 197 L495 100 C507 45 478 9 421 9 L409.5 9 C402.391 9 397.809 7.28182 397.5 4.5 C397.191 1.71818 456.945 0 554 0 L554 0 Z M269 501 C301.764 625.873 344.145 625.873 380 501 C415.855 376.127 395.618 299 327 299 C258.382 299 236.236 376.127 269 501 L269 501 Z " />
<glyph glyph-name="Aring" unicode="&#xc5;" horiz-adv-x="714" d="M294 905 C294 950 323 980 366 980 C410 980 439 950 439 905 C439 865 405 830 366 830 C327 830 294 865 294 905 L294 905 Z M269 905 C269 854 314 810 366 810 C419 810 464 854 464 905 C464 962 425 1000 366 1000 C308 1000 269 962 269 905 L269 905 Z M554 0 C651.055 0 711 1.71818 711 4.5 C711 7.28182 708.709 9 705 9 L699 9 C655 9 614 49 596 109 C563.5 219 531.25 329.25 498.875 439.5 C438.839 643.947 399.091 770 396 770 C392.909 770 391.717 751.228 373.375 739 C342.288 718.275 316.573 718.091 317.5 715 C318.427 711.909 288.081 595.312 238.5 409.5 C188.919 223.688 152.982 69.5199 111 36.5 C88.75 19 61 9 31 9 L18 9 C9.96364 9 5 7.28182 5 4.5 C5 1.71818 54.0636 0 133.5 0 C212.936 0 262 1.71818 262 4.5 C262 7.28182 257.418 9 250 9 L238 9 C208 9 185.75 19 173 36.5 C146.448 72.9436 174.355 144.318 189.5 201.5 C204.645 258.682 256.955 294 326.5 294 C396.045 294 449.691 256.964 467 197 L495 100 C507 45 478 9 421 9 L409.5 9 C402.391 9 397.809 7.28182 397.5 4.5 C397.191 1.71818 456.945 0 554 0 L554 0 Z M269 501 C301.764 625.873 344.145 625.873 380 501 C415.855 376.127 395.618 299 327 299 C258.382 299 236.236 376.127 269 501 L269 501 Z " />
<glyph glyph-name="Egrave" unicode="&#xc8;" horiz-adv-x="606" d="M121 996 C121 988 147 964 185 932 L256 872 C299.891 834.909 328.909 814.1 332 817.5 C335.091 820.9 315.427 851.255 280.5 897 L224 971 C194 1011 171 1038 163 1038 C140 1038 121 1019 121 996 L121 996 Z M453 387.5 C453 466.936 450.709 516 447 516 C443.291 516 439.473 507.218 437 493 C434.527 478.782 432.596 438.771 402 412 C386 398 365 390 341 390 L288.5 390 C256.045 390 236 457.773 236 567.5 C236 677.227 267.691 745 319 745 L402 745 C450 745 490 713 504 665 L510.5 642 C514.518 627.782 519.291 619 523 619 C526.709 619 526.308 643.858 521.125 684 C515.942 724.142 422.902 749.191 276.625 749.5 C130.348 749.809 40 748.664 40 746.5 C40 744.336 44.9636 743 53 743 L66 743 C108 743 136 715 136 673 L136 77 C136 35 108 7 66 7 L53 7 C44.9636 7 40 5.66364 40 3.5 C40 1.33636 135.073 0.190909 289 0.5 C442.927 0.809091 542.463 23.8541 548.875 61 C555.273 98.0671 556.709 121 553 121 C549.291 121 545.855 117.755 544 112.5 C542.145 107.245 532.59 64.427 487.625 32.375 C463.25 15 433.5 5 402 5 L287 5 C241 5 236 23 236 51 L236 218 C236 321.236 256.045 385 288.5 385 L341 385 C365 385 386 377 402 363 C432.596 336.229 434.527 296.218 437 282 C439.473 267.782 443.291 259 447 259 C450.709 259 453 308.064 453 387.5 L453 387.5 Z " />
<glyph glyph-name="Eacute" unicode="&#xc9;" horiz-adv-x="606" d="M403 872 C446.891 909.091 492.752 946.933 520.25 974.125 C531.5 985.25 538 993 538 996 C538 1019 519 1038 496 1038 C493 1038 485.5 1031.25 474.875 1019.5 C448.842 990.711 413.427 942.745 378.5 897 C343.573 851.255 323.909 820.9 327 817.5 C330.091 814.1 359.109 834.909 403 872 L403 872 Z M453 387.5 C453 466.936 450.709 516 447 516 C443.291 516 439.473 507.218 437 493 C434.527 478.782 432.596 438.771 402 412 C386 398 365 390 341 390 L288.5 390 C256.045 390 236 457.773 236 567.5 C236 677.227 267.691 745 319 745 L402 745 C450 745 490 713 504 665 L510.5 642 C514.518 627.782 519.291 619 523 619 C526.709 619 526.308 643.858 521.125 684 C515.942 724.142 422.902 749.191 276.625 749.5 C130.348 749.809 40 748.664 40 746.5 C40 744.336 44.9636 743 53 743 L66 743 C108 743 136 715 136 673 L136 77 C136 35 108 7 66 7 L53 7 C44.9636 7 40 5.66364 40 3.5 C40 1.33636 135.073 0.190909 289 0.5 C442.927 0.809091 542.463 23.8541 548.875 61 C555.273 98.0671 556.709 121 553 121 C549.291 121 545.855 117.755 544 112.5 C542.145 107.245 532.59 64.427 487.625 32.375 C463.25 15 433.5 5 402 5 L287 5 C241 5 236 23 236 51 L236 218 C236 321.236 256.045 385 288.5 385 L341 385 C365 385 386 377 402 363 C432.596 336.229 434.527 296.218 437 282 C439.473 267.782 443.291 259 447 259 C450.709 259 453 308.064 453 387.5 L453 387.5 Z " />
<glyph glyph-name="Ecircumflex" unicode="&#xca;" horiz-adv-x="606" d="M341.5 1023.38 C336 1029.75 330 1035 325 1035 C320 1035 314 1029.75 308.5 1023.38 C299.293 1012.7 271.709 968.918 234 910.5 C196.291 852.082 175.1 814.091 178.5 811 C181.9 807.909 210.727 832.536 254 875.5 C297.273 918.464 350.918 918.464 394.5 875.5 C438.082 832.536 467.1 807.909 470.5 811 C473.9 814.091 452.9 852.082 415.5 910.5 C378.1 968.918 350.707 1012.7 341.5 1023.38 L341.5 1023.38 Z M453 387.5 C453 466.936 450.709 516 447 516 C443.291 516 439.473 507.218 437 493 C434.527 478.782 432.596 438.771 402 412 C386 398 365 390 341 390 L288.5 390 C256.045 390 236 457.773 236 567.5 C236 677.227 267.691 745 319 745 L402 745 C450 745 490 713 504 665 L510.5 642 C514.518 627.782 519.291 619 523 619 C526.709 619 526.308 643.858 521.125 684 C515.942 724.142 422.902 749.191 276.625 749.5 C130.348 749.809 40 748.664 40 746.5 C40 744.336 44.9636 743 53 743 L66 743 C108 743 136 715 136 673 L136 77 C136 35 108 7 66 7 L53 7 C44.9636 7 40 5.66364 40 3.5 C40 1.33636 135.073 0.190909 289 0.5 C442.927 0.809091 542.463 23.8541 548.875 61 C555.273 98.0671 556.709 121 553 121 C549.291 121 545.855 117.755 544 112.5 C542.145 107.245 532.59 64.427 487.625 32.375 C463.25 15 433.5 5 402 5 L287 5 C241 5 236 23 236 51 L236 218 C236 321.236 256.045 385 288.5 385 L341 385 C365 385 386 377 402 363 C432.596 336.229 434.527 296.218 437 282 C439.473 267.782 443.291 259 447 259 C450.709 259 453 308.064 453 387.5 L453 387.5 Z " />
<glyph glyph-name="Edieresis" unicode="&#xcb;" horiz-adv-x="606" d="M397 865 C430 865 452 887 452 920 C452 953 430 975 397 975 C364 975 342 953 342 920 C342 887 364 865 397 865 L397 865 Z M252 865 C285 865 307 887 307 920 C307 953 285 975 252 975 C219 975 197 953 197 920 C197 887 219 865 252 865 L252 865 Z M453 387.5 C453 466.936 450.709 516 447 516 C443.291 516 439.473 507.218 437 493 C434.527 478.782 432.596 438.771 402 412 C386 398 365 390 341 390 L288.5 390 C256.045 390 236 457.773 236 567.5 C236 677.227 267.691 745 319 745 L402 745 C450 745 490 713 504 665 L510.5 642 C514.518 627.782 519.291 619 523 619 C526.709 619 526.308 643.858 521.125 684 C515.942 724.142 422.902 749.191 276.625 749.5 C130.348 749.809 40 748.664 40 746.5 C40 744.336 44.9636 743 53 743 L66 743 C108 743 136 715 136 673 L136 77 C136 35 108 7 66 7 L53 7 C44.9636 7 40 5.66364 40 3.5 C40 1.33636 135.073 0.190909 289 0.5 C442.927 0.809091 542.463 23.8541 548.875 61 C555.273 98.0671 556.709 121 553 121 C549.291 121 545.855 117.755 544 112.5 C542.145 107.245 532.59 64.427 487.625 32.375 C463.25 15 433.5 5 402 5 L287 5 C241 5 236 23 236 51 L236 218 C236 321.236 256.045 385 288.5 385 L341 385 C365 385 386 377 402 363 C432.596 336.229 434.527 296.218 437 282 C439.473 267.782 443.291 259 447 259 C450.709 259 453 308.064 453 387.5 L453 387.5 Z " />
<glyph glyph-name="Igrave" unicode="&#xcc;" horiz-adv-x="367" d="M-23 996 C-23 988 3 964 41 932 L112 872 C155.891 834.909 185.1 814.1 188.5 817.5 C191.9 820.9 172.236 851.255 137 897 L80 971 C50 1011 27 1038 19 1038 C-4 1038 -23 1019 -23 996 L-23 996 Z M294 7 L281 7 C251 7 231 27 231 57 L231 693 C231 723 251 743 281 743 L294 743 C302.036 743 307 744.336 307 746.5 C307 748.664 258.891 750 181 750 C103.109 750 55 748.664 55 746.5 C55 744.336 59.9636 743 68 743 L81 743 C111 743 131 723 131 693 L131 57 C131 27 111 7 81 7 L68 7 C59.9636 7 55 5.66364 55 3.5 C55 1.33636 103.109 0 181 0 C258.891 0 307 1.33636 307 3.5 C307 5.66364 302.036 7 294 7 L294 7 Z " />
<glyph glyph-name="Iacute" unicode="&#xcd;" horiz-adv-x="367" d="M260 872 C303.891 909.091 349.752 946.933 377.25 974.125 C388.5 985.25 395 993 395 996 C395 1019 376 1038 353 1038 C350 1038 342.75 1031.25 332.25 1019.5 C306.289 990.448 270.236 942.745 235 897 C199.764 851.255 180.1 820.9 183.5 817.5 C186.9 814.1 216.109 834.909 260 872 L260 872 Z M294 7 L281 7 C251 7 231 27 231 57 L231 693 C231 723 251 743 281 743 L294 743 C302.036 743 307 744.336 307 746.5 C307 748.664 258.891 750 181 750 C103.109 750 55 748.664 55 746.5 C55 744.336 59.9636 743 68 743 L81 743 C111 743 131 723 131 693 L131 57 C131 27 111 7 81 7 L68 7 C59.9636 7 55 5.66364 55 3.5 C55 1.33636 103.109 0 181 0 C258.891 0 307 1.33636 307 3.5 C307 5.66364 302.036 7 294 7 L294 7 Z " />
<glyph glyph-name="Icircumflex" unicode="&#xce;" horiz-adv-x="367" d="M197.5 1023.38 C192 1029.75 186 1035 181 1035 C176 1035 170 1029.75 164.5 1023.38 C155.293 1012.7 127.709 968.918 90 910.5 C52.2909 852.082 31.2909 814.091 35 811 C38.7091 807.909 67.7273 832.536 111 875.5 C154.273 918.464 207.727 918.464 251 875.5 C294.273 832.536 323.291 807.909 327 811 C330.709 814.091 309.709 852.082 272 910.5 C234.291 968.918 206.707 1012.7 197.5 1023.38 L197.5 1023.38 Z M294 7 L281 7 C251 7 231 27 231 57 L231 693 C231 723 251 743 281 743 L294 743 C302.036 743 307 744.336 307 746.5 C307 748.664 258.891 750 181 750 C103.109 750 55 748.664 55 746.5 C55 744.336 59.9636 743 68 743 L81 743 C111 743 131 723 131 693 L131 57 C131 27 111 7 81 7 L68 7 C59.9636 7 55 5.66364 55 3.5 C55 1.33636 103.109 0 181 0 C258.891 0 307 1.33636 307 3.5 C307 5.66364 302.036 7 294 7 L294 7 Z " />
<glyph glyph-name="Idieresis" unicode="&#xcf;" horiz-adv-x="367" d="M254 865 C287 865 309 887 309 920 C309 953 287 975 254 975 C221 975 199 953 199 920 C199 887 221 865 254 865 L254 865 Z M108 865 C141 865 163 887 163 920 C163 953 141 975 108 975 C75 975 53 953 53 920 C53 887 75 865 108 865 L108 865 Z M294 7 L281 7 C251 7 231 27 231 57 L231 693 C231 723 251 743 281 743 L294 743 C302.036 743 307 744.336 307 746.5 C307 748.664 258.891 750 181 750 C103.109 750 55 748.664 55 746.5 C55 744.336 59.9636 743 68 743 L81 743 C111 743 131 723 131 693 L131 57 C131 27 111 7 81 7 L68 7 C59.9636 7 55 5.66364 55 3.5 C55 1.33636 103.109 0 181 0 C258.891 0 307 1.33636 307 3.5 C307 5.66364 302.036 7 294 7 L294 7 Z " />
<glyph glyph-name="Ntilde" unicode="&#xd1;" horiz-adv-x="726" d="M249.25 913.5 C255.75 924 265 930 276 930 C319 930 376 865 419 865 C438 865 453.625 877 464.5 898 C489.7 946.661 485.827 964.183 469.625 941.5 C462.125 931 451.5 925 439 925 C396 925 338 990 295 990 C277.5 990 263.125 978 253.125 957 C229.632 907.666 234.708 890.009 249.25 913.5 L249.25 913.5 Z M-3 743 L10 743 C37 743 68 726 88 700 L108.5 669.5 C121.173 650.645 128.809 527.7 128.5 347.5 C128.191 167.3 131.197 36.6972 114.25 19.75 C105.5 11 93 6 78 6 L65 6 C56.9636 6 52 4.66364 52 2.5 C52 0.336364 86.7455 -1 143 -1 C199.255 -1 234 0.336364 234 2.5 C234 4.66364 229.036 6 221 6 L208 6 C193 6 180.5 11 171.75 19.75 C154.803 36.6972 157.427 159.855 156.5 328 C155.573 496.145 233.021 485.527 358.875 299.875 C484.799 114.12 565.818 -1 572 -1 C578.182 -1 583.336 132.827 585.5 349.5 C587.664 566.173 588.755 716.647 605 729.875 C613.75 737 625.5 741 639 741 L652 741 C660.036 741 665 742.336 665 744.5 C665 746.664 630.255 748 574 748 C517.745 748 483 746.664 483 744.5 C483 742.336 487.964 741 496 741 L509 741 C524 741 536.5 736 545.25 727.25 C562.197 710.303 559.382 592.873 560 434 C560.618 275.127 488.381 286.391 369.875 462.875 C251.439 639.254 140.773 748 80.5 748 C20.2273 748 -16.8091 747.045 -16.5 745.5 C-16.1909 743.955 -11.0364 743 -3 743 L-3 743 Z " />
<glyph glyph-name="Ograve" unicode="&#xd2;" horiz-adv-x="810" d="M159 375 C159 602 254 754 397 754 C546 754 646 602 646 375 C646 148 543 -4 389 -4 C251 -4 159 148 159 375 L159 375 Z M50 375 C50 144 185 -10 388 -10 C608 -10 755 144 755 375 C755 606 612 760 398 760 C189 760 50 606 50 375 L50 375 Z M194 996 C194 988 220 964 258 932 L329 872 C372.891 834.909 402.1 814.1 405.5 817.5 C408.9 820.9 389.236 851.255 354 897 L297 971 C267 1011 244 1038 236 1038 C213 1038 194 1019 194 996 L194 996 Z " />
<glyph glyph-name="Oacute" unicode="&#xd3;" horiz-adv-x="810" d="M477 872 C520.891 909.091 566.752 946.933 594.25 974.125 C605.5 985.25 612 993 612 996 C612 1019 593 1038 570 1038 C567 1038 559.75 1031.25 549.25 1019.5 C523.289 990.448 487.236 942.745 452 897 C416.764 851.255 397.1 820.9 400.5 817.5 C403.9 814.1 433.109 834.909 477 872 L477 872 Z M159 375 C159 602 254 754 397 754 C546 754 646 602 646 375 C646 148 543 -4 389 -4 C251 -4 159 148 159 375 L159 375 Z M50 375 C50 144 185 -10 388 -10 C608 -10 755 144 755 375 C755 606 612 760 398 760 C189 760 50 606 50 375 L50 375 Z " />
<glyph glyph-name="Ocircumflex" unicode="&#xd4;" horiz-adv-x="810" d="M159 375 C159 602 254 754 397 754 C546 754 646 602 646 375 C646 148 543 -4 389 -4 C251 -4 159 148 159 375 L159 375 Z M50 375 C50 144 185 -10 388 -10 C608 -10 755 144 755 375 C755 606 612 760 398 760 C189 760 50 606 50 375 L50 375 Z M414.5 1023.38 C409 1029.75 403 1035 398 1035 C393 1035 387 1029.75 381.5 1023.38 C372.293 1012.7 344.709 968.918 307 910.5 C269.291 852.082 248.291 814.091 252 811 C255.709 807.909 284.727 832.536 328 875.5 C371.273 918.464 424.727 918.464 468 875.5 C511.273 832.536 540.291 807.909 544 811 C547.709 814.091 526.709 852.082 489 910.5 C451.291 968.918 423.707 1012.7 414.5 1023.38 L414.5 1023.38 Z " />
<glyph glyph-name="Otilde" unicode="&#xd5;" horiz-adv-x="810" d="M287.75 913.5 C294 924 303 930 314 930 C357 930 415 865 458 865 C477 865 492.375 877 503 898 C527.713 946.845 523.76 964.294 507.75 941.5 C500.375 931 490 925 478 925 C435 925 377 990 333 990 C315.5 990 301.375 978 291.625 957 C268.637 907.488 273.654 889.82 287.75 913.5 L287.75 913.5 Z M159 375 C159 602 254 754 397 754 C546 754 646 602 646 375 C646 148 543 -4 389 -4 C251 -4 159 148 159 375 L159 375 Z M50 375 C50 144 185 -10 388 -10 C608 -10 755 144 755 375 C755 606 612 760 398 760 C189 760 50 606 50 375 L50 375 Z " />
<glyph glyph-name="Odieresis" unicode="&#xd6;" horiz-adv-x="810" d="M471 865 C504 865 526 887 526 920 C526 953 504 975 471 975 C438 975 416 953 416 920 C416 887 438 865 471 865 L471 865 Z M325 865 C358 865 380 887 380 920 C380 953 358 975 325 975 C292 975 270 953 270 920 C270 887 292 865 325 865 L325 865 Z M159 375 C159 602 254 754 397 754 C546 754 646 602 646 375 C646 148 543 -4 389 -4 C251 -4 159 148 159 375 L159 375 Z M50 375 C50 144 185 -10 388 -10 C608 -10 755 144 755 375 C755 606 612 760 398 760 C189 760 50 606 50 375 L50 375 Z " />
<glyph glyph-name="Oslash" unicode="&#xd8;" horiz-adv-x="810" d="M101 38.5 C130.055 70.3364 179.816 46.9536 252.875 16 C293 -1 338 -10 387 -10 C607 -10 754 144 754 375 C754 431.5 745.5 483.5 729.5 529.75 C701.43 610.891 678.709 670.427 709 703.5 C739.291 736.573 756.473 758.145 754 760 C751.527 761.855 731.482 742.764 701.5 710 C671.518 677.236 618.877 701.718 541.625 733.25 C498.75 750.75 450.5 760 398 760 C189 760 50 606 50 375 C50 317.5 58.25 264.75 73.75 218 C100.681 136.772 122.673 77.1455 93 45 C63.3273 12.8545 46.7182 -8.14545 49.5 -10 C52.2818 -11.8545 71.9455 6.66364 101 38.5 L101 38.5 Z M398 379 C271.891 241.145 177.939 192.956 167.375 256.125 C161.25 292.75 158 332.5 158 375 C158 602 253 754 396 754 C441.5 754 482.375 739.875 517.25 713.75 C586.987 661.509 524.109 516.855 398 379 L398 379 Z M635.875 491.875 C642.5 455.5 646 416 646 374 C646 147 543 -5 389 -5 C347.5 -5 310 9 277.875 34.75 C212.488 87.1617 276.891 230.145 403 368 C529.109 505.855 624.439 554.666 635.875 491.875 L635.875 491.875 Z " />
<glyph glyph-name="Ugrave" unicode="&#xd9;" horiz-adv-x="701" d="M144 996 C144 988 170 964 208 932 L279 872 C322.891 834.909 352.1 814.1 355.5 817.5 C358.9 820.9 339.236 851.255 304 897 L247 971 C217 1011 194 1038 186 1038 C163 1038 144 1019 144 996 L144 996 Z M658 36.5 L645 33 C615 25 595 40 595 70 L595 410 C595 620.182 561.4 750 507 750 C452.6 750 419 748.664 419 746.5 C419 744.336 423.964 743 432 743 L445 743 C475 743 495 723 495 693 L495 438 C495 280.364 478.147 132.03 415.125 89.625 C381.5 67 342.5 54 303 54 C242 54 201 118 201 213 L201 481.5 C201 647.482 167.4 750 113 750 C58.6 750 25 748.664 25 746.5 C25 744.336 29.9636 743 38 743 L51 743 C81 743 101 723 101 693 L101 213 C101 79 165 -10 262 -10 C311 -10 359 4.75 399.875 30.625 C474.803 78.0564 495 111.655 495 69 C495 26.3455 504.545 0 520 0 L545 0 C549 1 595 11 595 13 C608 16.5 621.25 20 634.125 23.375 C656.914 29.3489 671 34.3364 671 36.5 C671 38.6636 666.036 38.6636 658 36.5 L658 36.5 Z " />
<glyph glyph-name="Uacute" unicode="&#xda;" horiz-adv-x="701" d="M427 872 C470.891 909.091 516.752 946.933 544.25 974.125 C555.5 985.25 562 993 562 996 C562 1019 543 1038 520 1038 C517 1038 509.75 1031.25 499.25 1019.5 C473.289 990.448 437.236 942.745 402 897 C366.764 851.255 347.1 820.9 350.5 817.5 C353.9 814.1 383.109 834.909 427 872 L427 872 Z M658 36.5 L645 33 C615 25 595 40 595 70 L595 410 C595 620.182 561.4 750 507 750 C452.6 750 419 748.664 419 746.5 C419 744.336 423.964 743 432 743 L445 743 C475 743 495 723 495 693 L495 438 C495 280.364 478.147 132.03 415.125 89.625 C381.5 67 342.5 54 303 54 C242 54 201 118 201 213 L201 481.5 C201 647.482 167.4 750 113 750 C58.6 750 25 748.664 25 746.5 C25 744.336 29.9636 743 38 743 L51 743 C81 743 101 723 101 693 L101 213 C101 79 165 -10 262 -10 C311 -10 359 4.75 399.875 30.625 C474.803 78.0564 495 111.655 495 69 C495 26.3455 504.545 0 520 0 L545 0 C549 1 595 11 595 13 C608 16.5 621.25 20 634.125 23.375 C656.914 29.3489 671 34.3364 671 36.5 C671 38.6636 666.036 38.6636 658 36.5 L658 36.5 Z " />
<glyph glyph-name="Ucircumflex" unicode="&#xdb;" horiz-adv-x="701" d="M364.5 1023.38 C359 1029.75 353 1035 348 1035 C343 1035 337 1029.75 331.5 1023.38 C322.293 1012.7 294.709 968.918 257 910.5 C219.291 852.082 198.291 814.091 202 811 C205.709 807.909 234.727 832.536 278 875.5 C321.273 918.464 374.727 918.464 418 875.5 C461.273 832.536 490.291 807.909 494 811 C497.709 814.091 476.709 852.082 439 910.5 C401.291 968.918 373.707 1012.7 364.5 1023.38 L364.5 1023.38 Z M658 36.5 L645 33 C615 25 595 40 595 70 L595 410 C595 620.182 561.4 750 507 750 C452.6 750 419 748.664 419 746.5 C419 744.336 423.964 743 432 743 L445 743 C475 743 495 723 495 693 L495 438 C495 280.364 478.147 132.03 415.125 89.625 C381.5 67 342.5 54 303 54 C242 54 201 118 201 213 L201 481.5 C201 647.482 167.4 750 113 750 C58.6 750 25 748.664 25 746.5 C25 744.336 29.9636 743 38 743 L51 743 C81 743 101 723 101 693 L101 213 C101 79 165 -10 262 -10 C311 -10 359 4.75 399.875 30.625 C474.803 78.0564 495 111.655 495 69 C495 26.3455 504.545 0 520 0 L545 0 C549 1 595 11 595 13 C608 16.5 621.25 20 634.125 23.375 C656.914 29.3489 671 34.3364 671 36.5 C671 38.6636 666.036 38.6636 658 36.5 L658 36.5 Z " />
<glyph glyph-name="Udieresis" unicode="&#xdc;" horiz-adv-x="701" d="M421 865 C454 865 476 887 476 920 C476 953 454 975 421 975 C388 975 366 953 366 920 C366 887 388 865 421 865 L421 865 Z M275 865 C308 865 330 887 330 920 C330 953 308 975 275 975 C242 975 220 953 220 920 C220 887 242 865 275 865 L275 865 Z M658 36.5 L645 33 C615 25 595 40 595 70 L595 410 C595 620.182 561.4 750 507 750 C452.6 750 419 748.664 419 746.5 C419 744.336 423.964 743 432 743 L445 743 C475 743 495 723 495 693 L495 438 C495 280.364 478.147 132.03 415.125 89.625 C381.5 67 342.5 54 303 54 C242 54 201 118 201 213 L201 481.5 C201 647.482 167.4 750 113 750 C58.6 750 25 748.664 25 746.5 C25 744.336 29.9636 743 38 743 L51 743 C81 743 101 723 101 693 L101 213 C101 79 165 -10 262 -10 C311 -10 359 4.75 399.875 30.625 C474.803 78.0564 495 111.655 495 69 C495 26.3455 504.545 0 520 0 L545 0 C549 1 595 11 595 13 C608 16.5 621.25 20 634.125 23.375 C656.914 29.3489 671 34.3364 671 36.5 C671 38.6636 666.036 38.6636 658 36.5 L658 36.5 Z " />
<glyph glyph-name="Yacute" unicode="&#xdd;" horiz-adv-x="675" d="M425 872 C468.891 909.091 514.752 946.933 542.25 974.125 C553.5 985.25 560 993 560 996 C560 1019 541 1038 518 1038 C515 1038 507.75 1031.25 497.25 1019.5 C471.289 990.448 435.236 942.745 400 897 C364.764 851.255 345.1 820.9 348.5 817.5 C351.9 814.1 381.109 834.909 425 872 L425 872 Z M135.5 750 C51.7364 750 0 748.664 0 746.5 C0 744.336 21.3094 746.193 48.75 732 C77.2179 717.275 126.9 625.6 191.5 510 C256.1 394.4 296 276.227 296 200.5 L296 78 C296 36 268 8 226 8 L213 8 C204.964 8 200 6.66364 200 4.5 C200 2.33636 255.745 1 346 1 C436.255 1 492 2.33636 492 4.5 C492 6.66364 487.036 8 479 8 L466 8 C424 8 396 36 396 78 L396 208 C396 288.364 428.645 406.155 481.5 516.5 L567 695 C584 725 614 744 645 744 L661 744 C670.891 744 677 745.336 677 747.5 C677 749.664 636.909 751 572 751 C507.091 751 467 749.664 467 747.5 C467 745.336 478.073 744 496 744 L525 744 C558 744 569 722 554 689 L474 517 C424.545 410.673 358.777 410.673 301.75 517 C244.723 623.327 192.552 706.261 203.125 728.875 C207.625 738.5 218.5 744 235 744 L253.5 744 C264.936 744 271.809 745.145 271.5 747 C271.191 748.855 219.264 750 135.5 750 L135.5 750 Z " />
<glyph glyph-name="agrave" unicode="&#xe0;" horiz-adv-x="479" d="M485 104.5 C482.527 105.427 480.469 86.1826 460.75 69.75 C450.25 61 436.5 56 421 56 C389 56 367 74 367 102 L367 355 C367 462 316 510 240 510 C135 510 65 414 65 360 C65 324 85 300 114 300 C141 300 159 325 159 343 C159 361 139 385 139 403 C139 439 177 504 233 504 C263.5 504 275.75 472 280.375 425.75 C290.448 325.02 208.817 227.34 102.625 152.5 C63.25 124.75 44 104.5 44 88 C44 29 84 -10 145 -10 C162.5 -10 182.5 -3.5 205.375 11.25 C259.942 46.4353 282.774 47.4603 316.375 18.625 C334 3.5 357.5 -5 385 -5 C410 -5 433.125 5.75 451.375 24.625 C488.64 63.1662 487.473 103.573 485 104.5 L485 104.5 Z M35 746 C35 738 61 714 99 682 L170 622 C213.891 584.909 243.1 564.1 246.5 567.5 C249.9 570.9 230.236 601.255 195 647 L138 721 C108 761 85 788 77 788 C54 788 35 769 35 746 L35 746 Z M280.25 144.25 C279.934 108.239 266.513 64.7203 232.375 46.125 C217 37.75 202.5 34 189 34 C152 34 128 59 128 96 C128 128 140.375 153.625 165.625 178.625 C226.839 239.233 280.867 214.567 280.25 144.25 L280.25 144.25 Z " />
<glyph glyph-name="aacute" unicode="&#xe1;" horiz-adv-x="479" d="M319 622 C362.891 659.091 408.752 696.933 436.25 724.125 C447.5 735.25 454 743 454 746 C454 769 435 788 412 788 C409 788 401.75 781.25 391.25 769.5 C365.289 740.448 329.236 692.745 294 647 C258.764 601.255 239.1 570.9 242.5 567.5 C245.9 564.1 275.109 584.909 319 622 L319 622 Z M485 104.5 C482.527 105.427 480.469 86.1826 460.75 69.75 C450.25 61 436.5 56 421 56 C389 56 367 74 367 102 L367 355 C367 462 316 510 240 510 C135 510 65 414 65 360 C65 324 85 300 114 300 C141 300 159 325 159 343 C159 361 139 385 139 403 C139 439 177 504 233 504 C263.5 504 275.75 472 280.375 425.75 C290.448 325.02 208.817 227.34 102.625 152.5 C63.25 124.75 44 104.5 44 88 C44 29 84 -10 145 -10 C162.5 -10 182.5 -3.5 205.375 11.25 C259.942 46.4353 282.774 47.4603 316.375 18.625 C334 3.5 357.5 -5 385 -5 C410 -5 433.125 5.75 451.375 24.625 C488.64 63.1662 487.473 103.573 485 104.5 L485 104.5 Z M280.25 144.25 C279.934 108.239 266.513 64.7203 232.375 46.125 C217 37.75 202.5 34 189 34 C152 34 128 59 128 96 C128 128 140.375 153.625 165.625 178.625 C226.839 239.233 280.867 214.567 280.25 144.25 L280.25 144.25 Z " />
<glyph glyph-name="acircumflex" unicode="&#xe2;" horiz-adv-x="479" d="M485 104.5 C482.527 105.427 480.469 86.1826 460.75 69.75 C450.25 61 436.5 56 421 56 C389 56 367 74 367 102 L367 355 C367 462 316 510 240 510 C135 510 65 414 65 360 C65 324 85 300 114 300 C141 300 159 325 159 343 C159 361 139 385 139 403 C139 439 177 504 233 504 C263.5 504 275.75 472 280.375 425.75 C290.448 325.02 208.817 227.34 102.625 152.5 C63.25 124.75 44 104.5 44 88 C44 29 84 -10 145 -10 C162.5 -10 182.5 -3.5 205.375 11.25 C259.942 46.4353 282.774 47.4603 316.375 18.625 C334 3.5 357.5 -5 385 -5 C410 -5 433.125 5.75 451.375 24.625 C488.64 63.1662 487.473 103.573 485 104.5 L485 104.5 Z M255.5 773.375 C250 779.75 244 785 239 785 C234 785 228 779.75 222.5 773.375 C213.293 762.703 185.709 718.918 148 660.5 C110.291 602.082 89.2909 564.091 93 561 C96.7091 557.909 125.727 582.536 169 625.5 C212.273 668.464 265.727 668.464 309 625.5 C352.273 582.536 381.291 557.909 385 561 C388.709 564.091 367.709 602.082 330 660.5 C292.291 718.918 264.707 762.703 255.5 773.375 L255.5 773.375 Z M280.25 144.25 C279.934 108.239 266.513 64.7203 232.375 46.125 C217 37.75 202.5 34 189 34 C152 34 128 59 128 96 C128 128 140.375 153.625 165.625 178.625 C226.839 239.233 280.867 214.567 280.25 144.25 L280.25 144.25 Z " />
<glyph glyph-name="atilde" unicode="&#xe3;" horiz-adv-x="479" d="M129.75 663.5 C136 674 145 680 156 680 C199 680 257 615 300 615 C319 615 334.375 627 345 648 C369.713 696.845 365.76 714.294 349.75 691.5 C342.375 681 332 675 320 675 C277 675 219 740 175 740 C157.5 740 143.375 728 133.625 707 C110.637 657.488 115.654 639.82 129.75 663.5 L129.75 663.5 Z M485 104.5 C482.527 105.427 480.469 86.1826 460.75 69.75 C450.25 61 436.5 56 421 56 C389 56 367 74 367 102 L367 355 C367 462 316 510 240 510 C135 510 65 414 65 360 C65 324 85 300 114 300 C141 300 159 325 159 343 C159 361 139 385 139 403 C139 439 177 504 233 504 C263.5 504 275.75 472 280.375 425.75 C290.448 325.02 208.817 227.34 102.625 152.5 C63.25 124.75 44 104.5 44 88 C44 29 84 -10 145 -10 C162.5 -10 182.5 -3.5 205.375 11.25 C259.942 46.4353 282.774 47.4603 316.375 18.625 C334 3.5 357.5 -5 385 -5 C410 -5 433.125 5.75 451.375 24.625 C488.64 63.1662 487.473 103.573 485 104.5 L485 104.5 Z M280.25 144.25 C279.934 108.239 266.513 64.7203 232.375 46.125 C217 37.75 202.5 34 189 34 C152 34 128 59 128 96 C128 128 140.375 153.625 165.625 178.625 C226.839 239.233 280.867 214.567 280.25 144.25 L280.25 144.25 Z " />
<glyph glyph-name="adieresis" unicode="&#xe4;" horiz-adv-x="479" d="M313 615 C346 615 368 637 368 670 C368 703 346 725 313 725 C280 725 258 703 258 670 C258 637 280 615 313 615 L313 615 Z M167 615 C200 615 222 637 222 670 C222 703 200 725 167 725 C134 725 112 703 112 670 C112 637 134 615 167 615 L167 615 Z M485 104.5 C482.527 105.427 480.469 86.1826 460.75 69.75 C450.25 61 436.5 56 421 56 C389 56 367 74 367 102 L367 355 C367 462 316 510 240 510 C135 510 65 414 65 360 C65 324 85 300 114 300 C141 300 159 325 159 343 C159 361 139 385 139 403 C139 439 177 504 233 504 C263.5 504 275.75 472 280.375 425.75 C290.448 325.02 208.817 227.34 102.625 152.5 C63.25 124.75 44 104.5 44 88 C44 29 84 -10 145 -10 C162.5 -10 182.5 -3.5 205.375 11.25 C259.942 46.4353 282.774 47.4603 316.375 18.625 C334 3.5 357.5 -5 385 -5 C410 -5 433.125 5.75 451.375 24.625 C488.64 63.1662 487.473 103.573 485 104.5 L485 104.5 Z M280.25 144.25 C279.934 108.239 266.513 64.7203 232.375 46.125 C217 37.75 202.5 34 189 34 C152 34 128 59 128 96 C128 128 140.375 153.625 165.625 178.625 C226.839 239.233 280.867 214.567 280.25 144.25 L280.25 144.25 Z " />
<glyph glyph-name="aring" unicode="&#xe5;" horiz-adv-x="479" d="M168 655 C168 700 197 730 240 730 C284 730 313 700 313 655 C313 615 279 580 240 580 C201 580 168 615 168 655 L168 655 Z M143 655 C143 604 188 560 240 560 C293 560 338 604 338 655 C338 712 299 750 240 750 C182 750 143 712 143 655 L143 655 Z M485 104.5 C482.527 105.427 480.469 86.1826 460.75 69.75 C450.25 61 436.5 56 421 56 C389 56 367 74 367 102 L367 355 C367 462 316 510 240 510 C135 510 65 414 65 360 C65 324 85 300 114 300 C141 300 159 325 159 343 C159 361 139 385 139 403 C139 439 177 504 233 504 C263.5 504 275.75 472 280.375 425.75 C290.448 325.02 208.817 227.34 102.625 152.5 C63.25 124.75 44 104.5 44 88 C44 29 84 -10 145 -10 C162.5 -10 182.5 -3.5 205.375 11.25 C259.942 46.4353 282.774 47.4603 316.375 18.625 C334 3.5 357.5 -5 385 -5 C410 -5 433.125 5.75 451.375 24.625 C488.64 63.1662 487.473 103.573 485 104.5 L485 104.5 Z M280.25 144.25 C279.934 108.239 266.513 64.7203 232.375 46.125 C217 37.75 202.5 34 189 34 C152 34 128 59 128 96 C128 128 140.375 153.625 165.625 178.625 C226.839 239.233 280.867 214.567 280.25 144.25 L280.25 144.25 Z " />
<glyph glyph-name="egrave" unicode="&#xe8;" horiz-adv-x="494" d="M72 746 C72 738 98 714 136 682 L207 622 C250.891 584.909 280.1 564.1 283.5 567.5 C286.9 570.9 267.236 601.255 232 647 L175 721 C145 761 122 788 114 788 C91 788 72 769 72 746 L72 746 Z M301.5 340 C401.955 340 466.778 412.333 397.375 470.75 C365 498 323.5 510 276 510 C137 510 45 432 45 231 C45 86 129 -10 255 -10 C296.5 -10 335.875 4.5 368.875 29.875 C432.337 78.6737 432.264 84.9366 373.875 45.25 C341.875 23.5 303 11 262 11 C186 11 135 113 135 266 C135 279.5 135.25 292.5 135.875 304.875 C136.975 326.647 201.045 340 301.5 340 L301.5 340 Z M254.5 345.5 C183.718 345.191 132.512 407.894 187.375 468.625 C210.75 494.5 241 506 276 506 C295 506 313.125 494.875 329.125 469.25 C371.743 400.994 325.282 345.809 254.5 345.5 L254.5 345.5 Z " />
<glyph glyph-name="eacute" unicode="&#xe9;" horiz-adv-x="494" d="M355 622 C398.891 659.091 444.752 696.933 472.25 724.125 C483.5 735.25 490 743 490 746 C490 769 471 788 448 788 C445 788 437.75 781.25 427.25 769.5 C401.289 740.448 365.236 692.745 330 647 C294.764 601.255 275.1 570.9 278.5 567.5 C281.9 564.1 311.109 584.909 355 622 L355 622 Z M301.5 340 C401.955 340 466.778 412.333 397.375 470.75 C365 498 323.5 510 276 510 C137 510 45 432 45 231 C45 86 129 -10 255 -10 C296.5 -10 335.875 4.5 368.875 29.875 C432.337 78.6737 432.264 84.9366 373.875 45.25 C341.875 23.5 303 11 262 11 C186 11 135 113 135 266 C135 279.5 135.25 292.5 135.875 304.875 C136.975 326.647 201.045 340 301.5 340 L301.5 340 Z M254.5 345.5 C183.718 345.191 132.512 407.894 187.375 468.625 C210.75 494.5 241 506 276 506 C295 506 313.125 494.875 329.125 469.25 C371.743 400.994 325.282 345.809 254.5 345.5 L254.5 345.5 Z " />
<glyph glyph-name="ecircumflex" unicode="&#xea;" horiz-adv-x="494" d="M292.5 773.375 C287 779.75 281 785 276 785 C271 785 265 779.75 259.5 773.375 C250.293 762.703 222.709 718.918 185 660.5 C147.291 602.082 126.291 564.091 130 561 C133.709 557.909 162.727 582.536 206 625.5 C249.273 668.464 302.727 668.464 346 625.5 C389.273 582.536 418.291 557.909 422 561 C425.709 564.091 404.709 602.082 367 660.5 C329.291 718.918 301.707 762.703 292.5 773.375 L292.5 773.375 Z M301.5 340 C401.955 340 466.778 412.333 397.375 470.75 C365 498 323.5 510 276 510 C137 510 45 432 45 231 C45 86 129 -10 255 -10 C296.5 -10 335.875 4.5 368.875 29.875 C432.337 78.6737 432.264 84.9366 373.875 45.25 C341.875 23.5 303 11 262 11 C186 11 135 113 135 266 C135 279.5 135.25 292.5 135.875 304.875 C136.975 326.647 201.045 340 301.5 340 L301.5 340 Z M254.5 345.5 C183.718 345.191 132.512 407.894 187.375 468.625 C210.75 494.5 241 506 276 506 C295 506 313.125 494.875 329.125 469.25 C371.743 400.994 325.282 345.809 254.5 345.5 L254.5 345.5 Z " />
<glyph glyph-name="edieresis" unicode="&#xeb;" horiz-adv-x="494" d="M349 615 C382 615 404 637 404 670 C404 703 382 725 349 725 C316 725 294 703 294 670 C294 637 316 615 349 615 L349 615 Z M203 615 C236 615 258 637 258 670 C258 703 236 725 203 725 C170 725 148 703 148 670 C148 637 170 615 203 615 L203 615 Z M301.5 340 C401.955 340 466.778 412.333 397.375 470.75 C365 498 323.5 510 276 510 C137 510 45 432 45 231 C45 86 129 -10 255 -10 C296.5 -10 335.875 4.5 368.875 29.875 C432.337 78.6737 432.264 84.9366 373.875 45.25 C341.875 23.5 303 11 262 11 C186 11 135 113 135 266 C135 279.5 135.25 292.5 135.875 304.875 C136.975 326.647 201.045 340 301.5 340 L301.5 340 Z M254.5 345.5 C183.718 345.191 132.512 407.894 187.375 468.625 C210.75 494.5 241 506 276 506 C295 506 313.125 494.875 329.125 469.25 C371.743 400.994 325.282 345.809 254.5 345.5 L254.5 345.5 Z " />
<glyph glyph-name="igrave" unicode="&#xec;" horiz-adv-x="302" d="M-45 746 C-45 738 -19 714 19 682 L90 622 C133.891 584.909 162.909 564.1 166 567.5 C169.091 570.9 149.427 601.255 114.5 647 L58 721 C28 761 5 788 -3 788 C-26 788 -45 769 -45 746 L-45 746 Z M80.5 472.5 C93.1727 475.9 106.505 481.091 111.875 477 C114.5 475 116 471.5 116 467 L116 22 C116 13 110 7 101 7 L80.5 7 C67.8273 7 60 5.66364 60 3.5 C60 1.33636 97.6091 0 158.5 0 C219.391 0 257 1.33636 257 3.5 C257 5.66364 249.173 7 236.5 7 L216 7 C207 7 201 13 201 22 L201 261 C201 408.745 192.982 500.095 180 500.25 C167.018 500.405 140.1 495.441 109.5 487.25 C78.9 479.059 60 472.664 60 470.5 C60 468.336 67.8273 469.1 80.5 472.5 L80.5 472.5 Z " />
<glyph glyph-name="iacute" unicode="&#xed;" horiz-adv-x="302" d="M-45 746 C-45 738 -19 714 19 682 L90 622 C133.891 584.909 162.909 564.1 166 567.5 C169.091 570.9 149.427 601.255 114.5 647 L58 721 C28 761 5 788 -3 788 C-26 788 -45 769 -45 746 L-45 746 Z M80.5 472.5 C93.1727 475.9 106.505 481.091 111.875 477 C114.5 475 116 471.5 116 467 L116 22 C116 13 110 7 101 7 L80.5 7 C67.8273 7 60 5.66364 60 3.5 C60 1.33636 97.6091 0 158.5 0 C219.391 0 257 1.33636 257 3.5 C257 5.66364 249.173 7 236.5 7 L216 7 C207 7 201 13 201 22 L201 261 C201 408.745 192.982 500.095 180 500.25 C167.018 500.405 140.1 495.441 109.5 487.25 C78.9 479.059 60 472.664 60 470.5 C60 468.336 67.8273 469.1 80.5 472.5 L80.5 472.5 Z " />
<glyph glyph-name="icircumflex" unicode="&#xee;" horiz-adv-x="302" d="M175.5 773.375 C170 779.75 164 785 159 785 C154 785 148 779.75 142.5 773.375 C133.293 762.703 105.709 718.918 68 660.5 C30.2909 602.082 9.1 564.091 12.5 561 C15.9 557.909 44.7273 582.536 88 625.5 C131.273 668.464 184.918 668.464 228.5 625.5 C272.082 582.536 301.1 557.909 304.5 561 C307.9 564.091 286.9 602.082 249.5 660.5 C212.1 718.918 184.707 762.703 175.5 773.375 L175.5 773.375 Z M80.5 472.5 C93.1727 475.9 106.505 481.091 111.875 477 C114.5 475 116 471.5 116 467 L116 22 C116 13 110 7 101 7 L80.5 7 C67.8273 7 60 5.66364 60 3.5 C60 1.33636 97.6091 0 158.5 0 C219.391 0 257 1.33636 257 3.5 C257 5.66364 249.173 7 236.5 7 L216 7 C207 7 201 13 201 22 L201 261 C201 408.745 192.982 500.095 180 500.25 C167.018 500.405 140.1 495.441 109.5 487.25 C78.9 479.059 60 472.664 60 470.5 C60 468.336 67.8273 469.1 80.5 472.5 L80.5 472.5 Z " />
<glyph glyph-name="idieresis" unicode="&#xef;" horiz-adv-x="302" d="M231 615 C264 615 286 637 286 670 C286 703 264 725 231 725 C198 725 176 703 176 670 C176 637 198 615 231 615 L231 615 Z M86 615 C119 615 141 637 141 670 C141 703 119 725 86 725 C53 725 31 703 31 670 C31 637 53 615 86 615 L86 615 Z M80.5 472.5 C93.1727 475.9 106.505 481.091 111.875 477 C114.5 475 116 471.5 116 467 L116 22 C116 13 110 7 101 7 L80.5 7 C67.8273 7 60 5.66364 60 3.5 C60 1.33636 97.6091 0 158.5 0 C219.391 0 257 1.33636 257 3.5 C257 5.66364 249.173 7 236.5 7 L216 7 C207 7 201 13 201 22 L201 261 C201 408.745 192.982 500.095 180 500.25 C167.018 500.405 140.1 495.441 109.5 487.25 C78.9 479.059 60 472.664 60 470.5 C60 468.336 67.8273 469.1 80.5 472.5 L80.5 472.5 Z " />
<glyph glyph-name="ntilde" unicode="&#xf1;" horiz-adv-x="515" d="M141.75 663.5 C148 674 157 680 168 680 C211 680 269 615 312 615 C331 615 346.375 627 357 648 C381.713 696.845 377.76 714.294 361.75 691.5 C354.375 681 344 675 332 675 C289 675 231 740 187 740 C169.5 740 155.375 728 145.625 707 C122.637 657.488 127.654 639.82 141.75 663.5 L141.75 663.5 Z M25.5 469 C28.9 469 46.8431 472.754 62.5 459.875 C70.25 453.5 75 444 76 432 C76 335 75 137 75 22 C75 13 69 7 60 7 L39.5 7 C26.8273 7 19 5.66364 19 3.5 C19 1.33636 56.6091 0 117.5 0 C178.391 0 216 1.33636 216 3.5 C216 5.66364 208.173 7 195.5 7 L175 7 C166 7 160 13 160 22 L160 200 C160 310.036 168.132 413.495 208.75 443.25 C230.25 459 256 468 283 468 C323 468 344 418 344 342 L344 22 C344 13 338 7 329 7 L308.5 7 C295.827 7 288 5.66364 288 3.5 C288 1.33636 325.609 0 386.5 0 C447.391 0 485 1.33636 485 3.5 C485 5.66364 477.173 7 464.5 7 L444 7 C435 7 429 13 429 22 L429 342 C429 443 388 510 308 510 C276.5 510 246 498 220.125 477.125 C169.589 436.355 160 411.809 160 445.5 C160 479.191 151.886 500 138.75 500 C125.614 500 98.8864 495.418 68.75 488 C38.6136 480.582 20 474.664 20 472.5 C20 470.336 22.1 469 25.5 469 L25.5 469 Z " />
<glyph glyph-name="ograve" unicode="&#xf2;" horiz-adv-x="580" d="M139 250 C139 402 199 504 290 504 C381 504 442 402 442 250 C442 98 381 -4 290 -4 C199 -4 139 98 139 250 L139 250 Z M45 250 C45 94 143 -10 290 -10 C437 -10 535 94 535 250 C535 406 437 510 290 510 C143 510 45 406 45 250 L45 250 Z M86 746 C86 738 112 714 150 682 L221 622 C264.891 584.909 294.1 564.1 297.5 567.5 C300.9 570.9 281.236 601.255 246 647 L189 721 C159 761 136 788 128 788 C105 788 86 769 86 746 L86 746 Z " />
<glyph glyph-name="oacute" unicode="&#xf3;" horiz-adv-x="580" d="M369 622 C412.891 659.091 458.752 696.933 486.25 724.125 C497.5 735.25 504 743 504 746 C504 769 485 788 462 788 C459 788 451.75 781.25 441.25 769.5 C415.289 740.448 379.236 692.745 344 647 C308.764 601.255 289.1 570.9 292.5 567.5 C295.9 564.1 325.109 584.909 369 622 L369 622 Z M139 250 C139 402 199 504 290 504 C381 504 442 402 442 250 C442 98 381 -4 290 -4 C199 -4 139 98 139 250 L139 250 Z M45 250 C45 94 143 -10 290 -10 C437 -10 535 94 535 250 C535 406 437 510 290 510 C143 510 45 406 45 250 L45 250 Z " />
<glyph glyph-name="ocircumflex" unicode="&#xf4;" horiz-adv-x="580" d="M139 250 C139 402 199 504 290 504 C381 504 442 402 442 250 C442 98 381 -4 290 -4 C199 -4 139 98 139 250 L139 250 Z M45 250 C45 94 143 -10 290 -10 C437 -10 535 94 535 250 C535 406 437 510 290 510 C143 510 45 406 45 250 L45 250 Z M306.5 773.375 C301 779.75 295 785 290 785 C285 785 279 779.75 273.5 773.375 C264.293 762.703 236.709 718.918 199 660.5 C161.291 602.082 140.291 564.091 144 561 C147.709 557.909 176.727 582.536 220 625.5 C263.273 668.464 316.727 668.464 360 625.5 C403.273 582.536 432.291 557.909 436 561 C439.709 564.091 418.709 602.082 381 660.5 C343.291 718.918 315.707 762.703 306.5 773.375 L306.5 773.375 Z " />
<glyph glyph-name="otilde" unicode="&#xf5;" horiz-adv-x="580" d="M179.75 663.5 C186 674 195 680 206 680 C249 680 307 615 350 615 C369 615 384.375 627 395 648 C419.713 696.845 415.76 714.294 399.75 691.5 C392.375 681 382 675 370 675 C327 675 269 740 225 740 C207.5 740 193.375 728 183.625 707 C160.637 657.488 165.654 639.82 179.75 663.5 L179.75 663.5 Z M139 250 C139 402 199 504 290 504 C381 504 442 402 442 250 C442 98 381 -4 290 -4 C199 -4 139 98 139 250 L139 250 Z M45 250 C45 94 143 -10 290 -10 C437 -10 535 94 535 250 C535 406 437 510 290 510 C143 510 45 406 45 250 L45 250 Z " />
<glyph glyph-name="odieresis" unicode="&#xf6;" horiz-adv-x="580" d="M363 615 C396 615 418 637 418 670 C418 703 396 725 363 725 C330 725 308 703 308 670 C308 637 330 615 363 615 L363 615 Z M217 615 C250 615 272 637 272 670 C272 703 250 725 217 725 C184 725 162 703 162 670 C162 637 184 615 217 615 L217 615 Z M139 250 C139 402 199 504 290 504 C381 504 442 402 442 250 C442 98 381 -4 290 -4 C199 -4 139 98 139 250 L139 250 Z M45 250 C45 94 143 -10 290 -10 C437 -10 535 94 535 250 C535 406 437 510 290 510 C143 510 45 406 45 250 L45 250 Z " />
<glyph glyph-name="oslash" unicode="&#xf8;" horiz-adv-x="580" d="M80.5 23.5 C101.209 45.4455 137.993 29.0734 191.125 8 C220.75 -3.75 254 -10 290 -10 C437 -10 535 94 535 250 C535 288.5 529 323.75 517.75 355 C497.955 409.987 481.791 449.745 502.5 472 C523.209 494.255 535.236 508.764 534 510 C532.764 511.236 519.209 498.445 498.5 476.5 C477.791 454.555 441.007 470.927 387.875 492 C358.25 503.75 325 510 289 510 C142 510 44 406 44 250 C44 211.5 50 176.25 61.25 145 C81.0455 90.0126 97.2091 50.2545 76.5 28 C55.7909 5.74545 43.7636 -8.76364 45 -10 C46.2364 -11.2364 59.7909 1.55455 80.5 23.5 L80.5 23.5 Z M289.5 253.5 C208.827 167.882 149.975 138.316 144.125 177.75 C140.75 200.5 139 225 139 251 C139 403 199 505 290 505 C319 505 345 494.375 367 475 C412.491 434.937 370.173 339.118 289.5 253.5 L289.5 253.5 Z M436.875 324.25 C440.25 301.5 442 277 442 251 C442 99 381 -3 290 -3 C261 -3 235 7.5 213.125 26.75 C167.935 66.5172 210.827 162.073 291.5 248 C372.173 333.927 431.025 363.684 436.875 324.25 L436.875 324.25 Z " />
<glyph glyph-name="ugrave" unicode="&#xf9;" horiz-adv-x="492" d="M37 746 C37 738 63 714 101 682 L172 622 C215.891 584.909 245.1 564.1 248.5 567.5 C251.9 570.9 232.236 601.255 197 647 L140 721 C110 761 87 788 79 788 C56 788 37 769 37 746 L37 746 Z M469 33.5 L461 31 C431 23 411 38 411 68 L411 284 C411 417.527 384.082 500 340.5 500 C296.918 500 270 498.664 270 496.5 C270 494.336 277.827 493 290.5 493 L311 493 C320 493 326 487 326 478 L326 303.5 C326 195.627 317.815 99.0623 283.5 70.125 C266.75 56 248 48 229 48 C186 48 157 90 157 154 L157 326.5 C157 433.136 130.082 499 86.5 499 C42.9182 499 16 497.664 16 495.5 C16 493.336 23.8273 492 36.5 492 L57 492 C66 492 72 486 72 477 L72 154 C72 55 119 -11 189 -11 C214.5 -11 240.75 2.25 264.875 25.625 C316.396 75.5439 328 99.3273 328 61 C328 22.6727 336.018 -1.09545 349 -1.25 C361.982 -1.40455 390.801 4.16025 424.5 13.25 C458.199 22.3398 478.618 29.5273 478 32 C477.382 34.4727 473.945 35.0455 469 33.5 L469 33.5 Z " />
<glyph glyph-name="uacute" unicode="&#xfa;" horiz-adv-x="492" d="M320 622 C363.891 659.091 409.752 696.933 437.25 724.125 C448.5 735.25 455 743 455 746 C455 769 436 788 413 788 C410 788 402.75 781.25 392.25 769.5 C366.289 740.448 330.236 692.745 295 647 C259.764 601.255 240.1 570.9 243.5 567.5 C246.9 564.1 276.109 584.909 320 622 L320 622 Z M469 33.5 L461 31 C431 23 411 38 411 68 L411 284 C411 417.527 384.082 500 340.5 500 C296.918 500 270 498.664 270 496.5 C270 494.336 277.827 493 290.5 493 L311 493 C320 493 326 487 326 478 L326 303.5 C326 195.627 317.815 99.0623 283.5 70.125 C266.75 56 248 48 229 48 C186 48 157 90 157 154 L157 326.5 C157 433.136 130.082 499 86.5 499 C42.9182 499 16 497.664 16 495.5 C16 493.336 23.8273 492 36.5 492 L57 492 C66 492 72 486 72 477 L72 154 C72 55 119 -11 189 -11 C214.5 -11 240.75 2.25 264.875 25.625 C316.396 75.5439 328 99.3273 328 61 C328 22.6727 336.018 -1.09545 349 -1.25 C361.982 -1.40455 390.801 4.16025 424.5 13.25 C458.199 22.3398 478.618 29.5273 478 32 C477.382 34.4727 473.945 35.0455 469 33.5 L469 33.5 Z " />
<glyph glyph-name="ucircumflex" unicode="&#xfb;" horiz-adv-x="492" d="M257.5 773.375 C252 779.75 246 785 241 785 C236 785 230 779.75 224.5 773.375 C215.293 762.703 187.709 718.918 150 660.5 C112.291 602.082 91.2909 564.091 95 561 C98.7091 557.909 127.727 582.536 171 625.5 C214.273 668.464 267.727 668.464 311 625.5 C354.273 582.536 383.291 557.909 387 561 C390.709 564.091 369.709 602.082 332 660.5 C294.291 718.918 266.707 762.703 257.5 773.375 L257.5 773.375 Z M469 33.5 L461 31 C431 23 411 38 411 68 L411 284 C411 417.527 384.082 500 340.5 500 C296.918 500 270 498.664 270 496.5 C270 494.336 277.827 493 290.5 493 L311 493 C320 493 326 487 326 478 L326 303.5 C326 195.627 317.815 99.0623 283.5 70.125 C266.75 56 248 48 229 48 C186 48 157 90 157 154 L157 326.5 C157 433.136 130.082 499 86.5 499 C42.9182 499 16 497.664 16 495.5 C16 493.336 23.8273 492 36.5 492 L57 492 C66 492 72 486 72 477 L72 154 C72 55 119 -11 189 -11 C214.5 -11 240.75 2.25 264.875 25.625 C316.396 75.5439 328 99.3273 328 61 C328 22.6727 336.018 -1.09545 349 -1.25 C361.982 -1.40455 390.801 4.16025 424.5 13.25 C458.199 22.3398 478.618 29.5273 478 32 C477.382 34.4727 473.945 35.0455 469 33.5 L469 33.5 Z " />
<glyph glyph-name="udieresis" unicode="&#xfc;" horiz-adv-x="492" d="M314 615 C347 615 369 637 369 670 C369 703 347 725 314 725 C281 725 259 703 259 670 C259 637 281 615 314 615 L314 615 Z M168 615 C201 615 223 637 223 670 C223 703 201 725 168 725 C135 725 113 703 113 670 C113 637 135 615 168 615 L168 615 Z M469 33.5 L461 31 C431 23 411 38 411 68 L411 284 C411 417.527 384.082 500 340.5 500 C296.918 500 270 498.664 270 496.5 C270 494.336 277.827 493 290.5 493 L311 493 C320 493 326 487 326 478 L326 303.5 C326 195.627 317.815 99.0623 283.5 70.125 C266.75 56 248 48 229 48 C186 48 157 90 157 154 L157 326.5 C157 433.136 130.082 499 86.5 499 C42.9182 499 16 497.664 16 495.5 C16 493.336 23.8273 492 36.5 492 L57 492 C66 492 72 486 72 477 L72 154 C72 55 119 -11 189 -11 C214.5 -11 240.75 2.25 264.875 25.625 C316.396 75.5439 328 99.3273 328 61 C328 22.6727 336.018 -1.09545 349 -1.25 C361.982 -1.40455 390.801 4.16025 424.5 13.25 C458.199 22.3398 478.618 29.5273 478 32 C477.382 34.4727 473.945 35.0455 469 33.5 L469 33.5 Z " />
<glyph glyph-name="ydieresis" unicode="&#xff;" horiz-adv-x="499" d="M349 615 C382 615 404 637 404 670 C404 703 382 725 349 725 C316 725 294 703 294 670 C294 637 316 615 349 615 L349 615 Z M204 615 C237 615 259 637 259 670 C259 703 237 725 204 725 C171 725 149 703 149 670 C149 637 171 615 204 615 L204 615 Z M417 500 C371.255 500 343 498.664 343 496.5 C343 494.336 362.057 498.592 376.625 482.375 C383.25 475 385 463.5 381 447 L329.5 290.5 C297.664 193.755 258.145 192.609 226 287.5 L174 441 C168.5 459.5 169.5 472.75 175.875 481.375 C189.245 499.463 210 495.336 210 497.5 C210 499.664 171.245 501 108.5 501 C45.7545 501 7 499.664 7 497.5 C7 495.336 29.0663 497.917 53.625 480.75 C66.5 471.75 76.5 458 83 439 L157 221 C202.745 86.2364 218.895 -26.8276 200.625 -75.625 C190.75 -102 181 -128.5 171 -155 C162 -178 148 -193 144 -193 C122 -193 117 -164 94 -164 C67 -164 49 -182 49 -209 C49 -239 69 -259 99 -259 C125 -259 171 -222 192 -166 L222 -87.5 C240.545 -38.9727 283.366 77.9527 335.125 218.375 C363 294 391 369.5 419 445 C426.5 461.5 436.5 473.5 448.875 481.375 C472.673 496.519 492.618 494.336 492 496.5 C491.382 498.664 462.745 500 417 500 L417 500 Z " />
<glyph glyph-name="Amacron" unicode="&#x100;" horiz-adv-x="714" d="M366 895 C443.273 895 491 906.264 491 924.5 C491 942.736 443.273 954 366 954 C288.727 954 241 942.736 241 924.5 C241 906.264 288.727 895 366 895 L366 895 Z M554 0 C651.055 0 711 1.71818 711 4.5 C711 7.28182 708.709 9 705 9 L699 9 C655 9 614 49 596 109 C563.5 219 531.25 329.25 498.875 439.5 C438.839 643.947 399.091 770 396 770 C392.909 770 391.717 751.228 373.375 739 C342.288 718.275 316.573 718.091 317.5 715 C318.427 711.909 288.081 595.312 238.5 409.5 C188.919 223.688 152.982 69.5199 111 36.5 C88.75 19 61 9 31 9 L18 9 C9.96364 9 5 7.28182 5 4.5 C5 1.71818 54.0636 0 133.5 0 C212.936 0 262 1.71818 262 4.5 C262 7.28182 257.418 9 250 9 L238 9 C208 9 185.75 19 173 36.5 C146.448 72.9436 174.355 144.318 189.5 201.5 C204.645 258.682 256.955 294 326.5 294 C396.045 294 449.691 256.964 467 197 L495 100 C507 45 478 9 421 9 L409.5 9 C402.391 9 397.809 7.28182 397.5 4.5 C397.191 1.71818 456.945 0 554 0 L554 0 Z M269 501 C301.764 625.873 344.145 625.873 380 501 C415.855 376.127 395.618 299 327 299 C258.382 299 236.236 376.127 269 501 L269 501 Z " />
<glyph glyph-name="amacron" unicode="&#x101;" horiz-adv-x="479" d="M240 645 C317.273 645 365 656.264 365 674.5 C365 692.736 317.273 704 240 704 C162.727 704 115 692.736 115 674.5 C115 656.264 162.727 645 240 645 L240 645 Z M485 104.5 C482.527 105.427 480.469 86.1826 460.75 69.75 C450.25 61 436.5 56 421 56 C389 56 367 74 367 102 L367 355 C367 462 316 510 240 510 C135 510 65 414 65 360 C65 324 85 300 114 300 C141 300 159 325 159 343 C159 361 139 385 139 403 C139 439 177 504 233 504 C263.5 504 275.75 472 280.375 425.75 C290.448 325.02 208.817 227.34 102.625 152.5 C63.25 124.75 44 104.5 44 88 C44 29 84 -10 145 -10 C162.5 -10 182.5 -3.5 205.375 11.25 C259.942 46.4353 282.774 47.4603 316.375 18.625 C334 3.5 357.5 -5 385 -5 C410 -5 433.125 5.75 451.375 24.625 C488.64 63.1662 487.473 103.573 485 104.5 L485 104.5 Z M280.25 144.25 C279.934 108.239 266.513 64.7203 232.375 46.125 C217 37.75 202.5 34 189 34 C152 34 128 59 128 96 C128 128 140.375 153.625 165.625 178.625 C226.839 239.233 280.867 214.567 280.25 144.25 L280.25 144.25 Z " />
<glyph glyph-name="Abreve" unicode="&#x102;" horiz-adv-x="714" d="M287 904.25 C307.25 882.5 334.5 870 366 870 C397.5 870 425 882.25 445.375 903.625 C486.178 946.431 478.564 992.573 473 993.5 C467.436 994.427 463.192 966.795 434.5 947.875 C417.25 936.5 393.5 930 366 930 C338.5 930 315 936.75 297.875 948.5 C268.839 968.422 264.564 996.427 259 995.5 C253.436 994.573 246.107 948.172 287 904.25 L287 904.25 Z M554 0 C651.055 0 711 1.71818 711 4.5 C711 7.28182 708.709 9 705 9 L699 9 C655 9 614 49 596 109 C563.5 219 531.25 329.25 498.875 439.5 C438.839 643.947 399.091 770 396 770 C392.909 770 391.717 751.228 373.375 739 C342.288 718.275 316.573 718.091 317.5 715 C318.427 711.909 288.081 595.312 238.5 409.5 C188.919 223.688 152.982 69.5199 111 36.5 C88.75 19 61 9 31 9 L18 9 C9.96364 9 5 7.28182 5 4.5 C5 1.71818 54.0636 0 133.5 0 C212.936 0 262 1.71818 262 4.5 C262 7.28182 257.418 9 250 9 L238 9 C208 9 185.75 19 173 36.5 C146.448 72.9436 174.355 144.318 189.5 201.5 C204.645 258.682 256.955 294 326.5 294 C396.045 294 449.691 256.964 467 197 L495 100 C507 45 478 9 421 9 L409.5 9 C402.391 9 397.809 7.28182 397.5 4.5 C397.191 1.71818 456.945 0 554 0 L554 0 Z M269 501 C301.764 625.873 344.145 625.873 380 501 C415.855 376.127 395.618 299 327 299 C258.382 299 236.236 376.127 269 501 L269 501 Z " />
<glyph glyph-name="abreve" unicode="&#x103;" horiz-adv-x="479" d="M161 654.25 C181.25 632.5 208.5 620 240 620 C271.5 620 299 632.25 319.375 653.625 C360.178 696.431 352.564 742.573 347 743.5 C341.436 744.427 337.192 716.795 308.5 697.875 C291.25 686.5 267.5 680 240 680 C212.5 680 189 686.75 171.875 698.5 C142.839 718.422 138.564 746.427 133 745.5 C127.436 744.573 120.107 698.172 161 654.25 L161 654.25 Z M485 104.5 C482.527 105.427 480.469 86.1826 460.75 69.75 C450.25 61 436.5 56 421 56 C389 56 367 74 367 102 L367 355 C367 462 316 510 240 510 C135 510 65 414 65 360 C65 324 85 300 114 300 C141 300 159 325 159 343 C159 361 139 385 139 403 C139 439 177 504 233 504 C263.5 504 275.75 472 280.375 425.75 C290.448 325.02 208.817 227.34 102.625 152.5 C63.25 124.75 44 104.5 44 88 C44 29 84 -10 145 -10 C162.5 -10 182.5 -3.5 205.375 11.25 C259.942 46.4353 282.774 47.4603 316.375 18.625 C334 3.5 357.5 -5 385 -5 C410 -5 433.125 5.75 451.375 24.625 C488.64 63.1662 487.473 103.573 485 104.5 L485 104.5 Z M280.25 144.25 C279.934 108.239 266.513 64.7203 232.375 46.125 C217 37.75 202.5 34 189 34 C152 34 128 59 128 96 C128 128 140.375 153.625 165.625 178.625 C226.839 239.233 280.867 214.567 280.25 144.25 L280.25 144.25 Z " />
<glyph glyph-name="Cacute" unicode="&#x106;" horiz-adv-x="699" d="M474 872 C517.891 909.091 563.752 946.933 591.25 974.125 C602.5 985.25 609 993 609 996 C609 1019 590 1038 567 1038 C564 1038 556.75 1031.25 546.25 1019.5 C520.289 990.448 484.236 942.745 449 897 C413.764 851.255 394.1 820.9 397.5 817.5 C400.9 814.1 430.109 834.909 474 872 L474 872 Z M655 111 C655 173.436 651.755 212 646.5 212 C641.245 212 636.782 207.628 635 200.5 C634 196.5 633 192.5 632 189 C615 130 568 68.5 515 34.5 C476 9.5 434 -5 388 -5 C251 -5 160 147 160 375 C160 602 255 754 397 754 C517 754 604 657 632 561 C633 557.5 634 553.5 635 549.5 C636.782 542.372 641.245 538 646.5 538 C651.755 538 655 575.991 655 637.5 C655 699.009 653.091 737 650 737 C646.909 737 644.434 733.006 644 726.5 C643.566 719.994 642.857 692.44 622.125 689.25 C593.288 684.814 551.52 729.682 499.625 745.75 C469.75 755 435.5 760 395 760 C188 760 50 606 50 375 C50 144 184 -10 386 -10 C467 -10 529 12 580 49 C597.5 60 612.25 64 623.125 61.125 C644.198 55.5539 643.546 27.8129 644 21 C644.454 14.1871 646.909 10 650 10 C653.091 10 655 48.5636 655 111 L655 111 Z M643 131 L643 131 L643 131 L643 131 Z " />
<glyph glyph-name="Ccircumflex" unicode="&#x108;" horiz-adv-x="699" d="M655 111 C655 173.436 651.755 212 646.5 212 C641.245 212 636.782 207.628 635 200.5 C634 196.5 633 192.5 632 189 C615 130 568 68.5 515 34.5 C476 9.5 434 -5 388 -5 C251 -5 160 147 160 375 C160 602 255 754 397 754 C517 754 604 657 632 561 C633 557.5 634 553.5 635 549.5 C636.782 542.372 641.245 538 646.5 538 C651.755 538 655 575.991 655 637.5 C655 699.009 653.091 737 650 737 C646.909 737 644.434 733.006 644 726.5 C643.566 719.994 642.857 692.44 622.125 689.25 C593.288 684.814 551.52 729.682 499.625 745.75 C469.75 755 435.5 760 395 760 C188 760 50 606 50 375 C50 144 184 -10 386 -10 C467 -10 529 12 580 49 C597.5 60 612.25 64 623.125 61.125 C644.198 55.5539 643.546 27.8129 644 21 C644.454 14.1871 646.909 10 650 10 C653.091 10 655 48.5636 655 111 L655 111 Z M411.5 1023.38 C406 1029.75 400 1035 395 1035 C390 1035 384 1029.75 378.5 1023.38 C369.293 1012.7 341.709 968.918 304 910.5 C266.291 852.082 245.291 814.091 249 811 C252.709 807.909 281.727 832.536 325 875.5 C368.273 918.464 421.727 918.464 465 875.5 C508.273 832.536 537.291 807.909 541 811 C544.709 814.091 523.709 852.082 486 910.5 C448.291 968.918 420.707 1012.7 411.5 1023.38 L411.5 1023.38 Z M643 131 L643 131 L643 131 L643 131 Z " />
<glyph glyph-name="Cdot" unicode="&#x10a;" horiz-adv-x="699" d="M395 865 C428 865 450 887 450 920 C450 953 428 975 395 975 C362 975 340 953 340 920 C340 887 362 865 395 865 L395 865 Z M655 111 C655 173.436 651.755 212 646.5 212 C641.245 212 636.782 207.628 635 200.5 C634 196.5 633 192.5 632 189 C615 130 568 68.5 515 34.5 C476 9.5 434 -5 388 -5 C251 -5 160 147 160 375 C160 602 255 754 397 754 C517 754 604 657 632 561 C633 557.5 634 553.5 635 549.5 C636.782 542.372 641.245 538 646.5 538 C651.755 538 655 575.991 655 637.5 C655 699.009 653.091 737 650 737 C646.909 737 644.434 733.006 644 726.5 C643.566 719.994 642.857 692.44 622.125 689.25 C593.288 684.814 551.52 729.682 499.625 745.75 C469.75 755 435.5 760 395 760 C188 760 50 606 50 375 C50 144 184 -10 386 -10 C467 -10 529 12 580 49 C597.5 60 612.25 64 623.125 61.125 C644.198 55.5539 643.546 27.8129 644 21 C644.454 14.1871 646.909 10 650 10 C653.091 10 655 48.5636 655 111 L655 111 Z M643 131 L643 131 L643 131 L643 131 Z " />
<glyph glyph-name="cdot" unicode="&#x10b;" horiz-adv-x="462" d="M281 615 C314 615 336 637 336 670 C336 703 314 725 281 725 C248 725 226 703 226 670 C226 637 248 615 281 615 L281 615 Z M364.375 42.625 C337.625 21.875 307.5 10 278 10 C191 10 133 115 133 273 C133 413 192 506 280 506 C298 506 325 466 347 405 C356 380 373 363 390 363 C407 363 419.75 367.25 427.125 374.625 C440.572 388.072 422.11 447.172 373.375 481.125 C347 499.5 315 510 281 510 C139 510 45 400 45 236 C45 88 133 -10 266 -10 C297.5 -10 329.75 3.75 358.75 27.875 C417.707 76.9213 417.316 83.691 364.375 42.625 L364.375 42.625 Z " />
<glyph glyph-name="Ccaron" unicode="&#x10c;" horiz-adv-x="699" d="M465 974.5 C421.727 931.536 368.273 931.536 325 974.5 C281.727 1017.46 252.709 1042.09 249 1039 C245.291 1035.91 266.291 997.918 304 939.5 C341.709 881.082 369.293 837.297 378.5 826.625 C384 820.25 390 815 395 815 C400 815 406 820.25 411.5 826.625 C420.707 837.297 448.291 881.082 486 939.5 C523.709 997.918 544.709 1035.91 541 1039 C537.291 1042.09 508.273 1017.46 465 974.5 L465 974.5 Z M655 111 C655 173.436 651.755 212 646.5 212 C641.245 212 636.782 207.628 635 200.5 C634 196.5 633 192.5 632 189 C615 130 568 68.5 515 34.5 C476 9.5 434 -5 388 -5 C251 -5 160 147 160 375 C160 602 255 754 397 754 C517 754 604 657 632 561 C633 557.5 634 553.5 635 549.5 C636.782 542.372 641.245 538 646.5 538 C651.755 538 655 575.991 655 637.5 C655 699.009 653.091 737 650 737 C646.909 737 644.434 733.006 644 726.5 C643.566 719.994 642.857 692.44 622.125 689.25 C593.288 684.814 551.52 729.682 499.625 745.75 C469.75 755 435.5 760 395 760 C188 760 50 606 50 375 C50 144 184 -10 386 -10 C467 -10 529 12 580 49 C597.5 60 612.25 64 623.125 61.125 C644.198 55.5539 643.546 27.8129 644 21 C644.454 14.1871 646.909 10 650 10 C653.091 10 655 48.5636 655 111 L655 111 Z M643 131 L643 131 L643 131 L643 131 Z " />
<glyph glyph-name="ccaron" unicode="&#x10d;" horiz-adv-x="462" d="M351 724.5 C307.727 681.536 254.273 681.536 211 724.5 C167.727 767.464 138.709 792.091 135 789 C131.291 785.909 152.291 747.918 190 689.5 C227.709 631.082 255.293 587.297 264.5 576.625 C270 570.25 276 565 281 565 C286 565 292 570.25 297.5 576.625 C306.707 587.297 334.291 631.082 372 689.5 C409.709 747.918 430.709 785.909 427 789 C423.291 792.091 394.273 767.464 351 724.5 L351 724.5 Z M364.375 42.625 C337.625 21.875 307.5 10 278 10 C191 10 133 115 133 273 C133 413 192 506 280 506 C298 506 325 466 347 405 C356 380 373 363 390 363 C407 363 419.75 367.25 427.125 374.625 C440.572 388.072 422.11 447.172 373.375 481.125 C347 499.5 315 510 281 510 C139 510 45 400 45 236 C45 88 133 -10 266 -10 C297.5 -10 329.75 3.75 358.75 27.875 C417.707 76.9213 417.316 83.691 364.375 42.625 L364.375 42.625 Z " />
<glyph glyph-name="Dcaron" unicode="&#x10e;" horiz-adv-x="802" d="M456.5 974.5 C412.918 931.536 359.273 931.536 316 974.5 C272.727 1017.46 243.9 1042.09 240.5 1039 C237.1 1035.91 258.291 997.918 296 939.5 C333.709 881.082 361.293 837.297 370.5 826.625 C376 820.25 382 815 387 815 C392 815 398 820.25 403.5 826.625 C412.707 837.297 440.1 881.082 477.5 939.5 C514.9 997.918 535.9 1035.91 532.5 1039 C529.1 1042.09 500.082 1017.46 456.5 974.5 L456.5 974.5 Z M296 4 C242 4 236 23 236 51 L236 398.5 C236 613.318 251.845 746 277.5 746 L319 746 C529 746 637 598 637 375 C637 130 501 4 296 4 L296 4 Z M73 743 L86 743 C116 743 136 723 136 693 L136 57 C136 27 116 7 86 7 L73 7 C64.9636 7 60 5.66364 60 3.5 C60 1.33636 106.391 0 181.5 0 L303 0 C569 0 747 128 747 375 C747 600 607 750 336 750 L198 750 C112.691 750 60 748.664 60 746.5 C60 744.336 64.9636 743 73 743 L73 743 Z " />
<glyph glyph-name="dcaron" unicode="&#x10f;" horiz-adv-x="558" d="M550 758 C533 758 524 695 521 650 L517 594.5 C514.527 560.191 515.864 538.427 520.5 537.5 C525.136 536.573 535.064 556.045 546.5 588.5 L565 641 C579 679 588 721 588 746 C588 755 573 758 550 758 L550 758 Z M331.5 717 C334.9 717 354.038 720.85 369.625 706.5 C377.5 699.25 382 688.5 382 675 L382 547 C382 467.873 369.497 452.267 328 484 C306.75 500.25 283 510 259 510 C118 510 45 406 45 251 C45 97 122 -5 238 -5 C264 -5 291 2.5 315.875 15.75 C362.472 40.5705 381 57.4455 381 35.5 C381 13.5545 389.018 -0.0954545 402 -0.25 C414.982 -0.404545 445.663 5.86109 482.5 15.625 C519.222 25.3585 542 32.3364 542 34.5 C542 36.6636 537.036 36.6636 529 34.5 L516 31 C486 23 466 38 466 68 L466 409 C466 619.8 457.982 750 445 750 C432.018 750 415.791 747.9 402.5 744.5 L381 739 C381 736 328 725 325 724 L325.5 720.5 C325.809 718.336 328.1 717 331.5 717 L331.5 717 Z M381 226.5 C381 134.7 366.698 57.8684 333.25 43.125 C314.25 34.75 293 30 272 30 C187 30 131 128 131 274 C131 401 178 485 268 485 C292 485 315.75 472.25 335.75 452.125 C374.715 412.916 381 318.3 381 226.5 L381 226.5 Z " />
<glyph glyph-name="Emacron" unicode="&#x112;" horiz-adv-x="606" d="M324.5 895 C402.082 895 450 906.264 450 924.5 C450 942.736 402.082 954 324.5 954 C246.918 954 199 942.736 199 924.5 C199 906.264 246.918 895 324.5 895 L324.5 895 Z M453 387.5 C453 466.936 450.709 516 447 516 C443.291 516 439.473 507.218 437 493 C434.527 478.782 432.596 438.771 402 412 C386 398 365 390 341 390 L288.5 390 C256.045 390 236 457.773 236 567.5 C236 677.227 267.691 745 319 745 L402 745 C450 745 490 713 504 665 L510.5 642 C514.518 627.782 519.291 619 523 619 C526.709 619 526.308 643.858 521.125 684 C515.942 724.142 422.902 749.191 276.625 749.5 C130.348 749.809 40 748.664 40 746.5 C40 744.336 44.9636 743 53 743 L66 743 C108 743 136 715 136 673 L136 77 C136 35 108 7 66 7 L53 7 C44.9636 7 40 5.66364 40 3.5 C40 1.33636 135.073 0.190909 289 0.5 C442.927 0.809091 542.463 23.8541 548.875 61 C555.273 98.0671 556.709 121 553 121 C549.291 121 545.855 117.755 544 112.5 C542.145 107.245 532.59 64.427 487.625 32.375 C463.25 15 433.5 5 402 5 L287 5 C241 5 236 23 236 51 L236 218 C236 321.236 256.045 385 288.5 385 L341 385 C365 385 386 377 402 363 C432.596 336.229 434.527 296.218 437 282 C439.473 267.782 443.291 259 447 259 C450.709 259 453 308.064 453 387.5 L453 387.5 Z " />
<glyph glyph-name="emacron" unicode="&#x113;" horiz-adv-x="494" d="M276 645 C353.273 645 401 656.264 401 674.5 C401 692.736 353.273 704 276 704 C198.727 704 151 692.736 151 674.5 C151 656.264 198.727 645 276 645 L276 645 Z M301.5 340 C401.955 340 466.778 412.333 397.375 470.75 C365 498 323.5 510 276 510 C137 510 45 432 45 231 C45 86 129 -10 255 -10 C296.5 -10 335.875 4.5 368.875 29.875 C432.337 78.6737 432.264 84.9366 373.875 45.25 C341.875 23.5 303 11 262 11 C186 11 135 113 135 266 C135 279.5 135.25 292.5 135.875 304.875 C136.975 326.647 201.045 340 301.5 340 L301.5 340 Z M254.5 345.5 C183.718 345.191 132.512 407.894 187.375 468.625 C210.75 494.5 241 506 276 506 C295 506 313.125 494.875 329.125 469.25 C371.743 400.994 325.282 345.809 254.5 345.5 L254.5 345.5 Z " />
<glyph glyph-name="Ebreve" unicode="&#x114;" horiz-adv-x="606" d="M245.125 904.25 C265.5 882.5 293 870 325 870 C356.5 870 384 882.25 404.375 903.625 C445.178 946.431 437.564 992.573 432 993.5 C426.436 994.427 422.192 966.795 393.5 947.875 C376.25 936.5 352.5 930 325 930 C297 930 273.25 936.75 256 948.5 C226.863 968.347 222.564 996.427 217 995.5 C211.436 994.573 204.077 948.068 245.125 904.25 L245.125 904.25 Z M453 387.5 C453 466.936 450.709 516 447 516 C443.291 516 439.473 507.218 437 493 C434.527 478.782 432.596 438.771 402 412 C386 398 365 390 341 390 L288.5 390 C256.045 390 236 457.773 236 567.5 C236 677.227 267.691 745 319 745 L402 745 C450 745 490 713 504 665 L510.5 642 C514.518 627.782 519.291 619 523 619 C526.709 619 526.308 643.858 521.125 684 C515.942 724.142 422.902 749.191 276.625 749.5 C130.348 749.809 40 748.664 40 746.5 C40 744.336 44.9636 743 53 743 L66 743 C108 743 136 715 136 673 L136 77 C136 35 108 7 66 7 L53 7 C44.9636 7 40 5.66364 40 3.5 C40 1.33636 135.073 0.190909 289 0.5 C442.927 0.809091 542.463 23.8541 548.875 61 C555.273 98.0671 556.709 121 553 121 C549.291 121 545.855 117.755 544 112.5 C542.145 107.245 532.59 64.427 487.625 32.375 C463.25 15 433.5 5 402 5 L287 5 C241 5 236 23 236 51 L236 218 C236 321.236 256.045 385 288.5 385 L341 385 C365 385 386 377 402 363 C432.596 336.229 434.527 296.218 437 282 C439.473 267.782 443.291 259 447 259 C450.709 259 453 308.064 453 387.5 L453 387.5 Z " />
<glyph glyph-name="ebreve" unicode="&#x115;" horiz-adv-x="494" d="M197 654.25 C217.25 632.5 244.5 620 276 620 C307.5 620 335 632.25 355.375 653.625 C396.178 696.431 388.564 742.573 383 743.5 C377.436 744.427 373.192 716.795 344.5 697.875 C327.25 686.5 303.5 680 276 680 C248.5 680 225 686.75 207.875 698.5 C178.839 718.422 174.564 746.427 169 745.5 C163.436 744.573 156.107 698.172 197 654.25 L197 654.25 Z M301.5 340 C401.955 340 466.778 412.333 397.375 470.75 C365 498 323.5 510 276 510 C137 510 45 432 45 231 C45 86 129 -10 255 -10 C296.5 -10 335.875 4.5 368.875 29.875 C432.337 78.6737 432.264 84.9366 373.875 45.25 C341.875 23.5 303 11 262 11 C186 11 135 113 135 266 C135 279.5 135.25 292.5 135.875 304.875 C136.975 326.647 201.045 340 301.5 340 L301.5 340 Z M254.5 345.5 C183.718 345.191 132.512 407.894 187.375 468.625 C210.75 494.5 241 506 276 506 C295 506 313.125 494.875 329.125 469.25 C371.743 400.994 325.282 345.809 254.5 345.5 L254.5 345.5 Z " />
<glyph glyph-name="Edot" unicode="&#x116;" horiz-adv-x="606" d="M325 865 C358 865 380 887 380 920 C380 953 358 975 325 975 C292 975 270 953 270 920 C270 887 292 865 325 865 L325 865 Z M453 387.5 C453 466.936 450.709 516 447 516 C443.291 516 439.473 507.218 437 493 C434.527 478.782 432.596 438.771 402 412 C386 398 365 390 341 390 L288.5 390 C256.045 390 236 457.773 236 567.5 C236 677.227 267.691 745 319 745 L402 745 C450 745 490 713 504 665 L510.5 642 C514.518 627.782 519.291 619 523 619 C526.709 619 526.308 643.858 521.125 684 C515.942 724.142 422.902 749.191 276.625 749.5 C130.348 749.809 40 748.664 40 746.5 C40 744.336 44.9636 743 53 743 L66 743 C108 743 136 715 136 673 L136 77 C136 35 108 7 66 7 L53 7 C44.9636 7 40 5.66364 40 3.5 C40 1.33636 135.073 0.190909 289 0.5 C442.927 0.809091 542.463 23.8541 548.875 61 C555.273 98.0671 556.709 121 553 121 C549.291 121 545.855 117.755 544 112.5 C542.145 107.245 532.59 64.427 487.625 32.375 C463.25 15 433.5 5 402 5 L287 5 C241 5 236 23 236 51 L236 218 C236 321.236 256.045 385 288.5 385 L341 385 C365 385 386 377 402 363 C432.596 336.229 434.527 296.218 437 282 C439.473 267.782 443.291 259 447 259 C450.709 259 453 308.064 453 387.5 L453 387.5 Z " />
<glyph glyph-name="edot" unicode="&#x117;" horiz-adv-x="494" d="M276 615 C309 615 331 637 331 670 C331 703 309 725 276 725 C243 725 221 703 221 670 C221 637 243 615 276 615 L276 615 Z M301.5 340 C401.955 340 466.778 412.333 397.375 470.75 C365 498 323.5 510 276 510 C137 510 45 432 45 231 C45 86 129 -10 255 -10 C296.5 -10 335.875 4.5 368.875 29.875 C432.337 78.6737 432.264 84.9366 373.875 45.25 C341.875 23.5 303 11 262 11 C186 11 135 113 135 266 C135 279.5 135.25 292.5 135.875 304.875 C136.975 326.647 201.045 340 301.5 340 L301.5 340 Z M254.5 345.5 C183.718 345.191 132.512 407.894 187.375 468.625 C210.75 494.5 241 506 276 506 C295 506 313.125 494.875 329.125 469.25 C371.743 400.994 325.282 345.809 254.5 345.5 L254.5 345.5 Z " />
<glyph glyph-name="Ecaron" unicode="&#x11a;" horiz-adv-x="606" d="M394.5 974.5 C350.918 931.536 297.273 931.536 254 974.5 C210.727 1017.46 181.9 1042.09 178.5 1039 C175.1 1035.91 196.291 997.918 234 939.5 C271.709 881.082 299.293 837.297 308.5 826.625 C314 820.25 320 815 325 815 C330 815 336 820.25 341.5 826.625 C350.707 837.297 378.1 881.082 415.5 939.5 C452.9 997.918 473.9 1035.91 470.5 1039 C467.1 1042.09 438.082 1017.46 394.5 974.5 L394.5 974.5 Z M453 387.5 C453 466.936 450.709 516 447 516 C443.291 516 439.473 507.218 437 493 C434.527 478.782 432.596 438.771 402 412 C386 398 365 390 341 390 L288.5 390 C256.045 390 236 457.773 236 567.5 C236 677.227 267.691 745 319 745 L402 745 C450 745 490 713 504 665 L510.5 642 C514.518 627.782 519.291 619 523 619 C526.709 619 526.308 643.858 521.125 684 C515.942 724.142 422.902 749.191 276.625 749.5 C130.348 749.809 40 748.664 40 746.5 C40 744.336 44.9636 743 53 743 L66 743 C108 743 136 715 136 673 L136 77 C136 35 108 7 66 7 L53 7 C44.9636 7 40 5.66364 40 3.5 C40 1.33636 135.073 0.190909 289 0.5 C442.927 0.809091 542.463 23.8541 548.875 61 C555.273 98.0671 556.709 121 553 121 C549.291 121 545.855 117.755 544 112.5 C542.145 107.245 532.59 64.427 487.625 32.375 C463.25 15 433.5 5 402 5 L287 5 C241 5 236 23 236 51 L236 218 C236 321.236 256.045 385 288.5 385 L341 385 C365 385 386 377 402 363 C432.596 336.229 434.527 296.218 437 282 C439.473 267.782 443.291 259 447 259 C450.709 259 453 308.064 453 387.5 L453 387.5 Z " />
<glyph glyph-name="ecaron" unicode="&#x11b;" horiz-adv-x="494" d="M346 724.5 C302.727 681.536 249.273 681.536 206 724.5 C162.727 767.464 133.709 792.091 130 789 C126.291 785.909 147.291 747.918 185 689.5 C222.709 631.082 250.293 587.297 259.5 576.625 C265 570.25 271 565 276 565 C281 565 287 570.25 292.5 576.625 C301.707 587.297 329.291 631.082 367 689.5 C404.709 747.918 425.709 785.909 422 789 C418.291 792.091 389.273 767.464 346 724.5 L346 724.5 Z M301.5 340 C401.955 340 466.778 412.333 397.375 470.75 C365 498 323.5 510 276 510 C137 510 45 432 45 231 C45 86 129 -10 255 -10 C296.5 -10 335.875 4.5 368.875 29.875 C432.337 78.6737 432.264 84.9366 373.875 45.25 C341.875 23.5 303 11 262 11 C186 11 135 113 135 266 C135 279.5 135.25 292.5 135.875 304.875 C136.975 326.647 201.045 340 301.5 340 L301.5 340 Z M254.5 345.5 C183.718 345.191 132.512 407.894 187.375 468.625 C210.75 494.5 241 506 276 506 C295 506 313.125 494.875 329.125 469.25 C371.743 400.994 325.282 345.809 254.5 345.5 L254.5 345.5 Z " />
<glyph glyph-name="Gcircumflex" unicode="&#x11c;" horiz-adv-x="773" d="M655 637.5 C655 699.009 653.091 737 650 737 C646.909 737 644.434 733.006 644 726.5 C643.566 719.994 642.857 692.44 622.125 689.25 C593.288 684.814 551.52 729.682 499.625 745.75 C469.75 755 435.5 760 395 760 C188 760 50 606 50 375 C50 144 189 -10 397 -10 C469 -10 528 -3.625 578.75 7.375 C663.172 25.6734 698.779 46.7771 678 40.5 C654.099 33.2799 639 68.3727 639 130.5 L639 231 C639 282 668 316 712 316 L718.5 316 C722.518 316 725 317.718 725 320.5 C725 323.282 673.073 325 589 325 C504.927 325 453 323.282 453 320.5 C453 317.718 455.482 316 459.5 316 L466 316 C510 316 539 282 539 231 C540 231 540 116 540 105 C538 48 487 10 411 10 C259 10 158 156 158 375 C158 602 253 754 395 754 C515 754 602 657 630 561 C631 557.5 632 553.5 633 549.5 C634.782 542.372 639.627 538 645.5 538 C651.373 538 655 575.991 655 637.5 L655 637.5 Z M409.5 1023.38 C404 1029.75 398 1035 393 1035 C388 1035 382 1029.75 376.5 1023.38 C367.293 1012.7 339.709 968.918 302 910.5 C264.291 852.082 243.291 814.091 247 811 C250.709 807.909 279.727 832.536 323 875.5 C366.273 918.464 419.727 918.464 463 875.5 C506.273 832.536 535.291 807.909 539 811 C542.709 814.091 521.709 852.082 484 910.5 C446.291 968.918 418.707 1012.7 409.5 1023.38 L409.5 1023.38 Z " />
<glyph glyph-name="Gbreve" unicode="&#x11e;" horiz-adv-x="773" d="M316 904.25 C336.25 882.5 363.5 870 395 870 C426.5 870 454 882.25 474.375 903.625 C515.178 946.431 507.564 992.573 502 993.5 C496.436 994.427 492.192 966.795 463.5 947.875 C446.25 936.5 422.5 930 395 930 C367.5 930 344 936.75 326.875 948.5 C297.839 968.422 293.564 996.427 288 995.5 C282.436 994.573 275.107 948.172 316 904.25 L316 904.25 Z M655 637.5 C655 699.009 653.091 737 650 737 C646.909 737 644.434 733.006 644 726.5 C643.566 719.994 642.857 692.44 622.125 689.25 C593.288 684.814 551.52 729.682 499.625 745.75 C469.75 755 435.5 760 395 760 C188 760 50 606 50 375 C50 144 189 -10 397 -10 C469 -10 528 -3.625 578.75 7.375 C663.172 25.6734 698.779 46.7771 678 40.5 C654.099 33.2799 639 68.3727 639 130.5 L639 231 C639 282 668 316 712 316 L718.5 316 C722.518 316 725 317.718 725 320.5 C725 323.282 673.073 325 589 325 C504.927 325 453 323.282 453 320.5 C453 317.718 455.482 316 459.5 316 L466 316 C510 316 539 282 539 231 C540 231 540 116 540 105 C538 48 487 10 411 10 C259 10 158 156 158 375 C158 602 253 754 395 754 C515 754 602 657 630 561 C631 557.5 632 553.5 633 549.5 C634.782 542.372 639.627 538 645.5 538 C651.373 538 655 575.991 655 637.5 L655 637.5 Z " />
<glyph glyph-name="gbreve" unicode="&#x11f;" horiz-adv-x="487" d="M160 654.25 C180.25 632.5 207.5 620 239 620 C270.5 620 298 632.25 318.375 653.625 C359.178 696.431 351.564 742.573 346 743.5 C340.436 744.427 336.192 716.795 307.5 697.875 C290.25 686.5 266.5 680 239 680 C211.5 680 188 686.75 170.875 698.5 C141.839 718.422 137.564 746.427 132 745.5 C126.436 744.573 119.107 698.172 160 654.25 L160 654.25 Z M508 479 C508 510 486 530 453 530 C436.5 530 419 523.5 402.625 512 C369.812 488.956 342.462 483.927 306.375 497.875 C286 505.75 263 510 238 510 C140 510 74 446 74 350 C74 307.5 86.75 271.25 109.375 243.875 C152.064 192.224 155.444 197.907 95.375 163.375 C69.5 148.5 55 128.5 55 105 C55 78.5 63 55.75 77.25 38.25 C104.329 4.99529 103.272 -2.2836 70 -37.375 C54 -54.25 45 -74 45 -95 C45 -176 127 -230 249 -230 C371 -230 452 -165 452 -68 C452 23 404 84 281 84 L171 84 C131 84 104 102 104 130 C104 165 158 188 239 188 C337 188 402 253 402 350 C402 372.5 398.5 393.25 391.875 411.875 C380.07 445.064 368.339 468.33 380.625 474.125 C387.25 477.25 394.5 479 402 479 C423 479 450 444 471 444 C493 444 507.5 458 507.5 480 L508 479 Z M238 194 C191 194 159 257 159 352 C159 446 191 508 238 508 C285 508 316 446 316 352 C316 257 285 194 238 194 L238 194 Z M156 2.5 C161.564 2.19091 185.045 2 217.5 2 L270 2 C348 2 379 -33 379 -86 C379 -169 327 -224 248 -224 C168 -224 114 -164 114 -73 C114 -56 117.125 -40.5 122.75 -27.5 C132.24 -5.56837 150.436 2.80909 156 2.5 L156 2.5 Z " />
<glyph glyph-name="Gdot" unicode="&#x120;" horiz-adv-x="773" d="M395 865 C428 865 450 887 450 920 C450 953 428 975 395 975 C362 975 340 953 340 920 C340 887 362 865 395 865 L395 865 Z M655 637.5 C655 699.009 653.091 737 650 737 C646.909 737 644.434 733.006 644 726.5 C643.566 719.994 642.857 692.44 622.125 689.25 C593.288 684.814 551.52 729.682 499.625 745.75 C469.75 755 435.5 760 395 760 C188 760 50 606 50 375 C50 144 189 -10 397 -10 C469 -10 528 -3.625 578.75 7.375 C663.172 25.6734 698.779 46.7771 678 40.5 C654.099 33.2799 639 68.3727 639 130.5 L639 231 C639 282 668 316 712 316 L718.5 316 C722.518 316 725 317.718 725 320.5 C725 323.282 673.073 325 589 325 C504.927 325 453 323.282 453 320.5 C453 317.718 455.482 316 459.5 316 L466 316 C510 316 539 282 539 231 C540 231 540 116 540 105 C538 48 487 10 411 10 C259 10 158 156 158 375 C158 602 253 754 395 754 C515 754 602 657 630 561 C631 557.5 632 553.5 633 549.5 C634.782 542.372 639.627 538 645.5 538 C651.373 538 655 575.991 655 637.5 L655 637.5 Z " />
<glyph glyph-name="gdot" unicode="&#x121;" horiz-adv-x="487" d="M239 615 C272 615 294 637 294 670 C294 703 272 725 239 725 C206 725 184 703 184 670 C184 637 206 615 239 615 L239 615 Z M508 479 C508 510 486 530 453 530 C436.5 530 419 523.5 402.625 512 C369.812 488.956 342.462 483.927 306.375 497.875 C286 505.75 263 510 238 510 C140 510 74 446 74 350 C74 307.5 86.75 271.25 109.375 243.875 C152.064 192.224 155.444 197.907 95.375 163.375 C69.5 148.5 55 128.5 55 105 C55 78.5 63 55.75 77.25 38.25 C104.329 4.99529 103.272 -2.2836 70 -37.375 C54 -54.25 45 -74 45 -95 C45 -176 127 -230 249 -230 C371 -230 452 -165 452 -68 C452 23 404 84 281 84 L171 84 C131 84 104 102 104 130 C104 165 158 188 239 188 C337 188 402 253 402 350 C402 372.5 398.5 393.25 391.875 411.875 C380.07 445.064 368.339 468.33 380.625 474.125 C387.25 477.25 394.5 479 402 479 C423 479 450 444 471 444 C493 444 507.5 458 507.5 480 L508 479 Z M238 194 C191 194 159 257 159 352 C159 446 191 508 238 508 C285 508 316 446 316 352 C316 257 285 194 238 194 L238 194 Z M156 2.5 C161.564 2.19091 185.045 2 217.5 2 L270 2 C348 2 379 -33 379 -86 C379 -169 327 -224 248 -224 C168 -224 114 -164 114 -73 C114 -56 117.125 -40.5 122.75 -27.5 C132.24 -5.56837 150.436 2.80909 156 2.5 L156 2.5 Z " />
<glyph glyph-name="Hcircumflex" unicode="&#x124;" horiz-adv-x="804" d="M436.5 1023.38 C431 1029.75 425 1035 420 1035 C415 1035 409 1029.75 403.5 1023.38 C394.293 1012.7 366.709 968.918 329 910.5 C291.291 852.082 270.291 814.091 274 811 C277.709 807.909 306.727 832.536 350 875.5 C393.273 918.464 446.727 918.464 490 875.5 C533.273 832.536 562.291 807.909 566 811 C569.709 814.091 548.709 852.082 511 910.5 C473.291 968.918 445.707 1012.7 436.5 1023.38 L436.5 1023.38 Z M731 7 L718 7 C688 7 668 27 668 57 L668 693 C668 723 688 743 718 743 L731 743 C739.036 743 744 744.336 744 746.5 C744 748.664 695.891 750 618 750 C540.109 750 492 748.664 492 746.5 C492 744.336 496.964 743 505 743 L518 743 C548 743 568 723 568 693 L568 541 C568 447.036 511.491 389 420 389 C328.509 389 272 447.036 272 541 L272 693 C272 723 292 743 322 743 L335 743 C343.036 743 348 744.336 348 746.5 C348 748.664 299.891 750 222 750 C144.109 750 96 748.664 96 746.5 C96 744.336 100.964 743 109 743 L122 743 C152 743 172 723 172 693 L172 57 C172 27 152 7 122 7 L109 7 C100.964 7 96 5.66364 96 3.5 C96 1.33636 144.109 0 222 0 C299.891 0 348 1.33636 348 3.5 C348 5.66364 343.036 7 335 7 L322 7 C292 7 272 27 272 57 L272 220 C272 320.764 328.509 383 420 383 C511.491 383 568 320.764 568 220 L568 57 C568 27 548 7 518 7 L505 7 C496.964 7 492 5.66364 492 3.5 C492 1.33636 540.109 0 618 0 C695.891 0 744 1.33636 744 3.5 C744 5.66364 739.036 7 731 7 L731 7 Z " />
<glyph glyph-name="Itilde" unicode="&#x128;" horiz-adv-x="367" d="M70.75 913.5 C77 924 86 930 97 930 C140 930 198 865 241 865 C260 865 275.375 877 286 898 C310.713 946.845 306.76 964.294 290.75 941.5 C283.375 931 273 925 261 925 C218 925 160 990 116 990 C98.5 990 84.375 978 74.625 957 C51.6372 907.488 56.6545 889.82 70.75 913.5 L70.75 913.5 Z M294 7 L281 7 C251 7 231 27 231 57 L231 693 C231 723 251 743 281 743 L294 743 C302.036 743 307 744.336 307 746.5 C307 748.664 258.891 750 181 750 C103.109 750 55 748.664 55 746.5 C55 744.336 59.9636 743 68 743 L81 743 C111 743 131 723 131 693 L131 57 C131 27 111 7 81 7 L68 7 C59.9636 7 55 5.66364 55 3.5 C55 1.33636 103.109 0 181 0 C258.891 0 307 1.33636 307 3.5 C307 5.66364 302.036 7 294 7 L294 7 Z " />
<glyph glyph-name="itilde" unicode="&#x129;" horiz-adv-x="302" d="M48.25 663.5 C54.75 674 64 680 75 680 C118 680 175 615 218 615 C237 615 252.625 627 263.5 648 C288.7 696.661 284.827 714.183 268.625 691.5 C261.125 681 250.5 675 238 675 C195 675 137 740 94 740 C76.5 740 62.125 728 52.125 707 C28.6324 657.666 33.7082 640.009 48.25 663.5 L48.25 663.5 Z M80.5 472.5 C93.1727 475.9 106.505 481.091 111.875 477 C114.5 475 116 471.5 116 467 L116 22 C116 13 110 7 101 7 L80.5 7 C67.8273 7 60 5.66364 60 3.5 C60 1.33636 97.6091 0 158.5 0 C219.391 0 257 1.33636 257 3.5 C257 5.66364 249.173 7 236.5 7 L216 7 C207 7 201 13 201 22 L201 261 C201 408.745 192.982 500.095 180 500.25 C167.018 500.405 140.1 495.441 109.5 487.25 C78.9 479.059 60 472.664 60 470.5 C60 468.336 67.8273 469.1 80.5 472.5 L80.5 472.5 Z " />
<glyph glyph-name="Imacron" unicode="&#x12a;" horiz-adv-x="367" d="M181 895 C258.273 895 306 906.264 306 924.5 C306 942.736 258.273 954 181 954 C103.727 954 56 942.736 56 924.5 C56 906.264 103.727 895 181 895 L181 895 Z M294 7 L281 7 C251 7 231 27 231 57 L231 693 C231 723 251 743 281 743 L294 743 C302.036 743 307 744.336 307 746.5 C307 748.664 258.891 750 181 750 C103.109 750 55 748.664 55 746.5 C55 744.336 59.9636 743 68 743 L81 743 C111 743 131 723 131 693 L131 57 C131 27 111 7 81 7 L68 7 C59.9636 7 55 5.66364 55 3.5 C55 1.33636 103.109 0 181 0 C258.891 0 307 1.33636 307 3.5 C307 5.66364 302.036 7 294 7 L294 7 Z " />
<glyph glyph-name="imacron" unicode="&#x12b;" horiz-adv-x="302" d="M158.5 645 C236.082 645 284 656.264 284 674.5 C284 692.736 236.082 704 158.5 704 C80.9182 704 33 692.736 33 674.5 C33 656.264 80.9182 645 158.5 645 L158.5 645 Z M80.5 472.5 C93.1727 475.9 106.505 481.091 111.875 477 C114.5 475 116 471.5 116 467 L116 22 C116 13 110 7 101 7 L80.5 7 C67.8273 7 60 5.66364 60 3.5 C60 1.33636 97.6091 0 158.5 0 C219.391 0 257 1.33636 257 3.5 C257 5.66364 249.173 7 236.5 7 L216 7 C207 7 201 13 201 22 L201 261 C201 408.745 192.982 500.095 180 500.25 C167.018 500.405 140.1 495.441 109.5 487.25 C78.9 479.059 60 472.664 60 470.5 C60 468.336 67.8273 469.1 80.5 472.5 L80.5 472.5 Z " />
<glyph glyph-name="Ibreve" unicode="&#x12c;" horiz-adv-x="367" d="M102 904.25 C122.25 882.5 149.5 870 181 870 C212.5 870 240 882.25 260.375 903.625 C301.178 946.431 293.564 992.573 288 993.5 C282.436 994.427 278.192 966.795 249.5 947.875 C232.25 936.5 208.5 930 181 930 C153.5 930 130 936.75 112.875 948.5 C83.8391 968.422 79.5636 996.427 74 995.5 C68.4364 994.573 61.107 948.172 102 904.25 L102 904.25 Z M294 7 L281 7 C251 7 231 27 231 57 L231 693 C231 723 251 743 281 743 L294 743 C302.036 743 307 744.336 307 746.5 C307 748.664 258.891 750 181 750 C103.109 750 55 748.664 55 746.5 C55 744.336 59.9636 743 68 743 L81 743 C111 743 131 723 131 693 L131 57 C131 27 111 7 81 7 L68 7 C59.9636 7 55 5.66364 55 3.5 C55 1.33636 103.109 0 181 0 C258.891 0 307 1.33636 307 3.5 C307 5.66364 302.036 7 294 7 L294 7 Z " />
<glyph glyph-name="ibreve" unicode="&#x12d;" horiz-adv-x="302" d="M79.125 654.25 C99.5 632.5 127 620 159 620 C190.5 620 218 632.25 238.375 653.625 C279.178 696.431 271.564 742.573 266 743.5 C260.436 744.427 256.192 716.795 227.5 697.875 C210.25 686.5 186.5 680 159 680 C131 680 107.25 686.75 90 698.5 C60.8633 718.347 56.5636 746.427 51 745.5 C45.4364 744.573 38.0772 698.068 79.125 654.25 L79.125 654.25 Z M80.5 472.5 C93.1727 475.9 106.505 481.091 111.875 477 C114.5 475 116 471.5 116 467 L116 22 C116 13 110 7 101 7 L80.5 7 C67.8273 7 60 5.66364 60 3.5 C60 1.33636 97.6091 0 158.5 0 C219.391 0 257 1.33636 257 3.5 C257 5.66364 249.173 7 236.5 7 L216 7 C207 7 201 13 201 22 L201 261 C201 408.745 192.982 500.095 180 500.25 C167.018 500.405 140.1 495.441 109.5 487.25 C78.9 479.059 60 472.664 60 470.5 C60 468.336 67.8273 469.1 80.5 472.5 L80.5 472.5 Z " />
<glyph glyph-name="Idot" unicode="&#x130;" horiz-adv-x="367" d="M181 865 C214 865 236 887 236 920 C236 953 214 975 181 975 C148 975 126 953 126 920 C126 887 148 865 181 865 L181 865 Z M294 7 L281 7 C251 7 231 27 231 57 L231 693 C231 723 251 743 281 743 L294 743 C302.036 743 307 744.336 307 746.5 C307 748.664 258.891 750 181 750 C103.109 750 55 748.664 55 746.5 C55 744.336 59.9636 743 68 743 L81 743 C111 743 131 723 131 693 L131 57 C131 27 111 7 81 7 L68 7 C59.9636 7 55 5.66364 55 3.5 C55 1.33636 103.109 0 181 0 C258.891 0 307 1.33636 307 3.5 C307 5.66364 302.036 7 294 7 L294 7 Z " />
<glyph glyph-name="dotlessi" unicode="&#x131;" horiz-adv-x="302" d="M80.5 472.5 C93.1727 475.9 106.505 481.091 111.875 477 C114.5 475 116 471.5 116 467 L116 22 C116 13 110 7 101 7 L80.5 7 C67.8273 7 60 5.66364 60 3.5 C60 1.33636 97.6091 0 158.5 0 C219.391 0 257 1.33636 257 3.5 C257 5.66364 249.173 7 236.5 7 L216 7 C207 7 201 13 201 22 L201 261 C201 408.745 192.982 500.095 180 500.25 C167.018 500.405 140.1 495.441 109.5 487.25 C78.9 479.059 60 472.664 60 470.5 C60 468.336 67.8273 469.1 80.5 472.5 L80.5 472.5 Z " />
<glyph glyph-name="Jcircumflex" unicode="&#x134;" horiz-adv-x="367" d="M197.5 1023.38 C192 1029.75 186 1035 181 1035 C176 1035 170 1029.75 164.5 1023.38 C155.293 1012.7 127.709 968.918 90 910.5 C52.2909 852.082 31.2909 814.091 35 811 C38.7091 807.909 67.7273 832.536 111 875.5 C154.273 918.464 207.727 918.464 251 875.5 C294.273 832.536 323.291 807.909 327 811 C330.709 814.091 309.709 852.082 272 910.5 C234.291 968.918 206.707 1012.7 197.5 1023.38 L197.5 1023.38 Z M181 750 C103.109 750 55 748.664 55 746.5 C55 744.336 59.9636 743 68 743 L81 743 C111 743 131 723 131 693 L131 -72 C131 -190 66 -212 19 -212 C-30 -212 -6 -132 -56 -132 C-83 -132 -101 -150 -101 -177 C-101 -203 -55 -220 13 -220 C105 -220 231 -166 231 116 L231 693 C231 723 251 743 281 743 L294 743 C302.036 743 307 744.336 307 746.5 C307 748.664 258.891 750 181 750 L181 750 Z " />
<glyph glyph-name="Lacute" unicode="&#x139;" horiz-adv-x="591" d="M260 872 C303.891 909.091 349.752 946.933 377.25 974.125 C388.5 985.25 395 993 395 996 C395 1019 376 1038 353 1038 C350 1038 342.75 1031.25 332.25 1019.5 C306.289 990.448 270.236 942.745 235 897 C199.764 851.255 180.1 820.9 183.5 817.5 C186.9 814.1 216.109 834.909 260 872 L260 872 Z M181 750 C103.109 750 55 748.664 55 746.5 C55 744.336 59.9636 743 68 743 L81 743 C111 743 131 723 131 693 L131 57 C131 27 111 7 81 7 L68 7 C59.9636 7 55 5.66364 55 3.5 C55 1.33636 144.727 0 290 0 C435.273 0 525 2.48182 525 6.5 C525 10.5182 529.44 35.6667 535.875 72.5 C542.296 109.254 543.709 132 540 132 C536.291 132 532.855 128.755 531 123.5 C529.145 118.245 519.59 75.427 474.625 43.375 C450.25 26 420.5 16 389 16 L282 16 C236 16 231 30 231 50 L231 692 C231 722 251 742 281 742 L294 742 C302.036 742 307 743.527 307 746 C307 748.473 258.891 750 181 750 L181 750 Z " />
<glyph glyph-name="Lcaron" unicode="&#x13d;" horiz-adv-x="591" d="M406 808 C388 808 379 745 376 700 L372 644.5 C369.527 610.191 370.864 588.427 375.5 587.5 C380.136 586.573 390.255 606.045 402 638.5 L421 691 C435 728 444 770 444 796 C444 805 429 808 406 808 L406 808 Z M181 750 C103.109 750 55 748.664 55 746.5 C55 744.336 59.9636 743 68 743 L81 743 C111 743 131 723 131 693 L131 57 C131 27 111 7 81 7 L68 7 C59.9636 7 55 5.66364 55 3.5 C55 1.33636 144.727 0 290 0 C435.273 0 525 2.48182 525 6.5 C525 10.5182 529.44 35.6667 535.875 72.5 C542.296 109.254 543.709 132 540 132 C536.291 132 532.855 128.755 531 123.5 C529.145 118.245 519.59 75.427 474.625 43.375 C450.25 26 420.5 16 389 16 L282 16 C236 16 231 30 231 50 L231 692 C231 722 251 742 281 742 L294 742 C302.036 742 307 743.527 307 746 C307 748.473 258.891 750 181 750 L181 750 Z " />
<glyph glyph-name="lcaron" unicode="&#x13e;" horiz-adv-x="246" d="M243 758 C226 758 217 695 214 650 L210 594.5 C207.527 560.191 208.864 538.427 213.5 537.5 C218.136 536.573 228.064 556.045 239.5 588.5 L258 641 C272 679 281 721 281 746 C281 755 266 758 243 758 L243 758 Z M24.5 718 C27.9 718 47.2117 722.31 62.625 707.875 C70.5 700.5 75 689.5 75 676 L75 22 C75 13 69 7 60 7 L39.5 7 C26.8273 7 19 5.66364 19 3.5 C19 1.33636 56.6091 0 117.5 0 C178.391 0 216 1.33636 216 3.5 C216 5.66364 208.173 7 195.5 7 L175 7 C166 7 160 13 160 22 L160 386 C160 611.018 151.982 750 139 750 C126.018 750 99.1442 745.05 68.5 737.5 C37.8558 729.95 19 723.664 19 721.5 C19 719.336 21.1 718 24.5 718 L24.5 718 Z " />
<glyph glyph-name="Nacute" unicode="&#x143;" horiz-adv-x="726" d="M338 872 C381.891 909.091 427.752 946.933 455.25 974.125 C466.5 985.25 473 993 473 996 C473 1019 454 1038 431 1038 C428 1038 420.5 1031.25 409.875 1019.5 C383.842 990.711 348.427 942.745 313.5 897 C278.573 851.255 258.909 820.9 262 817.5 C265.091 814.1 294.109 834.909 338 872 L338 872 Z M-3 743 L10 743 C37 743 68 726 88 700 L108.5 669.5 C121.173 650.645 128.809 527.7 128.5 347.5 C128.191 167.3 131.197 36.6972 114.25 19.75 C105.5 11 93 6 78 6 L65 6 C56.9636 6 52 4.66364 52 2.5 C52 0.336364 86.7455 -1 143 -1 C199.255 -1 234 0.336364 234 2.5 C234 4.66364 229.036 6 221 6 L208 6 C193 6 180.5 11 171.75 19.75 C154.803 36.6972 157.427 159.855 156.5 328 C155.573 496.145 233.021 485.527 358.875 299.875 C484.799 114.12 565.818 -1 572 -1 C578.182 -1 583.336 132.827 585.5 349.5 C587.664 566.173 588.755 716.647 605 729.875 C613.75 737 625.5 741 639 741 L652 741 C660.036 741 665 742.336 665 744.5 C665 746.664 630.255 748 574 748 C517.745 748 483 746.664 483 744.5 C483 742.336 487.964 741 496 741 L509 741 C524 741 536.5 736 545.25 727.25 C562.197 710.303 559.382 592.873 560 434 C560.618 275.127 488.381 286.391 369.875 462.875 C251.439 639.254 140.773 748 80.5 748 C20.2273 748 -16.8091 747.045 -16.5 745.5 C-16.1909 743.955 -11.0364 743 -3 743 L-3 743 Z " />
<glyph glyph-name="Ncaron" unicode="&#x147;" horiz-adv-x="726" d="M429.5 974.5 C385.918 931.536 332.273 931.536 289 974.5 C245.727 1017.46 216.9 1042.09 213.5 1039 C210.1 1035.91 231.291 997.918 269 939.5 C306.709 881.082 334.293 837.297 343.5 826.625 C349 820.25 355 815 360 815 C365 815 371 820.25 376.5 826.625 C385.707 837.297 413.1 881.082 450.5 939.5 C487.9 997.918 508.9 1035.91 505.5 1039 C502.1 1042.09 473.082 1017.46 429.5 974.5 L429.5 974.5 Z M-3 743 L10 743 C37 743 68 726 88 700 L108.5 669.5 C121.173 650.645 128.809 527.7 128.5 347.5 C128.191 167.3 131.197 36.6972 114.25 19.75 C105.5 11 93 6 78 6 L65 6 C56.9636 6 52 4.66364 52 2.5 C52 0.336364 86.7455 -1 143 -1 C199.255 -1 234 0.336364 234 2.5 C234 4.66364 229.036 6 221 6 L208 6 C193 6 180.5 11 171.75 19.75 C154.803 36.6972 157.427 159.855 156.5 328 C155.573 496.145 233.021 485.527 358.875 299.875 C484.799 114.12 565.818 -1 572 -1 C578.182 -1 583.336 132.827 585.5 349.5 C587.664 566.173 588.755 716.647 605 729.875 C613.75 737 625.5 741 639 741 L652 741 C660.036 741 665 742.336 665 744.5 C665 746.664 630.255 748 574 748 C517.745 748 483 746.664 483 744.5 C483 742.336 487.964 741 496 741 L509 741 C524 741 536.5 736 545.25 727.25 C562.197 710.303 559.382 592.873 560 434 C560.618 275.127 488.381 286.391 369.875 462.875 C251.439 639.254 140.773 748 80.5 748 C20.2273 748 -16.8091 747.045 -16.5 745.5 C-16.1909 743.955 -11.0364 743 -3 743 L-3 743 Z " />
<glyph glyph-name="ncaron" unicode="&#x148;" horiz-adv-x="515" d="M322 724.5 C278.727 681.536 225.273 681.536 182 724.5 C138.727 767.464 109.709 792.091 106 789 C102.291 785.909 123.291 747.918 161 689.5 C198.709 631.082 226.293 587.297 235.5 576.625 C241 570.25 247 565 252 565 C257 565 263 570.25 268.5 576.625 C277.707 587.297 305.291 631.082 343 689.5 C380.709 747.918 401.709 785.909 398 789 C394.291 792.091 365.273 767.464 322 724.5 L322 724.5 Z M25.5 469 C28.9 469 46.8431 472.754 62.5 459.875 C70.25 453.5 75 444 76 432 C76 335 75 137 75 22 C75 13 69 7 60 7 L39.5 7 C26.8273 7 19 5.66364 19 3.5 C19 1.33636 56.6091 0 117.5 0 C178.391 0 216 1.33636 216 3.5 C216 5.66364 208.173 7 195.5 7 L175 7 C166 7 160 13 160 22 L160 200 C160 310.036 168.132 413.495 208.75 443.25 C230.25 459 256 468 283 468 C323 468 344 418 344 342 L344 22 C344 13 338 7 329 7 L308.5 7 C295.827 7 288 5.66364 288 3.5 C288 1.33636 325.609 0 386.5 0 C447.391 0 485 1.33636 485 3.5 C485 5.66364 477.173 7 464.5 7 L444 7 C435 7 429 13 429 22 L429 342 C429 443 388 510 308 510 C276.5 510 246 498 220.125 477.125 C169.589 436.355 160 411.809 160 445.5 C160 479.191 151.886 500 138.75 500 C125.614 500 98.8864 495.418 68.75 488 C38.6136 480.582 20 474.664 20 472.5 C20 470.336 22.1 469 25.5 469 L25.5 469 Z " />
<glyph glyph-name="Omacron" unicode="&#x14c;" horiz-adv-x="810" d="M398 895 C475.273 895 523 906.264 523 924.5 C523 942.736 475.273 954 398 954 C320.727 954 273 942.736 273 924.5 C273 906.264 320.727 895 398 895 L398 895 Z M159 375 C159 602 254 754 397 754 C546 754 646 602 646 375 C646 148 543 -4 389 -4 C251 -4 159 148 159 375 L159 375 Z M50 375 C50 144 185 -10 388 -10 C608 -10 755 144 755 375 C755 606 612 760 398 760 C189 760 50 606 50 375 L50 375 Z " />
<glyph glyph-name="omacron" unicode="&#x14d;" horiz-adv-x="580" d="M290 645 C367.273 645 415 656.264 415 674.5 C415 692.736 367.273 704 290 704 C212.727 704 165 692.736 165 674.5 C165 656.264 212.727 645 290 645 L290 645 Z M139 250 C139 402 199 504 290 504 C381 504 442 402 442 250 C442 98 381 -4 290 -4 C199 -4 139 98 139 250 L139 250 Z M45 250 C45 94 143 -10 290 -10 C437 -10 535 94 535 250 C535 406 437 510 290 510 C143 510 45 406 45 250 L45 250 Z " />
<glyph glyph-name="Obreve" unicode="&#x14e;" horiz-adv-x="810" d="M319 904.25 C339.25 882.5 366.5 870 398 870 C429.5 870 457 882.25 477.375 903.625 C518.178 946.431 510.564 992.573 505 993.5 C499.436 994.427 495.192 966.795 466.5 947.875 C449.25 936.5 425.5 930 398 930 C370.5 930 347 936.75 329.875 948.5 C300.839 968.422 296.564 996.427 291 995.5 C285.436 994.573 278.107 948.172 319 904.25 L319 904.25 Z M159 375 C159 602 254 754 397 754 C546 754 646 602 646 375 C646 148 543 -4 389 -4 C251 -4 159 148 159 375 L159 375 Z M50 375 C50 144 185 -10 388 -10 C608 -10 755 144 755 375 C755 606 612 760 398 760 C189 760 50 606 50 375 L50 375 Z " />
<glyph glyph-name="obreve" unicode="&#x14f;" horiz-adv-x="580" d="M211 654.25 C231.25 632.5 258.5 620 290 620 C321.5 620 349 632.25 369.375 653.625 C410.178 696.431 402.564 742.573 397 743.5 C391.436 744.427 387.192 716.795 358.5 697.875 C341.25 686.5 317.5 680 290 680 C262.5 680 239 686.75 221.875 698.5 C192.839 718.422 188.564 746.427 183 745.5 C177.436 744.573 170.107 698.172 211 654.25 L211 654.25 Z M139 250 C139 402 199 504 290 504 C381 504 442 402 442 250 C442 98 381 -4 290 -4 C199 -4 139 98 139 250 L139 250 Z M45 250 C45 94 143 -10 290 -10 C437 -10 535 94 535 250 C535 406 437 510 290 510 C143 510 45 406 45 250 L45 250 Z " />
<glyph glyph-name="Racute" unicode="&#x154;" horiz-adv-x="708" d="M372 872 C415.891 909.091 461.752 946.933 489.25 974.125 C500.5 985.25 507 993 507 996 C507 1019 488 1038 465 1038 C462 1038 454.5 1031.25 443.875 1019.5 C417.842 990.711 382.427 942.745 347.5 897 C312.573 851.255 292.909 820.9 296 817.5 C299.091 814.1 328.109 834.909 372 872 L372 872 Z M73 743 L86 743 C116 743 136 723 136 693 L136 57 C136 27 116 7 86 7 L73 7 C64.9636 7 60 5.66364 60 3.5 C60 1.33636 108.109 0 186 0 C263.891 0 312 1.33636 312 3.5 C312 5.66364 307.036 7 299 7 L286 7 C256 7 236 27 236 57 L236 206 C236 298.109 248.982 355 270 355 C291.018 355 324.356 313.617 361.375 248.875 C426.222 135.463 480.426 24.154 530.25 9.5 C629.896 -19.8075 698 1.33636 698 3.5 C698 5.66364 666.558 -5.11609 628.125 15.25 C591.676 34.5646 542.727 138.362 472.625 253.875 C430.904 322.621 464.775 365.76 519 423.5 C546 452.25 561 490.5 561 539 C561 666 460 751 309 751 L184.5 751 C107.536 751 60 749.473 60 747 C60 744.527 64.9636 743 73 743 L73 743 Z M236 556 C236 664.182 244.209 731 257.5 731 L279 731 C382 731 451 662 451 559 C451 436 394 381 309 381 L272.5 381 C249.936 381 236 447.818 236 556 L236 556 Z " />
<glyph glyph-name="Rcaron" unicode="&#x158;" horiz-adv-x="708" d="M363.5 974.5 C319.918 931.536 266.273 931.536 223 974.5 C179.727 1017.46 150.9 1042.09 147.5 1039 C144.1 1035.91 165.291 997.918 203 939.5 C240.709 881.082 268.293 837.297 277.5 826.625 C283 820.25 289 815 294 815 C299 815 305 820.25 310.5 826.625 C319.707 837.297 347.1 881.082 384.5 939.5 C421.9 997.918 442.9 1035.91 439.5 1039 C436.1 1042.09 407.082 1017.46 363.5 974.5 L363.5 974.5 Z M73 743 L86 743 C116 743 136 723 136 693 L136 57 C136 27 116 7 86 7 L73 7 C64.9636 7 60 5.66364 60 3.5 C60 1.33636 108.109 0 186 0 C263.891 0 312 1.33636 312 3.5 C312 5.66364 307.036 7 299 7 L286 7 C256 7 236 27 236 57 L236 206 C236 298.109 248.982 355 270 355 C291.018 355 324.356 313.617 361.375 248.875 C426.222 135.463 480.426 24.154 530.25 9.5 C629.896 -19.8075 698 1.33636 698 3.5 C698 5.66364 666.558 -5.11609 628.125 15.25 C591.676 34.5646 542.727 138.362 472.625 253.875 C430.904 322.621 464.775 365.76 519 423.5 C546 452.25 561 490.5 561 539 C561 666 460 751 309 751 L184.5 751 C107.536 751 60 749.473 60 747 C60 744.527 64.9636 743 73 743 L73 743 Z M236 556 C236 664.182 244.209 731 257.5 731 L279 731 C382 731 451 662 451 559 C451 436 394 381 309 381 L272.5 381 C249.936 381 236 447.818 236 556 L236 556 Z " />
<glyph glyph-name="rcaron" unicode="&#x159;" horiz-adv-x="371" d="M281 724.5 C237.727 681.536 184.273 681.536 141 724.5 C97.7273 767.464 68.7091 792.091 65 789 C61.2909 785.909 82.2909 747.918 120 689.5 C157.709 631.082 185.293 587.297 194.5 576.625 C200 570.25 206 565 211 565 C216 565 222 570.25 227.5 576.625 C236.707 587.297 264.291 631.082 302 689.5 C339.709 747.918 360.709 785.909 357 789 C353.291 792.091 324.273 767.464 281 724.5 L281 724.5 Z M25.5 468 C28.9 468 48.2117 472.31 63.625 457.875 C71.5 450.5 76 439.5 76 426 L76 22 C76 13 70 7 61 7 L40.5 7 C27.8273 7 20 5.66364 20 3.5 C20 1.33636 57.6091 0 118.5 0 C179.391 0 217 1.33636 217 3.5 C217 5.66364 209.173 7 196.5 7 L176 7 C167 7 161 13 161 22 L161 210.5 C161 327.027 163.518 426.403 191.375 451.5 C205.25 464 222.5 471 242 471 C253 471 261 457 261 436 C261 406 281 386 311 386 C341 386 361 406 361 436 C361 481 329 511 282 511 C252 511 225.5 501.25 204.625 483.875 C164.27 450.286 161 428.182 161 456 C161 483.818 152.982 501 140 501 C127.018 501 100.144 496.05 69.5 488.5 C38.8558 480.95 20 474.473 20 472 C20 469.527 22.1 468 25.5 468 L25.5 468 Z " />
<glyph glyph-name="Sacute" unicode="&#x15a;" horiz-adv-x="518" d="M336 872 C379.891 909.091 425.752 946.933 453.25 974.125 C464.5 985.25 471 993 471 996 C471 1019 452 1038 429 1038 C426 1038 418.75 1031.25 408.25 1019.5 C382.289 990.448 346.236 942.745 311 897 C275.764 851.255 256.1 820.9 259.5 817.5 C262.9 814.1 292.109 834.909 336 872 L336 872 Z M65 154 L65 154 L65 154 L65 154 Z M50 120 C50 51.3818 51.9091 9 55 9 C58.0909 9 60.5529 13.9523 61 22 C61.4471 30.0477 59.3398 59.7627 80.75 65.625 C91.25 68.5 105.5 64 122 52 C166 14 219 -9 272 -9 C396 -9 478 73 478 197 C478 247 463 294.25 433.5 334.25 C374.244 414.597 240.801 438.013 183.125 503 C156.5 533 143 567 143 602 C143 724 208 785 303 742 C326.5 731 349.5 710 369.125 682.75 C407.808 629.038 416.276 581.257 418 573.5 C419.724 565.743 424.245 561 429.5 561 C434.755 561 438 596.509 438 654 C438 711.491 436.091 747 433 747 C429.909 747 427.439 743.773 427 738.5 C426.561 733.227 426.808 714.677 412.5 709.25 C395.8 702.915 362.44 734.931 319.125 750.125 C295.25 758.5 269.5 763 243 763 C136 763 65 684 65 566 C65 513.5 80.25 464.25 110.125 422.75 C169.489 340.287 301.153 316.775 359.625 256.625 C385.75 229.75 399 200 399 170 C399 68 349 0 273 0 C240 0 205 14 173 40 C152.5 57 132.5 82 115.25 111.375 C82.074 167.87 72.7239 213.743 71 221.5 C69.2761 229.257 64.5636 233.427 59 232.5 C53.4364 231.573 50 188.618 50 120 L50 120 Z " />
<glyph glyph-name="Scircumflex" unicode="&#x15c;" horiz-adv-x="518" d="M273.5 1023.38 C268 1029.75 262 1035 257 1035 C252 1035 246 1029.75 240.5 1023.38 C231.293 1012.7 203.709 968.918 166 910.5 C128.291 852.082 107.291 814.091 111 811 C114.709 807.909 143.727 832.536 187 875.5 C230.273 918.464 283.727 918.464 327 875.5 C370.273 832.536 399.291 807.909 403 811 C406.709 814.091 385.709 852.082 348 910.5 C310.291 968.918 282.707 1012.7 273.5 1023.38 L273.5 1023.38 Z M65 154 L65 154 L65 154 L65 154 Z M50 120 C50 51.3818 51.9091 9 55 9 C58.0909 9 60.5529 13.9523 61 22 C61.4471 30.0477 59.3398 59.7627 80.75 65.625 C91.25 68.5 105.5 64 122 52 C166 14 219 -9 272 -9 C396 -9 478 73 478 197 C478 247 463 294.25 433.5 334.25 C374.244 414.597 240.801 438.013 183.125 503 C156.5 533 143 567 143 602 C143 724 208 785 303 742 C326.5 731 349.5 710 369.125 682.75 C407.808 629.038 416.276 581.257 418 573.5 C419.724 565.743 424.245 561 429.5 561 C434.755 561 438 596.509 438 654 C438 711.491 436.091 747 433 747 C429.909 747 427.439 743.773 427 738.5 C426.561 733.227 426.808 714.677 412.5 709.25 C395.8 702.915 362.44 734.931 319.125 750.125 C295.25 758.5 269.5 763 243 763 C136 763 65 684 65 566 C65 513.5 80.25 464.25 110.125 422.75 C169.489 340.287 301.153 316.775 359.625 256.625 C385.75 229.75 399 200 399 170 C399 68 349 0 273 0 C240 0 205 14 173 40 C152.5 57 132.5 82 115.25 111.375 C82.074 167.87 72.7239 213.743 71 221.5 C69.2761 229.257 64.5636 233.427 59 232.5 C53.4364 231.573 50 188.618 50 120 L50 120 Z " />
<glyph glyph-name="Scaron" unicode="&#x160;" horiz-adv-x="518" d="M327 974.5 C283.727 931.536 230.273 931.536 187 974.5 C143.727 1017.46 114.709 1042.09 111 1039 C107.291 1035.91 128.291 997.918 166 939.5 C203.709 881.082 231.293 837.297 240.5 826.625 C246 820.25 252 815 257 815 C262 815 268 820.25 273.5 826.625 C282.707 837.297 310.291 881.082 348 939.5 C385.709 997.918 406.709 1035.91 403 1039 C399.291 1042.09 370.273 1017.46 327 974.5 L327 974.5 Z M65 154 L65 154 L65 154 L65 154 Z M50 120 C50 51.3818 51.9091 9 55 9 C58.0909 9 60.5529 13.9523 61 22 C61.4471 30.0477 59.3398 59.7627 80.75 65.625 C91.25 68.5 105.5 64 122 52 C166 14 219 -9 272 -9 C396 -9 478 73 478 197 C478 247 463 294.25 433.5 334.25 C374.244 414.597 240.801 438.013 183.125 503 C156.5 533 143 567 143 602 C143 724 208 785 303 742 C326.5 731 349.5 710 369.125 682.75 C407.808 629.038 416.276 581.257 418 573.5 C419.724 565.743 424.245 561 429.5 561 C434.755 561 438 596.509 438 654 C438 711.491 436.091 747 433 747 C429.909 747 427.439 743.773 427 738.5 C426.561 733.227 426.808 714.677 412.5 709.25 C395.8 702.915 362.44 734.931 319.125 750.125 C295.25 758.5 269.5 763 243 763 C136 763 65 684 65 566 C65 513.5 80.25 464.25 110.125 422.75 C169.489 340.287 301.153 316.775 359.625 256.625 C385.75 229.75 399 200 399 170 C399 68 349 0 273 0 C240 0 205 14 173 40 C152.5 57 132.5 82 115.25 111.375 C82.074 167.87 72.7239 213.743 71 221.5 C69.2761 229.257 64.5636 233.427 59 232.5 C53.4364 231.573 50 188.618 50 120 L50 120 Z " />
<glyph glyph-name="scaron" unicode="&#x161;" horiz-adv-x="395" d="M268 724.5 C224.727 681.536 171.273 681.536 128 724.5 C84.7273 767.464 55.7091 792.091 52 789 C48.2909 785.909 69.2909 747.918 107 689.5 C144.709 631.082 172.293 587.297 181.5 576.625 C187 570.25 193 565 198 565 C203 565 209 570.25 214.5 576.625 C223.707 587.297 251.291 631.082 289 689.5 C326.709 747.918 347.709 785.909 344 789 C340.291 792.091 311.273 767.464 268 724.5 L268 724.5 Z M320 426 C320 472.364 318.664 501 316.5 501 L313 501 C312 497 312 492 311 488 C310.5 483 304.5 481 294.5 481.875 C268.635 484.138 242.745 499.635 222.75 504.75 C212 507.5 201 509 190 509 C111 509 58 457 58 379 C58 301 99 238 179 217 C245 199 279 156 279 105 C279 14 213 -38 148 14 C129 29.5 112.25 51.5 98.625 77.75 C71.7529 129.522 66.4727 167 64 167 C61.5273 167 60 136.455 60 87 C60 37.5455 61.3364 7 63.5 7 C65.6636 7 67.5346 9.84582 68 14.5 C68.4654 19.1542 75.5752 32.0036 87.75 29.375 C98.75 27 114 20 132 9 C153 -4 176 -11 198 -11 C286 -11 345 45 345 129 C345 164.5 334 196.75 312.5 223 C268.734 276.436 175.745 284.976 143.625 328.375 C127.25 350.5 119 378 119 408 C119 474 159 522 216 501 C238 492.5 258.25 472.75 274.75 446.25 C308.05 392.768 312.718 351 315.5 351 C318.282 351 320 379.636 320 426 L320 426 Z " />
<glyph glyph-name="Tcaron" unicode="&#x164;" horiz-adv-x="741" d="M441 974.5 C397.727 931.536 344.273 931.536 301 974.5 C257.727 1017.46 228.709 1042.09 225 1039 C221.291 1035.91 242.291 997.918 280 939.5 C317.709 881.082 345.293 837.297 354.5 826.625 C360 820.25 366 815 371 815 C376 815 382 820.25 387.5 826.625 C396.707 837.297 424.291 881.082 462 939.5 C499.709 997.918 520.709 1035.91 517 1039 C513.291 1042.09 484.273 1017.46 441 974.5 L441 974.5 Z M661 783.5 C659.764 781.955 648.079 766.061 622.875 758.375 C605.25 753 583 750 559 750 L183 750 C159 750 136.75 753 119.125 758.375 C93.9209 766.061 82.2364 781.955 81 783.5 C79.7636 785.045 77.2818 786 74.5 786 C71.7182 786 65.6051 776.861 58.625 762 C54.75 753.75 51 745.5 48 738 C40 718.5 33.5 696 27 673.5 C15.362 633.215 8.29091 609 12 609 C15.7091 609 21.6273 614.918 27.5 624.5 C33.3727 634.082 51.0933 673.374 95.25 701.625 C118.5 716.5 144.5 725 170 725 L245.5 725 C292.173 725 321 597.473 321 391 L321 57 C321 27 301 7 271 7 L258 7 C249.964 7 245 5.66364 245 3.5 C245 1.33636 293.109 0 371 0 C448.891 0 497 1.33636 497 3.5 C497 5.66364 492.036 7 484 7 L471 7 C441 7 421 27 421 57 L421 391 C421 597.473 449.827 725 496.5 725 L572 725 C597.5 725 623.5 716.5 646.75 701.625 C690.907 673.374 708.627 634.082 714.5 624.5 C720.373 614.918 726.291 609 730 609 C733.709 609 726.577 633.243 714.5 673.5 C707.75 696 701 718.5 693 738 C690 745.5 686.5 753.75 682.875 762 C676.323 776.912 670.282 786 667.5 786 C664.718 786 662.236 785.045 661 783.5 L661 783.5 Z " />
<glyph glyph-name="tcaron" unicode="&#x165;" horiz-adv-x="358" d="M244 500 C201.964 500 176 522.909 176 560 C176 597.091 174.855 620 173 620 C171.145 620 142.509 590.6 98 543 C53.4909 495.4 26 464.091 26 461 C26 457.909 38.4091 456 58.5 456 C78.5909 456 91 399.491 91 308 L91 160 C91 38 143 -10 220 -10 C247 -10 273.25 0.5 295.625 19 C339.992 55.6831 345.9 96.7636 342.5 98 C339.1 99.2364 331.184 72.7421 300.5 49.25 C284.5 37 265.5 30 246 30 C203 30 174 61 174 141 L175 298 C175.618 395.055 201.964 455 244 455 C286.036 455 312 463.591 312 477.5 C312 491.409 286.036 500 244 500 L244 500 Z M401 758 C384 758 375 695 372 650 L368 594.5 C365.527 560.191 366.864 538.427 371.5 537.5 C376.136 536.573 386.064 556.045 397.5 588.5 L416 641 C430 679 439 721 439 746 C439 755 424 758 401 758 L401 758 Z " />
<glyph glyph-name="Utilde" unicode="&#x168;" horiz-adv-x="701" d="M237.75 913.5 C244 924 253 930 264 930 C307 930 365 865 408 865 C427 865 442.375 877 453 898 C477.713 946.845 473.76 964.294 457.75 941.5 C450.375 931 440 925 428 925 C385 925 327 990 283 990 C265.5 990 251.375 978 241.625 957 C218.637 907.488 223.654 889.82 237.75 913.5 L237.75 913.5 Z M658 36.5 L645 33 C615 25 595 40 595 70 L595 410 C595 620.182 561.4 750 507 750 C452.6 750 419 748.664 419 746.5 C419 744.336 423.964 743 432 743 L445 743 C475 743 495 723 495 693 L495 438 C495 280.364 478.147 132.03 415.125 89.625 C381.5 67 342.5 54 303 54 C242 54 201 118 201 213 L201 481.5 C201 647.482 167.4 750 113 750 C58.6 750 25 748.664 25 746.5 C25 744.336 29.9636 743 38 743 L51 743 C81 743 101 723 101 693 L101 213 C101 79 165 -10 262 -10 C311 -10 359 4.75 399.875 30.625 C474.803 78.0564 495 111.655 495 69 C495 26.3455 504.545 0 520 0 L545 0 C549 1 595 11 595 13 C608 16.5 621.25 20 634.125 23.375 C656.914 29.3489 671 34.3364 671 36.5 C671 38.6636 666.036 38.6636 658 36.5 L658 36.5 Z " />
<glyph glyph-name="utilde" unicode="&#x169;" horiz-adv-x="492" d="M130.75 663.5 C137 674 146 680 157 680 C200 680 258 615 301 615 C320 615 335.375 627 346 648 C370.713 696.845 366.76 714.294 350.75 691.5 C343.375 681 333 675 321 675 C278 675 220 740 176 740 C158.5 740 144.375 728 134.625 707 C111.637 657.488 116.654 639.82 130.75 663.5 L130.75 663.5 Z M469 33.5 L461 31 C431 23 411 38 411 68 L411 284 C411 417.527 384.082 500 340.5 500 C296.918 500 270 498.664 270 496.5 C270 494.336 277.827 493 290.5 493 L311 493 C320 493 326 487 326 478 L326 303.5 C326 195.627 317.815 99.0623 283.5 70.125 C266.75 56 248 48 229 48 C186 48 157 90 157 154 L157 326.5 C157 433.136 130.082 499 86.5 499 C42.9182 499 16 497.664 16 495.5 C16 493.336 23.8273 492 36.5 492 L57 492 C66 492 72 486 72 477 L72 154 C72 55 119 -11 189 -11 C214.5 -11 240.75 2.25 264.875 25.625 C316.396 75.5439 328 99.3273 328 61 C328 22.6727 336.018 -1.09545 349 -1.25 C361.982 -1.40455 390.801 4.16025 424.5 13.25 C458.199 22.3398 478.618 29.5273 478 32 C477.382 34.4727 473.945 35.0455 469 33.5 L469 33.5 Z " />
<glyph glyph-name="Umacron" unicode="&#x16a;" horiz-adv-x="701" d="M348 895 C425.273 895 473 906.264 473 924.5 C473 942.736 425.273 954 348 954 C270.727 954 223 942.736 223 924.5 C223 906.264 270.727 895 348 895 L348 895 Z M658 36.5 L645 33 C615 25 595 40 595 70 L595 410 C595 620.182 561.4 750 507 750 C452.6 750 419 748.664 419 746.5 C419 744.336 423.964 743 432 743 L445 743 C475 743 495 723 495 693 L495 438 C495 280.364 478.147 132.03 415.125 89.625 C381.5 67 342.5 54 303 54 C242 54 201 118 201 213 L201 481.5 C201 647.482 167.4 750 113 750 C58.6 750 25 748.664 25 746.5 C25 744.336 29.9636 743 38 743 L51 743 C81 743 101 723 101 693 L101 213 C101 79 165 -10 262 -10 C311 -10 359 4.75 399.875 30.625 C474.803 78.0564 495 111.655 495 69 C495 26.3455 504.545 0 520 0 L545 0 C549 1 595 11 595 13 C608 16.5 621.25 20 634.125 23.375 C656.914 29.3489 671 34.3364 671 36.5 C671 38.6636 666.036 38.6636 658 36.5 L658 36.5 Z " />
<glyph glyph-name="umacron" unicode="&#x16b;" horiz-adv-x="492" d="M241 645 C318.273 645 366 656.264 366 674.5 C366 692.736 318.273 704 241 704 C163.727 704 116 692.736 116 674.5 C116 656.264 163.727 645 241 645 L241 645 Z M469 33.5 L461 31 C431 23 411 38 411 68 L411 284 C411 417.527 384.082 500 340.5 500 C296.918 500 270 498.664 270 496.5 C270 494.336 277.827 493 290.5 493 L311 493 C320 493 326 487 326 478 L326 303.5 C326 195.627 317.815 99.0623 283.5 70.125 C266.75 56 248 48 229 48 C186 48 157 90 157 154 L157 326.5 C157 433.136 130.082 499 86.5 499 C42.9182 499 16 497.664 16 495.5 C16 493.336 23.8273 492 36.5 492 L57 492 C66 492 72 486 72 477 L72 154 C72 55 119 -11 189 -11 C214.5 -11 240.75 2.25 264.875 25.625 C316.396 75.5439 328 99.3273 328 61 C328 22.6727 336.018 -1.09545 349 -1.25 C361.982 -1.40455 390.801 4.16025 424.5 13.25 C458.199 22.3398 478.618 29.5273 478 32 C477.382 34.4727 473.945 35.0455 469 33.5 L469 33.5 Z " />
<glyph glyph-name="Ubreve" unicode="&#x16c;" horiz-adv-x="701" d="M269 904.25 C289.25 882.5 316.5 870 348 870 C379.5 870 407 882.25 427.375 903.625 C468.178 946.431 460.564 992.573 455 993.5 C449.436 994.427 445.192 966.795 416.5 947.875 C399.25 936.5 375.5 930 348 930 C320.5 930 297 936.75 279.875 948.5 C250.839 968.422 246.564 996.427 241 995.5 C235.436 994.573 228.107 948.172 269 904.25 L269 904.25 Z M658 36.5 L645 33 C615 25 595 40 595 70 L595 410 C595 620.182 561.4 750 507 750 C452.6 750 419 748.664 419 746.5 C419 744.336 423.964 743 432 743 L445 743 C475 743 495 723 495 693 L495 438 C495 280.364 478.147 132.03 415.125 89.625 C381.5 67 342.5 54 303 54 C242 54 201 118 201 213 L201 481.5 C201 647.482 167.4 750 113 750 C58.6 750 25 748.664 25 746.5 C25 744.336 29.9636 743 38 743 L51 743 C81 743 101 723 101 693 L101 213 C101 79 165 -10 262 -10 C311 -10 359 4.75 399.875 30.625 C474.803 78.0564 495 111.655 495 69 C495 26.3455 504.545 0 520 0 L545 0 C549 1 595 11 595 13 C608 16.5 621.25 20 634.125 23.375 C656.914 29.3489 671 34.3364 671 36.5 C671 38.6636 666.036 38.6636 658 36.5 L658 36.5 Z " />
<glyph glyph-name="ubreve" unicode="&#x16d;" horiz-adv-x="492" d="M162 654.25 C182.25 632.5 209.5 620 241 620 C272.5 620 300 632.25 320.375 653.625 C361.178 696.431 353.564 742.573 348 743.5 C342.436 744.427 338.192 716.795 309.5 697.875 C292.25 686.5 268.5 680 241 680 C213.5 680 190 686.75 172.875 698.5 C143.839 718.422 139.564 746.427 134 745.5 C128.436 744.573 121.107 698.172 162 654.25 L162 654.25 Z M469 33.5 L461 31 C431 23 411 38 411 68 L411 284 C411 417.527 384.082 500 340.5 500 C296.918 500 270 498.664 270 496.5 C270 494.336 277.827 493 290.5 493 L311 493 C320 493 326 487 326 478 L326 303.5 C326 195.627 317.815 99.0623 283.5 70.125 C266.75 56 248 48 229 48 C186 48 157 90 157 154 L157 326.5 C157 433.136 130.082 499 86.5 499 C42.9182 499 16 497.664 16 495.5 C16 493.336 23.8273 492 36.5 492 L57 492 C66 492 72 486 72 477 L72 154 C72 55 119 -11 189 -11 C214.5 -11 240.75 2.25 264.875 25.625 C316.396 75.5439 328 99.3273 328 61 C328 22.6727 336.018 -1.09545 349 -1.25 C361.982 -1.40455 390.801 4.16025 424.5 13.25 C458.199 22.3398 478.618 29.5273 478 32 C477.382 34.4727 473.945 35.0455 469 33.5 L469 33.5 Z " />
<glyph glyph-name="Uring" unicode="&#x16e;" horiz-adv-x="701" d="M276 905 C276 950 305 980 348 980 C392 980 421 950 421 905 C421 865 387 830 348 830 C309 830 276 865 276 905 L276 905 Z M251 905 C251 854 296 810 348 810 C401 810 446 854 446 905 C446 962 407 1000 348 1000 C290 1000 251 962 251 905 L251 905 Z M658 36.5 L645 33 C615 25 595 40 595 70 L595 410 C595 620.182 561.4 750 507 750 C452.6 750 419 748.664 419 746.5 C419 744.336 423.964 743 432 743 L445 743 C475 743 495 723 495 693 L495 438 C495 280.364 478.147 132.03 415.125 89.625 C381.5 67 342.5 54 303 54 C242 54 201 118 201 213 L201 481.5 C201 647.482 167.4 750 113 750 C58.6 750 25 748.664 25 746.5 C25 744.336 29.9636 743 38 743 L51 743 C81 743 101 723 101 693 L101 213 C101 79 165 -10 262 -10 C311 -10 359 4.75 399.875 30.625 C474.803 78.0564 495 111.655 495 69 C495 26.3455 504.545 0 520 0 L545 0 C549 1 595 11 595 13 C608 16.5 621.25 20 634.125 23.375 C656.914 29.3489 671 34.3364 671 36.5 C671 38.6636 666.036 38.6636 658 36.5 L658 36.5 Z " />
<glyph glyph-name="uring" unicode="&#x16f;" horiz-adv-x="492" d="M169 655 C169 700 198 730 241 730 C285 730 314 700 314 655 C314 615 280 580 241 580 C202 580 169 615 169 655 L169 655 Z M144 655 C144 604 189 560 241 560 C294 560 339 604 339 655 C339 712 300 750 241 750 C183 750 144 712 144 655 L144 655 Z M469 33.5 L461 31 C431 23 411 38 411 68 L411 284 C411 417.527 384.082 500 340.5 500 C296.918 500 270 498.664 270 496.5 C270 494.336 277.827 493 290.5 493 L311 493 C320 493 326 487 326 478 L326 303.5 C326 195.627 317.815 99.0623 283.5 70.125 C266.75 56 248 48 229 48 C186 48 157 90 157 154 L157 326.5 C157 433.136 130.082 499 86.5 499 C42.9182 499 16 497.664 16 495.5 C16 493.336 23.8273 492 36.5 492 L57 492 C66 492 72 486 72 477 L72 154 C72 55 119 -11 189 -11 C214.5 -11 240.75 2.25 264.875 25.625 C316.396 75.5439 328 99.3273 328 61 C328 22.6727 336.018 -1.09545 349 -1.25 C361.982 -1.40455 390.801 4.16025 424.5 13.25 C458.199 22.3398 478.618 29.5273 478 32 C477.382 34.4727 473.945 35.0455 469 33.5 L469 33.5 Z " />
<glyph glyph-name="Wcircumflex" unicode="&#x174;" horiz-adv-x="1025" d="M138 750 C53.3091 750 1 748.282 1 745.5 C1 742.718 2.90909 741 6 741 L11 741 C28 741 45 733 59.875 719 C90.6345 690.05 142.391 532.709 217.5 325 C292.609 117.291 343.773 -11 351.5 -11 C359.227 -11 395.309 77.5818 446 221 C496.691 364.418 560.023 364.4 612 221 C663.977 77.5998 700.773 -11 708.5 -11 C716.227 -11 756.891 119.2 815 330 C873.109 540.8 915.139 698.104 946 721.25 C962 733.25 981 740 1001 740 L1007.5 740 C1011.52 740 1014 741.718 1014 744.5 C1014 747.282 964.555 749 884.5 749 C804.445 749 755 747.282 755 744.5 C755 741.718 765.309 740 782 740 L809 740 C857 740 880 708 868 660 L801 398.5 C759.582 236.845 700.4 238.564 646 403 C591.6 567.436 545.739 695.392 565.875 720.625 C575.75 733 592.5 740 615 740 L634 740 C645.745 740 653 741.718 653 744.5 C653 747.282 595.918 749 503.5 749 C411.082 749 354 747.282 354 744.5 C354 741.718 356.1 740 359.5 740 L365 740 C401 740 437 708 454 660 C463.5 633 473.25 606 483 579.125 C500.965 529.607 487.564 426.455 448 309 C408.436 191.545 349.968 222.313 294.625 389.5 C239.327 556.55 188.717 688.058 208.5 718 C217.75 732 235 740 259 740 L268 740 C273.564 740 276.618 741.909 276 745 C275.382 748.091 222.691 750 138 750 L138 750 Z M515.5 1022.38 C510 1028.75 504 1034 499 1034 C494 1034 488 1028.75 482.5 1022.38 C473.293 1011.7 445.709 967.918 408 909.5 C370.291 851.082 349.1 813.091 352.5 810 C355.9 806.909 384.727 831.536 428 874.5 C471.273 917.464 524.918 917.464 568.5 874.5 C612.082 831.536 641.1 806.909 644.5 810 C647.9 813.091 626.9 851.082 589.5 909.5 C552.1 967.918 524.707 1011.7 515.5 1022.38 L515.5 1022.38 Z " />
<glyph glyph-name="Ycircumflex" unicode="&#x176;" horiz-adv-x="675" d="M135.5 750 C51.7364 750 0 748.664 0 746.5 C0 744.336 21.3094 746.193 48.75 732 C77.2179 717.275 126.9 625.6 191.5 510 C256.1 394.4 296 276.227 296 200.5 L296 78 C296 36 268 8 226 8 L213 8 C204.964 8 200 6.66364 200 4.5 C200 2.33636 255.745 1 346 1 C436.255 1 492 2.33636 492 4.5 C492 6.66364 487.036 8 479 8 L466 8 C424 8 396 36 396 78 L396 208 C396 288.364 428.645 406.155 481.5 516.5 L567 695 C584 725 614 744 645 744 L661 744 C670.891 744 677 745.336 677 747.5 C677 749.664 636.909 751 572 751 C507.091 751 467 749.664 467 747.5 C467 745.336 478.073 744 496 744 L525 744 C558 744 569 722 554 689 L474 517 C424.545 410.673 358.777 410.673 301.75 517 C244.723 623.327 192.552 706.261 203.125 728.875 C207.625 738.5 218.5 744 235 744 L253.5 744 C264.936 744 271.809 745.145 271.5 747 C271.191 748.855 219.264 750 135.5 750 L135.5 750 Z M363.5 1024.38 C358 1030.75 352 1036 347 1036 C342 1036 336 1030.75 330.5 1024.38 C321.293 1013.7 293.709 969.918 256 911.5 C218.291 853.082 197.291 815.091 201 812 C204.709 808.909 233.727 833.536 277 876.5 C320.273 919.464 373.727 919.464 417 876.5 C460.273 833.536 489.291 808.909 493 812 C496.709 815.091 475.709 853.082 438 911.5 C400.291 969.918 372.707 1013.7 363.5 1024.38 L363.5 1024.38 Z " />
<glyph glyph-name="Ydieresis" unicode="&#x178;" horiz-adv-x="675" d="M419 865 C452 865 474 887 474 920 C474 953 452 975 419 975 C386 975 364 953 364 920 C364 887 386 865 419 865 L419 865 Z M273 865 C306 865 328 887 328 920 C328 953 306 975 273 975 C240 975 218 953 218 920 C218 887 240 865 273 865 L273 865 Z M135.5 750 C51.7364 750 0 748.664 0 746.5 C0 744.336 21.3094 746.193 48.75 732 C77.2179 717.275 126.9 625.6 191.5 510 C256.1 394.4 296 276.227 296 200.5 L296 78 C296 36 268 8 226 8 L213 8 C204.964 8 200 6.66364 200 4.5 C200 2.33636 255.745 1 346 1 C436.255 1 492 2.33636 492 4.5 C492 6.66364 487.036 8 479 8 L466 8 C424 8 396 36 396 78 L396 208 C396 288.364 428.645 406.155 481.5 516.5 L567 695 C584 725 614 744 645 744 L661 744 C670.891 744 677 745.336 677 747.5 C677 749.664 636.909 751 572 751 C507.091 751 467 749.664 467 747.5 C467 745.336 478.073 744 496 744 L525 744 C558 744 569 722 554 689 L474 517 C424.545 410.673 358.777 410.673 301.75 517 C244.723 623.327 192.552 706.261 203.125 728.875 C207.625 738.5 218.5 744 235 744 L253.5 744 C264.936 744 271.809 745.145 271.5 747 C271.191 748.855 219.264 750 135.5 750 L135.5 750 Z " />
<glyph glyph-name="Zacute" unicode="&#x179;" horiz-adv-x="615" d="M402 872 C445.891 909.091 491.752 946.933 519.25 974.125 C530.5 985.25 537 993 537 996 C537 1019 518 1038 495 1038 C492 1038 484.5 1031.25 473.875 1019.5 C447.842 990.711 412.427 942.745 377.5 897 C342.573 851.255 322.909 820.9 326 817.5 C329.091 814.1 358.109 834.909 402 872 L402 872 Z M72 615 L74 624 C90 683 142 723 205 724 L337.5 726 C419.409 727.236 385.045 592.836 247.5 374 C109.955 155.164 25 16.1818 25 10 C25 3.81818 129.618 0 299 0 C468.382 0 573.573 2.86364 574.5 7.5 L576 15 C576.5 15 579.5 27.75 584.625 50.5 C597.92 109.518 603.709 146 600 146 C596.291 146 592.664 142.564 590.5 137 L587 128 C565 73 514 34 456 28 L299 25 C201.945 23.1455 225.045 157.164 359.5 376 C493.955 594.836 577 733.818 577 740 C577 746.182 480.209 750 323.5 750 C166.791 750 69.5227 744.655 68.75 736 L67.5 722 C66.5 712 65.375 696.5 63.875 676.75 C60.5514 632.989 60.2909 606 64 606 C67.7091 606 70.7636 609.436 72 615 L72 615 Z " />
<glyph glyph-name="Zdot" unicode="&#x17b;" horiz-adv-x="615" d="M324 865 C357 865 379 887 379 920 C379 953 357 975 324 975 C291 975 269 953 269 920 C269 887 291 865 324 865 L324 865 Z M72 615 L74 624 C90 683 142 723 205 724 L337.5 726 C419.409 727.236 385.045 592.836 247.5 374 C109.955 155.164 25 16.1818 25 10 C25 3.81818 129.618 0 299 0 C468.382 0 573.573 2.86364 574.5 7.5 L576 15 C576.5 15 579.5 27.75 584.625 50.5 C597.92 109.518 603.709 146 600 146 C596.291 146 592.664 142.564 590.5 137 L587 128 C565 73 514 34 456 28 L299 25 C201.945 23.1455 225.045 157.164 359.5 376 C493.955 594.836 577 733.818 577 740 C577 746.182 480.209 750 323.5 750 C166.791 750 69.5227 744.655 68.75 736 L67.5 722 C66.5 712 65.375 696.5 63.875 676.75 C60.5514 632.989 60.2909 606 64 606 C67.7091 606 70.7636 609.436 72 615 L72 615 Z " />
<glyph glyph-name="zdot" unicode="&#x17c;" horiz-adv-x="442" d="M237 615 C270 615 292 637 292 670 C292 703 270 725 237 725 C204 725 182 703 182 670 C182 637 204 615 237 615 L237 615 Z M66 504 C62.952 492.243 62.9091 484.905 66 484.75 C69.0909 484.595 69.0909 484.405 66 484.25 C62.9091 484.095 58.1036 473.21 53.375 455.75 C40.8545 409.521 35.6727 381 40 381 C44.3273 381 48.5273 383.673 51 388 C53.4727 392.327 66.0118 422.686 101.625 447.5 C137.216 472.299 192.773 473.764 234.5 475 C276.227 476.236 251.982 389.755 171 248.5 C90.0182 107.245 40 16.1818 40 10 C40 3.81818 57.1818 0 85 0 L130 0 C173 -0.5 216.75 -0.25 260.25 -0.125 C339.842 0.103714 389.8 1.94986 391 6.75 C392.25 11.75 394 19 396 28 C399 39.5 402 53.5 404.625 69 C409.828 99.7219 408.327 119 404 119 C399.673 119 396.045 116.327 394.5 112 L392 105 C383.5 82.5 368.25 63.25 348.75 49.5 C312.204 23.7302 253.655 26.2364 211 25 C168.345 23.7636 191.445 110.245 271.5 251.5 C351.555 392.755 401 483.818 401 490 C401 496.182 345.064 500 254.5 500 L108 500 C97.5 500 90.75 502 86.625 505.875 C78.5036 513.504 79.0909 523 76 523 C72.9091 523 69.048 515.757 66 504 L66 504 Z " />
<glyph glyph-name="Zcaron" unicode="&#x17d;" horiz-adv-x="615" d="M393.5 974.5 C349.918 931.536 296.273 931.536 253 974.5 C209.727 1017.46 180.9 1042.09 177.5 1039 C174.1 1035.91 195.291 997.918 233 939.5 C270.709 881.082 298.293 837.297 307.5 826.625 C313 820.25 319 815 324 815 C329 815 335 820.25 340.5 826.625 C349.707 837.297 377.1 881.082 414.5 939.5 C451.9 997.918 472.9 1035.91 469.5 1039 C466.1 1042.09 437.082 1017.46 393.5 974.5 L393.5 974.5 Z M72 615 L74 624 C90 683 142 723 205 724 L337.5 726 C419.409 727.236 385.045 592.836 247.5 374 C109.955 155.164 25 16.1818 25 10 C25 3.81818 129.618 0 299 0 C468.382 0 573.573 2.86364 574.5 7.5 L576 15 C576.5 15 579.5 27.75 584.625 50.5 C597.92 109.518 603.709 146 600 146 C596.291 146 592.664 142.564 590.5 137 L587 128 C565 73 514 34 456 28 L299 25 C201.945 23.1455 225.045 157.164 359.5 376 C493.955 594.836 577 733.818 577 740 C577 746.182 480.209 750 323.5 750 C166.791 750 69.5227 744.655 68.75 736 L67.5 722 C66.5 712 65.375 696.5 63.875 676.75 C60.5514 632.989 60.2909 606 64 606 C67.7091 606 70.7636 609.436 72 615 L72 615 Z " />
<glyph glyph-name="zcaron" unicode="&#x17e;" horiz-adv-x="442" d="M306.5 724.5 C262.918 681.536 209.273 681.536 166 724.5 C122.727 767.464 93.9 792.091 90.5 789 C87.1 785.909 108.291 747.918 146 689.5 C183.709 631.082 211.293 587.297 220.5 576.625 C226 570.25 232 565 237 565 C242 565 248 570.25 253.5 576.625 C262.707 587.297 290.1 631.082 327.5 689.5 C364.9 747.918 385.9 785.909 382.5 789 C379.1 792.091 350.082 767.464 306.5 724.5 L306.5 724.5 Z M66 504 C62.952 492.243 62.9091 484.905 66 484.75 C69.0909 484.595 69.0909 484.405 66 484.25 C62.9091 484.095 58.1036 473.21 53.375 455.75 C40.8545 409.521 35.6727 381 40 381 C44.3273 381 48.5273 383.673 51 388 C53.4727 392.327 66.0118 422.686 101.625 447.5 C137.216 472.299 192.773 473.764 234.5 475 C276.227 476.236 251.982 389.755 171 248.5 C90.0182 107.245 40 16.1818 40 10 C40 3.81818 57.1818 0 85 0 L130 0 C173 -0.5 216.75 -0.25 260.25 -0.125 C339.842 0.103714 389.8 1.94986 391 6.75 C392.25 11.75 394 19 396 28 C399 39.5 402 53.5 404.625 69 C409.828 99.7219 408.327 119 404 119 C399.673 119 396.045 116.327 394.5 112 L392 105 C383.5 82.5 368.25 63.25 348.75 49.5 C312.204 23.7302 253.655 26.2364 211 25 C168.345 23.7636 191.445 110.245 271.5 251.5 C351.555 392.755 401 483.818 401 490 C401 496.182 345.064 500 254.5 500 L108 500 C97.5 500 90.75 502 86.625 505.875 C78.5036 513.504 79.0909 523 76 523 C72.9091 523 69.048 515.757 66 504 L66 504 Z " />
<glyph glyph-name="oogonek" unicode="&#x1eb;" horiz-adv-x="731" d="M835.125 -80.125 C790.875 -87.125 735 -91 674 -91 C601.5 -91 529 -82.75 464.375 -68.125 C359.766 -44.4515 311.413 -8.34785 326.75 -9.25 C335.25 -9.75 344 -10 353 -10 C550 -10 682 111 682 292 C682 473 554 593 363 593 C178 593 54 473 54 292 C54 230.5 68 176 93.5 130.875 C139.394 49.6612 282.885 -42.5026 437.75 -100.875 C519 -131.5 599 -149 666 -149 C709.5 -149 757.25 -139.125 803 -121.875 C886.261 -90.4816 893.777 -70.8468 835.125 -80.125 L835.125 -80.125 Z M285 6 C203 42 152 148 152 293 C152 471 236 589 363 589 C496 589 585 471 585 293 C585 113 491 -7 349 -7 C327 -7 304.5 -2.5 285.5 5.5 L285 6 Z " />
<glyph glyph-name="Adotabove" unicode="&#x226;" horiz-adv-x="714" d="M366 865 C399 865 421 887 421 920 C421 953 399 975 366 975 C333 975 311 953 311 920 C311 887 333 865 366 865 L366 865 Z M554 0 C651.055 0 711 1.71818 711 4.5 C711 7.28182 708.709 9 705 9 L699 9 C655 9 614 49 596 109 C563.5 219 531.25 329.25 498.875 439.5 C438.839 643.947 399.091 770 396 770 C392.909 770 391.717 751.228 373.375 739 C342.288 718.275 316.573 718.091 317.5 715 C318.427 711.909 288.081 595.312 238.5 409.5 C188.919 223.688 152.982 69.5199 111 36.5 C88.75 19 61 9 31 9 L18 9 C9.96364 9 5 7.28182 5 4.5 C5 1.71818 54.0636 0 133.5 0 C212.936 0 262 1.71818 262 4.5 C262 7.28182 257.418 9 250 9 L238 9 C208 9 185.75 19 173 36.5 C146.448 72.9436 174.355 144.318 189.5 201.5 C204.645 258.682 256.955 294 326.5 294 C396.045 294 449.691 256.964 467 197 L495 100 C507 45 478 9 421 9 L409.5 9 C402.391 9 397.809 7.28182 397.5 4.5 C397.191 1.71818 456.945 0 554 0 L554 0 Z M269 501 C301.764 625.873 344.145 625.873 380 501 C415.855 376.127 395.618 299 327 299 C258.382 299 236.236 376.127 269 501 L269 501 Z " />
<glyph glyph-name="G_sc" unicode="&#x262;" horiz-adv-x="701" d="M583 499.5 C583 560.391 581.091 598 578 598 C574.909 598 572.434 594.006 572 587.5 C571.566 580.994 571.613 555.505 551.75 549.5 C541 546.25 526.5 549 510 558 C501.5 563 491.875 567.125 481.875 571.125 C463.049 578.655 434.919 588.362 407.375 591.375 C391.375 593.125 374 594 355 594 C173 594 51 474 51 293 C51 112 175 -9 360 -9 C433 -9 493 0 547 16 L557 18.5 C563.182 20.0455 581.443 25.4093 603.5 35.625 C625.296 45.7198 626.132 46.2431 605 39.125 C581.804 31.3115 567 53.0091 567 93.5 L567 159 C567 210 596 244 640 244 L646.5 244 C650.518 244 653 245.718 653 248.5 C653 251.282 602.982 253 522 253 C441.018 253 391 251.282 391 248.5 C391 245.718 393.482 244 397.5 244 L404 244 C448 244 477 210 477 159 C478 159 478 96 478 90 C475 41 435 8 375 8 C240 8 150 122 150 292 C150 470 233 588 357 588 C397 588 430 579 459 563 C503 536 542 483 559 425 C560 421.5 561 417.25 562 413 C563.751 405.557 568.436 401 574 401 C579.564 401 583 438.609 583 499.5 L583 499.5 Z " />
<glyph glyph-name="I_sc" unicode="&#x26a;" horiz-adv-x="362" d="M289 7 L276 7 C246 7 226 27 226 57 L226 526 C226 556 246 576 276 576 L289 576 C297.036 576 302 577.336 302 579.5 C302 581.664 255.8 583 181 583 C106.2 583 60 581.664 60 579.5 C60 577.336 64.9636 576 73 576 L86 576 C116 576 136 556 136 526 L136 57 C136 27 116 7 86 7 L73 7 C64.9636 7 60 5.66364 60 3.5 C60 1.33636 106.2 0 181 0 C255.8 0 302 1.33636 302 3.5 C302 5.66364 297.036 7 289 7 L289 7 Z " />
<glyph glyph-name="N_sc" unicode="&#x274;" horiz-adv-x="658" d="M4 576 L17 576 C44 576 76 559 98 533 L114 512 C123.891 499.018 129.809 408.145 129.5 274 C129.191 139.855 132.197 37.6972 115.25 20.75 C106.5 12 94 7 79 7 L66 7 C57.9636 7 53 5.66364 53 3.5 C53 1.33636 87.1727 0 142.5 0 C197.827 0 232 1.33636 232 3.5 C232 5.66364 227.036 7 219 7 L206 7 C191 7 178.5 12 169.75 20.75 C152.803 37.6972 155.618 133.936 155 258.5 C154.382 383.064 219.938 372.381 326.5 230.375 C433.285 88.0726 502.436 0 508 0 C513.564 0 517.955 101.945 519.5 267 C521.045 432.055 521.522 551.126 538 565.25 C546.75 572.75 558.5 577 572 577 L585 577 C593.036 577 598 578.336 598 580.5 C598 582.664 563.827 584 508.5 584 C453.173 584 419 582.664 419 580.5 C419 578.336 423.964 577 432 577 L445 577 C460 577 472.5 572 481.25 563.25 C498.197 546.303 495.382 448.918 496 322.5 C496.618 196.082 435.16 206.841 335.5 351 C235.84 495.159 139.064 584 82.5 584 C25.9364 584 -9 582.473 -9 580 C-9 577.527 -4.03636 576 4 576 L4 576 Z " />
<glyph glyph-name="R_sc" unicode="&#x280;" horiz-adv-x="593" d="M76 576 L89 576 C119 576 139 556 139 526 L139 57 C139 27 119 7 89 7 L76 7 C67.9636 7 63 5.66364 63 3.5 C63 1.33636 109.2 0 184 0 C258.8 0 305 1.33636 305 3.5 C305 5.66364 300.036 7 292 7 L279 7 C249 7 229 27 229 57 L229 165 C229 231.764 234.536 273 243.5 273 C252.464 273 274.95 240.488 305.625 189.75 C328.75 151.5 358.5 104 393 51 C409 26 419 13 443.875 6.25 C527.586 -16.4656 584 0.336364 584 2.5 C584 4.66364 560.124 -3.07089 530.875 12.375 C519.75 18.25 512 29.5 498 51 C463 105.5 432.25 153.5 407.375 192.5 C372.952 246.47 403.953 278.716 454.625 326.5 C478.75 349.25 492 379.5 492 418 C492 517 401 583 264 583 L164.5 583 C102.991 583 64.6182 581.664 64 579.5 C63.3818 577.336 67.9636 576 76 576 L76 576 Z M231 430.5 C231 513.645 288.972 577.217 348.375 530.375 C376.75 508 393 475.5 393 435 C393 339 341 296 264 296 L247.5 296 C237.3 296 231 347.355 231 430.5 L231 430.5 Z " />
</font>
</svg>
