<?xml version="1.0" encoding="UTF-8"?>
<svg xmlns="http://www.w3.org/2000/svg" xmlns:xlink="http://www.w3.org/1999/xlink" version="1.2" >
<font id="Hughe Bold">
<font-face  font-family="Hughe" units-per-em="1024" ascent="936" descent="-280" font-style="normal" font-weight="700" font-stretch="normal" cap-height="934" x-height="468" underline-position="-125" underline-thickness="50" />
<missing-glyph  horiz-adv-x="100" d="" />
<glyph glyph-name="NULL" d="" />
<glyph glyph-name="CR" unicode="&#xd;" horiz-adv-x="256" d="" />
<glyph glyph-name="space" unicode="&#x20;" horiz-adv-x="240" d="" />
<glyph glyph-name="exclam" unicode="&#x21;" horiz-adv-x="265" d="M143 -5 C187 -5 223 31 223 75 C223 119 187 155 143 155 C99 155 63 119 63 75 C63 31 99 -5 143 -5 L143 -5 Z M205 583 C212 629 181 665 135 665 C87 665 56 629 65 583 C65 485 135 230 135 230 L151 230 C151 230 205 485 205 583 L205 583 Z " />
<glyph glyph-name="quotedbl" unicode="&#x22;" horiz-adv-x="403" d="M216 660 L280 400 L299 400 L363 660 L216 660 L216 660 Z M39 660 L103 400 L122 400 L186 660 L39 660 L39 660 Z " />
<glyph glyph-name="numbersign" unicode="&#x23;" horiz-adv-x="514" d="M365 656 L342 504 L234 504 L257 656 L212 656 L189 504 L71 504 L59 416 L175 416 L149 244 L28 244 L16 156 L136 156 L112 0 L157 0 L181 156 L289 156 L265 0 L309 0 L333 156 L433 156 L446 244 L346 244 L372 416 L481 416 L494 504 L386 504 L409 656 L365 656 L365 656 Z M220 416 L328 416 L302 244 L194 244 L220 416 L220 416 Z " />
<glyph glyph-name="dollar" unicode="&#x24;" horiz-adv-x="476" d="M39 211 L39 40 C72 21 128 5 179 -1 L179 -74 L217 -74 L217 -4 C232 -4 246 -3 260 -1 L260 -74 L298 -74 L298 9 C377 37 432 107 432 190 C432 257 374 335 298 372 L298 613 C323 594 344 565 350 537 C356 513 364 476 370 452 L387 452 L387 623 C361 638 328 651 297 659 L297 738 L259 738 L259 667 C245 669 231 668 217 666 L217 738 L179 738 L179 658 C98 631 39 555 39 464 C39 397 101 318 179 286 L179 38 C128 58 81 114 66 177 C64 187 59 204 57 214 L39 211 L39 211 Z M218 411 L218 635 C234 638 243 638 259 633 L259 389 C244 396 230 404 217 412 L218 411 L218 411 Z M179 439 C147 465 127 493 127 515 C127 559 148 597 179 618 L179 439 L179 439 Z M217 268 C232 260 246 252 259 243 L259 34 C246 30 232 28 217 29 L217 268 L217 268 Z M297 213 C324 188 340 161 340 138 C340 104 323 74 297 54 L297 213 L297 213 Z " />
<glyph glyph-name="percent" unicode="&#x25;" horiz-adv-x="769" d="M143 552 C143 629 151 691 161 691 C190 691 214 609 214 506 C214 438 202 383 187 383 C163 383 143 458 143 552 L143 552 Z M31 530 C31 427 96 345 177 345 C257 345 322 434 322 545 C322 645 257 725 177 725 C96 725 31 638 31 530 L31 530 Z M555 200 C555 278 567 341 582 341 C619 341 649 258 649 154 C649 86 631 32 608 32 C579 32 555 107 555 200 L555 200 Z M442 178 C442 76 511 -5 598 -5 C686 -5 757 84 757 194 C757 294 686 375 598 375 C511 375 442 287 442 178 L442 178 Z M203 -16 L649 704 L598 736 L151 16 L203 -16 L203 -16 Z " />
<glyph glyph-name="ampersand" unicode="&#x26;" horiz-adv-x="711" d="M620 300 L430 300 L430 287 L447 287 C483 288 512 259 512 223 L512 193 C512 178 509 163 503 149 C446 209 369 300 321 375 C393 403 447 473 447 546 C447 611 382 664 300 664 C220 664 155 589 155 496 C155 465 177 409 213 346 C118 298 49 219 49 150 C49 63 136 -7 245 -7 C330 -7 406 17 459 56 C552 -10 633 -16 709 -3 L709 16 C671 9 619 27 521 126 C531 146 536 167 536 189 L536 219 C536 255 565 284 601 283 L618 283 L620 300 L620 300 Z M241 544 C241 595 263 636 291 636 C327 636 355 592 355 536 C355 476 334 421 304 394 C265 458 240 514 240 543 L241 544 L241 544 Z M432 72 C398 53 355 41 308 41 C224 41 157 108 157 191 C157 237 185 285 226 318 C277 234 360 130 433 72 L432 72 L432 72 Z " />
<glyph glyph-name="quotesingle" unicode="&#x27;" horiz-adv-x="226" d="M39 660 L103 400 L122 400 L186 660 L39 660 L39 660 Z " />
<glyph glyph-name="parenleft" unicode="&#x28;" horiz-adv-x="266" d="M244 690 C141 615 59 476 59 270 C59 64 141 -75 244 -150 L256 -135 C197 -92 149 34 149 270 C149 506 197 632 256 675 L244 690 L244 690 Z " />
<glyph glyph-name="parenright" unicode="&#x29;" horiz-adv-x="266" d="M10 -150 C113 -75 195 64 195 270 C195 476 113 615 10 690 L-2 675 C57 632 105 506 105 270 C105 34 57 -92 -2 -135 L10 -150 L10 -150 Z " />
<glyph glyph-name="asterisk" unicode="&#x2a;" horiz-adv-x="300" d="M271 570 C290 575 297 596 284 618 C272 639 250 644 236 630 L156 550 L185 660 C190 679 175 695 150 695 C125 695 110 679 115 660 L144 551 L64 630 C50 644 28 639 16 618 C3 596 10 575 29 570 L138 540 L29 510 C10 505 3 484 16 463 C28 441 50 436 64 450 L144 529 L115 420 C110 401 125 385 150 385 C175 385 190 401 185 420 L156 530 L236 450 C250 436 272 441 284 463 C297 484 290 505 271 510 L163 540 L271 570 L271 570 Z " />
<glyph glyph-name="plus" unicode="&#x2b;" horiz-adv-x="518" d="M228 432 L228 276 L75 276 L75 224 L228 224 L228 69 L285 69 L285 224 L438 224 L438 276 L285 276 L285 432 L228 432 L228 432 Z " />
<glyph glyph-name="comma" unicode="&#x2c;" horiz-adv-x="283" d="M139 154 C95 154 60 118 60 74 C60 30 95 -5 139 -5 C146 -5 154 3 163 14 C180 -58 134 -138 87 -156 L87 -174 C167 -144 232 -48 232 41 C232 92 194 154 138 154 L139 154 L139 154 Z " />
<glyph glyph-name="hyphen" unicode="&#x2d;" horiz-adv-x="231" d="M20 190 L211 190 L211 280 L20 280 L20 190 L20 190 Z " />
<glyph glyph-name="period" unicode="&#x2e;" horiz-adv-x="265" d="M125 -5 C169 -5 205 31 205 75 C205 119 169 155 125 155 C81 155 45 119 45 75 C45 31 81 -5 125 -5 L125 -5 Z " />
<glyph glyph-name="slash" unicode="&#x2f;" horiz-adv-x="361" d="M0 -145 L51 -145 L361 710 L310 710 L0 -145 L0 -145 Z " />
<glyph glyph-name="zero" unicode="0" horiz-adv-x="579" d="M178 250 C178 377 228 479 290 479 C352 479 402 377 402 250 C402 123 352 21 290 21 C228 21 178 123 178 250 L178 250 Z M50 250 C50 108 157 -5 290 -5 C423 -5 529 108 529 250 C529 392 423 505 290 505 C157 505 50 392 50 250 L50 250 Z " />
<glyph glyph-name="one" unicode="1" horiz-adv-x="388" d="M334 13 L317 13 C281 12 252 41 252 77 L252 423 C252 459 281 488 317 487 L334 487 L334 500 L55 500 L55 487 L72 487 C108 488 137 459 137 423 L137 77 C137 41 108 12 72 13 L55 13 L55 0 L334 0 L334 13 L334 13 Z " />
<glyph glyph-name="two" unicode="2" horiz-adv-x="450" d="M412 197 L411 180 C409 144 377 115 341 115 L192 115 C318 204 404 277 404 356 C404 439 337 506 253 506 C183 506 101 441 68 360 L83 351 C99 390 149 421 196 421 C240 421 275 375 275 317 C275 176 163 124 24 27 L24 1 L407 1 L412 58 C412 60 412 62 412 64 L417 117 C420 146 423 176 425 199 L412 197 L412 197 Z " />
<glyph glyph-name="three" unicode="3" horiz-adv-x="433" d="M111 164 C195 164 262 107 262 35 C262 -86 155 -190 22 -198 L23 -215 C223 -203 383 -89 383 41 C383 124 304 192 198 207 C291 257 354 321 354 373 C354 446 293 505 217 505 C144 505 51 444 8 368 L23 360 C42 393 102 420 158 420 C202 420 238 383 238 336 C238 283 182 222 106 187 C94 182 80 177 65 171 L65 152 C77 156 99 164 111 164 L111 164 Z " />
<glyph glyph-name="four" unicode="4" horiz-adv-x="435" d="M7 18 L7 0 L221 0 L221 -150 L336 -150 L336 0 L425 0 L425 51 L336 51 L336 505 L317 505 C312 499 7 18 7 18 L7 18 Z M64 51 C101 111 165 213 221 301 C221 298 221 295 221 292 L221 51 L64 51 L64 51 Z " />
<glyph glyph-name="five" unicode="5" horiz-adv-x="419" d="M64 173 L93 173 C93 173 94 180 95 192 C94 180 93 172 92 172 C181 172 253 116 253 46 C253 -64 153 -157 29 -163 L30 -183 C218 -175 368 -56 368 84 C368 196 271 285 150 285 L102 285 C104 314 106 346 108 377 L315 377 L353 494 C363 524 374 556 382 580 L369 580 L363 563 C352 527 314 498 278 498 L79 498 C79 407 63 171 63 171 L64 173 L64 173 Z " />
<glyph glyph-name="six" unicode="6" horiz-adv-x="532" d="M452 715 C231 707 53 519 53 293 C53 128 146 -5 261 -5 C390 -5 488 94 482 217 C482 336 401 432 300 432 C245 432 208 398 186 345 C191 536 307 691 452 696 L452 715 L452 715 Z M281 400 C325 400 361 315 361 210 C366 108 328 27 274 27 C225 27 185 96 185 183 C186 303 214 400 281 400 L281 400 Z " />
<glyph glyph-name="seven" unicode="7" horiz-adv-x="406" d="M26 300 L27 317 C29 353 61 382 97 382 L348 382 L96 -140 L224 -140 C281 70 339 279 396 489 L388 500 L30 500 L20 382 C17 353 14 323 12 301 L26 300 L26 300 Z " />
<glyph glyph-name="eight" unicode="8" horiz-adv-x="503" d="M325 501 C325 449 316 402 303 375 C291 381 279 386 267 391 C215 410 173 474 173 535 C173 594 204 641 242 641 C288 641 324 579 324 502 L419 521 C419 601 343 666 249 666 C154 666 77 588 77 490 C77 431 108 369 154 326 C92 297 49 234 49 161 C49 69 139 -4 251 -4 C363 -4 453 78 453 181 C453 244 401 315 328 361 C382 391 420 454 420 521 L325 501 L325 501 Z M157 180 C157 229 168 272 185 301 C198 292 212 285 226 280 C291 256 344 195 344 142 C344 75 305 21 257 21 C202 21 157 92 157 180 L157 180 Z " />
<glyph glyph-name="nine" unicode="9" horiz-adv-x="532" d="M80 -215 C301 -207 479 -19 479 207 C479 372 386 505 271 505 C142 505 44 406 50 283 C50 164 131 68 232 68 C287 68 324 102 346 155 C341 -36 225 -191 80 -196 L80 -215 L80 -215 Z M251 100 C207 100 171 185 171 290 C166 392 204 473 258 473 C307 473 347 404 347 317 C346 197 318 100 251 100 L251 100 Z " />
<glyph glyph-name="colon" unicode="&#x3a;" horiz-adv-x="265" d="M125 408 C169 408 205 444 205 488 C205 532 169 568 125 568 C81 568 45 532 45 488 C45 444 81 408 125 408 L125 408 Z M125 -5 C169 -5 205 31 205 75 C205 119 169 155 125 155 C81 155 45 119 45 75 C45 31 81 -5 125 -5 L125 -5 Z " />
<glyph glyph-name="semicolon" unicode="&#x3b;" horiz-adv-x="283" d="M139 411 C183 411 218 446 218 490 C218 534 183 570 139 570 C95 570 60 534 60 490 C60 446 95 411 139 411 L139 411 Z M139 154 C95 154 60 118 60 74 C60 30 95 -5 139 -5 C146 -5 154 3 163 14 C180 -58 134 -138 87 -156 L87 -174 C167 -144 232 -48 232 41 C232 92 194 154 138 154 L139 154 L139 154 Z " />
<glyph glyph-name="less" unicode="&#x3c;" horiz-adv-x="503" d="M428 500 L50 309 C47 309 43 304 40 304 L40 247 C170 182 299 116 428 50 L428 108 L86 276 L428 444 L428 500 L428 500 Z " />
<glyph glyph-name="equal" unicode="&#x3d;" horiz-adv-x="500" d="M88 226 L88 174 L430 174 L430 226 L88 226 L88 226 Z M88 326 L88 274 L430 274 L430 326 L88 326 L88 326 Z " />
<glyph glyph-name="greater" unicode="&#x3e;" horiz-adv-x="493" d="M453 249 L453 302 C449 302 444 309 440 309 L75 500 L75 443 L405 276 L75 109 L75 51 C201 117 328 182 453 249 L453 249 Z " />
<glyph glyph-name="question" unicode="&#x3f;" horiz-adv-x="335" d="M128 -5 C172 -5 208 31 208 75 C208 119 172 155 128 155 C84 155 48 119 48 75 C48 31 84 -5 128 -5 L128 -5 Z M147 290 L182 290 C274 290 300 374 300 416 C300 554 214 665 107 665 C68 665 36 633 36 592 C36 564 58 542 85 542 C101 542 128 575 144 575 C216 575 274 510 274 429 C274 412 245 377 143 377 L108 377 C99 377 93 369 95 360 L120 235 L136 235 L147 290 L147 290 Z " />
<glyph glyph-name="at" unicode="&#x40;" horiz-adv-x="1122" d="M983 0 C922 -130 745 -234 584 -234 C340 -234 145 -15 145 259 C145 533 330 752 561 752 C792 752 977 570 977 343 C977 158 902 10 809 10 C744 10 713 95 739 200 L809 480 L700 480 L683 412 C664 458 619 490 566 490 C401 490 269 356 269 188 C269 86 343 4 435 4 C510 4 584 46 626 106 C639 25 700 -31 789 -31 C944 -31 1068 135 1068 342 C1068 587 843 783 562 783 C282 783 57 549 57 258 C57 -33 292 -267 585 -267 C759 -267 954 -149 1023 -1 L983 0 L983 0 Z M670 355 L631 199 C613 126 552 67 494 67 C439 67 395 130 395 209 C395 347 470 457 564 457 C623 457 670 412 671 355 L670 355 L670 355 Z " />
<glyph glyph-name="A" unicode="A" horiz-adv-x="681" d="M361 0 L679 0 L679 13 L668 13 C636 13 599 38 582 71 L333 675 L301 675 L97 77 C85 41 46 12 10 13 L-6 13 L-6 0 L231 0 L231 13 L198 13 C154 12 130 48 144 92 L189 232 L381 232 L441 77 C455 41 437 12 401 13 L359 13 L361 0 L361 0 Z M368 264 L198 264 L275 501 L368 264 L368 264 Z " />
<glyph glyph-name="B" unicode="B" horiz-adv-x="642" d="M33 647 L50 647 C86 648 115 619 115 583 L115 77 C115 41 86 12 50 13 L33 13 L33 0 L353 0 C502 0 622 82 622 184 C622 268 532 338 410 356 C502 379 566 435 566 501 C566 589 461 659 331 659 L33 659 L33 647 L33 647 Z M243 363 L243 627 L331 627 C391 627 439 571 439 501 C439 424 383 363 314 363 L243 363 L243 363 Z M243 335 L309 335 C408 335 488 267 488 183 C488 99 423 31 341 31 L243 31 L243 335 L243 335 Z " />
<glyph glyph-name="C" unicode="C" horiz-adv-x="693" d="M633 446 L633 606 C577 638 474 665 400 665 C201 665 42 516 42 330 C42 144 201 -5 400 -5 C474 -5 578 21 634 53 L625 68 L625 68 L633 53 L633 214 L616 214 C614 204 609 187 607 177 C587 91 500 27 399 27 C278 27 181 162 181 330 C181 498 278 633 399 633 C421 633 446 630 472 625 C532 610 591 548 606 482 C608 472 613 455 615 445 L633 446 L633 446 Z " />
<glyph glyph-name="D" unicode="D" horiz-adv-x="736" d="M33 647 L50 647 C86 648 115 619 115 583 L115 77 C115 41 86 12 50 13 L33 13 L33 0 L357 0 C540 0 686 147 686 330 C686 513 527 660 328 660 L33 660 L33 647 L33 647 Z M243 32 L243 628 L328 628 C456 628 559 495 559 330 C559 165 469 32 357 32 L243 32 L243 32 Z " />
<glyph glyph-name="E" unicode="E" horiz-adv-x="638" d="M452 244 L452 450 L439 450 L437 438 C430 399 386 368 339 368 L250 368 L250 628 L378 628 C434 628 487 584 499 528 L508 486 L522 486 L522 660 L40 660 L40 647 L57 647 C93 648 122 619 122 583 L122 77 C122 41 93 12 57 13 L40 13 L40 0 L521 0 L524 16 C532 60 544 130 552 174 L538 174 L522 132 C500 77 439 32 383 32 L250 32 L250 336 L339 336 C387 336 430 301 437 258 L439 244 L452 244 L452 244 Z " />
<glyph glyph-name="F" unicode="F" horiz-adv-x="547" d="M40 647 L57 647 C93 648 122 619 122 583 L122 77 C122 41 93 12 57 13 L40 13 L40 0 L342 0 L342 13 L315 13 C279 12 250 41 250 77 L250 331 L329 331 C377 331 420 296 427 253 L429 239 L442 239 L442 445 L429 445 L427 433 C420 394 376 363 329 363 L250 363 L250 628 L408 628 C464 628 517 583 529 528 L538 486 L552 486 L552 660 L40 660 L40 647 L40 647 Z " />
<glyph glyph-name="G" unicode="G" horiz-adv-x="796" d="M614 446 L614 600 C614 602 614 604 614 607 C558 639 459 665 390 665 C197 665 42 516 42 330 C42 144 197 -5 390 -5 C461 -5 563 21 619 53 L619 233 C619 269 648 298 684 297 L701 297 L701 310 L422 310 L422 297 L439 297 C475 298 504 269 504 233 L504 43 C465 33 424 27 390 27 C275 27 182 162 182 330 C182 498 275 633 390 633 C392 633 443 630 443 628 C507 618 571 554 588 483 C590 473 595 456 597 446 L614 446 L614 446 Z " />
<glyph glyph-name="H" unicode="H" horiz-adv-x="762" d="M723 13 L706 13 C670 12 641 41 641 77 L641 583 C641 619 670 648 706 647 L723 647 L723 660 L432 660 L432 647 L449 647 C485 648 514 619 514 583 L514 363 L250 363 L250 583 C250 619 279 648 315 647 L332 647 L332 660 L40 660 L40 647 L57 647 C93 648 122 619 122 583 L122 77 C122 41 93 12 57 13 L40 13 L40 0 L332 0 L332 13 L315 13 C279 12 250 41 250 77 L250 331 L514 331 L514 77 C514 41 485 12 449 13 L432 13 L432 0 L723 0 L723 13 L723 13 Z " />
<glyph glyph-name="I" unicode="I" horiz-adv-x="371" d="M332 13 L315 13 C279 12 250 41 250 77 L250 583 C250 619 279 648 315 647 L332 647 L332 660 L40 660 L40 647 L57 647 C93 648 122 619 122 583 L122 77 C122 41 93 12 57 13 L40 13 L40 0 L332 0 L332 13 L332 13 Z " />
<glyph glyph-name="J" unicode="J" horiz-adv-x="431" d="M392 660 L100 660 L100 647 L117 647 C153 648 182 619 182 583 L182 200 C182 77 172 16 152 16 C132 16 112 37 108 64 C103 92 78 115 51 115 C18 115 -5 92 0 64 C7 23 60 -10 120 -10 C247 -10 310 96 310 308 L310 583 C310 619 339 648 375 647 L392 647 L392 660 L392 660 Z " />
<glyph glyph-name="K" unicode="K" horiz-adv-x="653" d="M590 660 L395 660 L395 647 L406 647 C438 648 445 623 424 591 L243 357 L243 583 C243 619 272 648 308 647 L325 647 L325 660 L33 660 L33 647 L50 647 C86 648 115 619 115 583 L115 77 C115 41 86 12 50 13 L33 13 L33 0 L325 0 L325 13 L308 13 C272 12 243 41 243 77 L243 314 L244 311 L258 329 C281 289 329 206 385 109 C429 33 500 -5 599 -5 L643 -5 L643 20 C592 20 538 80 463 210 C408 306 361 388 337 429 L463 589 C493 622 542 648 576 647 L591 647 L590 660 L590 660 Z " />
<glyph glyph-name="L" unicode="L" horiz-adv-x="638" d="M534 189 L512 122 C496 72 443 32 393 32 L250 32 L250 583 C250 619 279 648 315 647 L332 647 L332 660 L40 660 L40 647 L57 647 C93 648 122 619 122 583 L122 77 C122 41 93 12 57 13 L40 13 L40 0 L521 0 L524 16 C532 62 545 135 553 181 C547 184 534 189 534 189 L534 189 Z " />
<glyph glyph-name="M" unicode="M" horiz-adv-x="873" d="M832 660 L636 660 L447 153 L238 660 L58 660 L58 647 L75 647 C111 648 138 619 137 583 L118 73 C115 39 85 12 50 13 L34 13 L34 0 L270 0 L270 13 L233 13 C192 12 159 43 156 83 L172 498 C244 330 316 163 388 -5 L420 -5 L639 553 L652 74 C651 40 624 13 589 14 L572 14 L572 1 L862 1 L862 14 L845 14 C809 13 780 42 778 78 L778 78 L755 593 C758 625 784 649 818 648 L833 648 L832 660 L832 660 Z " />
<glyph glyph-name="N" unicode="N" horiz-adv-x="700" d="M37 647 L54 647 C90 648 119 619 119 583 L119 77 C119 41 90 12 54 13 L37 13 L37 0 L240 0 L240 13 L223 13 C187 12 158 41 158 77 L158 543 C281 355 404 167 528 -20 L578 -20 L578 583 C578 619 607 648 643 647 L660 647 L660 660 L458 660 L458 647 L475 647 C511 648 540 619 540 583 L540 189 L234 660 L37 660 L37 647 L37 647 Z " />
<glyph glyph-name="O" unicode="O" horiz-adv-x="722" d="M182 330 C182 481 250 633 357 633 C463 633 531 481 531 330 C531 179 463 27 357 27 C250 27 182 179 182 330 L182 330 Z M42 330 C42 163 165 -5 357 -5 C549 -5 672 163 672 330 C672 497 549 665 357 665 C165 665 42 497 42 330 L42 330 Z " />
<glyph glyph-name="P" unicode="P" horiz-adv-x="578" d="M325 13 L308 13 C272 12 243 41 243 77 L243 293 L308 293 C447 293 558 375 558 478 C558 579 454 660 325 660 L33 660 L33 647 L50 647 C86 648 115 619 115 583 L115 77 C115 41 86 12 50 13 L33 13 L33 0 L325 0 L325 13 L325 13 Z M243 325 L243 628 L325 628 C380 628 424 561 424 478 C424 393 372 325 308 325 L243 325 L243 325 Z " />
<glyph glyph-name="Q" unicode="Q" horiz-adv-x="722" d="M749 -28 L736 -20 C723 -41 659 -57 592 -57 C495 -57 418 -35 374 -5 C556 5 672 168 672 330 C672 497 549 665 357 665 C165 665 42 497 42 330 C42 173 151 15 324 -3 C405 -80 503 -139 577 -139 C633 -139 709 -89 747 -27 L749 -28 L749 -28 Z M180 331 C180 482 248 634 355 634 C461 634 529 482 529 331 C529 180 461 28 355 28 C248 28 180 180 180 331 L180 331 Z " />
<glyph glyph-name="R" unicode="R" horiz-adv-x="678" d="M33 647 L50 647 C86 648 115 619 115 583 L115 77 C115 41 86 12 50 13 L33 13 L33 0 L325 0 L325 13 L308 13 C272 12 243 41 243 77 L243 312 L286 312 C313 271 363 194 420 106 C481 12 505 0 635 0 L679 0 L679 25 C635 25 627 29 594 81 C517 200 452 296 428 331 C514 360 573 420 573 491 C573 585 466 661 332 661 L34 661 L33 647 L33 647 Z M314 345 L244 345 L244 629 L332 629 C391 629 439 568 439 491 C439 410 383 345 314 345 L314 345 Z " />
<glyph glyph-name="S" unicode="S" horiz-adv-x="476" d="M387 449 L387 620 C344 645 280 665 243 665 C130 665 39 574 39 461 C39 393 103 313 182 282 C270 247 340 183 340 136 C340 76 287 27 222 27 C221 27 209 27 209 28 C147 34 83 99 65 174 C63 184 58 201 56 211 L39 211 L39 40 C82 15 164 -5 222 -5 C338 -5 431 81 431 188 C431 260 363 345 278 378 C194 411 127 471 127 512 C127 580 176 634 238 634 C245 634 256 631 269 626 C306 611 342 571 351 533 C357 509 365 472 371 448 L387 449 L387 449 Z " />
<glyph glyph-name="T" unicode="T" horiz-adv-x="583" d="M146 0 L437 0 L437 13 L420 13 C384 12 355 41 355 77 L355 628 L449 628 C494 628 540 592 553 548 L575 471 L591 471 C586 519 580 596 575 644 L574 660 L9 660 L8 644 C3 596 -3 519 -8 471 L8 471 L30 548 C43 592 89 628 134 628 L228 628 L228 77 C228 41 199 12 163 13 L146 13 L146 0 L146 0 Z " />
<glyph glyph-name="U" unicode="U" horiz-adv-x="701" d="M659 660 L432 660 L432 647 L454 647 C494 648 526 618 529 579 L528 199 C528 111 472 41 360 41 C275 41 233 108 233 192 L233 584 C233 620 262 649 298 648 L315 648 L315 661 L23 661 L23 648 L40 648 C76 649 105 620 105 584 L105 217 C105 94 184 -4 341 -4 C492 -4 567 81 567 187 L567 574 C567 616 600 649 642 648 L659 648 L659 660 L659 660 Z " />
<glyph glyph-name="V" unicode="V" horiz-adv-x="724" d="M321 660 L12 660 L12 647 L22 647 C53 648 90 619 105 583 L106 583 L358 -15 L390 -15 L592 590 C606 623 642 648 676 647 L692 647 L692 660 L450 660 L450 647 L478 647 C531 648 558 605 542 552 L413 155 L241 590 C232 623 250 648 284 647 L321 647 L321 660 L321 660 Z " />
<glyph glyph-name="W" unicode="W" horiz-adv-x="1027" d="M991 660 L763 660 L763 647 L807 647 C843 647 864 619 854 583 L854 583 L692 -15 L724 -15 L894 591 C907 623 942 648 975 647 L991 647 L991 660 L991 660 Z M341 660 L41 660 L41 647 L51 647 C82 648 117 618 130 582 L342 -16 L374 -16 L573 669 L541 669 L395 168 L268 582 C258 617 277 647 313 646 L341 646 L341 660 L341 660 Z M692 -16 L745 181 L573 669 L513 461 L692 -16 L692 -16 Z " />
<glyph glyph-name="X" unicode="X" horiz-adv-x="683" d="M323 660 L16 660 L16 647 L25 647 C54 648 94 618 115 583 L275 311 L130 72 C107 38 63 12 29 13 L13 13 L13 0 L247 0 L247 13 L217 13 C175 12 159 44 179 85 L293 282 L418 71 C434 38 421 13 387 14 L352 14 L352 1 L658 1 L658 14 L649 14 C620 13 580 42 559 78 C501 177 441 277 384 376 L512 591 C535 624 578 649 612 648 L628 648 L628 661 L392 661 L392 648 L437 648 C473 648 486 620 466 584 L367 406 L259 590 C242 623 255 649 289 648 L324 648 L323 660 L323 660 Z " />
<glyph glyph-name="Y" unicode="Y" horiz-adv-x="697" d="M182 0 L474 0 L474 13 L457 13 C421 12 392 41 392 77 L392 337 L392 337 L546 583 C569 619 614 648 647 647 L658 647 L658 660 L439 660 L439 647 L464 647 C508 648 524 614 501 571 L372 361 L255 583 C237 618 249 648 285 647 L311 647 L311 660 L6 660 L6 647 L16 647 C44 648 83 618 104 583 L264 293 L264 77 C264 41 235 12 199 13 L182 13 L182 0 L182 0 Z " />
<glyph glyph-name="Z" unicode="Z" horiz-adv-x="557" d="M473 190 L451 123 C435 73 382 33 332 33 L191 33 L492 660 L81 660 L77 644 C66 604 49 541 38 501 L54 501 L78 548 C101 592 155 628 200 628 L331 628 L32 0 L460 0 L463 16 L463 16 C471 62 484 136 492 182 C486 185 473 190 473 190 L473 190 Z " />
<glyph glyph-name="bracketleft" unicode="&#x5b;" horiz-adv-x="269" d="M154 634 L259 634 L259 660 L65 660 L65 -120 L259 -120 L259 -94 L154 -94 L154 634 L154 634 Z " />
<glyph glyph-name="backslash" unicode="&#x5c;" horiz-adv-x="270" d="M230 -145 L270 -145 L-20 710 L-60 710 L230 -145 L230 -145 Z " />
<glyph glyph-name="bracketright" unicode="&#x5d;" horiz-adv-x="269" d="M109 634 L109 -94 L4 -94 L4 -120 L199 -120 L199 660 L4 660 L4 634 L109 634 L109 634 Z " />
<glyph glyph-name="asciicircum" unicode="&#x5e;" horiz-adv-x="293" d="M183 712 C179 721 165 744 147 744 C128 744 114 721 110 712 C110 712 19 526 32 541 L44 531 C90 585 124 621 147 643 C188 599 249 530 249 530 L261 540 C261 540 233 608 183 711 L183 712 L183 712 Z M110 675 C109 677 109 678 110 678 L110 675 L110 675 Z " />
<glyph glyph-name="underscore" unicode="&#x5f;" horiz-adv-x="371" d="M5 -50 L5 -114 L366 -114 L366 -50 L5 -50 L5 -50 Z " />
<glyph glyph-name="grave" unicode="&#x60;" horiz-adv-x="293" d="M63 701 C63 694 79 674 99 654 C128 617 218 530 218 530 L231 539 C231 539 187 662 158 699 C146 727 134 749 129 749 C111 749 63 714 63 701 L63 701 Z " />
<glyph glyph-name="a" unicode="a" horiz-adv-x="474" d="M452 64 C445 53 430 45 407 45 C378 45 367 75 367 112 L367 352 C367 437 310 505 240 505 C147 505 62 453 49 388 L164 388 C173 435 196 473 215 473 C232 473 246 431 246 378 L246 262 C230 259 213 256 199 253 C109 231 37 165 37 106 C37 45 82 -4 137 -4 C178 -4 222 13 257 40 C269 11 292 -8 329 -8 C400 -8 444 18 466 50 L452 64 L452 64 Z M247 230 L247 102 C247 95 247 88 248 82 C231 77 212 74 193 74 C170 74 151 103 151 139 C151 176 173 210 200 217 C218 221 234 225 248 229 L247 230 L247 230 Z " />
<glyph glyph-name="b" unicode="b" horiz-adv-x="535" d="M145 32 C181 32 225 -5 273 -5 C398 -5 498 108 498 249 C498 391 423 505 330 505 C268 505 206 484 192 458 L192 720 L169 720 L-5 667 L-5 656 L7 655 C61 654 77 639 77 588 L77 0 L90 0 C100 18 125 32 145 32 L145 32 Z M273 27 C228 27 192 94 192 177 L192 439 C197 447 218 454 241 454 C314 454 373 344 373 207 C373 107 329 27 273 27 L273 27 Z " />
<glyph glyph-name="c" unicode="c" horiz-adv-x="484" d="M434 79 L423 91 C406 77 368 65 338 65 C246 65 172 158 172 273 C172 384 214 473 266 473 C295 473 322 442 325 404 C328 373 354 348 383 348 C411 348 434 371 434 399 C429 458 360 505 279 505 C152 505 50 382 50 229 C50 99 135 -5 242 -5 C293 -5 378 32 434 79 L434 79 Z " />
<glyph glyph-name="d" unicode="d" horiz-adv-x="546" d="M239 656 L251 655 C305 654 321 639 321 588 L321 470 C297 491 268 505 242 505 C123 505 27 378 27 219 C27 95 103 -5 197 -5 C226 -5 278 24 321 62 L321 0 L344 0 L518 53 L518 64 L506 65 C452 66 436 81 436 132 L436 720 L413 720 L239 667 L239 656 L239 656 Z M321 80 C307 71 282 64 260 64 C197 64 147 152 147 262 C147 379 187 473 236 473 C266 473 300 450 321 422 L321 80 L321 80 Z " />
<glyph glyph-name="e" unicode="e" horiz-adv-x="490" d="M440 79 L429 91 C412 77 373 65 341 65 C247 65 172 158 172 273 C172 282 172 291 173 300 L440 300 C440 414 362 505 264 505 C145 505 50 382 50 229 C50 99 137 -5 245 -5 C298 -5 384 32 440 79 L440 79 Z M333 394 L333 396 C333 395 333 394 333 393 L333 394 L333 394 Z M333 387 C330 362 310 340 284 334 L175 320 C184 407 217 471 258 471 C300 471 338 430 333 395 C333 395 333 392 333 387 L333 387 Z " />
<glyph glyph-name="f" unicode="f" horiz-adv-x="434" d="M303 13 L286 13 C250 12 221 41 221 77 L221 455 L331 455 L331 500 L221 500 L221 533 C221 622 278 694 300 694 C321 694 340 672 342 645 C344 617 370 594 399 594 C427 594 450 617 450 645 C446 687 394 720 332 720 C210 720 112 648 112 558 C109 558 106 500 106 500 L52 500 L52 455 L106 455 L106 77 C106 41 77 12 41 13 L24 13 L24 0 L303 0 L303 13 L303 13 Z " />
<glyph glyph-name="g" unicode="g" horiz-adv-x="441" d="M441 500 C396 490 351 481 307 471 C280 492 246 505 209 505 C122 505 53 434 53 346 C53 284 88 230 139 204 C82 193 40 146 40 90 C40 45 75 7 125 -9 C62 -32 15 -84 15 -133 L92 -120 L15 -134 C15 -194 79 -243 159 -243 C304 -243 420 -147 420 -28 C420 40 345 94 251 94 C241 94 175 91 175 91 C143 91 117 110 117 134 C117 163 138 187 164 187 L209 187 C296 187 365 258 365 346 C365 376 357 404 343 428 L441 435 L441 500 L441 500 Z M210 212 C183 212 162 271 162 345 C162 419 183 478 210 478 C236 478 257 419 257 345 C257 271 236 212 210 212 L210 212 Z M154 -17 C163 -18 172 -19 182 -19 C182 -19 231 -16 220 -16 C286 -16 339 -48 339 -87 C339 -156 265 -212 173 -212 C129 -212 93 -172 93 -121 C93 -74 120 -29 154 -17 L154 -17 Z " />
<glyph glyph-name="h" unicode="h" horiz-adv-x="611" d="M572 13 L555 13 C519 12 490 41 490 77 L490 338 C490 431 458 505 393 505 C337 505 275 476 242 437 L242 720 L219 720 L45 667 L45 656 L57 655 C111 654 127 639 127 588 L127 77 C127 41 98 12 62 13 L45 13 L45 0 L573 0 L572 13 L572 13 Z M303 13 C269 14 242 42 242 77 L242 417 C256 424 280 428 305 428 C352 428 376 383 376 326 L376 77 C376 42 349 14 315 13 L303 13 L303 13 Z " />
<glyph glyph-name="i" unicode="i" horiz-adv-x="368" d="M178 570 C221 570 255 604 255 647 C255 689 221 723 178 723 C135 723 101 689 101 647 C101 604 135 570 178 570 L178 570 Z M324 13 L307 13 C271 12 242 41 242 77 L242 500 L219 500 L45 447 L45 436 L57 435 C111 434 127 419 127 368 L127 77 C127 41 98 12 62 13 L45 13 L45 0 L324 0 L324 13 L324 13 Z " />
<glyph glyph-name="j" unicode="j" horiz-adv-x="304" d="M176 570 C219 570 253 604 253 647 C253 689 219 723 176 723 C133 723 99 689 99 647 C99 604 133 570 176 570 L176 570 Z M43 436 L55 435 C109 434 125 419 125 368 L125 -1 C125 -130 97 -184 35 -223 L46 -239 C181 -154 241 -84 241 31 C240 33 240 470 240 470 L240 500 L217 500 L43 447 L43 436 L43 436 Z " />
<glyph glyph-name="k" unicode="k" horiz-adv-x="576" d="M609 13 L593 13 C559 12 514 38 491 71 L322 343 L397 423 C431 459 487 488 523 487 L538 487 L538 500 L336 500 L336 487 L347 487 C380 488 384 460 356 425 L235 277 C235 331 236 689 233 689 L233 719 L210 719 L36 666 L36 655 L48 654 C102 653 118 638 118 587 L118 76 C118 40 89 11 53 12 L36 12 L36 -1 L608 -1 L609 13 L609 13 Z M298 12 C265 11 238 35 234 67 C234 113 234 179 234 254 L235 252 L241 258 L349 69 C365 36 352 10 318 11 L298 12 L298 12 Z " />
<glyph glyph-name="l" unicode="l" horiz-adv-x="368" d="M324 13 L307 13 C271 12 242 41 242 77 L242 720 L219 720 L45 667 L45 656 L57 655 C111 654 127 639 127 588 L127 77 C127 41 98 12 62 13 L45 13 L45 0 L324 0 L324 13 L324 13 Z " />
<glyph glyph-name="m" unicode="m" horiz-adv-x="880" d="M841 13 L824 13 C788 12 759 41 759 77 L759 338 C759 431 710 505 655 505 C579 505 511 473 482 431 C463 476 432 505 399 505 C334 505 274 476 241 437 L241 499 L218 499 L44 446 L44 435 L56 434 C110 433 126 418 126 367 L126 76 C126 40 97 11 61 12 L44 12 L44 -1 L841 -1 L841 13 L841 13 Z M644 76 C644 41 617 13 582 12 L565 12 C564 12 563 12 562 12 C527 13 500 41 500 76 L500 337 C500 364 496 389 489 411 C502 420 531 427 566 427 C607 427 644 382 644 325 L644 76 L644 76 Z M385 76 C385 41 358 13 323 12 L306 12 C305 12 304 12 303 12 C268 13 241 41 241 76 L241 418 C256 427 281 433 310 433 C350 433 385 384 385 324 L385 76 L385 76 Z " />
<glyph glyph-name="n" unicode="n" horiz-adv-x="602" d="M572 13 L555 13 C519 12 490 41 490 77 L490 338 C490 431 458 505 393 505 C337 505 275 476 242 437 L242 500 L219 500 L45 447 L45 436 L57 435 C111 434 127 419 127 368 L127 77 C127 41 98 12 62 13 L45 13 L45 0 L573 0 L572 13 L572 13 Z M303 13 C269 14 242 42 242 77 L242 417 C256 424 280 428 305 428 C352 428 376 383 376 326 L376 77 C376 42 349 14 315 13 L303 13 L303 13 Z " />
<glyph glyph-name="o" unicode="o" horiz-adv-x="569" d="M178 250 C178 377 226 479 285 479 C344 479 392 377 392 250 C392 123 344 21 285 21 C226 21 178 123 178 250 L178 250 Z M50 250 C50 108 155 -5 285 -5 C415 -5 519 108 519 250 C519 392 415 505 285 505 C155 505 50 392 50 250 L50 250 Z " />
<glyph glyph-name="p" unicode="p" horiz-adv-x="610" d="M314 -217 L297 -217 C261 -218 232 -189 232 -153 L232 14 C257 2 286 -5 316 -5 C448 -5 554 116 554 268 C554 400 479 505 386 505 C320 505 258 480 231 445 L231 500 L208 500 L34 447 L34 436 L46 435 C100 434 116 419 116 368 L116 -153 C116 -189 87 -218 51 -217 L34 -217 L34 -230 L313 -230 L314 -217 L314 -217 Z M231 135 L231 413 C245 422 270 428 297 428 C374 428 435 321 435 187 C435 98 382 27 316 27 C274 27 236 75 231 135 L231 135 Z " />
<glyph glyph-name="q" unicode="q" horiz-adv-x="564" d="M538 -217 L521 -217 C485 -218 456 -189 456 -153 L456 500 L443 500 C433 482 402 468 373 468 C342 468 303 505 261 505 C143 505 49 378 49 219 C49 95 118 -5 205 -5 C237 -5 295 27 341 68 L341 -153 C341 -189 312 -218 276 -217 L259 -217 L259 -230 L538 -230 L538 -217 L538 -217 Z M341 89 C323 75 292 65 267 65 C212 65 168 153 168 263 C168 380 209 473 260 473 C305 473 341 406 341 323 L341 89 L341 89 Z " />
<glyph glyph-name="r" unicode="r" horiz-adv-x="415" d="M17 436 L29 435 C83 434 99 419 99 368 L99 77 C99 41 70 12 34 13 L17 13 L17 0 L296 0 L296 13 L279 13 C243 12 214 41 214 77 L214 415 C222 418 232 420 243 420 C273 420 320 376 350 376 C381 376 405 400 405 431 C405 472 381 505 334 505 C287 505 239 480 214 445 L214 500 L191 500 L17 447 L17 436 L17 436 Z " />
<glyph glyph-name="s" unicode="s" horiz-adv-x="383" d="M312 348 L312 466 L302 448 L302 448 L312 466 C275 488 231 505 214 505 C123 505 50 441 50 362 C50 314 100 246 163 209 C205 184 238 141 238 111 C238 61 207 21 169 21 C164 21 154 24 142 29 C111 45 81 85 68 132 C66 139 62 151 60 158 L46 158 L46 30 C79 11 131 -4 164 -4 C258 -4 334 67 334 155 C334 202 295 263 246 292 C187 327 140 376 140 402 C140 445 173 480 215 480 C214 480 214 479 215 478 C215 478 285 416 293 374 C294 367 297 356 298 349 L312 348 L312 348 Z " />
<glyph glyph-name="t" unicode="t" horiz-adv-x="361" d="M329 500 L194 500 L194 640 L175 640 C129 552 62 475 25 468 L25 455 L79 455 L79 125 C79 31 109 -5 187 -5 C247 -5 301 22 341 55 L333 65 C320 54 292 46 244 46 C208 46 194 62 194 105 L194 455 L329 455 L329 500 L329 500 Z " />
<glyph glyph-name="u" unicode="u" horiz-adv-x="576" d="M14 487 L31 487 C67 488 96 459 96 423 L96 154 C96 66 141 -5 211 -5 C244 -5 296 29 344 74 L344 0 L367 0 L541 53 L541 64 L529 65 C475 66 459 81 459 132 L459 500 L262 500 L262 487 L279 487 C315 488 344 459 344 423 L344 91 C331 80 314 71 300 71 C245 71 210 113 210 166 L210 500 L13 500 L14 487 L14 487 Z " />
<glyph glyph-name="v" unicode="v" horiz-adv-x="590" d="M274 500 L-16 500 L-16 487 L0 487 C36 488 77 459 92 423 L272 -10 L291 -10 L463 423 C478 458 517 488 553 487 L570 487 L570 500 L373 500 L373 487 L386 487 C422 488 439 458 427 423 L328 146 L222 423 C209 458 226 488 262 487 L274 487 L274 500 L274 500 Z " />
<glyph glyph-name="w" unicode="w" horiz-adv-x="902" d="M316 500 L26 500 L26 487 L36 487 C67 488 104 459 119 423 L299 -10 L318 -10 L443 343 L590 -10 L609 -10 L781 423 C796 458 835 488 871 487 L888 487 L888 500 L661 500 L661 487 L704 487 C740 487 758 459 745 423 L745 423 L646 146 L540 423 C527 458 544 488 580 487 L612 487 L612 500 L322 500 L322 487 L331 487 C360 488 395 459 410 423 C416 408 423 392 429 377 L351 146 L247 423 C235 459 251 489 287 488 L315 488 L316 500 L316 500 Z " />
<glyph glyph-name="x" unicode="x" horiz-adv-x="572" d="M382 423 L382 423 L326 340 C311 368 295 396 281 423 C261 459 274 488 310 487 L360 487 C396 488 405 459 381 423 L382 423 L382 423 Z M287 0 L560 0 L560 13 L551 13 C526 12 492 38 471 71 L336 320 L411 423 C437 459 487 488 523 487 L539 487 L539 500 L38 500 L38 487 L48 487 C77 488 115 463 136 430 L245 229 L152 78 C129 42 82 12 46 13 L20 13 L20 0 L266 0 L266 13 L211 13 C175 13 164 41 185 77 L185 77 L259 202 L327 77 C346 42 334 12 297 13 L286 13 L287 0 L287 0 Z " />
<glyph glyph-name="y" unicode="y" horiz-adv-x="601" d="M310 500 L20 500 L20 487 L36 487 C72 488 113 459 128 423 L301 7 C294 -9 282 -35 273 -63 C249 -124 223 -155 196 -155 C196 -155 136 -130 113 -130 C81 -130 55 -152 55 -179 C55 -208 86 -231 125 -231 C202 -231 261 -178 303 -73 C314 -40 328 -11 328 -11 L500 422 C515 457 554 487 590 486 L607 486 L607 499 L410 499 L410 486 L423 486 C459 487 476 457 464 422 L365 145 L259 422 C246 457 263 487 299 486 L311 486 L310 500 L310 500 Z " />
<glyph glyph-name="z" unicode="z" horiz-adv-x="446" d="M380 183 L358 116 C342 66 289 26 239 26 L185 26 L396 500 L70 500 L66 486 L67 486 C58 455 45 407 37 376 L53 376 L62 393 C89 437 147 472 192 473 L252 473 L38 -1 L369 -1 L372 12 C380 57 392 129 400 174 C394 177 381 182 381 182 L380 183 L380 183 Z " />
<glyph glyph-name="braceleft" unicode="&#x7b;" horiz-adv-x="229" d="M214 -120 L214 -101 L200 -101 C166 -101 139 -56 139 1 L139 139 C139 203 104 257 57 270 C104 283 139 337 139 402 L139 539 C139 596 166 641 200 641 L214 641 L214 660 L174 660 C105 660 50 606 50 539 L50 338 C50 303 32 280 5 280 L5 260 C31 260 50 238 50 203 L50 1 C50 -66 105 -120 174 -120 L214 -120 L214 -120 Z " />
<glyph glyph-name="bar" unicode="&#x7c;" horiz-adv-x="209" d="M60 770 L60 -234 L149 -234 L149 770 L60 770 L60 770 Z " />
<glyph glyph-name="braceright" unicode="&#x7d;" horiz-adv-x="229" d="M5 660 L5 641 L19 641 C53 641 80 596 80 539 L80 401 C80 337 115 283 162 270 C115 257 80 203 80 138 L80 1 C80 -56 53 -101 19 -101 L5 -101 L5 -120 L45 -120 C114 -120 169 -66 169 1 L169 202 C169 237 187 260 214 260 L214 280 C188 280 169 302 169 337 L169 539 C169 606 114 660 45 660 L5 660 L5 660 Z " />
<glyph glyph-name="asciitilde" unicode="&#x7e;" horiz-adv-x="293" d="M34 310 C34 341 47 366 63 366 C101 366 161 303 199 303 C243 303 279 364 279 440 L260 440 C260 407 244 380 224 380 C186 380 126 442 88 442 C47 442 14 383 14 310 L34 310 L34 310 Z " />
<glyph glyph-name="nbspace" unicode="&#xa0;" horiz-adv-x="178" d="" />
<glyph glyph-name="exclamdown" unicode="&#xa1;" horiz-adv-x="265" d="M122 505 C78 505 42 469 42 425 C42 381 78 345 122 345 C166 345 202 381 202 425 C202 469 166 505 122 505 L122 505 Z M60 -83 C53 -129 84 -165 130 -165 C178 -165 209 -129 200 -83 C200 113 130 270 130 270 L114 270 C114 270 60 113 60 -83 L60 -83 Z " />
<glyph glyph-name="cent" unicode="&#xa2;" horiz-adv-x="484" d="M245 575 L245 502 C134 482 50 368 50 229 C50 99 136 -8 245 -5 L245 -75 L283 -75 L283 1 C332 13 392 43 435 79 L424 91 C392 65 328 58 284 77 L284 470 C306 461 324 435 326 405 C329 374 355 349 384 349 C412 349 435 372 435 400 C430 458 363 504 284 506 L284 576 L245 575 L245 575 Z M246 102 C202 139 173 202 173 274 C173 370 204 449 246 469 L246 102 L246 102 Z " />
<glyph glyph-name="guillemotleft" unicode="&#xab;" horiz-adv-x="395" d="M264 251 L346 454 L334 466 C247 379 156 257 156 257 L156 244 C167 217 337 34 337 34 L350 46 C350 46 310 137 263 251 L264 251 L264 251 Z M127 251 L209 454 L197 466 C110 379 19 257 19 257 L19 244 C30 217 200 34 200 34 L213 46 C213 46 173 137 126 251 L127 251 L127 251 Z " />
<glyph glyph-name="acute" unicode="&#xb4;" horiz-adv-x="293" d="M71 530 C71 530 158 617 187 654 C207 676 223 696 223 701 C223 714 175 749 157 749 C154 749 142 727 129 699 C100 662 58 539 58 539 L71 530 L71 530 Z " />
<glyph glyph-name="guillemotright" unicode="&#xbb;" horiz-adv-x="395" d="M58 34 C58 34 228 217 239 244 L239 257 C239 257 148 379 61 466 L49 454 L131 251 C84 137 44 46 44 46 L58 34 L58 34 Z M193 34 C193 34 363 217 374 244 L374 257 C374 257 283 379 196 466 L184 454 L266 251 C219 137 179 46 179 46 L193 34 L193 34 Z " />
<glyph glyph-name="onequarter" unicode="&#xbc;" horiz-adv-x="768" d="M153 -25 L667 645 L615 685 L101 15 L153 -25 L153 -25 Z M446 65 L446 50 L523 50 L523 -2 L620 -2 C620 11 620 30 620 50 L665 50 L665 94 L621 94 C621 145 620 290 620 303 L604 303 C606 302 446 65 446 65 L446 65 Z M497 94 C505 105 514 118 523 131 L523 94 L497 94 L497 94 Z M604 303 L604 303 L604 303 L604 303 Z M358 422 L350 422 C332 421 317 436 317 454 L317 627 C317 650 335 659 358 659 L358 665 L178 665 L178 659 C202 659 219 650 219 627 L219 454 C219 436 205 421 187 422 L178 422 L178 415 L358 415 L358 422 L358 422 Z " />
<glyph glyph-name="onehalf" unicode="&#xbd;" horiz-adv-x="768" d="M153 -25 L667 645 L615 685 L101 15 L153 -25 L153 -25 Z M658 119 C658 95 646 78 623 78 L575 78 C629 117 664 150 664 181 C664 221 628 253 583 253 C550 253 506 210 484 158 L496 150 C508 180 555 199 555 147 C555 71 514 56 463 21 L463 -1 C482 12 500 24 517 36 C497 17 477 -1 462 -1 L654 -1 L657 38 C659 60 662 96 664 118 L658 119 L658 119 Z M357 421 L349 421 C331 420 316 435 316 453 L316 626 C316 649 334 658 357 658 L357 664 L177 664 L177 658 C201 658 218 649 218 626 L218 453 C218 435 204 420 186 421 L177 421 L177 414 L357 414 L357 421 L357 421 Z " />
<glyph glyph-name="threequarters" unicode="&#xbe;" horiz-adv-x="768" d="M155 492 L155 476 C161 478 173 482 178 482 C202 482 222 469 222 452 C222 401 183 358 134 355 L135 340 C240 347 325 399 325 458 C325 487 299 512 261 525 C297 549 320 576 320 599 C320 637 286 668 244 668 C207 668 155 629 127 580 L140 573 C152 595 222 613 222 567 C222 556 218 545 211 534 L211 534 C199 515 179 501 155 492 L155 492 Z M153 -25 L667 645 L615 685 L101 15 L153 -25 L153 -25 Z M446 65 L446 50 L523 50 L523 -2 L620 -2 C620 11 620 30 620 50 L665 50 L665 94 L621 94 C621 145 620 290 620 303 L604 303 C606 302 446 65 446 65 L446 65 Z M497 94 C505 105 514 118 523 131 L523 94 L497 94 L497 94 Z M604 303 L604 303 L604 303 L604 303 Z " />
<glyph glyph-name="questiondown" unicode="&#xbf;" horiz-adv-x="335" d="M207 505 C163 505 127 469 127 425 C127 381 163 345 207 345 C251 345 287 381 287 425 C287 469 251 505 207 505 L207 505 Z M188 210 L153 210 C61 210 35 126 35 84 C35 -54 121 -165 228 -165 C267 -165 299 -133 299 -92 C299 -64 277 -42 250 -42 C234 -42 207 -75 191 -75 C119 -75 61 -10 61 71 C61 88 90 123 192 123 L227 123 C236 123 242 131 240 140 L215 265 L199 265 L188 210 L188 210 Z " />
<glyph glyph-name="Agrave" unicode="&#xc0;" horiz-adv-x="681" d="M361 0 L679 0 L679 13 L668 13 C636 13 599 38 582 71 L333 675 L301 675 L97 77 C85 41 46 12 10 13 L-6 13 L-6 0 L231 0 L231 13 L198 13 C154 12 130 48 144 92 L189 232 L381 232 L441 77 C455 41 437 12 401 13 L359 13 L361 0 L361 0 Z M232 861 C232 854 248 834 268 814 C297 776 388 690 388 690 L401 699 C401 699 356 821 327 859 C315 887 302 909 297 909 C279 909 232 874 232 861 L232 861 Z M368 264 L198 264 L275 501 L368 264 L368 264 Z " />
<glyph glyph-name="Aacute" unicode="&#xc1;" horiz-adv-x="681" d="M257 690 C257 690 345 777 374 814 C393 835 409 855 409 861 C409 874 362 909 344 909 C340 909 328 887 315 859 C286 822 244 699 244 699 L257 690 L257 690 Z M361 0 L679 0 L679 13 L668 13 C636 13 599 38 582 71 L333 675 L301 675 L97 77 C85 41 46 12 10 13 L-6 13 L-6 0 L231 0 L231 13 L198 13 C154 12 130 48 144 92 L189 232 L381 232 L441 77 C455 41 437 12 401 13 L359 13 L361 0 L361 0 Z M368 264 L198 264 L275 501 L368 264 L368 264 Z " />
<glyph glyph-name="Acircumflex" unicode="&#xc2;" horiz-adv-x="681" d="M361 0 L679 0 L679 13 L668 13 C636 13 599 38 582 71 L333 675 L301 675 L97 77 C85 41 46 12 10 13 L-6 13 L-6 0 L231 0 L231 13 L198 13 C154 12 130 48 144 92 L189 232 L381 232 L441 77 C455 41 437 12 401 13 L359 13 L361 0 L361 0 Z M353 872 C349 881 335 904 316 904 C298 904 284 881 280 872 C280 872 190 687 201 701 L213 691 C259 746 293 782 316 804 C358 760 419 691 419 691 L431 701 C431 701 403 769 353 872 L353 872 Z M279 836 C278 839 278 840 279 840 L279 836 L279 836 Z M368 265 L198 265 L275 502 L368 265 L368 265 Z " />
<glyph glyph-name="Atilde" unicode="&#xc3;" horiz-adv-x="681" d="M205 755 C205 786 218 811 235 811 C272 811 333 748 370 748 C414 748 450 809 450 885 L431 885 C431 852 415 825 395 825 C358 825 297 887 260 887 C219 887 186 828 186 755 L205 755 L205 755 Z M361 0 L679 0 L679 13 L668 13 C636 13 599 38 582 71 L333 675 L301 675 L97 77 C85 41 46 12 10 13 L-6 13 L-6 0 L231 0 L231 13 L198 13 C154 12 130 48 144 92 L189 232 L381 232 L441 77 C455 41 437 12 401 13 L359 13 L361 0 L361 0 Z M368 264 L198 264 L275 501 L368 264 L368 264 Z " />
<glyph glyph-name="Adieresis" unicode="&#xc4;" horiz-adv-x="681" d="M414 730 C453 730 485 761 485 800 C485 839 453 871 414 871 C375 871 344 839 344 800 C344 761 375 730 414 730 L414 730 Z M222 730 C261 730 292 761 292 800 C292 839 261 871 222 871 C183 871 151 839 151 800 C151 761 183 730 222 730 L222 730 Z M361 0 L679 0 L679 13 L668 13 C636 13 599 38 582 71 L333 675 L301 675 L97 77 C85 41 46 12 10 13 L-6 13 L-6 0 L231 0 L231 13 L198 13 C154 12 130 48 144 92 L189 232 L381 232 L441 77 C455 41 437 12 401 13 L359 13 L361 0 L361 0 Z M368 264 L198 264 L275 501 L368 264 L368 264 Z " />
<glyph glyph-name="Aring" unicode="&#xc5;" horiz-adv-x="681" d="M254 788 C254 825 282 854 318 854 C354 854 382 825 382 788 C382 755 350 721 318 721 C286 721 254 755 254 788 L254 788 Z M222 788 C222 742 270 695 318 695 C366 695 414 742 414 788 C414 839 371 880 318 880 C265 880 222 839 222 788 L222 788 Z M361 0 L679 0 L679 13 L668 13 C636 13 599 38 582 71 L333 675 L301 675 L97 77 C85 41 46 12 10 13 L-6 13 L-6 0 L231 0 L231 13 L198 13 C154 12 130 48 144 92 L189 232 L381 232 L441 77 C455 41 437 12 401 13 L359 13 L361 0 L361 0 Z M368 264 L198 264 L275 501 L368 264 L368 264 Z " />
<glyph glyph-name="Ccedilla" unicode="&#xc7;" horiz-adv-x="693" d="M633 446 L633 606 C577 638 474 665 400 665 C201 665 42 516 42 330 C42 148 194 1 387 -5 C381 -17 365 -50 347 -90 L356 -94 C358 -89 360 -84 362 -80 L355 -94 C367 -86 382 -79 390 -79 C409 -79 424 -103 424 -134 C424 -163 399 -187 367 -187 C349 -187 328 -180 320 -172 L315 -185 C333 -204 366 -220 390 -220 C448 -220 494 -182 494 -134 C494 -91 460 -56 417 -56 C400 -56 378 -63 366 -71 C388 -29 407 -12 417 -5 C489 -1 580 23 631 52 L622 67 L622 67 L630 52 L630 213 L613 213 C611 203 606 186 604 176 C584 90 497 26 396 26 C275 26 178 161 178 329 C178 497 275 632 396 632 C418 632 443 629 469 624 C529 609 588 547 603 481 C605 471 610 454 612 444 L633 446 L633 446 Z " />
<glyph glyph-name="Egrave" unicode="&#xc8;" horiz-adv-x="638" d="M214 861 C214 855 230 835 251 814 C280 777 370 690 370 690 L383 699 C383 699 338 821 309 859 C297 887 284 909 280 909 C262 909 214 874 214 861 L214 861 Z M452 244 L452 450 L439 450 L437 438 C430 399 386 368 339 368 L250 368 L250 628 L378 628 C434 628 487 584 499 528 L508 486 L522 486 L522 660 L40 660 L40 647 L57 647 C93 648 122 619 122 583 L122 77 C122 41 93 12 57 13 L40 13 L40 0 L521 0 L524 16 C532 60 544 130 552 174 L538 174 L522 132 C500 77 439 32 383 32 L250 32 L250 336 L339 336 C387 336 430 301 437 258 L439 244 L452 244 L452 244 Z " />
<glyph glyph-name="Eacute" unicode="&#xc9;" horiz-adv-x="638" d="M285 690 C285 690 372 777 401 814 C421 836 437 856 437 861 C437 874 389 909 371 909 C368 909 356 887 343 859 C314 822 272 699 272 699 L285 690 L285 690 Z M452 244 L452 450 L439 450 L437 438 C430 399 386 368 339 368 L250 368 L250 628 L378 628 C434 628 487 584 499 528 L508 486 L522 486 L522 660 L40 660 L40 647 L57 647 C93 648 122 619 122 583 L122 77 C122 41 93 12 57 13 L40 13 L40 0 L521 0 L524 16 C532 60 544 130 552 174 L538 174 L522 132 C500 77 439 32 383 32 L250 32 L250 336 L339 336 C387 336 430 301 437 258 L439 244 L452 244 L452 244 Z " />
<glyph glyph-name="Ecircumflex" unicode="&#xca;" horiz-adv-x="638" d="M351 872 C347 881 333 904 315 904 C296 904 282 881 278 872 C278 872 187 686 200 701 L212 691 C258 745 292 781 315 803 C356 759 417 690 417 690 L429 700 C429 700 401 768 351 871 L351 872 L351 872 Z M278 835 C277 837 277 838 278 838 L278 835 L278 835 Z M452 243 L452 449 L439 449 L437 437 C430 398 386 367 339 367 L250 367 L250 627 L378 627 C434 627 487 583 499 527 L508 485 L522 485 L522 659 L40 659 L40 646 L57 646 C93 647 122 618 122 582 L122 76 C122 40 93 11 57 12 L40 12 L40 -1 L521 -1 L524 15 C532 59 544 129 552 173 L538 173 L522 131 C500 76 439 31 383 31 L250 31 L250 335 L339 335 C387 335 430 300 437 257 L439 243 L452 243 L452 243 Z " />
<glyph glyph-name="Edieresis" unicode="&#xcb;" horiz-adv-x="638" d="M411 730 C450 730 481 761 481 800 C481 839 450 871 411 871 C372 871 341 839 341 800 C341 761 372 730 411 730 L411 730 Z M218 730 C257 730 288 761 288 800 C288 839 257 871 218 871 C179 871 148 839 148 800 C148 761 179 730 218 730 L218 730 Z M452 244 L452 450 L439 450 L437 438 C430 399 386 368 339 368 L250 368 L250 628 L378 628 C434 628 487 584 499 528 L508 486 L522 486 L522 660 L40 660 L40 647 L57 647 C93 648 122 619 122 583 L122 77 C122 41 93 12 57 13 L40 13 L40 0 L521 0 L524 16 C532 60 544 130 552 174 L538 174 L522 132 C500 77 439 32 383 32 L250 32 L250 336 L339 336 C387 336 430 301 437 258 L439 244 L452 244 L452 244 Z " />
<glyph glyph-name="Igrave" unicode="&#xcc;" horiz-adv-x="371" d="M102 861 C102 854 118 834 138 814 C167 776 258 690 258 690 L271 699 C271 699 226 821 197 859 C185 887 172 909 167 909 C149 909 102 874 102 861 L102 861 Z M332 13 L315 13 C279 12 250 41 250 77 L250 583 C250 619 279 648 315 647 L332 647 L332 660 L40 660 L40 647 L57 647 C93 648 122 619 122 583 L122 77 C122 41 93 12 57 13 L40 13 L40 0 L332 0 L332 13 L332 13 Z " />
<glyph glyph-name="Iacute" unicode="&#xcd;" horiz-adv-x="371" d="M125 690 C125 690 213 777 242 814 C261 835 277 855 277 861 C277 874 230 909 212 909 C208 909 196 887 183 859 C154 822 112 699 112 699 L125 690 L125 690 Z M332 13 L315 13 C279 12 250 41 250 77 L250 583 C250 619 279 648 315 647 L332 647 L332 660 L40 660 L40 647 L57 647 C93 648 122 619 122 583 L122 77 C122 41 93 12 57 13 L40 13 L40 0 L332 0 L332 13 L332 13 Z " />
<glyph glyph-name="Icircumflex" unicode="&#xce;" horiz-adv-x="371" d="M223 872 C219 881 205 904 186 904 C168 904 154 881 150 872 C150 872 60 687 71 701 L83 691 C129 746 163 782 186 804 C228 760 289 691 289 691 L301 701 C301 701 273 769 223 872 L223 872 Z M149 836 C148 839 148 840 149 840 L149 836 L149 836 Z M332 14 L315 14 C279 13 250 42 250 78 L250 584 C250 620 279 649 315 648 L332 648 L332 661 L40 661 L40 648 L57 648 C93 649 122 620 122 584 L122 78 C122 42 93 13 57 14 L40 14 L40 1 L332 1 L332 14 L332 14 Z " />
<glyph glyph-name="Idieresis" unicode="&#xcf;" horiz-adv-x="371" d="M282 730 C321 730 353 761 353 800 C353 839 321 871 282 871 C243 871 212 839 212 800 C212 761 243 730 282 730 L282 730 Z M90 730 C129 730 160 761 160 800 C160 839 129 871 90 871 C51 871 19 839 19 800 C19 761 51 730 90 730 L90 730 Z M332 13 L315 13 C279 12 250 41 250 77 L250 583 C250 619 279 648 315 647 L332 647 L332 660 L40 660 L40 647 L57 647 C93 648 122 619 122 583 L122 77 C122 41 93 12 57 13 L40 13 L40 0 L332 0 L332 13 L332 13 Z " />
<glyph glyph-name="Ntilde" unicode="&#xd1;" horiz-adv-x="700" d="M236 755 C236 786 249 811 265 811 C303 811 363 748 401 748 C445 748 481 809 481 885 L461 885 C461 852 445 825 426 825 C388 825 328 887 290 887 C249 887 216 828 216 755 L236 755 L236 755 Z M37 647 L54 647 C90 648 119 619 119 583 L119 77 C119 41 90 12 54 13 L37 13 L37 0 L240 0 L240 13 L223 13 C187 12 158 41 158 77 L158 543 C281 355 404 167 528 -20 L578 -20 L578 583 C578 619 607 648 643 647 L660 647 L660 660 L458 660 L458 647 L475 647 C511 648 540 619 540 583 L540 189 L234 660 L37 660 L37 647 L37 647 Z " />
<glyph glyph-name="Ograve" unicode="&#xd2;" horiz-adv-x="722" d="M182 330 C182 481 250 633 357 633 C463 633 531 481 531 330 C531 179 463 27 357 27 C250 27 182 179 182 330 L182 330 Z M42 330 C42 163 165 -5 357 -5 C549 -5 672 163 672 330 C672 497 549 665 357 665 C165 665 42 497 42 330 L42 330 Z M273 861 C273 854 289 834 309 814 C338 776 429 690 429 690 L442 699 C442 699 397 821 368 859 C356 887 343 909 338 909 C320 909 273 874 273 861 L273 861 Z " />
<glyph glyph-name="Oacute" unicode="&#xd3;" horiz-adv-x="722" d="M334 690 C334 690 422 777 451 814 C470 835 486 855 486 861 C486 874 439 909 421 909 C417 909 405 887 392 859 C363 822 321 699 321 699 L334 690 L334 690 Z M182 330 C182 481 250 633 357 633 C463 633 531 481 531 330 C531 179 463 27 357 27 C250 27 182 179 182 330 L182 330 Z M42 330 C42 163 165 -5 357 -5 C549 -5 672 163 672 330 C672 497 549 665 357 665 C165 665 42 497 42 330 L42 330 Z " />
<glyph glyph-name="Ocircumflex" unicode="&#xd4;" horiz-adv-x="722" d="M182 330 C182 481 250 633 357 633 C463 633 531 481 531 330 C531 179 463 27 357 27 C250 27 182 179 182 330 L182 330 Z M42 330 C42 163 165 -5 357 -5 C549 -5 672 163 672 330 C672 497 549 665 357 665 C165 665 42 497 42 330 L42 330 Z M394 872 C390 881 376 904 357 904 C339 904 325 881 321 872 C321 872 231 687 242 701 L254 691 C300 746 334 782 357 804 C399 760 460 691 460 691 L472 701 C472 701 444 769 394 872 L394 872 Z M320 836 C319 839 319 840 320 840 L320 836 L320 836 Z " />
<glyph glyph-name="Otilde" unicode="&#xd5;" horiz-adv-x="722" d="M244 755 C244 786 257 811 274 811 C311 811 372 748 409 748 C453 748 489 809 489 885 L470 885 C470 852 454 825 434 825 C397 825 336 887 299 887 C258 887 225 828 225 755 L244 755 L244 755 Z M182 330 C182 481 250 633 357 633 C463 633 531 481 531 330 C531 179 463 27 357 27 C250 27 182 179 182 330 L182 330 Z M42 330 C42 163 165 -5 357 -5 C549 -5 672 163 672 330 C672 497 549 665 357 665 C165 665 42 497 42 330 L42 330 Z " />
<glyph glyph-name="Odieresis" unicode="&#xd6;" horiz-adv-x="722" d="M453 730 C492 730 524 761 524 800 C524 839 492 871 453 871 C414 871 383 839 383 800 C383 761 414 730 453 730 L453 730 Z M261 730 C300 730 331 761 331 800 C331 839 300 871 261 871 C222 871 190 839 190 800 C190 761 222 730 261 730 L261 730 Z M182 330 C182 481 250 633 357 633 C463 633 531 481 531 330 C531 179 463 27 357 27 C250 27 182 179 182 330 L182 330 Z M42 330 C42 163 165 -5 357 -5 C549 -5 672 163 672 330 C672 497 549 665 357 665 C165 665 42 497 42 330 L42 330 Z " />
<glyph glyph-name="Oslash" unicode="&#xd8;" horiz-adv-x="722" d="M63 -25 L155 72 C207 25 276 -5 357 -5 C549 -5 672 163 672 330 C672 407 646 484 599 545 L693 645 L651 685 L559 588 C507 635 438 665 357 665 C165 665 42 497 42 330 C42 253 68 176 115 115 L21 15 L63 -25 L63 -25 Z M494 518 L198 204 C187 244 181 287 181 330 C181 481 249 633 356 633 C415 633 462 586 492 518 L494 518 L494 518 Z M513 456 C523 416 529 373 529 330 C529 179 461 27 355 27 C296 27 249 74 219 142 L513 456 L513 456 Z " />
<glyph glyph-name="Ugrave" unicode="&#xd9;" horiz-adv-x="679" d="M252 861 C252 854 268 834 288 814 C317 776 408 690 408 690 L421 699 C421 699 376 821 347 859 C335 887 322 909 317 909 C299 909 252 874 252 861 L252 861 Z M659 660 L432 660 L432 647 L454 647 C494 648 526 618 529 579 L528 199 C528 111 472 41 360 41 C275 41 233 108 233 192 L233 584 C233 620 262 649 298 648 L315 648 L315 661 L23 661 L23 648 L40 648 C76 649 105 620 105 584 L105 217 C105 94 184 -4 341 -4 C492 -4 567 81 567 187 L567 574 C567 616 600 649 642 648 L659 648 L659 660 L659 660 Z " />
<glyph glyph-name="Uacute" unicode="&#xda;" horiz-adv-x="679" d="M336 690 C336 690 424 777 453 814 C472 835 488 855 488 861 C488 874 441 909 423 909 C419 909 407 887 394 859 C365 822 323 699 323 699 L336 690 L336 690 Z M659 660 L432 660 L432 647 L454 647 C494 648 526 618 529 579 L528 199 C528 111 472 41 360 41 C275 41 233 108 233 192 L233 584 C233 620 262 649 298 648 L315 648 L315 661 L23 661 L23 648 L40 648 C76 649 105 620 105 584 L105 217 C105 94 184 -4 341 -4 C492 -4 567 81 567 187 L567 574 C567 616 600 649 642 648 L659 648 L659 660 L659 660 Z " />
<glyph glyph-name="Ucircumflex" unicode="&#xdb;" horiz-adv-x="679" d="M373 872 C369 881 355 904 336 904 C318 904 304 881 300 872 C300 872 210 687 221 701 L233 691 C279 746 313 782 336 804 C378 760 439 691 439 691 L451 701 C451 701 423 769 373 872 L373 872 Z M299 836 C298 839 298 840 299 840 L299 836 L299 836 Z M659 661 L432 661 L432 648 L454 648 C494 649 526 619 529 580 L528 200 C528 112 472 42 360 42 C275 42 233 109 233 193 L233 585 C233 621 262 650 298 649 L315 649 L315 662 L23 662 L23 649 L40 649 C76 650 105 621 105 585 L105 218 C105 95 184 -3 341 -3 C492 -3 567 82 567 188 L567 575 C567 617 600 650 642 649 L659 649 L659 661 L659 661 Z " />
<glyph glyph-name="Udieresis" unicode="&#xdc;" horiz-adv-x="679" d="M432 730 C471 730 503 761 503 800 C503 839 471 871 432 871 C393 871 362 839 362 800 C362 761 393 730 432 730 L432 730 Z M240 730 C279 730 310 761 310 800 C310 839 279 871 240 871 C201 871 169 839 169 800 C169 761 201 730 240 730 L240 730 Z M659 660 L432 660 L432 647 L454 647 C494 648 526 618 529 579 L528 199 C528 111 472 41 360 41 C275 41 233 108 233 192 L233 584 C233 620 262 649 298 648 L315 648 L315 661 L23 661 L23 648 L40 648 C76 649 105 620 105 584 L105 217 C105 94 184 -4 341 -4 C492 -4 567 81 567 187 L567 574 C567 616 600 649 642 648 L659 648 L659 660 L659 660 Z " />
<glyph glyph-name="Yacute" unicode="&#xdd;" horiz-adv-x="642" d="M317 690 C317 690 405 777 434 814 C453 835 469 855 469 861 C469 874 422 909 404 909 C400 909 388 887 375 859 C346 822 304 699 304 699 L317 690 L317 690 Z M171 0 L463 0 L463 13 L446 13 C410 12 381 41 381 77 L381 337 L381 337 L535 583 C558 619 603 648 636 647 L647 647 L647 660 L428 660 L428 647 L453 647 C497 648 513 614 490 571 L361 361 L244 583 C226 618 238 648 274 647 L300 647 L300 660 L-5 660 L-5 647 L5 647 C33 648 72 618 93 583 L253 293 L253 77 C253 41 224 12 188 13 L171 13 L171 0 L171 0 Z " />
<glyph glyph-name="agrave" unicode="&#xe0;" horiz-adv-x="474" d="M452 64 C445 53 430 45 407 45 C378 45 367 75 367 112 L367 352 C367 437 310 505 240 505 C147 505 62 453 49 388 L164 388 C173 435 196 473 215 473 C232 473 246 431 246 378 L246 262 C230 259 213 256 199 253 C109 231 37 165 37 106 C37 45 82 -4 137 -4 C178 -4 222 13 257 40 C269 11 292 -8 329 -8 C400 -8 444 18 466 50 L452 64 L452 64 Z M125 703 C125 696 141 676 161 656 C190 618 281 532 281 532 L294 541 C294 541 249 663 220 701 C208 729 195 751 190 751 C172 751 125 716 125 703 L125 703 Z M247 230 L247 102 C247 95 247 88 248 82 C231 77 212 74 193 74 C170 74 151 103 151 139 C151 176 173 210 200 217 C218 221 234 225 248 229 L247 230 L247 230 Z " />
<glyph glyph-name="aacute" unicode="&#xe1;" horiz-adv-x="474" d="M178 530 C178 530 266 617 295 654 C314 675 330 695 330 701 C330 714 283 749 265 749 C261 749 249 727 236 699 C207 662 165 539 165 539 L178 530 L178 530 Z M452 64 C445 53 430 45 407 45 C378 45 367 75 367 112 L367 352 C367 437 310 505 240 505 C147 505 62 453 49 388 L164 388 C173 435 196 473 215 473 C232 473 246 431 246 378 L246 262 C230 259 213 256 199 253 C109 231 37 165 37 106 C37 45 82 -4 137 -4 C178 -4 222 13 257 40 C269 11 292 -8 329 -8 C400 -8 444 18 466 50 L452 64 L452 64 Z M247 230 L247 102 C247 95 247 88 248 82 C231 77 212 74 193 74 C170 74 151 103 151 139 C151 176 173 210 200 217 C218 221 234 225 248 229 L247 230 L247 230 Z " />
<glyph glyph-name="acircumflex" unicode="&#xe2;" horiz-adv-x="474" d="M452 64 C445 53 430 45 407 45 C378 45 367 75 367 112 L367 352 C367 437 310 505 240 505 C147 505 62 453 49 388 L164 388 C173 435 196 473 215 473 C232 473 246 431 246 378 L246 262 C230 259 213 256 199 253 C109 231 37 165 37 106 C37 45 82 -4 137 -4 C178 -4 222 13 257 40 C269 11 292 -8 329 -8 C400 -8 444 18 466 50 L452 64 L452 64 Z M246 714 C242 723 228 746 209 746 C191 746 177 723 173 714 C173 714 83 529 94 543 L106 533 C152 588 186 624 209 646 C251 602 312 533 312 533 L324 543 C324 543 296 611 246 714 L246 714 Z M172 678 C171 681 171 682 172 682 L172 678 L172 678 Z M247 231 L247 103 C247 96 247 89 248 83 C231 78 212 75 193 75 C170 75 151 104 151 140 C151 177 173 211 200 218 C218 222 234 226 248 230 L247 231 L247 231 Z " />
<glyph glyph-name="atilde" unicode="&#xe3;" horiz-adv-x="474" d="M95 595 C95 626 108 651 125 651 C162 651 223 588 260 588 C304 588 340 649 340 725 L321 725 C321 692 305 665 285 665 C248 665 187 727 150 727 C109 727 76 668 76 595 L95 595 L95 595 Z M452 64 C445 53 430 45 407 45 C378 45 367 75 367 112 L367 352 C367 437 310 505 240 505 C147 505 62 453 49 388 L164 388 C173 435 196 473 215 473 C232 473 246 431 246 378 L246 262 C230 259 213 256 199 253 C109 231 37 165 37 106 C37 45 82 -4 137 -4 C178 -4 222 13 257 40 C269 11 292 -8 329 -8 C400 -8 444 18 466 50 L452 64 L452 64 Z M247 230 L247 102 C247 95 247 88 248 82 C231 77 212 74 193 74 C170 74 151 103 151 139 C151 176 173 210 200 217 C218 221 234 225 248 229 L247 230 L247 230 Z " />
<glyph glyph-name="adieresis" unicode="&#xe4;" horiz-adv-x="474" d="M304 570 C343 570 375 601 375 640 C375 679 343 711 304 711 C265 711 234 679 234 640 C234 601 265 570 304 570 L304 570 Z M112 570 C151 570 182 601 182 640 C182 679 151 711 112 711 C73 711 41 679 41 640 C41 601 73 570 112 570 L112 570 Z M452 64 C445 53 430 45 407 45 C378 45 367 75 367 112 L367 352 C367 437 310 505 240 505 C147 505 62 453 49 388 L164 388 C173 435 196 473 215 473 C232 473 246 431 246 378 L246 262 C230 259 213 256 199 253 C109 231 37 165 37 106 C37 45 82 -4 137 -4 C178 -4 222 13 257 40 C269 11 292 -8 329 -8 C400 -8 444 18 466 50 L452 64 L452 64 Z M247 230 L247 102 C247 95 247 88 248 82 C231 77 212 74 193 74 C170 74 151 103 151 139 C151 176 173 210 200 217 C218 221 234 225 248 229 L247 230 L247 230 Z " />
<glyph glyph-name="aring" unicode="&#xe5;" horiz-adv-x="474" d="M144 628 C144 665 172 694 208 694 C244 694 272 665 272 628 C272 595 240 561 208 561 C176 561 144 595 144 628 L144 628 Z M112 628 C112 582 160 535 208 535 C256 535 304 582 304 628 C304 679 261 720 208 720 C155 720 112 679 112 628 L112 628 Z M452 64 C445 53 430 45 407 45 C378 45 367 75 367 112 L367 352 C367 437 310 505 240 505 C147 505 62 453 49 388 L164 388 C173 435 196 473 215 473 C232 473 246 431 246 378 L246 262 C230 259 213 256 199 253 C109 231 37 165 37 106 C37 45 82 -4 137 -4 C178 -4 222 13 257 40 C269 11 292 -8 329 -8 C400 -8 444 18 466 50 L452 64 L452 64 Z M247 230 L247 102 C247 95 247 88 248 82 C231 77 212 74 193 74 C170 74 151 103 151 139 C151 176 173 210 200 217 C218 221 234 225 248 229 L247 230 L247 230 Z " />
<glyph glyph-name="ccedilla" unicode="&#xe7;" horiz-adv-x="484" d="M206 -80 L199 -94 C201 -89 203 -84 205 -80 L206 -80 L206 -80 Z M210 -70 C234 -25 254 -9 264 -3 C315 5 385 38 433 79 L422 91 C405 77 367 65 337 65 C245 65 171 158 171 273 C171 384 213 473 265 473 C294 473 321 442 324 404 C327 373 353 348 382 348 C410 348 433 371 433 399 C428 458 359 505 278 505 C151 505 49 382 49 229 C49 104 128 3 229 -5 C223 -17 207 -50 189 -91 L198 -95 C210 -87 225 -80 233 -80 C252 -80 267 -104 267 -135 C267 -164 242 -188 210 -188 C192 -188 171 -181 163 -173 L158 -186 C176 -205 209 -221 233 -221 C291 -221 337 -183 337 -135 C337 -92 303 -57 260 -57 C243 -57 221 -64 209 -72 L210 -70 L210 -70 Z " />
<glyph glyph-name="egrave" unicode="&#xe8;" horiz-adv-x="490" d="M440 79 L429 91 C412 77 373 65 341 65 C247 65 172 158 172 273 C172 282 172 291 173 300 L440 300 C440 414 362 505 264 505 C145 505 50 382 50 229 C50 99 137 -5 245 -5 C298 -5 384 32 440 79 L440 79 Z M180 701 C180 694 196 674 216 654 C245 616 336 530 336 530 L349 539 C349 539 304 661 275 699 C263 727 250 749 245 749 C227 749 180 714 180 701 L180 701 Z M333 394 L333 396 C333 395 333 394 333 393 L333 394 L333 394 Z M333 387 C330 362 310 340 284 334 L175 320 C184 407 217 471 258 471 C300 471 338 430 333 395 C333 395 333 392 333 387 L333 387 Z " />
<glyph glyph-name="eacute" unicode="&#xe9;" horiz-adv-x="490" d="M234 530 C234 530 322 617 351 654 C370 675 386 695 386 701 C386 714 339 749 321 749 C317 749 305 727 292 699 C263 662 221 539 221 539 L234 530 L234 530 Z M440 79 L429 91 C412 77 373 65 341 65 C247 65 172 158 172 273 C172 282 172 291 173 300 L440 300 C440 414 362 505 264 505 C145 505 50 382 50 229 C50 99 137 -5 245 -5 C298 -5 384 32 440 79 L440 79 Z M333 394 L333 396 C333 395 333 394 333 393 L333 394 L333 394 Z M333 387 C330 362 310 340 284 334 L175 320 C184 407 217 471 258 471 C300 471 338 430 333 395 C333 395 333 392 333 387 L333 387 Z " />
<glyph glyph-name="ecircumflex" unicode="&#xea;" horiz-adv-x="490" d="M440 79 L429 91 C412 77 373 65 341 65 C247 65 172 158 172 273 C172 282 172 291 173 300 L440 300 C440 414 362 505 264 505 C145 505 50 382 50 229 C50 99 137 -5 245 -5 C298 -5 384 32 440 79 L440 79 Z M301 712 C297 721 283 744 264 744 C246 744 232 721 228 712 C228 712 138 527 149 541 L161 531 C207 586 241 622 264 644 C306 600 367 531 367 531 L379 541 C379 541 351 609 301 712 L301 712 Z M227 676 C226 679 226 680 227 680 L227 676 L227 676 Z M333 395 L333 397 C333 396 333 395 333 394 L333 395 L333 395 Z M333 388 C330 363 310 341 284 335 L175 321 C184 408 217 472 258 472 C300 472 338 431 333 396 C333 396 333 393 333 388 L333 388 Z " />
<glyph glyph-name="edieresis" unicode="&#xeb;" horiz-adv-x="490" d="M360 570 C399 570 431 601 431 640 C431 679 399 711 360 711 C321 711 290 679 290 640 C290 601 321 570 360 570 L360 570 Z M168 570 C207 570 238 601 238 640 C238 679 207 711 168 711 C129 711 97 679 97 640 C97 601 129 570 168 570 L168 570 Z M440 79 L429 91 C412 77 373 65 341 65 C247 65 172 158 172 273 C172 282 172 291 173 300 L440 300 C440 414 362 505 264 505 C145 505 50 382 50 229 C50 99 137 -5 245 -5 C298 -5 384 32 440 79 L440 79 Z M333 394 L333 396 C333 395 333 394 333 393 L333 394 L333 394 Z M333 387 C330 362 310 340 284 334 L175 320 C184 407 217 471 258 471 C300 471 338 430 333 395 C333 395 333 392 333 387 L333 387 Z " />
<glyph glyph-name="igrave" unicode="&#xec;" horiz-adv-x="368" d="M100 701 C100 694 116 674 136 654 C165 616 256 530 256 530 L269 539 C269 539 224 661 195 699 C183 727 170 749 165 749 C147 749 100 714 100 701 L100 701 Z M324 13 L307 13 C271 12 242 41 242 77 L242 500 L219 500 L45 447 L45 436 L57 435 C111 434 127 419 127 368 L127 77 C127 41 98 12 62 13 L45 13 L45 0 L324 0 L324 13 L324 13 Z " />
<glyph glyph-name="iacute" unicode="&#xed;" horiz-adv-x="368" d="M108 530 C108 530 196 617 225 654 C244 675 260 695 260 701 C260 714 213 749 195 749 C191 749 179 727 166 699 C137 662 95 539 95 539 L108 530 L108 530 Z M324 13 L307 13 C271 12 242 41 242 77 L242 500 L219 500 L45 447 L45 436 L57 435 C111 434 127 419 127 368 L127 77 C127 41 98 12 62 13 L45 13 L45 0 L324 0 L324 13 L324 13 Z " />
<glyph glyph-name="icircumflex" unicode="&#xee;" horiz-adv-x="368" d="M221 712 C217 721 203 744 184 744 C166 744 152 721 148 712 C148 712 58 527 69 541 L81 531 C127 586 161 622 184 644 C226 600 287 531 287 531 L299 541 C299 541 271 609 221 712 L221 712 Z M147 676 C146 679 146 680 147 680 L147 676 L147 676 Z M324 14 L307 14 C271 13 242 42 242 78 L242 501 L219 501 L45 448 L45 437 L57 436 C111 435 127 420 127 369 L127 78 C127 42 98 13 62 14 L45 14 L45 1 L324 1 L324 14 L324 14 Z " />
<glyph glyph-name="idieresis" unicode="&#xef;" horiz-adv-x="368" d="M280 570 C319 570 351 601 351 640 C351 679 319 711 280 711 C241 711 210 679 210 640 C210 601 241 570 280 570 L280 570 Z M88 570 C127 570 158 601 158 640 C158 679 127 711 88 711 C49 711 17 679 17 640 C17 601 49 570 88 570 L88 570 Z M324 13 L307 13 C271 12 242 41 242 77 L242 500 L219 500 L45 447 L45 436 L57 435 C111 434 127 419 127 368 L127 77 C127 41 98 12 62 13 L45 13 L45 0 L324 0 L324 13 L324 13 Z " />
<glyph glyph-name="ntilde" unicode="&#xf1;" horiz-adv-x="611" d="M195 595 C195 626 208 651 225 651 C262 651 323 588 360 588 C404 588 440 649 440 725 L421 725 C421 692 405 665 385 665 C348 665 287 727 250 727 C209 727 176 668 176 595 L195 595 L195 595 Z M572 13 L555 13 C519 12 490 41 490 77 L490 338 C490 431 458 505 393 505 C337 505 275 476 242 437 L242 500 L219 500 L45 447 L45 436 L57 435 C111 434 127 419 127 368 L127 77 C127 41 98 12 62 13 L45 13 L45 0 L573 0 L572 13 L572 13 Z M303 13 C269 14 242 42 242 77 L242 417 C256 424 280 428 305 428 C352 428 376 383 376 326 L376 77 C376 42 349 14 315 13 L303 13 L303 13 Z " />
<glyph glyph-name="ograve" unicode="&#xf2;" horiz-adv-x="569" d="M178 250 C178 377 226 479 285 479 C344 479 392 377 392 250 C392 123 344 21 285 21 C226 21 178 123 178 250 L178 250 Z M50 250 C50 108 155 -5 285 -5 C415 -5 519 108 519 250 C519 392 415 505 285 505 C155 505 50 392 50 250 L50 250 Z M200 701 C200 695 216 675 237 654 C266 617 356 530 356 530 L369 539 C369 539 324 661 295 699 C283 727 270 749 266 749 C248 749 200 714 200 701 L200 701 Z " />
<glyph glyph-name="oacute" unicode="&#xf3;" horiz-adv-x="569" d="M255 530 C255 530 342 617 371 654 C391 676 407 696 407 701 C407 714 359 749 341 749 C338 749 326 727 313 699 C284 662 242 539 242 539 L255 530 L255 530 Z M178 250 C178 377 226 479 285 479 C344 479 392 377 392 250 C392 123 344 21 285 21 C226 21 178 123 178 250 L178 250 Z M50 250 C50 108 155 -5 285 -5 C415 -5 519 108 519 250 C519 392 415 505 285 505 C155 505 50 392 50 250 L50 250 Z " />
<glyph glyph-name="ocircumflex" unicode="&#xf4;" horiz-adv-x="569" d="M178 250 C178 377 226 479 285 479 C344 479 392 377 392 250 C392 123 344 21 285 21 C226 21 178 123 178 250 L178 250 Z M50 250 C50 108 155 -5 285 -5 C415 -5 519 108 519 250 C519 392 415 505 285 505 C155 505 50 392 50 250 L50 250 Z M321 712 C317 721 303 744 285 744 C266 744 252 721 248 712 C248 712 157 526 170 541 L182 531 C228 585 262 621 285 643 C326 599 387 530 387 530 L399 540 C399 540 371 608 321 711 L321 712 L321 712 Z M248 675 C247 677 247 678 248 678 L248 675 L248 675 Z " />
<glyph glyph-name="otilde" unicode="&#xf5;" horiz-adv-x="569" d="M172 595 C172 626 185 651 201 651 C239 651 299 588 337 588 C381 588 417 649 417 725 L397 725 C397 692 381 665 362 665 C324 665 264 727 226 727 C185 727 152 668 152 595 L172 595 L172 595 Z M178 250 C178 377 226 479 285 479 C344 479 392 377 392 250 C392 123 344 21 285 21 C226 21 178 123 178 250 L178 250 Z M50 250 C50 108 155 -5 285 -5 C415 -5 519 108 519 250 C519 392 415 505 285 505 C155 505 50 392 50 250 L50 250 Z " />
<glyph glyph-name="odieresis" unicode="&#xf6;" horiz-adv-x="569" d="M381 570 C420 570 451 601 451 640 C451 679 420 711 381 711 C342 711 311 679 311 640 C311 601 342 570 381 570 L381 570 Z M188 570 C227 570 258 601 258 640 C258 679 227 711 188 711 C149 711 118 679 118 640 C118 601 149 570 188 570 L188 570 Z M178 250 C178 377 226 479 285 479 C344 479 392 377 392 250 C392 123 344 21 285 21 C226 21 178 123 178 250 L178 250 Z M50 250 C50 108 155 -5 285 -5 C415 -5 519 108 519 250 C519 392 415 505 285 505 C155 505 50 392 50 250 L50 250 Z " />
<glyph glyph-name="oslash" unicode="&#xf8;" horiz-adv-x="569" d="M64 -18 L132 56 C173 18 226 -5 284 -5 C414 -5 518 108 518 250 C518 314 497 372 462 416 L532 492 L504 518 L436 444 C395 482 342 505 284 505 C154 505 49 392 49 250 C49 186 70 128 105 84 L35 8 L64 -18 L64 -18 Z M373 376 L183 170 C179 195 177 222 177 250 C177 377 225 479 284 479 C321 479 354 438 373 376 L373 376 Z M384 331 C388 306 390 279 390 250 C390 123 342 21 283 21 C246 21 213 62 194 125 L384 331 L384 331 Z " />
<glyph glyph-name="ugrave" unicode="&#xf9;" horiz-adv-x="576" d="M194 701 C194 694 210 674 230 654 C259 616 350 530 350 530 L363 539 C363 539 318 661 289 699 C277 727 264 749 259 749 C241 749 194 714 194 701 L194 701 Z M14 487 L31 487 C67 488 96 459 96 423 L96 154 C96 66 141 -5 211 -5 C244 -5 296 29 344 74 L344 0 L367 0 L541 53 L541 64 L529 65 C475 66 459 81 459 132 L459 500 L262 500 L262 487 L279 487 C315 488 344 459 344 423 L344 91 C331 80 314 71 300 71 C245 71 210 113 210 166 L210 500 L13 500 L14 487 L14 487 Z " />
<glyph glyph-name="uacute" unicode="&#xfa;" horiz-adv-x="576" d="M248 530 C248 530 336 617 365 654 C384 675 400 695 400 701 C400 714 353 749 335 749 C331 749 319 727 306 699 C277 662 235 539 235 539 L248 530 L248 530 Z M14 487 L31 487 C67 488 96 459 96 423 L96 154 C96 66 141 -5 211 -5 C244 -5 296 29 344 74 L344 0 L367 0 L541 53 L541 64 L529 65 C475 66 459 81 459 132 L459 500 L262 500 L262 487 L279 487 C315 488 344 459 344 423 L344 91 C331 80 314 71 300 71 C245 71 210 113 210 166 L210 500 L13 500 L14 487 L14 487 Z " />
<glyph glyph-name="ucircumflex" unicode="&#xfb;" horiz-adv-x="576" d="M315 712 C311 721 297 744 278 744 C260 744 246 721 242 712 C242 712 152 527 163 541 L175 531 C221 586 255 622 278 644 C320 600 381 531 381 531 L393 541 C393 541 365 609 315 712 L315 712 Z M241 676 C240 679 240 680 241 680 L241 676 L241 676 Z M14 488 L31 488 C67 489 96 460 96 424 L96 155 C96 67 141 -4 211 -4 C244 -4 296 30 344 75 L344 1 L367 1 L541 54 L541 65 L529 66 C475 67 459 82 459 133 L459 501 L262 501 L262 488 L279 488 C315 489 344 460 344 424 L344 92 C331 81 314 72 300 72 C245 72 210 114 210 167 L210 501 L13 501 L14 488 L14 488 Z " />
<glyph glyph-name="udieresis" unicode="&#xfc;" horiz-adv-x="576" d="M374 570 C413 570 445 601 445 640 C445 679 413 711 374 711 C335 711 304 679 304 640 C304 601 335 570 374 570 L374 570 Z M182 570 C221 570 252 601 252 640 C252 679 221 711 182 711 C143 711 111 679 111 640 C111 601 143 570 182 570 L182 570 Z M14 487 L31 487 C67 488 96 459 96 423 L96 154 C96 66 141 -5 211 -5 C244 -5 296 29 344 74 L344 0 L367 0 L541 53 L541 64 L529 65 C475 66 459 81 459 132 L459 500 L262 500 L262 487 L279 487 C315 488 344 459 344 423 L344 91 C331 80 314 71 300 71 C245 71 210 113 210 166 L210 500 L13 500 L14 487 L14 487 Z " />
<glyph glyph-name="ydieresis" unicode="&#xff;" horiz-adv-x="512" d="M373 570 C412 570 443 601 443 640 C443 679 412 711 373 711 C334 711 303 679 303 640 C303 601 334 570 373 570 L373 570 Z M180 570 C219 570 250 601 250 640 C250 679 219 711 180 711 C141 711 110 679 110 640 C110 601 141 570 180 570 L180 570 Z M274 500 L-16 500 L-16 487 L0 487 C36 488 77 459 92 423 L265 7 C258 -9 246 -35 237 -63 C213 -124 187 -155 160 -155 C160 -155 100 -130 77 -130 C45 -130 19 -152 19 -179 C19 -208 50 -231 89 -231 C166 -231 225 -178 267 -73 C278 -40 292 -11 292 -11 L464 422 C479 457 518 487 554 486 L571 486 L571 499 L374 499 L374 486 L387 486 C423 487 440 457 428 422 L329 145 L223 422 C210 457 227 487 263 486 L275 486 L274 500 L274 500 Z " />
<glyph glyph-name="Amacron" unicode="&#x100;" horiz-adv-x="681" d="M187 761 L449 761 L449 825 L187 825 L187 761 L187 761 Z M361 0 L679 0 L679 13 L668 13 C636 13 599 38 582 71 L333 675 L301 675 L97 77 C85 41 46 12 10 13 L-6 13 L-6 0 L231 0 L231 13 L198 13 C154 12 130 48 144 92 L189 232 L381 232 L441 77 C455 41 437 12 401 13 L359 13 L361 0 L361 0 Z M368 264 L198 264 L275 501 L368 264 L368 264 Z " />
<glyph glyph-name="amacron" unicode="&#x101;" horiz-adv-x="474" d="M77 601 L339 601 L339 665 L77 665 L77 601 L77 601 Z M452 64 C445 53 430 45 407 45 C378 45 367 75 367 112 L367 352 C367 437 310 505 240 505 C147 505 62 453 49 388 L164 388 C173 435 196 473 215 473 C232 473 246 431 246 378 L246 262 C230 259 213 256 199 253 C109 231 37 165 37 106 C37 45 82 -4 137 -4 C178 -4 222 13 257 40 C269 11 292 -8 329 -8 C400 -8 444 18 466 50 L452 64 L452 64 Z M247 230 L247 102 C247 95 247 88 248 82 C231 77 212 74 193 74 C170 74 151 103 151 139 C151 176 173 210 200 217 C218 221 234 225 248 229 L247 230 L247 230 Z " />
<glyph glyph-name="Abreve" unicode="&#x102;" horiz-adv-x="681" d="M205 870 C237 796 287 736 318 736 C349 736 399 796 431 870 L412 878 C396 841 355 812 318 812 C281 812 240 841 224 878 L205 870 L205 870 Z M361 0 L679 0 L679 13 L668 13 C636 13 599 38 582 71 L333 675 L301 675 L97 77 C85 41 46 12 10 13 L-6 13 L-6 0 L231 0 L231 13 L198 13 C154 12 130 48 144 92 L189 232 L381 232 L441 77 C455 41 437 12 401 13 L359 13 L361 0 L361 0 Z M368 264 L198 264 L275 501 L368 264 L368 264 Z " />
<glyph glyph-name="abreve" unicode="&#x103;" horiz-adv-x="474" d="M95 680 C127 606 177 546 208 546 C239 546 289 606 321 680 L302 688 C286 651 245 622 208 622 C171 622 130 651 114 688 L95 680 L95 680 Z M452 64 C445 53 430 45 407 45 C378 45 367 75 367 112 L367 352 C367 437 310 505 240 505 C147 505 62 453 49 388 L164 388 C173 435 196 473 215 473 C232 473 246 431 246 378 L246 262 C230 259 213 256 199 253 C109 231 37 165 37 106 C37 45 82 -4 137 -4 C178 -4 222 13 257 40 C269 11 292 -8 329 -8 C400 -8 444 18 466 50 L452 64 L452 64 Z M247 230 L247 102 C247 95 247 88 248 82 C231 77 212 74 193 74 C170 74 151 103 151 139 C151 176 173 210 200 217 C218 221 234 225 248 229 L247 230 L247 230 Z " />
<glyph glyph-name="Aogonek" unicode="&#x104;" horiz-adv-x="681" d="M361 0 L426 0 C371 -38 300 -105 300 -154 C300 -200 362 -236 439 -236 C473 -236 511 -223 525 -206 L517 -196 C513 -200 490 -204 464 -204 C412 -204 371 -176 371 -142 C371 -84 445 -10 473 0 L679 0 L679 13 L668 13 C636 13 599 38 582 71 L333 675 L301 675 L97 77 C85 41 46 12 10 13 L-6 13 L-6 0 L231 0 L231 13 L198 13 C154 12 130 48 144 92 L189 232 L381 232 L441 77 C455 41 437 12 401 13 L359 13 L361 0 L361 0 Z M368 264 L198 264 L275 501 L368 264 L368 264 Z " />
<glyph glyph-name="aogonek" unicode="&#x105;" horiz-adv-x="474" d="M452 64 C445 53 430 45 407 45 C378 45 367 75 367 112 L367 352 C367 437 310 505 240 505 C147 505 62 453 49 388 L164 388 C173 435 196 473 215 473 C232 473 246 431 246 378 L246 262 C230 259 213 256 199 253 C109 231 37 165 37 106 C37 45 82 -4 137 -4 C178 -4 222 13 257 40 C272 3 300 -12 349 -8 C299 -47 246 -104 246 -147 C246 -195 308 -234 385 -234 C419 -234 457 -221 471 -204 L463 -194 C459 -198 436 -202 410 -202 C358 -202 317 -172 317 -134 C317 -80 377 -14 409 6 C435 17 454 33 466 50 L452 64 L452 64 Z M247 230 L247 102 C247 95 247 88 248 82 C231 77 212 74 193 74 C170 74 151 103 151 139 C151 176 173 210 200 217 C218 221 234 225 248 229 L247 230 L247 230 Z " />
<glyph glyph-name="Cacute" unicode="&#x106;" horiz-adv-x="693" d="M354 690 C354 690 442 777 471 814 C490 835 506 855 506 861 C506 874 459 909 441 909 C437 909 425 887 412 859 C383 822 341 699 341 699 L354 690 L354 690 Z M633 446 L633 606 C577 638 474 665 400 665 C201 665 42 516 42 330 C42 144 201 -5 400 -5 C474 -5 578 21 634 53 L625 68 L625 68 L633 53 L633 214 L616 214 C614 204 609 187 607 177 C587 91 500 27 399 27 C278 27 181 162 181 330 C181 498 278 633 399 633 C421 633 446 630 472 625 C532 610 591 548 606 482 C608 472 613 455 615 445 L633 446 L633 446 Z " />
<glyph glyph-name="cacute" unicode="&#x107;" horiz-adv-x="484" d="M203 530 C203 530 291 617 320 654 C339 675 355 695 355 701 C355 714 308 749 290 749 C286 749 274 727 261 699 C232 662 190 539 190 539 L203 530 L203 530 Z M434 79 L423 91 C406 77 368 65 338 65 C246 65 172 158 172 273 C172 384 214 473 266 473 C295 473 322 442 325 404 C328 373 354 348 383 348 C411 348 434 371 434 399 C429 458 360 505 279 505 C152 505 50 382 50 229 C50 99 135 -5 242 -5 C293 -5 378 32 434 79 L434 79 Z " />
<glyph glyph-name="Ccircumflex" unicode="&#x108;" horiz-adv-x="693" d="M633 446 L633 606 C577 638 474 665 400 665 C201 665 42 516 42 330 C42 144 201 -5 400 -5 C474 -5 578 21 634 53 L625 68 L625 68 L633 53 L633 214 L616 214 C614 204 609 187 607 177 C587 91 500 27 399 27 C278 27 181 162 181 330 C181 498 278 633 399 633 C421 633 446 630 472 625 C532 610 591 548 606 482 C608 472 613 455 615 445 L633 446 L633 446 Z M436 871 C432 880 418 903 399 903 C381 903 367 880 363 871 C363 871 273 686 284 700 L296 690 C342 745 376 781 399 803 C441 759 502 690 502 690 L514 700 C514 700 486 768 436 871 L436 871 Z M362 835 C361 838 361 839 362 839 L362 835 L362 835 Z " />
<glyph glyph-name="Cdot" unicode="&#x10a;" horiz-adv-x="693" d="M400 730 C439 730 470 761 470 800 C470 839 439 871 400 871 C361 871 330 839 330 800 C330 761 361 730 400 730 L400 730 Z M633 446 L633 606 C577 638 474 665 400 665 C201 665 42 516 42 330 C42 144 201 -5 400 -5 C474 -5 578 21 634 53 L625 68 L625 68 L633 53 L633 214 L616 214 C614 204 609 187 607 177 C587 91 500 27 399 27 C278 27 181 162 181 330 C181 498 278 633 399 633 C421 633 446 630 472 625 C532 610 591 548 606 482 C608 472 613 455 615 445 L633 446 L633 446 Z " />
<glyph glyph-name="cdot" unicode="&#x10b;" horiz-adv-x="484" d="M279 570 C318 570 349 601 349 640 C349 679 318 711 279 711 C240 711 209 679 209 640 C209 601 240 570 279 570 L279 570 Z M434 79 L423 91 C406 77 368 65 338 65 C246 65 172 158 172 273 C172 384 214 473 266 473 C295 473 322 442 325 404 C328 373 354 348 383 348 C411 348 434 371 434 399 C429 458 360 505 279 505 C152 505 50 382 50 229 C50 99 135 -5 242 -5 C293 -5 378 32 434 79 L434 79 Z " />
<glyph glyph-name="Ccaron" unicode="&#x10c;" horiz-adv-x="693" d="M503 929 C503 929 442 860 400 816 C377 838 343 874 297 929 L285 919 C274 933 364 748 364 748 C368 739 382 716 400 716 C419 716 433 739 437 748 C487 851 515 919 515 919 L503 929 L503 929 Z M633 446 L633 606 C577 638 474 665 400 665 C201 665 42 516 42 330 C42 144 201 -5 400 -5 C474 -5 578 21 634 53 L625 68 L625 68 L633 53 L633 214 L616 214 C614 204 609 187 607 177 C587 91 500 27 399 27 C278 27 181 162 181 330 C181 498 278 633 399 633 C421 633 446 630 472 625 C532 610 591 548 606 482 C608 472 613 455 615 445 L633 446 L633 446 Z M362 780 C361 780 361 781 362 784 L362 780 L362 780 Z " />
<glyph glyph-name="ccaron" unicode="&#x10d;" horiz-adv-x="484" d="M382 769 C382 769 321 700 279 656 C256 678 222 714 176 769 L164 759 C153 773 243 588 243 588 C247 579 261 556 279 556 C298 556 312 579 316 588 C366 691 394 759 394 759 L382 769 L382 769 Z M434 79 L423 91 C406 77 368 65 338 65 C246 65 172 158 172 273 C172 384 214 473 266 473 C295 473 322 442 325 404 C328 373 354 348 383 348 C411 348 434 371 434 399 C429 458 360 505 279 505 C152 505 50 382 50 229 C50 99 135 -5 242 -5 C293 -5 378 32 434 79 L434 79 Z M242 621 C241 621 241 622 242 625 L242 621 L242 621 Z " />
<glyph glyph-name="Dcaron" unicode="&#x10e;" horiz-adv-x="736" d="M440 929 C440 929 379 860 337 816 C314 838 280 874 234 929 L222 919 C211 933 301 748 301 748 C305 739 319 716 337 716 C356 716 370 739 374 748 C424 851 452 919 452 919 L440 929 L440 929 Z M300 781 C299 781 299 782 300 785 L300 781 L300 781 Z M33 648 L50 648 C86 649 115 620 115 584 L115 78 C115 42 86 13 50 14 L33 14 L33 1 L357 1 C540 1 686 148 686 331 C686 514 527 661 328 661 L33 661 L33 648 L33 648 Z M243 33 L243 629 L328 629 C456 629 559 496 559 331 C559 166 469 33 357 33 L243 33 L243 33 Z " />
<glyph glyph-name="dcaron" unicode="&#x10f;" horiz-adv-x="573" d="M571 751 C549 751 534 685 529 643 L509 477 L524 472 L601 616 C624 659 643 716 643 725 C643 742 591 751 571 751 L571 751 Z M266 656 L278 655 C332 654 348 639 348 588 L348 470 C324 491 295 505 269 505 C150 505 54 378 54 219 C54 95 130 -5 224 -5 C253 -5 305 24 348 62 L348 0 L371 0 L545 53 L545 64 L533 65 C479 66 463 81 463 132 L463 720 L440 720 L266 667 L266 656 L266 656 Z M348 80 C334 71 309 64 287 64 C224 64 174 152 174 262 C174 379 214 473 263 473 C293 473 327 450 348 422 L348 80 L348 80 Z " />
<glyph glyph-name="Emacron" unicode="&#x112;" horiz-adv-x="638" d="M183 761 L446 761 L446 825 L183 825 L183 761 L183 761 Z M452 244 L452 450 L439 450 L437 438 C430 399 386 368 339 368 L250 368 L250 628 L378 628 C434 628 487 584 499 528 L508 486 L522 486 L522 660 L40 660 L40 647 L57 647 C93 648 122 619 122 583 L122 77 C122 41 93 12 57 13 L40 13 L40 0 L521 0 L524 16 C532 60 544 130 552 174 L538 174 L522 132 C500 77 439 32 383 32 L250 32 L250 336 L339 336 C387 336 430 301 437 258 L439 244 L452 244 L452 244 Z " />
<glyph glyph-name="emacron" unicode="&#x113;" horiz-adv-x="490" d="M133 601 L395 601 L395 665 L133 665 L133 601 L133 601 Z M440 79 L429 91 C412 77 373 65 341 65 C247 65 172 158 172 273 C172 282 172 291 173 300 L440 300 C440 414 362 505 264 505 C145 505 50 382 50 229 C50 99 137 -5 245 -5 C298 -5 384 32 440 79 L440 79 Z M333 394 L333 396 C333 395 333 394 333 393 L333 394 L333 394 Z M333 387 C330 362 310 340 284 334 L175 320 C184 407 217 471 258 471 C300 471 338 430 333 395 C333 395 333 392 333 387 L333 387 Z " />
<glyph glyph-name="Ebreve" unicode="&#x114;" horiz-adv-x="638" d="M201 870 C233 796 283 736 315 736 C346 736 396 796 428 870 L409 878 C393 841 352 812 315 812 C278 812 236 841 220 878 L201 870 L201 870 Z M452 244 L452 450 L439 450 L437 438 C430 399 386 368 339 368 L250 368 L250 628 L378 628 C434 628 487 584 499 528 L508 486 L522 486 L522 660 L40 660 L40 647 L57 647 C93 648 122 619 122 583 L122 77 C122 41 93 12 57 13 L40 13 L40 0 L521 0 L524 16 C532 60 544 130 552 174 L538 174 L522 132 C500 77 439 32 383 32 L250 32 L250 336 L339 336 C387 336 430 301 437 258 L439 244 L452 244 L452 244 Z " />
<glyph glyph-name="ebreve" unicode="&#x115;" horiz-adv-x="490" d="M151 710 C183 636 233 576 264 576 C295 576 345 636 377 710 L358 718 C342 681 301 652 264 652 C227 652 186 681 170 718 L151 710 L151 710 Z M440 79 L429 91 C412 77 373 65 341 65 C247 65 172 158 172 273 C172 282 172 291 173 300 L440 300 C440 414 362 505 264 505 C145 505 50 382 50 229 C50 99 137 -5 245 -5 C298 -5 384 32 440 79 L440 79 Z M333 394 L333 396 C333 395 333 394 333 393 L333 394 L333 394 Z M333 387 C330 362 310 340 284 334 L175 320 C184 407 217 471 258 471 C300 471 338 430 333 395 C333 395 333 392 333 387 L333 387 Z " />
<glyph glyph-name="Edot" unicode="&#x116;" horiz-adv-x="638" d="M315 730 C354 730 385 761 385 800 C385 839 354 871 315 871 C276 871 244 839 244 800 C244 761 276 730 315 730 L315 730 Z M452 244 L452 450 L439 450 L437 438 C430 399 386 368 339 368 L250 368 L250 628 L378 628 C434 628 487 584 499 528 L508 486 L522 486 L522 660 L40 660 L40 647 L57 647 C93 648 122 619 122 583 L122 77 C122 41 93 12 57 13 L40 13 L40 0 L521 0 L524 16 C532 60 544 130 552 174 L538 174 L522 132 C500 77 439 32 383 32 L250 32 L250 336 L339 336 C387 336 430 301 437 258 L439 244 L452 244 L452 244 Z " />
<glyph glyph-name="edot" unicode="&#x117;" horiz-adv-x="490" d="M264 570 C303 570 334 601 334 640 C334 679 303 711 264 711 C225 711 194 679 194 640 C194 601 225 570 264 570 L264 570 Z M440 79 L429 91 C412 77 373 65 341 65 C247 65 172 158 172 273 C172 282 172 291 173 300 L440 300 C440 414 362 505 264 505 C145 505 50 382 50 229 C50 99 137 -5 245 -5 C298 -5 384 32 440 79 L440 79 Z M333 394 L333 396 C333 395 333 394 333 393 L333 394 L333 394 Z M333 387 C330 362 310 340 284 334 L175 320 C184 407 217 471 258 471 C300 471 338 430 333 395 C333 395 333 392 333 387 L333 387 Z " />
<glyph glyph-name="Eogonek" unicode="&#x118;" horiz-adv-x="638" d="M452 244 L452 450 L439 450 L437 438 C430 399 386 368 339 368 L250 368 L250 628 L378 628 C434 628 487 584 499 528 L508 486 L522 486 L522 660 L40 660 L40 647 L57 647 C93 648 122 619 122 583 L122 77 C122 41 93 12 57 13 L40 13 L40 0 L470 0 C415 -38 344 -105 344 -154 C344 -200 406 -236 483 -236 C517 -236 555 -223 569 -206 L561 -196 C557 -200 534 -204 508 -204 C456 -204 415 -176 415 -142 C415 -84 489 -10 517 0 L521 0 L524 16 C532 60 544 130 552 174 L538 174 L522 132 C500 77 439 32 383 32 L250 32 L250 336 L339 336 C387 336 430 301 437 258 L439 244 L452 244 L452 244 Z " />
<glyph glyph-name="eogonek" unicode="&#x119;" horiz-adv-x="490" d="M333 394 L333 396 C333 395 333 394 333 393 L333 394 L333 394 Z M333 387 C330 362 310 340 284 334 L175 320 C184 407 217 471 258 471 C300 471 338 430 333 395 C333 395 333 392 333 387 L333 387 Z M173 299 L440 299 C440 413 362 504 264 504 C145 504 50 381 50 228 C50 98 137 -6 245 -6 C256 -6 268 -4 281 -1 C236 -40 194 -92 194 -133 C194 -190 256 -236 333 -236 C367 -236 405 -223 419 -206 L411 -196 C407 -200 384 -204 358 -204 C306 -204 265 -167 265 -121 C265 -65 322 3 355 25 C385 39 415 58 439 78 L428 90 C411 76 372 64 340 64 C246 64 171 157 171 272 C171 281 171 290 172 299 L173 299 L173 299 Z " />
<glyph glyph-name="Ecaron" unicode="&#x11a;" horiz-adv-x="638" d="M417 929 C417 929 356 860 315 816 C292 838 258 874 212 928 L200 918 C187 933 278 747 278 747 C282 738 296 715 315 715 C333 715 347 738 351 747 C401 850 429 918 429 918 L417 929 L417 929 Z M278 780 C277 780 277 781 278 783 L278 780 L278 780 Z M452 243 L452 449 L439 449 L437 437 C430 398 386 367 339 367 L250 367 L250 627 L378 627 C434 627 487 583 499 527 L508 485 L522 485 L522 659 L40 659 L40 646 L57 646 C93 647 122 618 122 582 L122 76 C122 40 93 11 57 12 L40 12 L40 -1 L521 -1 L524 15 C532 59 544 129 552 173 L538 173 L522 131 C500 76 439 31 383 31 L250 31 L250 335 L339 335 C387 335 430 300 437 257 L439 243 L452 243 L452 243 Z " />
<glyph glyph-name="ecaron" unicode="&#x11b;" horiz-adv-x="490" d="M367 769 C367 769 306 700 264 656 C241 678 207 714 161 769 L149 759 C138 773 228 588 228 588 C232 579 246 556 264 556 C283 556 297 579 301 588 C351 691 379 759 379 759 L367 769 L367 769 Z M440 79 L429 91 C412 77 373 65 341 65 C247 65 172 158 172 273 C172 282 172 291 173 300 L440 300 C440 414 362 505 264 505 C145 505 50 382 50 229 C50 99 137 -5 245 -5 C298 -5 384 32 440 79 L440 79 Z M227 621 C226 621 226 622 227 625 L227 621 L227 621 Z M333 395 L333 397 C333 396 333 395 333 394 L333 395 L333 395 Z M333 388 C330 363 310 341 284 335 L175 321 C184 408 217 472 258 472 C300 472 338 431 333 396 C333 396 333 393 333 388 L333 388 Z " />
<glyph glyph-name="Gcircumflex" unicode="&#x11c;" horiz-adv-x="796" d="M427 872 C423 881 409 904 390 904 C372 904 358 881 354 872 C354 872 264 687 275 701 L287 691 C333 746 367 782 390 804 C432 760 493 691 493 691 L505 701 C505 701 477 769 427 872 L427 872 Z M353 836 C352 839 352 840 353 840 L353 836 L353 836 Z M614 447 L614 601 C614 603 614 605 614 608 C558 640 459 666 390 666 C197 666 42 517 42 331 C42 145 197 -4 390 -4 C461 -4 563 22 619 54 L619 234 C619 270 648 299 684 298 L701 298 L701 311 L422 311 L422 298 L439 298 C475 299 504 270 504 234 L504 44 C465 34 424 28 390 28 C275 28 182 163 182 331 C182 499 275 634 390 634 C392 634 443 631 443 629 C507 619 571 555 588 484 C590 474 595 457 597 447 L614 447 L614 447 Z " />
<glyph glyph-name="Gbreve" unicode="&#x11e;" horiz-adv-x="796" d="M277 870 C309 796 359 736 390 736 C421 736 471 796 503 870 L484 878 C468 841 427 812 390 812 C353 812 312 841 296 878 L277 870 L277 870 Z M614 446 L614 600 C614 602 614 604 614 607 C558 639 459 665 390 665 C197 665 42 516 42 330 C42 144 197 -5 390 -5 C461 -5 563 21 619 53 L619 233 C619 269 648 298 684 297 L701 297 L701 310 L422 310 L422 297 L439 297 C475 298 504 269 504 233 L504 43 C465 33 424 27 390 27 C275 27 182 162 182 330 C182 498 275 633 390 633 C392 633 443 630 443 628 C507 618 571 554 588 483 C590 473 595 456 597 446 L614 446 L614 446 Z " />
<glyph glyph-name="gbreve" unicode="&#x11f;" horiz-adv-x="441" d="M97 710 C129 636 179 576 210 576 C241 576 291 636 323 710 L304 718 C288 681 247 652 210 652 C173 652 132 681 116 718 L97 710 L97 710 Z M441 500 C396 490 351 481 307 471 C280 492 246 505 209 505 C122 505 53 434 53 346 C53 284 88 230 139 204 C82 193 40 146 40 90 C40 45 75 7 125 -9 C62 -32 15 -84 15 -133 L92 -120 L15 -134 C15 -194 79 -243 159 -243 C304 -243 420 -147 420 -28 C420 40 345 94 251 94 C241 94 175 91 175 91 C143 91 117 110 117 134 C117 163 138 187 164 187 L209 187 C296 187 365 258 365 346 C365 376 357 404 343 428 L441 435 L441 500 L441 500 Z M210 212 C183 212 162 271 162 345 C162 419 183 478 210 478 C236 478 257 419 257 345 C257 271 236 212 210 212 L210 212 Z M154 -17 C163 -18 172 -19 182 -19 C182 -19 231 -16 220 -16 C286 -16 339 -48 339 -87 C339 -156 265 -212 173 -212 C129 -212 93 -172 93 -121 C93 -74 120 -29 154 -17 L154 -17 Z " />
<glyph glyph-name="Gdot" unicode="&#x120;" horiz-adv-x="796" d="M390 730 C429 730 460 761 460 800 C460 839 429 871 390 871 C351 871 320 839 320 800 C320 761 351 730 390 730 L390 730 Z M614 446 L614 600 C614 602 614 604 614 607 C558 639 459 665 390 665 C197 665 42 516 42 330 C42 144 197 -5 390 -5 C461 -5 563 21 619 53 L619 233 C619 269 648 298 684 297 L701 297 L701 310 L422 310 L422 297 L439 297 C475 298 504 269 504 233 L504 43 C465 33 424 27 390 27 C275 27 182 162 182 330 C182 498 275 633 390 633 C392 633 443 630 443 628 C507 618 571 554 588 483 C590 473 595 456 597 446 L614 446 L614 446 Z " />
<glyph glyph-name="gdot" unicode="&#x121;" horiz-adv-x="441" d="M210 570 C249 570 280 601 280 640 C280 679 249 711 210 711 C171 711 140 679 140 640 C140 601 171 570 210 570 L210 570 Z M441 500 C396 490 351 481 307 471 C280 492 246 505 209 505 C122 505 53 434 53 346 C53 284 88 230 139 204 C82 193 40 146 40 90 C40 45 75 7 125 -9 C62 -32 15 -84 15 -133 L92 -120 L15 -134 C15 -194 79 -243 159 -243 C304 -243 420 -147 420 -28 C420 40 345 94 251 94 C241 94 175 91 175 91 C143 91 117 110 117 134 C117 163 138 187 164 187 L209 187 C296 187 365 258 365 346 C365 376 357 404 343 428 L441 435 L441 500 L441 500 Z M210 212 C183 212 162 271 162 345 C162 419 183 478 210 478 C236 478 257 419 257 345 C257 271 236 212 210 212 L210 212 Z M154 -17 C163 -18 172 -19 182 -19 C182 -19 231 -16 220 -16 C286 -16 339 -48 339 -87 C339 -156 265 -212 173 -212 C129 -212 93 -172 93 -121 C93 -74 120 -29 154 -17 L154 -17 Z " />
<glyph glyph-name="Hcircumflex" unicode="&#x124;" horiz-adv-x="762" d="M418 872 C414 881 400 904 382 904 C363 904 349 881 345 872 C345 872 254 686 267 701 L279 691 C325 745 359 781 382 803 C423 759 484 690 484 690 L496 700 C496 700 468 768 418 871 L418 872 L418 872 Z M345 835 C344 837 344 838 345 838 L345 835 L345 835 Z M723 12 L706 12 C670 11 641 40 641 76 L641 582 C641 618 670 647 706 646 L723 646 L723 659 L432 659 L432 646 L449 646 C485 647 514 618 514 582 L514 362 L250 362 L250 582 C250 618 279 647 315 646 L332 646 L332 659 L40 659 L40 646 L57 646 C93 647 122 618 122 582 L122 76 C122 40 93 11 57 12 L40 12 L40 -1 L332 -1 L332 12 L315 12 C279 11 250 40 250 76 L250 330 L514 330 L514 76 C514 40 485 11 449 12 L432 12 L432 -1 L723 -1 L723 12 L723 12 Z " />
<glyph glyph-name="Itilde" unicode="&#x128;" horiz-adv-x="371" d="M73 755 C73 786 86 811 103 811 C140 811 201 748 238 748 C282 748 318 809 318 885 L299 885 C299 852 283 825 263 825 C226 825 165 887 128 887 C87 887 54 828 54 755 L73 755 L73 755 Z M332 13 L315 13 C279 12 250 41 250 77 L250 583 C250 619 279 648 315 647 L332 647 L332 660 L40 660 L40 647 L57 647 C93 648 122 619 122 583 L122 77 C122 41 93 12 57 13 L40 13 L40 0 L332 0 L332 13 L332 13 Z " />
<glyph glyph-name="itilde" unicode="&#x129;" horiz-adv-x="368" d="M71 595 C71 626 84 651 101 651 C138 651 199 588 236 588 C280 588 316 649 316 725 L297 725 C297 692 281 665 261 665 C224 665 163 727 126 727 C85 727 52 668 52 595 L71 595 L71 595 Z M324 13 L307 13 C271 12 242 41 242 77 L242 500 L219 500 L45 447 L45 436 L57 435 C111 434 127 419 127 368 L127 77 C127 41 98 12 62 13 L45 13 L45 0 L324 0 L324 13 L324 13 Z " />
<glyph glyph-name="Imacron" unicode="&#x12a;" horiz-adv-x="371" d="M55 761 L317 761 L317 825 L55 825 L55 761 L55 761 Z M332 13 L315 13 C279 12 250 41 250 77 L250 583 C250 619 279 648 315 647 L332 647 L332 660 L40 660 L40 647 L57 647 C93 648 122 619 122 583 L122 77 C122 41 93 12 57 13 L40 13 L40 0 L332 0 L332 13 L332 13 Z " />
<glyph glyph-name="imacron" unicode="&#x12b;" horiz-adv-x="368" d="M53 601 L315 601 L315 665 L53 665 L53 601 L53 601 Z M324 13 L307 13 C271 12 242 41 242 77 L242 500 L219 500 L45 447 L45 436 L57 435 C111 434 127 419 127 368 L127 77 C127 41 98 12 62 13 L45 13 L45 0 L324 0 L324 13 L324 13 Z " />
<glyph glyph-name="Ibreve" unicode="&#x12c;" horiz-adv-x="371" d="M73 870 C105 796 155 736 186 736 C217 736 267 796 299 870 L280 878 C264 841 223 812 186 812 C149 812 108 841 92 878 L73 870 L73 870 Z M332 13 L315 13 C279 12 250 41 250 77 L250 583 C250 619 279 648 315 647 L332 647 L332 660 L40 660 L40 647 L57 647 C93 648 122 619 122 583 L122 77 C122 41 93 12 57 13 L40 13 L40 0 L332 0 L332 13 L332 13 Z " />
<glyph glyph-name="ibreve" unicode="&#x12d;" horiz-adv-x="368" d="M71 710 C103 636 153 576 184 576 C215 576 265 636 297 710 L278 718 C262 681 221 652 184 652 C147 652 106 681 90 718 L71 710 L71 710 Z M324 13 L307 13 C271 12 242 41 242 77 L242 500 L219 500 L45 447 L45 436 L57 435 C111 434 127 419 127 368 L127 77 C127 41 98 12 62 13 L45 13 L45 0 L324 0 L324 13 L324 13 Z " />
<glyph glyph-name="Idot" unicode="&#x130;" horiz-adv-x="371" d="M186 730 C225 730 256 761 256 800 C256 839 225 871 186 871 C147 871 116 839 116 800 C116 761 147 730 186 730 L186 730 Z M332 13 L315 13 C279 12 250 41 250 77 L250 583 C250 619 279 648 315 647 L332 647 L332 660 L40 660 L40 647 L57 647 C93 648 122 619 122 583 L122 77 C122 41 93 12 57 13 L40 13 L40 0 L332 0 L332 13 L332 13 Z " />
<glyph glyph-name="dotlessi" unicode="&#x131;" horiz-adv-x="368" d="M324 13 L307 13 C271 12 242 41 242 77 L242 500 L219 500 L45 447 L45 436 L57 435 C111 434 127 419 127 368 L127 77 C127 41 98 12 62 13 L45 13 L45 0 L324 0 L324 13 L324 13 Z " />
<glyph glyph-name="Jcircumflex" unicode="&#x134;" horiz-adv-x="431" d="M283 872 C279 881 265 904 246 904 C228 904 214 881 210 872 C210 872 120 687 131 701 L143 691 C189 746 223 782 246 804 C288 760 349 691 349 691 L361 701 C361 701 333 769 283 872 L283 872 Z M209 836 C208 839 208 840 209 840 L209 836 L209 836 Z M392 661 L100 661 L100 648 L117 648 C153 649 182 620 182 584 L182 201 C182 78 172 17 152 17 C132 17 112 38 108 65 C103 93 78 116 51 116 C18 116 -5 93 0 65 C7 24 60 -9 120 -9 C247 -9 310 97 310 309 L310 584 C310 620 339 649 375 648 L392 648 L392 661 L392 661 Z " />
<glyph glyph-name="Lacute" unicode="&#x139;" horiz-adv-x="638" d="M163 690 C163 690 251 777 280 814 C299 835 315 855 315 861 C315 874 268 909 250 909 C246 909 234 887 221 859 C192 822 150 699 150 699 L163 690 L163 690 Z M534 189 L512 122 C496 72 443 32 393 32 L250 32 L250 583 C250 619 279 648 315 647 L332 647 L332 660 L40 660 L40 647 L57 647 C93 648 122 619 122 583 L122 77 C122 41 93 12 57 13 L40 13 L40 0 L521 0 L524 16 C532 62 545 135 553 181 C547 184 534 189 534 189 L534 189 Z " />
<glyph glyph-name="Lcaron" unicode="&#x13d;" horiz-adv-x="638" d="M440 691 C418 691 403 625 398 583 L378 417 L393 412 L470 556 C493 599 512 656 512 665 C512 682 460 691 440 691 L440 691 Z M534 189 L512 122 C496 72 443 32 393 32 L250 32 L250 583 C250 619 279 648 315 647 L332 647 L332 660 L40 660 L40 647 L57 647 C93 648 122 619 122 583 L122 77 C122 41 93 12 57 13 L40 13 L40 0 L521 0 L524 16 C532 62 545 135 553 181 C547 184 534 189 534 189 L534 189 Z " />
<glyph glyph-name="lcaron" unicode="&#x13e;" horiz-adv-x="368" d="M350 721 C328 721 313 655 308 613 L288 447 L303 442 L380 586 C403 629 422 686 422 695 C422 712 370 721 350 721 L350 721 Z M324 13 L307 13 C271 12 242 41 242 77 L242 720 L219 720 L45 667 L45 656 L57 655 C111 654 127 639 127 588 L127 77 C127 41 98 12 62 13 L45 13 L45 0 L324 0 L324 13 L324 13 Z " />
<glyph glyph-name="Lslash" unicode="&#x141;" horiz-adv-x="638" d="M40 0 L521 0 L524 16 C532 62 545 135 553 181 C547 184 534 189 534 189 L512 122 C496 72 443 32 393 32 L250 32 L250 318 L384 361 L384 399 L250 356 L250 583 C250 619 279 648 315 647 L332 647 L332 660 L40 660 L40 647 L57 647 C93 648 122 619 122 583 L122 315 L72 299 L72 261 L122 277 L122 77 C122 41 93 12 57 13 L40 13 L40 0 L40 0 Z " />
<glyph glyph-name="lslash" unicode="&#x142;" horiz-adv-x="368" d="M45 0 L324 0 L324 13 L307 13 C271 12 242 41 242 77 L242 359 L342 391 L342 429 L242 397 L242 720 L219 720 L45 667 L45 656 L57 655 C111 654 127 639 127 588 L127 361 L27 329 L27 291 L127 323 L127 77 C127 41 98 12 62 13 L45 13 L45 0 L45 0 Z " />
<glyph glyph-name="Nacute" unicode="&#x143;" horiz-adv-x="700" d="M319 690 C319 690 406 777 435 814 C455 836 471 856 471 861 C471 874 423 909 405 909 C402 909 390 887 377 859 C348 822 306 699 306 699 L319 690 L319 690 Z M37 647 L54 647 C90 648 119 619 119 583 L119 77 C119 41 90 12 54 13 L37 13 L37 0 L240 0 L240 13 L223 13 C187 12 158 41 158 77 L158 543 C281 355 404 167 528 -20 L578 -20 L578 583 C578 619 607 648 643 647 L660 647 L660 660 L458 660 L458 647 L475 647 C511 648 540 619 540 583 L540 189 L234 660 L37 660 L37 647 L37 647 Z " />
<glyph glyph-name="nacute" unicode="&#x144;" horiz-adv-x="611" d="M232 530 C232 530 320 617 349 654 C368 675 384 695 384 701 C384 714 337 749 319 749 C315 749 303 727 290 699 C261 662 219 539 219 539 L232 530 L232 530 Z M572 13 L555 13 C519 12 490 41 490 77 L490 338 C490 431 458 505 393 505 C337 505 275 476 242 437 L242 500 L219 500 L45 447 L45 436 L57 435 C111 434 127 419 127 368 L127 77 C127 41 98 12 62 13 L45 13 L45 0 L573 0 L572 13 L572 13 Z M303 13 C269 14 242 42 242 77 L242 417 C256 424 280 428 305 428 C352 428 376 383 376 326 L376 77 C376 42 349 14 315 13 L303 13 L303 13 Z " />
<glyph glyph-name="Ncaron" unicode="&#x147;" horiz-adv-x="700" d="M451 929 C451 929 390 860 349 816 C326 838 292 874 246 928 L234 918 C221 933 312 747 312 747 C316 738 330 715 349 715 C367 715 381 738 385 747 C435 850 463 918 463 918 L451 929 L451 929 Z M312 780 C311 780 311 781 312 783 L312 780 L312 780 Z M37 646 L54 646 C90 647 119 618 119 582 L119 76 C119 40 90 11 54 12 L37 12 L37 -1 L240 -1 L240 12 L223 12 C187 11 158 40 158 76 L158 542 C281 354 404 166 528 -21 L578 -21 L578 582 C578 618 607 647 643 646 L660 646 L660 659 L458 659 L458 646 L475 646 C511 647 540 618 540 582 L540 188 L234 659 L37 659 L37 646 L37 646 Z " />
<glyph glyph-name="ncaron" unicode="&#x148;" horiz-adv-x="611" d="M411 769 C411 769 350 700 308 656 C285 678 251 714 205 769 L193 759 C182 773 272 588 272 588 C276 579 290 556 308 556 C327 556 341 579 345 588 C395 691 423 759 423 759 L411 769 L411 769 Z M271 621 C270 621 270 622 271 625 L271 621 L271 621 Z M572 14 L555 14 C519 13 490 42 490 78 L490 339 C490 432 458 506 393 506 C337 506 275 477 242 438 L242 501 L219 501 L45 448 L45 437 L57 436 C111 435 127 420 127 369 L127 78 C127 42 98 13 62 14 L45 14 L45 1 L573 1 L572 14 L572 14 Z M303 14 C269 15 242 43 242 78 L242 418 C256 425 280 429 305 429 C352 429 376 384 376 327 L376 78 C376 43 349 15 315 14 L303 14 L303 14 Z " />
<glyph glyph-name="Omacron" unicode="&#x14c;" horiz-adv-x="722" d="M226 761 L488 761 L488 825 L226 825 L226 761 L226 761 Z M182 330 C182 481 250 633 357 633 C463 633 531 481 531 330 C531 179 463 27 357 27 C250 27 182 179 182 330 L182 330 Z M42 330 C42 163 165 -5 357 -5 C549 -5 672 163 672 330 C672 497 549 665 357 665 C165 665 42 497 42 330 L42 330 Z " />
<glyph glyph-name="omacron" unicode="&#x14d;" horiz-adv-x="569" d="M153 601 L416 601 L416 665 L153 665 L153 601 L153 601 Z M178 250 C178 377 226 479 285 479 C344 479 392 377 392 250 C392 123 344 21 285 21 C226 21 178 123 178 250 L178 250 Z M50 250 C50 108 155 -5 285 -5 C415 -5 519 108 519 250 C519 392 415 505 285 505 C155 505 50 392 50 250 L50 250 Z " />
<glyph glyph-name="Obreve" unicode="&#x14e;" horiz-adv-x="722" d="M244 870 C276 796 326 736 357 736 C388 736 438 796 470 870 L451 878 C435 841 394 812 357 812 C320 812 279 841 263 878 L244 870 L244 870 Z M182 330 C182 481 250 633 357 633 C463 633 531 481 531 330 C531 179 463 27 357 27 C250 27 182 179 182 330 L182 330 Z M42 330 C42 163 165 -5 357 -5 C549 -5 672 163 672 330 C672 497 549 665 357 665 C165 665 42 497 42 330 L42 330 Z " />
<glyph glyph-name="obreve" unicode="&#x14f;" horiz-adv-x="569" d="M171 710 C203 636 253 576 285 576 C316 576 366 636 398 710 L379 718 C363 681 322 652 285 652 C248 652 206 681 190 718 L171 710 L171 710 Z M178 250 C178 377 226 479 285 479 C344 479 392 377 392 250 C392 123 344 21 285 21 C226 21 178 123 178 250 L178 250 Z M50 250 C50 108 155 -5 285 -5 C415 -5 519 108 519 250 C519 392 415 505 285 505 C155 505 50 392 50 250 L50 250 Z " />
<glyph glyph-name="Racute" unicode="&#x154;" horiz-adv-x="678" d="M268 690 C268 690 355 777 384 814 C404 836 420 856 420 861 C420 874 372 909 354 909 C351 909 339 887 326 859 C297 822 255 699 255 699 L268 690 L268 690 Z M33 647 L50 647 C86 648 115 619 115 583 L115 77 C115 41 86 12 50 13 L33 13 L33 0 L325 0 L325 13 L308 13 C272 12 243 41 243 77 L243 312 L286 312 C313 271 363 194 420 106 C481 12 505 0 635 0 L679 0 L679 25 C635 25 627 29 594 81 C517 200 452 296 428 331 C514 360 573 420 573 491 C573 585 466 661 332 661 L34 661 L33 647 L33 647 Z M314 345 L244 345 L244 629 L332 629 C391 629 439 568 439 491 C439 410 383 345 314 345 L314 345 Z " />
<glyph glyph-name="Rcaron" unicode="&#x158;" horiz-adv-x="678" d="M446 929 C446 929 385 860 344 816 C321 838 287 874 241 928 L229 918 C216 933 307 747 307 747 C311 738 325 715 344 715 C362 715 376 738 380 747 C430 850 458 918 458 918 L446 929 L446 929 Z M33 646 L50 646 C86 647 115 618 115 582 L115 76 C115 40 86 11 50 12 L33 12 L33 -1 L325 -1 L325 12 L308 12 C272 11 243 40 243 76 L243 311 L286 311 C313 270 363 193 420 105 C481 11 505 -1 635 -1 L679 -1 L679 24 C635 24 627 28 594 80 C517 199 452 295 428 330 C514 359 573 419 573 490 C573 584 466 660 332 660 L34 660 L33 646 L33 646 Z M308 781 C307 781 307 782 308 784 L308 781 L308 781 Z M314 344 L244 344 L244 628 L332 628 C391 628 439 567 439 490 C439 409 383 344 314 344 L314 344 Z " />
<glyph glyph-name="rcaron" unicode="&#x159;" horiz-adv-x="442" d="M346 769 C346 769 285 700 244 656 C221 678 187 714 141 768 L129 758 C116 773 207 587 207 587 C211 578 225 555 244 555 C262 555 276 578 280 587 C330 690 358 758 358 758 L346 769 L346 769 Z M207 620 C206 620 206 621 207 623 L207 620 L207 620 Z M44 435 L56 434 C110 433 126 418 126 367 L126 76 C126 40 97 11 61 12 L44 12 L44 -1 L323 -1 L323 12 L306 12 C270 11 241 40 241 76 L241 414 C249 417 259 419 270 419 C300 419 347 375 377 375 C408 375 432 399 432 430 C432 471 408 504 361 504 C314 504 266 479 241 444 L241 499 L218 499 L44 446 L44 435 L44 435 Z " />
<glyph glyph-name="Sacute" unicode="&#x15a;" horiz-adv-x="476" d="M192 690 C192 690 280 777 309 814 C328 835 344 855 344 861 C344 874 297 909 279 909 C275 909 263 887 250 859 C221 822 179 699 179 699 L192 690 L192 690 Z M387 449 L387 620 C344 645 280 665 243 665 C130 665 39 574 39 461 C39 393 103 313 182 282 C270 247 340 183 340 136 C340 76 287 27 222 27 C221 27 209 27 209 28 C147 34 83 99 65 174 C63 184 58 201 56 211 L39 211 L39 40 C82 15 164 -5 222 -5 C338 -5 431 81 431 188 C431 260 363 345 278 378 C194 411 127 471 127 512 C127 580 176 634 238 634 C245 634 256 631 269 626 C306 611 342 571 351 533 C357 509 365 472 371 448 L387 449 L387 449 Z " />
<glyph glyph-name="sacute" unicode="&#x15b;" horiz-adv-x="383" d="M138 530 C138 530 226 617 255 654 C274 675 290 695 290 701 C290 714 243 749 225 749 C221 749 209 727 196 699 C167 662 125 539 125 539 L138 530 L138 530 Z M312 348 L312 466 L302 448 L302 448 L312 466 C275 488 231 505 214 505 C123 505 50 441 50 362 C50 314 100 246 163 209 C205 184 238 141 238 111 C238 61 207 21 169 21 C164 21 154 24 142 29 C111 45 81 85 68 132 C66 139 62 151 60 158 L46 158 L46 30 C79 11 131 -4 164 -4 C258 -4 334 67 334 155 C334 202 295 263 246 292 C187 327 140 376 140 402 C140 445 173 480 215 480 C214 480 214 479 215 478 C215 478 285 416 293 374 C294 367 297 356 298 349 L312 348 L312 348 Z " />
<glyph glyph-name="Scircumflex" unicode="&#x15c;" horiz-adv-x="476" d="M275 872 C271 881 257 904 238 904 C220 904 206 881 202 872 C202 872 112 687 123 701 L135 691 C181 746 215 782 238 804 C280 760 341 691 341 691 L353 701 C353 701 325 769 275 872 L275 872 Z M201 836 C200 839 200 840 201 840 L201 836 L201 836 Z M387 450 L387 621 C344 646 280 666 243 666 C130 666 39 575 39 462 C39 394 103 314 182 283 C270 248 340 184 340 137 C340 77 287 28 222 28 C221 28 209 28 209 29 C147 35 83 100 65 175 C63 185 58 202 56 212 L39 212 L39 41 C82 16 164 -4 222 -4 C338 -4 431 82 431 189 C431 261 363 346 278 379 C194 412 127 472 127 513 C127 581 176 635 238 635 C245 635 256 632 269 627 C306 612 342 572 351 534 C357 510 365 473 371 449 L387 450 L387 450 Z " />
<glyph glyph-name="Scedilla" unicode="&#x15e;" horiz-adv-x="476" d="M186 -80 L179 -94 C181 -89 183 -84 185 -80 L186 -80 L186 -80 Z M386 449 L386 620 C343 645 279 665 242 665 C129 665 38 574 38 461 C38 393 102 313 181 282 C269 247 339 183 339 136 C339 76 286 27 221 27 C220 27 208 27 208 28 C146 34 82 99 64 174 C62 184 57 201 55 211 L38 211 L38 40 C78 17 152 -2 209 -4 C203 -16 187 -49 169 -90 L178 -94 C190 -86 205 -79 213 -79 C232 -79 247 -103 247 -134 C247 -163 222 -187 190 -187 C172 -187 151 -180 143 -172 L138 -185 C156 -204 189 -220 213 -220 C271 -220 317 -182 317 -134 C317 -91 283 -56 240 -56 C223 -56 201 -63 189 -71 C212 -28 231 -11 241 -4 C347 6 429 88 429 189 C429 261 361 346 276 379 C192 412 125 472 125 513 C125 581 174 635 236 635 C243 635 254 632 267 627 C304 612 340 572 349 534 C355 510 363 473 369 449 L386 449 L386 449 Z " />
<glyph glyph-name="scedilla" unicode="&#x15f;" horiz-adv-x="383" d="M127 -80 L120 -94 C122 -89 124 -84 126 -80 L127 -80 L127 -80 Z M311 348 L311 466 L301 448 L301 448 L311 466 C274 488 230 505 213 505 C122 505 49 441 49 362 C49 314 99 246 162 209 C204 184 237 141 237 111 C237 61 206 21 168 21 C163 21 153 24 141 29 C110 45 80 85 67 132 C65 139 61 151 59 158 L45 158 L45 30 C74 13 118 -1 151 -4 C145 -16 129 -49 111 -90 L120 -94 C132 -86 147 -79 155 -79 C174 -79 189 -103 189 -134 C189 -163 164 -187 132 -187 C114 -187 93 -180 85 -172 L80 -185 C98 -204 131 -220 155 -220 C213 -220 259 -182 259 -134 C259 -91 225 -56 182 -56 C165 -56 143 -63 131 -71 C154 -27 173 -10 183 -4 C267 6 332 73 332 154 C332 201 293 262 244 291 C185 326 138 375 138 401 C138 444 171 479 213 479 C212 479 212 478 213 477 C213 477 283 415 291 373 C292 366 295 355 296 348 L311 348 L311 348 Z " />
<glyph glyph-name="Scaron" unicode="&#x160;" horiz-adv-x="476" d="M341 929 C341 929 280 860 238 816 C215 838 181 874 135 929 L123 919 C112 933 202 748 202 748 C206 739 220 716 238 716 C257 716 271 739 275 748 C325 851 353 919 353 919 L341 929 L341 929 Z M201 781 C200 781 200 782 201 785 L201 781 L201 781 Z M387 450 L387 621 C344 646 280 666 243 666 C130 666 39 575 39 462 C39 394 103 314 182 283 C270 248 340 184 340 137 C340 77 287 28 222 28 C221 28 209 28 209 29 C147 35 83 100 65 175 C63 185 58 202 56 212 L39 212 L39 41 C82 16 164 -4 222 -4 C338 -4 431 82 431 189 C431 261 363 346 278 379 C194 412 127 472 127 513 C127 581 176 635 238 635 C245 635 256 632 269 627 C306 612 342 572 351 534 C357 510 365 473 371 449 L387 450 L387 450 Z " />
<glyph glyph-name="scaron" unicode="&#x161;" horiz-adv-x="383" d="M317 769 C317 769 256 700 214 656 C191 678 157 714 111 769 L99 759 C88 773 178 588 178 588 C182 579 196 556 214 556 C233 556 247 579 251 588 C301 691 329 759 329 759 L317 769 L317 769 Z M177 621 C176 621 176 622 177 625 L177 621 L177 621 Z M312 349 L312 467 L302 449 L302 449 L312 467 C275 489 231 506 214 506 C123 506 50 442 50 363 C50 315 100 247 163 210 C205 185 238 142 238 112 C238 62 207 22 169 22 C164 22 154 25 142 30 C111 46 81 86 68 133 C66 140 62 152 60 159 L46 159 L46 31 C79 12 131 -3 164 -3 C258 -3 334 68 334 156 C334 203 295 264 246 293 C187 328 140 377 140 403 C140 446 173 481 215 481 C214 481 214 480 215 479 C215 479 285 417 293 375 C294 368 297 357 298 350 L312 349 L312 349 Z " />
<glyph glyph-name="Tcaron" unicode="&#x164;" horiz-adv-x="583" d="M395 929 C395 929 334 860 292 816 C269 838 235 874 189 929 L177 919 C166 933 256 748 256 748 C260 739 274 716 292 716 C311 716 325 739 329 748 C379 851 407 919 407 919 L395 929 L395 929 Z M255 781 C254 781 254 782 255 785 L255 781 L255 781 Z M146 1 L437 1 L437 14 L420 14 C384 13 355 42 355 78 L355 629 L449 629 C494 629 540 593 553 549 L575 472 L591 472 C586 520 580 597 575 645 L574 661 L9 661 L8 645 C3 597 -3 520 -8 472 L8 472 L30 549 C43 593 89 629 134 629 L228 629 L228 78 C228 42 199 13 163 14 L146 14 L146 1 L146 1 Z " />
<glyph glyph-name="tcaron" unicode="&#x165;" horiz-adv-x="361" d="M329 500 L194 500 L194 640 L175 640 C129 552 62 475 25 468 L25 455 L79 455 L79 125 C79 31 109 -5 187 -5 C247 -5 301 22 341 55 L333 65 C320 54 292 46 244 46 C208 46 194 62 194 105 L194 455 L329 455 L329 500 L329 500 Z M437 721 C415 721 400 655 395 613 L375 447 L390 442 L467 586 C490 629 509 686 509 695 C509 712 457 721 437 721 L437 721 Z " />
<glyph glyph-name="Utilde" unicode="&#x168;" horiz-adv-x="679" d="M223 755 C223 786 236 811 253 811 C290 811 351 748 388 748 C432 748 468 809 468 885 L449 885 C449 852 433 825 413 825 C376 825 315 887 278 887 C237 887 204 828 204 755 L223 755 L223 755 Z M659 660 L432 660 L432 647 L454 647 C494 648 526 618 529 579 L528 199 C528 111 472 41 360 41 C275 41 233 108 233 192 L233 584 C233 620 262 649 298 648 L315 648 L315 661 L23 661 L23 648 L40 648 C76 649 105 620 105 584 L105 217 C105 94 184 -4 341 -4 C492 -4 567 81 567 187 L567 574 C567 616 600 649 642 648 L659 648 L659 660 L659 660 Z " />
<glyph glyph-name="utilde" unicode="&#x169;" horiz-adv-x="576" d="M165 595 C165 626 178 651 195 651 C232 651 293 588 330 588 C374 588 410 649 410 725 L391 725 C391 692 375 665 355 665 C318 665 257 727 220 727 C179 727 146 668 146 595 L165 595 L165 595 Z M14 487 L31 487 C67 488 96 459 96 423 L96 154 C96 66 141 -5 211 -5 C244 -5 296 29 344 74 L344 0 L367 0 L541 53 L541 64 L529 65 C475 66 459 81 459 132 L459 500 L262 500 L262 487 L279 487 C315 488 344 459 344 423 L344 91 C331 80 314 71 300 71 C245 71 210 113 210 166 L210 500 L13 500 L14 487 L14 487 Z " />
<glyph glyph-name="Umacron" unicode="&#x16a;" horiz-adv-x="679" d="M205 761 L467 761 L467 825 L205 825 L205 761 L205 761 Z M659 660 L432 660 L432 647 L454 647 C494 648 526 618 529 579 L528 199 C528 111 472 41 360 41 C275 41 233 108 233 192 L233 584 C233 620 262 649 298 648 L315 648 L315 661 L23 661 L23 648 L40 648 C76 649 105 620 105 584 L105 217 C105 94 184 -4 341 -4 C492 -4 567 81 567 187 L567 574 C567 616 600 649 642 648 L659 648 L659 660 L659 660 Z " />
<glyph glyph-name="umacron" unicode="&#x16b;" horiz-adv-x="576" d="M147 601 L409 601 L409 665 L147 665 L147 601 L147 601 Z M14 487 L31 487 C67 488 96 459 96 423 L96 154 C96 66 141 -5 211 -5 C244 -5 296 29 344 74 L344 0 L367 0 L541 53 L541 64 L529 65 C475 66 459 81 459 132 L459 500 L262 500 L262 487 L279 487 C315 488 344 459 344 423 L344 91 C331 80 314 71 300 71 C245 71 210 113 210 166 L210 500 L13 500 L14 487 L14 487 Z " />
<glyph glyph-name="Ubreve" unicode="&#x16c;" horiz-adv-x="679" d="M223 870 C255 796 305 736 336 736 C367 736 417 796 449 870 L430 878 C414 841 373 812 336 812 C299 812 258 841 242 878 L223 870 L223 870 Z M659 660 L432 660 L432 647 L454 647 C494 648 526 618 529 579 L528 199 C528 111 472 41 360 41 C275 41 233 108 233 192 L233 584 C233 620 262 649 298 648 L315 648 L315 661 L23 661 L23 648 L40 648 C76 649 105 620 105 584 L105 217 C105 94 184 -4 341 -4 C492 -4 567 81 567 187 L567 574 C567 616 600 649 642 648 L659 648 L659 660 L659 660 Z " />
<glyph glyph-name="ubreve" unicode="&#x16d;" horiz-adv-x="576" d="M165 710 C197 636 247 576 278 576 C309 576 359 636 391 710 L372 718 C356 681 315 652 278 652 C241 652 200 681 184 718 L165 710 L165 710 Z M14 487 L31 487 C67 488 96 459 96 423 L96 154 C96 66 141 -5 211 -5 C244 -5 296 29 344 74 L344 0 L367 0 L541 53 L541 64 L529 65 C475 66 459 81 459 132 L459 500 L262 500 L262 487 L279 487 C315 488 344 459 344 423 L344 91 C331 80 314 71 300 71 C245 71 210 113 210 166 L210 500 L13 500 L14 487 L14 487 Z " />
<glyph glyph-name="Uring" unicode="&#x16e;" horiz-adv-x="679" d="M272 788 C272 825 300 854 336 854 C372 854 400 825 400 788 C400 755 368 721 336 721 C304 721 272 755 272 788 L272 788 Z M240 788 C240 742 288 695 336 695 C384 695 432 742 432 788 C432 839 389 880 336 880 C283 880 240 839 240 788 L240 788 Z M659 660 L432 660 L432 647 L454 647 C494 648 526 618 529 579 L528 199 C528 111 472 41 360 41 C275 41 233 108 233 192 L233 584 C233 620 262 649 298 648 L315 648 L315 661 L23 661 L23 648 L40 648 C76 649 105 620 105 584 L105 217 C105 94 184 -4 341 -4 C492 -4 567 81 567 187 L567 574 C567 616 600 649 642 648 L659 648 L659 660 L659 660 Z " />
<glyph glyph-name="uring" unicode="&#x16f;" horiz-adv-x="576" d="M214 628 C214 665 242 694 278 694 C314 694 342 665 342 628 C342 595 310 561 278 561 C246 561 214 595 214 628 L214 628 Z M182 628 C182 582 230 535 278 535 C326 535 374 582 374 628 C374 679 331 720 278 720 C225 720 182 679 182 628 L182 628 Z M14 487 L31 487 C67 488 96 459 96 423 L96 154 C96 66 141 -5 211 -5 C244 -5 296 29 344 74 L344 0 L367 0 L541 53 L541 64 L529 65 C475 66 459 81 459 132 L459 500 L262 500 L262 487 L279 487 C315 488 344 459 344 423 L344 91 C331 80 314 71 300 71 C245 71 210 113 210 166 L210 500 L13 500 L14 487 L14 487 Z " />
<glyph glyph-name="Wcircumflex" unicode="&#x174;" horiz-adv-x="950" d="M947 660 L719 660 L719 647 L763 647 C799 647 820 619 810 583 L810 583 L648 -15 L680 -15 L850 591 C863 623 898 648 931 647 L947 647 L947 660 L947 660 Z M297 660 L-3 660 L-3 647 L7 647 C38 648 73 618 86 582 L298 -16 L330 -16 L529 669 L497 669 L351 168 L224 582 C214 617 233 647 269 646 L297 646 L297 660 L297 660 Z M550 871 C546 880 532 903 513 903 C495 903 481 880 477 871 C477 871 387 686 398 700 L410 690 C456 745 490 781 513 803 C555 759 616 690 616 690 L628 700 C628 700 600 768 550 871 L550 871 Z M476 835 C475 838 475 839 476 839 L476 835 L476 835 Z M648 -15 L701 182 L529 670 L469 462 L648 -15 L648 -15 Z " />
<glyph glyph-name="Ycircumflex" unicode="&#x176;" horiz-adv-x="642" d="M171 0 L463 0 L463 13 L446 13 C410 12 381 41 381 77 L381 337 L381 337 L535 583 C558 619 603 648 636 647 L647 647 L647 660 L428 660 L428 647 L453 647 C497 648 513 614 490 571 L361 361 L244 583 C226 618 238 648 274 647 L300 647 L300 660 L-5 660 L-5 647 L5 647 C33 648 72 618 93 583 L253 293 L253 77 C253 41 224 12 188 13 L171 13 L171 0 L171 0 Z M354 872 C350 881 336 904 317 904 C299 904 285 881 281 872 C281 872 191 687 202 701 L214 691 C260 746 294 782 317 804 C359 760 420 691 420 691 L432 701 C432 701 404 769 354 872 L354 872 Z M280 836 C279 839 279 840 280 840 L280 836 L280 836 Z " />
<glyph glyph-name="Ydieresis" unicode="&#x178;" horiz-adv-x="642" d="M413 730 C452 730 484 761 484 800 C484 839 452 871 413 871 C374 871 343 839 343 800 C343 761 374 730 413 730 L413 730 Z M221 730 C260 730 291 761 291 800 C291 839 260 871 221 871 C182 871 150 839 150 800 C150 761 182 730 221 730 L221 730 Z M171 0 L463 0 L463 13 L446 13 C410 12 381 41 381 77 L381 337 L381 337 L535 583 C558 619 603 648 636 647 L647 647 L647 660 L428 660 L428 647 L453 647 C497 648 513 614 490 571 L361 361 L244 583 C226 618 238 648 274 647 L300 647 L300 660 L-5 660 L-5 647 L5 647 C33 648 72 618 93 583 L253 293 L253 77 C253 41 224 12 188 13 L171 13 L171 0 L171 0 Z " />
<glyph glyph-name="Zacute" unicode="&#x179;" horiz-adv-x="557" d="M302 690 C302 690 390 777 419 814 C438 835 454 855 454 861 C454 874 407 909 389 909 C385 909 373 887 360 859 C331 822 289 699 289 699 L302 690 L302 690 Z M473 190 L451 123 C435 73 382 33 332 33 L191 33 L492 660 L81 660 L77 644 C66 604 49 541 38 501 L54 501 L78 548 C101 592 155 628 200 628 L331 628 L32 0 L460 0 L463 16 L463 16 C471 62 484 136 492 182 C486 185 473 190 473 190 L473 190 Z " />
<glyph glyph-name="zacute" unicode="&#x17a;" horiz-adv-x="446" d="M173 530 C173 530 260 617 289 654 C309 676 325 696 325 701 C325 714 277 749 259 749 C256 749 244 727 231 699 C202 662 160 539 160 539 L173 530 L173 530 Z M380 183 L358 116 C342 66 289 26 239 26 L185 26 L396 500 L70 500 L66 486 L67 486 C58 455 45 407 37 376 L53 376 L62 393 C89 437 147 472 192 473 L252 473 L38 -1 L369 -1 L372 12 C380 57 392 129 400 174 C394 177 381 182 381 182 L380 183 L380 183 Z " />
<glyph glyph-name="Zdot" unicode="&#x17b;" horiz-adv-x="557" d="M302 730 C341 730 372 761 372 800 C372 839 341 871 302 871 C263 871 232 839 232 800 C232 761 263 730 302 730 L302 730 Z M473 190 L451 123 C435 73 382 33 332 33 L191 33 L492 660 L81 660 L77 644 C66 604 49 541 38 501 L54 501 L78 548 C101 592 155 628 200 628 L331 628 L32 0 L460 0 L463 16 L463 16 C471 62 484 136 492 182 C486 185 473 190 473 190 L473 190 Z " />
<glyph glyph-name="zdot" unicode="&#x17c;" horiz-adv-x="446" d="M249 570 C288 570 319 601 319 640 C319 679 288 711 249 711 C210 711 178 679 178 640 C178 601 210 570 249 570 L249 570 Z M380 183 L358 116 C342 66 289 26 239 26 L185 26 L396 500 L70 500 L66 486 L67 486 C58 455 45 407 37 376 L53 376 L62 393 C89 437 147 472 192 473 L252 473 L38 -1 L369 -1 L372 12 C380 57 392 129 400 174 C394 177 381 182 381 182 L380 183 L380 183 Z " />
<glyph glyph-name="Zcaron" unicode="&#x17d;" horiz-adv-x="557" d="M405 929 C405 929 344 860 302 816 C279 838 245 874 199 929 L187 919 C176 933 266 748 266 748 C270 739 284 716 302 716 C321 716 335 739 339 748 C389 851 417 919 417 919 L405 929 L405 929 Z M265 781 C264 781 264 782 265 785 L265 781 L265 781 Z M473 191 L451 124 C435 74 382 34 332 34 L191 34 L492 661 L81 661 L77 645 C66 605 49 542 38 502 L54 502 L78 549 C101 593 155 629 200 629 L331 629 L32 1 L460 1 L463 17 L463 17 C471 63 484 137 492 183 C486 186 473 191 473 191 L473 191 Z " />
<glyph glyph-name="zcaron" unicode="&#x17e;" horiz-adv-x="446" d="M351 769 C351 769 290 700 249 656 C226 678 192 714 146 768 L134 758 C121 773 212 587 212 587 C216 578 230 555 249 555 C267 555 281 578 285 587 C335 690 363 758 363 758 L351 769 L351 769 Z M380 182 L358 115 C342 65 289 25 239 25 L185 25 L396 499 L70 499 L66 485 L67 485 C58 454 45 406 37 375 L53 375 L62 392 C89 436 147 471 192 472 L252 472 L38 -2 L369 -2 L372 11 C380 56 392 128 400 173 C394 176 381 181 381 181 L380 182 L380 182 Z M213 619 C212 619 212 620 213 622 L213 619 L213 619 Z " />
<glyph glyph-name="oogonek" unicode="&#x1eb;" horiz-adv-x="672" d="M676 -39 L665 -31 C652 -49 596 -63 539 -63 C461 -63 392 -38 349 -4 C517 4 623 141 623 278 C623 418 511 559 335 559 C159 559 46 418 46 278 C46 145 147 12 307 -2 C386 -77 474 -136 529 -136 C573 -136 639 -92 678 -37 L676 -39 L676 -39 Z M174 279 C174 405 237 532 336 532 C435 532 498 405 498 279 C498 153 435 26 336 26 C237 26 174 153 174 279 L174 279 Z " />
<glyph glyph-name="Adotabove" unicode="&#x226;" horiz-adv-x="681" d="M318 730 C357 730 388 761 388 800 C388 839 357 871 318 871 C279 871 248 839 248 800 C248 761 279 730 318 730 L318 730 Z M361 0 L679 0 L679 13 L668 13 C636 13 599 38 582 71 L333 675 L301 675 L97 77 C85 41 46 12 10 13 L-6 13 L-6 0 L231 0 L231 13 L198 13 C154 12 130 48 144 92 L189 232 L381 232 L441 77 C455 41 437 12 401 13 L359 13 L361 0 L361 0 Z M368 264 L198 264 L275 501 L368 264 L368 264 Z " />
<glyph glyph-name="G_sc" unicode="&#x262;" horiz-adv-x="737" d="M555 342 L555 492 C555 494 555 497 555 500 C499 532 411 558 356 558 C183 558 45 433 45 277 C45 120 183 -5 356 -5 C413 -5 503 21 560 54 L560 183 C560 219 589 248 625 247 L642 247 L642 260 L375 260 L375 247 L392 247 C428 248 457 219 457 183 L457 42 C421 31 384 24 356 24 C254 24 172 137 172 277 C172 417 254 530 356 530 C365 530 375 529 386 527 C449 516 512 451 529 380 C531 369 536 353 538 342 L555 342 L555 342 Z " />
<glyph glyph-name="I_sc" unicode="&#x26a;" horiz-adv-x="364" d="M325 13 L308 13 C272 12 243 41 243 77 L243 476 C243 512 272 541 308 540 L325 540 L325 553 L46 553 L46 540 L63 540 C99 541 128 512 128 476 L128 77 C128 41 99 12 63 13 L46 13 L46 0 L325 0 L325 13 L325 13 Z " />
<glyph glyph-name="N_sc" unicode="&#x274;" horiz-adv-x="647" d="M38 540 L55 540 C91 541 120 512 120 476 L120 77 C120 41 91 12 55 13 L38 13 L38 0 L237 0 L237 13 L220 13 C184 12 155 41 155 77 L155 450 C265 293 375 137 484 -20 L525 -20 L525 476 C525 512 554 541 590 540 L607 540 L607 553 L409 553 L409 540 L426 540 C462 541 491 512 491 476 L491 167 L223 553 L38 553 L38 540 L38 540 Z " />
<glyph glyph-name="R_sc" unicode="&#x280;" horiz-adv-x="613" d="M36 540 L53 540 C89 541 118 512 118 476 L118 77 C118 41 89 12 53 13 L36 13 L36 0 L315 0 L315 13 L298 13 C262 12 233 41 233 77 L233 261 L255 261 C278 228 319 171 366 106 C434 12 457 0 573 0 L613 0 L613 23 C570 23 563 28 522 84 C457 175 402 249 381 277 C454 302 503 353 503 412 C503 490 408 553 290 553 L36 553 L36 540 L36 540 Z M278 290 L233 290 L233 524 L290 525 C342 525 383 475 383 412 C383 344 336 290 278 290 L278 290 Z " />
<glyph glyph-name="Y_sc" unicode="&#x28f;" horiz-adv-x="581" d="M149 0 L428 0 L428 13 L411 13 C375 12 346 41 346 77 L346 284 L472 476 C496 512 542 542 575 541 L585 541 L585 554 L371 554 L371 541 L395 541 C441 542 456 506 430 461 L326 298 L234 476 C216 511 229 541 265 540 L291 540 L291 553 L2 553 L2 540 L11 540 C40 541 79 511 100 475 L232 246 L232 76 C232 40 203 11 167 12 L150 12 L149 0 L149 0 Z " />
<glyph glyph-name="B_sc" unicode="&#x299;" horiz-adv-x="573" d="M36 540 L53 540 C89 541 118 512 118 476 L118 77 C118 41 89 12 53 13 L36 13 L36 0 L308 0 C444 0 553 69 553 155 C553 226 474 285 368 300 C445 320 498 366 498 420 C498 494 405 553 290 553 L36 553 L36 540 L36 540 Z M233 306 L233 524 C233 524 274 525 290 525 C342 525 383 478 383 420 C383 357 336 306 278 306 L233 306 L233 306 Z M233 281 L278 281 C364 281 433 225 433 155 C433 85 372 29 297 29 L233 29 L233 281 L233 281 Z " />
<glyph glyph-name="H_sc" unicode="&#x29c;" horiz-adv-x="714" d="M675 13 L658 13 C622 12 593 41 593 77 L593 476 C593 512 622 541 658 540 L675 540 L675 553 L396 553 L396 540 L413 540 C449 541 478 512 478 476 L478 307 L240 307 L240 476 C240 512 269 541 305 540 L322 540 L322 553 L43 553 L43 540 L60 540 C96 541 125 512 125 476 L125 77 C125 41 96 12 60 13 L43 13 L43 0 L322 0 L322 13 L305 13 C269 12 240 41 240 77 L240 278 L478 278 L478 77 C478 41 449 12 413 13 L396 13 L396 0 L675 0 L675 13 L675 13 Z " />
<glyph glyph-name="L_sc" unicode="&#x29f;" horiz-adv-x="591" d="M486 186 L464 119 C448 69 395 29 345 29 L240 29 L240 476 C240 512 269 541 305 540 L322 540 L322 553 L43 553 L43 540 L60 540 C96 541 125 512 125 476 L125 77 C125 41 96 12 60 13 L43 13 L43 0 L474 0 L477 15 L476 15 C484 61 497 132 505 178 C499 181 486 186 486 186 L486 186 Z " />
<glyph glyph-name="circumflex" unicode="&#x2c6;" horiz-adv-x="293" d="M183 712 C179 721 165 744 147 744 C128 744 114 721 110 712 C110 712 19 526 32 541 L44 531 C90 585 124 621 147 643 C188 599 249 530 249 530 L261 540 C261 540 233 608 183 711 L183 712 L183 712 Z M110 675 C109 677 109 678 110 678 L110 675 L110 675 Z " />
<glyph glyph-name="caron" unicode="&#x2c7;" horiz-adv-x="293" d="M249 769 C249 769 188 700 147 656 C124 678 90 714 44 768 L32 758 C19 773 110 587 110 587 C114 578 128 555 147 555 C165 555 179 578 183 587 C233 690 261 758 261 758 L249 769 L249 769 Z M110 620 C109 620 109 621 110 623 L110 620 L110 620 Z " />
<glyph glyph-name="firsttonechinese" unicode="&#x2c9;" horiz-adv-x="293" d="M15 601 L278 601 L278 665 L15 665 L15 601 L15 601 Z " />
<glyph glyph-name="breve" unicode="&#x2d8;" horiz-adv-x="293" d="M33 710 C65 636 115 576 147 576 C178 576 228 636 260 710 L241 718 C225 681 184 652 147 652 C110 652 68 681 52 718 L33 710 L33 710 Z " />
<glyph glyph-name="dotaccent" unicode="&#x2d9;" horiz-adv-x="293" d="M147 570 C186 570 217 601 217 640 C217 679 186 711 147 711 C108 711 76 679 76 640 C76 601 108 570 147 570 L147 570 Z " />
<glyph glyph-name="ring" unicode="&#x2da;" horiz-adv-x="293" d="M83 628 C83 665 111 694 147 694 C182 694 210 665 210 628 C210 595 178 561 147 561 C115 561 83 595 83 628 L83 628 Z M51 628 C51 582 99 535 147 535 C194 535 242 582 242 628 C242 679 200 720 147 720 C94 720 51 679 51 628 L51 628 Z " />
<glyph glyph-name="A_sc" unicode="&#x1d00;" horiz-adv-x="618" d="M-4 0 L228 0 L228 13 L195 13 C153 12 130 44 140 84 L177 194 L343 194 L391 77 C405 41 389 11 353 12 L312 12 L312 -1 L616 -1 L616 12 L605 12 C571 12 531 40 516 76 L516 76 L304 565 L275 565 L100 76 C86 41 48 11 12 12 L-4 12 L-4 0 L-4 0 Z M331 222 L187 222 L252 413 L331 222 L331 222 Z " />
<glyph glyph-name="C_sc" unicode="&#x1d04;" horiz-adv-x="634" d="M575 54 L567 67 L567 67 L575 54 L575 54 Z M557 211 C555 200 550 184 548 173 C529 92 449 27 369 25 C257 22 170 136 170 277 C170 417 256 530 364 530 C365 530 400 528 400 527 C464 518 529 452 546 380 C548 369 553 353 555 342 L572 342 L572 499 C516 531 424 558 364 558 C186 558 43 433 43 277 C43 120 186 -5 364 -5 C423 -5 516 21 573 54 L573 211 L557 211 L557 211 Z " />
<glyph glyph-name="D_sc" unicode="&#x1d05;" horiz-adv-x="668" d="M36 540 L53 540 C89 541 118 512 118 476 L118 77 C118 41 89 12 53 13 L36 13 L36 0 L314 0 C483 0 618 123 618 277 C618 430 474 553 294 553 L36 553 L36 540 L36 540 Z M233 29 L233 524 C250 524 277 525 294 525 C410 525 503 415 503 277 C503 139 419 29 314 29 L233 29 L233 29 Z " />
<glyph glyph-name="E_sc" unicode="&#x1d07;" horiz-adv-x="591" d="M405 189 L405 391 L392 391 L390 379 C383 340 339 309 292 309 L240 309 L240 524 C268 524 304 524 341 524 C393 519 440 477 451 425 L460 383 L474 383 L474 553 L43 553 L43 540 L60 540 C96 541 125 512 125 476 L125 77 C125 41 96 12 60 13 L43 13 L43 0 L474 0 L477 15 L476 15 C484 59 496 127 504 171 L490 171 L474 129 C452 74 391 29 335 29 L240 29 L240 281 L292 281 C340 281 383 246 390 203 L392 189 L405 189 L405 189 Z " />
<glyph glyph-name="J_sc" unicode="&#x1d0a;" horiz-adv-x="386" d="M347 553 L68 553 L68 540 L85 540 C121 541 150 512 150 476 L150 168 C150 65 144 13 131 13 C114 13 99 33 97 57 C95 83 72 104 46 104 C19 104 -2 84 0 58 C27 58 97 57 97 57 L0 58 C3 20 48 -10 102 -10 C211 -10 265 82 265 265 L265 476 C265 512 294 541 330 540 L347 540 L347 553 L347 553 Z " />
<glyph glyph-name="K_sc" unicode="&#x1d0b;" horiz-adv-x="592" d="M534 553 L349 553 L349 540 L360 540 C392 541 398 515 374 481 L302 389 C302 390 302 390 302 390 C279 360 256 330 233 300 L233 476 C233 512 262 541 298 540 L315 540 L315 553 L36 553 L36 540 L53 540 C89 541 118 512 118 476 L118 77 C118 41 89 12 53 13 L36 13 L36 0 L315 0 L315 13 L298 13 C262 12 233 41 233 77 L233 257 L246 274 C264 243 297 185 335 118 C382 36 451 -5 541 -5 L581 -5 L581 18 C533 18 479 79 404 210 C366 276 333 333 315 364 L406 482 C435 515 483 540 517 539 L533 539 L534 553 L534 553 Z " />
<glyph glyph-name="M_sc" unicode="&#x1d0d;" horiz-adv-x="812" d="M771 554 L639 554 L639 553 L587 553 L420 132 L229 553 L59 553 L59 540 L75 540 C109 541 135 517 137 485 L119 77 C116 42 88 12 52 13 L35 13 L35 0 L267 0 L267 13 L231 13 C188 12 155 45 154 87 L169 414 C235 274 301 134 367 -6 L421 131 L421 131 L367 -6 L396 -6 L591 463 L604 68 C601 36 575 11 542 12 L525 12 L525 -1 L803 -1 L803 12 L786 12 C750 11 720 40 718 76 L696 480 C696 514 723 541 758 540 L773 539 L771 554 L771 554 Z " />
<glyph glyph-name="O_sc" unicode="&#x1d0f;" horiz-adv-x="672" d="M172 277 C172 403 235 530 334 530 C433 530 496 403 496 277 C496 151 433 24 334 24 C235 24 172 151 172 277 L172 277 Z M45 277 C45 136 158 -5 334 -5 C510 -5 622 136 622 277 C622 417 510 558 334 558 C158 558 45 417 45 277 L45 277 Z " />
<glyph glyph-name="P_sc" unicode="&#x1d18;" horiz-adv-x="522" d="M315 13 L298 13 C262 12 233 41 233 77 L233 246 L278 246 C402 246 502 315 502 400 C502 485 407 553 289 553 L36 553 L36 540 L53 540 C89 541 118 512 118 476 L118 77 C118 41 89 12 53 13 L36 13 L36 0 L315 0 L315 13 L315 13 Z M233 275 L233 524 C249 524 273 525 289 525 C341 525 382 469 382 400 C382 331 336 275 278 275 L233 275 L233 275 Z " />
<glyph glyph-name="T_sc" unicode="&#x1d1b;" horiz-adv-x="534" d="M128 0 L407 0 L407 13 L390 13 C354 12 325 41 325 77 L325 525 L396 525 C441 525 488 489 500 445 L522 368 L538 368 C534 415 527 492 523 539 L522 553 L12 553 L11 539 C7 492 0 415 -4 368 L12 368 L34 445 C46 489 93 525 138 525 L210 525 L210 77 C210 41 181 12 145 13 L128 13 L128 0 L128 0 Z " />
<glyph glyph-name="U_sc" unicode="&#x1d1c;" horiz-adv-x="619" d="M599 553 L376 553 L376 540 L398 540 C438 541 470 511 473 472 L472 162 C472 92 424 35 329 35 C258 35 223 88 223 154 L223 476 C223 512 252 541 288 540 L305 540 L305 553 L26 553 L26 540 L43 540 C79 541 108 512 108 476 L108 176 C108 76 176 -5 311 -5 C442 -5 507 64 507 151 L507 466 C507 508 540 541 582 540 L599 540 L599 553 L599 553 Z " />
<glyph glyph-name="V_sc" unicode="&#x1d20;" horiz-adv-x="608" d="M288 553 L-6 553 L-6 540 L4 540 C35 541 73 511 89 475 L308 -16 L337 -16 L506 475 C519 510 557 540 593 539 L609 539 L609 552 L371 552 L371 539 L399 539 C452 540 479 498 462 445 L355 126 L209 484 C200 516 218 541 251 540 L288 540 L288 553 L288 553 Z " />
<glyph glyph-name="W_sc" unicode="&#x1d21;" horiz-adv-x="836" d="M283 553 L-3 553 L-3 540 L7 540 C38 541 74 512 87 476 L266 -15 L295 -15 L465 563 L436 563 L311 138 L208 481 C201 515 222 541 256 540 L284 540 L283 553 L283 553 Z M834 553 L610 553 L610 540 L654 540 C688 540 709 515 703 482 L566 -15 L595 -15 L736 479 C747 514 784 541 819 540 L835 540 L834 553 L834 553 Z M566 -15 L611 148 L467 563 L416 389 L566 -15 L566 -15 Z " />
<glyph glyph-name="Z_sc" unicode="&#x1d22;" horiz-adv-x="509" d="M427 187 L405 120 C389 70 336 30 286 30 L180 30 L444 553 L88 553 L84 539 C74 500 57 437 46 398 L62 398 L86 445 C109 489 163 525 208 525 L298 525 L36 0 L415 0 L417 15 C425 61 438 133 446 179 C440 182 427 187 427 187 L427 187 Z " />
<glyph glyph-name="Wgrave" unicode="&#x1e80;" horiz-adv-x="950" d="M947 660 L719 660 L719 647 L763 647 C799 647 820 619 810 583 L810 583 L648 -15 L680 -15 L850 591 C863 623 898 648 931 647 L947 647 L947 660 L947 660 Z M297 660 L-3 660 L-3 647 L7 647 C38 648 73 618 86 582 L298 -16 L330 -16 L529 669 L497 669 L351 168 L224 582 C214 617 233 647 269 646 L297 646 L297 660 L297 660 Z M429 860 C429 853 445 833 465 813 C494 775 585 689 585 689 L598 698 C598 698 553 820 524 858 C512 886 499 908 494 908 C476 908 429 873 429 860 L429 860 Z M648 -16 L701 181 L529 669 L469 461 L648 -16 L648 -16 Z " />
<glyph glyph-name="Wacute" unicode="&#x1e82;" horiz-adv-x="950" d="M452 690 C452 690 540 777 569 814 C588 835 604 855 604 861 C604 874 557 909 539 909 C535 909 523 887 510 859 C481 822 439 699 439 699 L452 690 L452 690 Z M947 660 L719 660 L719 647 L763 647 C799 647 820 619 810 583 L810 583 L648 -15 L680 -15 L850 591 C863 623 898 648 931 647 L947 647 L947 660 L947 660 Z M297 660 L-3 660 L-3 647 L7 647 C38 648 73 618 86 582 L298 -16 L330 -16 L529 669 L497 669 L351 168 L224 582 C214 617 233 647 269 646 L297 646 L297 660 L297 660 Z M648 -16 L701 181 L529 669 L469 461 L648 -16 L648 -16 Z " />
<glyph glyph-name="Wdieresis" unicode="&#x1e84;" horiz-adv-x="950" d="M609 730 C648 730 680 761 680 800 C680 839 648 871 609 871 C570 871 539 839 539 800 C539 761 570 730 609 730 L609 730 Z M417 730 C456 730 487 761 487 800 C487 839 456 871 417 871 C378 871 346 839 346 800 C346 761 378 730 417 730 L417 730 Z M947 660 L719 660 L719 647 L763 647 C799 647 820 619 810 583 L810 583 L648 -15 L680 -15 L850 591 C863 623 898 648 931 647 L947 647 L947 660 L947 660 Z M297 660 L-3 660 L-3 647 L7 647 C38 648 73 618 86 582 L298 -16 L330 -16 L529 669 L497 669 L351 168 L224 582 C214 617 233 647 269 646 L297 646 L297 660 L297 660 Z M648 -16 L701 181 L529 669 L469 461 L648 -16 L648 -16 Z " />
<glyph glyph-name="Etilde" unicode="&#x1ebc;" horiz-adv-x="638" d="M202 755 C202 786 215 811 231 811 C269 811 329 748 367 748 C411 748 447 809 447 885 L427 885 C427 852 411 825 392 825 C354 825 294 887 256 887 C215 887 182 828 182 755 L202 755 L202 755 Z M452 244 L452 450 L439 450 L437 438 C430 399 386 368 339 368 L250 368 L250 628 L378 628 C434 628 487 584 499 528 L508 486 L522 486 L522 660 L40 660 L40 647 L57 647 C93 648 122 619 122 583 L122 77 C122 41 93 12 57 13 L40 13 L40 0 L521 0 L524 16 C532 60 544 130 552 174 L538 174 L522 132 C500 77 439 32 383 32 L250 32 L250 336 L339 336 C387 336 430 301 437 258 L439 244 L452 244 L452 244 Z " />
<glyph glyph-name="Ygrave" unicode="&#x1ef2;" horiz-adv-x="642" d="M171 0 L463 0 L463 13 L446 13 C410 12 381 41 381 77 L381 337 L381 337 L535 583 C558 619 603 648 636 647 L647 647 L647 660 L428 660 L428 647 L453 647 C497 648 513 614 490 571 L361 361 L244 583 C226 618 238 648 274 647 L300 647 L300 660 L-5 660 L-5 647 L5 647 C33 648 72 618 93 583 L253 293 L253 77 C253 41 224 12 188 13 L171 13 L171 0 L171 0 Z M233 861 C233 854 249 834 269 814 C298 776 389 690 389 690 L402 699 C402 699 357 821 328 859 C316 887 303 909 298 909 C280 909 233 874 233 861 L233 861 Z " />
<glyph glyph-name="quoteleft" unicode="&#x2018;" horiz-adv-x="283" d="M139 342 C183 342 218 377 218 421 C218 473 167 516 112 496 C103 564 147 635 195 653 L189 670 C109 640 45 544 45 455 C45 402 83 342 139 342 L139 342 Z " />
<glyph glyph-name="quoteright" unicode="&#x2019;" horiz-adv-x="283" d="M139 665 C95 665 60 630 60 586 C60 534 111 491 166 511 C175 443 131 372 83 354 L89 337 C169 367 233 463 233 552 C233 605 195 665 139 665 L139 665 Z " />
<glyph glyph-name="quotedblleft" unicode="&#x201c;" horiz-adv-x="506" d="M362 342 C406 342 441 377 441 421 C441 473 390 516 335 496 C326 564 370 635 418 653 L412 670 C332 640 268 544 268 455 C268 402 306 342 362 342 L362 342 Z M139 342 C183 342 218 377 218 421 C218 473 167 516 112 496 C103 564 147 635 195 653 L189 670 C109 640 45 544 45 455 C45 402 83 342 139 342 L139 342 Z " />
<glyph glyph-name="quotedblright" unicode="&#x201d;" horiz-adv-x="506" d="M362 665 C318 665 283 630 283 586 C283 534 334 491 389 511 C398 443 354 372 306 354 L312 337 C392 367 456 463 456 552 C456 605 418 665 362 665 L362 665 Z M139 665 C95 665 60 630 60 586 C60 534 111 491 166 511 C175 443 131 372 83 354 L89 337 C169 367 233 463 233 552 C233 605 195 665 139 665 L139 665 Z " />
<glyph glyph-name="ellipsis" unicode="&#x2026;" horiz-adv-x="645" d="M538 0 C582 0 618 36 618 80 C618 124 582 160 538 160 C494 160 458 124 458 80 C458 36 494 0 538 0 L538 0 Z M323 0 C367 0 403 36 403 80 C403 124 367 160 323 160 C279 160 243 124 243 80 C243 36 279 0 323 0 L323 0 Z M108 0 C152 0 188 36 188 80 C188 124 152 160 108 160 C64 160 28 124 28 80 C28 36 64 0 108 0 L108 0 Z " />
<glyph glyph-name="perthousand" unicode="&#x2030;" horiz-adv-x="1089" d="M899 200 C899 278 907 341 916 341 C945 341 969 258 969 155 C969 87 957 32 942 32 C918 32 899 107 899 200 L899 200 Z M786 179 C786 77 851 -5 932 -5 C1012 -5 1077 84 1077 194 C1077 294 1012 375 932 375 C851 375 786 288 786 179 L786 179 Z M143 552 C143 629 151 691 161 691 C190 691 214 609 214 506 C214 438 202 383 187 383 C163 383 143 458 143 552 L143 552 Z M31 530 C31 427 96 345 177 345 C257 345 322 434 322 545 C322 645 257 725 177 725 C96 725 31 638 31 530 L31 530 Z M555 200 C555 278 567 341 582 341 C619 341 649 258 649 154 C649 86 631 32 608 32 C579 32 555 107 555 200 L555 200 Z M442 178 C442 76 511 -5 598 -5 C686 -5 757 84 757 194 C757 294 686 375 598 375 C511 375 442 287 442 178 L442 178 Z M203 -16 L649 704 L598 736 L151 16 L203 -16 L203 -16 Z " />
<glyph glyph-name="guilsinglleft" unicode="&#x2039;" horiz-adv-x="262" d="M129 252 L214 454 L202 466 L20 258 L20 245 L205 37 L217 50 L129 252 L129 252 Z " />
<glyph glyph-name="guilsinglright" unicode="&#x203a;" horiz-adv-x="262" d="M57 37 L242 245 L242 258 L60 466 L48 454 L133 252 L45 50 L57 37 L57 37 Z " />
<glyph glyph-name="fraction" unicode="&#x2044;" horiz-adv-x="463" d="M56 -16 L502 704 L451 736 L4 16 L56 -16 L56 -16 Z " />
<glyph glyph-name="Euro" unicode="&#x20ac;" horiz-adv-x="752" d="M692 446 L692 607 L684 593 L684 593 L692 607 C636 639 532 665 458 665 C299 665 165 570 117 437 L62 437 L50 355 L100 355 C99 339 99 322 100 306 L50 306 L38 224 L117 224 C165 91 299 -4 458 -4 C532 -4 636 22 692 54 L683 69 L683 69 L691 54 L691 215 L674 215 C672 205 667 188 665 178 C645 92 558 28 457 28 C363 28 284 109 253 224 L492 224 L504 306 L240 306 C239 322 239 339 240 355 L504 355 L515 437 L253 437 C284 552 363 633 457 633 C460 633 523 630 523 627 C586 617 650 553 666 483 C668 473 673 456 675 446 L692 446 L692 446 Z " />
<glyph glyph-name="F_sc" unicode="&#xa730;" horiz-adv-x="500" d="M43 540 L60 540 C96 541 125 512 125 476 L125 77 C125 41 96 12 60 13 L43 13 L43 0 L332 0 L332 13 L305 13 C269 12 240 41 240 77 L240 277 L282 277 C330 277 373 242 380 199 L382 185 L395 185 L395 387 L382 387 L380 375 C373 336 329 305 282 305 L240 305 L240 524 C276 524 323 524 370 524 C422 519 469 477 480 424 L489 382 L503 382 L503 552 L42 552 L43 540 L43 540 Z " />
<glyph glyph-name="S_sc" unicode="&#xa731;" horiz-adv-x="426" d="M339 345 L339 512 C295 538 241 558 218 558 C120 558 41 481 41 385 C41 328 95 261 163 235 C239 206 300 151 300 111 C300 61 246 14 183 26 C134 37 84 97 67 171 C65 181 60 198 58 208 L41 208 L41 41 L51 59 L51 59 L41 41 C85 15 156 -5 199 -5 C301 -5 382 68 382 159 C382 218 321 289 246 318 C177 344 122 395 122 431 C122 486 163 530 214 530 C214 530 221 529 221 528 C257 515 294 471 303 431 C309 407 317 369 323 345 L339 345 L339 345 Z " />
<glyph glyph-name="X_sc" unicode="&#xf078;" horiz-adv-x="605" d="M551 553 L327 553 L327 540 L372 540 C408 540 422 513 403 478 L331 345 L248 483 C231 516 244 542 278 541 L313 541 L313 554 L21 554 L21 541 L30 541 C59 542 99 513 121 477 L251 260 L250 260 L140 78 C118 42 72 12 36 13 L20 13 L20 0 L243 0 L243 13 L213 13 C171 12 155 44 175 84 L264 237 L364 70 C381 37 368 11 334 12 L299 12 L299 -1 L591 -1 L591 12 L582 12 C553 11 513 40 491 76 C442 158 392 240 344 321 L433 475 C454 511 499 541 535 540 L551 540 L551 553 L551 553 Z " />
</font>
</svg>
