<?xml version="1.0" encoding="UTF-8"?>
<svg xmlns="http://www.w3.org/2000/svg" xmlns:xlink="http://www.w3.org/1999/xlink" version="1.2" >
<font id="Hughe Round">
<font-face  font-family="Hughe" units-per-em="1024" ascent="936" descent="-280" font-style="normal" font-weight="400" font-stretch="normal" cap-height="932" x-height="468" underline-position="-125" underline-thickness="50" />
<missing-glyph  horiz-adv-x="100" d="" />
<glyph glyph-name="NULL" d="" />
<glyph glyph-name="CR" unicode="&#xd;" horiz-adv-x="256" d="" />
<glyph glyph-name="space" unicode="&#x20;" horiz-adv-x="240" d="" />
<glyph glyph-name="exclam" unicode="&#x21;" horiz-adv-x="215" d="M114 -5 C144 -5 168 19 168 49 C168 79 144 103 114 103 C84 103 60 79 60 49 C60 19 84 -5 114 -5 L114 -5 Z M155.184 612.371 C156.918 642.215 136.282 665 109 665 C80.725 665 61.0056 642.185 62.8179 612.312 C62.8195 612.285 63.0844 600.674 63.0848 600.648 C65.2712 474.595 109 178 109 178 C109 178 110.803 178 114 178 C116.743 178 118.753 175.852 119.066 178.577 C120.777 193.48 155 493 155 610 C155 610.048 155.181 612.323 155.184 612.371 L155.184 612.371 Z " />
<glyph glyph-name="quotedbl" unicode="&#x22;" horiz-adv-x="301" d="M173.515 612.761 L205.936 432.905 C206.514 429.697 209.741 427 213 427 C216.259 427 219.486 429.697 220.064 432.905 L252.485 612.761 C257.11 638.422 239.074 660 213 660 C186.926 660 168.89 638.422 173.515 612.761 L173.515 612.761 Z M48.2319 613.219 L79.8735 433.402 C80.4859 429.922 83.9665 427 87.5 427 C91.0335 427 94.5141 429.922 95.1265 433.402 L126.768 613.219 C131.243 638.65 113.322 660 87.5 660 C61.6782 660 43.7569 638.65 48.2319 613.219 L48.2319 613.219 Z " />
<glyph glyph-name="numbersign" unicode="&#x23;" horiz-adv-x="492" d="M352.799 656.162 L334.481 532.687 C330.942 508.834 307.949 489 283.835 489 L269.5 489 C237.559 489 214.897 515.272 219.585 546.867 L235.872 656.657 C237.034 664.488 231.417 671 223.5 671 C215.583 671 208.034 664.488 206.872 656.657 L188.481 532.687 C184.942 508.834 161.949 489 137.835 489 L96.2746 489 C80.2674 489 65.1872 475.857 63 460 C60.8128 444.143 72.2674 431 88.2746 431 L116.5 431 C147.894 431 170.165 405.177 165.553 374.124 L150.487 272.679 C146.945 248.831 123.952 229 99.8424 229 L55.2746 229 C39.2674 229 24.1872 215.857 22 200 C19.8128 184.143 31.2674 171 47.2746 171 L77 171 C109.224 171 132.127 144.505 127.465 112.621 L113.098 14.3475 C111.952 6.5114 117.581 0 125.5 0 C133.419 0 140.952 6.5114 142.098 14.3475 L158.597 127.207 C162.094 151.125 185.086 171 209.259 171 L223.5 171 C255.451 171 278.159 144.73 273.537 113.115 L259.17 14.8422 C257.985 6.73593 263.808 0 272 0 C280.192 0 287.985 6.73593 289.17 14.8422 L305.597 127.207 C309.094 151.125 332.086 171 356.259 171 L388.653 171 C404.66 171 420.046 184.182 422.5 200 C424.954 215.818 413.66 229 397.653 229 L373.5 229 C344.29 229 323.568 253.026 327.859 281.92 L343.513 387.321 C347.055 411.169 370.048 431 394.158 431 L434.725 431 C450.733 431 465.813 444.143 468 460 C470.187 475.857 458.733 489 442.725 489 L415 489 C383.878 489 361.798 514.598 366.365 545.383 L382.799 656.162 C384.001 664.264 378.19 671 370 671 C361.81 671 354.001 664.264 352.799 656.162 L352.799 656.162 Z M247.158 431 L261.5 431 C293.44 431 316.098 404.728 311.406 373.135 L296.487 272.679 C292.945 248.831 269.952 229 245.842 229 L231.5 229 C199.56 229 176.902 255.272 181.594 286.865 L196.513 387.321 C200.055 411.169 223.048 431 247.158 431 L247.158 431 Z " />
<glyph glyph-name="dollar" unicode="&#x24;" horiz-adv-x="470" d="M41 192.369 L41 62.6078 C41 52.3671 47.4421 40.0979 56.6757 35.6694 C81.9916 23.5278 114.916 13.0948 148.684 5.9082 C161.377 3.20687 175 -11.341 175 -24.318 L175 -62.5 C175 -69.3996 180.6 -75 187.5 -75 C194.4 -75 200 -69.3996 200 -62.5 L200 -12.5525 C200 -7.39263 204.212 -3.45841 209.352 -3.90741 C221.648 -4.98148 233.352 -5.46296 245.648 -4.75926 C250.658 -4.47255 255 -8.53448 255 -13.5525 L255 -62.5 C255 -69.3996 260.6 -75 267.5 -75 C274.4 -75 280 -69.3996 280 -62.5 L280 -37.5 C280 -22.158 301.748 5.43772 315.794 11.61 C380.205 39.915 425 102.9 425 176 C425 232.875 376.766 298.172 309.773 338.395 C298.016 345.454 280 373.355 280 387.068 L280 613.663 C280 623.557 286.327 629.128 294.523 623.585 C321.228 605.522 343.2 575.9 350 547 C355.538 524.846 362.781 489.059 368.582 464.808 C369.654 460.323 373.889 459 378.5 459 C383.192 459 387 462.808 387 467.5 L387 598.077 C387 607.406 380.727 619.684 372.429 623.948 C348.881 636.049 321.609 646.803 296.101 654.494 C287.341 657.136 280 667.92 280 677.069 L280 723.5 C280 730.4 274.4 736 267.5 736 C260.6 736 255 730.4 255 723.5 L255 673.618 C255 668.592 250.644 664.708 245.648 665.25 C233.352 666.583 221.648 666.583 209.352 665.25 C204.356 664.708 200 668.592 200 673.618 L200 724.5 C200 731.4 194.4 737 187.5 737 C180.6 737 175 731.4 175 724.5 L175 695.22 C175 680.763 155.78 651.136 143.165 644.075 C86.015 612.085 47 549.1 47 476 C47 425.25 89.1094 366.078 148.541 327.291 C159.273 320.287 175 293.365 175 280.55 L175 58.5182 C175 43.4246 165.583 34.979 152.986 43.294 C112.475 70.035 78.9 115.85 67 166 C65.3529 175.059 61.6713 187.509 59.3061 197.764 C58.6453 200.63 55.3906 203.54 52.4949 203.029 L49.5 202.5 C44.8796 201.685 41 197.06 41 192.369 L41 192.369 Z M200 29.0828 L200 291.876 C200 297.221 203.8 300.619 208.762 298.631 C221.883 293.375 234.857 287.234 247.019 280.541 C251.337 278.164 255 271.067 255 266.138 L255 27.5664 C255 23.1586 252.424 19.604 248.029 19.2691 C235.845 18.3407 224.632 19.3158 212 21 L206 22 C202.733 22.5445 200 25.7709 200 29.0828 L200 29.0828 Z M200 403.862 L200 632.692 C200 638.775 203.262 643.942 209.261 644.947 C221.965 647.077 233.17 646.579 246.336 644.085 C252.367 642.942 256 637.345 256 631.206 L256 376.308 C256 371.005 252.384 367.51 247.532 369.651 C234.104 375.578 220.648 382.174 208.21 389.092 C203.936 391.469 200 398.97 200 403.862 L200 403.862 Z M154.873 426.757 C124.057 453.736 105 483.25 105 508 C105 553.375 124.738 593.305 155.23 618.244 C165.239 626.43 176 621.224 176 608.293 L176 436.505 C176 424.084 164.218 418.575 154.873 426.757 L154.873 426.757 Z M306.203 238.37 C343.178 206.526 367 170.7 367 141 C367 95.625 342.498 55.695 305.846 33.5633 C292.291 25.3781 281 32.5706 281 48.4055 L281 226.787 C281 241.54 295.025 247.997 306.203 238.37 L306.203 238.37 Z " />
<glyph glyph-name="percent" unicode="&#x25;" horiz-adv-x="762" d="M104 546 C104 633 129 703 161 703 C205 703 241 620 241 516 C241 435 213 370 178 370 C137 370 104 448 104 546 L104 546 Z M30 532 C30 428 93 345 171 345 C249 345 312 433 312 542 C312 644 249 725 171 725 C93 725 30 639 30 532 L30 532 Z M529 195 C529 283 557 353 591 353 C640 353 680 269 680 165 C680 84 648 19 608 19 C564 19 529 97 529 195 L529 195 Z M455 180 C455 77 520 -5 601 -5 C684 -5 750 82 750 190 C750 293 684 375 601 375 C520 375 455 288 455 180 L455 180 Z M198.16 6.40192 L623.84 693.598 C629.448 702.651 626.607 714.481 617.5 720 C608.393 725.519 596.448 722.651 590.84 713.598 L165.16 26.4019 C159.552 17.349 162.393 5.51944 171.5 0 C180.607 -5.51944 192.552 -2.65102 198.16 6.40192 L198.16 6.40192 Z " />
<glyph glyph-name="ampersand" unicode="&#x26;" horiz-adv-x="696" d="M610.917 300 L443.5 300 C439.912 300 437 297.088 437 293.5 C437 289.912 439.912 287 443.5 287 L454 287 C490 288 519 259 519 223 L519 193 C519 170.629 512.821 149.63 502.17 130.574 C498.337 123.715 491.153 122.702 485.579 128.241 C456.95 156.69 425 191.7 389 234 C359.3 269.475 331.642 306.992 307.71 343.743 C300.817 354.329 305.363 370.492 316.986 375.441 C386.97 405.24 438 474 438 546 C438 613 377 666 300 666 C223 666 162 593 162 503 C162 476.6 177.654 433.184 203.909 382.86 C212.107 367.148 201.495 340.426 186.143 331.572 C105.656 285.156 49 216.25 49 155 C49 67 138 -4 248 -4 C321.95 -4 388.675 14.785 438.963 46.2137 C450.503 53.4261 479.045 52.9758 490.501 45.631 C566.372 -3.01025 630.07 -9.46556 688.964 0.138109 C692.514 0.717092 694 3.90255 694 7.5 C694 10.8653 690.945 13.4821 687.6 13.1211 C648.576 8.91138 598.05 24.5061 518.525 95.6264 C512.629 100.9 509.837 115.019 513.704 121.92 C526.194 144.211 533 168.425 533 194 L533 224 C533 260 562 289 598 288 L608.917 288 C612.229 288 615.456 290.733 616 294 C616.544 297.267 614.229 300 610.917 300 L610.917 300 Z M218 536 C218 599 252 650 294 650 C341 650 379 602 379 542 C379 479.1 349.378 420.535 307.328 391.484 C290.27 379.699 279.907 385.368 269.68 403.402 C237.906 459.43 218 508.375 218 535.5 L218 536 Z M428.568 63.1627 C390.065 42.2825 341.7 30 289 30 C195 30 119 99 119 184 C119 233 154.219 285.828 205.898 322.387 C219.523 332.025 235.835 325.609 244.847 311.562 C270.692 271.272 300.825 229.775 333 191 C367.85 149.35 400.894 115.647 431.517 89.2784 C440.915 81.1864 439.469 69.0747 428.568 63.1627 L428.568 63.1627 Z " />
<glyph glyph-name="quotesingle" unicode="&#x27;" horiz-adv-x="175" d="M48.2319 613.219 L79.8735 433.402 C80.4859 429.922 83.9665 427 87.5 427 C91.0335 427 94.5141 429.922 95.1265 433.402 L126.768 613.219 C131.243 638.65 113.322 660 87.5 660 C61.6782 660 43.7569 638.65 48.2319 613.219 L48.2319 613.219 Z " />
<glyph glyph-name="parenleft" unicode="&#x28;" horiz-adv-x="219" d="M194.181 682.93 C118.939 589.776 60 448.425 60 270 C60 91.575 118.939 -49.7756 194.181 -142.93 C196.306 -145.56 201.973 -148.247 204.5 -146 C206.896 -143.87 207.187 -139.875 205.196 -137.363 C156.025 -75.2963 118 56.475 118 270 C118 483.525 156.025 615.296 205.196 677.363 C207.187 679.875 206.896 683.87 204.5 686 C201.973 688.247 196.306 685.56 194.181 682.93 L194.181 682.93 Z " />
<glyph glyph-name="parenright" unicode="&#x29;" horiz-adv-x="219" d="M15.8193 -142.93 C91.0613 -49.7756 150 91.575 150 270 C150 448.425 91.0613 589.776 15.8193 682.93 C13.6945 685.56 8.02739 688.247 5.5 686 C3.10431 683.87 2.81349 679.875 4.80392 677.363 C53.975 615.296 92 483.525 92 270 C92 56.475 53.975 -75.2963 4.80392 -137.363 C2.81349 -139.875 3.10431 -143.87 5.5 -146 C8.02739 -148.247 13.6945 -145.56 15.8193 -142.93 L15.8193 -142.93 Z " />
<glyph glyph-name="asterisk" unicode="&#x2a;" horiz-adv-x="288" d="M265 580 C281 585 287 601 279 615 C271 628 255 631 242 620 L197.5 582.5 C181.707 569.191 159.432 581.986 162.971 602.333 L173 660 C180 698 120 698 127 661 L137.029 603.333 C140.568 582.986 118.293 570.191 102.5 583.5 L58 621 C45 632 29 629 21 616 C13 602 19 586 35 581 L89.5 561 C108.958 553.859 108.958 528.141 89.5 521 L35 501 C-2 489 28 436 58 461 L102.5 498.5 C118.293 511.809 140.568 499.014 137.029 478.667 L127 421 C120 383 180 383 173 420 L162.971 477.667 C159.432 498.014 181.707 510.809 197.5 497.5 L242 460 C272 435 302 489 265 500 L210.5 520 C191.042 527.141 191.042 552.859 210.5 560 L265 580 L265 580 Z " />
<glyph glyph-name="plus" unicode="&#x2b;" horiz-adv-x="518" d="M238 413.5 L238 318.2 C238 289.939 215.061 267 186.8 267 L92 267 C82.6165 267 75 259.383 75 250 C75 240.617 82.6165 233 92 233 L186.8 233 C215.061 233 238 210.061 238 181.8 L238 87.5 C238 77.2886 246.289 69 256.5 69 C266.711 69 275 77.2886 275 87.5 L275 181.8 C275 210.061 297.939 233 326.2 233 L421 233 C430.383 233 438 240.617 438 250 C438 259.383 430.383 267 421 267 L326.2 267 C297.939 267 275 289.939 275 318.2 L275 413.5 C275 423.711 266.711 432 256.5 432 C246.289 432 238 423.711 238 413.5 L238 413.5 Z " />
<glyph glyph-name="comma" unicode="&#x2c;" horiz-adv-x="228" d="M153 87 C120 121 60 97 60 49 C60 19 84 -5 114 -5 C117.889 -5 121.778 -1.97531 126.137 2.66255 C127.565 4.18109 130.455 5.27465 130.895 3.23761 C140.954 -43.309 115.055 -94.8396 84.0651 -114.156 C81.7446 -115.602 79 -120.766 79 -123.5 C79 -126.786 80.2033 -129.445 83.1039 -127.901 C136.173 -99.6556 178 -34.55 178 22 C178 44 167 73 153 87 L153 87 Z " />
<glyph glyph-name="hyphen" unicode="&#x2d;" horiz-adv-x="231" d="M49 206 L182 206 C198.007 206 211 218.993 211 235 C211 251.007 198.007 264 182 264 L49 264 C32.9929 264 20 251.007 20 235 C20 218.993 32.9929 206 49 206 L49 206 Z " />
<glyph glyph-name="period" unicode="&#x2e;" horiz-adv-x="239" d="M125 -5 C155 -5 179 19 179 49 C179 79 155 103 125 103 C95 103 71 79 71 49 C71 19 95 -5 125 -5 L125 -5 Z " />
<glyph glyph-name="slash" unicode="&#x2f;" horiz-adv-x="343" d="M16.5 -145 C25.0621 -145 35.7057 -137.537 38.6242 -129.488 L337.376 694.488 C340.294 702.537 335.062 710 326.5 710 C317.938 710 307.294 702.537 304.376 694.488 L5.62419 -129.488 C2.70572 -137.537 7.93791 -145 16.5 -145 L16.5 -145 Z " />
<glyph glyph-name="zero" unicode="0" horiz-adv-x="568" d="M133 250 C133 382 200 488 284 488 C368 488 435 382 435 250 C435 118 368 12 284 12 C200 12 133 118 133 250 L133 250 Z M50 250 C50 108 154 -5 284 -5 C414 -5 518 108 518 250 C518 392 414 505 284 505 C154 505 50 392 50 250 L50 250 Z " />
<glyph glyph-name="one" unicode="1" horiz-adv-x="348" d="M287.5 13 L277 13 C241 12 212 41 212 77 L212 423 C212 459 241 488 277 487 L287.5 487 C291.088 487 294 489.912 294 493.5 C294 497.088 291.088 500 287.5 500 L61.5 500 C57.9122 500 55 497.088 55 493.5 C55 489.912 57.9122 487 61.5 487 L72 487 C108 488 137 459 137 423 L137 77 C137 41 108 12 72 13 L61.5 13 C57.9122 13 55 10.0878 55 6.5 C55 2.91219 57.9122 0 61.5 0 L287.5 0 C291.088 0 294 2.91219 294 6.5 C294 10.0878 291.088 13 287.5 13 L287.5 13 Z " />
<glyph glyph-name="two" unicode="2" horiz-adv-x="446" d="M407.646 150.99 L407 140 C405 104 373 75 337 75 L224.979 75 C196.758 75 185.645 110.657 208.538 127.16 C318.492 206.429 392 274.45 392 352 C392 437 327 506 247 506 C183.625 506 106.941 444.209 72.5603 365.117 C71.4013 362.451 71.9586 357.912 74.5 356.5 C76.8964 355.169 79.6024 355.524 80.7168 358.029 C103.896 410.123 160.275 451 210 451 C265 451 309 396 309 327 C309 195.375 188.271 131.244 35.7904 26.1656 C32.5908 23.9606 24 13.3858 24 9.5 C24 4.80825 27.8083 1 32.5 1 L388.439 1 C398.651 1 407.675 9.32196 408.5 19.5 L410 38 C412.923 70.1538 416.796 122.245 419.767 155.421 C420.059 158.677 417.258 157.772 414 157.5 C410.721 157.227 407.84 154.274 407.646 150.99 L407.646 150.99 Z " />
<glyph glyph-name="three" unicode="3" horiz-adv-x="424" d="M39.4751 -213.91 C226.653 -197.29 374 -85.75 374 41 C374 118.35 308.253 182.695 217.904 202.715 C205.025 205.568 205.377 229.142 216.571 236.121 C288.037 280.671 335 333.1 335 376 C335 447 278 504 207 504 C139.725 504 54.3881 449.814 13.089 380.371 C11.5938 377.857 11.943 373.921 14.5 372.5 C16.8866 371.174 19.5114 370.963 20.9511 373.283 C47.295 415.728 111.45 449 168 449 C219 449 260 406 260 352 C260 296 191 229 100 192 L74.147 183.113 C70.9383 182.01 68 177.893 68 174.5 C68 171.27 73.2014 169.973 76.263 171.002 C183.826 207.137 296 131.55 296 36 C296 -88 175 -196 25 -205 C22.25 -205.165 25 -207.245 25 -210 C25 -212.824 36.6623 -214.16 39.4751 -213.91 L39.4751 -213.91 Z " />
<glyph glyph-name="four" unicode="4" horiz-adv-x="433" d="M15 7.69884 L15 6 C15 2.68818 17.6882 0 21 0 L207.8 0 C236.061 0 259 -22.9391 259 -51.2 L259 -112.5 C259 -133.199 275.801 -150 296.5 -150 C317.199 -150 334 -133.199 334 -112.5 L334 -44.5 C334 -19.9373 353.937 0 378.5 0 L406.5 0 C415.608 0 423 7.39249 423 16.5 C423 25.6075 415.608 33 406.5 33 L378.5 33 C353.937 33 334 52.9373 334 77.5 L334 499 C334 502.312 331.312 505 328 505 C325.166 505 318.672 499.276 317.237 496.832 C254.396 389.844 43.1464 56.0711 17.4823 16.2915 C16.8408 15.2973 15 8.88196 15 7.69884 L15 7.69884 Z M74.329 70.1451 C122.447 148.02 201.2 275.35 259 368 C259.464 368.744 259 365.876 259 365 L259 362 L259 85.2 C259 56.9391 236.061 34 207.8 34 L91.9625 34 C73.1936 34 64.4632 54.1784 74.329 70.1451 L74.329 70.1451 Z " />
<glyph glyph-name="five" unicode="5" horiz-adv-x="409" d="M75.5 202 L79.4773 202 C82.5132 202 85.2251 204.477 85.5 207.5 C85.525 207.775 86 207.753 86 207.477 L86 207 C86 203.688 88.6882 201 92 201 L109 201 C207 201 285 134 285 51 C285 -62.1 177.579 -159.039 41.5212 -169.377 C38.0507 -169.64 31.2331 -173.03 31.5 -176.5 C31.7843 -180.196 41.8838 -182.474 45.5808 -182.201 C221.209 -169.237 360 -56.6 360 76 C360 187 265 276 146 276 L114.593 276 C102.794 276 93.7779 284.277 94.7966 296.032 C97.4814 327.011 100.098 361.772 102.338 394.778 C103.213 407.664 114.632 420 127.548 420 L320.199 420 C323.778 420 327.946 423.082 329.005 426.5 C332.361 437.333 335.833 448.167 340 459 C350.718 492.128 368.082 544.244 379.14 578.346 C380.194 581.595 376.915 581 373.5 581 C370.117 581 365.963 578.061 364.837 574.871 L361 564 C350 528 312 499 276 499 L125.5 499 C103.459 499 83.7999 475.967 82.9672 453.941 C79.2825 356.476 67 201.5 67 201.5 C67 201.5 70.6554 202 75.5 202 L75.5 202 Z " />
<glyph glyph-name="six" unicode="6" horiz-adv-x="532" d="M446.508 714.068 C233.211 697.676 64 515.4 64 297 C64 129 157 -5 273 -5 C395 -5 488 93 482 216 C482 334 401 429 301 429 C236.65 429 180.856 386.222 153.081 321.983 C152.837 321.418 151 319.384 151 320 L151 323 C151 528 290 698 463 704 C466.032 704.105 463 706.466 463 709.5 C463 712.652 449.651 714.31 446.508 714.068 L446.508 714.068 Z M288 409 C352 409 403 322 403 213 C409 104 354 17 281 17 C207 17 149.5 111 150.5 229 C150.5 329 212.5 409 288.5 409 L288 409 Z " />
<glyph glyph-name="seven" unicode="7" horiz-adv-x="403" d="M29.3817 347.489 L30 358 C32 394 64 423 100 423 L279.116 423 C318.884 423 342.072 387.274 325.879 350.952 L124.102 -101.64 C115.48 -120.979 127.826 -140 149 -140 L153.539 -140 C173.232 -140 195.087 -127.124 201.057 -108.357 C264.797 92.005 329.35 291.6 393 493 C393.572 494.81 391.603 494.956 390.5 496.5 C389.377 498.072 385.631 500 383.699 500 L49.0804 500 C38.593 500 29.2119 491.443 28.25 481 L26.5 462 C23.5769 428.872 19.2298 377.705 16.2337 343.652 C15.9205 340.093 18.9269 341 22.5 341 C26.0816 341 29.1714 343.913 29.3817 347.489 L29.3817 347.489 Z " />
<glyph glyph-name="eight" unicode="8" horiz-adv-x="502" d="M340.356 370 C388.17 400.984 420.5 457.95 420.5 519 C420.5 601 346 666 253 666 C160 666 85 589 85 494 C85 437.9 116.989 379.758 164.123 340.35 C173.179 332.779 172.465 311.342 161.606 306.713 C99.905 280.407 58 226.9 58 164 C58 71 146 -3 255 -3 C364 -3 452 78 452 178 C452 234.875 405.297 296.727 338.018 338.098 C328.365 344.033 330.847 363.838 340.356 370 L340.356 370 Z M292.921 361.917 C282.667 366.639 271.833 370.667 261 374 C198 393 148 460 148 524 C148 594 193 651 249 651 C309 651 358 587 358 508 C358 443.4 335.438 385.569 304.031 362.8 C301.216 360.759 296.079 360.463 292.921 361.917 L292.921 361.917 Z M129 176 C129 236.45 160.371 288.344 204.575 310.365 C206.769 311.459 210.07 310.962 212.289 309.918 C220.878 305.878 229.571 302.571 239 300 C318 276 382 211 382 154 C382 76 327 14 259 14 C187 14 129 86.5 129 176.5 L129 176 Z " />
<glyph glyph-name="nine" unicode="9" horiz-adv-x="532" d="M85.4923 -214.068 C298.789 -197.676 468 -15.4 468 203 C468 371 375 505 259 505 C137 505 44 407 50 284 C50 166 131 71 231 71 C295.35 71 351.144 113.778 378.919 178.017 C379.163 178.582 381 180.616 381 180 L381 177 C381 -28 242 -198 69 -204 C65.9678 -204.105 69 -206.466 69 -209.5 C69 -212.652 82.3493 -214.31 85.4923 -214.068 L85.4923 -214.068 Z M244 91 C180 91 129 178 129 287 C123 396 178 483 251 483 C325 483 382.5 389 381.5 271 C381.5 171 319.5 91 243.5 91 L244 91 Z " />
<glyph glyph-name="colon" unicode="&#x3a;" horiz-adv-x="239" d="M125 383 C155 383 179 407 179 438 C179 468 155 492 125 492 C95 492 71 468 71 438 C71 407 95 383 125 383 L125 383 Z M125 -5 C155 -5 179 19 179 49 C179 79 155 103 125 103 C95 103 71 79 71 49 C71 19 95 -5 125 -5 L125 -5 Z " />
<glyph glyph-name="semicolon" unicode="&#x3b;" horiz-adv-x="228" d="M114 383 C144 383 168 407 168 437 C168 467 144 491 114 491 C84 491 60 467 60 437 C60 407 84 383 114 383 L114 383 Z M153 87 C120 121 60 97 60 49 C60 19 84 -5 114 -5 C117.889 -5 121.778 -1.97531 126.137 2.66255 C127.565 4.18109 130.455 5.27465 130.895 3.23761 C140.954 -43.309 115.055 -94.8396 84.0651 -114.156 C81.7446 -115.602 79 -120.766 79 -123.5 C79 -126.786 80.2033 -129.445 83.1039 -127.901 C136.173 -99.6556 178 -34.55 178 22 C178 44 167 73 153 87 L153 87 Z " />
<glyph glyph-name="less" unicode="&#x3c;" horiz-adv-x="501" d="M410.125 491.516 L48 298 C46 298 42 294 40 294 L40 262.472 C40 260.264 42.0252 256.987 44 256 L48 254 L409.28 59.0237 C417.401 54.6405 426 59.7708 426 69 C426 78.2737 417.399 92.5419 409.199 96.8725 L155.733 230.725 C116.651 251.364 116.651 300.636 155.733 321.275 L410.083 455.594 C417.852 459.697 426 473.214 426 482 C426 490.763 417.853 495.646 410.125 491.516 L410.125 491.516 Z " />
<glyph glyph-name="equal" unicode="&#x3d;" horiz-adv-x="494" d="M82 200 C82 190.617 89.6165 183 99 183 L407 183 C416.383 183 424 190.617 424 200 C424 209.383 416.383 217 407 217 L99 217 C89.6165 217 82 209.383 82 200 L82 200 Z M82 300 C82 290.617 89.6165 283 99 283 L407 283 C416.383 283 424 290.617 424 300 C424 309.383 416.383 317 407 317 L99 317 C89.6165 317 82 309.383 82 300 L82 300 Z " />
<glyph glyph-name="greater" unicode="&#x3e;" horiz-adv-x="493" d="M93.8929 60.5071 C207.21 123.59 319.838 187.362 433.965 249.635 C441.18 253.573 453 268.78 453 277 L453 294 C450 294 446 299 443 299 L91.2174 492.098 C83.3704 496.405 75 491.452 75 482.5 C75 473.511 83.3724 459.488 91.2857 455.224 L338.364 322.072 C376.923 301.292 376.923 252.708 338.364 231.928 L92.6062 99.488 C84.0513 94.8778 75 79.7181 75 70 C75 60.3449 85.4569 55.8108 93.8929 60.5071 L93.8929 60.5071 Z " />
<glyph glyph-name="question" unicode="&#x3f;" horiz-adv-x="331" d="M128 -5 C158 -5 182 19 182 49 C182 79 158 103 128 103 C98 103 74 79 74 49 C74 19 98 -5 128 -5 L128 -5 Z M111 665 C71 665 39 637 39 602 C39 586 55 574 75 574 C92 574 118 606 135 606 C215 606 279 533 279 442 C279 418 251 371 155 371 L120 371 C112 371 106 366 107 360 L122.55 187.98 C122.797 185.242 125.251 183 128 183 C130.746 183 133.223 185.243 133.494 187.976 L144.272 296.586 C145.221 306.151 153.888 314 163.5 314 L181 314 C270 314 296 393 296 433 C296 562 214 665 111 665 L111 665 Z " />
<glyph glyph-name="at" unicode="&#x40;" horiz-adv-x="1098" d="M981.187 -9.84816 C915.56 -137.184 731.675 -237 563 -237 C314 -237 114 -16 114 259 C114 534 308 755 549 755 C790 755 984 572 984 343 C984 156 904 6 804 6 C713 6 662 92 689 200 L750.39 445.56 C755.001 464.002 742.51 480 723.5 480 C704.463 480 684.099 464.006 679.588 445.511 L674.526 424.757 C672.867 417.956 660.751 418.135 657.481 424.324 C636.974 463.136 598.55 489 554 489 C401 489 278 357 278 192 C278 90 350 9 439 9 C495.1 9 551.881 42.3506 590.812 92.2064 C597.24 100.438 617.952 98.9716 621.388 89.109 C644.397 23.0725 707 -21 792 -21 C932 -21 1044 140 1044 341 C1044 581 824 774 550 774 C276 774 56 544 56 257 C56 -30 282 -260 564 -260 C741.45 -260 935.061 -150.678 1006.73 -12.6711 C1009.92 -6.52957 1005.9 -1.53077 999 -1 C992.687 -0.5144 984.088 -4.22019 981.187 -9.84816 L981.187 -9.84816 Z M656.471 347.885 L619 198 C598 115 535 49 477 49 C412 49 360 119 360 206 C360 351 445 467 552 467 C609.525 467 655.642 419.469 657.912 358.7 C657.954 357.582 656.743 348.971 656.471 347.885 L656.471 347.885 Z " />
<glyph glyph-name="A" unicode="A" horiz-adv-x="634" d="M5 0 L214.5 0 C218.088 0 221 2.91219 221 6.5 C221 10.0878 218.088 13 214.5 13 L188 13 C144 12 120 49 133 93 L166.724 200.169 C172.661 219.035 195.786 236 215.563 236 L355.609 236 C374.579 236 397.727 219.548 403.964 201.632 L447 78 C460 42 441 14 405 14 L368.5 14 C364.912 14 362 11.0878 362 7.5 C362 3.91219 364.912 1 368.5 1 L625.5 1 C629.088 1 632 3.91219 632 7.5 L632 8.5 C632 11.5358 629.536 14 626.5 14 L621 14 C588 14 549.5 42 536.5 78 L318.647 666.154 C316.759 671.25 309.935 676 304.5 676 C298.984 676 292.471 671.257 290.779 666.006 L100 74 C87 40 50 13 15 14 L5 14 C1.13621 14 -2 10.8638 -2 7 C-2 3.13621 1.13621 0 5 0 L5 0 Z M311.992 257 L253.779 257 C217.038 257 193.914 288.516 204.939 323.564 L232.59 411.465 C247.876 460.057 313.063 461.03 329.791 412.916 L360.353 325.014 C372.681 289.554 349.534 257 311.992 257 L311.992 257 Z " />
<glyph glyph-name="B" unicode="B" horiz-adv-x="586" d="M50.5 647 L61 647 C97 648 126 619 126 583 L126 77 C126 41 97 12 61 13 L50.5 13 C46.9122 13 44 10.0878 44 6.5 C44 2.91219 46.9122 0 50.5 0 L331 0 C461 0 566 81 566 182 C566 257.25 498.625 321.016 402.73 347.17 C394.49 349.417 396.278 367.034 404.138 370.377 C469.121 398.017 512 448.425 512 507 C512 592 421 660 308 660 L50.5 660 C46.9122 660 44 657.088 44 653.5 C44 649.912 46.9122 647 50.5 647 L50.5 647 Z M209 399.503 L209 589.5 C209 616.823 231.177 639 258.5 639 L308 639 C375 639 429 580 429 507 C429 425 366 359 288 359 L248.5 359.5 C226.699 359.776 209 377.7 209 399.503 L209 399.503 Z M245.5 343 L282 343 C391 343 479 271 479 182 C479 93 409 21 322 21 L260.2 21 C231.939 21 209 43.9391 209 72.2 L209 306.5 C209 326.647 225.353 343 245.5 343 L245.5 343 Z " />
<glyph glyph-name="C" unicode="C" horiz-adv-x="673" d="M594.694 199.764 C592.329 189.509 588.647 177.059 587 168 C570 96 497 32 419 19 C403 17 388 16 374 16 C247 16 145 156 145 330 C145 504 247 644 374 644 C397 644 423 641 450 636 C511 622 571 559 586 491 C587.647 481.941 591.329 469.491 593.694 459.236 C594.338 456.443 597.724 453 600.59 453 L603.5 453 C608.192 453 612 456.808 612 461.5 L612 573.224 C612 590.097 598.43 610.636 582.987 617.435 C523.175 643.77 437.75 664 374 664 C196 664 53 515 53 329 C53 143 196 -6 374 -6 C437.75 -6 523.898 13.5075 583.927 39.6259 C599.502 46.4026 613 66.7904 613 83.7762 L613 196.485 C613 201.177 609.184 205.224 604.5 205.5 L601.581 205.672 C598.684 205.842 595.346 202.592 594.694 199.764 L594.694 199.764 Z " />
<glyph glyph-name="D" unicode="D" horiz-adv-x="682" d="M50.5 647 L61 647 C97 648 126 619 126 583 L126 77 C126 41 97 12 61 13 L50.5 13 C46.9122 13 44 10.0878 44 6.5 C44 2.91219 46.9122 0 50.5 0 L332 0 C499 0 632 147 632 330 C632 513 485 660 301 660 L50.5 660 C46.9122 660 44 657.088 44 653.5 C44 649.912 46.9122 647 50.5 647 L50.5 647 Z M209 72.2 L209 593 C209 618.391 229.609 639 255 639 L301 639 C439 639 549 501 549 330 C549 159 452 21 332 21 L260.2 21 C231.939 21 209 43.9391 209 72.2 L209 72.2 Z " />
<glyph glyph-name="E" unicode="E" horiz-adv-x="593" d="M407 256.5 L407 437.5 C407 441.088 404.088 444 400.5 444 L400.083 444 C396.771 444 393.544 441.267 393 438 L392 432 C385 393 341 362 294 362 L249.5 362 C224.937 362 205 381.937 205 406.5 L205 587.8 C205 616.061 227.939 639 256.2 639 L328 639 C384 639 437 595 449 539 L456.533 503.845 C457.325 500.15 461.222 497 465 497 C468.864 497 472 500.136 472 504 L472 608.8 C472 637.061 449.061 660 420.8 660 L46.5 660 C42.9122 660 40 657.088 40 653.5 C40 649.912 42.9122 647 46.5 647 L57 647 C93 648 122 619 122 583 L122 77 C122 41 93 12 57 13 L46.5 13 C42.9122 13 40 10.0878 40 6.5 C40 2.91219 42.9122 0 46.5 0 L469.901 0 C472.661 0 475.459 2.29374 476 5 L477 10 C483.821 50.9231 496.337 117.479 503.45 159.717 C504.084 163.481 500.817 163 497 163 C493.389 163 488.793 159.833 487.508 156.459 L474 121 C452 66 391 21 335 21 L256.2 21 C227.939 21 205 43.9391 205 72.2 L205 297.5 C205 322.063 224.937 342 249.5 342 L294 342 C342 342 385 307 392 264 L393.081 256.435 C393.583 252.919 396.948 250 400.5 250 C404.088 250 407 252.912 407 256.5 L407 256.5 Z " />
<glyph glyph-name="F" unicode="F" horiz-adv-x="502" d="M46.5 647 L57 647 C93 648 122 619 122 583 L122 77 C122 41 93 12 57 13 L46.5 13 C42.9122 13 40 10.0878 40 6.5 C40 2.91219 42.9122 0 46.5 0 L290.5 0 C294.088 0 297 2.91219 297 6.5 C297 10.0878 294.088 13 290.5 13 L270 13 C234 12 205 41 205 77 L205 297.5 C205 319.303 222.697 337 244.5 337 L284 337 C332 337 375 302 382 259 L383.081 251.435 C383.583 247.919 386.948 245 390.5 245 C394.088 245 397 247.912 397 251.5 L397 432.5 C397 436.088 394.088 439 390.5 439 L390.083 439 C386.771 439 383.544 436.267 383 433 L382 427 C375 388 331 357 284 357 L244.5 357 C222.697 357 205 374.697 205 396.5 L205 587.8 C205 616.061 227.939 639 256.2 639 L358 639 C414 639 467 595 479 539 L486.533 503.845 C487.325 500.15 491.222 497 495 497 C498.864 497 502 500.136 502 504 L502 608.8 C502 637.061 479.061 660 450.8 660 L46.5 660 C42.9122 660 40 657.088 40 653.5 C40 649.912 42.9122 647 46.5 647 L46.5 647 Z " />
<glyph glyph-name="G" unicode="G" horiz-adv-x="777" d="M594 463 L594 595 L594 600 C594 602.48 591.748 606.279 589.569 607.463 C530.921 639.333 432.275 665 365 665 C192 665 54 516 54 330 C54 144 192 -5 365 -5 C428 -5 515.5 15.6719 575.916 43.6172 C590.798 50.5007 600 69.1914 600 85.588 L600 233 C600 269 629 298 665 297 L675.5 297 C679.088 297 682 299.912 682 303.5 C682 307.088 679.088 310 675.5 310 L449.5 310 C445.912 310 443 307.088 443 303.5 C443 299.912 445.912 297 449.5 297 L460 297 C496 298 525 269 525 233 L525 73.5136 C525 58.1008 511.805 41.4079 496.996 37.1334 C452.079 24.1675 403.775 16 365 16 C243 16 146 156 146 330 C146 504 243 644 365 644 C385 644 408 641 432 637 C493 622 552 559 567 492 C568.647 482.941 572.329 470.491 574.694 460.236 C575.338 457.443 578.724 454 581.59 454 L585 454 C589.968 454 594 458.032 594 463 L594 463 Z " />
<glyph glyph-name="H" unicode="H" horiz-adv-x="751" d="M705.5 13 L695 13 C659 12 630 41 630 77 L630 583 C630 619 659 648 695 647 L705.5 647 C709.088 647 712 649.912 712 653.5 C712 657.088 709.088 660 705.5 660 L471.5 660 C467.912 660 465 657.088 465 653.5 C465 649.912 467.912 647 471.5 647 L482 647 C518 648 547 619 547 583 L547 408.2 C547 379.939 524.061 357 495.8 357 L256.2 357 C227.939 357 205 379.939 205 408.2 L205 583 C205 619 234 648 270 647 L280.5 647 C284.088 647 287 649.912 287 653.5 C287 657.088 284.088 660 280.5 660 L46.5 660 C42.9122 660 40 657.088 40 653.5 C40 649.912 42.9122 647 46.5 647 L57 647 C93 648 122 619 122 583 L122 77 C122 41 93 12 57 13 L46.5 13 C42.9122 13 40 10.0878 40 6.5 C40 2.91219 42.9122 0 46.5 0 L280.5 0 C284.088 0 287 2.91219 287 6.5 C287 10.0878 284.088 13 280.5 13 L270 13 C234 12 205 41 205 77 L205 285.8 C205 314.061 227.939 337 256.2 337 L495.8 337 C524.061 337 547 314.061 547 285.8 L547 77 C547 41 518 12 482 13 L471.5 13 C467.912 13 465 10.0878 465 6.5 C465 2.91219 467.912 0 471.5 0 L705.5 0 C709.088 0 712 2.91219 712 6.5 C712 10.0878 709.088 13 705.5 13 L705.5 13 Z " />
<glyph glyph-name="I" unicode="I" horiz-adv-x="326" d="M280.5 13 L270 13 C234 12 205 41 205 77 L205 583 C205 619 234 648 270 647 L280.5 647 C284.088 647 287 649.912 287 653.5 C287 657.088 284.088 660 280.5 660 L46.5 660 C42.9122 660 40 657.088 40 653.5 C40 649.912 42.9122 647 46.5 647 L57 647 C93 648 122 619 122 583 L122 77 C122 41 93 12 57 13 L46.5 13 C42.9122 13 40 10.0878 40 6.5 C40 2.91219 42.9122 0 46.5 0 L280.5 0 C284.088 0 287 2.91219 287 6.5 C287 10.0878 284.088 13 280.5 13 L280.5 13 Z " />
<glyph glyph-name="J" unicode="J" horiz-adv-x="361" d="M315.5 660 L80.5 660 C76.9122 660 74 657.088 74 653.5 C74 649.912 76.9122 647 80.5 647 L91 647 C127 648 156 619 156 583 L156 200 C156 71 142 7 113 7 C96 7 77 26 71 50 C66 68 50 83 33 83 C10 83 -5 68 0 50 C8 17 49 -10 92 -10 C191 -10 240 84 240 270 L240 583 C240 619 269 648 305 647 L315.5 647 C319.088 647 322 649.912 322 653.5 C322 657.088 319.088 660 315.5 660 L315.5 660 Z " />
<glyph glyph-name="K" unicode="K" horiz-adv-x="628" d="M285.477 660 L50.5 660 C46.9122 660 44 657.088 44 653.5 C44 649.912 46.9122 647 50.5 647 L61 647 C97 648 126 619 126 583 L126 77 C126 41 97 12 61 13 L50.5 13 C46.9122 13 44 10.0878 44 6.5 C44 2.91219 46.9122 0 50.5 0 L284.5 0 C288.088 0 291 2.91219 291 6.5 C291 10.0878 288.088 13 284.5 13 L274 13 C238 12 209 41 209 77 L209 318.485 C209 321.521 212.539 331.182 214.5 333.5 C217.456 336.994 222.349 336.84 225.08 333.167 L362 149 C437 47 513 -4 588 -4 L610 -4 C614.416 -4 618 -0.41576 618 4 C618 7.46493 612.038 12.3213 608.654 13.0673 C568.775 21.8606 510.5 85.2 418 211 L301.749 368.475 C288.373 386.594 289.775 416.265 304.801 433.041 L440 584 C472 620 527 649 563 648 L572.5 648 C576.088 648 579 650.912 579 654.5 C579 658.088 576.088 661 572.5 661 L406.5 661 C402.912 661 400 658.088 400 654.5 L400 653.5 C400 650.464 402.464 648 405.5 648 L411 648 C444 649 444 619 413 584 L265 418 C265 418 224.5 372.64 212.755 359.923 C211.804 358.893 210 359.133 210 360.536 L210 585 C210 621 239 650 275 649 L286.477 649 C289.513 649 291.775 651.477 291.5 654.5 C291.225 657.523 288.513 660 285.477 660 L285.477 660 Z " />
<glyph glyph-name="L" unicode="L" horiz-adv-x="593" d="M483.827 171.383 L464 111 C448 61 395 21 345 21 L256.2 21 C227.939 21 205 43.9391 205 72.2 L205 583 C205 619 234 648 270 647 L280.5 647 C284.088 647 287 649.912 287 653.5 C287 657.088 284.088 660 280.5 660 L46.5 660 C42.9122 660 40 657.088 40 653.5 C40 649.912 42.9122 647 46.5 647 L57 647 C93 648 122 619 122 583 L122 77 C122 41 93 12 57 13 L46.5 13 C42.9122 13 40 10.0878 40 6.5 C40 2.91219 42.9122 0 46.5 0 L469.901 0 C472.661 0 475.459 2.29374 476 5 L477 10 C484.8 52.9 497.353 122.417 504.464 166.648 C504.762 168.5 503.222 170.87 501.509 171.634 C495.028 174.528 486 178 486 178 C486 178 484.968 174.858 483.827 171.383 L483.827 171.383 Z " />
<glyph glyph-name="M" unicode="M" horiz-adv-x="830" d="M782.979 660 L668.698 660 C650.209 660 627.049 643.852 620.656 626.504 L473.469 227.099 C456.402 180.786 395.86 180.124 377.784 226.052 L219.771 627.55 C213.211 644.217 190.039 660 172.128 660 L67.5 660 C63.9122 660 61 657.088 61 653.5 C61 649.912 63.9122 647 67.5 647 L78 647 C114 648 141 619 140 583 L121 73 C118 39 88 12 53 13 L43.5 13 C39.9122 13 37 10.0878 37 6.5 C37 2.91219 39.9122 0 43.5 0 L253.5 0 C257.088 0 260 2.91219 260 6.5 C260 10.0878 257.088 13 253.5 13 L223 13 C183.025 12.025 150.655 41.47 146.281 80.0172 C146.244 80.3382 146.099 85.5766 146.111 85.8994 L160.154 451.798 C161.023 474.432 194.891 475.435 203.37 454.431 C259.597 315.148 315.725 176.23 371.334 36.834 C377.869 20.4513 398.428 23.44 404.5 40 L404.661 40.4405 C404.694 40.5297 404.533 40.5891 404.5 40.5 L391.65 5.84503 C389.761 0.749842 393.066 -4 398.5 -4 C403.918 -4 410.805 0.750823 412.728 5.81578 L544.414 352.51 C563.707 403.303 641.65 390.329 643.449 336.026 L652 78 C652 43 626 13 590 14 L579.5 14 C575.912 14 573 11.0878 573 7.5 C573 3.91219 575.912 1 579.5 1 L812.5 1 C816.088 1 819 3.91219 819 7.5 C819 11.0878 816.088 14 812.5 14 L802 14 C766 13 737 42 735 78 L712.158 589.462 C712.139 589.893 712.212 594.957 712.268 595.385 C716.305 626.184 741.85 648.975 775 648 L783.979 648 C787.291 648 789.775 650.7 789.5 654 C789.225 657.3 786.291 660 782.979 660 L782.979 660 Z " />
<glyph glyph-name="N" unicode="N" horiz-adv-x="687" d="M47.5 647 L58 647 C94 648 123 619 123 583 L123 77 C123 41 94 12 58 13 L47.5 13 C43.9122 13 41 10.0878 41 6.5 C41 2.91219 43.9122 0 47.5 0 L223.5 0 C227.088 0 230 2.91219 230 6.5 C230 10.0878 227.088 13 223.5 13 L213 13 C177 12 148 41 148 77 L148 464.003 C148 499.606 196.425 507.922 215.72 478 C318.895 318 421.959 158 524.398 -2 C528.282 -8.06685 542.296 -17 549.5 -17 C558.056 -17 565 -10.0555 565 -1.5 L565 583 C565 619 594 648 630 647 L640.5 647 C644.088 647 647 649.912 647 653.5 C647 657.088 644.088 660 640.5 660 L464.5 660 C460.912 660 458 657.088 458 653.5 C458 649.912 460.912 647 464.5 647 L475 647 C511 648 540 619 540 583 L540 298.998 C540 246.933 473.738 227.547 445.674 271.401 L212.104 636.397 C205.082 647.371 182.006 660 168.978 660 L47.5 660 C43.9122 660 41 657.088 41 653.5 C41 649.912 43.9122 647 47.5 647 L47.5 647 Z " />
<glyph glyph-name="O" unicode="O" horiz-adv-x="721" d="M146 330 C146 487 231 644 363 644 C495 644 580 487 580 330 C580 173 495 16 363 16 C231 16 146 173 146 330 L146 330 Z M54 330 C54 163 174 -5 363 -5 C551 -5 671 163 671 330 C671 497 551 665 363 665 C174 665 54 497 54 330 L54 330 Z " />
<glyph glyph-name="P" unicode="P" horiz-adv-x="554" d="M284.5 13 L274 13 C238 12 209 41 209 77 L209 253 C209 276.735 228.265 296 252 296 L295 296 C428 296 534 377 534 478 C534 579 437 660 316 660 L50.5 660 C46.9122 660 44 657.088 44 653.5 C44 649.912 46.9122 647 50.5 647 L61 647 C97 648 126 619 126 583 L126 77 C126 41 97 12 61 13 L50.5 13 C46.9122 13 44 10.0878 44 6.5 C44 2.91219 46.9122 0 50.5 0 L284.5 0 C288.088 0 291 2.91219 291 6.5 C291 10.0878 288.088 13 284.5 13 L284.5 13 Z M209 360 L209 587.8 C209 616.061 231.939 639 260.2 639 L316 639 C389 639 447 567 447 478 C447 389 379 317 295 317 L252 317 C228.265 317 209 336.265 209 360 L209 360 Z " />
<glyph glyph-name="Q" unicode="Q" horiz-adv-x="721" d="M743 -48.5 C741.235 -46.9557 736.657 -47.5383 734.819 -48.9943 C714.4 -65.1656 655.2 -78 596 -78 C516.95 -78 446.57 -55.6025 397.142 -23.09 C386.947 -16.3837 387.686 -4.41328 399.799 -2.9275 C566.31 17.4975 671 174.2 671 330 C671 497 551 665 363 665 C174 665 54 497 54 330 C54 173.025 159.519 15.0994 328.849 -3.82111 C334.241 -4.42358 349.393 -12.0189 353.395 -15.6822 C426.447 -82.5575 515.7 -134 586 -134 C635.725 -134 704.938 -99.3022 743.588 -55.8586 C745.589 -53.6095 745.266 -50.4824 743 -48.5 L743 -48.5 Z M145 329 C145 486 230 643 362 643 C494 643 579 486 579 329 C579 172 494 15 362 15 C230 15 145 172 145 329 L145 329 Z " />
<glyph glyph-name="R" unicode="R" horiz-adv-x="617" d="M51.0178 647 L61 647 C97 648 126 619 126 583 L126 77 C126 41 97 12 61 13 L50.5 13 C46.9122 13 44 10.0878 44 6.5 C44 2.91219 46.9122 0 50.5 0 L284.5 0 C288.088 0 291 2.91219 291 6.5 C291 10.0878 288.088 13 284.5 13 L274 13 C238 12 209 41 209 77 L209 285.5 C209 301.783 222.217 315 238.5 315 L245.796 315 C255.743 315 275.899 304.062 281.718 295.995 C311.302 254.985 360.9 186.05 417 107 C484 13 503 1 586 1 L609 1 C613.416 1 617 4.58424 617 9 C617 13.2523 614.267 16.9519 610.017 17.1093 C583.003 18.11 575.325 27.175 530 91 C460.875 188.125 400.938 270.703 371.625 311.268 C365.998 319.055 371.696 328.785 380.795 331.871 C460.24 358.818 515 419.775 515 491 C515 585 422 661 307 661 L50.0178 661 C46.154 661 43.2247 657.854 43.5 654 C43.7753 650.146 47.154 647 51.0178 647 L51.0178 647 Z M287 337 L247.5 337 C225.697 337 208 354.697 208 376.5 L208 590.5 C208 617.823 230.177 640 257.5 640 L307 640 C374 640 428 574 428 491 C428 406 365 337 287 337 L287 337 Z " />
<glyph glyph-name="S" unicode="S" horiz-adv-x="470" d="M387 467 L387 588.898 C387 603.621 377.77 621.419 364.48 627.755 C319.697 649.105 264.15 665 231 665 C129 665 47 580 47 474 C47 409 115 331 200 299 C292 265 366 194 366 141 C366 72 309 16 238 16 C237 16 212 17 212 18 C148 26 84 90 67 163 C65.3529 172.059 61.6713 184.509 59.3061 194.764 C58.662 197.557 55.2762 201 52.4098 201 L49.5 201 C44.8083 201 41 197.192 41 192.5 L41 71.1017 C41 55.558 50.4359 38.4405 64.6914 32.2449 C113.815 10.895 185.3 -5 238 -5 C342 -5 425 76 425 176 C425 245 353 327 263 361 C175 394 104 459 104 507 C104 583 159 644 227 644 C288 644 339 597 351 547 C356.538 524.846 363.781 489.059 369.582 464.808 C370.591 460.587 374.66 459 379 459 C383.416 459 387 462.584 387 467 L387 467 Z " />
<glyph glyph-name="T" unicode="T" horiz-adv-x="583" d="M537.875 660 L25.0249 660 C22.2651 660 19.7746 657.746 19.5 655 L19 650 C18.075 650 7.73813 516.523 5.40134 487.003 C5.14099 483.715 7.72161 482 11.0208 482 L13 482 C17.2459 482 22.0313 485.61 23.1978 489.692 L43 559 C56 603 102 639 147 639 L199.8 639 C228.061 639 251 616.061 251 587.8 L251 77 C251 41 222 12 186 13 L175.5 13 C171.912 13 169 10.0878 169 6.5 C169 2.91219 171.912 0 175.5 0 L409.5 0 C413.088 0 416 2.91219 416 6.5 C416 10.0878 413.088 13 409.5 13 L399 13 C363 12 334 41 334 77 L334 587.8 C334 616.061 356.939 639 385.2 639 L438 639 C483 639 529 603 542 559 L561.802 489.692 C562.969 485.61 567.754 482 572 482 C576.388 482 579.66 485.467 579.239 489.835 C575.125 532.571 570.147 589.963 565.841 635.387 C564.531 649.203 551.753 660 537.875 660 L537.875 660 Z " />
<glyph glyph-name="U" unicode="U" horiz-adv-x="681" d="M632.5 660 L431.5 660 C427.912 660 425 657.088 425 653.5 C425 649.912 427.912 647 431.5 647 L447 647 C489 648 522 615 522 573 L522 188 C522 97 464 24 348 24 C249 24 199 100 199 194 L199 583 C199 619 228 648 264 647 L274.5 647 C278.088 647 281 649.912 281 653.5 C281 657.088 278.088 660 274.5 660 L40.5 660 C36.9122 660 34 657.088 34 653.5 C34 649.912 36.9122 647 40.5 647 L51 647 C87 648 116 619 116 583 L116 210 C116 91 189 -5 336 -5 C477 -5 547 77 547 180 L547 573 C547 615 580 648 622 647 L632.5 647 C636.088 647 639 649.912 639 653.5 C639 657.088 636.088 660 632.5 660 L632.5 660 Z " />
<glyph glyph-name="V" unicode="V" horiz-adv-x="684" d="M277.5 660 L30.5 660 C26.9122 660 24 657.088 24 653.5 L24 652 C24 649.24 26.2402 647 29 647 L34 647 C64 648 97 623 113 590 L342.226 -5.20154 C344.17 -10.2486 351.092 -15 356.5 -15 C362.039 -15 368.46 -10.2587 370.09 -4.96504 L553 589 C566 622 602 648 636 647 L646.5 647 C650.088 647 653 649.912 653 653.5 C653 657.088 650.088 660 646.5 660 L429.5 660 C425.912 660 423 657.088 423 653.5 C423 649.912 425.912 647 429.5 647 L451 647 C501 648 531 610 520 561 L425.431 247.359 C410.74 198.636 345.729 196.796 328.306 244.61 L205 583 C192 619 210 648 246 647 L277.5 647 C281.088 647 284 649.912 284 653.5 C284 657.088 281.088 660 277.5 660 L277.5 660 Z " />
<glyph glyph-name="W" unicode="W" horiz-adv-x="972" d="M285.481 660 L46.5 660 C42.9122 660 40 657.088 40 653.5 L40 652 C40 649.24 42.2402 647 45 647 L50 647 C79.25 647.975 109.451 624.234 123.918 593.387 C124.02 593.17 125.737 588.687 125.809 588.459 L314.814 -4.99515 C316.489 -10.2571 322.978 -15 328.5 -15 C334.101 -15 340.26 -10.2655 341.7 -4.85299 L438.71 359.772 C452.11 410.138 521.329 411.719 537.015 362.017 L652.84 -4.98683 C654.503 -10.2575 660.973 -15 666.5 -15 C672.098 -15 678.27 -10.2652 679.72 -4.85845 L839 589 C851 622 886 648 920 647 L929.5 647 C933.088 647 936 649.912 936 653.5 C936 657.088 933.088 660 929.5 660 L727.5 660 C723.912 660 721 657.088 721 653.5 C721 649.912 723.912 647 727.5 647 L765 647 C800 647 821 621 815 587 L737.531 290.982 C724.294 240.401 654.456 238.907 639.067 288.875 L525.09 658.965 C523.46 664.259 517.039 669 511.5 669 C505.899 669 499.743 664.266 498.305 658.852 L399.944 288.514 C386.449 237.705 315.492 237.14 301.191 287.729 L218 582 C209 618 228 648 264 647 L286.481 647 C290.069 647 292.775 649.923 292.5 653.5 C292.225 657.077 289.069 660 285.481 660 L285.481 660 Z " />
<glyph glyph-name="X" unicode="X" horiz-adv-x="629" d="M568.5 660 L361.5 660 C357.912 660 355 657.088 355 653.5 C355 649.912 357.912 647 361.5 647 L400 647 C434 647 448 622 432 588 L371.05 475.967 C350.407 438.025 302.841 437.607 281.536 475.182 L218.127 587.013 C218.024 587.194 216.009 591.267 215.929 591.46 C202.712 623.234 216.85 646.975 250 646 L278.5 646 C282.088 646 285 648.912 285 652.5 C285 656.088 282.088 659 278.5 659 L35.5 659 C31.9122 659 29 656.088 29 652.5 L29 650.5 C29 648.016 31.0161 646 33.5 646 L38 646 C66 647 106 617 127 582 L262.191 341.56 C268.63 330.108 268.871 303.76 262.642 292.192 L143 70 C122 37 80 11 46 12 L36.5 12 C32.9122 12 30 9.08781 30 5.5 C30 1.91219 32.9122 -1 36.5 -1 L243.5 -1 C247.088 -1 250 1.91219 250 5.5 C250 9.08781 247.088 12 243.5 12 L219 12 C177 11 160 43 178 84 L245.406 212.74 C265.624 251.353 313.836 252.149 335.316 214.223 L415.88 71.9771 C415.982 71.7969 417.991 67.7315 418.071 67.5403 C431.287 35.7662 417.15 12.025 384 13 L355.5 13 C351.912 13 349 10.0878 349 6.5 C349 2.91219 351.912 0 355.5 0 L598.5 0 C602.088 0 605 2.91219 605 6.5 L605 8.5 C605 10.9839 602.984 13 600.5 13 L596 13 C568 12 528 42 507 77 C455.2 168.575 402.544 261.006 351.407 352.709 C344.785 364.585 346.491 388.187 353.208 400.01 L460 588 C482 622 525 648 559 647 L568.5 647 C572.088 647 575 649.912 575 653.5 C575 657.088 572.088 660 568.5 660 L568.5 660 Z " />
<glyph glyph-name="Y" unicode="Y" horiz-adv-x="654" d="M194.5 0 L430.5 0 C434.088 0 437 2.91219 437 6.5 C437 10.0878 434.088 13 430.5 13 L420 13 C384 12 355 41 355 77 L355 296.631 C355 300.239 359.772 318.515 361.536 321.662 L508 583 C528 619 571 648 605 647 L610 647 C612.76 647 615 649.24 615 652 L615 653.5 C615 657.088 612.088 660 608.5 660 L415.5 660 C411.912 660 409 657.088 409 653.5 C409 649.912 411.912 647 415.5 647 L434 647 C477.875 647.975 496.083 616.629 479.356 575.206 C479.279 575.016 477.006 570.199 476.907 570.019 L387.754 408.511 C366.22 369.5 316.316 370.814 296.865 410.904 L210.04 589.857 C209.939 590.065 208.226 594.166 208.152 594.385 C197.811 625.184 213.825 647.975 246 647 L265.5 647 C269.088 647 272 649.912 272 653.5 C272 657.088 269.088 660 265.5 660 L26.5 660 C22.9122 660 20 657.088 20 653.5 L20 651.5 C20 649.016 22.0161 647 24.5 647 L29 647 C58 648 96 618 114 582 L266.324 284.101 C267.764 281.284 271.953 263.696 271.937 260.532 L271 76 C271 40 242 10 206 11 L194.5 11 C191.464 11 189 8.53584 189 5.5 C189 2.46416 191.464 0 194.5 0 L194.5 0 Z " />
<glyph glyph-name="Z" unicode="Z" horiz-adv-x="557" d="M480.827 172.383 L461 112 C445 62 392 22 342 22 L235.538 22 C193.925 22 170.753 60.7138 190.413 97.3895 L451.587 584.61 C471.247 621.286 448.075 660 406.462 660 L110.22 660 C107.46 660 104.293 657.643 103.5 655 L102 650 C92.75 614.85 78.3662 559.165 67.5547 520.935 C66.4058 516.872 68.7781 512 73 512 C76.9327 512 82.8497 515.622 84.6382 519.125 L105 559 C128 603 182 639 227 639 L306.5 639 C345.214 639 366.798 603.017 348.571 568.862 L85.1863 75.3051 C65.6168 38.6339 88.7907 0 130.357 0 L466.41 0 C469.446 0 472.457 2.51313 473 5.5 L474 11 C481.8 53.9 494.353 123.418 501.464 167.648 C501.762 169.5 500.222 171.87 498.509 172.634 C492.028 175.528 483 179 483 179 C483 179 481.968 175.858 480.827 172.383 L480.827 172.383 Z " />
<glyph glyph-name="bracketleft" unicode="&#x5b;" horiz-adv-x="246" d="M182.2 643 L227.5 643 C232.192 643 236 646.808 236 651.5 C236 656.192 232.192 660 227.5 660 L123.2 660 C94.9391 660 72 637.061 72 608.8 L72 -68.8 C72 -97.0609 94.9391 -120 123.2 -120 L227.5 -120 C232.192 -120 236 -116.192 236 -111.5 C236 -106.808 232.192 -103 227.5 -103 L182.2 -103 C153.939 -103 131 -80.0609 131 -51.8 L131 591.8 C131 620.061 153.939 643 182.2 643 L182.2 643 Z " />
<glyph glyph-name="backslash" unicode="&#x5c;" horiz-adv-x="242" d="M229 -145 C235.829 -145 240.104 -139.127 238.006 -132.629 L-30.0064 697.629 C-32.1042 704.127 -40.1714 710 -47 710 C-53.8286 710 -58.1042 704.127 -56.0064 697.629 L212.006 -132.629 C214.104 -139.127 222.171 -145 229 -145 L229 -145 Z " />
<glyph glyph-name="bracketright" unicode="&#x5d;" horiz-adv-x="238" d="M110 591.8 L110 -51.8 C110 -80.0609 87.0609 -103 58.8 -103 L13.5 -103 C8.80825 -103 5 -106.808 5 -111.5 C5 -116.192 8.80825 -120 13.5 -120 L116.8 -120 C145.061 -120 168 -97.0609 168 -68.8 L168 608.8 C168 637.061 145.061 660 116.8 660 L13.5 660 C8.80825 660 5 656.192 5 651.5 C5 646.808 8.80825 643 13.5 643 L58.8 643 C87.0609 643 110 620.061 110 591.8 L110 591.8 Z " />
<glyph glyph-name="asciicircum" unicode="&#x5e;" horiz-adv-x="293" d="M171 724 C168 730 159 745 147 745 C135 745 126 730 123 724 C123 724 31.74 539.579 33.665 538.699 C33.7704 538.651 37.9128 535.576 38 535.5 C40.215 533.562 42.9642 533.138 44.8553 535.393 C76.3193 572.915 109.502 616.733 133.734 650.001 C140.286 658.997 151.217 659.945 157.931 651.07 C195.92 600.85 251 532 251 532 C251 532 252.887 533.651 255 535.5 C257.116 537.352 260.1 536.589 258.933 539.147 C257.19 542.967 221.7 620.65 171 724 L171 724 Z " />
<glyph glyph-name="underscore" unicode="&#x5f;" horiz-adv-x="371" d="M5 -71 C5 -82.5914 14.4086 -92 26 -92 L345 -92 C356.591 -92 366 -82.5914 366 -71 C366 -59.4086 356.591 -50 345 -50 L26 -50 C14.4086 -50 5 -59.4086 5 -71 L5 -71 Z " />
<glyph glyph-name="grave" unicode="&#x60;" horiz-adv-x="293" d="M64 709 C64 705.121 80.9256 684.317 102.923 660.264 C102.977 660.205 107.232 655.117 107.281 655.055 C138.296 615.556 221 530 221 530 C221 530 222.68 531.47 225 533.5 C227.141 535.373 230.178 534.67 228.894 537.209 C226.237 542.464 174.056 645.438 145.226 684.085 C145.098 684.257 141.611 689.445 141.505 689.631 C125.127 718.391 110.882 741 107 741 C95 741 64 718 64 709 L64 709 Z " />
<glyph glyph-name="a" unicode="a" horiz-adv-x="457" d="M430.473 37.2614 C421.355 30.9392 406 26 385 26 C357 26 346 54 346 88 L346 357 C346 439 295 505 231 505 C159.6 505 93.2575 471.043 68.2059 424.622 C58.5667 406.761 68.712 399 89.0083 399 L110.073 399 C119.986 399 137.299 413.521 141.061 422.693 C155.6 458.136 185.3 484 215 484 C244 484 267 435 267 373 L267 267.659 C267 260.776 260.484 253.961 253.689 252.86 C231.636 249.286 207.229 245.143 189 241 C104 220 36 158 36 103 C36 43 81 -5 136 -5 C170.125 -5 214.203 14.1406 252.826 43.043 C259.099 47.7368 271.037 44.5127 273.468 37.0652 C282.612 9.0575 302 -10 335 -10 C381.25 -10 416.377 5.40125 438.798 25.1234 C441.936 27.8839 442.147 32.2652 439.5 35.5 L438.582 36.6218 C436.935 38.6353 432.611 38.7437 430.473 37.2614 L430.473 37.2614 Z M268 224.719 L268 80 L268 77 C268 75.541 267.081 73.4588 265.814 72.7363 C237.253 56.4569 203.25 46 174 46 C139 46 111 81 111 124 C111 165 146 207 190 218 C212.371 223.8 235.773 228.913 255.653 233.34 C261.559 234.656 268 230.77 268 224.719 L268 224.719 Z " />
<glyph glyph-name="b" unicode="b" horiz-adv-x="533" d="M11 666 L17 666 C71 665 87 650 87 599 L87 4 C87 1.79212 88.7921 0 91 0 C92.6494 0 95.9751 1.99961 96.8398 3.40419 C105.071 16.7751 123.462 27 141 27 C179 27 226 -5 277 -5 C399 -5 496 108 496 249 C496 391 414 505 312 505 C278.85 505 225.47 491.272 183.18 473.029 C172.542 468.44 162 476.238 162 487.824 L162 712.5 C162 716.64 158.64 720 154.5 720 L154.413 720 C153.253 720 141.004 718.227 139.891 717.897 L10.7536 679.702 C7.70821 678.801 5 675.176 5 672 C5 668.688 7.68818 666 11 666 L11 666 Z M277 16 C213 16 162 76 162 150 L162 437.029 C162 444.409 166.622 452.469 173.464 455.238 C197.03 464.775 230.35 472 255 472 C345 472 417 358 417 216 C417 105 355 16 277 16 L277 16 Z " />
<glyph glyph-name="c" unicode="c" horiz-adv-x="456" d="M401.5 59.5 C399.844 61.6289 396.362 62.572 394.083 61.1286 C375.817 49.5563 331.625 41 290 41 C201 41 129 139 129 262 C129 385 190 484 265 484 C300 484 331 448 335 404 C337 383 354 367 373 367 C391 367 406 382 406 400 C401 458 342 505 273 505 C149 505 50 384 50 233 C50 101 129 -5 228 -5 C285.525 -5 361.112 20.6669 401.93 52.5366 C404.477 54.5259 403.485 56.9484 401.5 59.5 L401.5 59.5 Z " />
<glyph glyph-name="d" unicode="d" horiz-adv-x="537" d="M276 666 L282 666 C336 665 352 650 352 599 L352 471.57 C352 463.726 341.066 460.615 334.963 465.541 C306.311 488.665 269.475 505 234 505 C120 505 28 380 28 223 C28 96 107 -5 205 -5 C245.8 -5 296.715 11.6175 333.18 35.0265 C341.031 40.0667 351 33.8992 351 24.5693 L351 7.5 C351 3.36022 354.36 0 358.5 0 L358.587 0 C359.747 0 371.996 1.7734 373.109 2.10257 L502.246 40.2982 C505.292 41.199 508 44.8242 508 48 C508 51.3118 505.312 54 502 54 L496 54 C442 55 426 70 426 121 L426 712.5 C426 716.64 422.64 720 418.5 720 L418.413 720 C417.253 720 405.004 718.227 403.891 717.897 L274.774 679.708 C271.653 678.785 269.23 675.243 269.5 672 L269.502 671.979 C269.776 668.69 272.7 666 276 666 L276 666 Z M341.554 55.2694 C320.5 46.78 282.25 41 244 41 C166 41 104 134 104 251 C104 380 159 484 228 484 C270 484 313.531 459.5 339.836 429.258 C344.355 424.063 350.024 407.462 350.043 400.576 L350.972 70.1242 C350.99 63.6882 347.524 57.6761 341.554 55.2694 L341.554 55.2694 Z " />
<glyph glyph-name="e" unicode="e" horiz-adv-x="462" d="M407.5 59.5 C405.856 61.6139 402.322 62.5472 400.051 61.1286 C381.523 49.5563 335.55 41 293 41 C202 41 129 139 129 262 C129 278.8 129.706 294.894 131.71 310.283 C132.378 315.417 136.947 319 142.124 319 L360.8 319 C395.923 319 414.203 336.828 405.674 370.9 C386.249 448.508 324.25 505 250 505 C139 505 50 384 50 233 C50 101 131 -5 231 -5 C289.5 -5 367.012 20.6669 407.926 52.5366 C410.479 54.5253 409.487 56.9455 407.5 59.5 L407.5 59.5 Z M342 380 L342 382 C342 381 342 380 342 379 L342 380 L342 380 Z M340.563 371.896 C336.743 355.938 322.208 343.958 304 343 L178.628 334.888 C152.307 333.185 136.768 350.597 144.865 375.699 C165.645 440.121 203.1 483 246 483 C299 483 347 431 342 382 L341.679 376.871 C341.653 376.452 340.661 372.304 340.563 371.896 L340.563 371.896 Z " />
<glyph glyph-name="f" unicode="f" horiz-adv-x="376" d="M266.5 13 L256 13 C220 12 191 41 191 77 L191 419.8 C191 448.061 213.939 471 242.2 471 L286.5 471 C294.504 471 301 477.496 301 485.5 C301 493.504 294.504 500 286.5 500 L207.5 500 C198.392 500 191 507.392 191 516.5 L191 533 C191 627 252 703 276 703 C299 703 319 684 321 660 C323 642 340 627 359 627 C376.28 627 390.795 640.824 391.929 657.855 C391.972 658.511 391.8 661.813 391.702 662.463 C386.895 694.333 345.75 720 297 720 C199 720 120 644 120 549 C118 549 116 500 116 500 C116 500 105.578 500 91.4796 500 L66.5 500 C58.4964 500 52 493.504 52 485.5 C52 477.496 58.4964 471 66.5 471 L84 471 C101.663 471 116 456.663 116 439 L116 77 C116 41 87 12 51 13 L40.5 13 C36.9122 13 34 10.0878 34 6.5 C34 2.91219 36.9122 0 40.5 0 L266.5 0 C270.088 0 273 2.91219 273 6.5 C273 10.0878 270.088 13 266.5 13 L266.5 13 Z " />
<glyph glyph-name="g" unicode="g" horiz-adv-x="434" d="M75.4131 -89.1447 C83.5797 -53.1576 111.717 -17.8312 148.188 1.00809 C151.461 2.69871 166.32 5.66727 170 5.5 L178.133 5.13032 C178.31 5.12228 183.687 5.17913 183.864 5.19091 L226 8 C300 8 360 -31 360 -79 C360 -157 275 -219 169 -219 C123.95 -219 86.125 -184.32 75.7911 -137.069 C73.3333 -125.83 58.8291 -113.501 47.5 -115.5 C29.7855 -118.626 20.7029 -126.881 24.8145 -144.393 C37.7344 -199.422 93.625 -240 161 -240 C301 -240 414 -151 414 -41 C414 26 339 79 246 79 C239 79 177 76 177 76 C133 76 98 101 98 132 C98 165 133 192 176 192 L221 192 C308 192 378 262 378 349 C378 383.65 367.11 414.897 348.699 440.495 C344.373 446.509 347.694 456.239 355.101 456.39 L413.004 457.572 C424.591 457.808 434 467.411 434 479 C434 490.364 425.42 498.821 414.143 497.421 C380.968 493.304 347.485 489.974 314.957 485.744 C311.505 485.295 293.299 488.954 290.176 490.491 C269.944 500.444 247.167 506 223 506 C135 506 65 437 65 350 C65 295.55 92.225 247.906 134.322 219.984 C140.004 216.214 141.513 201.717 134.941 199.897 C84.4025 185.898 49 148.2 49 104 C49 67.7 76.225 36.1644 116.637 19.5004 C124.142 16.4056 126.742 2.93008 119.65 -1.02148 C74.2133 -26.3398 39.0916 -62.8934 28.3851 -96.5824 C23.8141 -110.966 31.8355 -116.003 46.7697 -113.825 L50.2407 -113.319 C59.5424 -111.963 73.3329 -98.3117 75.4131 -89.1447 L75.4131 -89.1447 Z M224 211 C176 211 137 273 137 351 C137 428 176 490 224 490 C272 490 310 428 310 351 C310 273 272 211 224 211 L224 211 Z " />
<glyph glyph-name="h" unicode="h" horiz-adv-x="602" d="M330.5 0 L556.5 0 C560.088 0 563 2.91219 563 6.5 C563 10.0878 560.088 13 556.5 13 L546 13 C510 12 481 41 481 77 L481 337 C481 430 446 505 375 505 C352.725 505 297.099 485.262 239.006 458.139 C221.913 450.158 202 460.493 202 479.357 L202 712.5 C202 716.64 198.64 720 194.5 720 L194.413 720 C193.253 720 181.004 718.227 179.891 717.897 L50.7536 679.702 C47.7082 678.801 45 675.176 45 672 C45 668.688 47.6882 666 51 666 L57 666 C111 665 127 650 127 599 L127 77 C127 41 98 12 62 13 L51.5 13 C47.9122 13 45 10.0878 45 6.5 C45 2.91219 47.9122 0 51.5 0 L277.5 0 C281.088 0 284 2.91219 284 6.5 C284 10.0878 281.088 13 277.5 13 L267 13 C231 12 202 41 202 77 L202 415.652 C202 424.956 207.87 434.618 216.674 437.624 C246.407 447.775 286.4 455 317 455 C376 455 406 399 406 329 L406 77 C406 41 377 12 341 13 L330.5 13 C326.912 13 324 10.0878 324 6.5 C324 2.91219 326.912 0 330.5 0 L330.5 0 Z " />
<glyph glyph-name="i" unicode="i" horiz-adv-x="328" d="M160 570 C188 570 210 592 210 620 C210 648 188 670 160 670 C132 670 110 648 110 620 C110 592 132 570 160 570 L160 570 Z M277.5 13 L267 13 C231 12 202 41 202 77 L202 492.5 C202 496.64 198.64 500 194.5 500 L194.413 500 C193.253 500 181.004 498.227 179.891 497.897 L50.7536 459.702 C47.7082 458.801 45 455.176 45 452 C45 448.688 47.6882 446 51 446 L57 446 C111 445 127 430 127 379 L127 77 C127 41 98 12 62 13 L51.5 13 C47.9122 13 45 10.0878 45 6.5 C45 2.91219 47.9122 0 51.5 0 L277.5 0 C281.088 0 284 2.91219 284 6.5 C284 10.0878 281.088 13 277.5 13 L277.5 13 Z " />
<glyph glyph-name="j" unicode="j" horiz-adv-x="264" d="M158 570 C186 570 208 592 208 620 C208 648 186 670 158 670 C130 670 108 648 108 620 C108 592 130 570 158 570 L158 570 Z M49 446 L55 446 C109 445 125 430 125 379 L125 5 C125 -126.625 99.3331 -182.2 40.5845 -221.044 C37.6507 -222.984 37.6118 -226.533 39.5 -229.5 C41.4567 -232.575 48.0586 -231.857 51.134 -229.901 C155.37 -163.614 201 -96.875 201 25 C200 27 200 481 200 481 L200 492.5 C200 496.64 196.64 500 192.5 500 L192.413 500 C191.253 500 179.004 498.227 177.891 497.897 L48.7536 459.702 C45.7082 458.801 43 455.176 43 452 C43 448.688 45.6882 446 49 446 L49 446 Z " />
<glyph glyph-name="k" unicode="k" horiz-adv-x="534" d="M501 500 L329.5 500 C325.912 500 323 497.088 323 493.5 L323 492.5 C323 489.464 325.464 487 328.5 487 L334 487 C367 488 368 459 336 423 C336 423 239.61 314.46 212.313 284.004 C210.277 281.733 206.004 284.74 206.007 287.79 C206.09 369.782 206.85 701 204 701 L204 712.5 C204 716.64 200.64 720 196.5 720 L196.413 720 C195.253 720 183.004 718.227 181.891 717.897 L52.7536 679.702 C49.7082 678.801 47 675.176 47 672 C47 668.688 49.6882 666 53 666 L59 666 C113 665 129 650 129 599 L129 77 C129 41 100 12 64 13 L53.5 13 C49.9122 13 47 10.0878 47 6.5 C47 2.91219 49.9122 0 53.5 0 L279.5 0 C283.088 0 286 2.91219 286 6.5 C286 10.0878 283.088 13 279.5 13 L269 13 C236.825 12.025 210.354 34.8156 205.343 65.6153 C205.283 65.9817 205.001 71.2679 205.002 71.6392 C205.048 118.229 205.952 183.478 205.998 256.24 C205.999 257.618 207.526 263.526 208.5 264.5 C209.861 265.861 211.936 265.689 213.055 264.123 L346 78 C372 42 365 13 330 14 L324.5 14 C321.464 14 319 11.5358 319 8.5 L319 7.5 C319 3.91219 321.912 1 325.5 1 L559.5 1 C563.088 1 566 3.91219 566 7.5 C566 11.0878 563.088 14 559.5 14 L550 14 C514 13 465 43 438 78 L288.089 286.162 C274.453 305.097 276.663 335.05 292.931 351.778 L369 430 C404 463 457 489 491 488 L501 488 C504.312 488 507 490.688 507 494 C507 497.312 504.312 500 501 500 L501 500 Z " />
<glyph glyph-name="l" unicode="l" horiz-adv-x="328" d="M277.5 13 L267 13 C231 12 202 41 202 77 L202 712.5 C202 716.64 198.64 720 194.5 720 L194.413 720 C193.253 720 181.004 718.227 179.891 717.897 L50.7536 679.702 C47.7082 678.801 45 675.176 45 672 C45 668.688 47.6882 666 51 666 L57 666 C111 665 127 650 127 599 L127 77 C127 41 98 12 62 13 L51.5 13 C47.9122 13 45 10.0878 45 6.5 C45 2.91219 47.9122 0 51.5 0 L277.5 0 C281.088 0 284 2.91219 284 6.5 C284 10.0878 281.088 13 277.5 13 L277.5 13 Z " />
<glyph glyph-name="m" unicode="m" horiz-adv-x="901" d="M629.519 0 L855.5 0 C859.088 0 862 2.91219 862 6.5 C862 10.0878 859.088 13 855.5 13 L845 13 C809 12 780 41 780 77 L780 337 C780 430 726 505 666 505 C645.3 505 576.81 475.84 499.896 436.474 C488.799 430.795 468.416 436.414 462.105 447.164 C441.339 482.539 411.35 505 380 505 C350.25 505 289.109 482.797 227.395 453.129 C214.342 446.854 201 455.518 201 470 L201 492.5 C201 496.64 197.64 500 193.5 500 L193.413 500 C192.253 500 180.004 498.227 178.891 497.897 L49.7536 459.702 C46.7082 458.801 44 455.176 44 452 C44 448.688 46.6882 446 50 446 L56 446 C110 445 126 430 126 379 L126 77 C126 41 97 12 61 13 L50.5 13 C46.9122 13 44 10.0878 44 6.5 C44 2.91219 46.9122 0 50.5 0 L276.5 0 C280.088 0 283 2.91219 283 6.5 C283 10.0878 280.088 13 276.5 13 L266 13 C230 12 201 41 201 77 L201 414.329 C201 424.215 207.22 435.001 216.46 438.517 C247.497 450.33 288 459 322 459 C371 459 415 401 415 329 L415 77 C415 41 386 12 350 13 L339.5 13 C335.912 13 333 10.0878 333 6.5 C333 2.91219 335.912 0 339.5 0 L565.5 0 C569.088 0 572 2.91219 572 6.5 C572 10.0878 569.088 13 565.5 13 L555 13 C519 12 490 41 490 77 L490 337 C490 359.909 487.12 381.378 481.361 401.408 C479.591 407.563 482.726 414.478 488.471 417.31 C531.959 438.743 580.175 455 607 455 C658 455 704 399 704 329 L704 77 C704 41 675 12 639 13 L628.519 13 C624.931 13 622.225 10.0772 622.5 6.5 C622.775 2.92276 625.931 0 629.519 0 L629.519 0 Z " />
<glyph glyph-name="n" unicode="n" horiz-adv-x="593" d="M330.5 0 L556.5 0 C560.088 0 563 2.91219 563 6.5 C563 10.0878 560.088 13 556.5 13 L546 13 C510 12 481 41 481 77 L481 337 C481 430 446 505 375 505 C351.375 505 290.234 482.797 228.424 453.129 C215.372 446.864 202 455.523 202 470 L202 492.5 C202 496.64 198.64 500 194.5 500 L194.413 500 C193.253 500 181.004 498.227 179.891 497.897 L50.7536 459.702 C47.7082 458.801 45 455.176 45 452 C45 448.688 47.6882 446 51 446 L57 446 C111 445 127 430 127 379 L127 77 C127 41 98 12 62 13 L51.5 13 C47.9122 13 45 10.0878 45 6.5 C45 2.91219 47.9122 0 51.5 0 L277.5 0 C281.088 0 284 2.91219 284 6.5 C284 10.0878 281.088 13 277.5 13 L267 13 C231 12 202 41 202 77 L202 415.652 C202 424.956 207.87 434.618 216.674 437.624 C246.407 447.775 286.4 455 317 455 C376 455 406 399 406 329 L406 77 C406 41 377 12 341 13 L330.5 13 C326.912 13 324 10.0878 324 6.5 C324 2.91219 326.912 0 330.5 0 L330.5 0 Z " />
<glyph glyph-name="o" unicode="o" horiz-adv-x="558" d="M133 250 C133 382 198 488 279 488 C360 488 425 382 425 250 C425 118 360 12 279 12 C198 12 133 118 133 250 L133 250 Z M50 250 C50 108 152 -5 279 -5 C406 -5 508 108 508 250 C508 392 406 505 279 505 C152 505 50 392 50 250 L50 250 Z " />
<glyph glyph-name="p" unicode="p" horiz-adv-x="600" d="M268.5 -217 L258 -217 C222 -218 193 -189 193 -153 L193 14 C193 22.2906 203.597 26.4209 210.768 22.259 C240.142 5.20937 276.05 -5 314 -5 C442 -5 545 114 545 263 C545 397 465 505 365 505 C318.25 505 257.773 480.435 214.274 445.43 C205.544 438.404 193 445.915 193 457.121 L193 492.5 C193 496.64 189.64 500 185.5 500 L185.413 500 C184.253 500 172.004 498.227 170.891 497.897 L41.7536 459.702 C38.7082 458.801 36 455.176 36 452 C36 448.688 38.6882 446 42 446 L48 446 C102 445 118 430 118 379 L118 -153 C118 -189 89 -218 53 -217 L42.5 -217 C38.9122 -217 36 -219.912 36 -223.5 C36 -227.088 38.9122 -230 42.5 -230 L268.5 -230 C272.088 -230 275 -227.088 275 -223.5 C275 -219.912 272.088 -217 268.5 -217 L268.5 -217 Z M193 137.322 L193 393.938 C193 403.661 198.427 416.95 206.47 422.415 C234.22 441.272 274 455 308 455 C399 455 472 343 472 204 C472 100 402 16 315 16 C254 16 199.5 69 193.5 135 C193.489 135.116 193 137.206 193 137.322 L193 137.322 Z " />
<glyph glyph-name="q" unicode="q" horiz-adv-x="564" d="M531.481 -217 L521 -217 C485 -218 456 -189 456 -153 L456 496 C456 498.208 454.208 500 452 500 C450.38 500 447.067 498.09 446.204 496.72 C437.746 483.288 417.444 473 398 473 C361 473 315 505 266 505 C151 505 58 380 58 223 C58 96 133 -5 226 -5 C268.5 -5 322.56 13.0625 362.387 39.3615 C371.059 45.0879 382 38.1433 382 27.7512 L382 -153 C382 -189 353 -218 317 -217 L306.5 -217 C302.912 -217 300 -219.912 300 -223.5 C300 -227.088 302.912 -230 306.5 -230 L532.481 -230 C536.069 -230 538.775 -227.077 538.5 -223.5 C538.225 -219.923 535.069 -217 531.481 -217 L531.481 -217 Z M371.536 60.4829 C348.367 48.67 307.1 40 268 40 C196 40 138 133 138 250 C138 379 195 483 267 483 C331 483 382 423 382 349 L382 79.1037 C382 71.5795 378.24 63.9006 371.536 60.4829 L371.536 60.4829 Z " />
<glyph glyph-name="r" unicode="r" horiz-adv-x="366" d="M23.5 446 L30 446 C84 445 100 430 100 379 L100 77 C100 41 71 12 35 13 L24.5 13 C20.9122 13 18 10.0878 18 6.5 C18 2.91219 20.9122 0 24.5 0 L250.5 0 C254.088 0 257 2.91219 257 6.5 C257 10.0878 254.088 13 250.5 13 L240 13 C204 12 175 41 175 77 L175 404.621 C175 410.503 179.746 421.954 184.177 425.823 C199.378 439.096 216.586 448 229 448 C255 448 295 418 321 418 C340 418 356 434 356 454 C356 482 334 504 289 504 C265.9 504 228.507 480.859 195.351 448.614 C188.283 441.741 175 445.506 175 455.364 L175 491.5 C175 495.64 171.64 499 167.5 499 L167.413 499 C166.253 499 154.004 497.227 152.891 496.897 L23.2741 458.56 C20.4825 457.734 18 454.411 18 451.5 C18 448.464 20.4642 446 23.5 446 L23.5 446 Z " />
<glyph glyph-name="s" unicode="s" horiz-adv-x="385" d="M312 365 L312 456.735 C312 458.391 309.793 458.954 309 457.5 C310.682 460.584 309.017 464.715 305.945 466.418 C267.27 487.852 223 505 204 505 C124 505 60 446 60 372 C60 324 113 258 179 223 C231 195 273 147 273 115 C273 50 228 4 168 15 C126 25 83 69 69 120 C67.1818 127.273 63.7107 137.025 61.592 144.748 C61.0249 146.816 59.0206 147 56.8769 147 L54 147 C50.1362 147 47 143.864 47 140 L47 52.8387 C47 41.0818 54.0245 27.7793 64.7322 22.9246 C100.828 6.56 150 -5 184 -5 C268 -5 335 61 335 143 C335 187 289 247 232 277 C168 311 117 364 117 397 C117 445.45 152.197 483.972 196.871 487.704 C199.349 487.911 209.926 485.909 212.27 485.081 L217.43 483.26 C217.834 483.118 223.171 480.819 223.544 480.609 C256.535 462.002 286.175 423.075 293 387 C294.692 380.231 295.669 369.882 297.141 362.011 C297.578 359.672 299.744 358 302.123 358 L305 358 C308.864 358 312 361.136 312 365 L312 365 Z " />
<glyph glyph-name="t" unicode="t" horiz-adv-x="330" d="M284.5 500 L215.2 500 C186.939 500 164 522.939 164 551.2 L164 634 C164 637.312 161.312 640 158 640 C154.897 640 150.987 637.286 149.901 634.379 L118.576 550.472 C118.56 550.43 118.484 550.458 118.5 550.5 L128.536 577.486 C128.544 577.506 125.619 576.82 125.609 576.801 C99.0287 526.544 59.6488 486.446 27.9488 479.549 C25.9687 479.118 25 477.026 25 475 C25 472.792 26.7921 471 29 471 L57 471 C74.663 471 89 456.663 89 439 L89 112 C89 28 114 -5 177 -5 C230.625 -5 275.694 14.9631 307.574 40.9865 C309.439 42.5093 308.9 44.5404 307.5 46.5 C306.223 48.288 303.204 48.5736 301.387 47.3371 C285.549 36.5562 257.475 28 214 28 C178 28 164 48 164 99 L164 419.8 C164 448.061 186.939 471 215.2 471 L284.5 471 C292.504 471 299 477.496 299 485.5 C299 493.504 292.504 500 284.5 500 L284.5 500 Z " />
<glyph glyph-name="u" unicode="u" horiz-adv-x="567" d="M22 487 L32 487 C68 488 97 459 97 423 L97 155 C97 66 146 -5 224 -5 C272.45 -5 320.9 13.785 357.682 40.3007 C365.77 46.1319 376 39.4763 376 29.5049 L376 7.5 C376 3.36022 379.36 0 383.5 0 L383.587 0 C384.747 0 396.996 1.7734 398.109 2.10257 L527.246 40.2982 C530.292 41.199 533 44.8242 533 48 C533 51.3118 530.312 54 527 54 L521 54 C467 55 451 70 451 121 L451 448.8 C451 477.061 428.061 500 399.8 500 L300.5 500 C296.912 500 294 497.088 294 493.5 C294 489.912 296.912 487 300.5 487 L311 487 C347 488 376 459 376 423 L376 76 C376 70.0769 372.921 63.5679 367.673 60.8227 C349.852 51.5025 320.4 45 283 45 C215 45 171 98 171 164 L171.848 449.648 C171.932 477.993 148.993 501 120.648 501 L22 501 C18.1362 501 15 497.864 15 494 C15 490.136 18.1362 487 22 487 L22 487 Z " />
<glyph glyph-name="v" unicode="v" horiz-adv-x="552" d="M232 500 L0.5 500 C-3.08781 500 -6 497.088 -6 493.5 C-6 489.912 -3.08781 487 0.5 487 L10 487 C46 488 86 459 99 423 L255.759 -3.89837 C256.92 -7.05987 261.132 -10 264.5 -10 C267.875 -10 272.06 -7.06035 273.206 -3.88566 L429 428 C444 461 482 487 516 486 L525.5 486 C529.088 486 532 488.912 532 492.5 C532 496.088 529.088 499 525.5 499 L354.5 499 C350.912 499 348 496.088 348 492.5 C348 488.912 350.912 486 354.5 486 L361 486 C397 487 416 458 404 422 L341.763 236.41 C325.594 188.195 260.67 188.283 244.633 236.542 L183 422 C172 457 190 487 226 486 L232.5 486 C236.088 486 239 488.912 239 492.5 L239 493 C239 496.864 235.864 500 232 500 L232 500 Z " />
<glyph glyph-name="w" unicode="w" horiz-adv-x="818" d="M274 500 L42.5 500 C38.9122 500 36 497.088 36 493.5 L36 492 C36 489.24 38.2402 487 41 487 L46 487 C77 488 113 459 126 423 L282.759 -3.89837 C283.92 -7.05987 288.132 -10 291.5 -10 C294.912 -10 298.956 -7.06329 300.011 -3.81896 L361.233 184.339 C376.85 232.336 440.586 233.526 457.983 186.144 L527.76 -3.89829 C528.92 -7.05988 533.132 -10 536.5 -10 C539.875 -10 544.06 -7.06035 545.206 -3.88566 L701 428 C716 461 754 487 788 486 L797.5 486 C801.088 486 804 488.912 804 492.5 C804 496.088 801.088 499 797.5 499 L596.5 499 C592.912 499 590 496.088 590 492.5 C590 488.912 592.912 486 596.5 486 L633 486 C669 486 688 458 676 422 L613.763 236.41 C597.594 188.195 532.67 188.283 516.633 236.542 L455 422 C444 457 462 487 498 486 L524.5 486 C528.088 486 531 488.912 531 492.5 C531 496.088 528.088 499 524.5 499 L292.5 499 C288.912 499 286 496.088 286 492.5 L286 490.5 C286 488.016 288.016 486 290.5 486 L295 486 C324 487 358 458 371 422 L391.943 365.378 C393.986 359.854 394.546 337.955 392.788 332.334 L357.5 219.5 C344.555 178.107 288.443 177.787 275.026 219.03 L209 422 C197 458 217 487 253 486 L274 486 C277.864 486 281 489.136 281 493 C281 496.864 277.864 500 274 500 L274 500 Z " />
<glyph glyph-name="x" unicode="x" horiz-adv-x="571" d="M525.5 500 L335.5 500 C331.912 500 329 497.088 329 493.5 C329 489.912 331.912 487 335.5 487 L363 487 C397 488 409 462 390 428 L353.573 370.83 C335.938 343.153 300.603 343.491 283.5 371.5 L249 428 C230 462 241 489 276 488 L294.5 488 C298.088 488 301 490.912 301 494.5 C301 498.088 298.088 501 294.5 501 L59.5 501 C55.9122 501 53 498.088 53 494.5 L53 493 C53 490.24 55.2402 488 58 488 L63 488 C94 489 137 460 159 424 L251.84 271.538 C259.752 258.545 259.793 231.43 251.92 218.413 L167 78 C144 42 98 12 62 13 L42.5 13 C38.9122 13 36 10.0878 36 6.5 C36 2.91219 38.9122 0 42.5 0 L263.5 0 C267.088 0 270 2.91219 270 6.5 C270 10.0878 267.088 13 263.5 13 L215 13 C180 13 168 39 187 74 L234.651 155.163 C255.73 191.067 300.879 191.431 322.533 155.872 L373 73 C392 39 381 12 347 13 L341.5 13 C338.464 13 336 10.5358 336 7.5 L336 6.5 C336 2.91219 338.912 0 342.5 0 L552.5 0 C556.088 0 559 2.91219 559 6.5 L559 8.5 C559 10.9839 556.984 13 554.5 13 L550 13 C524 12 485 41 463 77 L342.267 273.847 C333.584 288.004 334.211 315.592 343.528 329.339 L407 423 C431 459 480 488 516 487 L525.5 487 C529.088 487 532 489.912 532 493.5 C532 497.088 529.088 500 525.5 500 L525.5 500 Z " />
<glyph glyph-name="y" unicode="y" horiz-adv-x="563" d="M268 500 L36.5 500 C32.9122 500 30 497.088 30 493.5 C30 489.912 32.9122 487 36.5 487 L46 487 C82 488 122 459 135 423 L287.537 6.72185 C288.438 4.26193 287.843 -4.77903 286.806 -7.18489 C280.8 -21.1165 272.548 -42.3548 265 -65 C241.2 -130.45 217.4 -168.445 194.214 -178.371 C185.062 -182.289 190.821 -185.389 181.908 -180.954 C179.519 -179.766 131.525 -156 113 -156 C92 -156 75 -170 75 -188 C75 -211 102 -230 136 -230 C197 -230 247 -177 285 -72 C297 -38 307 -10 307 -10 L465 428 C480 461 518 487 552 486 L561.5 486 C565.088 486 568 488.912 568 492.5 C568 496.088 565.088 499 561.5 499 L390.5 499 C386.912 499 384 496.088 384 492.5 C384 488.912 386.912 486 390.5 486 L397 486 C433 487 452 458 440 422 L377.763 236.41 C361.594 188.195 296.67 188.283 280.633 236.542 L219 422 C208 457 226 487 262 486 L268.5 486 C272.088 486 275 488.912 275 492.5 L275 493 C275 496.864 271.864 500 268 500 L268 500 Z " />
<glyph glyph-name="z" unicode="z" horiz-adv-x="446" d="M386.827 167.383 L367 107 C351 57 298 17 248 17 L197 17 C172 17 157.951 40.0902 169.443 62.2925 L357.317 425.265 C376.279 461.9 353.099 500 311.847 500 L75.1231 500 C72.9152 500 70.5355 498.142 70 496 L69 492 C61.4103 464.487 49.3202 419.873 41.2689 390.606 C40.1404 386.504 43.7455 386 48 386 C51.8061 386 58.1264 389.615 60.0562 392.895 L66 403 C93 447 149 483 194 483 L247.5 483 C273.681 483 288.363 458.78 276.253 435.568 L88.0696 74.8834 C68.9502 38.2378 92.1294 0 133.463 0 L374.438 0 C376.922 0 379.342 2.04993 379.75 4.5 L380.5 9 C388.3 51.9 400.378 118.566 407.465 162.654 C407.763 164.506 406.222 166.87 404.509 167.634 C398.028 170.528 389 174 389 174 C389 174 387.968 170.858 386.827 167.383 L386.827 167.383 Z " />
<glyph glyph-name="braceleft" unicode="&#x7b;" horiz-adv-x="222" d="M207 -114 C207 -110.688 204.312 -108 201 -108 L184 -108 C142 -108 109 -63 109 -6 L108 161 C108 207.75 87.77 247.275 58.3642 264.222 C54.652 266.361 54.652 275.639 58.3642 277.778 C87.77 294.725 108 334.25 108 381 L108 546 C108 603 142 648 184 648 L200.5 648 C204.088 648 207 650.912 207 654.5 C207 658.088 204.088 661 200.5 661 L167 661 C102 661 50 610 50 546 L50 339 C50 304.775 34.5987 280.818 10.9193 277.416 C8.10722 277.012 5 273.841 5 271 C5 268.142 8.08785 264.991 10.9193 264.6 C34.5988 261.327 50 238.225 50 204 L50 -5 C50 -68 102 -119 167 -119 L201.002 -119.85 C204.312 -119.933 207 -117.311 207 -114 L207 -114 Z " />
<glyph glyph-name="bar" unicode="&#x7c;" horiz-adv-x="178" d="M60 741 L60 -205 C60 -221.007 72.9929 -234 89 -234 C105.007 -234 118 -221.007 118 -205 L118 741 C118 757.007 105.007 770 89 770 C72.9929 770 60 757.007 60 741 L60 741 Z " />
<glyph glyph-name="braceright" unicode="&#x7d;" horiz-adv-x="222" d="M5 654 C5 650.688 7.68818 648 11 648 L28 648 C70 648 103 603 103 546 L104 379 C104 332.25 124.23 292.725 153.636 275.778 C157.348 273.639 157.348 264.361 153.636 262.222 C124.23 245.275 104 205.75 104 159 L104 -6 C104 -63 70 -108 28 -108 L11.5 -108 C7.91219 -108 5 -110.912 5 -114.5 C5 -118.088 7.91219 -121 11.5 -121 L45 -121 C110 -121 162 -70 162 -6 L162 201 C162 235.225 177.401 259.183 201.081 262.584 C203.893 262.988 207 266.159 207 269 C207 271.858 203.912 275.009 201.081 275.4 C177.401 278.673 162 301.775 162 336 L162 545 C162 608 110 659 45 659 L10.9981 659.85 C7.68837 659.933 5 657.311 5 654 L5 654 Z " />
<glyph glyph-name="asciitilde" unicode="&#x7e;" horiz-adv-x="293" d="M32.1229 315.465 C33.5873 347.87 47.9474 373 65 373 C104 373 168 310 207 310 C243.075 310 272.496 356.581 273.944 415.448 C274.035 419.123 271.176 420 267.5 420 C264.204 420 260.956 415.592 260.689 412.307 C258.291 382.905 242.342 360 223 360 C184 360 121 422 82 422 C47.875 422 20.4044 374.469 19.0522 314.627 C18.9693 310.959 21.8311 310 25.5 310 C28.9258 310 31.9683 312.043 32.1229 315.465 L32.1229 315.465 Z " />
<glyph glyph-name="nbspace" unicode="&#xa0;" horiz-adv-x="178" d="" />
<glyph glyph-name="exclamdown" unicode="&#xa1;" horiz-adv-x="215" d="M101 505 C71 505 47 481 47 451 C47 421 71 397 101 397 C131 397 155 421 155 451 C155 481 131 505 101 505 L101 505 Z M59.8163 -112.371 C58.0815 -142.215 78.7179 -165 106 -165 C134.275 -165 153.994 -142.185 152.182 -112.312 C152.18 -112.275 151.916 -92.1292 151.915 -92.0922 C149.729 139.48 106 322 106 322 C106 322 104.499 322 101 322 C98.2781 322 96.4276 324.319 95.9336 321.642 C94.2225 312.37 60 124 60 -110 C60 -110.048 59.819 -112.323 59.8163 -112.371 L59.8163 -112.371 Z " />
<glyph glyph-name="cent" unicode="&#xa2;" horiz-adv-x="456" d="M246 562.49 L246 539 C246 523.278 228.462 500.279 213.539 495.332 C118.85 463.94 50 359 50 233 C50 107.9 116.42 7.91 212.81 -4.276 C228.523 -6.26244 246 -24.6624 246 -40.5 L246 -63.5 C246 -70.3996 251.6 -76 258.5 -76 C265.4 -76 271 -70.3996 271 -63.5 L271 -27.4018 C271 -14.9029 285.305 0.682413 297.392 3.86578 C336.362 14.1297 374.507 31.1506 400.188 50.2738 C402.811 52.2266 403.508 55.9189 401.5 58.5 C399.887 60.5741 395.832 61.2061 393.586 59.8428 C375.683 48.9768 330.947 38.5463 292.428 39.2574 C278.026 39.5232 271 49.3665 271 63.7706 L271 465.875 C271 476.721 275.032 482.378 285.063 478.253 C310.86 467.642 331.6 437.85 335 403 C337 382 354 366 373 366 C391 366 406 381 406 399 C401.875 447.675 360.316 488.183 306.59 500.308 C292.102 503.578 271 524.148 271 539 L271 561.49 C271 568.39 265.394 574.224 258.5 574.5 C251.606 574.776 246 569.39 246 562.49 L246 562.49 Z M216.784 63.5407 C164.403 99.8825 129 174.3 129 261 C129 356.2 165.848 436.95 217.434 468.245 C236.794 479.99 246 468.803 246 446.158 L246 84.4005 C246 62.6896 234.622 51.1647 216.784 63.5407 L216.784 63.5407 Z " />
<glyph glyph-name="guillemotleft" unicode="&#xab;" horiz-adv-x="393" d="M240.139 271.557 C268.176 327.927 317.227 423.519 341.81 453.328 C343.607 455.507 343.997 460.003 342 462 C339.773 464.227 333.602 461.582 331.394 459.337 C245.457 371.927 158 255 158 255 C158 255 158 257.638 158 251 C158 249.636 158.469 245.885 159.12 244.686 C177.443 210.915 340 36 340 36 C340 36 341.96 37.7427 344.5 40 C346.959 42.1856 350.7 41.4908 348.855 44.2144 C345.387 49.3325 280.684 145.15 239.309 228.879 C234.369 238.876 235.173 261.572 240.139 271.557 L240.139 271.557 Z M104.139 272.557 C132.176 328.927 181.227 424.519 205.81 454.328 C207.607 456.507 207.997 461.003 206 463 C203.773 465.227 197.602 462.582 195.394 460.337 C109.458 372.927 22 256 22 256 C22 256 22 258.638 22 252 C22 250.636 22.4692 246.885 23.1198 245.686 C41.4431 211.915 204 37 204 37 C204 37 205.96 38.7427 208.5 41 C210.959 43.1856 214.7 42.4908 212.855 45.2144 C209.387 50.3325 144.684 146.15 103.309 229.879 C98.3687 239.876 99.1727 262.572 104.139 272.557 L104.139 272.557 Z " />
<glyph glyph-name="acute" unicode="&#xb4;" horiz-adv-x="293" d="M71.1535 530.168 C75.1162 534.516 154.725 621.925 183 658 C205 683 222 705 222 709 C222 718 191 741 179 741 C177.061 741 162.897 718.433 146.54 689.71 C146.438 689.531 142.902 684.251 142.779 684.085 C113.334 644.421 62 537 62 537 C62 537 63.4144 535.9 66.5 533.5 C68.9772 531.573 69.0395 527.849 71.1535 530.168 L71.1535 530.168 Z " />
<glyph glyph-name="guillemotright" unicode="&#xbb;" horiz-adv-x="393" d="M54.3155 35.3397 C62.2414 43.8772 217.027 210.781 234.88 243.686 C235.531 244.885 236 248.636 236 250 C236 251.328 236.626 253.166 235.829 254.228 C231.516 259.977 146.339 373.168 62.606 458.337 C60.3984 460.582 54.2266 463.227 52 461 C50.0033 459.003 50.3933 454.507 52.1899 452.328 C76.7728 422.519 125.824 326.927 153.861 270.557 C158.818 260.59 160.121 237.355 155.199 227.371 C112.739 141.253 46 42 46 42 C46 42 47.4926 40.6939 50 38.5 C52.2081 36.5679 52.3192 33.1894 54.3155 35.3397 L54.3155 35.3397 Z M192.315 34.3397 C200.241 42.8772 355.027 209.781 372.88 242.686 C373.531 243.885 374 247.636 374 249 C374 250.328 374.626 252.166 373.829 253.228 C369.516 258.977 284.339 372.168 200.606 457.337 C198.398 459.582 192.227 462.227 190 460 C188.003 458.003 188.393 453.507 190.19 451.328 C214.773 421.519 263.824 325.927 291.861 269.557 C296.818 259.59 298.121 236.355 293.199 226.371 C250.739 140.253 184 41 184 41 C184 41 185.493 39.6939 188 37.5 C190.208 35.5679 190.319 32.1894 192.315 34.3397 L192.315 34.3397 Z " />
<glyph glyph-name="onequarter" unicode="&#xbc;" horiz-adv-x="768" d="M157.026 -1.02016 L644.974 635.02 C652.164 644.393 650.383 657.824 641 665 C631.617 672.176 618.164 670.393 610.974 661.02 L123.026 24.9798 C115.836 15.6075 117.617 2.1756 127 -5 C136.383 -12.1756 149.836 -10.3925 157.026 -1.02016 L157.026 -1.02016 Z M599.452 302.427 C598.533 301.028 584.53 279.629 571.359 254.601 C571.303 254.496 566.551 246.686 566.486 246.586 C520.001 175.075 443 61 443 61 C443 61 443 65.0216 443 56 C443 53.2402 445.24 51 448 51 L520 51 C534.351 51 546 39.3512 546 25 C546 10.6488 557.649 -1 572 -1 L583 -1 C597.351 -1 609 10.6488 609 25 L609 28.5 C609 40.9193 619.081 51 631.5 51 L639.5 51 C647.504 51 654 57.4964 654 65.5 C654 73.5036 647.504 80 639.5 80 L631.5 80 C619.084 80 609.099 90.8817 609.208 103.298 C609.994 192.5 609.925 204.525 609 285 L609 299.457 C609 301.941 606.96 303.717 604.5 303.375 C602.627 303.115 600.491 304.008 599.452 302.427 L599.452 302.427 Z M485.67 92.591 C499.476 112.733 516.63 138.16 533.75 163.952 C537.561 169.693 547 168.148 547 161.257 L547 115 C547 95.681 531.319 80 512 80 L492.811 80 C485.653 80 481.624 86.6868 485.67 92.591 L485.67 92.591 Z M601 304 L600 304 L600 304 L601 304 L601 304 Z M310.5 423 L306 423 C288 422 273 437 273 455 L273 628 C273 650.207 289.78 659.363 311.639 659.968 C313.249 660.012 314 661.39 314 663 C314 664.656 312.656 666 311 666 L171 666 C169.344 666 168 664.656 168 663 C168 661.388 168.846 660.011 170.457 659.968 C193.152 659.363 209 650.207 209 628 L209 455 C209 437 195 422 177 423 L171.5 423 C169.568 423 168 421.432 168 419.5 C168 417.568 169.568 416 171.5 416 L310.5 416 C312.432 416 314 417.568 314 419.5 C314 421.432 312.432 423 310.5 423 L310.5 423 Z " />
<glyph glyph-name="onehalf" unicode="&#xbd;" horiz-adv-x="768" d="M157.026 -1.02016 L644.974 635.02 C652.164 644.393 650.383 657.824 641 665 C631.617 672.176 618.164 670.393 610.974 661.02 L123.026 24.9798 C115.836 15.6075 117.617 2.1756 127 -5 C136.383 -12.1756 149.836 -10.3925 157.026 -1.02016 L157.026 -1.02016 Z M646.816 100.317 C645.164 79.6029 632.483 64 612 64 L578.5 64 C568.006 64 562.183 76.1673 570.582 82.4579 C616.1 116.545 645 146.55 645 178 C645 220 611 253 569 253 C534.875 253 494.096 221.629 477.248 182.986 C476.29 180.79 477.55 178.893 479.5 177.5 C481.206 176.281 483.604 176.524 484.621 178.357 C493.196 193.804 515.533 206 537 206 C558 206 574 184 574 156 C574 86.775 522.666 62.2294 458 17.483 C455.367 15.6608 453 10.2022 453 7 C453 3.83466 456.141 2.19903 458.735 4.01424 L484.89 22.323 C485.67 22.8687 486.071 21.1912 485.382 20.5349 C475.904 11.5079 466.68 3.95999 458.66 1.69478 C458.66 1.69478 458.84 3.333 458.84 3.333 L459.319 -0.638218 C459.319 -0.638218 459.5 1 459.5 1 L614.899 1 C632.01 1 647.125 14.9443 648.5 32 L651 63 C651.895 76.4211 653.59 90.6427 654.653 102.083 C654.856 104.268 653.177 105.772 651 105.5 C649.005 105.251 646.976 102.321 646.816 100.317 L646.816 100.317 Z M311.5 423 L307 423 C289 422 274 437 274 455 L274 628 C274 650.207 290.78 659.363 312.639 659.968 C314.249 660.012 315 661.39 315 663 C315 664.656 313.656 666 312 666 L172 666 C170.344 666 169 664.656 169 663 C169 661.388 169.846 660.011 171.457 659.968 C194.152 659.363 210 650.207 210 628 L210 455 C210 437 196 422 178 423 L172.5 423 C170.568 423 169 421.432 169 419.5 C169 417.568 170.568 416 172.5 416 L311.5 416 C313.432 416 315 417.568 315 419.5 C315 421.432 313.432 423 311.5 423 L311.5 423 Z " />
<glyph glyph-name="threequarters" unicode="&#xbe;" horiz-adv-x="768" d="M143 499 L143 498.743 C143 496.322 144.754 494.592 147.076 495.277 C155.612 497.796 166.143 500 173 500 C208 500 236 479 236 454 C236 401.35 187.518 356.305 125.775 350.378 C123.105 350.122 121.233 347.669 121.5 345 C121.782 342.176 126.637 340.345 129.463 340.609 C225.999 349.604 303 400.45 303 457 C303 485.05 281.22 509.697 247.767 523.079 C240.529 525.975 237.909 538.242 244.211 542.833 C272.304 563.297 290 584.85 290 603 C290 639 259 668 221 668 C184.925 668 139.344 637.58 115.769 598.985 C114.453 596.829 115.741 595.13 118 594 C119.837 593.081 123.462 594.435 124.742 596.042 C135.964 610.133 162.4 621 188 621 C209 621 226 604 226 583 C226 568.231 216.627 551.757 201.814 537.513 C200.492 536.241 195.334 534 193.5 534 L193.123 534 C192.571 534 192.465 533.134 193 533 C194.846 532.539 195.128 530.393 193.64 529.207 C180.655 518.857 166.365 512.485 148.3 505.764 C145.895 504.869 143 501.566 143 499 L143 499 Z M158.026 -1.02016 L645.974 635.02 C653.164 644.393 651.383 657.824 642 665 C632.617 672.176 619.164 670.393 611.974 661.02 L124.026 24.9798 C116.836 15.6075 118.617 2.1756 128 -5 C137.383 -12.1756 150.836 -10.3925 158.026 -1.02016 L158.026 -1.02016 Z M600.452 302.427 C599.533 301.028 585.53 279.629 572.359 254.601 C572.303 254.496 567.551 246.686 567.486 246.586 C521.001 175.075 444 61 444 61 C444 61 444 65.0216 444 56 C444 53.2402 446.24 51 449 51 L521 51 C535.351 51 547 39.3512 547 25 C547 10.6488 558.649 -1 573 -1 L584 -1 C598.351 -1 610 10.6488 610 25 L610 28.5 C610 40.9193 620.081 51 632.5 51 L640.5 51 C648.504 51 655 57.4964 655 65.5 C655 73.5036 648.504 80 640.5 80 L632.5 80 C620.084 80 610.099 90.8817 610.208 103.298 C610.994 192.5 610.925 204.525 610 285 L610 299.457 C610 301.941 607.96 303.717 605.5 303.375 C603.627 303.115 601.491 304.008 600.452 302.427 L600.452 302.427 Z M486.67 92.591 C500.476 112.733 517.63 138.16 534.75 163.952 C538.561 169.693 548 168.148 548 161.257 L548 115 C548 95.681 532.319 80 513 80 L493.811 80 C486.653 80 482.624 86.6868 486.67 92.591 L486.67 92.591 Z M602 304 L601 304 L601 304 L602 304 L602 304 Z " />
<glyph glyph-name="questiondown" unicode="&#xbf;" horiz-adv-x="331" d="M203 505 C173 505 149 481 149 451 C149 421 173 397 203 397 C233 397 257 421 257 451 C257 481 233 505 203 505 L203 505 Z M220 -165 C260 -165 292 -137 292 -102 C292 -86 276 -74 256 -74 C239 -74 213 -106 196 -106 C116 -106 52 -33 52 58 C52 82 80 129 176 129 L211 129 C219 129 225 134 224 140 L208.45 312.02 C208.203 314.758 205.749 317 203 317 C200.254 317 197.777 314.757 197.506 312.024 L186.728 203.414 C185.779 193.849 177.112 186 167.5 186 L150 186 C61 186 35 107 35 67 C35 -62 117 -165 220 -165 L220 -165 Z " />
<glyph glyph-name="Agrave" unicode="&#xc0;" horiz-adv-x="634" d="M5 0 L214.5 0 C218.088 0 221 2.91219 221 6.5 C221 10.0878 218.088 13 214.5 13 L188 13 C144 12 120 49 133 93 L166.724 200.169 C172.661 219.035 195.786 236 215.563 236 L355.609 236 C374.579 236 397.727 219.548 403.964 201.632 L447 78 C460 42 441 14 405 14 L368.5 14 C364.912 14 362 11.0878 362 7.5 C362 3.91219 364.912 1 368.5 1 L625.5 1 C629.088 1 632 3.91219 632 7.5 L632 8.5 C632 11.5358 629.536 14 626.5 14 L621 14 C588 14 549.5 42 536.5 78 L318.647 666.154 C316.759 671.25 309.935 676 304.5 676 C298.984 676 292.471 671.257 290.779 666.006 L100 74 C87 40 50 13 15 14 L5 14 C1.13621 14 -2 10.8638 -2 7 C-2 3.13621 1.13621 0 5 0 L5 0 Z M222 870 C222 865.152 238.926 844.318 260.011 821.176 C260.064 821.119 264.232 816.116 264.28 816.055 C295.246 776.556 377 691 377 691 C377 691 378.75 692.361 381.5 694.5 C383.94 696.398 387.289 695.45 385.894 698.209 C383.237 703.464 331.056 806.438 302.226 845.085 C302.098 845.257 298.611 850.445 298.505 850.631 C282.127 879.391 267.882 902 264 902 C252 902 222 879 222 870 L222 870 Z M311.992 257 L253.779 257 C217.038 257 193.914 288.516 204.939 323.564 L232.59 411.465 C247.876 460.057 313.063 461.03 329.791 412.916 L360.353 325.014 C372.681 289.554 349.534 257 311.992 257 L311.992 257 Z " />
<glyph glyph-name="Aacute" unicode="&#xc1;" horiz-adv-x="634" d="M244.153 690.168 C248.116 694.516 327.725 781.925 356 818 C378 843 395 865 395 869 C395 878 364 901 352 901 C350.061 901 335.897 878.433 319.54 849.71 C319.438 849.531 315.902 844.251 315.779 844.085 C286.334 804.421 235 697 235 697 C235 697 236.414 695.9 239.5 693.5 C241.977 691.573 242.039 687.849 244.153 690.168 L244.153 690.168 Z M5 0 L214.5 0 C218.088 0 221 2.91219 221 6.5 C221 10.0878 218.088 13 214.5 13 L188 13 C144 12 120 49 133 93 L166.724 200.169 C172.661 219.035 195.786 236 215.563 236 L355.609 236 C374.579 236 397.727 219.548 403.964 201.632 L447 78 C460 42 441 14 405 14 L368.5 14 C364.912 14 362 11.0878 362 7.5 C362 3.91219 364.912 1 368.5 1 L625.5 1 C629.088 1 632 3.91219 632 7.5 L632 8.5 C632 11.5358 629.536 14 626.5 14 L621 14 C588 14 549.5 42 536.5 78 L318.647 666.154 C316.759 671.25 309.935 676 304.5 676 C298.984 676 292.471 671.257 290.779 666.006 L100 74 C87 40 50 13 15 14 L5 14 C1.13621 14 -2 10.8638 -2 7 C-2 3.13621 1.13621 0 5 0 L5 0 Z M311.992 257 L253.779 257 C217.038 257 193.914 288.516 204.939 323.564 L232.59 411.465 C247.876 460.057 313.063 461.03 329.791 412.916 L360.353 325.014 C372.681 289.554 349.534 257 311.992 257 L311.992 257 Z " />
<glyph glyph-name="Acircumflex" unicode="&#xc2;" horiz-adv-x="634" d="M5 0 L214.5 0 C218.088 0 221 2.91219 221 6.5 C221 10.0878 218.088 13 214.5 13 L188 13 C144 12 120 49 133 93 L166.724 200.169 C172.661 219.035 195.786 236 215.563 236 L355.609 236 C374.579 236 397.727 219.548 403.964 201.632 L447 78 C460 42 441 14 405 14 L368.5 14 C364.912 14 362 11.0878 362 7.5 C362 3.91219 364.912 1 368.5 1 L625.5 1 C629.088 1 632 3.91219 632 7.5 L632 8.5 C632 11.5358 629.536 14 626.5 14 L621 14 C588 14 549.5 42 536.5 78 L318.647 666.154 C316.759 671.25 309.935 676 304.5 676 C298.984 676 292.471 671.257 290.779 666.006 L100 74 C87 40 50 13 15 14 L5 14 C1.13621 14 -2 10.8638 -2 7 C-2 3.13621 1.13621 0 5 0 L5 0 Z M328 885 C325 891 316 906 305 906 C293 906 284 891 281 885 C281 885 189.74 700.579 191.665 699.699 C191.77 699.651 195.913 696.576 196 696.5 C198.215 694.562 200.964 694.138 202.855 696.393 C234.319 733.915 267.502 777.733 291.734 811.001 C298.286 819.997 309.217 820.945 315.931 812.07 C353.92 761.85 409 693 409 693 C409 693 410.887 694.651 413 696.5 C415.125 698.359 418.141 697.599 416.929 700.149 C415.092 704.016 377.725 782.625 328 885 L328 885 Z M311.992 257 L253.779 257 C217.038 257 193.914 288.516 204.939 323.564 L232.59 411.465 C247.876 460.057 313.063 461.03 329.791 412.916 L360.353 325.014 C372.681 289.554 349.534 257 311.992 257 L311.992 257 Z " />
<glyph glyph-name="Atilde" unicode="&#xc3;" horiz-adv-x="634" d="M190.123 760.465 C191.587 792.87 205.947 818 223 818 C262 818 326 755 365 755 C401.075 755 430.496 801.581 431.944 860.448 C432.035 864.123 429.176 865 425.5 865 C422.204 865 418.956 860.592 418.689 857.307 C416.291 827.905 400.342 805 381 805 C342 805 279 867 240 867 C205.875 867 178.404 819.469 177.052 759.627 C176.969 755.959 179.831 755 183.5 755 C186.926 755 189.968 757.043 190.123 760.465 L190.123 760.465 Z M5 0 L214.5 0 C218.088 0 221 2.91219 221 6.5 C221 10.0878 218.088 13 214.5 13 L188 13 C144 12 120 49 133 93 L166.724 200.169 C172.661 219.035 195.786 236 215.563 236 L355.609 236 C374.579 236 397.727 219.548 403.964 201.632 L447 78 C460 42 441 14 405 14 L368.5 14 C364.912 14 362 11.0878 362 7.5 C362 3.91219 364.912 1 368.5 1 L625.5 1 C629.088 1 632 3.91219 632 7.5 L632 8.5 C632 11.5358 629.536 14 626.5 14 L621 14 C588 14 549.5 42 536.5 78 L318.647 666.154 C316.759 671.25 309.935 676 304.5 676 C298.984 676 292.471 671.257 290.779 666.006 L100 74 C87 40 50 13 15 14 L5 14 C1.13621 14 -2 10.8638 -2 7 C-2 3.13621 1.13621 0 5 0 L5 0 Z M311.992 257 L253.779 257 C217.038 257 193.914 288.516 204.939 323.564 L232.59 411.465 C247.876 460.057 313.063 461.03 329.791 412.916 L360.353 325.014 C372.681 289.554 349.534 257 311.992 257 L311.992 257 Z " />
<glyph glyph-name="Adieresis" unicode="&#xc4;" horiz-adv-x="634" d="M395 730 C421 730 441 750 441 776 C441 802 421 822 395 822 C369 822 349 802 349 776 C349 750 369 730 395 730 L395 730 Z M214 730 C240 730 260 750 260 776 C260 802 240 822 214 822 C188 822 168 802 168 776 C168 750 188 730 214 730 L214 730 Z M5 0 L214.5 0 C218.088 0 221 2.91219 221 6.5 C221 10.0878 218.088 13 214.5 13 L188 13 C144 12 120 49 133 93 L166.724 200.169 C172.661 219.035 195.786 236 215.563 236 L355.609 236 C374.579 236 397.727 219.548 403.964 201.632 L447 78 C460 42 441 14 405 14 L368.5 14 C364.912 14 362 11.0878 362 7.5 C362 3.91219 364.912 1 368.5 1 L625.5 1 C629.088 1 632 3.91219 632 7.5 L632 8.5 C632 11.5358 629.536 14 626.5 14 L621 14 C588 14 549.5 42 536.5 78 L318.647 666.154 C316.759 671.25 309.935 676 304.5 676 C298.984 676 292.471 671.257 290.779 666.006 L100 74 C87 40 50 13 15 14 L5 14 C1.13621 14 -2 10.8638 -2 7 C-2 3.13621 1.13621 0 5 0 L5 0 Z M311.992 257 L253.779 257 C217.038 257 193.914 288.516 204.939 323.564 L232.59 411.465 C247.876 460.057 313.063 461.03 329.791 412.916 L360.353 325.014 C372.681 289.554 349.534 257 311.992 257 L311.992 257 Z " />
<glyph glyph-name="Aring" unicode="&#xc5;" horiz-adv-x="634" d="M231 788 C231 830 264 863 305 863 C346 863 378 830 378 788 C378 750 341 712 305 712 C268 712 231 750 231 788 L231 788 Z M210 788 C210 742 258 695 305 695 C352 695 399 742 399 788 C399 839 357 880 305 880 C252 880 210 839 210 788 L210 788 Z M5 0 L214.5 0 C218.088 0 221 2.91219 221 6.5 C221 10.0878 218.088 13 214.5 13 L188 13 C144 12 120 49 133 93 L166.724 200.169 C172.661 219.035 195.786 236 215.563 236 L355.609 236 C374.579 236 397.727 219.548 403.964 201.632 L447 78 C460 42 441 14 405 14 L368.5 14 C364.912 14 362 11.0878 362 7.5 C362 3.91219 364.912 1 368.5 1 L625.5 1 C629.088 1 632 3.91219 632 7.5 L632 8.5 C632 11.5358 629.536 14 626.5 14 L621 14 C588 14 549.5 42 536.5 78 L318.647 666.154 C316.759 671.25 309.935 676 304.5 676 C298.984 676 292.471 671.257 290.779 666.006 L100 74 C87 40 50 13 15 14 L5 14 C1.13621 14 -2 10.8638 -2 7 C-2 3.13621 1.13621 0 5 0 L5 0 Z M311.992 257 L253.779 257 C217.038 257 193.914 288.516 204.939 323.564 L232.59 411.465 C247.876 460.057 313.063 461.03 329.791 412.916 L360.353 325.014 C372.681 289.554 349.534 257 311.992 257 L311.992 257 Z " />
<glyph glyph-name="Ccedilla" unicode="&#xc7;" horiz-adv-x="673" d="M344.5 -88 C344.452 -88.1158 344.656 -88.2051 344.708 -88.0911 L344.792 -87.9089 C344.844 -87.7949 344.548 -87.8842 344.5 -88 L344.5 -88 Z M596.694 199.764 C594.329 189.509 590.647 177.059 589 168 C572 96 499 32 421 19 C405 17 390 16 376 16 C249 16 147 156 147 330 C147 504 249 644 376 644 C399 644 425 641 452 636 C513 622 573 559 588 491 C589.647 481.941 593.329 469.491 595.694 459.236 C596.338 456.443 599.724 453 602.59 453 L605.5 453 C610.192 453 614 456.808 614 461.5 L614 573.224 C614 590.097 600.43 610.636 584.987 617.435 C525.175 643.77 439.75 664 376 664 C198 664 55 515 55 329 C55 145 194 -2 369 -6 C371.766 -6.06322 368.096 -8.26759 367.092 -10.8457 C361.872 -24.2465 350.782 -53.6326 338.121 -89.7921 C337.544 -91.4413 338.342 -93.4474 340 -94 C341.175 -94.3915 343.951 -94.4553 345.039 -93.8646 C358.882 -86.3492 377.476 -80 387 -80 C411 -80 431 -104 431 -135 C431 -171 405 -199 372 -199 C348.6 -199 324.449 -195.244 313.217 -190.337 C311.512 -189.592 308.153 -190.258 307.5 -192 C306.648 -194.272 306.796 -196.706 308.762 -198.129 C326.671 -211.099 360.436 -221 387 -221 C436 -221 476 -183 476 -135 C476 -96 444 -65 405 -65 C389.769 -65 369.527 -69.2959 355.783 -75.4643 C353.605 -76.4418 351.033 -74.0763 351.969 -71.8801 C368.129 -33.9734 381.396 -16.5195 388.963 -8.84961 C390.299 -7.49491 395.69 -5.83693 397.59 -5.73216 C468.897 -1.80034 558.615 22.4828 611.872 51.6847 C614.748 53.2615 614.687 56.1877 613 59 L612.876 59.2065 C612.754 59.4094 612.394 59.2117 612.5 59 C613.117 57.7658 615 58.2102 615 59.5902 L615 196.485 C615 201.177 611.184 205.224 606.5 205.5 L603.581 205.672 C600.684 205.842 597.346 202.592 596.694 199.764 L596.694 199.764 Z " />
<glyph glyph-name="Egrave" unicode="&#xc8;" horiz-adv-x="593" d="M193 869 C193 864.152 209.926 843.318 231.011 820.176 C231.063 820.12 235.235 815.114 235.281 815.055 C266.296 775.556 349 690 349 690 C349 690 350.68 691.47 353 693.5 C355.137 695.37 358.16 694.666 356.896 697.209 C354.286 702.464 303.008 805.438 274.224 844.085 C274.098 844.255 270.61 849.447 270.505 849.631 C254.127 878.391 239.882 901 236 901 C224 901 193 878 193 869 L193 869 Z M407 256.5 L407 437.5 C407 441.088 404.088 444 400.5 444 L400.083 444 C396.771 444 393.544 441.267 393 438 L392 432 C385 393 341 362 294 362 L249.5 362 C224.937 362 205 381.937 205 406.5 L205 587.8 C205 616.061 227.939 639 256.2 639 L328 639 C384 639 437 595 449 539 L456.533 503.845 C457.325 500.15 461.222 497 465 497 C468.864 497 472 500.136 472 504 L472 608.8 C472 637.061 449.061 660 420.8 660 L46.5 660 C42.9122 660 40 657.088 40 653.5 C40 649.912 42.9122 647 46.5 647 L57 647 C93 648 122 619 122 583 L122 77 C122 41 93 12 57 13 L46.5 13 C42.9122 13 40 10.0878 40 6.5 C40 2.91219 42.9122 0 46.5 0 L469.901 0 C472.661 0 475.459 2.29374 476 5 L477 10 C483.821 50.9231 496.337 117.479 503.45 159.717 C504.084 163.481 500.817 163 497 163 C493.389 163 488.793 159.833 487.508 156.459 L474 121 C452 66 391 21 335 21 L256.2 21 C227.939 21 205 43.9391 205 72.2 L205 297.5 C205 322.063 224.937 342 249.5 342 L294 342 C342 342 385 307 392 264 L393.081 256.435 C393.583 252.919 396.948 250 400.5 250 C404.088 250 407 252.912 407 256.5 L407 256.5 Z " />
<glyph glyph-name="Eacute" unicode="&#xc9;" horiz-adv-x="593" d="M261.155 690.168 C265.166 694.516 345.725 781.925 374 818 C396 843 413 865 413 869 C413 878 382 901 370 901 C367.088 901 352.872 878.391 336.495 849.631 C336.394 849.454 332.903 844.249 332.781 844.085 C303.383 804.421 253 697 253 697 C253 697 254.067 696.066 257 693.5 C259.208 691.568 259.166 688.012 261.155 690.168 L261.155 690.168 Z M407 256.5 L407 437.5 C407 441.088 404.088 444 400.5 444 L400.083 444 C396.771 444 393.544 441.267 393 438 L392 432 C385 393 341 362 294 362 L249.5 362 C224.937 362 205 381.937 205 406.5 L205 587.8 C205 616.061 227.939 639 256.2 639 L328 639 C384 639 437 595 449 539 L456.533 503.845 C457.325 500.15 461.222 497 465 497 C468.864 497 472 500.136 472 504 L472 608.8 C472 637.061 449.061 660 420.8 660 L46.5 660 C42.9122 660 40 657.088 40 653.5 C40 649.912 42.9122 647 46.5 647 L57 647 C93 648 122 619 122 583 L122 77 C122 41 93 12 57 13 L46.5 13 C42.9122 13 40 10.0878 40 6.5 C40 2.91219 42.9122 0 46.5 0 L469.901 0 C472.661 0 475.459 2.29374 476 5 L477 10 C483.821 50.9231 496.337 117.479 503.45 159.717 C504.084 163.481 500.817 163 497 163 C493.389 163 488.793 159.833 487.508 156.459 L474 121 C452 66 391 21 335 21 L256.2 21 C227.939 21 205 43.9391 205 72.2 L205 297.5 C205 322.063 224.937 342 249.5 342 L294 342 C342 342 385 307 392 264 L393.081 256.435 C393.583 252.919 396.948 250 400.5 250 C404.088 250 407 252.912 407 256.5 L407 256.5 Z " />
<glyph glyph-name="Ecircumflex" unicode="&#xca;" horiz-adv-x="593" d="M316 884 C313 890 304 905 292 905 C280 905 271 890 268 884 C268 884 175.789 697.678 179.521 698.557 C180.677 698.829 183.106 696.282 184 695.5 C186.215 693.562 188.964 693.138 190.855 695.393 C222.319 732.915 255.502 776.733 279.734 810.001 C286.289 819 297.191 819.98 303.903 811.098 C341.73 761.04 396 693 396 693 C396 693 397.89 694.654 400 696.5 C402.118 698.353 405.107 697.589 403.933 700.146 C402.19 703.942 366.7 781.15 316 884.5 L316 884 Z M407 257.5 L407 438.5 C407 442.088 404.088 445 400.5 445 L400.083 445 C396.771 445 393.544 442.267 393 439 L392 433 C385 394 341 363 294 363 L249.5 363 C224.937 363 205 382.937 205 407.5 L205 588.8 C205 617.061 227.939 640 256.2 640 L328 640 C384 640 437 596 449 540 L456.533 504.845 C457.325 501.15 461.222 498 465 498 C468.864 498 472 501.136 472 505 L472 609.8 C472 638.061 449.061 661 420.8 661 L46.5 661 C42.9122 661 40 658.088 40 654.5 C40 650.912 42.9122 648 46.5 648 L57 648 C93 649 122 620 122 584 L122 78 C122 42 93 13 57 14 L46.5 14 C42.9122 14 40 11.0878 40 7.5 C40 3.91219 42.9122 1 46.5 1 L469.901 1 C472.661 1 475.459 3.29374 476 6 L477 11 C483.821 51.9231 496.337 118.479 503.45 160.717 C504.084 164.481 500.817 164 497 164 C493.389 164 488.793 160.833 487.508 157.459 L474 122 C452 67 391 22 335 22 L256.2 22 C227.939 22 205 44.9391 205 73.2 L205 298.5 C205 323.063 224.937 343 249.5 343 L294 343 C342 343 385 308 392 265 L393.081 257.435 C393.583 253.919 396.948 251 400.5 251 C404.088 251 407 253.912 407 257.5 L407 257.5 Z " />
<glyph glyph-name="Edieresis" unicode="&#xcb;" horiz-adv-x="593" d="M383 730 C409 730 429 750 429 776 C429 802 409 822 383 822 C357 822 337 802 337 776 C337 750 357 730 383 730 L383 730 Z M201 730 C227 730 247 750 247 776 C247 802 227 822 201 822 C175 822 155 802 155 776 C155 750 175 730 201 730 L201 730 Z M407 256.5 L407 437.5 C407 441.088 404.088 444 400.5 444 L400.083 444 C396.771 444 393.544 441.267 393 438 L392 432 C385 393 341 362 294 362 L249.5 362 C224.937 362 205 381.937 205 406.5 L205 587.8 C205 616.061 227.939 639 256.2 639 L328 639 C384 639 437 595 449 539 L456.533 503.845 C457.325 500.15 461.222 497 465 497 C468.864 497 472 500.136 472 504 L472 608.8 C472 637.061 449.061 660 420.8 660 L46.5 660 C42.9122 660 40 657.088 40 653.5 C40 649.912 42.9122 647 46.5 647 L57 647 C93 648 122 619 122 583 L122 77 C122 41 93 12 57 13 L46.5 13 C42.9122 13 40 10.0878 40 6.5 C40 2.91219 42.9122 0 46.5 0 L469.901 0 C472.661 0 475.459 2.29374 476 5 L477 10 C483.821 50.9231 496.337 117.479 503.45 159.717 C504.084 163.481 500.817 163 497 163 C493.389 163 488.793 159.833 487.508 156.459 L474 121 C452 66 391 21 335 21 L256.2 21 C227.939 21 205 43.9391 205 72.2 L205 297.5 C205 322.063 224.937 342 249.5 342 L294 342 C342 342 385 307 392 264 L393.081 256.435 C393.583 252.919 396.948 250 400.5 250 C404.088 250 407 252.912 407 256.5 L407 256.5 Z " />
<glyph glyph-name="Igrave" unicode="&#xcc;" horiz-adv-x="326" d="M81 869 C81 864.152 97.9256 843.318 119.011 820.176 C119.063 820.12 123.235 815.114 123.281 815.055 C154.296 775.556 237 690 237 690 C237 690 238.68 691.47 241 693.5 C243.137 695.37 246.16 694.666 244.896 697.209 C242.286 702.464 191.008 805.438 162.224 844.085 C162.098 844.255 158.61 849.447 158.505 849.631 C142.127 878.391 127.882 901 124 901 C112 901 81 878 81 869 L81 869 Z M280.5 13 L270 13 C234 12 205 41 205 77 L205 583 C205 619 234 648 270 647 L280.5 647 C284.088 647 287 649.912 287 653.5 C287 657.088 284.088 660 280.5 660 L46.5 660 C42.9122 660 40 657.088 40 653.5 C40 649.912 42.9122 647 46.5 647 L57 647 C93 648 122 619 122 583 L122 77 C122 41 93 12 57 13 L46.5 13 C42.9122 13 40 10.0878 40 6.5 C40 2.91219 42.9122 0 46.5 0 L280.5 0 C284.088 0 287 2.91219 287 6.5 C287 10.0878 284.088 13 280.5 13 L280.5 13 Z " />
<glyph glyph-name="Iacute" unicode="&#xcd;" horiz-adv-x="326" d="M102.155 690.168 C106.166 694.516 186.725 781.925 215 818 C237 843 254 865 254 869 C254 878 223 901 211 901 C208.088 901 193.872 878.391 177.495 849.631 C177.394 849.454 173.903 844.249 173.781 844.085 C144.383 804.421 94 697 94 697 C94 697 95.067 696.066 98 693.5 C100.208 691.568 100.166 688.012 102.155 690.168 L102.155 690.168 Z M280.5 13 L270 13 C234 12 205 41 205 77 L205 583 C205 619 234 648 270 647 L280.5 647 C284.088 647 287 649.912 287 653.5 C287 657.088 284.088 660 280.5 660 L46.5 660 C42.9122 660 40 657.088 40 653.5 C40 649.912 42.9122 647 46.5 647 L57 647 C93 648 122 619 122 583 L122 77 C122 41 93 12 57 13 L46.5 13 C42.9122 13 40 10.0878 40 6.5 C40 2.91219 42.9122 0 46.5 0 L280.5 0 C284.088 0 287 2.91219 287 6.5 C287 10.0878 284.088 13 280.5 13 L280.5 13 Z " />
<glyph glyph-name="Icircumflex" unicode="&#xce;" horiz-adv-x="326" d="M188 884 C185 890 176 905 164 905 C152 905 143 890 140 884 C140 884 47.7894 697.678 51.5206 698.557 C52.6768 698.829 55.106 696.282 56 695.5 C58.215 693.562 60.9642 693.138 62.8553 695.393 C94.3193 732.915 127.502 776.733 151.734 810.001 C158.289 819 169.191 819.98 175.903 811.098 C213.73 761.04 268 693 268 693 C268 693 269.89 694.654 272 696.5 C274.118 698.353 277.107 697.589 275.933 700.146 C274.19 703.942 238.7 781.15 188 884.5 L188 884 Z M280.5 14 L270 14 C234 13 205 42 205 78 L205 584 C205 620 234 649 270 648 L280.5 648 C284.088 648 287 650.912 287 654.5 C287 658.088 284.088 661 280.5 661 L46.5 661 C42.9122 661 40 658.088 40 654.5 C40 650.912 42.9122 648 46.5 648 L57 648 C93 649 122 620 122 584 L122 78 C122 42 93 13 57 14 L46.5 14 C42.9122 14 40 11.0878 40 7.5 C40 3.91219 42.9122 1 46.5 1 L280.5 1 C284.088 1 287 3.91219 287 7.5 C287 11.0878 284.088 14 280.5 14 L280.5 14 Z " />
<glyph glyph-name="Idieresis" unicode="&#xcf;" horiz-adv-x="326" d="M255 730 C281 730 301 750 301 776 C301 802 281 822 255 822 C229 822 209 802 209 776 C209 750 229 730 255 730 L255 730 Z M73 730 C99 730 119 750 119 776 C119 802 99 822 73 822 C47 822 27 802 27 776 C27 750 47 730 73 730 L73 730 Z M280.5 13 L270 13 C234 12 205 41 205 77 L205 583 C205 619 234 648 270 647 L280.5 647 C284.088 647 287 649.912 287 653.5 C287 657.088 284.088 660 280.5 660 L46.5 660 C42.9122 660 40 657.088 40 653.5 C40 649.912 42.9122 647 46.5 647 L57 647 C93 648 122 619 122 583 L122 77 C122 41 93 12 57 13 L46.5 13 C42.9122 13 40 10.0878 40 6.5 C40 2.91219 42.9122 0 46.5 0 L280.5 0 C284.088 0 287 2.91219 287 6.5 C287 10.0878 284.088 13 280.5 13 L280.5 13 Z " />
<glyph glyph-name="Ntilde" unicode="&#xd1;" horiz-adv-x="687" d="M229.123 760.465 C230.59 792.87 245 818 263 818 C302 818 366 755 405 755 C441.075 755 469.545 801.581 470.946 860.448 C471.027 863.838 468.391 865 465 865 C461.868 865 459.03 862.97 458.861 859.842 C457.199 829.233 440.895 805 421 805 C382 805 318 867 279 867 C245.85 867 218.404 819.469 217.052 759.627 C216.976 756.241 219.613 755 223 755 C226.162 755 228.98 757.306 229.123 760.465 L229.123 760.465 Z M47.5 647 L58 647 C94 648 123 619 123 583 L123 77 C123 41 94 12 58 13 L47.5 13 C43.9122 13 41 10.0878 41 6.5 C41 2.91219 43.9122 0 47.5 0 L223.5 0 C227.088 0 230 2.91219 230 6.5 C230 10.0878 227.088 13 223.5 13 L213 13 C177 12 148 41 148 77 L148 464.003 C148 499.606 196.425 507.922 215.72 478 C318.895 318 421.959 158 524.398 -2 C528.282 -8.06685 542.296 -17 549.5 -17 C558.056 -17 565 -10.0555 565 -1.5 L565 583 C565 619 594 648 630 647 L640.5 647 C644.088 647 647 649.912 647 653.5 C647 657.088 644.088 660 640.5 660 L464.5 660 C460.912 660 458 657.088 458 653.5 C458 649.912 460.912 647 464.5 647 L475 647 C511 648 540 619 540 583 L540 298.998 C540 246.933 473.738 227.547 445.674 271.401 L212.104 636.397 C205.082 647.371 182.006 660 168.978 660 L47.5 660 C43.9122 660 41 657.088 41 653.5 C41 649.912 43.9122 647 47.5 647 L47.5 647 Z " />
<glyph glyph-name="Ograve" unicode="&#xd2;" horiz-adv-x="721" d="M146 330 C146 487 231 644 363 644 C495 644 580 487 580 330 C580 173 495 16 363 16 C231 16 146 173 146 330 L146 330 Z M54 330 C54 163 174 -5 363 -5 C551 -5 671 163 671 330 C671 497 551 665 363 665 C174 665 54 497 54 330 L54 330 Z M280 869 C280 864.152 296.926 843.318 318.011 820.176 C318.064 820.119 322.232 815.116 322.28 815.055 C353.246 775.556 435 690 435 690 C435 690 436.75 691.361 439.5 693.5 C441.94 695.398 445.289 694.45 443.894 697.209 C441.237 702.464 389.056 805.438 360.226 844.085 C360.098 844.257 356.611 849.445 356.505 849.631 C340.127 878.391 325.882 901 322 901 C310 901 280 878 280 869 L280 869 Z " />
<glyph glyph-name="Oacute" unicode="&#xd3;" horiz-adv-x="721" d="M339.153 690.168 C343.116 694.516 422.725 781.925 451 818 C473 843 490 865 490 869 C490 878 459 901 447 901 C445.061 901 430.897 878.433 414.54 849.71 C414.438 849.531 410.902 844.251 410.779 844.085 C381.334 804.421 330 697 330 697 C330 697 331.414 695.9 334.5 693.5 C336.977 691.573 337.039 687.849 339.153 690.168 L339.153 690.168 Z M146 330 C146 487 231 644 363 644 C495 644 580 487 580 330 C580 173 495 16 363 16 C231 16 146 173 146 330 L146 330 Z M54 330 C54 163 174 -5 363 -5 C551 -5 671 163 671 330 C671 497 551 665 363 665 C174 665 54 497 54 330 L54 330 Z " />
<glyph glyph-name="Ocircumflex" unicode="&#xd4;" horiz-adv-x="721" d="M146 330 C146 487 231 644 363 644 C495 644 580 487 580 330 C580 173 495 16 363 16 C231 16 146 173 146 330 L146 330 Z M54 330 C54 163 174 -5 363 -5 C551 -5 671 163 671 330 C671 497 551 665 363 665 C174 665 54 497 54 330 L54 330 Z M386 884 C383 890 374 905 363 905 C351 905 342 890 339 884 C339 884 247.74 699.579 249.665 698.699 C249.77 698.651 253.913 695.576 254 695.5 C256.215 693.562 258.964 693.138 260.855 695.393 C292.319 732.915 325.502 776.733 349.734 810.001 C356.286 818.997 367.217 819.945 373.931 811.07 C411.92 760.85 467 692 467 692 C467 692 468.887 693.651 471 695.5 C473.125 697.359 476.141 696.599 474.929 699.149 C473.092 703.016 435.725 781.625 386 884 L386 884 Z " />
<glyph glyph-name="Otilde" unicode="&#xd5;" horiz-adv-x="721" d="M248.123 760.465 C249.587 792.87 263.947 818 281 818 C320 818 384 755 423 755 C459.075 755 488.496 801.581 489.944 860.448 C490.035 864.123 487.176 865 483.5 865 C480.204 865 476.956 860.592 476.689 857.307 C474.291 827.905 458.342 805 439 805 C400 805 337 867 298 867 C263.875 867 236.404 819.469 235.052 759.627 C234.969 755.959 237.831 755 241.5 755 C244.926 755 247.968 757.043 248.123 760.465 L248.123 760.465 Z M146 330 C146 487 231 644 363 644 C495 644 580 487 580 330 C580 173 495 16 363 16 C231 16 146 173 146 330 L146 330 Z M54 330 C54 163 174 -5 363 -5 C551 -5 671 163 671 330 C671 497 551 665 363 665 C174 665 54 497 54 330 L54 330 Z " />
<glyph glyph-name="Odieresis" unicode="&#xd6;" horiz-adv-x="721" d="M453 730 C479 730 499 750 499 776 C499 802 479 822 453 822 C427 822 407 802 407 776 C407 750 427 730 453 730 L453 730 Z M272 730 C298 730 318 750 318 776 C318 802 298 822 272 822 C246 822 226 802 226 776 C226 750 246 730 272 730 L272 730 Z M146 330 C146 487 231 644 363 644 C495 644 580 487 580 330 C580 173 495 16 363 16 C231 16 146 173 146 330 L146 330 Z M54 330 C54 163 174 -5 363 -5 C551 -5 671 163 671 330 C671 497 551 665 363 665 C174 665 54 497 54 330 L54 330 Z " />
<glyph glyph-name="Oslash" unicode="&#xd8;" horiz-adv-x="721" d="M81.1486 -3.66948 L132.379 52.166 C144.313 65.1728 171.881 64.6441 185.932 53.9591 C233.929 17.4606 293.7 -5 363 -5 C551 -5 671 163 671 330 C671 396 651.943 462.681 617.197 518.812 C607.387 534.658 607.338 568.599 619.951 582.32 L671.071 637.934 C678.207 645.698 677.727 657.824 670 665 C662.273 672.175 650.213 671.693 643.084 663.923 L591.621 607.834 C579.684 594.824 552.125 595.349 538.073 606.041 C490.102 642.539 430.475 665 362 665 C173 665 53 497 53 330 C53 264 72.0575 198 106.803 142.107 C116.668 126.24 116.693 92.4355 104.049 78.68 L53.1616 23.3186 C45.8989 15.4174 46.2746 2.94947 54 -4.5 C61.7252 -11.9493 73.8932 -11.5771 81.1486 -3.66948 L81.1486 -3.66948 Z M501.8 510.615 L199.805 182.436 C189.869 171.638 175.156 175.593 170.379 189.467 C155.167 233.65 147 282.325 147 331 C147 488 232 645 364 645 C420.925 645 469.002 615.733 505.423 569.553 C519.806 551.316 517.527 527.706 501.8 510.615 L501.8 510.615 Z M556.621 474.446 C571.832 430 580 380.5 580 331 C580 174 495 17 363 17 C305.25 17 256.348 46.9475 219.663 93.3661 C205.243 111.613 207.467 135.256 223.243 152.346 L527.163 481.593 C537.135 492.396 551.86 488.355 556.621 474.446 L556.621 474.446 Z " />
<glyph glyph-name="Ugrave" unicode="&#xd9;" horiz-adv-x="659" d="M249 869 C249 864.152 265.926 843.318 287.011 820.176 C287.064 820.119 291.232 815.116 291.28 815.055 C322.246 775.556 404 690 404 690 C404 690 405.75 691.361 408.5 693.5 C410.94 695.398 414.289 694.45 412.894 697.209 C410.237 702.464 358.056 805.438 329.226 844.085 C329.098 844.257 325.611 849.445 325.505 849.631 C309.127 878.391 294.882 901 291 901 C279 901 249 878 249 869 L249 869 Z M632.5 660 L431.5 660 C427.912 660 425 657.088 425 653.5 C425 649.912 427.912 647 431.5 647 L447 647 C489 648 522 615 522 573 L522 188 C522 97 464 24 348 24 C249 24 199 100 199 194 L199 583 C199 619 228 648 264 647 L274.5 647 C278.088 647 281 649.912 281 653.5 C281 657.088 278.088 660 274.5 660 L40.5 660 C36.9122 660 34 657.088 34 653.5 C34 649.912 36.9122 647 40.5 647 L51 647 C87 648 116 619 116 583 L116 210 C116 91 189 -5 336 -5 C477 -5 547 77 547 180 L547 573 C547 615 580 648 622 647 L632.5 647 C636.088 647 639 649.912 639 653.5 C639 657.088 636.088 660 632.5 660 L632.5 660 Z " />
<glyph glyph-name="Uacute" unicode="&#xda;" horiz-adv-x="659" d="M331.153 690.168 C335.116 694.516 414.725 781.925 443 818 C465 843 482 865 482 869 C482 878 451 901 439 901 C437.061 901 422.897 878.433 406.54 849.71 C406.438 849.531 402.902 844.251 402.779 844.085 C373.334 804.421 322 697 322 697 C322 697 323.414 695.9 326.5 693.5 C328.977 691.573 329.039 687.849 331.153 690.168 L331.153 690.168 Z M632.5 660 L431.5 660 C427.912 660 425 657.088 425 653.5 C425 649.912 427.912 647 431.5 647 L447 647 C489 648 522 615 522 573 L522 188 C522 97 464 24 348 24 C249 24 199 100 199 194 L199 583 C199 619 228 648 264 647 L274.5 647 C278.088 647 281 649.912 281 653.5 C281 657.088 278.088 660 274.5 660 L40.5 660 C36.9122 660 34 657.088 34 653.5 C34 649.912 36.9122 647 40.5 647 L51 647 C87 648 116 619 116 583 L116 210 C116 91 189 -5 336 -5 C477 -5 547 77 547 180 L547 573 C547 615 580 648 622 647 L632.5 647 C636.088 647 639 649.912 639 653.5 C639 657.088 636.088 660 632.5 660 L632.5 660 Z " />
<glyph glyph-name="Ucircumflex" unicode="&#xdb;" horiz-adv-x="659" d="M355 884 C352 890 343 905 332 905 C320 905 311 890 308 884 C308 884 216.74 699.579 218.665 698.699 C218.77 698.651 222.913 695.576 223 695.5 C225.215 693.562 227.964 693.138 229.855 695.393 C261.319 732.915 294.502 776.733 318.734 810.001 C325.286 818.997 336.217 819.945 342.931 811.07 C380.92 760.85 436 692 436 692 C436 692 437.887 693.651 440 695.5 C442.125 697.359 445.141 696.599 443.929 699.149 C442.092 703.016 404.725 781.625 355 884 L355 884 Z M632.5 660 L431.5 660 C427.912 660 425 657.088 425 653.5 C425 649.912 427.912 647 431.5 647 L447 647 C489 648 522 615 522 573 L522 188 C522 97 464 24 348 24 C249 24 199 100 199 194 L199 583 C199 619 228 648 264 647 L274.5 647 C278.088 647 281 649.912 281 653.5 C281 657.088 278.088 660 274.5 660 L40.5 660 C36.9122 660 34 657.088 34 653.5 C34 649.912 36.9122 647 40.5 647 L51 647 C87 648 116 619 116 583 L116 210 C116 91 189 -5 336 -5 C477 -5 547 77 547 180 L547 573 C547 615 580 648 622 647 L632.5 647 C636.088 647 639 649.912 639 653.5 C639 657.088 636.088 660 632.5 660 L632.5 660 Z " />
<glyph glyph-name="Udieresis" unicode="&#xdc;" horiz-adv-x="659" d="M422 730 C448 730 468 750 468 776 C468 802 448 822 422 822 C396 822 376 802 376 776 C376 750 396 730 422 730 L422 730 Z M241 730 C267 730 287 750 287 776 C287 802 267 822 241 822 C215 822 195 802 195 776 C195 750 215 730 241 730 L241 730 Z M632.5 660 L431.5 660 C427.912 660 425 657.088 425 653.5 C425 649.912 427.912 647 431.5 647 L447 647 C489 648 522 615 522 573 L522 188 C522 97 464 24 348 24 C249 24 199 100 199 194 L199 583 C199 619 228 648 264 647 L274.5 647 C278.088 647 281 649.912 281 653.5 C281 657.088 278.088 660 274.5 660 L40.5 660 C36.9122 660 34 657.088 34 653.5 C34 649.912 36.9122 647 40.5 647 L51 647 C87 648 116 619 116 583 L116 210 C116 91 189 -5 336 -5 C477 -5 547 77 547 180 L547 573 C547 615 580 648 622 647 L632.5 647 C636.088 647 639 649.912 639 653.5 C639 657.088 636.088 660 632.5 660 L632.5 660 Z " />
<glyph glyph-name="Yacute" unicode="&#xdd;" horiz-adv-x="599" d="M301.155 690.168 C305.166 694.516 385.725 781.925 414 818 C436 843 453 865 453 869 C453 878 422 901 410 901 C407.088 901 392.872 878.391 376.495 849.631 C376.394 849.454 372.903 844.249 372.781 844.085 C343.383 804.421 293 697 293 697 C293 697 294.067 696.066 297 693.5 C299.208 691.568 299.166 688.012 301.155 690.168 L301.155 690.168 Z M183.5 0 L419.5 0 C423.088 0 426 2.91219 426 6.5 C426 10.0878 423.088 13 419.5 13 L409 13 C373 12 344 41 344 77 L344 296.631 C344 300.239 348.772 318.515 350.536 321.662 L497 583 C517 619 560 648 594 647 L599 647 C601.76 647 604 649.24 604 652 L604 653.5 C604 657.088 601.088 660 597.5 660 L404.5 660 C400.912 660 398 657.088 398 653.5 C398 649.912 400.912 647 404.5 647 L423 647 C466.875 647.975 485.083 616.629 468.356 575.206 C468.279 575.016 466.006 570.199 465.907 570.019 L376.754 408.511 C355.22 369.5 305.316 370.814 285.865 410.904 L199.04 589.857 C198.939 590.065 197.226 594.166 197.152 594.385 C186.811 625.184 202.825 647.975 235 647 L254.5 647 C258.088 647 261 649.912 261 653.5 C261 657.088 258.088 660 254.5 660 L15.5 660 C11.9122 660 9 657.088 9 653.5 L9 651.5 C9 649.016 11.0161 647 13.5 647 L18 647 C47 648 85 618 103 582 L255.324 284.101 C256.764 281.284 260.953 263.696 260.937 260.532 L260 76 C260 40 231 10 195 11 L183.5 11 C180.464 11 178 8.53584 178 5.5 C178 2.46416 180.464 0 183.5 0 L183.5 0 Z " />
<glyph glyph-name="agrave" unicode="&#xe0;" horiz-adv-x="457" d="M430.473 37.2614 C421.355 30.9392 406 26 385 26 C357 26 346 54 346 88 L346 357 C346 439 295 505 231 505 C159.6 505 93.2575 471.043 68.2059 424.622 C58.5667 406.761 68.712 399 89.0083 399 L110.073 399 C119.986 399 137.299 413.521 141.061 422.693 C155.6 458.136 185.3 484 215 484 C244 484 267 435 267 373 L267 267.659 C267 260.776 260.484 253.961 253.689 252.86 C231.636 249.286 207.229 245.143 189 241 C104 220 36 158 36 103 C36 43 81 -5 136 -5 C170.125 -5 214.203 14.1406 252.826 43.043 C259.099 47.7368 271.037 44.5127 273.468 37.0652 C282.612 9.0575 302 -10 335 -10 C381.25 -10 416.377 5.40125 438.798 25.1234 C441.936 27.8839 442.147 32.2652 439.5 35.5 L438.582 36.6218 C436.935 38.6353 432.611 38.7437 430.473 37.2614 L430.473 37.2614 Z M121 709 C121 704.152 137.926 683.318 159.011 660.176 C159.064 660.119 163.232 655.116 163.28 655.055 C194.246 615.556 276 530 276 530 C276 530 277.75 531.361 280.5 533.5 C282.94 535.398 286.289 534.45 284.894 537.209 C282.237 542.464 230.056 645.438 201.226 684.085 C201.098 684.257 197.611 689.445 197.505 689.631 C181.127 718.391 166.882 741 163 741 C151 741 121 718 121 709 L121 709 Z M268 224.719 L268 80 L268 77 C268 75.541 267.081 73.4588 265.814 72.7363 C237.253 56.4569 203.25 46 174 46 C139 46 111 81 111 124 C111 165 146 207 190 218 C212.371 223.8 235.773 228.913 255.653 233.34 C261.559 234.656 268 230.77 268 224.719 L268 224.719 Z " />
<glyph glyph-name="aacute" unicode="&#xe1;" horiz-adv-x="457" d="M172.153 530.168 C176.116 534.516 255.725 621.925 284 658 C306 683 323 705 323 709 C323 718 292 741 280 741 C278.061 741 263.897 718.433 247.54 689.71 C247.438 689.531 243.902 684.251 243.779 684.085 C214.334 644.421 163 537 163 537 C163 537 164.414 535.9 167.5 533.5 C169.977 531.573 170.039 527.849 172.153 530.168 L172.153 530.168 Z M430.473 37.2614 C421.355 30.9392 406 26 385 26 C357 26 346 54 346 88 L346 357 C346 439 295 505 231 505 C159.6 505 93.2575 471.043 68.2059 424.622 C58.5667 406.761 68.712 399 89.0083 399 L110.073 399 C119.986 399 137.299 413.521 141.061 422.693 C155.6 458.136 185.3 484 215 484 C244 484 267 435 267 373 L267 267.659 C267 260.776 260.484 253.961 253.689 252.86 C231.636 249.286 207.229 245.143 189 241 C104 220 36 158 36 103 C36 43 81 -5 136 -5 C170.125 -5 214.203 14.1406 252.826 43.043 C259.099 47.7368 271.037 44.5127 273.468 37.0652 C282.612 9.0575 302 -10 335 -10 C381.25 -10 416.377 5.40125 438.798 25.1234 C441.936 27.8839 442.147 32.2652 439.5 35.5 L438.582 36.6218 C436.935 38.6353 432.611 38.7437 430.473 37.2614 L430.473 37.2614 Z M268 224.719 L268 80 L268 77 C268 75.541 267.081 73.4588 265.814 72.7363 C237.253 56.4569 203.25 46 174 46 C139 46 111 81 111 124 C111 165 146 207 190 218 C212.371 223.8 235.773 228.913 255.653 233.34 C261.559 234.656 268 230.77 268 224.719 L268 224.719 Z " />
<glyph glyph-name="acircumflex" unicode="&#xe2;" horiz-adv-x="457" d="M430.473 37.2614 C421.355 30.9392 406 26 385 26 C357 26 346 54 346 88 L346 357 C346 439 295 505 231 505 C159.6 505 93.2575 471.043 68.2059 424.622 C58.5667 406.761 68.712 399 89.0083 399 L110.073 399 C119.986 399 137.299 413.521 141.061 422.693 C155.6 458.136 185.3 484 215 484 C244 484 267 435 267 373 L267 267.659 C267 260.776 260.484 253.961 253.689 252.86 C231.636 249.286 207.229 245.143 189 241 C104 220 36 158 36 103 C36 43 81 -5 136 -5 C170.125 -5 214.203 14.1406 252.826 43.043 C259.099 47.7368 271.037 44.5127 273.468 37.0652 C282.612 9.0575 302 -10 335 -10 C381.25 -10 416.377 5.40125 438.798 25.1234 C441.936 27.8839 442.147 32.2652 439.5 35.5 L438.582 36.6218 C436.935 38.6353 432.611 38.7437 430.473 37.2614 L430.473 37.2614 Z M227 724 C224 730 215 745 204 745 C192 745 183 730 180 724 C180 724 88.74 539.579 90.665 538.699 C90.7704 538.651 94.9128 535.576 95 535.5 C97.215 533.562 99.9642 533.138 101.855 535.393 C133.319 572.915 166.502 616.733 190.734 650.001 C197.286 658.997 208.217 659.945 214.931 651.07 C252.92 600.85 308 532 308 532 C308 532 309.887 533.651 312 535.5 C314.125 537.359 317.141 536.599 315.929 539.149 C314.092 543.016 276.725 621.625 227 724 L227 724 Z M268 224.719 L268 80 L268 77 C268 75.541 267.081 73.4588 265.814 72.7363 C237.253 56.4569 203.25 46 174 46 C139 46 111 81 111 124 C111 165 146 207 190 218 C212.371 223.8 235.773 228.913 255.653 233.34 C261.559 234.656 268 230.77 268 224.719 L268 224.719 Z " />
<glyph glyph-name="atilde" unicode="&#xe3;" horiz-adv-x="457" d="M88.1229 600.465 C89.5873 632.87 103.947 658 121 658 C160 658 224 595 263 595 C299.075 595 328.496 641.581 329.944 700.448 C330.035 704.123 327.176 705 323.5 705 C320.204 705 316.956 700.592 316.689 697.307 C314.291 667.905 298.342 645 279 645 C240 645 177 707 138 707 C103.875 707 76.4044 659.469 75.0522 599.627 C74.9693 595.959 77.8311 595 81.5 595 C84.9258 595 87.9683 597.043 88.1229 600.465 L88.1229 600.465 Z M430.473 37.2614 C421.355 30.9392 406 26 385 26 C357 26 346 54 346 88 L346 357 C346 439 295 505 231 505 C159.6 505 93.2575 471.043 68.2059 424.622 C58.5667 406.761 68.712 399 89.0083 399 L110.073 399 C119.986 399 137.299 413.521 141.061 422.693 C155.6 458.136 185.3 484 215 484 C244 484 267 435 267 373 L267 267.659 C267 260.776 260.484 253.961 253.689 252.86 C231.636 249.286 207.229 245.143 189 241 C104 220 36 158 36 103 C36 43 81 -5 136 -5 C170.125 -5 214.203 14.1406 252.826 43.043 C259.099 47.7368 271.037 44.5127 273.468 37.0652 C282.612 9.0575 302 -10 335 -10 C381.25 -10 416.377 5.40125 438.798 25.1234 C441.936 27.8839 442.147 32.2652 439.5 35.5 L438.582 36.6218 C436.935 38.6353 432.611 38.7437 430.473 37.2614 L430.473 37.2614 Z M268 224.719 L268 80 L268 77 C268 75.541 267.081 73.4588 265.814 72.7363 C237.253 56.4569 203.25 46 174 46 C139 46 111 81 111 124 C111 165 146 207 190 218 C212.371 223.8 235.773 228.913 255.653 233.34 C261.559 234.656 268 230.77 268 224.719 L268 224.719 Z " />
<glyph glyph-name="adieresis" unicode="&#xe4;" horiz-adv-x="457" d="M293 570 C319 570 339 590 339 616 C339 642 319 662 293 662 C267 662 247 642 247 616 C247 590 267 570 293 570 L293 570 Z M112 570 C138 570 158 590 158 616 C158 642 138 662 112 662 C86 662 66 642 66 616 C66 590 86 570 112 570 L112 570 Z M430.473 37.2614 C421.355 30.9392 406 26 385 26 C357 26 346 54 346 88 L346 357 C346 439 295 505 231 505 C159.6 505 93.2575 471.043 68.2059 424.622 C58.5667 406.761 68.712 399 89.0083 399 L110.073 399 C119.986 399 137.299 413.521 141.061 422.693 C155.6 458.136 185.3 484 215 484 C244 484 267 435 267 373 L267 267.659 C267 260.776 260.484 253.961 253.689 252.86 C231.636 249.286 207.229 245.143 189 241 C104 220 36 158 36 103 C36 43 81 -5 136 -5 C170.125 -5 214.203 14.1406 252.826 43.043 C259.099 47.7368 271.037 44.5127 273.468 37.0652 C282.612 9.0575 302 -10 335 -10 C381.25 -10 416.377 5.40125 438.798 25.1234 C441.936 27.8839 442.147 32.2652 439.5 35.5 L438.582 36.6218 C436.935 38.6353 432.611 38.7437 430.473 37.2614 L430.473 37.2614 Z M268 224.719 L268 80 L268 77 C268 75.541 267.081 73.4588 265.814 72.7363 C237.253 56.4569 203.25 46 174 46 C139 46 111 81 111 124 C111 165 146 207 190 218 C212.371 223.8 235.773 228.913 255.653 233.34 C261.559 234.656 268 230.77 268 224.719 L268 224.719 Z " />
<glyph glyph-name="aring" unicode="&#xe5;" horiz-adv-x="457" d="M129 628 C129 670 162 703 203 703 C244 703 276 670 276 628 C276 590 239 552 203 552 C166 552 129 590 129 628 L129 628 Z M108 628 C108 582 156 535 203 535 C250 535 297 582 297 628 C297 679 255 720 203 720 C150 720 108 679 108 628 L108 628 Z M430.473 37.2614 C421.355 30.9392 406 26 385 26 C357 26 346 54 346 88 L346 357 C346 439 295 505 231 505 C159.6 505 93.2575 471.043 68.2059 424.622 C58.5667 406.761 68.712 399 89.0083 399 L110.073 399 C119.986 399 137.299 413.521 141.061 422.693 C155.6 458.136 185.3 484 215 484 C244 484 267 435 267 373 L267 267.659 C267 260.776 260.484 253.961 253.689 252.86 C231.636 249.286 207.229 245.143 189 241 C104 220 36 158 36 103 C36 43 81 -5 136 -5 C170.125 -5 214.203 14.1406 252.826 43.043 C259.099 47.7368 271.037 44.5127 273.468 37.0652 C282.612 9.0575 302 -10 335 -10 C381.25 -10 416.377 5.40125 438.798 25.1234 C441.936 27.8839 442.147 32.2652 439.5 35.5 L438.582 36.6218 C436.935 38.6353 432.611 38.7437 430.473 37.2614 L430.473 37.2614 Z M268 224.719 L268 80 L268 77 C268 75.541 267.081 73.4588 265.814 72.7363 C237.253 56.4569 203.25 46 174 46 C139 46 111 81 111 124 C111 165 146 207 190 218 C212.371 223.8 235.773 228.913 255.653 233.34 C261.559 234.656 268 230.77 268 224.719 L268 224.719 Z " />
<glyph glyph-name="ccedilla" unicode="&#xe7;" horiz-adv-x="456" d="M197.5 -88 C197.452 -88.1158 197.656 -88.2051 197.708 -88.0911 L197.792 -87.9089 C197.844 -87.7949 197.548 -87.8842 197.5 -88 L197.5 -88 Z M205.969 -70.7375 C222.129 -32.0862 235.396 -14.5344 242.963 -6.85156 C244.25 -5.54462 248.395 -3.82365 250.222 -3.66087 C302.552 1.00112 364.23 23.289 401.223 50.5395 C403.876 52.4938 405.523 56.899 403.5 59.5 C401.844 61.6289 398.362 62.572 396.083 61.1286 C377.817 49.5563 333.625 41 292 41 C203 41 131 139 131 262 C131 385 192 484 267 484 C302 484 333 448 337 404 C339 383 356 367 375 367 C393 367 408 382 408 400 C403 458 344 505 275 505 C151 505 52 384 52 233 C52 107.225 123.297 5.21563 215.84 -4.44053 C218.515 -4.71964 222.068 -7.33962 221.092 -9.8457 C215.872 -23.2465 204.782 -52.6326 192.121 -88.7921 C191.544 -90.4413 192.342 -92.4474 194 -93 C195.175 -93.3915 197.951 -93.4553 199.039 -92.8646 C212.882 -85.3492 231.476 -79 241 -79 C265 -79 285 -103 285 -134 C285 -170 259 -198 226 -198 C202.6 -198 178.449 -194.244 167.217 -189.337 C165.512 -188.592 162.153 -189.258 161.5 -191 C160.648 -193.272 160.796 -195.706 162.762 -197.129 C180.671 -210.099 214.436 -220 241 -220 C290 -220 330 -182 330 -134 C330 -95 298 -64 259 -64 C243.769 -64 223.527 -68.2959 209.783 -74.4643 C207.585 -75.4508 205.04 -72.9603 205.969 -70.7375 L205.969 -70.7375 Z " />
<glyph glyph-name="egrave" unicode="&#xe8;" horiz-adv-x="462" d="M407.5 59.5 C405.856 61.6139 402.322 62.5472 400.051 61.1286 C381.523 49.5563 335.55 41 293 41 C202 41 129 139 129 262 C129 278.8 129.706 294.894 131.71 310.283 C132.378 315.417 136.947 319 142.124 319 L360.8 319 C395.923 319 414.203 336.828 405.674 370.9 C386.249 448.508 324.25 505 250 505 C139 505 50 384 50 233 C50 101 131 -5 231 -5 C289.5 -5 367.012 20.6669 407.926 52.5366 C410.479 54.5253 409.487 56.9455 407.5 59.5 L407.5 59.5 Z M167 709 C167 704.152 183.926 683.318 205.011 660.176 C205.063 660.12 209.235 655.114 209.281 655.055 C240.296 615.556 323 530 323 530 C323 530 324.68 531.47 327 533.5 C329.137 535.37 332.16 534.666 330.896 537.209 C328.286 542.464 277.008 645.438 248.224 684.085 C248.098 684.255 244.61 689.447 244.505 689.631 C228.127 718.391 213.882 741 210 741 C198 741 167 718 167 709 L167 709 Z M342 380 L342 382 C342 381 342 380 342 379 L342 380 L342 380 Z M340.563 371.896 C336.743 355.938 322.208 343.958 304 343 L178.628 334.888 C152.307 333.185 136.768 350.597 144.865 375.699 C165.645 440.121 203.1 483 246 483 C299 483 347 431 342 382 L341.679 376.871 C341.653 376.452 340.661 372.304 340.563 371.896 L340.563 371.896 Z " />
<glyph glyph-name="eacute" unicode="&#xe9;" horiz-adv-x="462" d="M219.155 530.168 C223.166 534.516 303.725 621.925 332 658 C354 683 371 705 371 709 C371 718 340 741 328 741 C325.088 741 310.872 718.391 294.495 689.631 C294.394 689.454 290.903 684.249 290.781 684.085 C261.383 644.421 211 537 211 537 C211 537 212.067 536.066 215 533.5 C217.208 531.568 217.166 528.012 219.155 530.168 L219.155 530.168 Z M407.5 59.5 C405.856 61.6139 402.322 62.5472 400.051 61.1286 C381.523 49.5563 335.55 41 293 41 C202 41 129 139 129 262 C129 278.8 129.706 294.894 131.71 310.283 C132.378 315.417 136.947 319 142.124 319 L360.8 319 C395.923 319 414.203 336.828 405.674 370.9 C386.249 448.508 324.25 505 250 505 C139 505 50 384 50 233 C50 101 131 -5 231 -5 C289.5 -5 367.012 20.6669 407.926 52.5366 C410.479 54.5253 409.487 56.9455 407.5 59.5 L407.5 59.5 Z M342 380 L342 382 C342 381 342 380 342 379 L342 380 L342 380 Z M340.563 371.896 C336.743 355.938 322.208 343.958 304 343 L178.628 334.888 C152.307 333.185 136.768 350.597 144.865 375.699 C165.645 440.121 203.1 483 246 483 C299 483 347 431 342 382 L341.679 376.871 C341.653 376.452 340.661 372.304 340.563 371.896 L340.563 371.896 Z " />
<glyph glyph-name="ecircumflex" unicode="&#xea;" horiz-adv-x="462" d="M407.5 59.5 C405.856 61.6139 402.322 62.5472 400.051 61.1286 C381.523 49.5563 335.55 41 293 41 C202 41 129 139 129 262 C129 278.8 129.706 294.894 131.71 310.283 C132.378 315.417 136.947 319 142.124 319 L360.8 319 C395.923 319 414.203 336.828 405.674 370.9 C386.249 448.508 324.25 505 250 505 C139 505 50 384 50 233 C50 101 131 -5 231 -5 C289.5 -5 367.012 20.6669 407.926 52.5366 C410.479 54.5253 409.487 56.9455 407.5 59.5 L407.5 59.5 Z M274 724 C271 730 262 745 250 745 C238 745 229 730 226 724 C226 724 133.789 537.678 137.521 538.557 C138.677 538.829 141.106 536.282 142 535.5 C144.215 533.562 146.964 533.138 148.855 535.393 C180.319 572.915 213.502 616.733 237.734 650.001 C244.289 659 255.191 659.98 261.903 651.098 C299.73 601.04 354 533 354 533 C354 533 355.89 534.654 358 536.5 C360.118 538.353 363.107 537.589 361.933 540.146 C360.19 543.942 324.7 621.15 274 724.5 L274 724 Z M342 381 L342 383 C342 382 342 381 342 380 L342 381 L342 381 Z M340.563 372.896 C336.743 356.938 322.208 344.958 304 344 L178.628 335.888 C152.307 334.185 136.768 351.597 144.865 376.699 C165.645 441.121 203.1 484 246 484 C299 484 347 432 342 383 L341.679 377.871 C341.653 377.452 340.661 373.304 340.563 372.896 L340.563 372.896 Z " />
<glyph glyph-name="edieresis" unicode="&#xeb;" horiz-adv-x="462" d="M341 570 C367 570 387 590 387 616 C387 642 367 662 341 662 C315 662 295 642 295 616 C295 590 315 570 341 570 L341 570 Z M159 570 C185 570 205 590 205 616 C205 642 185 662 159 662 C133 662 113 642 113 616 C113 590 133 570 159 570 L159 570 Z M407.5 59.5 C405.856 61.6139 402.322 62.5472 400.051 61.1286 C381.523 49.5563 335.55 41 293 41 C202 41 129 139 129 262 C129 278.8 129.706 294.894 131.71 310.283 C132.378 315.417 136.947 319 142.124 319 L360.8 319 C395.923 319 414.203 336.828 405.674 370.9 C386.249 448.508 324.25 505 250 505 C139 505 50 384 50 233 C50 101 131 -5 231 -5 C289.5 -5 367.012 20.6669 407.926 52.5366 C410.479 54.5253 409.487 56.9455 407.5 59.5 L407.5 59.5 Z M342 380 L342 382 C342 381 342 380 342 379 L342 380 L342 380 Z M340.563 371.896 C336.743 355.938 322.208 343.958 304 343 L178.628 334.888 C152.307 333.185 136.768 350.597 144.865 375.699 C165.645 440.121 203.1 483 246 483 C299 483 347 431 342 382 L341.679 376.871 C341.653 376.452 340.661 372.304 340.563 371.896 L340.563 371.896 Z " />
<glyph glyph-name="igrave" unicode="&#xec;" horiz-adv-x="328" d="M81 709 C81 704.152 97.9256 683.318 119.011 660.176 C119.063 660.12 123.235 655.114 123.281 655.055 C154.296 615.556 237 530 237 530 C237 530 238.68 531.47 241 533.5 C243.137 535.37 246.16 534.666 244.896 537.209 C242.286 542.464 191.008 645.438 162.224 684.085 C162.098 684.255 158.61 689.447 158.505 689.631 C142.127 718.391 127.882 741 124 741 C112 741 81 718 81 709 L81 709 Z M277.5 13 L267 13 C231 12 202 41 202 77 L202 492.5 C202 496.64 198.64 500 194.5 500 L194.413 500 C193.253 500 181.004 498.227 179.891 497.897 L50.7536 459.702 C47.7082 458.801 45 455.176 45 452 C45 448.688 47.6882 446 51 446 L57 446 C111 445 127 430 127 379 L127 77 C127 41 98 12 62 13 L51.5 13 C47.9122 13 45 10.0878 45 6.5 C45 2.91219 47.9122 0 51.5 0 L277.5 0 C281.088 0 284 2.91219 284 6.5 C284 10.0878 281.088 13 277.5 13 L277.5 13 Z " />
<glyph glyph-name="iacute" unicode="&#xed;" horiz-adv-x="328" d="M87.1553 530.168 C91.1656 534.516 171.725 621.925 200 658 C222 683 239 705 239 709 C239 718 208 741 196 741 C193.088 741 178.872 718.391 162.495 689.631 C162.394 689.454 158.903 684.249 158.781 684.085 C129.383 644.421 79 537 79 537 C79 537 80.067 536.066 83 533.5 C85.208 531.568 85.1662 528.012 87.1553 530.168 L87.1553 530.168 Z M277.5 13 L267 13 C231 12 202 41 202 77 L202 492.5 C202 496.64 198.64 500 194.5 500 L194.413 500 C193.253 500 181.004 498.227 179.891 497.897 L50.7536 459.702 C47.7082 458.801 45 455.176 45 452 C45 448.688 47.6882 446 51 446 L57 446 C111 445 127 430 127 379 L127 77 C127 41 98 12 62 13 L51.5 13 C47.9122 13 45 10.0878 45 6.5 C45 2.91219 47.9122 0 51.5 0 L277.5 0 C281.088 0 284 2.91219 284 6.5 C284 10.0878 281.088 13 277.5 13 L277.5 13 Z " />
<glyph glyph-name="icircumflex" unicode="&#xee;" horiz-adv-x="328" d="M188 724 C185 730 176 745 164 745 C152 745 143 730 140 724 C140 724 47.7894 537.678 51.5206 538.557 C52.6768 538.829 55.106 536.282 56 535.5 C58.215 533.562 60.9642 533.138 62.8553 535.393 C94.3193 572.915 127.502 616.733 151.734 650.001 C158.289 659 169.191 659.98 175.903 651.098 C213.73 601.04 268 533 268 533 C268 533 269.89 534.654 272 536.5 C274.118 538.353 277.107 537.589 275.933 540.146 C274.19 543.942 238.7 621.15 188 724.5 L188 724 Z M277.5 14 L267 14 C231 13 202 42 202 78 L202 493.5 C202 497.64 198.64 501 194.5 501 L194.413 501 C193.253 501 181.004 499.227 179.891 498.897 L50.7536 460.702 C47.7082 459.801 45 456.176 45 453 C45 449.688 47.6882 447 51 447 L57 447 C111 446 127 431 127 380 L127 78 C127 42 98 13 62 14 L51.5 14 C47.9122 14 45 11.0878 45 7.5 C45 3.91219 47.9122 1 51.5 1 L277.5 1 C281.088 1 284 3.91219 284 7.5 C284 11.0878 281.088 14 277.5 14 L277.5 14 Z " />
<glyph glyph-name="idieresis" unicode="&#xef;" horiz-adv-x="328" d="M255 570 C281 570 301 590 301 616 C301 642 281 662 255 662 C229 662 209 642 209 616 C209 590 229 570 255 570 L255 570 Z M73 570 C99 570 119 590 119 616 C119 642 99 662 73 662 C47 662 27 642 27 616 C27 590 47 570 73 570 L73 570 Z M277.5 13 L267 13 C231 12 202 41 202 77 L202 492.5 C202 496.64 198.64 500 194.5 500 L194.413 500 C193.253 500 181.004 498.227 179.891 497.897 L50.7536 459.702 C47.7082 458.801 45 455.176 45 452 C45 448.688 47.6882 446 51 446 L57 446 C111 445 127 430 127 379 L127 77 C127 41 98 12 62 13 L51.5 13 C47.9122 13 45 10.0878 45 6.5 C45 2.91219 47.9122 0 51.5 0 L277.5 0 C281.088 0 284 2.91219 284 6.5 C284 10.0878 281.088 13 277.5 13 L277.5 13 Z " />
<glyph glyph-name="ntilde" unicode="&#xf1;" horiz-adv-x="602" d="M189.123 600.465 C190.59 632.87 205 658 223 658 C262 658 326 595 365 595 C401.075 595 429.545 641.581 430.946 700.448 C431.027 703.838 428.391 705 425 705 C421.868 705 419.03 702.97 418.861 699.842 C417.199 669.233 400.895 645 381 645 C342 645 278 707 239 707 C205.85 707 178.404 659.469 177.052 599.627 C176.976 596.241 179.613 595 183 595 C186.162 595 188.98 597.306 189.123 600.465 L189.123 600.465 Z M330.5 0 L556.5 0 C560.088 0 563 2.91219 563 6.5 C563 10.0878 560.088 13 556.5 13 L546 13 C510 12 481 41 481 77 L481 337 C481 430 446 505 375 505 C351.375 505 290.234 482.797 228.424 453.129 C215.372 446.864 202 455.523 202 470 L202 492.5 C202 496.64 198.64 500 194.5 500 L194.413 500 C193.253 500 181.004 498.227 179.891 497.897 L50.7536 459.702 C47.7082 458.801 45 455.176 45 452 C45 448.688 47.6882 446 51 446 L57 446 C111 445 127 430 127 379 L127 77 C127 41 98 12 62 13 L51.5 13 C47.9122 13 45 10.0878 45 6.5 C45 2.91219 47.9122 0 51.5 0 L277.5 0 C281.088 0 284 2.91219 284 6.5 C284 10.0878 281.088 13 277.5 13 L267 13 C231 12 202 41 202 77 L202 415.652 C202 424.956 207.87 434.618 216.674 437.624 C246.407 447.775 286.4 455 317 455 C376 455 406 399 406 329 L406 77 C406 41 377 12 341 13 L330.5 13 C326.912 13 324 10.0878 324 6.5 C324 2.91219 326.912 0 330.5 0 L330.5 0 Z " />
<glyph glyph-name="ograve" unicode="&#xf2;" horiz-adv-x="558" d="M133 250 C133 382 198 488 279 488 C360 488 425 382 425 250 C425 118 360 12 279 12 C198 12 133 118 133 250 L133 250 Z M50 250 C50 108 152 -5 279 -5 C406 -5 508 108 508 250 C508 392 406 505 279 505 C152 505 50 392 50 250 L50 250 Z M196 709 C196 704.152 212.926 683.318 234.011 660.176 C234.063 660.12 238.235 655.114 238.281 655.055 C269.296 615.556 352 530 352 530 C352 530 353.68 531.47 356 533.5 C358.137 535.37 361.16 534.666 359.896 537.209 C357.286 542.464 306.008 645.438 277.224 684.085 C277.098 684.255 273.61 689.447 273.505 689.631 C257.127 718.391 242.882 741 239 741 C227 741 196 718 196 709 L196 709 Z " />
<glyph glyph-name="oacute" unicode="&#xf3;" horiz-adv-x="558" d="M248.155 530.168 C252.166 534.516 332.725 621.925 361 658 C383 683 400 705 400 709 C400 718 369 741 357 741 C354.088 741 339.872 718.391 323.495 689.631 C323.394 689.454 319.903 684.249 319.781 684.085 C290.383 644.421 240 537 240 537 C240 537 241.067 536.066 244 533.5 C246.208 531.568 246.166 528.012 248.155 530.168 L248.155 530.168 Z M133 250 C133 382 198 488 279 488 C360 488 425 382 425 250 C425 118 360 12 279 12 C198 12 133 118 133 250 L133 250 Z M50 250 C50 108 152 -5 279 -5 C406 -5 508 108 508 250 C508 392 406 505 279 505 C152 505 50 392 50 250 L50 250 Z " />
<glyph glyph-name="ocircumflex" unicode="&#xf4;" horiz-adv-x="558" d="M133 250 C133 382 198 488 279 488 C360 488 425 382 425 250 C425 118 360 12 279 12 C198 12 133 118 133 250 L133 250 Z M50 250 C50 108 152 -5 279 -5 C406 -5 508 108 508 250 C508 392 406 505 279 505 C152 505 50 392 50 250 L50 250 Z M303 724 C300 730 291 745 279 745 C267 745 258 730 255 724 C255 724 162.789 537.678 166.521 538.557 C167.677 538.829 170.106 536.282 171 535.5 C173.215 533.562 175.964 533.138 177.855 535.393 C209.319 572.915 242.502 616.733 266.734 650.001 C273.289 659 284.191 659.98 290.903 651.098 C328.73 601.04 383 533 383 533 C383 533 384.89 534.654 387 536.5 C389.118 538.353 392.107 537.589 390.933 540.146 C389.19 543.942 353.7 621.15 303 724.5 L303 724 Z " />
<glyph glyph-name="otilde" unicode="&#xf5;" horiz-adv-x="558" d="M164.123 600.465 C165.59 632.87 180 658 198 658 C237 658 301 595 340 595 C376.075 595 404.545 641.581 405.946 700.448 C406.027 703.838 403.391 705 400 705 C396.868 705 394.03 702.97 393.861 699.842 C392.199 669.233 375.895 645 356 645 C317 645 253 707 214 707 C180.85 707 153.404 659.469 152.052 599.627 C151.976 596.241 154.613 595 158 595 C161.162 595 163.98 597.306 164.123 600.465 L164.123 600.465 Z M133 250 C133 382 198 488 279 488 C360 488 425 382 425 250 C425 118 360 12 279 12 C198 12 133 118 133 250 L133 250 Z M50 250 C50 108 152 -5 279 -5 C406 -5 508 108 508 250 C508 392 406 505 279 505 C152 505 50 392 50 250 L50 250 Z " />
<glyph glyph-name="odieresis" unicode="&#xf6;" horiz-adv-x="558" d="M370 570 C396 570 416 590 416 616 C416 642 396 662 370 662 C344 662 324 642 324 616 C324 590 344 570 370 570 L370 570 Z M188 570 C214 570 234 590 234 616 C234 642 214 662 188 662 C162 662 142 642 142 616 C142 590 162 570 188 570 L188 570 Z M133 250 C133 382 198 488 279 488 C360 488 425 382 425 250 C425 118 360 12 279 12 C198 12 133 118 133 250 L133 250 Z M50 250 C50 108 152 -5 279 -5 C406 -5 508 108 508 250 C508 392 406 505 279 505 C152 505 50 392 50 250 L50 250 Z " />
<glyph glyph-name="oslash" unicode="&#xf8;" horiz-adv-x="558" d="M67.0151 -4.01341 L105.703 39.3639 C115.071 49.8677 136.553 49.6169 147.676 40.9932 C185.053 12.0156 230.325 -5 279 -5 C406 -5 508 108 508 250 C508 304.45 493.026 354.816 467.009 396.045 C459.752 407.546 459.355 432.573 468.423 442.708 L508.971 488.026 C513.403 492.979 512.968 500.584 508 505 C503.032 509.416 495.409 508.974 490.985 504.013 L452.297 460.636 C442.929 450.132 421.447 450.383 410.323 459.007 C372.947 487.984 327.675 505 279 505 C152 505 50 392 50 250 C50 195.55 64.9737 145.184 90.9906 103.955 C98.2484 92.4535 98.6453 67.4271 89.5769 57.2918 L49.0293 11.9739 C44.5974 7.0206 45.0323 -0.584263 50 -5 C54.9677 -9.41575 62.591 -8.97373 67.0151 -4.01341 L67.0151 -4.01341 Z M373.215 372.886 L165.797 142.23 C159.322 135.03 149.394 138.125 146.732 147.435 C137.764 178.792 133 213.875 133 251 C133 383 198 489 279 489 C317.775 489 352.807 464.157 379.041 424.017 C389.444 408.1 385.93 387.026 373.215 372.886 L373.215 372.886 Z M411.268 352.565 C420.236 321.208 425 286.125 425 249 C425 117 360 11 279 11 C240.225 11 204.853 35.5025 178.5 75.5233 C167.994 91.4767 171.014 111.908 183.79 126.109 L392.201 357.772 C398.677 364.972 408.606 361.876 411.268 352.565 L411.268 352.565 Z " />
<glyph glyph-name="ugrave" unicode="&#xf9;" horiz-adv-x="567" d="M191 709 C191 704.152 207.926 683.318 229.011 660.176 C229.063 660.12 233.235 655.114 233.281 655.055 C264.296 615.556 347 530 347 530 C347 530 348.68 531.47 351 533.5 C353.137 535.37 356.16 534.666 354.896 537.209 C352.286 542.464 301.008 645.438 272.224 684.085 C272.098 684.255 268.61 689.447 268.505 689.631 C252.127 718.391 237.882 741 234 741 C222 741 191 718 191 709 L191 709 Z M22 487 L32 487 C68 488 97 459 97 423 L97 155 C97 66 146 -5 224 -5 C272.45 -5 320.9 13.785 357.682 40.3007 C365.77 46.1319 376 39.4763 376 29.5049 L376 7.5 C376 3.36022 379.36 0 383.5 0 L383.587 0 C384.747 0 396.996 1.7734 398.109 2.10257 L527.246 40.2982 C530.292 41.199 533 44.8242 533 48 C533 51.3118 530.312 54 527 54 L521 54 C467 55 451 70 451 121 L451 448.8 C451 477.061 428.061 500 399.8 500 L300.5 500 C296.912 500 294 497.088 294 493.5 C294 489.912 296.912 487 300.5 487 L311 487 C347 488 376 459 376 423 L376 76 C376 70.0769 372.921 63.5679 367.673 60.8227 C349.852 51.5025 320.4 45 283 45 C215 45 171 98 171 164 L171.848 449.648 C171.932 477.993 148.993 501 120.648 501 L22 501 C18.1362 501 15 497.864 15 494 C15 490.136 18.1362 487 22 487 L22 487 Z " />
<glyph glyph-name="uacute" unicode="&#xfa;" horiz-adv-x="567" d="M243.155 530.168 C247.166 534.516 327.725 621.925 356 658 C378 683 395 705 395 709 C395 718 364 741 352 741 C349.088 741 334.872 718.391 318.495 689.631 C318.394 689.454 314.903 684.249 314.781 684.085 C285.383 644.421 235 537 235 537 C235 537 236.067 536.066 239 533.5 C241.208 531.568 241.166 528.012 243.155 530.168 L243.155 530.168 Z M22 487 L32 487 C68 488 97 459 97 423 L97 155 C97 66 146 -5 224 -5 C272.45 -5 320.9 13.785 357.682 40.3007 C365.77 46.1319 376 39.4763 376 29.5049 L376 7.5 C376 3.36022 379.36 0 383.5 0 L383.587 0 C384.747 0 396.996 1.7734 398.109 2.10257 L527.246 40.2982 C530.292 41.199 533 44.8242 533 48 C533 51.3118 530.312 54 527 54 L521 54 C467 55 451 70 451 121 L451 448.8 C451 477.061 428.061 500 399.8 500 L300.5 500 C296.912 500 294 497.088 294 493.5 C294 489.912 296.912 487 300.5 487 L311 487 C347 488 376 459 376 423 L376 76 C376 70.0769 372.921 63.5679 367.673 60.8227 C349.852 51.5025 320.4 45 283 45 C215 45 171 98 171 164 L171.848 449.648 C171.932 477.993 148.993 501 120.648 501 L22 501 C18.1362 501 15 497.864 15 494 C15 490.136 18.1362 487 22 487 L22 487 Z " />
<glyph glyph-name="ucircumflex" unicode="&#xfb;" horiz-adv-x="567" d="M298 724 C295 730 286 745 274 745 C262 745 253 730 250 724 C250 724 157.789 537.678 161.521 538.557 C162.677 538.829 165.106 536.282 166 535.5 C168.215 533.562 170.964 533.138 172.855 535.393 C204.319 572.915 237.502 616.733 261.734 650.001 C268.289 659 279.191 659.98 285.903 651.098 C323.73 601.04 378 533 378 533 C378 533 379.89 534.654 382 536.5 C384.118 538.353 387.107 537.589 385.933 540.146 C384.19 543.942 348.7 621.15 298 724.5 L298 724 Z M22 488 L32 488 C68 489 97 460 97 424 L97 156 C97 67 146 -4 224 -4 C272.45 -4 320.9 14.785 357.682 41.3008 C365.77 47.1319 376 40.4763 376 30.5049 L376 8.5 C376 4.36022 379.36 1 383.5 1 L383.587 1 C384.747 1 396.996 2.7734 398.109 3.10257 L527.246 41.2982 C530.292 42.199 533 45.8242 533 49 C533 52.3118 530.312 55 527 55 L521 55 C467 56 451 71 451 122 L451 449.8 C451 478.061 428.061 501 399.8 501 L300.5 501 C296.912 501 294 498.088 294 494.5 C294 490.912 296.912 488 300.5 488 L311 488 C347 489 376 460 376 424 L376 77 C376 71.0769 372.921 64.5679 367.673 61.8227 C349.852 52.5025 320.4 46 283 46 C215 46 171 99 171 165 L171.848 450.648 C171.932 478.993 148.993 502 120.648 502 L22 502 C18.1362 502 15 498.864 15 495 C15 491.136 18.1362 488 22 488 L22 488 Z " />
<glyph glyph-name="udieresis" unicode="&#xfc;" horiz-adv-x="567" d="M365 570 C391 570 411 590 411 616 C411 642 391 662 365 662 C339 662 319 642 319 616 C319 590 339 570 365 570 L365 570 Z M183 570 C209 570 229 590 229 616 C229 642 209 662 183 662 C157 662 137 642 137 616 C137 590 157 570 183 570 L183 570 Z M22 487 L32 487 C68 488 97 459 97 423 L97 155 C97 66 146 -5 224 -5 C272.45 -5 320.9 13.785 357.682 40.3007 C365.77 46.1319 376 39.4763 376 29.5049 L376 7.5 C376 3.36022 379.36 0 383.5 0 L383.587 0 C384.747 0 396.996 1.7734 398.109 2.10257 L527.246 40.2982 C530.292 41.199 533 44.8242 533 48 C533 51.3118 530.312 54 527 54 L521 54 C467 55 451 70 451 121 L451 448.8 C451 477.061 428.061 500 399.8 500 L300.5 500 C296.912 500 294 497.088 294 493.5 C294 489.912 296.912 487 300.5 487 L311 487 C347 488 376 459 376 423 L376 76 C376 70.0769 372.921 63.5679 367.673 60.8227 C349.852 51.5025 320.4 45 283 45 C215 45 171 98 171 164 L171.848 449.648 C171.932 477.993 148.993 501 120.648 501 L22 501 C18.1362 501 15 497.864 15 494 C15 490.136 18.1362 487 22 487 L22 487 Z " />
<glyph glyph-name="ydieresis" unicode="&#xff;" horiz-adv-x="474" d="M354 570 C380 570 400 590 400 616 C400 642 380 662 354 662 C328 662 308 642 308 616 C308 590 328 570 354 570 L354 570 Z M172 570 C198 570 218 590 218 616 C218 642 198 662 172 662 C146 662 126 642 126 616 C126 590 146 570 172 570 L172 570 Z M232 500 L0.5 500 C-3.08781 500 -6 497.088 -6 493.5 C-6 489.912 -3.08781 487 0.5 487 L10 487 C46 488 86 459 99 423 L251.537 6.72185 C252.438 4.26193 251.843 -4.77903 250.806 -7.18489 C244.8 -21.1165 236.548 -42.3548 229 -65 C205.2 -130.45 181.4 -168.445 158.214 -178.371 C149.062 -182.289 154.821 -185.389 145.908 -180.954 C143.519 -179.766 95.525 -156 77 -156 C56 -156 39 -170 39 -188 C39 -211 66 -230 100 -230 C161 -230 211 -177 249 -72 C261 -38 271 -10 271 -10 L429 428 C444 461 482 487 516 486 L525.5 486 C529.088 486 532 488.912 532 492.5 C532 496.088 529.088 499 525.5 499 L354.5 499 C350.912 499 348 496.088 348 492.5 C348 488.912 350.912 486 354.5 486 L361 486 C397 487 416 458 404 422 L341.763 236.41 C325.594 188.195 260.67 188.283 244.633 236.542 L183 422 C172 457 190 487 226 486 L232.5 486 C236.088 486 239 488.912 239 492.5 L239 493 C239 496.864 235.864 500 232 500 L232 500 Z " />
<glyph glyph-name="Amacron" unicode="&#x100;" horiz-adv-x="634" d="M193.5 767 L415.5 767 C426.815 767 436 776.185 436 787.5 C436 798.815 426.815 808 415.5 808 L193.5 808 C182.185 808 173 798.815 173 787.5 C173 776.185 182.185 767 193.5 767 L193.5 767 Z M5 0 L214.5 0 C218.088 0 221 2.91219 221 6.5 C221 10.0878 218.088 13 214.5 13 L188 13 C144 12 120 49 133 93 L166.724 200.169 C172.661 219.035 195.786 236 215.563 236 L355.609 236 C374.579 236 397.727 219.548 403.964 201.632 L447 78 C460 42 441 14 405 14 L368.5 14 C364.912 14 362 11.0878 362 7.5 C362 3.91219 364.912 1 368.5 1 L625.5 1 C629.088 1 632 3.91219 632 7.5 L632 8.5 C632 11.5358 629.536 14 626.5 14 L621 14 C588 14 549.5 42 536.5 78 L318.647 666.154 C316.759 671.25 309.935 676 304.5 676 C298.984 676 292.471 671.257 290.779 666.006 L100 74 C87 40 50 13 15 14 L5 14 C1.13621 14 -2 10.8638 -2 7 C-2 3.13621 1.13621 0 5 0 L5 0 Z M311.992 257 L253.779 257 C217.038 257 193.914 288.516 204.939 323.564 L232.59 411.465 C247.876 460.057 313.063 461.03 329.791 412.916 L360.353 325.014 C372.681 289.554 349.534 257 311.992 257 L311.992 257 Z " />
<glyph glyph-name="amacron" unicode="&#x101;" horiz-adv-x="457" d="M91.5 607 L313.5 607 C324.815 607 334 616.185 334 627.5 C334 638.815 324.815 648 313.5 648 L91.5 648 C80.1846 648 71 638.815 71 627.5 C71 616.185 80.1846 607 91.5 607 L91.5 607 Z M430.473 37.2614 C421.355 30.9392 406 26 385 26 C357 26 346 54 346 88 L346 357 C346 439 295 505 231 505 C159.6 505 93.2575 471.043 68.2059 424.622 C58.5667 406.761 68.712 399 89.0083 399 L110.073 399 C119.986 399 137.299 413.521 141.061 422.693 C155.6 458.136 185.3 484 215 484 C244 484 267 435 267 373 L267 267.659 C267 260.776 260.484 253.961 253.689 252.86 C231.636 249.286 207.229 245.143 189 241 C104 220 36 158 36 103 C36 43 81 -5 136 -5 C170.125 -5 214.203 14.1406 252.826 43.043 C259.099 47.7368 271.037 44.5127 273.468 37.0652 C282.612 9.0575 302 -10 335 -10 C381.25 -10 416.377 5.40125 438.798 25.1234 C441.936 27.8839 442.147 32.2652 439.5 35.5 L438.582 36.6218 C436.935 38.6353 432.611 38.7437 430.473 37.2614 L430.473 37.2614 Z M268 224.719 L268 80 L268 77 C268 75.541 267.081 73.4588 265.814 72.7363 C237.253 56.4569 203.25 46 174 46 C139 46 111 81 111 124 C111 165 146 207 190 218 C212.371 223.8 235.773 228.913 255.653 233.34 C261.559 234.656 268 230.77 268 224.719 L268 224.719 Z " />
<glyph glyph-name="Abreve" unicode="&#x102;" horiz-adv-x="634" d="M203.329 866.225 C221.296 804.482 266 756 305 756 C343.025 756 387.704 805.432 405.671 867.223 C406.722 870.837 404.167 872.654 400.5 873.5 C397.197 874.262 393.39 872.558 392.279 869.355 C380.002 833.977 342.05 806 305 806 C267 806 229 833.977 216.721 869.356 C215.582 872.638 211.821 874.022 208.5 873 C204.827 871.87 202.255 869.915 203.329 866.225 L203.329 866.225 Z M5 0 L214.5 0 C218.088 0 221 2.91219 221 6.5 C221 10.0878 218.088 13 214.5 13 L188 13 C144 12 120 49 133 93 L166.724 200.169 C172.661 219.035 195.786 236 215.563 236 L355.609 236 C374.579 236 397.727 219.548 403.964 201.632 L447 78 C460 42 441 14 405 14 L368.5 14 C364.912 14 362 11.0878 362 7.5 C362 3.91219 364.912 1 368.5 1 L625.5 1 C629.088 1 632 3.91219 632 7.5 L632 8.5 C632 11.5358 629.536 14 626.5 14 L621 14 C588 14 549.5 42 536.5 78 L318.647 666.154 C316.759 671.25 309.935 676 304.5 676 C298.984 676 292.471 671.257 290.779 666.006 L100 74 C87 40 50 13 15 14 L5 14 C1.13621 14 -2 10.8638 -2 7 C-2 3.13621 1.13621 0 5 0 L5 0 Z M311.992 257 L253.779 257 C217.038 257 193.914 288.516 204.939 323.564 L232.59 411.465 C247.876 460.057 313.063 461.03 329.791 412.916 L360.353 325.014 C372.681 289.554 349.534 257 311.992 257 L311.992 257 Z " />
<glyph glyph-name="abreve" unicode="&#x103;" horiz-adv-x="457" d="M101.329 676.225 C119.296 614.482 164 566 203 566 C241.025 566 285.704 615.433 303.671 677.223 C304.722 680.837 302.167 682.654 298.5 683.5 C295.197 684.262 291.39 682.558 290.279 679.355 C278.002 643.977 240.05 616 203 616 C165 616 127 643.977 114.721 679.355 C113.582 682.638 109.821 684.022 106.5 683 C102.827 681.87 100.255 679.915 101.329 676.225 L101.329 676.225 Z M430.473 37.2614 C421.355 30.9392 406 26 385 26 C357 26 346 54 346 88 L346 357 C346 439 295 505 231 505 C159.6 505 93.2575 471.043 68.2059 424.622 C58.5667 406.761 68.712 399 89.0083 399 L110.073 399 C119.986 399 137.299 413.521 141.061 422.693 C155.6 458.136 185.3 484 215 484 C244 484 267 435 267 373 L267 267.659 C267 260.776 260.484 253.961 253.689 252.86 C231.636 249.286 207.229 245.143 189 241 C104 220 36 158 36 103 C36 43 81 -5 136 -5 C170.125 -5 214.203 14.1406 252.826 43.043 C259.099 47.7368 271.037 44.5127 273.468 37.0652 C282.612 9.0575 302 -10 335 -10 C381.25 -10 416.377 5.40125 438.798 25.1234 C441.936 27.8839 442.147 32.2652 439.5 35.5 L438.582 36.6218 C436.935 38.6353 432.611 38.7437 430.473 37.2614 L430.473 37.2614 Z M268 224.719 L268 80 L268 77 C268 75.541 267.081 73.4588 265.814 72.7363 C237.253 56.4569 203.25 46 174 46 C139 46 111 81 111 124 C111 165 146 207 190 218 C212.371 223.8 235.773 228.913 255.653 233.34 C261.559 234.656 268 230.77 268 224.719 L268 224.719 Z " />
<glyph glyph-name="Aogonek" unicode="&#x104;" horiz-adv-x="634" d="M5 0 L214.5 0 C218.088 0 221 2.91219 221 6.5 C221 10.0878 218.088 13 214.5 13 L188 13 C144 12 120 49 133 93 L166.724 200.169 C172.661 219.035 195.786 236 215.563 236 L355.609 236 C374.579 236 397.727 219.548 403.964 201.632 L447 78 C460 42 441 14 405 14 L368.5 14 C364.912 14 362 11.0878 362 7.5 C362 3.91219 364.912 1 368.5 1 L412.627 1 C421.489 1 425.946 -10.7275 418.946 -16.1619 C372.02 -52.595 320 -109.8 320 -154 C320 -198 372 -233 436 -233 C465.45 -233 499.412 -220.365 515.596 -203.669 C517.205 -202.008 516.98 -199.776 515.5 -198 C514.371 -196.645 511.459 -196.603 510.05 -197.663 C499.61 -205.52 475.4 -212 452 -212 C404 -212 365 -183 365 -146 C365 -90.5 432.594 -21.31 466.477 -2.5377 C469.574 -0.821877 479.55 1 483.091 1 L625.5 1 C629.088 1 632 3.91219 632 7.5 L632 8.5 C632 11.5358 629.536 14 626.5 14 L621 14 C588 14 549.5 42 536.5 78 L318.647 666.154 C316.759 671.25 309.935 676 304.5 676 C298.984 676 292.471 671.257 290.779 666.006 L100 74 C87 40 50 13 15 14 L5 14 C1.13621 14 -2 10.8638 -2 7 C-2 3.13621 1.13621 0 5 0 L5 0 Z M311.992 257 L253.779 257 C217.038 257 193.914 288.516 204.939 323.564 L232.59 411.465 C247.876 460.057 313.063 461.03 329.791 412.916 L360.353 325.014 C372.681 289.554 349.534 257 311.992 257 L311.992 257 Z " />
<glyph glyph-name="aogonek" unicode="&#x105;" horiz-adv-x="457" d="M429.352 36.4167 C418.889 29.4722 403.333 26 385 26 C357 26 346 54 346 88 L346 357 C346 439 295 505 231 505 C159.6 505 93.2575 471.043 68.2059 424.622 C58.5667 406.761 68.712 399 89.0083 399 L110.073 399 C119.986 399 137.299 413.521 141.061 422.693 C155.6 458.136 185.3 484 215 484 C244 484 267 435 267 373 L267 267.659 C267 260.776 260.484 253.961 253.689 252.86 C231.636 249.286 207.229 245.143 189 241 C104 220 36 158 36 103 C36 43 81 -5 136 -5 C170.125 -5 214.203 14.1406 252.826 43.043 C259.099 47.7368 271.037 44.5127 273.468 37.0652 C282.612 9.0575 302 -10 335 -10 C345.286 -10 354.837 -9.26531 363.653 -7.79592 C365.059 -7.56161 365.899 -8.90996 364.851 -9.87588 C323.926 -47.5937 284 -98.05 284 -139 C284 -192 336 -234 400 -234 C429.45 -234 463.413 -221.365 479.596 -204.669 C481.205 -203.008 480.98 -200.776 479.5 -199 C478.371 -197.645 475.459 -197.603 474.05 -198.663 C463.61 -206.52 439.4 -213 416 -213 C368 -213 329 -177 329 -131 C329 -84.45 370.515 -29.7775 404.675 1.29462 C405.257 1.82437 415.788 9.0121 416.478 9.39058 C425.608 14.3961 433.727 19.8698 440.516 25.8116 C443.34 28.2829 443.351 32.0255 440.983 34.9356 L440.625 35.375 C438.657 37.7931 431.95 38.1409 429.352 36.4167 L429.352 36.4167 Z M269 224.719 L269 80 L269 77 C269 75.541 268.081 73.4588 266.814 72.7363 C238.253 56.4569 204.25 46 175 46 C140 46 112 81 112 124 C112 165 147 207 191 218 C213.371 223.8 236.773 228.913 256.653 233.34 C262.559 234.656 269 230.77 269 224.719 L269 224.719 Z " />
<glyph glyph-name="Cacute" unicode="&#x106;" horiz-adv-x="673" d="M328.155 690.168 C332.166 694.516 412.725 781.925 441 818 C463 843 480 865 480 869 C480 878 449 901 437 901 C434.088 901 419.872 878.391 403.495 849.631 C403.394 849.454 399.903 844.249 399.781 844.085 C370.383 804.421 320 697 320 697 C320 697 321.067 696.066 324 693.5 C326.208 691.568 326.166 688.012 328.155 690.168 L328.155 690.168 Z M594.694 199.764 C592.329 189.509 588.647 177.059 587 168 C570 96 497 32 419 19 C403 17 388 16 374 16 C247 16 145 156 145 330 C145 504 247 644 374 644 C397 644 423 641 450 636 C511 622 571 559 586 491 C587.647 481.941 591.329 469.491 593.694 459.236 C594.338 456.443 597.724 453 600.59 453 L603.5 453 C608.192 453 612 456.808 612 461.5 L612 573.224 C612 590.097 598.43 610.636 582.987 617.435 C523.175 643.77 437.75 664 374 664 C196 664 53 515 53 329 C53 143 196 -6 374 -6 C437.75 -6 523.898 13.5075 583.927 39.6259 C599.502 46.4026 613 66.7904 613 83.7762 L613 196.485 C613 201.177 609.184 205.224 604.5 205.5 L601.581 205.672 C598.684 205.842 595.346 202.592 594.694 199.764 L594.694 199.764 Z " />
<glyph glyph-name="cacute" unicode="&#x107;" horiz-adv-x="456" d="M196.155 530.168 C200.166 534.516 280.725 621.925 309 658 C331 683 348 705 348 709 C348 718 317 741 305 741 C302.088 741 287.872 718.391 271.495 689.631 C271.394 689.454 267.903 684.249 267.781 684.085 C238.383 644.421 188 537 188 537 C188 537 189.067 536.066 192 533.5 C194.208 531.568 194.166 528.012 196.155 530.168 L196.155 530.168 Z M401.5 59.5 C399.844 61.6289 396.362 62.572 394.083 61.1286 C375.817 49.5563 331.625 41 290 41 C201 41 129 139 129 262 C129 385 190 484 265 484 C300 484 331 448 335 404 C337 383 354 367 373 367 C391 367 406 382 406 400 C401 458 342 505 273 505 C149 505 50 384 50 233 C50 101 129 -5 228 -5 C285.525 -5 361.112 20.6669 401.93 52.5366 C404.477 54.5259 403.485 56.9484 401.5 59.5 L401.5 59.5 Z " />
<glyph glyph-name="Ccircumflex" unicode="&#x108;" horiz-adv-x="673" d="M399 884 C396 890 387 905 375 905 C363 905 354 890 351 884 C351 884 258.789 697.678 262.521 698.557 C263.677 698.829 266.106 696.282 267 695.5 C269.215 693.562 271.964 693.138 273.855 695.393 C305.319 732.915 338.502 776.733 362.734 810.001 C369.289 819 380.191 819.98 386.903 811.098 C424.73 761.04 479 693 479 693 C479 693 480.89 694.654 483 696.5 C485.118 698.353 488.107 697.589 486.933 700.146 C485.19 703.942 449.7 781.15 399 884.5 L399 884 Z M594.694 200.764 C592.329 190.509 588.647 178.059 587 169 C570 97 497 33 419 20 C403 18 388 17 374 17 C247 17 145 157 145 331 C145 505 247 645 374 645 C397 645 423 642 450 637 C511 623 571 560 586 492 C587.647 482.941 591.329 470.491 593.694 460.236 C594.338 457.443 597.724 454 600.59 454 L603.5 454 C608.192 454 612 457.808 612 462.5 L612 574.224 C612 591.097 598.43 611.636 582.987 618.435 C523.175 644.77 437.75 665 374 665 C196 665 53 516 53 330 C53 144 196 -5 374 -5 C437.75 -5 523.898 14.5075 583.927 40.6259 C599.502 47.4026 613 67.7904 613 84.7762 L613 197.485 C613 202.177 609.184 206.224 604.5 206.5 L601.581 206.672 C598.684 206.842 595.346 203.592 594.694 200.764 L594.694 200.764 Z " />
<glyph glyph-name="Cdot" unicode="&#x10a;" horiz-adv-x="673" d="M375 730 C401 730 421 750 421 776 C421 802 401 822 375 822 C349 822 329 802 329 776 C329 750 349 730 375 730 L375 730 Z M594.694 199.764 C592.329 189.509 588.647 177.059 587 168 C570 96 497 32 419 19 C403 17 388 16 374 16 C247 16 145 156 145 330 C145 504 247 644 374 644 C397 644 423 641 450 636 C511 622 571 559 586 491 C587.647 481.941 591.329 469.491 593.694 459.236 C594.338 456.443 597.724 453 600.59 453 L603.5 453 C608.192 453 612 456.808 612 461.5 L612 573.224 C612 590.097 598.43 610.636 582.987 617.435 C523.175 643.77 437.75 664 374 664 C196 664 53 515 53 329 C53 143 196 -6 374 -6 C437.75 -6 523.898 13.5075 583.927 39.6259 C599.502 46.4026 613 66.7904 613 83.7762 L613 196.485 C613 201.177 609.184 205.224 604.5 205.5 L601.581 205.672 C598.684 205.842 595.346 202.592 594.694 199.764 L594.694 199.764 Z " />
<glyph glyph-name="cdot" unicode="&#x10b;" horiz-adv-x="456" d="M273 570 C299 570 319 590 319 616 C319 642 299 662 273 662 C247 662 227 642 227 616 C227 590 247 570 273 570 L273 570 Z M401.5 59.5 C399.844 61.6289 396.362 62.572 394.083 61.1286 C375.817 49.5563 331.625 41 290 41 C201 41 129 139 129 262 C129 385 190 484 265 484 C300 484 331 448 335 404 C337 383 354 367 373 367 C391 367 406 382 406 400 C401 458 342 505 273 505 C149 505 50 384 50 233 C50 101 129 -5 228 -5 C285.525 -5 361.112 20.6669 401.93 52.5366 C404.477 54.5259 403.485 56.9484 401.5 59.5 L401.5 59.5 Z " />
<glyph glyph-name="Ccaron" unicode="&#x10c;" horiz-adv-x="673" d="M478.876 927.844 C475.998 924.234 423.679 858.569 386.903 809.902 C380.191 801.02 369.289 802 362.734 810.999 C338.502 844.267 305.319 888.085 273.855 925.607 C271.964 927.862 269.215 927.438 267 925.5 C266.106 924.718 263.677 922.171 262.521 922.443 C258.789 923.322 351 737 351 737 C354 731 363 716 375 716 C387 716 396 731 399 737 C451 843 487 922 487 922 C487 922 485.745 922.942 483 925 C480.792 926.656 480.596 930.002 478.876 927.844 L478.876 927.844 Z M594.694 200.764 C592.329 190.509 588.647 178.059 587 169 C570 97 497 33 419 20 C403 18 388 17 374 17 C247 17 145 157 145 331 C145 505 247 645 374 645 C397 645 423 642 450 637 C511 623 571 560 586 492 C587.647 482.941 591.329 470.491 593.694 460.236 C594.338 457.443 597.724 454 600.59 454 L603.5 454 C608.192 454 612 457.808 612 462.5 L612 574.224 C612 591.097 598.43 611.636 582.987 618.435 C523.175 644.77 437.75 665 374 665 C196 665 53 516 53 330 C53 144 196 -5 374 -5 C437.75 -5 523.898 14.5075 583.927 40.6259 C599.502 47.4026 613 67.7904 613 84.7762 L613 197.485 C613 202.177 609.184 206.224 604.5 206.5 L601.581 206.672 C598.684 206.842 595.346 203.592 594.694 200.764 L594.694 200.764 Z " />
<glyph glyph-name="ccaron" unicode="&#x10d;" horiz-adv-x="456" d="M376.876 767.844 C373.998 764.234 321.679 698.569 284.903 649.902 C278.191 641.02 267.289 642 260.734 650.999 C236.502 684.267 203.319 728.085 171.855 765.607 C169.964 767.862 167.215 767.438 165 765.5 C164.106 764.718 161.677 762.171 160.521 762.443 C156.789 763.322 249 577 249 577 C252 571 261 556 273 556 C285 556 294 571 297 577 C349 683 385 762 385 762 C385 762 383.745 762.942 381 765 C378.792 766.656 378.596 770.002 376.876 767.844 L376.876 767.844 Z M401.5 60.5 C399.844 62.6289 396.362 63.572 394.083 62.1286 C375.817 50.5563 331.625 42 290 42 C201 42 129 140 129 263 C129 386 190 485 265 485 C300 485 331 449 335 405 C337 384 354 368 373 368 C391 368 406 383 406 401 C401 459 342 506 273 506 C149 506 50 385 50 234 C50 102 129 -4 228 -4 C285.525 -4 361.112 21.6669 401.93 53.5366 C404.477 55.5259 403.485 57.9484 401.5 60.5 L401.5 60.5 Z " />
<glyph glyph-name="Dcaron" unicode="&#x10e;" horiz-adv-x="682" d="M441.874 927.842 C438.953 924.189 385.865 857.755 348.931 808.93 C342.217 800.055 331.286 801.003 324.734 809.999 C300.502 843.267 267.319 887.085 235.855 924.607 C233.964 926.862 231.215 926.438 229 924.5 C228.913 924.424 224.77 921.349 224.665 921.301 C222.74 920.421 314 736 314 736 C317 730 326 715 338 715 C349 715 358 730 361 736 C412 841 450 921 450 921 C450 921 448.918 921.947 446 924.5 C443.794 926.431 443.705 930.132 441.874 927.842 L441.874 927.842 Z M50.5 647 L61 647 C97 648 126 619 126 583 L126 77 C126 41 97 12 61 13 L50.5 13 C46.9122 13 44 10.0878 44 6.5 C44 2.91219 46.9122 0 50.5 0 L332 0 C499 0 632 147 632 330 C632 513 485 660 301 660 L50.5 660 C46.9122 660 44 657.088 44 653.5 C44 649.912 46.9122 647 50.5 647 L50.5 647 Z M209 72.2 L209 593 C209 618.391 229.609 639 255 639 L301 639 C439 639 549 501 549 330 C549 159 452 21 332 21 L260.2 21 C231.939 21 209 43.9391 209 72.2 L209 72.2 Z " />
<glyph glyph-name="dcaron" unicode="&#x10f;" horiz-adv-x="564" d="M561 753 C546 753 532 687 526 645 L502.691 486.693 C502.315 484.142 504.054 481.315 506.5 480.5 C508.977 479.674 511.819 480.968 512.822 483.379 L573 628 C592 673 608 729 608 736 C608 747 574 753 561 753 L561 753 Z M303 666 L309 666 C363 665 379 650 379 599 L379 471.57 C379 463.726 368.066 460.615 361.963 465.541 C333.311 488.665 296.475 505 261 505 C147 505 55 380 55 223 C55 96 134 -5 232 -5 C272.8 -5 323.715 11.6175 360.18 35.0265 C368.031 40.0667 378 33.8992 378 24.5693 L378 7.5 C378 3.36022 381.36 0 385.5 0 L385.587 0 C386.747 0 398.996 1.7734 400.109 2.10257 L529.246 40.2982 C532.292 41.199 535 44.8242 535 48 C535 51.3118 532.312 54 529 54 L523 54 C469 55 453 70 453 121 L453 712.5 C453 716.64 449.64 720 445.5 720 L445.413 720 C444.253 720 432.004 718.227 430.891 717.897 L301.774 679.708 C298.653 678.785 296.23 675.243 296.5 672 L296.502 671.979 C296.776 668.69 299.7 666 303 666 L303 666 Z M368.554 55.2694 C347.5 46.78 309.25 41 271 41 C193 41 131 134 131 251 C131 380 186 484 255 484 C297 484 340.531 459.5 366.836 429.258 C371.355 424.063 377.024 407.462 377.043 400.576 L377.972 70.1242 C377.99 63.6882 374.524 57.6761 368.554 55.2694 L368.554 55.2694 Z " />
<glyph glyph-name="Emacron" unicode="&#x112;" horiz-adv-x="593" d="M181.5 767 L402.5 767 C413.815 767 423 776.185 423 787.5 C423 798.815 413.815 808 402.5 808 L181.5 808 C170.185 808 161 798.815 161 787.5 C161 776.185 170.185 767 181.5 767 L181.5 767 Z M407 256.5 L407 437.5 C407 441.088 404.088 444 400.5 444 L400.083 444 C396.771 444 393.544 441.267 393 438 L392 432 C385 393 341 362 294 362 L249.5 362 C224.937 362 205 381.937 205 406.5 L205 587.8 C205 616.061 227.939 639 256.2 639 L328 639 C384 639 437 595 449 539 L456.533 503.845 C457.325 500.15 461.222 497 465 497 C468.864 497 472 500.136 472 504 L472 608.8 C472 637.061 449.061 660 420.8 660 L46.5 660 C42.9122 660 40 657.088 40 653.5 C40 649.912 42.9122 647 46.5 647 L57 647 C93 648 122 619 122 583 L122 77 C122 41 93 12 57 13 L46.5 13 C42.9122 13 40 10.0878 40 6.5 C40 2.91219 42.9122 0 46.5 0 L469.901 0 C472.661 0 475.459 2.29374 476 5 L477 10 C483.821 50.9231 496.337 117.479 503.45 159.717 C504.084 163.481 500.817 163 497 163 C493.389 163 488.793 159.833 487.508 156.459 L474 121 C452 66 391 21 335 21 L256.2 21 C227.939 21 205 43.9391 205 72.2 L205 297.5 C205 322.063 224.937 342 249.5 342 L294 342 C342 342 385 307 392 264 L393.081 256.435 C393.583 252.919 396.948 250 400.5 250 C404.088 250 407 252.912 407 256.5 L407 256.5 Z " />
<glyph glyph-name="emacron" unicode="&#x113;" horiz-adv-x="462" d="M139.5 607 L360.5 607 C371.815 607 381 616.185 381 627.5 C381 638.815 371.815 648 360.5 648 L139.5 648 C128.185 648 119 638.815 119 627.5 C119 616.185 128.185 607 139.5 607 L139.5 607 Z M407.5 59.5 C405.856 61.6139 402.322 62.5472 400.051 61.1286 C381.523 49.5563 335.55 41 293 41 C202 41 129 139 129 262 C129 278.8 129.706 294.894 131.71 310.283 C132.378 315.417 136.947 319 142.124 319 L360.8 319 C395.923 319 414.203 336.828 405.674 370.9 C386.249 448.508 324.25 505 250 505 C139 505 50 384 50 233 C50 101 131 -5 231 -5 C289.5 -5 367.012 20.6669 407.926 52.5366 C410.479 54.5253 409.487 56.9455 407.5 59.5 L407.5 59.5 Z M342 380 L342 382 C342 381 342 380 342 379 L342 380 L342 380 Z M340.563 371.896 C336.743 355.938 322.208 343.958 304 343 L178.628 334.888 C152.307 333.185 136.768 350.597 144.865 375.699 C165.645 440.121 203.1 483 246 483 C299 483 347 431 342 382 L341.679 376.871 C341.653 376.452 340.661 372.304 340.563 371.896 L340.563 371.896 Z " />
<glyph glyph-name="Ebreve" unicode="&#x114;" horiz-adv-x="593" d="M190.329 866.225 C208.296 804.482 253 756 292 756 C331 756 375.704 805.432 393.671 867.223 C394.722 870.837 392.167 872.654 388.5 873.5 C385.197 874.262 381.39 872.558 380.279 869.355 C368 833.977 330 806 292 806 C254 806 216 833.977 203.721 869.356 C202.582 872.638 198.821 874.022 195.5 873 C191.827 871.87 189.255 869.915 190.329 866.225 L190.329 866.225 Z M407 256.5 L407 437.5 C407 441.088 404.088 444 400.5 444 L400.083 444 C396.771 444 393.544 441.267 393 438 L392 432 C385 393 341 362 294 362 L249.5 362 C224.937 362 205 381.937 205 406.5 L205 587.8 C205 616.061 227.939 639 256.2 639 L328 639 C384 639 437 595 449 539 L456.533 503.845 C457.325 500.15 461.222 497 465 497 C468.864 497 472 500.136 472 504 L472 608.8 C472 637.061 449.061 660 420.8 660 L46.5 660 C42.9122 660 40 657.088 40 653.5 C40 649.912 42.9122 647 46.5 647 L57 647 C93 648 122 619 122 583 L122 77 C122 41 93 12 57 13 L46.5 13 C42.9122 13 40 10.0878 40 6.5 C40 2.91219 42.9122 0 46.5 0 L469.901 0 C472.661 0 475.459 2.29374 476 5 L477 10 C483.821 50.9231 496.337 117.479 503.45 159.717 C504.084 163.481 500.817 163 497 163 C493.389 163 488.793 159.833 487.508 156.459 L474 121 C452 66 391 21 335 21 L256.2 21 C227.939 21 205 43.9391 205 72.2 L205 297.5 C205 322.063 224.937 342 249.5 342 L294 342 C342 342 385 307 392 264 L393.081 256.435 C393.583 252.919 396.948 250 400.5 250 C404.088 250 407 252.912 407 256.5 L407 256.5 Z " />
<glyph glyph-name="ebreve" unicode="&#x115;" horiz-adv-x="462" d="M148.329 706.225 C166.296 644.482 211 596 250 596 C289 596 333.704 645.433 351.671 707.223 C352.722 710.837 350.167 712.654 346.5 713.5 C343.197 714.262 339.39 712.558 338.279 709.355 C326 673.977 288 646 250 646 C212 646 174 673.977 161.721 709.356 C160.582 712.638 156.821 714.022 153.5 713 C149.827 711.87 147.255 709.915 148.329 706.225 L148.329 706.225 Z M407.5 59.5 C405.856 61.6139 402.322 62.5472 400.051 61.1286 C381.523 49.5563 335.55 41 293 41 C202 41 129 139 129 262 C129 278.8 129.706 294.894 131.71 310.283 C132.378 315.417 136.947 319 142.124 319 L360.8 319 C395.923 319 414.203 336.828 405.674 370.9 C386.249 448.508 324.25 505 250 505 C139 505 50 384 50 233 C50 101 131 -5 231 -5 C289.5 -5 367.012 20.6669 407.926 52.5366 C410.479 54.5253 409.487 56.9455 407.5 59.5 L407.5 59.5 Z M342 380 L342 382 C342 381 342 380 342 379 L342 380 L342 380 Z M340.563 371.896 C336.743 355.938 322.208 343.958 304 343 L178.628 334.888 C152.307 333.185 136.768 350.597 144.865 375.699 C165.645 440.121 203.1 483 246 483 C299 483 347 431 342 382 L341.679 376.871 C341.653 376.452 340.661 372.304 340.563 371.896 L340.563 371.896 Z " />
<glyph glyph-name="Edot" unicode="&#x116;" horiz-adv-x="593" d="M292 730 C318 730 338 750 338 776 C338 802 318 822 292 822 C266 822 246 802 246 776 C246 750 266 730 292 730 L292 730 Z M407 256.5 L407 437.5 C407 441.088 404.088 444 400.5 444 L400.083 444 C396.771 444 393.544 441.267 393 438 L392 432 C385 393 341 362 294 362 L249.5 362 C224.937 362 205 381.937 205 406.5 L205 587.8 C205 616.061 227.939 639 256.2 639 L328 639 C384 639 437 595 449 539 L456.533 503.845 C457.325 500.15 461.222 497 465 497 C468.864 497 472 500.136 472 504 L472 608.8 C472 637.061 449.061 660 420.8 660 L46.5 660 C42.9122 660 40 657.088 40 653.5 C40 649.912 42.9122 647 46.5 647 L57 647 C93 648 122 619 122 583 L122 77 C122 41 93 12 57 13 L46.5 13 C42.9122 13 40 10.0878 40 6.5 C40 2.91219 42.9122 0 46.5 0 L469.901 0 C472.661 0 475.459 2.29374 476 5 L477 10 C483.821 50.9231 496.337 117.479 503.45 159.717 C504.084 163.481 500.817 163 497 163 C493.389 163 488.793 159.833 487.508 156.459 L474 121 C452 66 391 21 335 21 L256.2 21 C227.939 21 205 43.9391 205 72.2 L205 297.5 C205 322.063 224.937 342 249.5 342 L294 342 C342 342 385 307 392 264 L393.081 256.435 C393.583 252.919 396.948 250 400.5 250 C404.088 250 407 252.912 407 256.5 L407 256.5 Z " />
<glyph glyph-name="edot" unicode="&#x117;" horiz-adv-x="462" d="M250 570 C276 570 296 590 296 616 C296 642 276 662 250 662 C224 662 204 642 204 616 C204 590 224 570 250 570 L250 570 Z M407.5 59.5 C405.856 61.6139 402.322 62.5472 400.051 61.1286 C381.523 49.5563 335.55 41 293 41 C202 41 129 139 129 262 C129 278.8 129.706 294.894 131.71 310.283 C132.378 315.417 136.947 319 142.124 319 L360.8 319 C395.923 319 414.203 336.828 405.674 370.9 C386.249 448.508 324.25 505 250 505 C139 505 50 384 50 233 C50 101 131 -5 231 -5 C289.5 -5 367.012 20.6669 407.926 52.5366 C410.479 54.5253 409.487 56.9455 407.5 59.5 L407.5 59.5 Z M342 380 L342 382 C342 381 342 380 342 379 L342 380 L342 380 Z M340.563 371.896 C336.743 355.938 322.208 343.958 304 343 L178.628 334.888 C152.307 333.185 136.768 350.597 144.865 375.699 C165.645 440.121 203.1 483 246 483 C299 483 347 431 342 382 L341.679 376.871 C341.653 376.452 340.661 372.304 340.563 371.896 L340.563 371.896 Z " />
<glyph glyph-name="Eogonek" unicode="&#x118;" horiz-adv-x="593" d="M407 256.5 L407 437.5 C407 441.088 404.088 444 400.5 444 L400.083 444 C396.771 444 393.544 441.267 393 438 L392 432 C385 393 341 362 294 362 L249.5 362 C224.937 362 205 381.937 205 406.5 L205 587.8 C205 616.061 227.939 639 256.2 639 L328 639 C384 639 437 595 449 539 L456.533 503.845 C457.325 500.15 461.222 497 465 497 C468.864 497 472 500.136 472 504 L472 608.8 C472 637.061 449.061 660 420.8 660 L46.5 660 C42.9122 660 40 657.088 40 653.5 C40 649.912 42.9122 647 46.5 647 L57 647 C93 648 122 619 122 583 L122 77 C122 41 93 12 57 13 L46.5 13 C42.9122 13 40 10.0878 40 6.5 C40 2.91219 42.9122 0 46.5 0 L410.627 0 C419.489 0 423.946 -11.7275 416.946 -17.1619 C370.02 -53.595 318 -110.8 318 -155 C318 -199 370 -234 434 -234 C463.45 -234 497.413 -221.365 513.596 -204.669 C515.205 -203.008 514.98 -200.776 513.5 -199 C512.371 -197.645 509.459 -197.603 508.05 -198.663 C497.61 -206.52 473.4 -213 450 -213 C402 -213 363 -184 363 -147 C363 -90 435.651 -18.56 468.638 -2.12738 C470.208 -1.34511 474.67 3.34413 475.25 5 L475.546 5.84526 C475.68 6.22907 477.483 12.8821 477.55 13.2831 C484.476 54.4092 496.524 118.591 503.45 159.717 C504.084 163.481 500.817 163 497 163 C493.389 163 488.793 159.833 487.508 156.459 L474 121 C452 66 391 21 335 21 L256.2 21 C227.939 21 205 43.9391 205 72.2 L205 297.5 C205 322.063 224.937 342 249.5 342 L294 342 C342 342 385 307 392 264 L393.081 256.435 C393.583 252.919 396.948 250 400.5 250 C404.088 250 407 252.912 407 256.5 L407 256.5 Z " />
<glyph glyph-name="eogonek" unicode="&#x119;" horiz-adv-x="462" d="M342 380 L342 382 C342 381 342 380 342 379 L342 380 L342 380 Z M340.563 371.896 C336.743 355.938 322.208 343.958 304 343 L178.628 334.888 C152.307 333.185 136.768 350.597 144.865 375.699 C165.645 440.121 203.1 483 246 483 C299 483 347 431 342 382 L341.679 376.871 C341.653 376.452 340.661 372.304 340.563 371.896 L340.563 371.896 Z M142.124 318 L360.8 318 C395.923 318 414.203 335.828 405.674 369.9 C386.249 447.508 324.25 504 250 504 C139 504 50 383 50 232 C50 100 131 -6 231 -6 C241.833 -6 253.361 -5.30556 265.005 -3.91667 C266.811 -3.70117 266.022 -7.48315 264.584 -8.59725 C217.248 -45.2625 164 -104.4 164 -150 C164 -197 216 -235 280 -235 C309.45 -235 343.412 -222.365 359.596 -205.669 C361.205 -204.008 360.98 -201.776 359.5 -200 C358.371 -198.645 355.459 -198.603 354.05 -199.663 C343.61 -207.52 319.4 -214 296 -214 C248 -214 209 -182 209 -142 C209 -81 288 -3 318 8 C352.225 18.175 384.739 33.4838 406.835 49.969 C409.472 51.9364 410.52 55.903 408.5 58.5 C406.856 60.6139 403.322 61.5472 401.051 60.1286 C382.523 48.5562 336.55 40 294 40 C203 40 130 138 130 261 C130 277.8 130.353 293.894 132.244 309.283 C132.88 314.464 136.904 318 142.124 318 L142.124 318 Z " />
<glyph glyph-name="Ecaron" unicode="&#x11a;" horiz-adv-x="593" d="M395.876 927.844 C392.998 924.234 340.679 858.569 303.903 809.902 C297.191 801.02 286.289 802 279.734 810.999 C255.502 844.267 222.319 888.085 190.855 925.607 C188.964 927.862 186.215 927.438 184 925.5 C183.106 924.718 180.677 922.171 179.521 922.443 C175.789 923.322 268 737 268 737 C271 731 280 716 292 716 C304 716 313 731 316 737 C368 843 404 922 404 922 C404 922 402.745 922.942 400 925 C397.792 926.656 397.596 930.002 395.876 927.844 L395.876 927.844 Z M407 257.5 L407 438.5 C407 442.088 404.088 445 400.5 445 L400.083 445 C396.771 445 393.544 442.267 393 439 L392 433 C385 394 341 363 294 363 L249.5 363 C224.937 363 205 382.937 205 407.5 L205 588.8 C205 617.061 227.939 640 256.2 640 L328 640 C384 640 437 596 449 540 L456.533 504.845 C457.325 501.15 461.222 498 465 498 C468.864 498 472 501.136 472 505 L472 609.8 C472 638.061 449.061 661 420.8 661 L46.5 661 C42.9122 661 40 658.088 40 654.5 C40 650.912 42.9122 648 46.5 648 L57 648 C93 649 122 620 122 584 L122 78 C122 42 93 13 57 14 L46.5 14 C42.9122 14 40 11.0878 40 7.5 C40 3.91219 42.9122 1 46.5 1 L469.901 1 C472.661 1 475.459 3.29374 476 6 L477 11 C483.821 51.9231 496.337 118.479 503.45 160.717 C504.084 164.481 500.817 164 497 164 C493.389 164 488.793 160.833 487.508 157.459 L474 122 C452 67 391 22 335 22 L256.2 22 C227.939 22 205 44.9391 205 73.2 L205 298.5 C205 323.063 224.937 343 249.5 343 L294 343 C342 343 385 308 392 265 L393.081 257.435 C393.583 253.919 396.948 251 400.5 251 C404.088 251 407 253.912 407 257.5 L407 257.5 Z " />
<glyph glyph-name="ecaron" unicode="&#x11b;" horiz-adv-x="462" d="M353.876 767.844 C350.998 764.234 298.679 698.569 261.903 649.902 C255.191 641.02 244.289 642 237.734 650.999 C213.502 684.267 180.319 728.085 148.855 765.607 C146.964 767.862 144.215 767.438 142 765.5 C141.106 764.718 138.677 762.171 137.521 762.443 C133.789 763.322 226 577 226 577 C229 571 238 556 250 556 C262 556 271 571 274 577 C326 683 362 762 362 762 C362 762 360.745 762.942 358 765 C355.792 766.656 355.596 770.002 353.876 767.844 L353.876 767.844 Z M407.5 60.5 C405.856 62.6139 402.322 63.5472 400.051 62.1286 C381.523 50.5563 335.55 42 293 42 C202 42 129 140 129 263 C129 279.8 129.706 295.894 131.71 311.283 C132.378 316.417 136.947 320 142.124 320 L360.8 320 C395.923 320 414.203 337.828 405.674 371.9 C386.249 449.508 324.25 506 250 506 C139 506 50 385 50 234 C50 102 131 -4 231 -4 C289.5 -4 367.012 21.6669 407.926 53.5366 C410.479 55.5253 409.487 57.9455 407.5 60.5 L407.5 60.5 Z M342 381 L342 383 C342 382 342 381 342 380 L342 381 L342 381 Z M340.563 372.896 C336.743 356.938 322.208 344.958 304 344 L178.628 335.888 C152.307 334.185 136.768 351.597 144.865 376.699 C165.645 441.121 203.1 484 246 484 C299 484 347 432 342 383 L341.679 377.871 C341.653 377.452 340.661 373.304 340.563 372.896 L340.563 372.896 Z " />
<glyph glyph-name="Gcircumflex" unicode="&#x11c;" horiz-adv-x="777" d="M389 884 C386 890 377 905 365 905 C353 905 344 890 341 884 C341 884 248.789 697.678 252.521 698.557 C253.677 698.829 256.106 696.282 257 695.5 C259.215 693.562 261.964 693.138 263.855 695.393 C295.319 732.915 328.502 776.733 352.734 810.001 C359.289 819 370.191 819.98 376.903 811.098 C414.73 761.04 469 693 469 693 C469 693 470.89 694.654 473 696.5 C475.118 698.353 478.107 697.589 476.933 700.146 C475.19 703.942 439.7 781.15 389 884.5 L389 884 Z M594 464 L594 596 L594 601 C594 603.48 591.748 607.279 589.569 608.463 C530.921 640.333 432.275 666 365 666 C192 666 54 517 54 331 C54 145 192 -4 365 -4 C428 -4 515.5 16.6719 575.916 44.6172 C590.798 51.5007 600 70.1914 600 86.588 L600 234 C600 270 629 299 665 298 L675.5 298 C679.088 298 682 300.912 682 304.5 C682 308.088 679.088 311 675.5 311 L449.5 311 C445.912 311 443 308.088 443 304.5 C443 300.912 445.912 298 449.5 298 L460 298 C496 299 525 270 525 234 L525 74.5136 C525 59.1008 511.805 42.4079 496.996 38.1334 C452.079 25.1675 403.775 17 365 17 C243 17 146 157 146 331 C146 505 243 645 365 645 C385 645 408 642 432 638 C493 623 552 560 567 493 C568.647 483.941 572.329 471.491 574.694 461.236 C575.338 458.443 578.724 455 581.59 455 L585 455 C589.968 455 594 459.032 594 464 L594 464 Z " />
<glyph glyph-name="Gbreve" unicode="&#x11e;" horiz-adv-x="777" d="M263.329 866.225 C281.296 804.482 326 756 365 756 C404 756 448.704 805.432 466.671 867.223 C467.722 870.837 465.167 872.654 461.5 873.5 C458.197 874.262 454.39 872.558 453.279 869.355 C441 833.977 403 806 365 806 C327 806 289 833.977 276.721 869.356 C275.582 872.638 271.821 874.022 268.5 873 C264.827 871.87 262.255 869.915 263.329 866.225 L263.329 866.225 Z M594 463 L594 595 L594 600 C594 602.48 591.748 606.279 589.569 607.463 C530.921 639.333 432.275 665 365 665 C192 665 54 516 54 330 C54 144 192 -5 365 -5 C428 -5 515.5 15.6719 575.916 43.6172 C590.798 50.5007 600 69.1914 600 85.588 L600 233 C600 269 629 298 665 297 L675.5 297 C679.088 297 682 299.912 682 303.5 C682 307.088 679.088 310 675.5 310 L449.5 310 C445.912 310 443 307.088 443 303.5 C443 299.912 445.912 297 449.5 297 L460 297 C496 298 525 269 525 233 L525 73.5136 C525 58.1008 511.805 41.4079 496.996 37.1334 C452.079 24.1675 403.775 16 365 16 C243 16 146 156 146 330 C146 504 243 644 365 644 C385 644 408 641 432 637 C493 622 552 559 567 492 C568.647 482.941 572.329 470.491 574.694 460.236 C575.338 457.443 578.724 454 581.59 454 L585 454 C589.968 454 594 458.032 594 463 L594 463 Z " />
<glyph glyph-name="gbreve" unicode="&#x11f;" horiz-adv-x="434" d="M119.329 706.225 C137.296 644.482 182 596 221 596 C260 596 304.704 645.433 322.671 707.223 C323.722 710.837 321.167 712.654 317.5 713.5 C314.197 714.262 310.39 712.558 309.279 709.355 C297 673.977 259 646 221 646 C183 646 145 673.977 132.721 709.356 C131.582 712.638 127.821 714.022 124.5 713 C120.827 711.87 118.255 709.915 119.329 706.225 L119.329 706.225 Z M75.4131 -89.1447 C83.5797 -53.1576 111.717 -17.8312 148.188 1.00809 C151.461 2.69871 166.32 5.66727 170 5.5 L178.133 5.13032 C178.31 5.12228 183.687 5.17913 183.864 5.19091 L226 8 C300 8 360 -31 360 -79 C360 -157 275 -219 169 -219 C123.95 -219 86.125 -184.32 75.7911 -137.069 C73.3333 -125.83 58.8291 -113.501 47.5 -115.5 C29.7855 -118.626 20.7029 -126.881 24.8145 -144.393 C37.7344 -199.422 93.625 -240 161 -240 C301 -240 414 -151 414 -41 C414 26 339 79 246 79 C239 79 177 76 177 76 C133 76 98 101 98 132 C98 165 133 192 176 192 L221 192 C308 192 378 262 378 349 C378 383.65 367.11 414.897 348.699 440.495 C344.373 446.509 347.694 456.239 355.101 456.39 L413.004 457.572 C424.591 457.808 434 467.411 434 479 C434 490.364 425.42 498.821 414.143 497.421 C380.968 493.304 347.485 489.974 314.957 485.744 C311.505 485.295 293.299 488.954 290.176 490.491 C269.944 500.444 247.167 506 223 506 C135 506 65 437 65 350 C65 295.55 92.225 247.906 134.322 219.984 C140.004 216.214 141.513 201.717 134.941 199.897 C84.4025 185.898 49 148.2 49 104 C49 67.7 76.225 36.1644 116.637 19.5004 C124.142 16.4056 126.742 2.93008 119.65 -1.02148 C74.2133 -26.3398 39.0916 -62.8934 28.3851 -96.5824 C23.8141 -110.966 31.8355 -116.003 46.7697 -113.825 L50.2407 -113.319 C59.5424 -111.963 73.3329 -98.3117 75.4131 -89.1447 L75.4131 -89.1447 Z M224 211 C176 211 137 273 137 351 C137 428 176 490 224 490 C272 490 310 428 310 351 C310 273 272 211 224 211 L224 211 Z " />
<glyph glyph-name="Gdot" unicode="&#x120;" horiz-adv-x="777" d="M365 730 C391 730 411 750 411 776 C411 802 391 822 365 822 C339 822 319 802 319 776 C319 750 339 730 365 730 L365 730 Z M594 463 L594 595 L594 600 C594 602.48 591.748 606.279 589.569 607.463 C530.921 639.333 432.275 665 365 665 C192 665 54 516 54 330 C54 144 192 -5 365 -5 C428 -5 515.5 15.6719 575.916 43.6172 C590.798 50.5007 600 69.1914 600 85.588 L600 233 C600 269 629 298 665 297 L675.5 297 C679.088 297 682 299.912 682 303.5 C682 307.088 679.088 310 675.5 310 L449.5 310 C445.912 310 443 307.088 443 303.5 C443 299.912 445.912 297 449.5 297 L460 297 C496 298 525 269 525 233 L525 73.5136 C525 58.1008 511.805 41.4079 496.996 37.1334 C452.079 24.1675 403.775 16 365 16 C243 16 146 156 146 330 C146 504 243 644 365 644 C385 644 408 641 432 637 C493 622 552 559 567 492 C568.647 482.941 572.329 470.491 574.694 460.236 C575.338 457.443 578.724 454 581.59 454 L585 454 C589.968 454 594 458.032 594 463 L594 463 Z " />
<glyph glyph-name="gdot" unicode="&#x121;" horiz-adv-x="434" d="M221 570 C247 570 267 590 267 616 C267 642 247 662 221 662 C195 662 175 642 175 616 C175 590 195 570 221 570 L221 570 Z M75.4131 -89.1447 C83.5797 -53.1576 111.717 -17.8312 148.188 1.00809 C151.461 2.69871 166.32 5.66727 170 5.5 L178.133 5.13032 C178.31 5.12228 183.687 5.17913 183.864 5.19091 L226 8 C300 8 360 -31 360 -79 C360 -157 275 -219 169 -219 C123.95 -219 86.125 -184.32 75.7911 -137.069 C73.3333 -125.83 58.8291 -113.501 47.5 -115.5 C29.7855 -118.626 20.7029 -126.881 24.8145 -144.393 C37.7344 -199.422 93.625 -240 161 -240 C301 -240 414 -151 414 -41 C414 26 339 79 246 79 C239 79 177 76 177 76 C133 76 98 101 98 132 C98 165 133 192 176 192 L221 192 C308 192 378 262 378 349 C378 383.65 367.11 414.897 348.699 440.495 C344.373 446.509 347.694 456.239 355.101 456.39 L413.004 457.572 C424.591 457.808 434 467.411 434 479 C434 490.364 425.42 498.821 414.143 497.421 C380.968 493.304 347.485 489.974 314.957 485.744 C311.505 485.295 293.299 488.954 290.176 490.491 C269.944 500.444 247.167 506 223 506 C135 506 65 437 65 350 C65 295.55 92.225 247.906 134.322 219.984 C140.004 216.214 141.513 201.717 134.941 199.897 C84.4025 185.898 49 148.2 49 104 C49 67.7 76.225 36.1644 116.637 19.5004 C124.142 16.4056 126.742 2.93008 119.65 -1.02148 C74.2133 -26.3398 39.0916 -62.8934 28.3851 -96.5824 C23.8141 -110.966 31.8355 -116.003 46.7697 -113.825 L50.2407 -113.319 C59.5424 -111.963 73.3329 -98.3117 75.4131 -89.1447 L75.4131 -89.1447 Z M224 211 C176 211 137 273 137 351 C137 428 176 490 224 490 C272 490 310 428 310 351 C310 273 272 211 224 211 L224 211 Z " />
<glyph glyph-name="Hcircumflex" unicode="&#x124;" horiz-adv-x="751" d="M400 884 C397 890 388 905 376 905 C364 905 355 890 352 884 C352 884 259.789 697.678 263.521 698.557 C264.677 698.829 267.106 696.282 268 695.5 C270.215 693.562 272.964 693.138 274.855 695.393 C306.319 732.915 339.502 776.733 363.734 810.001 C370.289 819 381.191 819.98 387.903 811.098 C425.73 761.04 480 693 480 693 C480 693 481.89 694.654 484 696.5 C486.118 698.353 489.107 697.589 487.933 700.146 C486.19 703.942 450.7 781.15 400 884.5 L400 884 Z M705.5 14 L695 14 C659 13 630 42 630 78 L630 584 C630 620 659 649 695 648 L705.5 648 C709.088 648 712 650.912 712 654.5 C712 658.088 709.088 661 705.5 661 L471.5 661 C467.912 661 465 658.088 465 654.5 C465 650.912 467.912 648 471.5 648 L482 648 C518 649 547 620 547 584 L547 409.2 C547 380.939 524.061 358 495.8 358 L256.2 358 C227.939 358 205 380.939 205 409.2 L205 584 C205 620 234 649 270 648 L280.5 648 C284.088 648 287 650.912 287 654.5 C287 658.088 284.088 661 280.5 661 L46.5 661 C42.9122 661 40 658.088 40 654.5 C40 650.912 42.9122 648 46.5 648 L57 648 C93 649 122 620 122 584 L122 78 C122 42 93 13 57 14 L46.5 14 C42.9122 14 40 11.0878 40 7.5 C40 3.91219 42.9122 1 46.5 1 L280.5 1 C284.088 1 287 3.91219 287 7.5 C287 11.0878 284.088 14 280.5 14 L270 14 C234 13 205 42 205 78 L205 286.8 C205 315.061 227.939 338 256.2 338 L495.8 338 C524.061 338 547 315.061 547 286.8 L547 78 C547 42 518 13 482 14 L471.5 14 C467.912 14 465 11.0878 465 7.5 C465 3.91219 467.912 1 471.5 1 L705.5 1 C709.088 1 712 3.91219 712 7.5 C712 11.0878 709.088 14 705.5 14 L705.5 14 Z " />
<glyph glyph-name="Itilde" unicode="&#x128;" horiz-adv-x="326" d="M49.1231 760.465 C50.59 792.87 65 818 83 818 C122 818 186 755 225 755 C261.075 755 289.545 801.581 290.946 860.448 C291.027 863.838 288.391 865 285 865 C281.868 865 279.03 862.97 278.861 859.842 C277.199 829.233 260.895 805 241 805 C202 805 138 867 99 867 C65.85 867 38.4037 819.469 37.0522 759.627 C36.9757 756.241 39.6134 755 43 755 C46.162 755 48.98 757.306 49.1231 760.465 L49.1231 760.465 Z M280.5 13 L270 13 C234 12 205 41 205 77 L205 583 C205 619 234 648 270 647 L280.5 647 C284.088 647 287 649.912 287 653.5 C287 657.088 284.088 660 280.5 660 L46.5 660 C42.9122 660 40 657.088 40 653.5 C40 649.912 42.9122 647 46.5 647 L57 647 C93 648 122 619 122 583 L122 77 C122 41 93 12 57 13 L46.5 13 C42.9122 13 40 10.0878 40 6.5 C40 2.91219 42.9122 0 46.5 0 L280.5 0 C284.088 0 287 2.91219 287 6.5 C287 10.0878 284.088 13 280.5 13 L280.5 13 Z " />
<glyph glyph-name="itilde" unicode="&#x129;" horiz-adv-x="328" d="M49.1231 600.465 C50.59 632.87 65 658 83 658 C122 658 186 595 225 595 C261.075 595 289.545 641.581 290.946 700.448 C291.027 703.838 288.391 705 285 705 C281.868 705 279.03 702.97 278.861 699.842 C277.199 669.233 260.895 645 241 645 C202 645 138 707 99 707 C65.85 707 38.4037 659.469 37.0522 599.627 C36.9757 596.241 39.6134 595 43 595 C46.162 595 48.98 597.306 49.1231 600.465 L49.1231 600.465 Z M277.5 13 L267 13 C231 12 202 41 202 77 L202 492.5 C202 496.64 198.64 500 194.5 500 L194.413 500 C193.253 500 181.004 498.227 179.891 497.897 L50.7536 459.702 C47.7082 458.801 45 455.176 45 452 C45 448.688 47.6882 446 51 446 L57 446 C111 445 127 430 127 379 L127 77 C127 41 98 12 62 13 L51.5 13 C47.9122 13 45 10.0878 45 6.5 C45 2.91219 47.9122 0 51.5 0 L277.5 0 C281.088 0 284 2.91219 284 6.5 C284 10.0878 281.088 13 277.5 13 L277.5 13 Z " />
<glyph glyph-name="Imacron" unicode="&#x12a;" horiz-adv-x="326" d="M53.5 767 L274.5 767 C285.815 767 295 776.185 295 787.5 C295 798.815 285.815 808 274.5 808 L53.5 808 C42.1846 808 33 798.815 33 787.5 C33 776.185 42.1846 767 53.5 767 L53.5 767 Z M280.5 13 L270 13 C234 12 205 41 205 77 L205 583 C205 619 234 648 270 647 L280.5 647 C284.088 647 287 649.912 287 653.5 C287 657.088 284.088 660 280.5 660 L46.5 660 C42.9122 660 40 657.088 40 653.5 C40 649.912 42.9122 647 46.5 647 L57 647 C93 648 122 619 122 583 L122 77 C122 41 93 12 57 13 L46.5 13 C42.9122 13 40 10.0878 40 6.5 C40 2.91219 42.9122 0 46.5 0 L280.5 0 C284.088 0 287 2.91219 287 6.5 C287 10.0878 284.088 13 280.5 13 L280.5 13 Z " />
<glyph glyph-name="imacron" unicode="&#x12b;" horiz-adv-x="328" d="M53.5 607 L274.5 607 C285.815 607 295 616.185 295 627.5 C295 638.815 285.815 648 274.5 648 L53.5 648 C42.1846 648 33 638.815 33 627.5 C33 616.185 42.1846 607 53.5 607 L53.5 607 Z M277.5 13 L267 13 C231 12 202 41 202 77 L202 492.5 C202 496.64 198.64 500 194.5 500 L194.413 500 C193.253 500 181.004 498.227 179.891 497.897 L50.7536 459.702 C47.7082 458.801 45 455.176 45 452 C45 448.688 47.6882 446 51 446 L57 446 C111 445 127 430 127 379 L127 77 C127 41 98 12 62 13 L51.5 13 C47.9122 13 45 10.0878 45 6.5 C45 2.91219 47.9122 0 51.5 0 L277.5 0 C281.088 0 284 2.91219 284 6.5 C284 10.0878 281.088 13 277.5 13 L277.5 13 Z " />
<glyph glyph-name="Ibreve" unicode="&#x12c;" horiz-adv-x="326" d="M62.3288 866.225 C80.2963 804.482 125 756 164 756 C203 756 247.704 805.432 265.671 867.223 C266.722 870.837 264.167 872.654 260.5 873.5 C257.197 874.262 253.39 872.558 252.279 869.355 C240 833.977 202 806 164 806 C126 806 88 833.977 75.7212 869.356 C74.5821 872.638 70.8206 874.022 67.5 873 C63.8271 871.87 61.2551 869.915 62.3288 866.225 L62.3288 866.225 Z M280.5 13 L270 13 C234 12 205 41 205 77 L205 583 C205 619 234 648 270 647 L280.5 647 C284.088 647 287 649.912 287 653.5 C287 657.088 284.088 660 280.5 660 L46.5 660 C42.9122 660 40 657.088 40 653.5 C40 649.912 42.9122 647 46.5 647 L57 647 C93 648 122 619 122 583 L122 77 C122 41 93 12 57 13 L46.5 13 C42.9122 13 40 10.0878 40 6.5 C40 2.91219 42.9122 0 46.5 0 L280.5 0 C284.088 0 287 2.91219 287 6.5 C287 10.0878 284.088 13 280.5 13 L280.5 13 Z " />
<glyph glyph-name="ibreve" unicode="&#x12d;" horiz-adv-x="328" d="M62.3288 706.225 C80.2963 644.482 125 596 164 596 C203 596 247.704 645.433 265.671 707.223 C266.722 710.837 264.167 712.654 260.5 713.5 C257.197 714.262 253.39 712.558 252.279 709.355 C240 673.977 202 646 164 646 C126 646 88 673.977 75.7212 709.356 C74.5821 712.638 70.8206 714.022 67.5 713 C63.8271 711.87 61.2551 709.915 62.3288 706.225 L62.3288 706.225 Z M277.5 13 L267 13 C231 12 202 41 202 77 L202 492.5 C202 496.64 198.64 500 194.5 500 L194.413 500 C193.253 500 181.004 498.227 179.891 497.897 L50.7536 459.702 C47.7082 458.801 45 455.176 45 452 C45 448.688 47.6882 446 51 446 L57 446 C111 445 127 430 127 379 L127 77 C127 41 98 12 62 13 L51.5 13 C47.9122 13 45 10.0878 45 6.5 C45 2.91219 47.9122 0 51.5 0 L277.5 0 C281.088 0 284 2.91219 284 6.5 C284 10.0878 281.088 13 277.5 13 L277.5 13 Z " />
<glyph glyph-name="Idot" unicode="&#x130;" horiz-adv-x="326" d="M164 730 C190 730 210 750 210 776 C210 802 190 822 164 822 C138 822 118 802 118 776 C118 750 138 730 164 730 L164 730 Z M280.5 13 L270 13 C234 12 205 41 205 77 L205 583 C205 619 234 648 270 647 L280.5 647 C284.088 647 287 649.912 287 653.5 C287 657.088 284.088 660 280.5 660 L46.5 660 C42.9122 660 40 657.088 40 653.5 C40 649.912 42.9122 647 46.5 647 L57 647 C93 648 122 619 122 583 L122 77 C122 41 93 12 57 13 L46.5 13 C42.9122 13 40 10.0878 40 6.5 C40 2.91219 42.9122 0 46.5 0 L280.5 0 C284.088 0 287 2.91219 287 6.5 C287 10.0878 284.088 13 280.5 13 L280.5 13 Z " />
<glyph glyph-name="dotlessi" unicode="&#x131;" horiz-adv-x="328" d="M277.5 13 L267 13 C231 12 202 41 202 77 L202 492.5 C202 496.64 198.64 500 194.5 500 L194.413 500 C193.253 500 181.004 498.227 179.891 497.897 L50.7536 459.702 C47.7082 458.801 45 455.176 45 452 C45 448.688 47.6882 446 51 446 L57 446 C111 445 127 430 127 379 L127 77 C127 41 98 12 62 13 L51.5 13 C47.9122 13 45 10.0878 45 6.5 C45 2.91219 47.9122 0 51.5 0 L277.5 0 C281.088 0 284 2.91219 284 6.5 C284 10.0878 281.088 13 277.5 13 L277.5 13 Z " />
<glyph glyph-name="Jcircumflex" unicode="&#x134;" horiz-adv-x="361" d="M222 884 C219 890 210 905 198 905 C186 905 177 890 174 884 C174 884 81.7894 697.678 85.5206 698.557 C86.6768 698.829 89.106 696.282 90 695.5 C92.215 693.562 94.9642 693.138 96.8553 695.393 C128.319 732.915 161.502 776.733 185.734 810.001 C192.289 819 203.191 819.98 209.903 811.098 C247.73 761.04 302 693 302 693 C302 693 303.89 694.654 306 696.5 C308.118 698.353 311.107 697.589 309.933 700.146 C308.19 703.942 272.7 781.15 222 884.5 L222 884 Z M315.5 661 L80.5 661 C76.9122 661 74 658.088 74 654.5 C74 650.912 76.9122 648 80.5 648 L91 648 C127 649 156 620 156 584 L156 201 C156 72 142 8 113 8 C96 8 77 27 71 51 C66 69 50 84 33 84 C10 84 -5 69 0 51 C8 18 49 -9 92 -9 C191 -9 240 85 240 271 L240 584 C240 620 269 649 305 648 L315.5 648 C319.088 648 322 650.912 322 654.5 C322 658.088 319.088 661 315.5 661 L315.5 661 Z " />
<glyph glyph-name="Lacute" unicode="&#x139;" horiz-adv-x="593" d="M140.153 690.168 C144.116 694.516 223.725 781.925 252 818 C274 843 291 865 291 869 C291 878 260 901 248 901 C246.061 901 231.897 878.433 215.54 849.71 C215.438 849.531 211.902 844.251 211.779 844.085 C182.334 804.421 131 697 131 697 C131 697 132.414 695.9 135.5 693.5 C137.977 691.573 138.039 687.849 140.153 690.168 L140.153 690.168 Z M483.827 171.383 L464 111 C448 61 395 21 345 21 L256.2 21 C227.939 21 205 43.9391 205 72.2 L205 583 C205 619 234 648 270 647 L280.5 647 C284.088 647 287 649.912 287 653.5 C287 657.088 284.088 660 280.5 660 L46.5 660 C42.9122 660 40 657.088 40 653.5 C40 649.912 42.9122 647 46.5 647 L57 647 C93 648 122 619 122 583 L122 77 C122 41 93 12 57 13 L46.5 13 C42.9122 13 40 10.0878 40 6.5 C40 2.91219 42.9122 0 46.5 0 L469.901 0 C472.661 0 475.459 2.29374 476 5 L477 10 C484.8 52.9 497.353 122.417 504.464 166.648 C504.762 168.5 503.222 170.87 501.509 171.634 C495.028 174.528 486 178 486 178 C486 178 484.968 174.858 483.827 171.383 L483.827 171.383 Z " />
<glyph glyph-name="Lcaron" unicode="&#x13d;" horiz-adv-x="593" d="M394 693 C379 693 365 627 359 585 L335.691 426.693 C335.315 424.142 337.054 421.315 339.5 420.5 C341.977 419.674 344.819 420.968 345.822 423.379 L406 568 C425 613 441 669 441 676 C441 687 407 693 394 693 L394 693 Z M483.827 171.383 L464 111 C448 61 395 21 345 21 L256.2 21 C227.939 21 205 43.9391 205 72.2 L205 583 C205 619 234 648 270 647 L280.5 647 C284.088 647 287 649.912 287 653.5 C287 657.088 284.088 660 280.5 660 L46.5 660 C42.9122 660 40 657.088 40 653.5 C40 649.912 42.9122 647 46.5 647 L57 647 C93 648 122 619 122 583 L122 77 C122 41 93 12 57 13 L46.5 13 C42.9122 13 40 10.0878 40 6.5 C40 2.91219 42.9122 0 46.5 0 L469.901 0 C472.661 0 475.459 2.29374 476 5 L477 10 C484.8 52.9 497.353 122.417 504.464 166.648 C504.762 168.5 503.222 170.87 501.509 171.634 C495.028 174.528 486 178 486 178 C486 178 484.968 174.858 483.827 171.383 L483.827 171.383 Z " />
<glyph glyph-name="lcaron" unicode="&#x13e;" horiz-adv-x="328" d="M309 723 C294 723 280 657 274 615 L250.691 456.693 C250.315 454.142 252.054 451.315 254.5 450.5 C256.977 449.674 259.819 450.968 260.822 453.379 L321 598 C340 643 356 699 356 706 C356 717 322 723 309 723 L309 723 Z M277.5 13 L267 13 C231 12 202 41 202 77 L202 712.5 C202 716.64 198.64 720 194.5 720 L194.413 720 C193.253 720 181.004 718.227 179.891 717.897 L50.7536 679.702 C47.7082 678.801 45 675.176 45 672 C45 668.688 47.6882 666 51 666 L57 666 C111 665 127 650 127 599 L127 77 C127 41 98 12 62 13 L51.5 13 C47.9122 13 45 10.0878 45 6.5 C45 2.91219 47.9122 0 51.5 0 L277.5 0 C281.088 0 284 2.91219 284 6.5 C284 10.0878 281.088 13 277.5 13 L277.5 13 Z " />
<glyph glyph-name="Lslash" unicode="&#x141;" horiz-adv-x="593" d="M46.5 0 L469.901 0 C472.661 0 475.459 2.29374 476 5 L477 10 C484.8 52.9 497.353 122.417 504.464 166.648 C504.762 168.5 503.222 170.87 501.509 171.634 C495.028 174.528 486 178 486 178 C486 178 484.968 174.858 483.827 171.383 L464 111 C448 61 395 21 345 21 L256.2 21 C227.939 21 205 43.9391 205 72.2 L205 282.456 C205 300.837 221.08 324 238.301 330.426 L327.289 363.63 C333.345 365.89 339 374.036 339 380.5 C339 386.964 333.345 390.89 327.289 388.63 L272 368 C237.351 355.071 205 377.53 205 414.512 L205 583 C205 619 234 648 270 647 L280.5 647 C284.088 647 287 649.912 287 653.5 C287 657.088 284.088 660 280.5 660 L46.5 660 C42.9122 660 40 657.088 40 653.5 C40 649.912 42.9122 647 46.5 647 L57 647 C93 648 122 619 122 583 L122 338.744 C122 324.945 109.899 307.402 97 302.5 L83.6848 297.44 C77.6558 295.149 72 286.95 72 280.5 C72 274.05 77.6558 270.149 83.6848 272.44 L97 277.5 C109.899 282.402 122 274.055 122 260.256 L122 77 C122 41 93 12 57 13 L46.5 13 C42.9122 13 40 10.0878 40 6.5 C40 2.91219 42.9122 0 46.5 0 L46.5 0 Z " />
<glyph glyph-name="lslash" unicode="&#x142;" horiz-adv-x="328" d="M51.5 0 L277.5 0 C281.088 0 284 2.91219 284 6.5 C284 10.0878 281.088 13 277.5 13 L267 13 C231 12 202 41 202 77 L202 326.015 C202 344.704 218.274 367.859 235.858 374.189 L290.239 393.766 C296.347 395.965 302 404.008 302 410.5 C302 416.992 296.347 420.965 290.239 418.766 L252 405 C226.033 395.652 202 412.543 202 440.141 L202 712.5 C202 716.64 198.64 720 194.5 720 L194.413 720 C193.253 720 181.004 718.227 179.891 717.897 L50.7536 679.702 C47.7082 678.801 45 675.176 45 672 C45 668.688 47.6882 666 51 666 L57 666 C111 665 127 650 127 599 L127 394.985 C127 376.296 110.726 353.141 93.1424 346.811 L38.7611 327.234 C32.6531 325.035 27 316.992 27 310.5 C27 304.008 32.6531 300.035 38.7611 302.234 L77 316 C102.967 325.348 127 308.457 127 280.859 L127 77 C127 41 98 12 62 13 L51.5 13 C47.9122 13 45 10.0878 45 6.5 C45 2.91219 47.9122 0 51.5 0 L51.5 0 Z " />
<glyph glyph-name="Nacute" unicode="&#x143;" horiz-adv-x="687" d="M313.155 690.168 C317.166 694.516 397.725 781.925 426 818 C448 843 465 865 465 869 C465 878 434 901 422 901 C419.088 901 404.872 878.391 388.495 849.631 C388.394 849.454 384.903 844.249 384.781 844.085 C355.383 804.421 305 697 305 697 C305 697 306.067 696.066 309 693.5 C311.208 691.568 311.166 688.012 313.155 690.168 L313.155 690.168 Z M47.5 647 L58 647 C94 648 123 619 123 583 L123 77 C123 41 94 12 58 13 L47.5 13 C43.9122 13 41 10.0878 41 6.5 C41 2.91219 43.9122 0 47.5 0 L223.5 0 C227.088 0 230 2.91219 230 6.5 C230 10.0878 227.088 13 223.5 13 L213 13 C177 12 148 41 148 77 L148 464.003 C148 499.606 196.425 507.922 215.72 478 C318.895 318 421.959 158 524.398 -2 C528.282 -8.06685 542.296 -17 549.5 -17 C558.056 -17 565 -10.0555 565 -1.5 L565 583 C565 619 594 648 630 647 L640.5 647 C644.088 647 647 649.912 647 653.5 C647 657.088 644.088 660 640.5 660 L464.5 660 C460.912 660 458 657.088 458 653.5 C458 649.912 460.912 647 464.5 647 L475 647 C511 648 540 619 540 583 L540 298.998 C540 246.933 473.738 227.547 445.674 271.401 L212.104 636.397 C205.082 647.371 182.006 660 168.978 660 L47.5 660 C43.9122 660 41 657.088 41 653.5 C41 649.912 43.9122 647 47.5 647 L47.5 647 Z " />
<glyph glyph-name="nacute" unicode="&#x144;" horiz-adv-x="602" d="M227.155 530.168 C231.166 534.516 311.725 621.925 340 658 C362 683 379 705 379 709 C379 718 348 741 336 741 C333.088 741 318.872 718.391 302.495 689.631 C302.394 689.454 298.903 684.249 298.781 684.085 C269.383 644.421 219 537 219 537 C219 537 220.067 536.066 223 533.5 C225.208 531.568 225.166 528.012 227.155 530.168 L227.155 530.168 Z M330.5 0 L556.5 0 C560.088 0 563 2.91219 563 6.5 C563 10.0878 560.088 13 556.5 13 L546 13 C510 12 481 41 481 77 L481 337 C481 430 446 505 375 505 C351.375 505 290.234 482.797 228.424 453.129 C215.372 446.864 202 455.523 202 470 L202 492.5 C202 496.64 198.64 500 194.5 500 L194.413 500 C193.253 500 181.004 498.227 179.891 497.897 L50.7536 459.702 C47.7082 458.801 45 455.176 45 452 C45 448.688 47.6882 446 51 446 L57 446 C111 445 127 430 127 379 L127 77 C127 41 98 12 62 13 L51.5 13 C47.9122 13 45 10.0878 45 6.5 C45 2.91219 47.9122 0 51.5 0 L277.5 0 C281.088 0 284 2.91219 284 6.5 C284 10.0878 281.088 13 277.5 13 L267 13 C231 12 202 41 202 77 L202 415.652 C202 424.956 207.87 434.618 216.674 437.624 C246.407 447.775 286.4 455 317 455 C376 455 406 399 406 329 L406 77 C406 41 377 12 341 13 L330.5 13 C326.912 13 324 10.0878 324 6.5 C324 2.91219 326.912 0 330.5 0 L330.5 0 Z " />
<glyph glyph-name="Ncaron" unicode="&#x147;" horiz-adv-x="687" d="M447.876 927.844 C444.998 924.234 392.679 858.569 355.903 809.902 C349.191 801.02 338.289 802 331.734 810.999 C307.502 844.267 274.319 888.085 242.855 925.607 C240.964 927.862 238.215 927.438 236 925.5 C235.106 924.718 232.677 922.171 231.521 922.443 C227.789 923.322 320 737 320 737 C323 731 332 716 344 716 C356 716 365 731 368 737 C420 843 456 922 456 922 C456 922 454.745 922.942 452 925 C449.792 926.656 449.596 930.002 447.876 927.844 L447.876 927.844 Z M47.5 648 L58 648 C94 649 123 620 123 584 L123 78 C123 42 94 13 58 14 L47.5 14 C43.9122 14 41 11.0878 41 7.5 C41 3.91219 43.9122 1 47.5 1 L223.5 1 C227.088 1 230 3.91219 230 7.5 C230 11.0878 227.088 14 223.5 14 L213 14 C177 13 148 42 148 78 L148 465.003 C148 500.606 196.425 508.922 215.72 479 C318.895 319 421.959 159 524.398 -1 C528.282 -7.06685 542.296 -16 549.5 -16 C558.056 -16 565 -9.05554 565 -0.5 L565 584 C565 620 594 649 630 648 L640.5 648 C644.088 648 647 650.912 647 654.5 C647 658.088 644.088 661 640.5 661 L464.5 661 C460.912 661 458 658.088 458 654.5 C458 650.912 460.912 648 464.5 648 L475 648 C511 649 540 620 540 584 L540 299.998 C540 247.933 473.738 228.547 445.674 272.401 L212.104 637.397 C205.082 648.371 182.006 661 168.978 661 L47.5 661 C43.9122 661 41 658.088 41 654.5 C41 650.912 43.9122 648 47.5 648 L47.5 648 Z " />
<glyph glyph-name="ncaron" unicode="&#x148;" horiz-adv-x="602" d="M407.876 767.844 C404.998 764.234 352.679 698.569 315.903 649.902 C309.191 641.02 298.289 642 291.734 650.999 C267.502 684.267 234.319 728.085 202.855 765.607 C200.964 767.862 198.215 767.438 196 765.5 C195.106 764.718 192.677 762.171 191.521 762.443 C187.789 763.322 280 577 280 577 C283 571 292 556 304 556 C316 556 325 571 328 577 C380 683 416 762 416 762 C416 762 414.745 762.942 412 765 C409.792 766.656 409.596 770.002 407.876 767.844 L407.876 767.844 Z M330.5 1 L556.5 1 C560.088 1 563 3.91219 563 7.5 C563 11.0878 560.088 14 556.5 14 L546 14 C510 13 481 42 481 78 L481 338 C481 431 446 506 375 506 C351.375 506 290.234 483.797 228.424 454.129 C215.372 447.864 202 456.523 202 471 L202 493.5 C202 497.64 198.64 501 194.5 501 L194.413 501 C193.253 501 181.004 499.227 179.891 498.897 L50.7536 460.702 C47.7082 459.801 45 456.176 45 453 C45 449.688 47.6882 447 51 447 L57 447 C111 446 127 431 127 380 L127 78 C127 42 98 13 62 14 L51.5 14 C47.9122 14 45 11.0878 45 7.5 C45 3.91219 47.9122 1 51.5 1 L277.5 1 C281.088 1 284 3.91219 284 7.5 C284 11.0878 281.088 14 277.5 14 L267 14 C231 13 202 42 202 78 L202 416.652 C202 425.956 207.87 435.618 216.674 438.624 C246.407 448.775 286.4 456 317 456 C376 456 406 400 406 330 L406 78 C406 42 377 13 341 14 L330.5 14 C326.912 14 324 11.0878 324 7.5 C324 3.91219 326.912 1 330.5 1 L330.5 1 Z " />
<glyph glyph-name="Omacron" unicode="&#x14c;" horiz-adv-x="721" d="M251.5 767 L473.5 767 C484.815 767 494 776.185 494 787.5 C494 798.815 484.815 808 473.5 808 L251.5 808 C240.185 808 231 798.815 231 787.5 C231 776.185 240.185 767 251.5 767 L251.5 767 Z M146 330 C146 487 231 644 363 644 C495 644 580 487 580 330 C580 173 495 16 363 16 C231 16 146 173 146 330 L146 330 Z M54 330 C54 163 174 -5 363 -5 C551 -5 671 163 671 330 C671 497 551 665 363 665 C174 665 54 497 54 330 L54 330 Z " />
<glyph glyph-name="omacron" unicode="&#x14d;" horiz-adv-x="558" d="M168.5 607 L389.5 607 C400.815 607 410 616.185 410 627.5 C410 638.815 400.815 648 389.5 648 L168.5 648 C157.185 648 148 638.815 148 627.5 C148 616.185 157.185 607 168.5 607 L168.5 607 Z M133 250 C133 382 198 488 279 488 C360 488 425 382 425 250 C425 118 360 12 279 12 C198 12 133 118 133 250 L133 250 Z M50 250 C50 108 152 -5 279 -5 C406 -5 508 108 508 250 C508 392 406 505 279 505 C152 505 50 392 50 250 L50 250 Z " />
</font>
</svg>
