<?xml version="1.0" encoding="UTF-8"?>
<svg xmlns="http://www.w3.org/2000/svg" xmlns:xlink="http://www.w3.org/1999/xlink" version="1.2" >
<font id="Hughe regular">
<font-face  font-family="Hughe" units-per-em="1024" ascent="936" descent="-280" font-style="normal" font-weight="400" font-stretch="normal" cap-height="932" x-height="468" underline-position="-125" underline-thickness="50" />
<missing-glyph  horiz-adv-x="100" d="" />
<glyph glyph-name="NULL" d="" />
<glyph glyph-name="CR" unicode="&#xd;" horiz-adv-x="256" d="" />
<glyph glyph-name="space" unicode="&#x20;" horiz-adv-x="240" d="" />
<glyph glyph-name="exclam" unicode="&#x21;" horiz-adv-x="215" d="M114 -5 C144 -5 168 19 168 49 C168 79 144 103 114 103 C84 103 60 79 60 49 C60 19 84 -5 114 -5 L114 -5 Z M155 610 C158 641 137 665 109 665 C80 665 60 641 63 610 C63 490 109 178 109 178 L119 178 C119 178 155 490 155 610 L155 610 Z " />
<glyph glyph-name="quotedbl" unicode="&#x22;" horiz-adv-x="301" d="M165 660 L207 427 L219 427 L261 660 L165 660 L165 660 Z M40 660 L81 427 L94 427 L135 660 L40 660 L40 660 Z " />
<glyph glyph-name="numbersign" unicode="&#x23;" horiz-adv-x="492" d="M355 671 L328 489 L211 489 L238 671 L209 671 L182 489 L67 489 L59 431 L174 431 L144 229 L26 229 L18 171 L136 171 L111 0 L140 0 L165 171 L282 171 L257 0 L287 0 L312 171 L418 171 L427 229 L320 229 L350 431 L464 431 L472 489 L358 489 L385 671 L355 671 L355 671 Z M203 431 L320 431 L290 229 L173 229 L203 431 L203 431 Z " />
<glyph glyph-name="dollar" unicode="&#x24;" horiz-adv-x="470" d="M41 201 L41 44 C73 25 125 9 175 1 L175 -75 L200 -75 L200 -3 C219 -5 236 -6 255 -4 L255 -75 L280 -75 L280 0 C363 18 425 90 425 176 C425 241 362 317 280 354 L280 632 C313 616 342 581 350 547 C356 523 364 483 370 459 L387 459 L387 616 C356 634 315 650 280 659 L280 736 L255 736 L255 664 C236 667 219 667 200 664 L200 737 L175 737 L175 658 C101 634 47 562 47 476 C47 418 102 349 175 312 L175 31 C125 54 81 107 67 166 C65 177 60 193 58 204 L41 201 L41 201 Z M200 23 L200 302 C219 295 238 286 255 276 L255 20 C240 18 227 19 212 21 C212 21 201 23 200 23 L200 23 Z M200 394 L200 643 C220 648 235 647 256 642 L256 366 C237 374 218 383 201 393 L200 394 L200 394 Z M176 410 C133 441 105 478 105 508 C105 563 134 610 176 632 L176 410 L176 410 Z M281 258 C332 222 367 177 367 141 C367 86 331 39 281 22 L281 258 L281 258 Z " />
<glyph glyph-name="percent" unicode="&#x25;" horiz-adv-x="762" d="M104 546 C104 633 129 703 161 703 C205 703 241 620 241 516 C241 435 213 370 178 370 C137 370 104 448 104 546 L104 546 Z M30 532 C30 428 93 345 171 345 C249 345 312 433 312 542 C312 644 249 725 171 725 C93 725 30 639 30 532 L30 532 Z M529 195 C529 283 557 353 591 353 C640 353 680 269 680 165 C680 84 648 19 608 19 C564 19 529 97 529 195 L529 195 Z M455 180 C455 77 520 -5 601 -5 C684 -5 750 82 750 190 C750 293 684 375 601 375 C520 375 455 288 455 180 L455 180 Z M188 -10 L634 710 L601 730 L155 10 L188 -10 L188 -10 Z " />
<glyph glyph-name="ampersand" unicode="&#x26;" horiz-adv-x="696" d="M617 300 L437 300 L437 287 L454 287 C490 288 519 259 519 223 L519 193 C519 166 510 141 495 119 C464 149 429 187 389 234 C353 277 320 323 293 367 C375 390 438 466 438 546 C438 613 377 666 300 666 C223 666 162 593 162 503 C162 471 185 414 222 350 C123 305 49 225 49 155 C49 67 138 -4 248 -4 C335 -4 412 22 464 64 C554 -3 627 -11 694 1 L694 14 C652 7 597 22 505 108 C523 134 533 163 533 194 L533 224 C533 260 562 289 598 288 L615 288 L617 300 L617 300 Z M218 536 C218 599 252 650 294 650 C341 650 379 602 379 542 C379 468 338 400 284 379 C244 445 218 504 218 535 L218 536 L218 536 Z M448 75 C407 47 351 30 289 30 C195 30 119 99 119 184 C119 240 165 301 229 337 C258 289 294 238 333 191 C374 142 412 105 447 77 L448 75 L448 75 Z " />
<glyph glyph-name="quotesingle" unicode="&#x27;" horiz-adv-x="175" d="M40 660 L81 427 L94 427 L135 660 L40 660 L40 660 Z " />
<glyph glyph-name="parenleft" unicode="&#x28;" horiz-adv-x="219" d="M200 690 C122 597 60 453 60 270 C60 87 122 -57 200 -150 L209 -142 C158 -82 118 51 118 270 C118 489 158 622 209 682 L200 690 L200 690 Z " />
<glyph glyph-name="parenright" unicode="&#x29;" horiz-adv-x="219" d="M10 -150 C88 -57 150 87 150 270 C150 453 88 597 10 690 L1 682 C52 622 92 489 92 270 C92 51 52 -82 1 -142 L10 -150 L10 -150 Z " />
<glyph glyph-name="asterisk" unicode="&#x2a;" horiz-adv-x="288" d="M265 580 C281 585 287 601 279 615 C271 628 255 631 242 620 L153 545 L173 660 C180 698 120 698 127 661 L147 546 L58 621 C45 632 29 629 21 616 C13 602 19 586 35 581 L144 541 L35 501 C-2 489 28 436 58 461 L147 536 L127 421 C120 383 180 383 173 420 L153 535 L242 460 C272 435 302 489 265 500 L156 540 L265 580 L265 580 Z " />
<glyph glyph-name="plus" unicode="&#x2b;" horiz-adv-x="518" d="M238 432 L238 267 L75 267 L75 233 L238 233 L238 69 L275 69 L275 233 L438 233 L438 267 L275 267 L275 432 L238 432 L238 432 Z " />
<glyph glyph-name="comma" unicode="&#x2c;" horiz-adv-x="228" d="M153 87 L153 87 C120 121 60 97 60 49 C60 19 84 -5 114 -5 C119 -5 124 0 130 7 C143 -43 113 -100 79 -117 L79 -130 C134 -103 178 -36 178 22 C178 44 167 73 153 87 L153 87 Z " />
<glyph glyph-name="hyphen" unicode="&#x2d;" horiz-adv-x="231" d="M20 206 L211 206 L211 264 L20 264 L20 206 L20 206 Z " />
<glyph glyph-name="period" unicode="&#x2e;" horiz-adv-x="239" d="M125 -5 C155 -5 179 19 179 49 C179 79 155 103 125 103 C95 103 71 79 71 49 C71 19 95 -5 125 -5 L125 -5 Z " />
<glyph glyph-name="slash" unicode="&#x2f;" horiz-adv-x="343" d="M0 -145 L33 -145 L343 710 L310 710 L0 -145 L0 -145 Z " />
<glyph glyph-name="zero" unicode="0" horiz-adv-x="568" d="M133 250 C133 382 200 488 284 488 C368 488 435 382 435 250 C435 118 368 12 284 12 C200 12 133 118 133 250 L133 250 Z M50 250 C50 108 154 -5 284 -5 C414 -5 518 108 518 250 C518 392 414 505 284 505 C154 505 50 392 50 250 L50 250 Z " />
<glyph glyph-name="one" unicode="1" horiz-adv-x="348" d="M294 13 L277 13 C241 12 212 41 212 77 L212 423 C212 459 241 488 277 487 L294 487 L294 500 L55 500 L55 487 L72 487 C108 488 137 459 137 423 L137 77 C137 41 108 12 72 13 L55 13 L55 0 L294 0 L294 13 L294 13 Z " />
<glyph glyph-name="two" unicode="2" horiz-adv-x="446" d="M408 157 L407 140 C405 104 373 75 337 75 L134 75 C284 178 392 258 392 352 C392 437 327 506 247 506 C182 506 103 441 70 359 L79 354 C101 408 159 451 210 451 C265 451 309 396 309 327 C309 192 182 128 24 18 L24 1 L407 1 L410 38 C413 71 417 125 420 158 L408 157 L408 157 Z " />
<glyph glyph-name="three" unicode="3" horiz-adv-x="424" d="M25 -215 C219 -203 374 -89 374 41 C374 132 283 205 168 209 C266 258 335 324 335 376 C335 447 278 504 207 504 C138 504 50 447 10 375 L19 370 C44 414 110 449 168 449 C219 449 260 406 260 352 C260 296 191 229 100 192 C90 189 79 185 68 181 L68 168 C178 211 296 134 296 36 C296 -88 175 -196 25 -205 L25 -215 L25 -215 Z " />
<glyph glyph-name="four" unicode="4" horiz-adv-x="433" d="M15 12 L15 0 L259 0 L259 -150 L334 -150 L334 0 L423 0 L423 33 L334 33 L334 505 L322 505 C263 403 20 20 15 13 L15 12 L15 12 Z M52 34 C94 102 191 259 259 368 C259 366 259 364 259 362 L259 34 L52 34 L52 34 Z " />
<glyph glyph-name="five" unicode="5" horiz-adv-x="409" d="M66 202 L85 202 C85 202 85 206 86 213 C86 206 86 201 86 201 L109 201 C207 201 285 134 285 51 C285 -65 172 -164 31 -170 L32 -183 C214 -175 360 -60 360 76 C360 187 265 276 146 276 L93 276 C97 319 101 373 104 420 L327 420 C331 433 335 446 340 459 C351 493 369 547 380 581 L367 581 L361 564 C350 528 312 499 276 499 L84 499 C84 416 68 201 68 201 L66 202 L66 202 Z " />
<glyph glyph-name="six" unicode="6" horiz-adv-x="532" d="M463 715 C242 707 64 521 64 297 C64 129 157 -5 273 -5 C395 -5 488 93 482 216 C482 334 401 429 301 429 C235 429 178 384 151 317 C151 319 151 321 151 323 C151 528 290 698 463 704 L463 715 L463 715 Z M288 409 C352 409 403 322 403 213 C409 104 354 17 281 17 C207 17 148 111 149 229 L152 229 C152 329 213 409 289 409 L288 409 L288 409 Z " />
<glyph glyph-name="seven" unicode="7" horiz-adv-x="403" d="M29 341 L30 358 C32 394 64 423 100 423 L358 423 L107 -140 L191 -140 C258 71 326 281 393 493 L388 500 L30 500 L27 462 L26 462 C23 428 19 375 16 341 L29 341 L29 341 Z " />
<glyph glyph-name="eight" unicode="8" horiz-adv-x="502" d="M308 354 C373 377 421 445 421 519 L420 519 C420 601 346 666 253 666 C160 666 85 589 85 494 C85 426 132 355 196 318 C116 299 58 238 58 164 C58 71 146 -3 255 -3 C364 -3 452 78 452 178 C452 243 391 315 308 355 L308 354 L308 354 Z M299 359 C287 365 274 370 261 374 C198 393 148 460 148 524 C148 594 193 651 249 651 C309 651 358 587 358 508 C358 440 333 380 299 360 L299 359 L299 359 Z M129 176 C129 238 162 291 208 312 C218 307 228 303 239 300 C318 276 382 211 382 154 C382 76 327 14 259 14 C187 14 129 87 129 177 L129 176 L129 176 Z " />
<glyph glyph-name="nine" unicode="9" horiz-adv-x="532" d="M69 -215 C290 -207 468 -21 468 203 C468 371 375 505 259 505 C137 505 44 407 50 284 C50 166 131 71 231 71 C297 71 354 116 381 183 C381 181 381 179 381 177 C381 -28 242 -198 69 -204 L69 -215 L69 -215 Z M244 91 C180 91 129 178 129 287 C123 396 178 483 251 483 C325 483 384 389 383 271 L380 271 C380 171 319 91 243 91 L244 91 L244 91 Z " />
<glyph glyph-name="colon" unicode="&#x3a;" horiz-adv-x="239" d="M125 383 C155 383 179 407 179 438 C179 468 155 492 125 492 C95 492 71 468 71 438 C71 407 95 383 125 383 L125 383 Z M125 -5 C155 -5 179 19 179 49 C179 79 155 103 125 103 C95 103 71 79 71 49 C71 19 95 -5 125 -5 L125 -5 Z " />
<glyph glyph-name="semicolon" unicode="&#x3b;" horiz-adv-x="228" d="M114 383 C144 383 168 407 168 437 C168 467 144 491 114 491 C84 491 60 467 60 437 C60 407 84 383 114 383 L114 383 Z M153 87 L153 87 C120 121 60 97 60 49 C60 19 84 -5 114 -5 C119 -5 124 0 130 7 C143 -43 113 -100 79 -117 L79 -130 C134 -103 178 -36 178 22 C178 44 167 73 153 87 L153 87 Z " />
<glyph glyph-name="less" unicode="&#x3c;" horiz-adv-x="501" d="M426 500 L48 298 C46 298 42 294 40 294 L40 258 L48 254 L426 50 L426 88 L70 276 L426 464 L426 500 L426 500 Z " />
<glyph glyph-name="equal" unicode="&#x3d;" horiz-adv-x="494" d="M82 217 L82 183 L424 183 L424 217 L82 217 L82 217 Z M82 317 L82 283 L424 283 L424 317 L82 317 L82 317 Z " />
<glyph glyph-name="greater" unicode="&#x3e;" horiz-adv-x="493" d="M75 50 C201 120 326 191 453 260 L453 294 C450 294 446 299 443 299 L75 501 L75 464 L422 277 L75 90 L75 50 L75 50 Z " />
<glyph glyph-name="question" unicode="&#x3f;" horiz-adv-x="331" d="M128 -5 C158 -5 182 19 182 49 C182 79 158 103 128 103 C98 103 74 79 74 49 C74 19 98 -5 128 -5 L128 -5 Z M111 665 C71 665 39 637 39 602 C39 586 55 574 75 574 C92 574 118 606 135 606 C215 606 279 533 279 442 C279 418 251 371 155 371 L120 371 C112 371 106 366 107 360 L123 183 L133 183 L146 314 L181 314 C270 314 296 393 296 433 C296 562 214 665 111 665 L111 665 Z " />
<glyph glyph-name="at" unicode="&#x40;" horiz-adv-x="1098" d="M986 0 C925 -132 736 -237 563 -237 C314 -237 114 -16 114 259 C114 534 308 755 549 755 C790 755 984 572 984 343 C984 156 904 6 804 6 C713 6 662 92 689 200 L759 480 L688 480 L668 398 C653 451 608 489 554 489 C401 489 278 357 278 192 C278 90 350 9 439 9 C507 9 576 58 613 126 C623 40 692 -21 792 -21 C932 -21 1044 140 1044 341 C1044 581 824 774 550 774 C276 774 56 544 56 257 C56 -30 282 -260 564 -260 C746 -260 945 -145 1012 -2 L986 0 L986 0 Z M658 354 L619 198 C598 115 535 49 477 49 C412 49 360 119 360 206 C360 351 445 467 552 467 C611 467 658 417 658 354 L658 354 Z " />
<glyph glyph-name="A" unicode="A" horiz-adv-x="634" d="M-2 0 L221 0 L221 13 L188 13 C144 12 120 49 133 93 L178 236 L392 236 L447 78 C460 42 441 14 405 14 L362 14 L362 1 L632 1 L632 14 L621 14 C588 14 550 42 537 78 L536 78 L315 676 L294 676 L100 74 C87 40 50 13 15 14 L-2 14 L-2 0 L-2 0 Z M384 257 L184 257 L279 559 L384 257 L384 257 Z " />
<glyph glyph-name="B" unicode="B" horiz-adv-x="586" d="M44 647 L61 647 C97 648 126 619 126 583 L126 77 C126 41 97 12 61 13 L44 13 L44 0 L331 0 C461 0 566 81 566 182 C566 268 478 339 360 356 C449 377 512 436 512 507 C512 592 421 660 308 660 L44 660 L44 647 L44 647 Z M209 360 L209 639 L308 639 C375 639 429 580 429 507 C429 425 366 359 288 359 L209 360 L209 360 Z M209 343 L282 343 C391 343 479 271 479 182 C479 93 409 21 322 21 L209 21 L209 343 L209 343 Z " />
<glyph glyph-name="C" unicode="C" horiz-adv-x="673" d="M614 55 L608 65 L608 65 L614 55 L614 55 Z M596 206 C594 195 589 179 587 168 C570 96 497 32 419 19 C403 17 388 16 374 16 C247 16 145 156 145 330 C145 504 247 644 374 644 C397 644 423 641 450 636 C511 622 571 559 586 491 C588 480 593 464 595 453 L612 453 L612 603 C554 636 449 664 374 664 C196 664 53 515 53 329 C53 143 196 -6 374 -6 C449 -6 555 21 613 54 L613 205 L596 206 L596 206 Z " />
<glyph glyph-name="D" unicode="D" horiz-adv-x="682" d="M44 647 L61 647 C97 648 126 619 126 583 L126 77 C126 41 97 12 61 13 L44 13 L44 0 L332 0 C499 0 632 147 632 330 C632 513 485 660 301 660 L44 660 L44 647 L44 647 Z M209 21 L209 639 L301 639 C439 639 549 501 549 330 C549 159 452 21 332 21 L209 21 L209 21 Z " />
<glyph glyph-name="E" unicode="E" horiz-adv-x="593" d="M407 250 L407 444 L394 444 L392 432 C385 393 341 362 294 362 L205 362 L205 639 L328 639 C384 639 437 595 449 539 L458 497 L472 497 L472 660 L40 660 L40 647 L57 647 C93 648 122 619 122 583 L122 77 C122 41 93 12 57 13 L40 13 L40 0 L475 0 L477 10 L477 10 C484 52 497 121 504 163 L490 163 L474 121 C452 66 391 21 335 21 L205 21 L205 342 L294 342 C342 342 385 307 392 264 L394 250 L407 250 L407 250 Z " />
<glyph glyph-name="F" unicode="F" horiz-adv-x="502" d="M40 647 L57 647 C93 648 122 619 122 583 L122 77 C122 41 93 12 57 13 L40 13 L40 0 L297 0 L297 13 L270 13 C234 12 205 41 205 77 L205 337 L284 337 C332 337 375 302 382 259 L384 245 L397 245 L397 439 L384 439 L382 427 C375 388 331 357 284 357 L205 357 L205 639 L358 639 C414 639 467 595 479 539 L488 497 L502 497 L502 660 L40 660 L40 647 L40 647 Z " />
<glyph glyph-name="G" unicode="G" horiz-adv-x="777" d="M594 454 L594 595 C594 598 594 601 594 605 C536 638 434 665 365 665 C192 665 54 516 54 330 C54 144 192 -5 365 -5 C437 -5 541 22 600 56 L600 233 C600 269 629 298 665 297 L682 297 L682 310 L443 310 L443 297 L460 297 C496 298 525 269 525 233 L525 46 C473 28 412 16 365 16 C243 16 146 156 146 330 C146 504 243 644 365 644 C385 644 408 641 432 637 C493 622 552 559 567 492 C569 481 574 465 576 454 L594 454 L594 454 Z " />
<glyph glyph-name="H" unicode="H" horiz-adv-x="751" d="M712 13 L695 13 C659 12 630 41 630 77 L630 583 C630 619 659 648 695 647 L712 647 L712 660 L465 660 L465 647 L482 647 C518 648 547 619 547 583 L547 357 L205 357 L205 583 C205 619 234 648 270 647 L287 647 L287 660 L40 660 L40 647 L57 647 C93 648 122 619 122 583 L122 77 C122 41 93 12 57 13 L40 13 L40 0 L287 0 L287 13 L270 13 C234 12 205 41 205 77 L205 337 L547 337 L547 77 C547 41 518 12 482 13 L465 13 L465 0 L712 0 L712 13 L712 13 Z " />
<glyph glyph-name="I" unicode="I" horiz-adv-x="326" d="M287 13 L270 13 C234 12 205 41 205 77 L205 583 C205 619 234 648 270 647 L287 647 L287 660 L40 660 L40 647 L57 647 C93 648 122 619 122 583 L122 77 C122 41 93 12 57 13 L40 13 L40 0 L287 0 L287 13 L287 13 Z " />
<glyph glyph-name="J" unicode="J" horiz-adv-x="361" d="M322 660 L74 660 L74 647 L91 647 C127 648 156 619 156 583 L156 200 C156 71 142 7 113 7 C96 7 77 26 71 50 C66 68 50 83 33 83 C10 83 -5 68 0 50 C8 17 49 -10 92 -10 C191 -10 240 84 240 270 L240 583 C240 619 269 648 305 647 L322 647 L322 660 L322 660 Z " />
<glyph glyph-name="K" unicode="K" horiz-adv-x="628" d="M291 660 L44 660 L44 647 L61 647 C97 648 126 619 126 583 L126 77 C126 41 97 12 61 13 L44 13 L44 0 L291 0 L291 13 L274 13 C238 12 209 41 209 77 L209 327 L220 340 L362 149 C437 47 513 -4 588 -4 L618 -4 L618 12 C578 12 518 75 418 211 L277 402 L440 584 C472 620 527 649 563 648 L579 648 L579 661 L400 661 L400 648 L411 648 C444 649 444 619 413 584 L265 418 C265 418 215 362 210 357 L210 585 C210 621 239 650 275 649 L292 649 L291 660 L291 660 Z " />
<glyph glyph-name="L" unicode="L" horiz-adv-x="593" d="M486 178 L464 111 C448 61 395 21 345 21 L205 21 L205 583 C205 619 234 648 270 647 L287 647 L287 660 L40 660 L40 647 L57 647 C93 648 122 619 122 583 L122 77 C122 41 93 12 57 13 L40 13 L40 0 L475 0 L477 10 L477 10 C485 54 498 126 505 170 C499 173 486 178 486 178 L486 178 Z " />
<glyph glyph-name="M" unicode="M" horiz-adv-x="830" d="M789 660 L633 660 L427 101 L207 660 L61 660 L61 647 L78 647 C114 648 141 619 140 583 L121 73 C118 39 88 12 53 13 L37 13 L37 0 L260 0 L260 13 L223 13 C182 12 149 43 146 83 L164 552 C239 366 314 181 388 -5 C399 25 410 55 421 85 L388 -4 L409 -4 L635 591 L652 78 C652 43 626 13 590 14 L573 14 L573 1 L819 1 L819 14 L802 14 C766 13 737 42 735 78 L735 78 L712 593 C715 625 741 649 775 648 L790 648 L789 660 L789 660 Z " />
<glyph glyph-name="N" unicode="N" horiz-adv-x="687" d="M41 647 L58 647 C94 648 123 619 123 583 L123 77 C123 41 94 12 58 13 L41 13 L41 0 L230 0 L230 13 L213 13 C177 12 148 41 148 77 L148 583 C277 383 406 183 534 -17 L565 -17 L565 583 C565 619 594 648 630 647 L647 647 L647 660 L458 660 L458 647 L475 647 C511 648 540 619 540 583 L540 124 L197 660 L41 660 L41 647 L41 647 Z " />
<glyph glyph-name="O" unicode="O" horiz-adv-x="721" d="M146 330 C146 487 231 644 363 644 C495 644 580 487 580 330 C580 173 495 16 363 16 C231 16 146 173 146 330 L146 330 Z M54 330 C54 163 174 -5 363 -5 C551 -5 671 163 671 330 C671 497 551 665 363 665 C174 665 54 497 54 330 L54 330 Z " />
<glyph glyph-name="P" unicode="P" horiz-adv-x="554" d="M291 13 L274 13 C238 12 209 41 209 77 L209 296 L295 296 C428 296 534 377 534 478 C534 579 437 660 316 660 L44 660 L44 647 L61 647 C97 648 126 619 126 583 L126 77 C126 41 97 12 61 13 L44 13 L44 0 L291 0 L291 13 L291 13 Z M209 317 L209 639 L316 639 C389 639 447 567 447 478 C447 389 379 317 295 317 L209 317 L209 317 Z " />
<glyph glyph-name="Q" unicode="Q" horiz-adv-x="721" d="M747 -52 L739 -45 C724 -63 660 -78 596 -78 C503 -78 422 -47 373 -5 C555 1 671 166 671 330 C671 497 551 665 363 665 C174 665 54 497 54 330 C54 169 165 7 342 -5 C417 -77 512 -134 586 -134 C637 -134 708 -98 746 -53 L747 -52 L747 -52 Z M145 329 C145 486 230 643 362 643 C494 643 579 486 579 329 C579 172 494 15 362 15 C230 15 145 172 145 329 L145 329 Z " />
<glyph glyph-name="R" unicode="R" horiz-adv-x="617" d="M44 647 L61 647 C97 648 126 619 126 583 L126 77 C126 41 97 12 61 13 L44 13 L44 0 L291 0 L291 13 L274 13 C238 12 209 41 209 77 L209 315 L268 315 C294 279 351 200 417 107 C484 13 503 1 586 1 L617 1 L617 17 C584 17 579 22 530 91 C451 202 384 294 361 326 C451 349 515 414 515 491 C515 585 422 661 307 661 L43 661 L44 647 L44 647 Z M287 337 L208 337 L208 640 L307 640 C374 640 428 574 428 491 C428 406 365 337 287 337 L287 337 Z " />
<glyph glyph-name="S" unicode="S" horiz-adv-x="470" d="M387 459 L387 616 C340 643 270 665 231 665 C129 665 47 580 47 474 C47 409 115 331 200 299 C292 265 366 194 366 141 C366 72 309 16 238 16 C237 16 212 17 212 18 C148 26 84 90 67 163 C65 174 60 190 58 201 L41 201 L41 44 C88 17 176 -5 238 -5 C342 -5 425 76 425 176 C425 245 353 327 263 361 C175 394 104 459 104 507 C104 583 159 644 227 644 C288 644 339 597 351 547 C357 523 365 483 371 459 L387 459 L387 459 Z " />
<glyph glyph-name="T" unicode="T" horiz-adv-x="583" d="M563 660 L20 660 L19 650 C18 650 6 494 5 482 L21 482 L43 559 C56 603 102 639 147 639 L251 639 L251 77 C251 41 222 12 186 13 L169 13 L169 0 L416 0 L416 13 L399 13 C363 12 334 41 334 77 L334 639 L438 639 C483 639 529 603 542 559 L564 482 L580 482 C575 533 569 609 564 659 L563 660 L563 660 Z " />
<glyph glyph-name="U" unicode="U" horiz-adv-x="681" d="M639 660 L425 660 L425 647 L447 647 C489 648 522 615 522 573 L522 188 C522 97 464 24 348 24 C249 24 199 100 199 194 L199 583 C199 619 228 648 264 647 L281 647 L281 660 L34 660 L34 647 L51 647 C87 648 116 619 116 583 L116 210 C116 91 189 -5 336 -5 C477 -5 547 77 547 180 L547 573 C547 615 580 648 622 647 L639 647 L639 660 L639 660 Z " />
<glyph glyph-name="V" unicode="V" horiz-adv-x="684" d="M284 660 L24 660 L24 647 L34 647 C64 648 97 623 113 590 L346 -15 L367 -15 L553 589 C566 622 602 648 636 647 L653 647 L653 660 L423 660 L423 647 L451 647 C501 648 531 610 520 561 L381 100 L205 583 C192 619 210 648 246 647 L284 647 L284 660 L284 660 Z " />
<glyph glyph-name="W" unicode="W" horiz-adv-x="972" d="M292 660 L40 660 L40 647 L50 647 C80 648 111 623 125 591 L318 -15 L339 -15 L484 530 L656 -15 L677 -15 L839 589 C851 622 886 648 920 647 L936 647 L936 660 L721 660 L721 647 L765 647 C800 647 821 621 815 587 L692 117 L522 669 L501 669 L352 108 L218 582 C209 618 228 648 264 647 L293 647 L292 660 L292 660 Z " />
<glyph glyph-name="X" unicode="X" horiz-adv-x="629" d="M575 660 L355 660 L355 647 L400 647 C434 647 448 622 432 588 L327 395 L217 589 C202 622 216 647 250 646 L285 646 L285 659 L29 659 L29 646 L38 646 C66 647 106 617 127 582 L276 317 L143 70 C122 37 80 11 46 12 L30 12 L30 -1 L250 -1 L250 12 L219 12 C177 11 160 43 178 84 L289 296 L417 70 C432 37 418 12 384 13 L349 13 L349 0 L605 0 L605 13 L596 13 C568 12 528 42 507 77 C451 176 394 276 339 375 L460 588 C482 622 525 648 559 647 L575 647 L575 660 L575 660 Z " />
<glyph glyph-name="Y" unicode="Y" horiz-adv-x="654" d="M189 0 L437 0 L437 13 L420 13 C384 12 355 41 355 77 L355 310 L508 583 C528 619 571 648 605 647 L615 647 L615 660 L409 660 L409 647 L434 647 C479 648 497 615 478 572 L340 322 L209 592 C197 624 213 648 246 647 L272 647 L272 660 L20 660 L20 647 L29 647 C58 648 96 618 114 582 L272 273 L271 76 C271 40 242 10 206 11 L189 11 L189 0 L189 0 Z " />
<glyph glyph-name="Z" unicode="Z" horiz-adv-x="557" d="M483 179 L461 112 C445 62 392 22 342 22 L150 22 L492 660 L105 660 L102 650 L102 650 C92 612 76 550 65 512 L81 512 L105 559 C128 603 182 639 227 639 L386 639 L45 0 L472 0 L474 11 C482 55 495 127 502 171 C496 174 483 179 483 179 L483 179 Z " />
<glyph glyph-name="bracketleft" unicode="&#x5b;" horiz-adv-x="246" d="M131 643 L236 643 L236 660 L72 660 L72 -120 L236 -120 L236 -103 L131 -103 L131 643 L131 643 Z " />
<glyph glyph-name="backslash" unicode="&#x5c;" horiz-adv-x="242" d="M216 -145 L242 -145 L-34 710 L-60 710 L216 -145 L216 -145 Z " />
<glyph glyph-name="bracketright" unicode="&#x5d;" horiz-adv-x="238" d="M110 643 L110 -103 L5 -103 L5 -120 L168 -120 L168 660 L5 660 L5 643 L110 643 L110 643 Z " />
<glyph glyph-name="asciicircum" unicode="&#x5e;" horiz-adv-x="293" d="M171 724 C168 730 159 745 147 745 C135 745 126 730 123 724 C123 724 27 530 34 539 L42 532 C80 577 121 632 146 667 C183 617 251 532 251 532 L259 539 C259 539 223 618 171 724 L171 724 Z " />
<glyph glyph-name="underscore" unicode="&#x5f;" horiz-adv-x="371" d="M5 -50 L5 -92 L366 -92 L366 -50 L5 -50 L5 -50 Z " />
<glyph glyph-name="grave" unicode="&#x60;" horiz-adv-x="293" d="M64 709 C64 705 82 683 105 658 C134 620 221 530 221 530 L229 537 C229 537 172 650 143 687 C126 717 111 741 107 741 C95 741 64 718 64 709 L64 709 Z " />
<glyph glyph-name="a" unicode="a" horiz-adv-x="457" d="M435 41 C427 33 410 26 385 26 C357 26 346 54 346 88 L346 357 C346 439 295 505 231 505 C147 505 70 458 59 399 L134 399 C143 446 179 484 215 484 C244 484 267 435 267 373 L267 255 C242 251 211 246 189 241 C104 220 36 158 36 103 C36 43 81 -5 136 -5 C175 -5 227 20 269 56 C275 18 295 -10 335 -10 C385 -10 422 8 444 30 L435 41 L435 41 Z M268 236 L268 80 C268 78 268 76 268 74 C239 57 204 46 174 46 C139 46 111 81 111 124 C111 165 146 207 190 218 C217 225 245 231 267 236 L268 236 L268 236 Z " />
<glyph glyph-name="b" unicode="b" horiz-adv-x="533" d="M5 666 L17 666 C71 665 87 650 87 599 L87 0 L95 0 C102 15 122 27 141 27 C179 27 226 -5 277 -5 C399 -5 496 108 496 249 C496 391 414 505 312 505 C273 505 206 486 162 463 L162 720 L147 720 L5 678 L5 666 L5 666 Z M277 16 C213 16 162 76 162 150 L162 450 C185 462 226 472 255 472 C345 472 417 358 417 216 C417 105 355 16 277 16 L277 16 Z " />
<glyph glyph-name="c" unicode="c" horiz-adv-x="456" d="M405 55 L398 64 C383 51 335 41 290 41 C201 41 129 139 129 262 C129 385 190 484 265 484 C300 484 331 448 335 404 C337 383 354 367 373 367 C391 367 406 382 406 400 C401 458 342 505 273 505 C149 505 50 384 50 233 C50 101 129 -5 228 -5 C287 -5 365 22 405 55 L405 55 Z " />
<glyph glyph-name="d" unicode="d" horiz-adv-x="537" d="M270 666 L282 666 C336 665 352 650 352 599 L352 450 C322 481 277 505 234 505 C120 505 28 380 28 223 C28 96 107 -5 205 -5 C253 -5 315 18 351 48 L351 0 L366 0 L508 42 L508 54 L496 54 C442 55 426 70 426 121 L426 720 L411 720 L269 678 L270 666 L270 666 Z M351 60 C334 49 289 41 244 41 C166 41 104 134 104 251 C104 380 159 484 228 484 C276 484 326 452 350 416 L351 60 L351 60 Z " />
<glyph glyph-name="e" unicode="e" horiz-adv-x="462" d="M411 55 L404 64 C389 51 339 41 293 41 C202 41 129 139 129 262 C129 282 130 301 133 319 L412 319 C412 422 340 505 250 505 C139 505 50 384 50 233 C50 101 131 -5 231 -5 C291 -5 371 22 411 55 L411 55 Z M342 380 L342 382 C342 381 342 380 342 379 L342 380 L342 380 Z M341 374 C338 357 323 344 304 343 L134 332 C150 420 194 483 246 483 C299 483 347 431 342 382 C342 382 342 379 342 374 L341 374 L341 374 Z " />
<glyph glyph-name="f" unicode="f" horiz-adv-x="376" d="M273 13 L256 13 C220 12 191 41 191 77 L191 471 L301 471 L301 500 L191 500 L191 533 C191 627 252 703 276 703 C299 703 319 684 321 660 C323 642 340 627 359 627 C377 627 392 642 392 660 C389 693 347 720 297 720 C199 720 120 644 120 549 C118 549 116 500 116 500 L52 500 L52 471 L116 471 L116 77 C116 41 87 12 51 13 L34 13 L34 0 L273 0 L273 13 L273 13 Z " />
<glyph glyph-name="g" unicode="g" horiz-adv-x="434" d="M73 -110 C73 -64 110 -14 159 6 C166 5 173 5 181 5 L226 8 C300 8 360 -31 360 -79 C360 -157 275 -219 169 -219 C116 -219 73 -171 73 -111 L22 -120 C22 -187 84 -240 161 -240 C301 -240 414 -151 414 -41 C414 26 339 79 246 79 C239 79 177 76 177 76 C133 76 98 101 98 132 C98 165 133 192 176 192 L221 192 C308 192 378 262 378 349 C378 391 362 428 336 456 L434 458 L434 500 C390 494 345 490 302 484 C279 498 252 506 223 506 C135 506 65 437 65 350 C65 284 105 228 163 205 C98 199 49 156 49 104 C49 60 89 23 144 11 C77 -18 25 -73 25 -117 L73 -110 L73 -110 Z M224 211 C176 211 137 273 137 351 C137 428 176 490 224 490 C272 490 310 428 310 351 C310 273 272 211 224 211 L224 211 Z " />
<glyph glyph-name="h" unicode="h" horiz-adv-x="602" d="M324 0 L563 0 L563 13 L546 13 C510 12 481 41 481 77 L481 337 C481 430 446 505 375 505 C348 505 272 476 202 440 L202 720 L187 720 L45 678 L45 666 L57 666 C111 665 127 650 127 599 L127 77 C127 41 98 12 62 13 L45 13 L45 0 L284 0 L284 13 L267 13 C231 12 202 41 202 77 L202 432 C232 445 281 455 317 455 C376 455 406 399 406 329 L406 77 C406 41 377 12 341 13 L324 13 L324 0 L324 0 Z " />
<glyph glyph-name="i" unicode="i" horiz-adv-x="328" d="M160 570 C188 570 210 592 210 620 C210 648 188 670 160 670 C132 670 110 648 110 620 C110 592 132 570 160 570 L160 570 Z M284 13 L267 13 C231 12 202 41 202 77 L202 500 L187 500 L45 458 L45 446 L57 446 C111 445 127 430 127 379 L127 77 C127 41 98 12 62 13 L45 13 L45 0 L284 0 L284 13 L284 13 Z " />
<glyph glyph-name="j" unicode="j" horiz-adv-x="264" d="M158 570 C186 570 208 592 208 620 C208 648 186 670 158 670 C130 670 108 648 108 620 C108 592 130 570 158 570 L158 570 Z M43 446 L55 446 C109 445 125 430 125 379 L125 5 C125 -130 98 -185 36 -224 L43 -235 C153 -167 201 -100 201 25 C200 27 200 481 200 481 L200 500 L185 500 L43 458 L43 446 L43 446 Z " />
<glyph glyph-name="k" unicode="k" horiz-adv-x="534" d="M507 500 L323 500 L323 487 L334 487 C367 488 368 459 336 423 C336 423 217 289 206 277 C206 334 207 701 204 701 L204 720 L189 720 L47 678 L47 666 L59 666 C113 665 129 650 129 599 L129 77 C129 41 100 12 64 13 L47 13 L47 0 L286 0 L286 13 L269 13 C236 12 209 36 205 68 C205 116 206 185 206 262 L211 267 L346 78 C372 42 365 13 330 14 L319 14 L319 1 L566 1 L566 14 L550 14 C514 13 465 43 438 78 L263 321 L369 430 C404 463 457 489 491 488 L507 488 L507 500 L507 500 Z " />
<glyph glyph-name="l" unicode="l" horiz-adv-x="328" d="M284 13 L267 13 C231 12 202 41 202 77 L202 720 L187 720 L45 678 L45 666 L57 666 C111 665 127 650 127 599 L127 77 C127 41 98 12 62 13 L45 13 L45 0 L284 0 L284 13 L284 13 Z " />
<glyph glyph-name="m" unicode="m" horiz-adv-x="901" d="M623 0 L862 0 L862 13 L845 13 C809 12 780 41 780 77 L780 337 C780 430 726 505 666 505 C643 505 561 469 474 423 C454 472 418 505 380 505 C346 505 271 476 201 440 L201 500 L186 500 L44 458 L44 446 L56 446 C110 445 126 430 126 379 L126 77 C126 41 97 12 61 13 L44 13 L44 0 L283 0 L283 13 L266 13 C230 12 201 41 201 77 L201 432 C233 447 282 459 322 459 C371 459 415 401 415 329 L415 77 C415 41 386 12 350 13 L333 13 L333 0 L572 0 L572 13 L555 13 C519 12 490 41 490 77 L490 337 C490 364 486 389 478 412 C524 436 578 455 607 455 C658 455 704 399 704 329 L704 77 C704 41 675 12 639 13 L622 13 L623 0 L623 0 Z " />
<glyph glyph-name="n" unicode="n" horiz-adv-x="593" d="M324 0 L563 0 L563 13 L546 13 C510 12 481 41 481 77 L481 337 C481 430 446 505 375 505 C348 505 272 476 202 440 L202 500 L187 500 L45 458 L45 446 L57 446 C111 445 127 430 127 379 L127 77 C127 41 98 12 62 13 L45 13 L45 0 L284 0 L284 13 L267 13 C231 12 202 41 202 77 L202 432 C232 445 281 455 317 455 C376 455 406 399 406 329 L406 77 C406 41 377 12 341 13 L324 13 L324 0 L324 0 Z " />
<glyph glyph-name="o" unicode="o" horiz-adv-x="558" d="M133 250 C133 382 198 488 279 488 C360 488 425 382 425 250 C425 118 360 12 279 12 C198 12 133 118 133 250 L133 250 Z M50 250 C50 108 152 -5 279 -5 C406 -5 508 108 508 250 C508 392 406 505 279 505 C152 505 50 392 50 250 L50 250 Z " />
<glyph glyph-name="p" unicode="p" horiz-adv-x="600" d="M275 -217 L258 -217 C222 -218 193 -189 193 -153 L193 34 C225 10 268 -5 314 -5 C442 -5 545 114 545 263 C545 397 465 505 365 505 C310 505 236 471 193 426 L193 500 L178 500 L36 458 L36 446 L48 446 C102 445 118 430 118 379 L118 -153 C118 -189 89 -218 53 -217 L36 -217 L36 -230 L275 -230 L275 -217 L275 -217 Z M193 135 L193 412 C220 436 268 455 308 455 C399 455 472 343 472 204 C472 100 402 16 315 16 C254 16 200 69 194 135 L193 135 L193 135 Z " />
<glyph glyph-name="q" unicode="q" horiz-adv-x="564" d="M538 -217 L521 -217 C485 -218 456 -189 456 -153 L456 500 L448 500 C441 485 419 473 398 473 C361 473 315 505 266 505 C151 505 58 380 58 223 C58 96 133 -5 226 -5 C276 -5 342 20 382 54 L382 -153 C382 -189 353 -218 317 -217 L300 -217 L300 -230 L539 -230 L538 -217 L538 -217 Z M382 67 C363 52 314 40 268 40 C196 40 138 133 138 250 C138 379 195 483 267 483 C331 483 382 423 382 349 L382 67 L382 67 Z " />
<glyph glyph-name="r" unicode="r" horiz-adv-x="366" d="M18 446 L30 446 C84 445 100 430 100 379 L100 77 C100 41 71 12 35 13 L18 13 L18 0 L257 0 L257 13 L240 13 C204 12 175 41 175 77 L175 417 C192 435 214 448 229 448 C255 448 295 418 321 418 C340 418 356 434 356 454 C356 482 334 504 289 504 C261 504 212 470 175 427 L175 499 L160 499 L18 457 L18 446 L18 446 Z " />
<glyph glyph-name="s" unicode="s" horiz-adv-x="385" d="M312 358 L312 463 L306 452 L306 452 L312 463 C272 486 224 505 204 505 C124 505 60 446 60 372 C60 324 113 258 179 223 C231 195 273 147 273 115 C273 50 228 4 168 15 C126 25 83 69 69 120 C67 128 63 139 61 147 L47 147 L47 32 C83 11 144 -5 184 -5 C268 -5 335 61 335 143 C335 187 289 247 232 277 C168 311 117 364 117 397 C117 448 156 488 204 488 C206 488 212 486 221 482 C255 464 286 424 293 387 C295 379 296 366 298 358 L312 358 L312 358 Z " />
<glyph glyph-name="t" unicode="t" horiz-adv-x="330" d="M299 500 L164 500 L164 640 L152 640 L96 490 L141 611 C116 544 64 485 25 479 L25 471 L89 471 L89 112 C89 28 114 -5 177 -5 C232 -5 278 16 310 43 L305 50 C290 38 261 28 214 28 C178 28 164 48 164 99 L164 471 L299 471 L299 500 L299 500 Z " />
<glyph glyph-name="u" unicode="u" horiz-adv-x="567" d="M15 487 L32 487 C68 488 97 459 97 423 L97 155 C97 66 146 -5 224 -5 C281 -5 338 21 376 55 L376 0 L391 0 L533 42 L533 54 L521 54 C467 55 451 70 451 121 L451 500 L294 500 L294 487 L311 487 C347 488 376 459 376 423 L376 66 C360 54 327 45 283 45 C215 45 171 98 171 164 L172 501 L15 501 L15 487 L15 487 Z " />
<glyph glyph-name="v" unicode="v" horiz-adv-x="552" d="M239 500 L-6 500 L-6 487 L10 487 C46 488 86 459 99 423 L258 -10 L271 -10 L429 428 C444 461 482 487 516 486 L532 486 L532 499 L348 499 L348 486 L361 486 C397 487 416 458 404 422 L293 91 L183 422 C172 457 190 487 226 486 L239 486 L239 500 L239 500 Z " />
<glyph glyph-name="w" unicode="w" horiz-adv-x="818" d="M281 500 L36 500 L36 487 L46 487 C77 488 113 459 126 423 L285 -10 L298 -10 L407 325 L530 -10 L543 -10 L701 428 C716 461 754 487 788 486 L804 486 L804 499 L590 499 L590 486 L633 486 C669 486 688 458 676 422 L565 91 L455 422 C444 457 462 487 498 486 L531 486 L531 499 L286 499 L286 486 L295 486 C324 487 358 458 371 422 L398 349 L317 90 L209 422 C197 458 217 487 253 486 L281 486 L281 500 L281 500 Z " />
<glyph glyph-name="x" unicode="x" horiz-adv-x="571" d="M532 500 L329 500 L329 487 L363 487 C397 488 409 462 390 428 L318 315 L249 428 C230 462 241 489 276 488 L301 488 L301 501 L53 501 L53 488 L63 488 C94 489 137 460 159 424 L268 245 L167 78 C144 42 98 12 62 13 L36 13 L36 0 L270 0 L270 13 L215 13 C180 13 168 39 187 74 L278 229 L373 73 C392 39 381 12 347 13 L336 13 L336 0 L559 0 L559 13 L550 13 C524 12 485 41 463 77 L325 302 L407 423 C431 459 480 488 516 487 L532 487 L532 500 L532 500 Z " />
<glyph glyph-name="y" unicode="y" horiz-adv-x="563" d="M275 500 L30 500 L30 487 L46 487 C82 488 122 459 135 423 L290 0 C284 -13 274 -38 265 -65 C237 -142 209 -181 182 -181 C182 -181 132 -156 113 -156 C92 -156 75 -170 75 -188 C75 -211 102 -230 136 -230 C197 -230 247 -177 285 -72 C297 -38 307 -10 307 -10 L465 428 C480 461 518 487 552 486 L568 486 L568 499 L384 499 L384 486 L397 486 C433 487 452 458 440 422 L329 91 L219 422 C208 457 226 487 262 486 L275 486 L275 500 L275 500 Z " />
<glyph glyph-name="z" unicode="z" horiz-adv-x="446" d="M389 174 L367 107 C351 57 298 17 248 17 L146 17 L396 500 L71 500 L69 492 L69 492 C61 463 48 415 40 386 L56 386 L66 403 C93 447 149 483 194 483 L301 483 L49 0 L379 0 L381 9 L380 9 C388 53 401 122 408 166 C402 169 389 174 389 174 L389 174 Z " />
<glyph glyph-name="braceleft" unicode="&#x7b;" horiz-adv-x="222" d="M207 -120 L207 -108 L184 -108 C142 -108 109 -63 109 -6 L108 161 C108 216 80 261 42 271 C80 281 108 326 108 381 L108 546 C108 603 142 648 184 648 L207 648 L207 661 L167 661 C102 661 50 610 50 546 L50 339 C50 302 32 277 5 277 L5 265 C32 265 50 241 50 204 L50 -5 C50 -68 102 -119 167 -119 L207 -120 L207 -120 Z " />
<glyph glyph-name="bar" unicode="&#x7c;" horiz-adv-x="178" d="M60 770 L60 -234 L118 -234 L118 770 L60 770 L60 770 Z " />
<glyph glyph-name="braceright" unicode="&#x7d;" horiz-adv-x="222" d="M5 660 L5 648 L28 648 C70 648 103 603 103 546 L104 379 C104 324 132 279 170 269 C132 259 104 214 104 159 L104 -6 C104 -63 70 -108 28 -108 L5 -108 L5 -121 L45 -121 C110 -121 162 -70 162 -6 L162 201 C162 238 180 263 207 263 L207 275 C180 275 162 299 162 336 L162 545 C162 608 110 659 45 659 L5 660 L5 660 Z " />
<glyph glyph-name="asciitilde" unicode="&#x7e;" horiz-adv-x="293" d="M32 310 C32 345 47 373 65 373 C104 373 168 310 207 310 C244 310 274 359 274 420 L261 420 C261 387 244 360 223 360 C184 360 121 422 82 422 C47 422 19 372 19 310 L32 310 L32 310 Z " />
<glyph glyph-name="nbspace" unicode="&#xa0;" horiz-adv-x="178" d="" />
<glyph glyph-name="exclamdown" unicode="&#xa1;" horiz-adv-x="215" d="M101 505 C71 505 47 481 47 451 C47 421 71 397 101 397 C131 397 155 421 155 451 C155 481 131 505 101 505 L101 505 Z M60 -110 C57 -141 78 -165 106 -165 C135 -165 155 -141 152 -110 C152 130 106 322 106 322 L96 322 C96 322 60 130 60 -110 L60 -110 Z " />
<glyph glyph-name="cent" unicode="&#xa2;" horiz-adv-x="456" d="M246 575 L246 503 C135 487 50 373 50 233 C50 94 132 -14 246 -5 L246 -76 L271 -76 L271 -2 C321 7 374 29 405 54 L398 63 C382 49 316 34 271 41 L271 482 C303 478 331 444 335 403 C337 382 354 366 373 366 C391 366 406 381 406 399 C401 458 341 505 271 504 L271 574 L246 575 L246 575 Z M246 48 C178 74 129 159 129 261 C129 373 180 465 246 480 L246 48 L246 48 Z " />
<glyph glyph-name="guillemotleft" unicode="&#xab;" horiz-adv-x="393" d="M229 249 C254 300 320 432 346 458 L338 466 C250 378 158 255 158 255 L158 247 C169 220 340 36 340 36 L349 44 C349 44 271 160 230 250 L229 249 L229 249 Z M93 250 C118 301 184 433 210 459 L202 467 C114 379 22 256 22 256 L22 248 C33 221 204 37 204 37 L213 45 C213 45 135 161 94 251 L93 250 L93 250 Z " />
<glyph glyph-name="acute" unicode="&#xb4;" horiz-adv-x="293" d="M71 530 C71 530 154 621 183 658 C205 683 222 705 222 709 C222 718 191 741 179 741 C177 741 162 717 145 687 C116 650 62 537 62 537 L71 530 L71 530 Z " />
<glyph glyph-name="guillemotright" unicode="&#xbb;" horiz-adv-x="393" d="M54 35 C54 35 225 219 236 246 L236 254 C236 254 144 377 56 465 L48 457 C74 431 140 299 165 248 C124 158 46 42 46 42 L54 35 L54 35 Z M192 34 C192 34 363 218 374 245 L374 253 C374 253 282 376 194 464 L186 456 C212 430 278 298 303 247 C262 157 184 41 184 41 L192 34 L192 34 Z " />
<glyph glyph-name="onequarter" unicode="&#xbc;" horiz-adv-x="768" d="M144 -18 L658 652 L624 678 L110 8 L144 -18 L144 -18 Z M600 302 L599 303 C599 303 584 279 570 252 C524 181 443 61 443 61 L443 51 L546 51 L546 -1 L609 -1 C609 12 609 31 609 51 L654 51 L654 80 L609 80 C610 191 610 198 609 285 C609 296 609 304 609 304 L600 304 C600 304 600 304 600 303 L600 302 L600 302 Z M477 80 C495 106 522 146 547 184 L547 80 L477 80 L477 80 Z M601 304 L600 304 L600 304 L601 304 L601 304 Z M314 423 L306 423 C288 422 273 437 273 455 L273 628 C273 651 291 660 314 660 L314 666 L168 666 L168 660 C192 660 209 651 209 628 L209 455 C209 437 195 422 177 423 L168 423 L168 416 L314 416 L314 423 L314 423 Z " />
<glyph glyph-name="onehalf" unicode="&#xbd;" horiz-adv-x="768" d="M144 -18 L658 652 L624 678 L110 8 L144 -18 L144 -18 Z M647 105 C647 82 634 64 612 64 L545 64 C605 106 645 141 645 178 C645 220 611 253 569 253 C534 253 492 220 476 180 L483 175 C490 192 514 206 537 206 C558 206 574 184 574 156 C574 85 520 61 453 14 L453 0 C467 10 480 19 493 28 C479 14 465 1 454 1 L646 1 L651 63 C652 78 654 94 655 106 L647 105 L647 105 Z M315 423 L307 423 C289 422 274 437 274 455 L274 628 C274 651 292 660 315 660 L315 666 L169 666 L169 660 C193 660 210 651 210 628 L210 455 C210 437 196 422 178 423 L169 423 L169 416 L315 416 L315 423 L315 423 Z " />
<glyph glyph-name="threequarters" unicode="&#xbe;" horiz-adv-x="768" d="M143 504 L143 494 C152 497 165 500 173 500 C208 500 236 479 236 454 C236 400 185 354 121 350 L122 340 C222 347 303 399 303 457 C303 491 271 520 225 530 C264 554 290 581 290 603 C290 639 259 668 221 668 C184 668 137 636 114 596 L122 592 C131 608 160 621 188 621 C209 621 226 604 226 583 C226 567 215 549 198 534 C195 534 192 534 189 534 C194 534 196 533 197 532 C182 519 166 512 144 504 L143 504 L143 504 Z M145 -18 L659 652 L625 678 L111 8 L145 -18 L145 -18 Z M601 302 L600 303 C600 303 585 279 571 252 C525 181 444 61 444 61 L444 51 L547 51 L547 -1 L610 -1 C610 12 610 31 610 51 L655 51 L655 80 L610 80 C611 191 611 198 610 285 C610 296 610 304 610 304 L601 304 C601 304 601 304 601 303 L601 302 L601 302 Z M478 80 C496 106 523 146 548 184 L548 80 L478 80 L478 80 Z M602 304 L601 304 L601 304 L602 304 L602 304 Z " />
<glyph glyph-name="questiondown" unicode="&#xbf;" horiz-adv-x="331" d="M203 505 C173 505 149 481 149 451 C149 421 173 397 203 397 C233 397 257 421 257 451 C257 481 233 505 203 505 L203 505 Z M220 -165 C260 -165 292 -137 292 -102 C292 -86 276 -74 256 -74 C239 -74 213 -106 196 -106 C116 -106 52 -33 52 58 C52 82 80 129 176 129 L211 129 C219 129 225 134 224 140 L208 317 L198 317 L185 186 L150 186 C61 186 35 107 35 67 C35 -62 117 -165 220 -165 L220 -165 Z " />
<glyph glyph-name="Agrave" unicode="&#xc0;" horiz-adv-x="634" d="M-2 0 L221 0 L221 13 L188 13 C144 12 120 49 133 93 L178 236 L392 236 L447 78 C460 42 441 14 405 14 L362 14 L362 1 L632 1 L632 14 L621 14 C588 14 550 42 537 78 L536 78 L315 676 L294 676 L100 74 C87 40 50 13 15 14 L-2 14 L-2 0 L-2 0 Z M222 870 C222 865 240 843 262 819 C291 781 377 691 377 691 L386 698 C386 698 329 811 300 848 C283 878 268 902 264 902 C252 902 222 879 222 870 L222 870 Z M384 257 L184 257 L279 559 L384 257 L384 257 Z " />
<glyph glyph-name="Aacute" unicode="&#xc1;" horiz-adv-x="634" d="M244 690 C244 690 327 781 356 818 C378 843 395 865 395 869 C395 878 364 901 352 901 C350 901 335 877 318 847 C289 810 235 697 235 697 L244 690 L244 690 Z M-2 0 L221 0 L221 13 L188 13 C144 12 120 49 133 93 L178 236 L392 236 L447 78 C460 42 441 14 405 14 L362 14 L362 1 L632 1 L632 14 L621 14 C588 14 550 42 537 78 L536 78 L315 676 L294 676 L100 74 C87 40 50 13 15 14 L-2 14 L-2 0 L-2 0 Z M384 257 L184 257 L279 559 L384 257 L384 257 Z " />
<glyph glyph-name="Acircumflex" unicode="&#xc2;" horiz-adv-x="634" d="M-2 0 L221 0 L221 13 L188 13 C144 12 120 49 133 93 L178 236 L392 236 L447 78 C460 42 441 14 405 14 L362 14 L362 1 L632 1 L632 14 L621 14 C588 14 550 42 537 78 L536 78 L315 676 L294 676 L100 74 C87 40 50 13 15 14 L-2 14 L-2 0 L-2 0 Z M328 885 C325 891 316 906 305 906 C293 906 284 891 281 885 C281 885 185 691 192 700 L200 693 C238 738 279 793 304 828 C341 778 409 693 409 693 L417 700 C417 700 379 780 328 885 L328 885 Z M384 257 L184 257 L279 559 L384 257 L384 257 Z " />
<glyph glyph-name="Atilde" unicode="&#xc3;" horiz-adv-x="634" d="M190 755 C190 790 205 818 223 818 C262 818 326 755 365 755 C402 755 432 804 432 865 L419 865 C419 832 402 805 381 805 C342 805 279 867 240 867 C205 867 177 817 177 755 L190 755 L190 755 Z M-2 0 L221 0 L221 13 L188 13 C144 12 120 49 133 93 L178 236 L392 236 L447 78 C460 42 441 14 405 14 L362 14 L362 1 L632 1 L632 14 L621 14 C588 14 550 42 537 78 L536 78 L315 676 L294 676 L100 74 C87 40 50 13 15 14 L-2 14 L-2 0 L-2 0 Z M384 257 L184 257 L279 559 L384 257 L384 257 Z " />
<glyph glyph-name="Adieresis" unicode="&#xc4;" horiz-adv-x="634" d="M395 730 C421 730 441 750 441 776 C441 802 421 822 395 822 C369 822 349 802 349 776 C349 750 369 730 395 730 L395 730 Z M214 730 C240 730 260 750 260 776 C260 802 240 822 214 822 C188 822 168 802 168 776 C168 750 188 730 214 730 L214 730 Z M-2 0 L221 0 L221 13 L188 13 C144 12 120 49 133 93 L178 236 L392 236 L447 78 C460 42 441 14 405 14 L362 14 L362 1 L632 1 L632 14 L621 14 C588 14 550 42 537 78 L536 78 L315 676 L294 676 L100 74 C87 40 50 13 15 14 L-2 14 L-2 0 L-2 0 Z M384 257 L184 257 L279 559 L384 257 L384 257 Z " />
<glyph glyph-name="Aring" unicode="&#xc5;" horiz-adv-x="634" d="M231 788 C231 830 264 863 305 863 C346 863 378 830 378 788 C378 750 341 712 305 712 C268 712 231 750 231 788 L231 788 Z M210 788 C210 742 258 695 305 695 C352 695 399 742 399 788 C399 839 357 880 305 880 C252 880 210 839 210 788 L210 788 Z M-2 0 L221 0 L221 13 L188 13 C144 12 120 49 133 93 L178 236 L392 236 L447 78 C460 42 441 14 405 14 L362 14 L362 1 L632 1 L632 14 L621 14 C588 14 550 42 537 78 L536 78 L315 676 L294 676 L100 74 C87 40 50 13 15 14 L-2 14 L-2 0 L-2 0 Z M384 257 L184 257 L279 559 L384 257 L384 257 Z " />
<glyph glyph-name="Ccedilla" unicode="&#xc7;" horiz-adv-x="673" d="M347 -82 L342 -94 C344 -90 346 -86 348 -82 L347 -82 L347 -82 Z M598 206 C596 195 591 179 589 168 C572 96 499 32 421 19 C405 17 390 16 376 16 C249 16 147 156 147 330 C147 504 249 644 376 644 C399 644 425 641 452 636 C513 622 573 559 588 491 C590 480 595 464 597 453 L614 453 L614 603 C556 636 451 664 376 664 C198 664 55 515 55 329 C55 145 194 -2 369 -6 C365 -16 352 -50 337 -93 L343 -95 C357 -87 377 -80 387 -80 C411 -80 431 -104 431 -135 C431 -171 405 -199 372 -199 C345 -199 317 -194 309 -188 L306 -196 C323 -210 359 -221 387 -221 C436 -221 476 -183 476 -135 C476 -96 444 -65 405 -65 C387 -65 362 -71 349 -79 C369 -30 385 -12 392 -6 C466 -3 562 23 616 54 L610 64 L610 64 L615 54 L615 205 L598 206 L598 206 Z " />
<glyph glyph-name="Egrave" unicode="&#xc8;" horiz-adv-x="593" d="M193 869 C193 864 211 842 233 818 C262 780 349 690 349 690 L357 697 C357 697 301 810 272 847 C255 877 240 901 236 901 C224 901 193 878 193 869 L193 869 Z M407 250 L407 444 L394 444 L392 432 C385 393 341 362 294 362 L205 362 L205 639 L328 639 C384 639 437 595 449 539 L458 497 L472 497 L472 660 L40 660 L40 647 L57 647 C93 648 122 619 122 583 L122 77 C122 41 93 12 57 13 L40 13 L40 0 L475 0 L477 10 L477 10 C484 52 497 121 504 163 L490 163 L474 121 C452 66 391 21 335 21 L205 21 L205 342 L294 342 C342 342 385 307 392 264 L394 250 L407 250 L407 250 Z " />
<glyph glyph-name="Eacute" unicode="&#xc9;" horiz-adv-x="593" d="M261 690 C261 690 345 781 374 818 C396 843 413 865 413 869 C413 878 382 901 370 901 C367 901 352 877 335 847 C306 810 253 697 253 697 L261 690 L261 690 Z M407 250 L407 444 L394 444 L392 432 C385 393 341 362 294 362 L205 362 L205 639 L328 639 C384 639 437 595 449 539 L458 497 L472 497 L472 660 L40 660 L40 647 L57 647 C93 648 122 619 122 583 L122 77 C122 41 93 12 57 13 L40 13 L40 0 L475 0 L477 10 L477 10 C484 52 497 121 504 163 L490 163 L474 121 C452 66 391 21 335 21 L205 21 L205 342 L294 342 C342 342 385 307 392 264 L394 250 L407 250 L407 250 Z " />
<glyph glyph-name="Ecircumflex" unicode="&#xca;" horiz-adv-x="593" d="M316 884 C313 890 304 905 292 905 C280 905 271 890 268 884 C268 884 171 688 180 699 L188 692 C226 737 267 792 292 827 C329 777 396 693 396 693 L404 700 C404 700 368 779 316 885 L316 884 L316 884 Z M407 251 L407 445 L394 445 L392 433 C385 394 341 363 294 363 L205 363 L205 640 L328 640 C384 640 437 596 449 540 L458 498 L472 498 L472 661 L40 661 L40 648 L57 648 C93 649 122 620 122 584 L122 78 C122 42 93 13 57 14 L40 14 L40 1 L475 1 L477 11 L477 11 C484 53 497 122 504 164 L490 164 L474 122 C452 67 391 22 335 22 L205 22 L205 343 L294 343 C342 343 385 308 392 265 L394 251 L407 251 L407 251 Z " />
<glyph glyph-name="Edieresis" unicode="&#xcb;" horiz-adv-x="593" d="M383 730 C409 730 429 750 429 776 C429 802 409 822 383 822 C357 822 337 802 337 776 C337 750 357 730 383 730 L383 730 Z M201 730 C227 730 247 750 247 776 C247 802 227 822 201 822 C175 822 155 802 155 776 C155 750 175 730 201 730 L201 730 Z M407 250 L407 444 L394 444 L392 432 C385 393 341 362 294 362 L205 362 L205 639 L328 639 C384 639 437 595 449 539 L458 497 L472 497 L472 660 L40 660 L40 647 L57 647 C93 648 122 619 122 583 L122 77 C122 41 93 12 57 13 L40 13 L40 0 L475 0 L477 10 L477 10 C484 52 497 121 504 163 L490 163 L474 121 C452 66 391 21 335 21 L205 21 L205 342 L294 342 C342 342 385 307 392 264 L394 250 L407 250 L407 250 Z " />
<glyph glyph-name="Igrave" unicode="&#xcc;" horiz-adv-x="326" d="M81 869 C81 864 99 842 121 818 C150 780 237 690 237 690 L245 697 C245 697 189 810 160 847 C143 877 128 901 124 901 C112 901 81 878 81 869 L81 869 Z M287 13 L270 13 C234 12 205 41 205 77 L205 583 C205 619 234 648 270 647 L287 647 L287 660 L40 660 L40 647 L57 647 C93 648 122 619 122 583 L122 77 C122 41 93 12 57 13 L40 13 L40 0 L287 0 L287 13 L287 13 Z " />
<glyph glyph-name="Iacute" unicode="&#xcd;" horiz-adv-x="326" d="M102 690 C102 690 186 781 215 818 C237 843 254 865 254 869 C254 878 223 901 211 901 C208 901 193 877 176 847 C147 810 94 697 94 697 L102 690 L102 690 Z M287 13 L270 13 C234 12 205 41 205 77 L205 583 C205 619 234 648 270 647 L287 647 L287 660 L40 660 L40 647 L57 647 C93 648 122 619 122 583 L122 77 C122 41 93 12 57 13 L40 13 L40 0 L287 0 L287 13 L287 13 Z " />
<glyph glyph-name="Icircumflex" unicode="&#xce;" horiz-adv-x="326" d="M188 884 C185 890 176 905 164 905 C152 905 143 890 140 884 C140 884 43 688 52 699 L60 692 C98 737 139 792 164 827 C201 777 268 693 268 693 L276 700 C276 700 240 779 188 885 L188 884 L188 884 Z M287 14 L270 14 C234 13 205 42 205 78 L205 584 C205 620 234 649 270 648 L287 648 L287 661 L40 661 L40 648 L57 648 C93 649 122 620 122 584 L122 78 C122 42 93 13 57 14 L40 14 L40 1 L287 1 L287 14 L287 14 Z " />
<glyph glyph-name="Idieresis" unicode="&#xcf;" horiz-adv-x="326" d="M255 730 C281 730 301 750 301 776 C301 802 281 822 255 822 C229 822 209 802 209 776 C209 750 229 730 255 730 L255 730 Z M73 730 C99 730 119 750 119 776 C119 802 99 822 73 822 C47 822 27 802 27 776 C27 750 47 730 73 730 L73 730 Z M287 13 L270 13 C234 12 205 41 205 77 L205 583 C205 619 234 648 270 647 L287 647 L287 660 L40 660 L40 647 L57 647 C93 648 122 619 122 583 L122 77 C122 41 93 12 57 13 L40 13 L40 0 L287 0 L287 13 L287 13 Z " />
<glyph glyph-name="Ntilde" unicode="&#xd1;" horiz-adv-x="687" d="M229 755 C229 790 244 818 263 818 C302 818 366 755 405 755 C442 755 471 804 471 865 L459 865 C459 832 442 805 421 805 C382 805 318 867 279 867 C245 867 217 817 217 755 L229 755 L229 755 Z M41 647 L58 647 C94 648 123 619 123 583 L123 77 C123 41 94 12 58 13 L41 13 L41 0 L230 0 L230 13 L213 13 C177 12 148 41 148 77 L148 583 C277 383 406 183 534 -17 L565 -17 L565 583 C565 619 594 648 630 647 L647 647 L647 660 L458 660 L458 647 L475 647 C511 648 540 619 540 583 L540 124 L197 660 L41 660 L41 647 L41 647 Z " />
<glyph glyph-name="Ograve" unicode="&#xd2;" horiz-adv-x="721" d="M146 330 C146 487 231 644 363 644 C495 644 580 487 580 330 C580 173 495 16 363 16 C231 16 146 173 146 330 L146 330 Z M54 330 C54 163 174 -5 363 -5 C551 -5 671 163 671 330 C671 497 551 665 363 665 C174 665 54 497 54 330 L54 330 Z M280 869 C280 864 298 842 320 818 C349 780 435 690 435 690 L444 697 C444 697 387 810 358 847 C341 877 326 901 322 901 C310 901 280 878 280 869 L280 869 Z " />
<glyph glyph-name="Oacute" unicode="&#xd3;" horiz-adv-x="721" d="M339 690 C339 690 422 781 451 818 C473 843 490 865 490 869 C490 878 459 901 447 901 C445 901 430 877 413 847 C384 810 330 697 330 697 L339 690 L339 690 Z M146 330 C146 487 231 644 363 644 C495 644 580 487 580 330 C580 173 495 16 363 16 C231 16 146 173 146 330 L146 330 Z M54 330 C54 163 174 -5 363 -5 C551 -5 671 163 671 330 C671 497 551 665 363 665 C174 665 54 497 54 330 L54 330 Z " />
<glyph glyph-name="Ocircumflex" unicode="&#xd4;" horiz-adv-x="721" d="M146 330 C146 487 231 644 363 644 C495 644 580 487 580 330 C580 173 495 16 363 16 C231 16 146 173 146 330 L146 330 Z M54 330 C54 163 174 -5 363 -5 C551 -5 671 163 671 330 C671 497 551 665 363 665 C174 665 54 497 54 330 L54 330 Z M386 884 C383 890 374 905 363 905 C351 905 342 890 339 884 C339 884 243 690 250 699 L258 692 C296 737 337 792 362 827 C399 777 467 692 467 692 L475 699 C475 699 437 779 386 884 L386 884 Z " />
<glyph glyph-name="Otilde" unicode="&#xd5;" horiz-adv-x="721" d="M248 755 C248 790 263 818 281 818 C320 818 384 755 423 755 C460 755 490 804 490 865 L477 865 C477 832 460 805 439 805 C400 805 337 867 298 867 C263 867 235 817 235 755 L248 755 L248 755 Z M146 330 C146 487 231 644 363 644 C495 644 580 487 580 330 C580 173 495 16 363 16 C231 16 146 173 146 330 L146 330 Z M54 330 C54 163 174 -5 363 -5 C551 -5 671 163 671 330 C671 497 551 665 363 665 C174 665 54 497 54 330 L54 330 Z " />
<glyph glyph-name="Odieresis" unicode="&#xd6;" horiz-adv-x="721" d="M453 730 C479 730 499 750 499 776 C499 802 479 822 453 822 C427 822 407 802 407 776 C407 750 427 730 453 730 L453 730 Z M272 730 C298 730 318 750 318 776 C318 802 298 822 272 822 C246 822 226 802 226 776 C226 750 246 730 272 730 L272 730 Z M146 330 C146 487 231 644 363 644 C495 644 580 487 580 330 C580 173 495 16 363 16 C231 16 146 173 146 330 L146 330 Z M54 330 C54 163 174 -5 363 -5 C551 -5 671 163 671 330 C671 497 551 665 363 665 C174 665 54 497 54 330 L54 330 Z " />
<glyph glyph-name="Oslash" unicode="&#xd8;" horiz-adv-x="721" d="M68 -18 L157 79 C209 28 279 -5 363 -5 C551 -5 671 163 671 330 C671 410 643 491 593 553 L684 652 L656 678 L567 581 C515 632 445 665 362 665 C173 665 53 497 53 330 C53 250 81 170 131 108 L40 9 L68 -18 L68 -18 Z M527 538 L181 162 C159 213 147 272 147 331 C147 488 232 645 364 645 C433 645 489 602 527 538 L527 538 Z M546 502 C568 451 580 391 580 331 C580 174 495 17 363 17 C293 17 236 61 198 125 L546 502 L546 502 Z " />
<glyph glyph-name="Ugrave" unicode="&#xd9;" horiz-adv-x="659" d="M249 869 C249 864 267 842 289 818 C318 780 404 690 404 690 L413 697 C413 697 356 810 327 847 C310 877 295 901 291 901 C279 901 249 878 249 869 L249 869 Z M639 660 L425 660 L425 647 L447 647 C489 648 522 615 522 573 L522 188 C522 97 464 24 348 24 C249 24 199 100 199 194 L199 583 C199 619 228 648 264 647 L281 647 L281 660 L34 660 L34 647 L51 647 C87 648 116 619 116 583 L116 210 C116 91 189 -5 336 -5 C477 -5 547 77 547 180 L547 573 C547 615 580 648 622 647 L639 647 L639 660 L639 660 Z " />
<glyph glyph-name="Uacute" unicode="&#xda;" horiz-adv-x="659" d="M331 690 C331 690 414 781 443 818 C465 843 482 865 482 869 C482 878 451 901 439 901 C437 901 422 877 405 847 C376 810 322 697 322 697 L331 690 L331 690 Z M639 660 L425 660 L425 647 L447 647 C489 648 522 615 522 573 L522 188 C522 97 464 24 348 24 C249 24 199 100 199 194 L199 583 C199 619 228 648 264 647 L281 647 L281 660 L34 660 L34 647 L51 647 C87 648 116 619 116 583 L116 210 C116 91 189 -5 336 -5 C477 -5 547 77 547 180 L547 573 C547 615 580 648 622 647 L639 647 L639 660 L639 660 Z " />
<glyph glyph-name="Ucircumflex" unicode="&#xdb;" horiz-adv-x="659" d="M355 884 C352 890 343 905 332 905 C320 905 311 890 308 884 C308 884 212 690 219 699 L227 692 C265 737 306 792 331 827 C368 777 436 692 436 692 L444 699 C444 699 406 779 355 884 L355 884 Z M639 660 L425 660 L425 647 L447 647 C489 648 522 615 522 573 L522 188 C522 97 464 24 348 24 C249 24 199 100 199 194 L199 583 C199 619 228 648 264 647 L281 647 L281 660 L34 660 L34 647 L51 647 C87 648 116 619 116 583 L116 210 C116 91 189 -5 336 -5 C477 -5 547 77 547 180 L547 573 C547 615 580 648 622 647 L639 647 L639 660 L639 660 Z " />
<glyph glyph-name="Udieresis" unicode="&#xdc;" horiz-adv-x="659" d="M422 730 C448 730 468 750 468 776 C468 802 448 822 422 822 C396 822 376 802 376 776 C376 750 396 730 422 730 L422 730 Z M241 730 C267 730 287 750 287 776 C287 802 267 822 241 822 C215 822 195 802 195 776 C195 750 215 730 241 730 L241 730 Z M639 660 L425 660 L425 647 L447 647 C489 648 522 615 522 573 L522 188 C522 97 464 24 348 24 C249 24 199 100 199 194 L199 583 C199 619 228 648 264 647 L281 647 L281 660 L34 660 L34 647 L51 647 C87 648 116 619 116 583 L116 210 C116 91 189 -5 336 -5 C477 -5 547 77 547 180 L547 573 C547 615 580 648 622 647 L639 647 L639 660 L639 660 Z " />
<glyph glyph-name="Yacute" unicode="&#xdd;" horiz-adv-x="599" d="M301 690 C301 690 385 781 414 818 C436 843 453 865 453 869 C453 878 422 901 410 901 C407 901 392 877 375 847 C346 810 293 697 293 697 L301 690 L301 690 Z M178 0 L426 0 L426 13 L409 13 C373 12 344 41 344 77 L344 310 L497 583 C517 619 560 648 594 647 L604 647 L604 660 L398 660 L398 647 L423 647 C468 648 486 615 467 572 L329 322 L198 592 C186 624 202 648 235 647 L261 647 L261 660 L9 660 L9 647 L18 647 C47 648 85 618 103 582 L261 273 L260 76 C260 40 231 10 195 11 L178 11 L178 0 L178 0 Z " />
<glyph glyph-name="agrave" unicode="&#xe0;" horiz-adv-x="457" d="M435 41 C427 33 410 26 385 26 C357 26 346 54 346 88 L346 357 C346 439 295 505 231 505 C147 505 70 458 59 399 L134 399 C143 446 179 484 215 484 C244 484 267 435 267 373 L267 255 C242 251 211 246 189 241 C104 220 36 158 36 103 C36 43 81 -5 136 -5 C175 -5 227 20 269 56 C275 18 295 -10 335 -10 C385 -10 422 8 444 30 L435 41 L435 41 Z M121 709 C121 704 139 682 161 658 C190 620 276 530 276 530 L285 537 C285 537 228 650 199 687 C182 717 167 741 163 741 C151 741 121 718 121 709 L121 709 Z M268 236 L268 80 C268 78 268 76 268 74 C239 57 204 46 174 46 C139 46 111 81 111 124 C111 165 146 207 190 218 C217 225 245 231 267 236 L268 236 L268 236 Z " />
<glyph glyph-name="aacute" unicode="&#xe1;" horiz-adv-x="457" d="M172 530 C172 530 255 621 284 658 C306 683 323 705 323 709 C323 718 292 741 280 741 C278 741 263 717 246 687 C217 650 163 537 163 537 L172 530 L172 530 Z M435 41 C427 33 410 26 385 26 C357 26 346 54 346 88 L346 357 C346 439 295 505 231 505 C147 505 70 458 59 399 L134 399 C143 446 179 484 215 484 C244 484 267 435 267 373 L267 255 C242 251 211 246 189 241 C104 220 36 158 36 103 C36 43 81 -5 136 -5 C175 -5 227 20 269 56 C275 18 295 -10 335 -10 C385 -10 422 8 444 30 L435 41 L435 41 Z M268 236 L268 80 C268 78 268 76 268 74 C239 57 204 46 174 46 C139 46 111 81 111 124 C111 165 146 207 190 218 C217 225 245 231 267 236 L268 236 L268 236 Z " />
<glyph glyph-name="acircumflex" unicode="&#xe2;" horiz-adv-x="457" d="M435 41 C427 33 410 26 385 26 C357 26 346 54 346 88 L346 357 C346 439 295 505 231 505 C147 505 70 458 59 399 L134 399 C143 446 179 484 215 484 C244 484 267 435 267 373 L267 255 C242 251 211 246 189 241 C104 220 36 158 36 103 C36 43 81 -5 136 -5 C175 -5 227 20 269 56 C275 18 295 -10 335 -10 C385 -10 422 8 444 30 L435 41 L435 41 Z M227 724 C224 730 215 745 204 745 C192 745 183 730 180 724 C180 724 84 530 91 539 L99 532 C137 577 178 632 203 667 C240 617 308 532 308 532 L316 539 C316 539 278 619 227 724 L227 724 Z M268 236 L268 80 C268 78 268 76 268 74 C239 57 204 46 174 46 C139 46 111 81 111 124 C111 165 146 207 190 218 C217 225 245 231 267 236 L268 236 L268 236 Z " />
<glyph glyph-name="atilde" unicode="&#xe3;" horiz-adv-x="457" d="M88 595 C88 630 103 658 121 658 C160 658 224 595 263 595 C300 595 330 644 330 705 L317 705 C317 672 300 645 279 645 C240 645 177 707 138 707 C103 707 75 657 75 595 L88 595 L88 595 Z M435 41 C427 33 410 26 385 26 C357 26 346 54 346 88 L346 357 C346 439 295 505 231 505 C147 505 70 458 59 399 L134 399 C143 446 179 484 215 484 C244 484 267 435 267 373 L267 255 C242 251 211 246 189 241 C104 220 36 158 36 103 C36 43 81 -5 136 -5 C175 -5 227 20 269 56 C275 18 295 -10 335 -10 C385 -10 422 8 444 30 L435 41 L435 41 Z M268 236 L268 80 C268 78 268 76 268 74 C239 57 204 46 174 46 C139 46 111 81 111 124 C111 165 146 207 190 218 C217 225 245 231 267 236 L268 236 L268 236 Z " />
<glyph glyph-name="adieresis" unicode="&#xe4;" horiz-adv-x="457" d="M293 570 C319 570 339 590 339 616 C339 642 319 662 293 662 C267 662 247 642 247 616 C247 590 267 570 293 570 L293 570 Z M112 570 C138 570 158 590 158 616 C158 642 138 662 112 662 C86 662 66 642 66 616 C66 590 86 570 112 570 L112 570 Z M435 41 C427 33 410 26 385 26 C357 26 346 54 346 88 L346 357 C346 439 295 505 231 505 C147 505 70 458 59 399 L134 399 C143 446 179 484 215 484 C244 484 267 435 267 373 L267 255 C242 251 211 246 189 241 C104 220 36 158 36 103 C36 43 81 -5 136 -5 C175 -5 227 20 269 56 C275 18 295 -10 335 -10 C385 -10 422 8 444 30 L435 41 L435 41 Z M268 236 L268 80 C268 78 268 76 268 74 C239 57 204 46 174 46 C139 46 111 81 111 124 C111 165 146 207 190 218 C217 225 245 231 267 236 L268 236 L268 236 Z " />
<glyph glyph-name="aring" unicode="&#xe5;" horiz-adv-x="457" d="M129 628 C129 670 162 703 203 703 C244 703 276 670 276 628 C276 590 239 552 203 552 C166 552 129 590 129 628 L129 628 Z M108 628 C108 582 156 535 203 535 C250 535 297 582 297 628 C297 679 255 720 203 720 C150 720 108 679 108 628 L108 628 Z M435 41 C427 33 410 26 385 26 C357 26 346 54 346 88 L346 357 C346 439 295 505 231 505 C147 505 70 458 59 399 L134 399 C143 446 179 484 215 484 C244 484 267 435 267 373 L267 255 C242 251 211 246 189 241 C104 220 36 158 36 103 C36 43 81 -5 136 -5 C175 -5 227 20 269 56 C275 18 295 -10 335 -10 C385 -10 422 8 444 30 L435 41 L435 41 Z M268 236 L268 80 C268 78 268 76 268 74 C239 57 204 46 174 46 C139 46 111 81 111 124 C111 165 146 207 190 218 C217 225 245 231 267 236 L268 236 L268 236 Z " />
<glyph glyph-name="ccedilla" unicode="&#xe7;" horiz-adv-x="456" d="M200 -82 L195 -94 C197 -90 199 -86 201 -82 L200 -82 L200 -82 Z M203 -78 C223 -28 239 -10 246 -4 C302 0 370 25 407 55 L400 64 C385 51 337 41 292 41 C203 41 131 139 131 262 C131 385 192 484 267 484 C302 484 333 448 337 404 C339 383 356 367 375 367 C393 367 408 382 408 400 C403 458 344 505 275 505 C151 505 52 384 52 233 C52 104 127 0 223 -5 C219 -15 206 -49 191 -92 L197 -94 C211 -86 231 -79 241 -79 C265 -79 285 -103 285 -134 C285 -170 259 -198 226 -198 C199 -198 171 -193 163 -187 L160 -195 C177 -209 213 -220 241 -220 C290 -220 330 -182 330 -134 C330 -95 298 -64 259 -64 C241 -64 216 -70 203 -78 L203 -78 Z " />
<glyph glyph-name="egrave" unicode="&#xe8;" horiz-adv-x="462" d="M411 55 L404 64 C389 51 339 41 293 41 C202 41 129 139 129 262 C129 282 130 301 133 319 L412 319 C412 422 340 505 250 505 C139 505 50 384 50 233 C50 101 131 -5 231 -5 C291 -5 371 22 411 55 L411 55 Z M167 709 C167 704 185 682 207 658 C236 620 323 530 323 530 L331 537 C331 537 275 650 246 687 C229 717 214 741 210 741 C198 741 167 718 167 709 L167 709 Z M342 380 L342 382 C342 381 342 380 342 379 L342 380 L342 380 Z M341 374 C338 357 323 344 304 343 L134 332 C150 420 194 483 246 483 C299 483 347 431 342 382 C342 382 342 379 342 374 L341 374 L341 374 Z " />
<glyph glyph-name="eacute" unicode="&#xe9;" horiz-adv-x="462" d="M219 530 C219 530 303 621 332 658 C354 683 371 705 371 709 C371 718 340 741 328 741 C325 741 310 717 293 687 C264 650 211 537 211 537 L219 530 L219 530 Z M411 55 L404 64 C389 51 339 41 293 41 C202 41 129 139 129 262 C129 282 130 301 133 319 L412 319 C412 422 340 505 250 505 C139 505 50 384 50 233 C50 101 131 -5 231 -5 C291 -5 371 22 411 55 L411 55 Z M342 380 L342 382 C342 381 342 380 342 379 L342 380 L342 380 Z M341 374 C338 357 323 344 304 343 L134 332 C150 420 194 483 246 483 C299 483 347 431 342 382 C342 382 342 379 342 374 L341 374 L341 374 Z " />
<glyph glyph-name="ecircumflex" unicode="&#xea;" horiz-adv-x="462" d="M411 55 L404 64 C389 51 339 41 293 41 C202 41 129 139 129 262 C129 282 130 301 133 319 L412 319 C412 422 340 505 250 505 C139 505 50 384 50 233 C50 101 131 -5 231 -5 C291 -5 371 22 411 55 L411 55 Z M274 724 C271 730 262 745 250 745 C238 745 229 730 226 724 C226 724 129 528 138 539 L146 532 C184 577 225 632 250 667 C287 617 354 533 354 533 L362 540 C362 540 326 619 274 725 L274 724 L274 724 Z M342 381 L342 383 C342 382 342 381 342 380 L342 381 L342 381 Z M341 375 C338 358 323 345 304 344 L134 333 C150 421 194 484 246 484 C299 484 347 432 342 383 C342 383 342 380 342 375 L341 375 L341 375 Z " />
<glyph glyph-name="edieresis" unicode="&#xeb;" horiz-adv-x="462" d="M341 570 C367 570 387 590 387 616 C387 642 367 662 341 662 C315 662 295 642 295 616 C295 590 315 570 341 570 L341 570 Z M159 570 C185 570 205 590 205 616 C205 642 185 662 159 662 C133 662 113 642 113 616 C113 590 133 570 159 570 L159 570 Z M411 55 L404 64 C389 51 339 41 293 41 C202 41 129 139 129 262 C129 282 130 301 133 319 L412 319 C412 422 340 505 250 505 C139 505 50 384 50 233 C50 101 131 -5 231 -5 C291 -5 371 22 411 55 L411 55 Z M342 380 L342 382 C342 381 342 380 342 379 L342 380 L342 380 Z M341 374 C338 357 323 344 304 343 L134 332 C150 420 194 483 246 483 C299 483 347 431 342 382 C342 382 342 379 342 374 L341 374 L341 374 Z " />
<glyph glyph-name="igrave" unicode="&#xec;" horiz-adv-x="328" d="M81 709 C81 704 99 682 121 658 C150 620 237 530 237 530 L245 537 C245 537 189 650 160 687 C143 717 128 741 124 741 C112 741 81 718 81 709 L81 709 Z M284 13 L267 13 C231 12 202 41 202 77 L202 500 L187 500 L45 458 L45 446 L57 446 C111 445 127 430 127 379 L127 77 C127 41 98 12 62 13 L45 13 L45 0 L284 0 L284 13 L284 13 Z " />
<glyph glyph-name="iacute" unicode="&#xed;" horiz-adv-x="328" d="M87 530 C87 530 171 621 200 658 C222 683 239 705 239 709 C239 718 208 741 196 741 C193 741 178 717 161 687 C132 650 79 537 79 537 L87 530 L87 530 Z M284 13 L267 13 C231 12 202 41 202 77 L202 500 L187 500 L45 458 L45 446 L57 446 C111 445 127 430 127 379 L127 77 C127 41 98 12 62 13 L45 13 L45 0 L284 0 L284 13 L284 13 Z " />
<glyph glyph-name="icircumflex" unicode="&#xee;" horiz-adv-x="328" d="M188 724 C185 730 176 745 164 745 C152 745 143 730 140 724 C140 724 43 528 52 539 L60 532 C98 577 139 632 164 667 C201 617 268 533 268 533 L276 540 C276 540 240 619 188 725 L188 724 L188 724 Z M284 14 L267 14 C231 13 202 42 202 78 L202 501 L187 501 L45 459 L45 447 L57 447 C111 446 127 431 127 380 L127 78 C127 42 98 13 62 14 L45 14 L45 1 L284 1 L284 14 L284 14 Z " />
<glyph glyph-name="idieresis" unicode="&#xef;" horiz-adv-x="328" d="M255 570 C281 570 301 590 301 616 C301 642 281 662 255 662 C229 662 209 642 209 616 C209 590 229 570 255 570 L255 570 Z M73 570 C99 570 119 590 119 616 C119 642 99 662 73 662 C47 662 27 642 27 616 C27 590 47 570 73 570 L73 570 Z M284 13 L267 13 C231 12 202 41 202 77 L202 500 L187 500 L45 458 L45 446 L57 446 C111 445 127 430 127 379 L127 77 C127 41 98 12 62 13 L45 13 L45 0 L284 0 L284 13 L284 13 Z " />
<glyph glyph-name="ntilde" unicode="&#xf1;" horiz-adv-x="602" d="M189 595 C189 630 204 658 223 658 C262 658 326 595 365 595 C402 595 431 644 431 705 L419 705 C419 672 402 645 381 645 C342 645 278 707 239 707 C205 707 177 657 177 595 L189 595 L189 595 Z M324 0 L563 0 L563 13 L546 13 C510 12 481 41 481 77 L481 337 C481 430 446 505 375 505 C348 505 272 476 202 440 L202 500 L187 500 L45 458 L45 446 L57 446 C111 445 127 430 127 379 L127 77 C127 41 98 12 62 13 L45 13 L45 0 L284 0 L284 13 L267 13 C231 12 202 41 202 77 L202 432 C232 445 281 455 317 455 C376 455 406 399 406 329 L406 77 C406 41 377 12 341 13 L324 13 L324 0 L324 0 Z " />
<glyph glyph-name="ograve" unicode="&#xf2;" horiz-adv-x="558" d="M133 250 C133 382 198 488 279 488 C360 488 425 382 425 250 C425 118 360 12 279 12 C198 12 133 118 133 250 L133 250 Z M50 250 C50 108 152 -5 279 -5 C406 -5 508 108 508 250 C508 392 406 505 279 505 C152 505 50 392 50 250 L50 250 Z M196 709 C196 704 214 682 236 658 C265 620 352 530 352 530 L360 537 C360 537 304 650 275 687 C258 717 243 741 239 741 C227 741 196 718 196 709 L196 709 Z " />
<glyph glyph-name="oacute" unicode="&#xf3;" horiz-adv-x="558" d="M248 530 C248 530 332 621 361 658 C383 683 400 705 400 709 C400 718 369 741 357 741 C354 741 339 717 322 687 C293 650 240 537 240 537 L248 530 L248 530 Z M133 250 C133 382 198 488 279 488 C360 488 425 382 425 250 C425 118 360 12 279 12 C198 12 133 118 133 250 L133 250 Z M50 250 C50 108 152 -5 279 -5 C406 -5 508 108 508 250 C508 392 406 505 279 505 C152 505 50 392 50 250 L50 250 Z " />
<glyph glyph-name="ocircumflex" unicode="&#xf4;" horiz-adv-x="558" d="M133 250 C133 382 198 488 279 488 C360 488 425 382 425 250 C425 118 360 12 279 12 C198 12 133 118 133 250 L133 250 Z M50 250 C50 108 152 -5 279 -5 C406 -5 508 108 508 250 C508 392 406 505 279 505 C152 505 50 392 50 250 L50 250 Z M303 724 C300 730 291 745 279 745 C267 745 258 730 255 724 C255 724 158 528 167 539 L175 532 C213 577 254 632 279 667 C316 617 383 533 383 533 L391 540 C391 540 355 619 303 725 L303 724 L303 724 Z " />
<glyph glyph-name="otilde" unicode="&#xf5;" horiz-adv-x="558" d="M164 595 C164 630 179 658 198 658 C237 658 301 595 340 595 C377 595 406 644 406 705 L394 705 C394 672 377 645 356 645 C317 645 253 707 214 707 C180 707 152 657 152 595 L164 595 L164 595 Z M133 250 C133 382 198 488 279 488 C360 488 425 382 425 250 C425 118 360 12 279 12 C198 12 133 118 133 250 L133 250 Z M50 250 C50 108 152 -5 279 -5 C406 -5 508 108 508 250 C508 392 406 505 279 505 C152 505 50 392 50 250 L50 250 Z " />
<glyph glyph-name="odieresis" unicode="&#xf6;" horiz-adv-x="558" d="M370 570 C396 570 416 590 416 616 C416 642 396 662 370 662 C344 662 324 642 324 616 C324 590 344 570 370 570 L370 570 Z M188 570 C214 570 234 590 234 616 C234 642 214 662 188 662 C162 662 142 642 142 616 C142 590 162 570 188 570 L188 570 Z M133 250 C133 382 198 488 279 488 C360 488 425 382 425 250 C425 118 360 12 279 12 C198 12 133 118 133 250 L133 250 Z M50 250 C50 108 152 -5 279 -5 C406 -5 508 108 508 250 C508 392 406 505 279 505 C152 505 50 392 50 250 L50 250 Z " />
<glyph glyph-name="oslash" unicode="&#xf8;" horiz-adv-x="558" d="M59 -13 L125 61 C166 20 220 -5 279 -5 C406 -5 508 108 508 250 C508 316 486 376 449 421 L517 497 L499 513 L433 439 C392 480 338 505 279 505 C152 505 50 392 50 250 C50 184 72 124 109 79 L41 3 L59 -13 L59 -13 Z M394 396 L153 128 C140 164 133 206 133 251 C133 383 198 489 279 489 C326 489 368 453 395 397 L394 396 L394 396 Z M405 372 C418 336 425 294 425 249 C425 117 360 11 279 11 C232 11 190 47 163 103 L405 372 L405 372 Z " />
<glyph glyph-name="ugrave" unicode="&#xf9;" horiz-adv-x="567" d="M191 709 C191 704 209 682 231 658 C260 620 347 530 347 530 L355 537 C355 537 299 650 270 687 C253 717 238 741 234 741 C222 741 191 718 191 709 L191 709 Z M15 487 L32 487 C68 488 97 459 97 423 L97 155 C97 66 146 -5 224 -5 C281 -5 338 21 376 55 L376 0 L391 0 L533 42 L533 54 L521 54 C467 55 451 70 451 121 L451 500 L294 500 L294 487 L311 487 C347 488 376 459 376 423 L376 66 C360 54 327 45 283 45 C215 45 171 98 171 164 L172 501 L15 501 L15 487 L15 487 Z " />
<glyph glyph-name="uacute" unicode="&#xfa;" horiz-adv-x="567" d="M243 530 C243 530 327 621 356 658 C378 683 395 705 395 709 C395 718 364 741 352 741 C349 741 334 717 317 687 C288 650 235 537 235 537 L243 530 L243 530 Z M15 487 L32 487 C68 488 97 459 97 423 L97 155 C97 66 146 -5 224 -5 C281 -5 338 21 376 55 L376 0 L391 0 L533 42 L533 54 L521 54 C467 55 451 70 451 121 L451 500 L294 500 L294 487 L311 487 C347 488 376 459 376 423 L376 66 C360 54 327 45 283 45 C215 45 171 98 171 164 L172 501 L15 501 L15 487 L15 487 Z " />
<glyph glyph-name="ucircumflex" unicode="&#xfb;" horiz-adv-x="567" d="M298 724 C295 730 286 745 274 745 C262 745 253 730 250 724 C250 724 153 528 162 539 L170 532 C208 577 249 632 274 667 C311 617 378 533 378 533 L386 540 C386 540 350 619 298 725 L298 724 L298 724 Z M15 488 L32 488 C68 489 97 460 97 424 L97 156 C97 67 146 -4 224 -4 C281 -4 338 22 376 56 L376 1 L391 1 L533 43 L533 55 L521 55 C467 56 451 71 451 122 L451 501 L294 501 L294 488 L311 488 C347 489 376 460 376 424 L376 67 C360 55 327 46 283 46 C215 46 171 99 171 165 L172 502 L15 502 L15 488 L15 488 Z " />
<glyph glyph-name="udieresis" unicode="&#xfc;" horiz-adv-x="567" d="M365 570 C391 570 411 590 411 616 C411 642 391 662 365 662 C339 662 319 642 319 616 C319 590 339 570 365 570 L365 570 Z M183 570 C209 570 229 590 229 616 C229 642 209 662 183 662 C157 662 137 642 137 616 C137 590 157 570 183 570 L183 570 Z M15 487 L32 487 C68 488 97 459 97 423 L97 155 C97 66 146 -5 224 -5 C281 -5 338 21 376 55 L376 0 L391 0 L533 42 L533 54 L521 54 C467 55 451 70 451 121 L451 500 L294 500 L294 487 L311 487 C347 488 376 459 376 423 L376 66 C360 54 327 45 283 45 C215 45 171 98 171 164 L172 501 L15 501 L15 487 L15 487 Z " />
<glyph glyph-name="ydieresis" unicode="&#xff;" horiz-adv-x="474" d="M354 570 C380 570 400 590 400 616 C400 642 380 662 354 662 C328 662 308 642 308 616 C308 590 328 570 354 570 L354 570 Z M172 570 C198 570 218 590 218 616 C218 642 198 662 172 662 C146 662 126 642 126 616 C126 590 146 570 172 570 L172 570 Z M239 500 L-6 500 L-6 487 L10 487 C46 488 86 459 99 423 L254 0 C248 -13 238 -38 229 -65 C201 -142 173 -181 146 -181 C146 -181 96 -156 77 -156 C56 -156 39 -170 39 -188 C39 -211 66 -230 100 -230 C161 -230 211 -177 249 -72 C261 -38 271 -10 271 -10 L429 428 C444 461 482 487 516 486 L532 486 L532 499 L348 499 L348 486 L361 486 C397 487 416 458 404 422 L293 91 L183 422 C172 457 190 487 226 486 L239 486 L239 500 L239 500 Z " />
<glyph glyph-name="Amacron" unicode="&#x100;" horiz-adv-x="634" d="M173 767 L436 767 L436 808 L173 808 L173 767 L173 767 Z M-2 0 L221 0 L221 13 L188 13 C144 12 120 49 133 93 L178 236 L392 236 L447 78 C460 42 441 14 405 14 L362 14 L362 1 L632 1 L632 14 L621 14 C588 14 550 42 537 78 L536 78 L315 676 L294 676 L100 74 C87 40 50 13 15 14 L-2 14 L-2 0 L-2 0 Z M384 257 L184 257 L279 559 L384 257 L384 257 Z " />
<glyph glyph-name="amacron" unicode="&#x101;" horiz-adv-x="457" d="M71 607 L334 607 L334 648 L71 648 L71 607 L71 607 Z M435 41 C427 33 410 26 385 26 C357 26 346 54 346 88 L346 357 C346 439 295 505 231 505 C147 505 70 458 59 399 L134 399 C143 446 179 484 215 484 C244 484 267 435 267 373 L267 255 C242 251 211 246 189 241 C104 220 36 158 36 103 C36 43 81 -5 136 -5 C175 -5 227 20 269 56 C275 18 295 -10 335 -10 C385 -10 422 8 444 30 L435 41 L435 41 Z M268 236 L268 80 C268 78 268 76 268 74 C239 57 204 46 174 46 C139 46 111 81 111 124 C111 165 146 207 190 218 C217 225 245 231 267 236 L268 236 L268 236 Z " />
<glyph glyph-name="Abreve" unicode="&#x102;" horiz-adv-x="634" d="M202 871 C219 807 265 756 305 756 C344 756 390 808 407 872 L394 875 C384 837 344 806 305 806 C265 806 225 837 215 875 L202 871 L202 871 Z M-2 0 L221 0 L221 13 L188 13 C144 12 120 49 133 93 L178 236 L392 236 L447 78 C460 42 441 14 405 14 L362 14 L362 1 L632 1 L632 14 L621 14 C588 14 550 42 537 78 L536 78 L315 676 L294 676 L100 74 C87 40 50 13 15 14 L-2 14 L-2 0 L-2 0 Z M384 257 L184 257 L279 559 L384 257 L384 257 Z " />
<glyph glyph-name="abreve" unicode="&#x103;" horiz-adv-x="457" d="M100 681 C117 617 163 566 203 566 C242 566 288 618 305 682 L292 685 C282 647 242 616 203 616 C163 616 123 647 113 685 L100 681 L100 681 Z M435 41 C427 33 410 26 385 26 C357 26 346 54 346 88 L346 357 C346 439 295 505 231 505 C147 505 70 458 59 399 L134 399 C143 446 179 484 215 484 C244 484 267 435 267 373 L267 255 C242 251 211 246 189 241 C104 220 36 158 36 103 C36 43 81 -5 136 -5 C175 -5 227 20 269 56 C275 18 295 -10 335 -10 C385 -10 422 8 444 30 L435 41 L435 41 Z M268 236 L268 80 C268 78 268 76 268 74 C239 57 204 46 174 46 C139 46 111 81 111 124 C111 165 146 207 190 218 C217 225 245 231 267 236 L268 236 L268 236 Z " />
<glyph glyph-name="Aogonek" unicode="&#x104;" horiz-adv-x="634" d="M-2 0 L221 0 L221 13 L188 13 C144 12 120 49 133 93 L178 236 L392 236 L447 78 C460 42 441 14 405 14 L362 14 L362 1 L443 1 C392 -32 320 -102 320 -154 C320 -198 372 -233 436 -233 C467 -233 503 -219 518 -201 L513 -195 C505 -204 478 -212 452 -212 C404 -212 365 -183 365 -146 C365 -86 444 -10 474 1 L632 1 L632 14 L621 14 C588 14 550 42 537 78 L536 78 L315 676 L294 676 L100 74 C87 40 50 13 15 14 L-2 14 L-2 0 L-2 0 Z M384 257 L184 257 L279 559 L384 257 L384 257 Z " />
<glyph glyph-name="aogonek" unicode="&#x105;" horiz-adv-x="457" d="M435 41 C425 31 407 26 385 26 C357 26 346 54 346 88 L346 357 C346 439 295 505 231 505 C147 505 70 458 59 399 L134 399 C143 446 179 484 215 484 C244 484 267 435 267 373 L267 255 C242 251 211 246 189 241 C104 220 36 158 36 103 C36 43 81 -5 136 -5 C175 -5 227 20 269 56 C275 18 295 -10 335 -10 C347 -10 358 -9 368 -7 C326 -45 284 -97 284 -139 C284 -192 336 -234 400 -234 C431 -234 467 -220 482 -202 L477 -196 C469 -205 442 -213 416 -213 C368 -213 329 -177 329 -131 C329 -82 375 -24 410 6 C424 13 436 21 445 30 L438 40 L437 41 L435 41 L435 41 Z M269 236 L269 80 C269 78 269 76 269 74 C240 57 205 46 175 46 C140 46 112 81 112 124 C112 165 147 207 191 218 C218 225 246 231 268 236 L269 236 L269 236 Z " />
<glyph glyph-name="Cacute" unicode="&#x106;" horiz-adv-x="673" d="M328 690 C328 690 412 781 441 818 C463 843 480 865 480 869 C480 878 449 901 437 901 C434 901 419 877 402 847 C373 810 320 697 320 697 L328 690 L328 690 Z M614 55 L608 65 L608 65 L614 55 L614 55 Z M596 206 C594 195 589 179 587 168 C570 96 497 32 419 19 C403 17 388 16 374 16 C247 16 145 156 145 330 C145 504 247 644 374 644 C397 644 423 641 450 636 C511 622 571 559 586 491 C588 480 593 464 595 453 L612 453 L612 603 C554 636 449 664 374 664 C196 664 53 515 53 329 C53 143 196 -6 374 -6 C449 -6 555 21 613 54 L613 205 L596 206 L596 206 Z " />
<glyph glyph-name="cacute" unicode="&#x107;" horiz-adv-x="456" d="M196 530 C196 530 280 621 309 658 C331 683 348 705 348 709 C348 718 317 741 305 741 C302 741 287 717 270 687 C241 650 188 537 188 537 L196 530 L196 530 Z M405 55 L398 64 C383 51 335 41 290 41 C201 41 129 139 129 262 C129 385 190 484 265 484 C300 484 331 448 335 404 C337 383 354 367 373 367 C391 367 406 382 406 400 C401 458 342 505 273 505 C149 505 50 384 50 233 C50 101 129 -5 228 -5 C287 -5 365 22 405 55 L405 55 Z " />
<glyph glyph-name="Ccircumflex" unicode="&#x108;" horiz-adv-x="673" d="M399 884 C396 890 387 905 375 905 C363 905 354 890 351 884 C351 884 254 688 263 699 L271 692 C309 737 350 792 375 827 C412 777 479 693 479 693 L487 700 C487 700 451 779 399 885 L399 884 L399 884 Z M614 56 L608 66 L608 66 L614 56 L614 56 Z M596 207 C594 196 589 180 587 169 C570 97 497 33 419 20 C403 18 388 17 374 17 C247 17 145 157 145 331 C145 505 247 645 374 645 C397 645 423 642 450 637 C511 623 571 560 586 492 C588 481 593 465 595 454 L612 454 L612 604 C554 637 449 665 374 665 C196 665 53 516 53 330 C53 144 196 -5 374 -5 C449 -5 555 22 613 55 L613 206 L596 207 L596 207 Z " />
<glyph glyph-name="Cdot" unicode="&#x10a;" horiz-adv-x="673" d="M375 730 C401 730 421 750 421 776 C421 802 401 822 375 822 C349 822 329 802 329 776 C329 750 349 730 375 730 L375 730 Z M614 55 L608 65 L608 65 L614 55 L614 55 Z M596 206 C594 195 589 179 587 168 C570 96 497 32 419 19 C403 17 388 16 374 16 C247 16 145 156 145 330 C145 504 247 644 374 644 C397 644 423 641 450 636 C511 622 571 559 586 491 C588 480 593 464 595 453 L612 453 L612 603 C554 636 449 664 374 664 C196 664 53 515 53 329 C53 143 196 -6 374 -6 C449 -6 555 21 613 54 L613 205 L596 206 L596 206 Z " />
<glyph glyph-name="cdot" unicode="&#x10b;" horiz-adv-x="456" d="M273 570 C299 570 319 590 319 616 C319 642 299 662 273 662 C247 662 227 642 227 616 C227 590 247 570 273 570 L273 570 Z M405 55 L398 64 C383 51 335 41 290 41 C201 41 129 139 129 262 C129 385 190 484 265 484 C300 484 331 448 335 404 C337 383 354 367 373 367 C391 367 406 382 406 400 C401 458 342 505 273 505 C149 505 50 384 50 233 C50 101 129 -5 228 -5 C287 -5 365 22 405 55 L405 55 Z " />
<glyph glyph-name="Ccaron" unicode="&#x10c;" horiz-adv-x="673" d="M479 928 C479 928 412 844 375 794 C350 829 309 884 271 929 L263 922 C254 933 351 737 351 737 C354 731 363 716 375 716 C387 716 396 731 399 737 C451 843 487 922 487 922 L479 928 L479 928 Z M614 56 L608 66 L608 66 L614 56 L614 56 Z M596 207 C594 196 589 180 587 169 C570 97 497 33 419 20 C403 18 388 17 374 17 C247 17 145 157 145 331 C145 505 247 645 374 645 C397 645 423 642 450 637 C511 623 571 560 586 492 C588 481 593 465 595 454 L612 454 L612 604 C554 637 449 665 374 665 C196 665 53 516 53 330 C53 144 196 -5 374 -5 C449 -5 555 22 613 55 L613 206 L596 207 L596 207 Z " />
<glyph glyph-name="ccaron" unicode="&#x10d;" horiz-adv-x="456" d="M377 768 C377 768 310 684 273 634 C248 669 207 724 169 769 L161 762 C152 773 249 577 249 577 C252 571 261 556 273 556 C285 556 294 571 297 577 C349 683 385 762 385 762 L377 768 L377 768 Z M405 56 L398 65 C383 52 335 42 290 42 C201 42 129 140 129 263 C129 386 190 485 265 485 C300 485 331 449 335 405 C337 384 354 368 373 368 C391 368 406 383 406 401 C401 459 342 506 273 506 C149 506 50 385 50 234 C50 102 129 -4 228 -4 C287 -4 365 23 405 56 L405 56 Z " />
<glyph glyph-name="Dcaron" unicode="&#x10e;" horiz-adv-x="682" d="M442 928 C442 928 374 843 337 793 C312 828 271 883 233 928 L225 921 C218 930 314 736 314 736 C317 730 326 715 338 715 C349 715 358 730 361 736 C412 841 450 921 450 921 L442 928 L442 928 Z M44 647 L61 647 C97 648 126 619 126 583 L126 77 C126 41 97 12 61 13 L44 13 L44 0 L332 0 C499 0 632 147 632 330 C632 513 485 660 301 660 L44 660 L44 647 L44 647 Z M209 21 L209 639 L301 639 C439 639 549 501 549 330 C549 159 452 21 332 21 L209 21 L209 21 Z " />
<glyph glyph-name="dcaron" unicode="&#x10f;" horiz-adv-x="564" d="M561 753 C546 753 532 687 526 645 L502 482 L511 479 L573 628 C592 673 608 729 608 736 C608 747 574 753 561 753 L561 753 Z M297 666 L309 666 C363 665 379 650 379 599 L379 450 C349 481 304 505 261 505 C147 505 55 380 55 223 C55 96 134 -5 232 -5 C280 -5 342 18 378 48 L378 0 L393 0 L535 42 L535 54 L523 54 C469 55 453 70 453 121 L453 720 L438 720 L296 678 L297 666 L297 666 Z M378 60 C361 49 316 41 271 41 C193 41 131 134 131 251 C131 380 186 484 255 484 C303 484 353 452 377 416 L378 60 L378 60 Z " />
<glyph glyph-name="Emacron" unicode="&#x112;" horiz-adv-x="593" d="M161 767 L423 767 L423 808 L161 808 L161 767 L161 767 Z M407 250 L407 444 L394 444 L392 432 C385 393 341 362 294 362 L205 362 L205 639 L328 639 C384 639 437 595 449 539 L458 497 L472 497 L472 660 L40 660 L40 647 L57 647 C93 648 122 619 122 583 L122 77 C122 41 93 12 57 13 L40 13 L40 0 L475 0 L477 10 L477 10 C484 52 497 121 504 163 L490 163 L474 121 C452 66 391 21 335 21 L205 21 L205 342 L294 342 C342 342 385 307 392 264 L394 250 L407 250 L407 250 Z " />
<glyph glyph-name="emacron" unicode="&#x113;" horiz-adv-x="462" d="M119 607 L381 607 L381 648 L119 648 L119 607 L119 607 Z M411 55 L404 64 C389 51 339 41 293 41 C202 41 129 139 129 262 C129 282 130 301 133 319 L412 319 C412 422 340 505 250 505 C139 505 50 384 50 233 C50 101 131 -5 231 -5 C291 -5 371 22 411 55 L411 55 Z M342 380 L342 382 C342 381 342 380 342 379 L342 380 L342 380 Z M341 374 C338 357 323 344 304 343 L134 332 C150 420 194 483 246 483 C299 483 347 431 342 382 C342 382 342 379 342 374 L341 374 L341 374 Z " />
<glyph glyph-name="Ebreve" unicode="&#x114;" horiz-adv-x="593" d="M189 871 C206 807 252 756 292 756 C332 756 378 808 395 872 L382 875 C372 837 332 806 292 806 C252 806 212 837 202 875 L189 871 L189 871 Z M407 250 L407 444 L394 444 L392 432 C385 393 341 362 294 362 L205 362 L205 639 L328 639 C384 639 437 595 449 539 L458 497 L472 497 L472 660 L40 660 L40 647 L57 647 C93 648 122 619 122 583 L122 77 C122 41 93 12 57 13 L40 13 L40 0 L475 0 L477 10 L477 10 C484 52 497 121 504 163 L490 163 L474 121 C452 66 391 21 335 21 L205 21 L205 342 L294 342 C342 342 385 307 392 264 L394 250 L407 250 L407 250 Z " />
<glyph glyph-name="ebreve" unicode="&#x115;" horiz-adv-x="462" d="M147 711 C164 647 210 596 250 596 C290 596 336 648 353 712 L340 715 C330 677 290 646 250 646 C210 646 170 677 160 715 L147 711 L147 711 Z M411 55 L404 64 C389 51 339 41 293 41 C202 41 129 139 129 262 C129 282 130 301 133 319 L412 319 C412 422 340 505 250 505 C139 505 50 384 50 233 C50 101 131 -5 231 -5 C291 -5 371 22 411 55 L411 55 Z M342 380 L342 382 C342 381 342 380 342 379 L342 380 L342 380 Z M341 374 C338 357 323 344 304 343 L134 332 C150 420 194 483 246 483 C299 483 347 431 342 382 C342 382 342 379 342 374 L341 374 L341 374 Z " />
<glyph glyph-name="Edot" unicode="&#x116;" horiz-adv-x="593" d="M292 730 C318 730 338 750 338 776 C338 802 318 822 292 822 C266 822 246 802 246 776 C246 750 266 730 292 730 L292 730 Z M407 250 L407 444 L394 444 L392 432 C385 393 341 362 294 362 L205 362 L205 639 L328 639 C384 639 437 595 449 539 L458 497 L472 497 L472 660 L40 660 L40 647 L57 647 C93 648 122 619 122 583 L122 77 C122 41 93 12 57 13 L40 13 L40 0 L475 0 L477 10 L477 10 C484 52 497 121 504 163 L490 163 L474 121 C452 66 391 21 335 21 L205 21 L205 342 L294 342 C342 342 385 307 392 264 L394 250 L407 250 L407 250 Z " />
<glyph glyph-name="edot" unicode="&#x117;" horiz-adv-x="462" d="M250 570 C276 570 296 590 296 616 C296 642 276 662 250 662 C224 662 204 642 204 616 C204 590 224 570 250 570 L250 570 Z M411 55 L404 64 C389 51 339 41 293 41 C202 41 129 139 129 262 C129 282 130 301 133 319 L412 319 C412 422 340 505 250 505 C139 505 50 384 50 233 C50 101 131 -5 231 -5 C291 -5 371 22 411 55 L411 55 Z M342 380 L342 382 C342 381 342 380 342 379 L342 380 L342 380 Z M341 374 C338 357 323 344 304 343 L134 332 C150 420 194 483 246 483 C299 483 347 431 342 382 C342 382 342 379 342 374 L341 374 L341 374 Z " />
<glyph glyph-name="Eogonek" unicode="&#x118;" horiz-adv-x="593" d="M407 250 L407 444 L394 444 L392 432 C385 393 341 362 294 362 L205 362 L205 639 L328 639 C384 639 437 595 449 539 L458 497 L472 497 L472 660 L40 660 L40 647 L57 647 C93 648 122 619 122 583 L122 77 C122 41 93 12 57 13 L40 13 L40 0 L441 0 C390 -33 318 -103 318 -155 C318 -199 370 -234 434 -234 C465 -234 501 -220 516 -202 L511 -196 C503 -205 476 -213 450 -213 C402 -213 363 -184 363 -147 C363 -87 442 -11 472 0 L475 0 L477 10 L477 10 C484 52 497 121 504 163 L490 163 L474 121 C452 66 391 21 335 21 L205 21 L205 342 L294 342 C342 342 385 307 392 264 L394 250 L407 250 L407 250 Z " />
<glyph glyph-name="eogonek" unicode="&#x119;" horiz-adv-x="462" d="M342 380 L342 382 C342 381 342 380 342 379 L342 380 L342 380 Z M341 374 C338 357 323 344 304 343 L134 332 C150 420 194 483 246 483 C299 483 347 431 342 382 C342 382 342 379 342 374 L341 374 L341 374 Z M133 318 L412 318 C412 421 340 504 250 504 C139 504 50 383 50 232 C50 100 131 -6 231 -6 C244 -6 258 -5 272 -3 C223 -39 164 -102 164 -150 C164 -197 216 -235 280 -235 C311 -235 347 -221 362 -203 L357 -197 C349 -206 322 -214 296 -214 C248 -214 209 -182 209 -142 C209 -81 288 -3 318 8 C355 19 390 36 412 54 L405 63 C390 50 340 40 294 40 C203 40 130 138 130 261 C130 281 131 300 134 318 L133 318 L133 318 Z " />
<glyph glyph-name="Ecaron" unicode="&#x11a;" horiz-adv-x="593" d="M396 928 C396 928 329 844 292 794 C267 829 226 884 188 929 L180 922 C171 933 268 737 268 737 C271 731 280 716 292 716 C304 716 313 731 316 737 C368 843 404 922 404 922 L396 928 L396 928 Z M407 251 L407 445 L394 445 L392 433 C385 394 341 363 294 363 L205 363 L205 640 L328 640 C384 640 437 596 449 540 L458 498 L472 498 L472 661 L40 661 L40 648 L57 648 C93 649 122 620 122 584 L122 78 C122 42 93 13 57 14 L40 14 L40 1 L475 1 L477 11 L477 11 C484 53 497 122 504 164 L490 164 L474 122 C452 67 391 22 335 22 L205 22 L205 343 L294 343 C342 343 385 308 392 265 L394 251 L407 251 L407 251 Z " />
<glyph glyph-name="ecaron" unicode="&#x11b;" horiz-adv-x="462" d="M354 768 C354 768 287 684 250 634 C225 669 184 724 146 769 L138 762 C129 773 226 577 226 577 C229 571 238 556 250 556 C262 556 271 571 274 577 C326 683 362 762 362 762 L354 768 L354 768 Z M411 56 L404 65 C389 52 339 42 293 42 C202 42 129 140 129 263 C129 283 130 302 133 320 L412 320 C412 423 340 506 250 506 C139 506 50 385 50 234 C50 102 131 -4 231 -4 C291 -4 371 23 411 56 L411 56 Z M342 381 L342 383 C342 382 342 381 342 380 L342 381 L342 381 Z M341 375 C338 358 323 345 304 344 L134 333 C150 421 194 484 246 484 C299 484 347 432 342 383 C342 383 342 380 342 375 L341 375 L341 375 Z " />
<glyph glyph-name="Gcircumflex" unicode="&#x11c;" horiz-adv-x="777" d="M389 884 C386 890 377 905 365 905 C353 905 344 890 341 884 C341 884 244 688 253 699 L261 692 C299 737 340 792 365 827 C402 777 469 693 469 693 L477 700 C477 700 441 779 389 885 L389 884 L389 884 Z M594 455 L594 596 C594 599 594 602 594 606 C536 639 434 666 365 666 C192 666 54 517 54 331 C54 145 192 -4 365 -4 C437 -4 541 23 600 57 L600 234 C600 270 629 299 665 298 L682 298 L682 311 L443 311 L443 298 L460 298 C496 299 525 270 525 234 L525 47 C473 29 412 17 365 17 C243 17 146 157 146 331 C146 505 243 645 365 645 C385 645 408 642 432 638 C493 623 552 560 567 493 C569 482 574 466 576 455 L594 455 L594 455 Z " />
<glyph glyph-name="Gbreve" unicode="&#x11e;" horiz-adv-x="777" d="M262 871 C279 807 325 756 365 756 C405 756 451 808 468 872 L455 875 C445 837 405 806 365 806 C325 806 285 837 275 875 L262 871 L262 871 Z M594 454 L594 595 C594 598 594 601 594 605 C536 638 434 665 365 665 C192 665 54 516 54 330 C54 144 192 -5 365 -5 C437 -5 541 22 600 56 L600 233 C600 269 629 298 665 297 L682 297 L682 310 L443 310 L443 297 L460 297 C496 298 525 269 525 233 L525 46 C473 28 412 16 365 16 C243 16 146 156 146 330 C146 504 243 644 365 644 C385 644 408 641 432 637 C493 622 552 559 567 492 C569 481 574 465 576 454 L594 454 L594 454 Z " />
<glyph glyph-name="gbreve" unicode="&#x11f;" horiz-adv-x="434" d="M118 711 C135 647 181 596 221 596 C261 596 307 648 324 712 L311 715 C301 677 261 646 221 646 C181 646 141 677 131 715 L118 711 L118 711 Z M73 -110 C73 -64 110 -14 159 6 C166 5 173 5 181 5 L226 8 C300 8 360 -31 360 -79 C360 -157 275 -219 169 -219 C116 -219 73 -171 73 -111 L22 -120 C22 -187 84 -240 161 -240 C301 -240 414 -151 414 -41 C414 26 339 79 246 79 C239 79 177 76 177 76 C133 76 98 101 98 132 C98 165 133 192 176 192 L221 192 C308 192 378 262 378 349 C378 391 362 428 336 456 L434 458 L434 500 C390 494 345 490 302 484 C279 498 252 506 223 506 C135 506 65 437 65 350 C65 284 105 228 163 205 C98 199 49 156 49 104 C49 60 89 23 144 11 C77 -18 25 -73 25 -117 L73 -110 L73 -110 Z M224 211 C176 211 137 273 137 351 C137 428 176 490 224 490 C272 490 310 428 310 351 C310 273 272 211 224 211 L224 211 Z " />
<glyph glyph-name="Gdot" unicode="&#x120;" horiz-adv-x="777" d="M365 730 C391 730 411 750 411 776 C411 802 391 822 365 822 C339 822 319 802 319 776 C319 750 339 730 365 730 L365 730 Z M594 454 L594 595 C594 598 594 601 594 605 C536 638 434 665 365 665 C192 665 54 516 54 330 C54 144 192 -5 365 -5 C437 -5 541 22 600 56 L600 233 C600 269 629 298 665 297 L682 297 L682 310 L443 310 L443 297 L460 297 C496 298 525 269 525 233 L525 46 C473 28 412 16 365 16 C243 16 146 156 146 330 C146 504 243 644 365 644 C385 644 408 641 432 637 C493 622 552 559 567 492 C569 481 574 465 576 454 L594 454 L594 454 Z " />
<glyph glyph-name="gdot" unicode="&#x121;" horiz-adv-x="434" d="M221 570 C247 570 267 590 267 616 C267 642 247 662 221 662 C195 662 175 642 175 616 C175 590 195 570 221 570 L221 570 Z M73 -110 C73 -64 110 -14 159 6 C166 5 173 5 181 5 L226 8 C300 8 360 -31 360 -79 C360 -157 275 -219 169 -219 C116 -219 73 -171 73 -111 L22 -120 C22 -187 84 -240 161 -240 C301 -240 414 -151 414 -41 C414 26 339 79 246 79 C239 79 177 76 177 76 C133 76 98 101 98 132 C98 165 133 192 176 192 L221 192 C308 192 378 262 378 349 C378 391 362 428 336 456 L434 458 L434 500 C390 494 345 490 302 484 C279 498 252 506 223 506 C135 506 65 437 65 350 C65 284 105 228 163 205 C98 199 49 156 49 104 C49 60 89 23 144 11 C77 -18 25 -73 25 -117 L73 -110 L73 -110 Z M224 211 C176 211 137 273 137 351 C137 428 176 490 224 490 C272 490 310 428 310 351 C310 273 272 211 224 211 L224 211 Z " />
<glyph glyph-name="Hcircumflex" unicode="&#x124;" horiz-adv-x="751" d="M400 884 C397 890 388 905 376 905 C364 905 355 890 352 884 C352 884 255 688 264 699 L272 692 C310 737 351 792 376 827 C413 777 480 693 480 693 L488 700 C488 700 452 779 400 885 L400 884 L400 884 Z M712 14 L695 14 C659 13 630 42 630 78 L630 584 C630 620 659 649 695 648 L712 648 L712 661 L465 661 L465 648 L482 648 C518 649 547 620 547 584 L547 358 L205 358 L205 584 C205 620 234 649 270 648 L287 648 L287 661 L40 661 L40 648 L57 648 C93 649 122 620 122 584 L122 78 C122 42 93 13 57 14 L40 14 L40 1 L287 1 L287 14 L270 14 C234 13 205 42 205 78 L205 338 L547 338 L547 78 C547 42 518 13 482 14 L465 14 L465 1 L712 1 L712 14 L712 14 Z " />
<glyph glyph-name="Itilde" unicode="&#x128;" horiz-adv-x="326" d="M49 755 C49 790 64 818 83 818 C122 818 186 755 225 755 C262 755 291 804 291 865 L279 865 C279 832 262 805 241 805 C202 805 138 867 99 867 C65 867 37 817 37 755 L49 755 L49 755 Z M287 13 L270 13 C234 12 205 41 205 77 L205 583 C205 619 234 648 270 647 L287 647 L287 660 L40 660 L40 647 L57 647 C93 648 122 619 122 583 L122 77 C122 41 93 12 57 13 L40 13 L40 0 L287 0 L287 13 L287 13 Z " />
<glyph glyph-name="itilde" unicode="&#x129;" horiz-adv-x="328" d="M49 595 C49 630 64 658 83 658 C122 658 186 595 225 595 C262 595 291 644 291 705 L279 705 C279 672 262 645 241 645 C202 645 138 707 99 707 C65 707 37 657 37 595 L49 595 L49 595 Z M284 13 L267 13 C231 12 202 41 202 77 L202 500 L187 500 L45 458 L45 446 L57 446 C111 445 127 430 127 379 L127 77 C127 41 98 12 62 13 L45 13 L45 0 L284 0 L284 13 L284 13 Z " />
<glyph glyph-name="Imacron" unicode="&#x12a;" horiz-adv-x="326" d="M33 767 L295 767 L295 808 L33 808 L33 767 L33 767 Z M287 13 L270 13 C234 12 205 41 205 77 L205 583 C205 619 234 648 270 647 L287 647 L287 660 L40 660 L40 647 L57 647 C93 648 122 619 122 583 L122 77 C122 41 93 12 57 13 L40 13 L40 0 L287 0 L287 13 L287 13 Z " />
<glyph glyph-name="imacron" unicode="&#x12b;" horiz-adv-x="328" d="M33 607 L295 607 L295 648 L33 648 L33 607 L33 607 Z M284 13 L267 13 C231 12 202 41 202 77 L202 500 L187 500 L45 458 L45 446 L57 446 C111 445 127 430 127 379 L127 77 C127 41 98 12 62 13 L45 13 L45 0 L284 0 L284 13 L284 13 Z " />
<glyph glyph-name="Ibreve" unicode="&#x12c;" horiz-adv-x="326" d="M61 871 C78 807 124 756 164 756 C204 756 250 808 267 872 L254 875 C244 837 204 806 164 806 C124 806 84 837 74 875 L61 871 L61 871 Z M287 13 L270 13 C234 12 205 41 205 77 L205 583 C205 619 234 648 270 647 L287 647 L287 660 L40 660 L40 647 L57 647 C93 648 122 619 122 583 L122 77 C122 41 93 12 57 13 L40 13 L40 0 L287 0 L287 13 L287 13 Z " />
<glyph glyph-name="ibreve" unicode="&#x12d;" horiz-adv-x="328" d="M61 711 C78 647 124 596 164 596 C204 596 250 648 267 712 L254 715 C244 677 204 646 164 646 C124 646 84 677 74 715 L61 711 L61 711 Z M284 13 L267 13 C231 12 202 41 202 77 L202 500 L187 500 L45 458 L45 446 L57 446 C111 445 127 430 127 379 L127 77 C127 41 98 12 62 13 L45 13 L45 0 L284 0 L284 13 L284 13 Z " />
<glyph glyph-name="Idot" unicode="&#x130;" horiz-adv-x="326" d="M164 730 C190 730 210 750 210 776 C210 802 190 822 164 822 C138 822 118 802 118 776 C118 750 138 730 164 730 L164 730 Z M287 13 L270 13 C234 12 205 41 205 77 L205 583 C205 619 234 648 270 647 L287 647 L287 660 L40 660 L40 647 L57 647 C93 648 122 619 122 583 L122 77 C122 41 93 12 57 13 L40 13 L40 0 L287 0 L287 13 L287 13 Z " />
<glyph glyph-name="dotlessi" unicode="&#x131;" horiz-adv-x="328" d="M284 13 L267 13 C231 12 202 41 202 77 L202 500 L187 500 L45 458 L45 446 L57 446 C111 445 127 430 127 379 L127 77 C127 41 98 12 62 13 L45 13 L45 0 L284 0 L284 13 L284 13 Z " />
<glyph glyph-name="Jcircumflex" unicode="&#x134;" horiz-adv-x="361" d="M222 884 C219 890 210 905 198 905 C186 905 177 890 174 884 C174 884 77 688 86 699 L94 692 C132 737 173 792 198 827 C235 777 302 693 302 693 L310 700 C310 700 274 779 222 885 L222 884 L222 884 Z M322 661 L74 661 L74 648 L91 648 C127 649 156 620 156 584 L156 201 C156 72 142 8 113 8 C96 8 77 27 71 51 C66 69 50 84 33 84 C10 84 -5 69 0 51 C8 18 49 -9 92 -9 C191 -9 240 85 240 271 L240 584 C240 620 269 649 305 648 L322 648 L322 661 L322 661 Z " />
<glyph glyph-name="Lacute" unicode="&#x139;" horiz-adv-x="593" d="M140 690 C140 690 223 781 252 818 C274 843 291 865 291 869 C291 878 260 901 248 901 C246 901 231 877 214 847 C185 810 131 697 131 697 L140 690 L140 690 Z M486 178 L464 111 C448 61 395 21 345 21 L205 21 L205 583 C205 619 234 648 270 647 L287 647 L287 660 L40 660 L40 647 L57 647 C93 648 122 619 122 583 L122 77 C122 41 93 12 57 13 L40 13 L40 0 L475 0 L477 10 L477 10 C485 54 498 126 505 170 C499 173 486 178 486 178 L486 178 Z " />
<glyph glyph-name="Lcaron" unicode="&#x13d;" horiz-adv-x="593" d="M394 693 C379 693 365 627 359 585 L335 422 L344 419 L406 568 C425 613 441 669 441 676 C441 687 407 693 394 693 L394 693 Z M486 178 L464 111 C448 61 395 21 345 21 L205 21 L205 583 C205 619 234 648 270 647 L287 647 L287 660 L40 660 L40 647 L57 647 C93 648 122 619 122 583 L122 77 C122 41 93 12 57 13 L40 13 L40 0 L475 0 L477 10 L477 10 C485 54 498 126 505 170 C499 173 486 178 486 178 L486 178 Z " />
<glyph glyph-name="lcaron" unicode="&#x13e;" horiz-adv-x="328" d="M309 723 C294 723 280 657 274 615 L250 452 L259 449 L321 598 C340 643 356 699 356 706 C356 717 322 723 309 723 L309 723 Z M284 13 L267 13 C231 12 202 41 202 77 L202 720 L187 720 L45 678 L45 666 L57 666 C111 665 127 650 127 599 L127 77 C127 41 98 12 62 13 L45 13 L45 0 L284 0 L284 13 L284 13 Z " />
<glyph glyph-name="Lslash" unicode="&#x141;" horiz-adv-x="593" d="M40 0 L475 0 L477 10 L477 10 C485 54 498 126 505 170 C499 173 486 178 486 178 L464 111 C448 61 395 21 345 21 L205 21 L205 318 L339 368 L339 393 L205 343 L205 583 C205 619 234 648 270 647 L287 647 L287 660 L40 660 L40 647 L57 647 C93 648 122 619 122 583 L122 312 L72 293 L72 268 L122 287 L122 77 C122 41 93 12 57 13 L40 13 L40 0 L40 0 Z " />
<glyph glyph-name="lslash" unicode="&#x142;" horiz-adv-x="328" d="M45 0 L284 0 L284 13 L267 13 C231 12 202 41 202 77 L202 362 L302 398 L302 423 L202 387 L202 720 L187 720 L45 678 L45 666 L57 666 C111 665 127 650 127 599 L127 359 L27 323 L27 298 L127 334 L127 77 C127 41 98 12 62 13 L45 13 L45 0 L45 0 Z " />
<glyph glyph-name="Nacute" unicode="&#x143;" horiz-adv-x="687" d="M313 690 C313 690 397 781 426 818 C448 843 465 865 465 869 C465 878 434 901 422 901 C419 901 404 877 387 847 C358 810 305 697 305 697 L313 690 L313 690 Z M41 647 L58 647 C94 648 123 619 123 583 L123 77 C123 41 94 12 58 13 L41 13 L41 0 L230 0 L230 13 L213 13 C177 12 148 41 148 77 L148 583 C277 383 406 183 534 -17 L565 -17 L565 583 C565 619 594 648 630 647 L647 647 L647 660 L458 660 L458 647 L475 647 C511 648 540 619 540 583 L540 124 L197 660 L41 660 L41 647 L41 647 Z " />
<glyph glyph-name="nacute" unicode="&#x144;" horiz-adv-x="602" d="M227 530 C227 530 311 621 340 658 C362 683 379 705 379 709 C379 718 348 741 336 741 C333 741 318 717 301 687 C272 650 219 537 219 537 L227 530 L227 530 Z M324 0 L563 0 L563 13 L546 13 C510 12 481 41 481 77 L481 337 C481 430 446 505 375 505 C348 505 272 476 202 440 L202 500 L187 500 L45 458 L45 446 L57 446 C111 445 127 430 127 379 L127 77 C127 41 98 12 62 13 L45 13 L45 0 L284 0 L284 13 L267 13 C231 12 202 41 202 77 L202 432 C232 445 281 455 317 455 C376 455 406 399 406 329 L406 77 C406 41 377 12 341 13 L324 13 L324 0 L324 0 Z " />
<glyph glyph-name="Ncaron" unicode="&#x147;" horiz-adv-x="687" d="M448 928 C448 928 381 844 344 794 C319 829 278 884 240 929 L232 922 C223 933 320 737 320 737 C323 731 332 716 344 716 C356 716 365 731 368 737 C420 843 456 922 456 922 L448 928 L448 928 Z M41 648 L58 648 C94 649 123 620 123 584 L123 78 C123 42 94 13 58 14 L41 14 L41 1 L230 1 L230 14 L213 14 C177 13 148 42 148 78 L148 584 C277 384 406 184 534 -16 L565 -16 L565 584 C565 620 594 649 630 648 L647 648 L647 661 L458 661 L458 648 L475 648 C511 649 540 620 540 584 L540 125 L197 661 L41 661 L41 648 L41 648 Z " />
<glyph glyph-name="ncaron" unicode="&#x148;" horiz-adv-x="602" d="M408 768 C408 768 341 684 304 634 C279 669 238 724 200 769 L192 762 C183 773 280 577 280 577 C283 571 292 556 304 556 C316 556 325 571 328 577 C380 683 416 762 416 762 L408 768 L408 768 Z M324 1 L563 1 L563 14 L546 14 C510 13 481 42 481 78 L481 338 C481 431 446 506 375 506 C348 506 272 477 202 441 L202 501 L187 501 L45 459 L45 447 L57 447 C111 446 127 431 127 380 L127 78 C127 42 98 13 62 14 L45 14 L45 1 L284 1 L284 14 L267 14 C231 13 202 42 202 78 L202 433 C232 446 281 456 317 456 C376 456 406 400 406 330 L406 78 C406 42 377 13 341 14 L324 14 L324 1 L324 1 Z " />
<glyph glyph-name="Omacron" unicode="&#x14c;" horiz-adv-x="721" d="M231 767 L494 767 L494 808 L231 808 L231 767 L231 767 Z M146 330 C146 487 231 644 363 644 C495 644 580 487 580 330 C580 173 495 16 363 16 C231 16 146 173 146 330 L146 330 Z M54 330 C54 163 174 -5 363 -5 C551 -5 671 163 671 330 C671 497 551 665 363 665 C174 665 54 497 54 330 L54 330 Z " />
<glyph glyph-name="omacron" unicode="&#x14d;" horiz-adv-x="558" d="M148 607 L410 607 L410 648 L148 648 L148 607 L148 607 Z M133 250 C133 382 198 488 279 488 C360 488 425 382 425 250 C425 118 360 12 279 12 C198 12 133 118 133 250 L133 250 Z M50 250 C50 108 152 -5 279 -5 C406 -5 508 108 508 250 C508 392 406 505 279 505 C152 505 50 392 50 250 L50 250 Z " />
<glyph glyph-name="Obreve" unicode="&#x14e;" horiz-adv-x="721" d="M260 871 C277 807 323 756 363 756 C402 756 448 808 465 872 L452 875 C442 837 402 806 363 806 C323 806 283 837 273 875 L260 871 L260 871 Z M146 330 C146 487 231 644 363 644 C495 644 580 487 580 330 C580 173 495 16 363 16 C231 16 146 173 146 330 L146 330 Z M54 330 C54 163 174 -5 363 -5 C551 -5 671 163 671 330 C671 497 551 665 363 665 C174 665 54 497 54 330 L54 330 Z " />
<glyph glyph-name="obreve" unicode="&#x14f;" horiz-adv-x="558" d="M176 711 C193 647 239 596 279 596 C319 596 365 648 382 712 L369 715 C359 677 319 646 279 646 C239 646 199 677 189 715 L176 711 L176 711 Z M133 250 C133 382 198 488 279 488 C360 488 425 382 425 250 C425 118 360 12 279 12 C198 12 133 118 133 250 L133 250 Z M50 250 C50 108 152 -5 279 -5 C406 -5 508 108 508 250 C508 392 406 505 279 505 C152 505 50 392 50 250 L50 250 Z " />
<glyph glyph-name="Racute" unicode="&#x154;" horiz-adv-x="617" d="M244 690 C244 690 328 781 357 818 C379 843 396 865 396 869 C396 878 365 901 353 901 C350 901 335 877 318 847 C289 810 236 697 236 697 L244 690 L244 690 Z M44 647 L61 647 C97 648 126 619 126 583 L126 77 C126 41 97 12 61 13 L44 13 L44 0 L291 0 L291 13 L274 13 C238 12 209 41 209 77 L209 315 L268 315 C294 279 351 200 417 107 C484 13 503 1 586 1 L617 1 L617 17 C584 17 579 22 530 91 C451 202 384 294 361 326 C451 349 515 414 515 491 C515 585 422 661 307 661 L43 661 L44 647 L44 647 Z M287 337 L208 337 L208 640 L307 640 C374 640 428 574 428 491 C428 406 365 337 287 337 L287 337 Z " />
<glyph glyph-name="Rcaron" unicode="&#x158;" horiz-adv-x="617" d="M425 928 C425 928 358 844 321 794 C296 829 255 884 217 929 L209 922 C200 933 297 737 297 737 C300 731 309 716 321 716 C333 716 342 731 345 737 C397 843 433 922 433 922 L425 928 L425 928 Z M44 648 L61 648 C97 649 126 620 126 584 L126 78 C126 42 97 13 61 14 L44 14 L44 1 L291 1 L291 14 L274 14 C238 13 209 42 209 78 L209 316 L268 316 C294 280 351 201 417 108 C484 14 503 2 586 2 L617 2 L617 18 C584 18 579 23 530 92 C451 203 384 295 361 327 C451 350 515 415 515 492 C515 586 422 662 307 662 L43 662 L44 648 L44 648 Z M287 338 L208 338 L208 641 L307 641 C374 641 428 575 428 492 C428 407 365 338 287 338 L287 338 Z " />
<glyph glyph-name="rcaron" unicode="&#x159;" horiz-adv-x="393" d="M326 768 C326 768 258 683 221 633 C196 668 155 723 117 768 L109 761 C102 770 198 576 198 576 C201 570 210 555 222 555 C233 555 242 570 245 576 C296 681 334 761 334 761 L326 768 L326 768 Z M45 446 L57 446 C111 445 127 430 127 379 L127 77 C127 41 98 12 62 13 L45 13 L45 0 L284 0 L284 13 L267 13 C231 12 202 41 202 77 L202 417 C219 435 241 448 256 448 C282 448 322 418 348 418 C367 418 383 434 383 454 C383 482 361 504 316 504 C288 504 239 470 202 427 L202 499 L187 499 L45 457 L45 446 L45 446 Z " />
<glyph glyph-name="Sacute" unicode="&#x15a;" horiz-adv-x="470" d="M180 690 C180 690 264 781 293 818 C315 843 332 865 332 869 C332 878 301 901 289 901 C286 901 271 877 254 847 C225 810 172 697 172 697 L180 690 L180 690 Z M387 459 L387 616 C340 643 270 665 231 665 C129 665 47 580 47 474 C47 409 115 331 200 299 C292 265 366 194 366 141 C366 72 309 16 238 16 C237 16 212 17 212 18 C148 26 84 90 67 163 C65 174 60 190 58 201 L41 201 L41 44 C88 17 176 -5 238 -5 C342 -5 425 76 425 176 C425 245 353 327 263 361 C175 394 104 459 104 507 C104 583 159 644 227 644 C288 644 339 597 351 547 C357 523 365 483 371 459 L387 459 L387 459 Z " />
<glyph glyph-name="sacute" unicode="&#x15b;" horiz-adv-x="385" d="M127 530 C127 530 211 621 240 658 C262 683 279 705 279 709 C279 718 248 741 236 741 C233 741 218 717 201 687 C172 650 119 537 119 537 L127 530 L127 530 Z M312 358 L312 463 L306 452 L306 452 L312 463 C272 486 224 505 204 505 C124 505 60 446 60 372 C60 324 113 258 179 223 C231 195 273 147 273 115 C273 50 228 4 168 15 C126 25 83 69 69 120 C67 128 63 139 61 147 L47 147 L47 32 C83 11 144 -5 184 -5 C268 -5 335 61 335 143 C335 187 289 247 232 277 C168 311 117 364 117 397 C117 448 156 488 204 488 C206 488 212 486 221 482 C255 464 286 424 293 387 C295 379 296 366 298 358 L312 358 L312 358 Z " />
<glyph glyph-name="Scircumflex" unicode="&#x15c;" horiz-adv-x="470" d="M251 884 C248 890 239 905 227 905 C215 905 206 890 203 884 C203 884 106 688 115 699 L123 692 C161 737 202 792 227 827 C264 777 331 693 331 693 L339 700 C339 700 303 779 251 885 L251 884 L251 884 Z M387 460 L387 617 C340 644 270 666 231 666 C129 666 47 581 47 475 C47 410 115 332 200 300 C292 266 366 195 366 142 C366 73 309 17 238 17 C237 17 212 18 212 19 C148 27 84 91 67 164 C65 175 60 191 58 202 L41 202 L41 45 C88 18 176 -4 238 -4 C342 -4 425 77 425 177 C425 246 353 328 263 362 C175 395 104 460 104 508 C104 584 159 645 227 645 C288 645 339 598 351 548 C357 524 365 484 371 460 L387 460 L387 460 Z " />
<glyph glyph-name="Scedilla" unicode="&#x15e;" horiz-adv-x="470" d="M210 -82 L205 -94 C207 -90 209 -86 211 -82 L210 -82 L210 -82 Z M388 459 L388 616 C341 643 271 665 232 665 C130 665 48 580 48 474 C48 409 116 331 201 299 C293 265 367 194 367 141 C367 72 310 16 239 16 C238 16 213 17 213 18 C149 26 85 90 68 163 C66 174 61 190 59 201 L42 201 L42 44 C87 18 170 -3 231 -5 C227 -15 214 -49 199 -92 L205 -94 C219 -86 239 -79 249 -79 C273 -79 293 -103 293 -134 C293 -170 267 -198 234 -198 C207 -198 179 -193 171 -187 L168 -195 C185 -209 221 -220 249 -220 C298 -220 338 -182 338 -134 C338 -95 306 -64 267 -64 C249 -64 224 -70 211 -78 C231 -28 247 -10 254 -4 C350 4 425 82 425 177 C425 246 353 328 263 362 C175 395 104 460 104 508 C104 584 159 645 227 645 C288 645 339 598 351 548 C357 524 365 484 371 460 L388 459 L388 459 Z " />
<glyph glyph-name="scedilla" unicode="&#x15f;" horiz-adv-x="385" d="M156 -82 L151 -94 C153 -90 155 -86 157 -82 L156 -82 L156 -82 Z M313 358 L313 463 L307 452 L307 452 L313 463 C273 486 225 505 205 505 C125 505 61 446 61 372 C61 324 114 258 180 223 C232 195 274 147 274 115 C274 50 229 4 169 15 C127 25 84 69 70 120 C68 128 64 139 62 147 L48 147 L48 32 C82 12 138 -3 178 -5 C174 -15 161 -49 146 -92 L152 -94 C166 -86 186 -79 196 -79 C220 -79 240 -103 240 -134 C240 -170 214 -198 181 -198 C154 -198 126 -193 118 -187 L115 -195 C132 -209 168 -220 196 -220 C245 -220 285 -182 285 -134 C285 -95 253 -64 214 -64 C196 -64 171 -70 158 -78 C178 -28 194 -10 200 -5 C276 3 335 66 335 143 C335 187 289 247 232 277 C168 311 117 364 117 397 C117 448 156 488 204 488 C206 488 212 486 221 482 C255 464 286 424 293 387 C295 379 296 366 298 358 L313 358 L313 358 Z " />
<glyph glyph-name="Scaron" unicode="&#x160;" horiz-adv-x="470" d="M331 928 C331 928 264 844 227 794 C202 829 161 884 123 929 L115 922 C106 933 203 737 203 737 C206 731 215 716 227 716 C239 716 248 731 251 737 C303 843 339 922 339 922 L331 928 L331 928 Z M387 460 L387 617 C340 644 270 666 231 666 C129 666 47 581 47 475 C47 410 115 332 200 300 C292 266 366 195 366 142 C366 73 309 17 238 17 C237 17 212 18 212 19 C148 27 84 91 67 164 C65 175 60 191 58 202 L41 202 L41 45 C88 18 176 -4 238 -4 C342 -4 425 77 425 177 C425 246 353 328 263 362 C175 395 104 460 104 508 C104 584 159 645 227 645 C288 645 339 598 351 548 C357 524 365 484 371 460 L387 460 L387 460 Z " />
<glyph glyph-name="scaron" unicode="&#x161;" horiz-adv-x="385" d="M308 768 C308 768 241 684 204 634 C179 669 138 724 100 769 L92 762 C83 773 180 577 180 577 C183 571 192 556 204 556 C216 556 225 571 228 577 C280 683 316 762 316 762 L308 768 L308 768 Z M312 359 L312 464 L306 453 L306 453 L312 464 C272 487 224 506 204 506 C124 506 60 447 60 373 C60 325 113 259 179 224 C231 196 273 148 273 116 C273 51 228 5 168 16 C126 26 83 70 69 121 C67 129 63 140 61 148 L47 148 L47 33 C83 12 144 -4 184 -4 C268 -4 335 62 335 144 C335 188 289 248 232 278 C168 312 117 365 117 398 C117 449 156 489 204 489 C206 489 212 487 221 483 C255 465 286 425 293 388 C295 380 296 367 298 359 L312 359 L312 359 Z " />
<glyph glyph-name="Tcaron" unicode="&#x164;" horiz-adv-x="583" d="M396 928 C396 928 329 844 292 794 C267 829 226 884 188 929 L180 922 C171 933 268 737 268 737 C271 731 280 716 292 716 C304 716 313 731 316 737 C368 843 404 922 404 922 L396 928 L396 928 Z M563 661 L20 661 L19 651 C18 651 6 495 5 483 L21 483 L43 560 C56 604 102 640 147 640 L251 640 L251 78 C251 42 222 13 186 14 L169 14 L169 1 L416 1 L416 14 L399 14 C363 13 334 42 334 78 L334 640 L438 640 C483 640 529 604 542 560 L564 483 L580 483 C575 534 569 610 564 660 L563 661 L563 661 Z " />
<glyph glyph-name="tcaron" unicode="&#x165;" horiz-adv-x="330" d="M299 500 L164 500 L164 640 L152 640 L96 490 L141 611 C116 544 64 485 25 479 L25 471 L89 471 L89 112 C89 28 114 -5 177 -5 C232 -5 278 16 310 43 L305 50 C290 38 261 28 214 28 C178 28 164 48 164 99 L164 471 L299 471 L299 500 L299 500 Z M406 723 C391 723 377 657 371 615 L347 452 L356 449 L418 598 C437 643 453 699 453 706 C453 717 419 723 406 723 L406 723 Z " />
<glyph glyph-name="Utilde" unicode="&#x168;" horiz-adv-x="659" d="M217 755 C217 790 232 818 250 818 C289 818 353 755 392 755 C429 755 459 804 459 865 L446 865 C446 832 429 805 408 805 C369 805 306 867 267 867 C232 867 204 817 204 755 L217 755 L217 755 Z M639 660 L425 660 L425 647 L447 647 C489 648 522 615 522 573 L522 188 C522 97 464 24 348 24 C249 24 199 100 199 194 L199 583 C199 619 228 648 264 647 L281 647 L281 660 L34 660 L34 647 L51 647 C87 648 116 619 116 583 L116 210 C116 91 189 -5 336 -5 C477 -5 547 77 547 180 L547 573 C547 615 580 648 622 647 L639 647 L639 660 L639 660 Z " />
<glyph glyph-name="utilde" unicode="&#x169;" horiz-adv-x="567" d="M159 595 C159 630 174 658 193 658 C232 658 296 595 335 595 C372 595 401 644 401 705 L389 705 C389 672 372 645 351 645 C312 645 248 707 209 707 C175 707 147 657 147 595 L159 595 L159 595 Z M15 487 L32 487 C68 488 97 459 97 423 L97 155 C97 66 146 -5 224 -5 C281 -5 338 21 376 55 L376 0 L391 0 L533 42 L533 54 L521 54 C467 55 451 70 451 121 L451 500 L294 500 L294 487 L311 487 C347 488 376 459 376 423 L376 66 C360 54 327 45 283 45 C215 45 171 98 171 164 L172 501 L15 501 L15 487 L15 487 Z " />
<glyph glyph-name="Umacron" unicode="&#x16a;" horiz-adv-x="659" d="M200 767 L463 767 L463 808 L200 808 L200 767 L200 767 Z M639 660 L425 660 L425 647 L447 647 C489 648 522 615 522 573 L522 188 C522 97 464 24 348 24 C249 24 199 100 199 194 L199 583 C199 619 228 648 264 647 L281 647 L281 660 L34 660 L34 647 L51 647 C87 648 116 619 116 583 L116 210 C116 91 189 -5 336 -5 C477 -5 547 77 547 180 L547 573 C547 615 580 648 622 647 L639 647 L639 660 L639 660 Z " />
<glyph glyph-name="umacron" unicode="&#x16b;" horiz-adv-x="567" d="M143 607 L405 607 L405 648 L143 648 L143 607 L143 607 Z M15 487 L32 487 C68 488 97 459 97 423 L97 155 C97 66 146 -5 224 -5 C281 -5 338 21 376 55 L376 0 L391 0 L533 42 L533 54 L521 54 C467 55 451 70 451 121 L451 500 L294 500 L294 487 L311 487 C347 488 376 459 376 423 L376 66 C360 54 327 45 283 45 C215 45 171 98 171 164 L172 501 L15 501 L15 487 L15 487 Z " />
<glyph glyph-name="Ubreve" unicode="&#x16c;" horiz-adv-x="659" d="M229 871 C246 807 292 756 332 756 C371 756 417 808 434 872 L421 875 C411 837 371 806 332 806 C292 806 252 837 242 875 L229 871 L229 871 Z M639 660 L425 660 L425 647 L447 647 C489 648 522 615 522 573 L522 188 C522 97 464 24 348 24 C249 24 199 100 199 194 L199 583 C199 619 228 648 264 647 L281 647 L281 660 L34 660 L34 647 L51 647 C87 648 116 619 116 583 L116 210 C116 91 189 -5 336 -5 C477 -5 547 77 547 180 L547 573 C547 615 580 648 622 647 L639 647 L639 660 L639 660 Z " />
<glyph glyph-name="ubreve" unicode="&#x16d;" horiz-adv-x="567" d="M171 711 C188 647 234 596 274 596 C314 596 360 648 377 712 L364 715 C354 677 314 646 274 646 C234 646 194 677 184 715 L171 711 L171 711 Z M15 487 L32 487 C68 488 97 459 97 423 L97 155 C97 66 146 -5 224 -5 C281 -5 338 21 376 55 L376 0 L391 0 L533 42 L533 54 L521 54 C467 55 451 70 451 121 L451 500 L294 500 L294 487 L311 487 C347 488 376 459 376 423 L376 66 C360 54 327 45 283 45 C215 45 171 98 171 164 L172 501 L15 501 L15 487 L15 487 Z " />
<glyph glyph-name="Uring" unicode="&#x16e;" horiz-adv-x="659" d="M258 788 C258 830 291 863 332 863 C373 863 405 830 405 788 C405 750 368 712 332 712 C295 712 258 750 258 788 L258 788 Z M237 788 C237 742 285 695 332 695 C379 695 426 742 426 788 C426 839 384 880 332 880 C279 880 237 839 237 788 L237 788 Z M639 660 L425 660 L425 647 L447 647 C489 648 522 615 522 573 L522 188 C522 97 464 24 348 24 C249 24 199 100 199 194 L199 583 C199 619 228 648 264 647 L281 647 L281 660 L34 660 L34 647 L51 647 C87 648 116 619 116 583 L116 210 C116 91 189 -5 336 -5 C477 -5 547 77 547 180 L547 573 C547 615 580 648 622 647 L639 647 L639 660 L639 660 Z " />
<glyph glyph-name="uring" unicode="&#x16f;" horiz-adv-x="567" d="M200 628 C200 670 233 703 274 703 C315 703 348 670 348 628 C348 590 311 552 274 552 C237 552 200 590 200 628 L200 628 Z M180 628 C180 582 227 535 274 535 C321 535 368 582 368 628 C368 679 326 720 274 720 C222 720 180 679 180 628 L180 628 Z M15 487 L32 487 C68 488 97 459 97 423 L97 155 C97 66 146 -5 224 -5 C281 -5 338 21 376 55 L376 0 L391 0 L533 42 L533 54 L521 54 C467 55 451 70 451 121 L451 500 L294 500 L294 487 L311 487 C347 488 376 459 376 423 L376 66 C360 54 327 45 283 45 C215 45 171 98 171 164 L172 501 L15 501 L15 487 L15 487 Z " />
<glyph glyph-name="Wcircumflex" unicode="&#x174;" horiz-adv-x="895" d="M490 884 C487 890 478 905 467 905 C455 905 446 890 443 884 C443 884 347 690 354 699 L362 692 C400 737 441 792 466 827 C503 777 571 692 571 692 L579 699 C579 699 541 779 490 884 L490 884 Z M248 660 L-4 660 L-4 647 L6 647 C36 648 67 623 81 591 L274 -15 L295 -15 L440 530 L612 -15 L633 -15 L795 589 C807 622 842 648 876 647 L892 647 L892 660 L677 660 L677 647 L721 647 C756 647 777 621 771 587 L648 117 L478 669 L457 669 L308 108 L174 582 C165 618 184 648 220 647 L249 647 L248 660 L248 660 Z " />
<glyph glyph-name="Ycircumflex" unicode="&#x176;" horiz-adv-x="599" d="M178 0 L426 0 L426 13 L409 13 C373 12 344 41 344 77 L344 310 L497 583 C517 619 560 648 594 647 L604 647 L604 660 L398 660 L398 647 L423 647 C468 648 486 615 467 572 L329 322 L198 592 C186 624 202 648 235 647 L261 647 L261 660 L9 660 L9 647 L18 647 C47 648 85 618 103 582 L261 273 L260 76 C260 40 231 10 195 11 L178 11 L178 0 L178 0 Z M326 882 C323 888 314 903 302 903 C290 903 281 888 278 882 C278 882 181 686 190 697 L198 690 C236 735 277 790 302 825 C339 775 406 691 406 691 L414 698 C414 698 378 777 326 883 L326 882 L326 882 Z " />
<glyph glyph-name="Ydieresis" unicode="&#x178;" horiz-adv-x="599" d="M393 730 C419 730 439 750 439 776 C439 802 419 822 393 822 C367 822 347 802 347 776 C347 750 367 730 393 730 L393 730 Z M211 730 C237 730 257 750 257 776 C257 802 237 822 211 822 C185 822 165 802 165 776 C165 750 185 730 211 730 L211 730 Z M178 0 L426 0 L426 13 L409 13 C373 12 344 41 344 77 L344 310 L497 583 C517 619 560 648 594 647 L604 647 L604 660 L398 660 L398 647 L423 647 C468 648 486 615 467 572 L329 322 L198 592 C186 624 202 648 235 647 L261 647 L261 660 L9 660 L9 647 L18 647 C47 648 85 618 103 582 L261 273 L260 76 C260 40 231 10 195 11 L178 11 L178 0 L178 0 Z " />
<glyph glyph-name="Zacute" unicode="&#x179;" horiz-adv-x="557" d="M308 690 C308 690 391 781 420 818 C442 843 459 865 459 869 C459 878 428 901 416 901 C414 901 399 877 382 847 C353 810 299 697 299 697 L308 690 L308 690 Z M483 179 L461 112 C445 62 392 22 342 22 L150 22 L492 660 L105 660 L102 650 L102 650 C92 612 76 550 65 512 L81 512 L105 559 C128 603 182 639 227 639 L386 639 L45 0 L472 0 L474 11 C482 55 495 127 502 171 C496 174 483 179 483 179 L483 179 Z " />
<glyph glyph-name="zacute" unicode="&#x17a;" horiz-adv-x="446" d="M168 530 C168 530 251 621 280 658 C302 683 319 705 319 709 C319 718 288 741 276 741 C274 741 259 717 242 687 C213 650 159 537 159 537 L168 530 L168 530 Z M389 174 L367 107 C351 57 298 17 248 17 L146 17 L396 500 L71 500 L69 492 L69 492 C61 463 48 415 40 386 L56 386 L66 403 C93 447 149 483 194 483 L301 483 L49 0 L379 0 L381 9 L380 9 C388 53 401 122 408 166 C402 169 389 174 389 174 L389 174 Z " />
<glyph glyph-name="Zdot" unicode="&#x17b;" horiz-adv-x="557" d="M309 730 C334 730 354 750 354 776 C354 802 334 822 309 822 C283 822 263 802 263 776 C263 750 283 730 309 730 L309 730 Z M483 179 L461 112 C445 62 392 22 342 22 L150 22 L492 660 L105 660 L102 650 L102 650 C92 612 76 550 65 512 L81 512 L105 559 C128 603 182 639 227 639 L386 639 L45 0 L472 0 L474 11 C482 55 495 127 502 171 C496 174 483 179 483 179 L483 179 Z " />
<glyph glyph-name="zdot" unicode="&#x17c;" horiz-adv-x="446" d="M244 570 C269 570 289 590 289 616 C289 642 269 662 244 662 C218 662 198 642 198 616 C198 590 218 570 244 570 L244 570 Z M389 174 L367 107 C351 57 298 17 248 17 L146 17 L396 500 L71 500 L69 492 L69 492 C61 463 48 415 40 386 L56 386 L66 403 C93 447 149 483 194 483 L301 483 L49 0 L379 0 L381 9 L380 9 C388 53 401 122 408 166 C402 169 389 174 389 174 L389 174 Z " />
<glyph glyph-name="Zcaron" unicode="&#x17d;" horiz-adv-x="557" d="M413 928 C413 928 345 843 308 793 C283 828 242 883 204 928 L196 921 C189 930 285 736 285 736 C288 730 297 715 309 715 C320 715 329 730 332 736 C383 841 421 921 421 921 L413 928 L413 928 Z M483 179 L461 112 C445 62 392 22 342 22 L150 22 L492 660 L105 660 L102 650 L102 650 C92 612 76 550 65 512 L81 512 L105 559 C128 603 182 639 227 639 L386 639 L45 0 L472 0 L474 11 C482 55 495 127 502 171 C496 174 483 179 483 179 L483 179 Z " />
<glyph glyph-name="zcaron" unicode="&#x17e;" horiz-adv-x="446" d="M348 768 C348 768 280 683 243 633 C218 668 177 723 139 768 L131 761 C124 770 220 576 220 576 C223 570 232 555 244 555 C255 555 264 570 267 576 C318 681 356 761 356 761 L348 768 L348 768 Z M389 174 L367 107 C351 57 298 17 248 17 L146 17 L396 500 L71 500 L69 492 L69 492 C61 463 48 415 40 386 L56 386 L66 403 C93 447 149 483 194 483 L301 483 L49 0 L379 0 L381 9 L380 9 C388 53 401 122 408 166 C402 169 389 174 389 174 L389 174 Z " />
<glyph glyph-name="oogonek" unicode="&#x1eb;" horiz-adv-x="672" d="M675 -51 L668 -46 C651 -66 595 -82 542 -82 C469 -82 396 -48 348 -5 C516 0 622 138 622 276 C622 416 512 557 339 557 C166 557 56 416 56 276 C56 140 158 4 320 -6 C393 -77 478 -133 534 -133 C574 -133 637 -97 674 -53 L675 -51 L675 -51 Z M138 275 C138 406 216 538 338 538 C461 538 539 406 539 275 C539 144 461 12 338 12 C216 12 138 144 138 275 L138 275 Z " />
<glyph glyph-name="Adotabove" unicode="&#x226;" horiz-adv-x="634" d="M305 730 C330 730 350 750 350 776 C350 802 330 822 305 822 C279 822 259 802 259 776 C259 750 279 730 305 730 L305 730 Z M-2 0 L221 0 L221 13 L188 13 C144 12 120 49 133 93 L178 236 L392 236 L447 78 C460 42 441 14 405 14 L362 14 L362 1 L632 1 L632 14 L621 14 C588 14 550 42 537 78 L536 78 L315 676 L294 676 L100 74 C87 40 50 13 15 14 L-2 14 L-2 0 L-2 0 Z M384 257 L184 257 L279 559 L384 257 L384 257 Z " />
<glyph glyph-name="G_sc" unicode="&#x262;" horiz-adv-x="730" d="M547 349 L547 487 C547 490 547 494 547 498 C489 531 396 558 338 558 C181 558 56 433 56 277 C56 120 181 -5 338 -5 C399 -5 494 22 553 56 L553 183 C553 219 582 248 618 247 L635 247 L635 260 L404 260 L404 247 L421 247 C457 248 486 219 486 183 L486 46 C436 27 379 14 338 14 C228 14 139 131 139 277 C139 423 228 540 338 540 C351 540 365 539 381 536 C443 523 505 459 522 387 C524 376 529 360 531 349 L547 349 L547 349 Z " />
<glyph glyph-name="I_sc" unicode="&#x26a;" horiz-adv-x="322" d="M283 13 L266 13 C230 12 201 41 201 77 L201 476 C201 512 230 541 266 540 L283 540 L283 553 L44 553 L44 540 L61 540 C97 541 126 512 126 476 L126 77 C126 41 97 12 61 13 L44 13 L44 0 L283 0 L283 13 L283 13 Z " />
<glyph glyph-name="N_sc" unicode="&#x274;" horiz-adv-x="635" d="M41 540 L58 540 C94 541 123 512 123 476 L123 77 C123 41 94 12 58 13 L41 13 L41 0 L228 0 L228 13 L211 13 C175 12 146 41 146 77 L146 485 C260 318 374 151 489 -15 L514 -15 L514 476 C514 512 543 541 579 540 L596 540 L596 553 L410 553 L410 540 L427 540 C463 541 492 512 492 476 L492 110 L192 553 L42 553 L41 540 L41 540 Z M147 522 L147 522 L147 522 Z " />
<glyph glyph-name="R_sc" unicode="&#x280;" horiz-adv-x="570" d="M46 540 L63 540 C99 541 128 512 128 476 L128 77 C128 41 99 12 63 13 L46 13 L46 0 L285 0 L285 13 L268 13 C232 12 203 41 203 77 L203 264 L240 264 C264 235 314 175 372 105 C450 11 469 -1 543 -1 L571 -1 L571 14 C539 14 534 20 475 91 C405 175 346 245 325 270 C405 290 462 345 462 410 C462 488 377 551 272 551 L47 551 L46 540 L46 540 Z M258 280 L204 281 L204 532 L272 533 C334 533 383 478 383 410 C383 338 327 280 258 280 L258 280 Z " />
<glyph glyph-name="Y_sc" unicode="&#x28f;" horiz-adv-x="542" d="M254 553 L12 553 L12 540 L21 540 C50 541 89 512 108 476 L238 233 L238 77 C238 41 209 12 173 13 L156 13 L156 0 L395 0 L395 13 L378 13 C342 12 313 41 313 77 L313 261 L441 482 C463 515 504 541 535 540 L546 540 L546 553 L343 553 L343 540 L368 540 C416 541 431 502 405 456 L296 266 L194 476 C177 511 191 541 228 540 L254 540 L254 553 L254 553 Z " />
<glyph glyph-name="B_sc" unicode="&#x299;" horiz-adv-x="531" d="M46 540 L63 540 C99 541 128 512 128 476 L128 77 C128 41 99 12 63 13 L46 13 L46 0 L289 0 C412 0 511 68 511 153 C511 225 432 284 326 298 C403 316 458 365 458 423 C458 495 375 552 272 552 L47 552 L46 540 L46 540 Z M204 301 L204 533 C204 533 253 534 272 534 C334 534 383 485 383 423 C383 355 327 301 258 301 L204 301 L204 301 Z M204 286 L256 286 C354 286 433 226 433 152 C433 78 366 18 283 18 L204 18 L204 286 L204 286 Z " />
<glyph glyph-name="H_sc" unicode="&#x29c;" horiz-adv-x="703" d="M664 13 L647 13 C611 12 582 41 582 77 L582 476 C582 512 611 541 647 540 L664 540 L664 553 L425 553 L425 540 L442 540 C478 541 507 512 507 476 L507 302 L199 302 L199 476 C199 512 228 541 264 540 L281 540 L281 553 L42 553 L42 540 L59 540 C95 541 124 512 124 476 L124 77 C124 41 95 12 59 13 L42 13 L42 0 L281 0 L281 13 L264 13 C228 12 199 41 199 77 L199 283 L507 283 L507 77 C507 41 478 12 442 13 L425 13 L425 0 L664 0 L664 13 L664 13 Z " />
<glyph glyph-name="L_sc" unicode="&#x29f;" horiz-adv-x="550" d="M442 176 L420 109 C404 59 351 19 301 19 L199 19 L199 476 C199 512 228 541 264 540 L281 540 L281 553 L42 553 L42 540 L59 540 C95 541 124 512 124 476 L124 77 C124 41 95 12 59 13 L42 13 L42 0 L432 0 L433 9 L433 9 C441 53 454 124 461 168 C455 171 442 176 442 176 L442 176 Z " />
<glyph glyph-name="circumflex" unicode="&#x2c6;" horiz-adv-x="293" d="M171 724 C168 730 159 745 147 745 C135 745 126 730 123 724 C123 724 27 530 34 539 L42 532 C80 577 121 632 146 667 C183 617 251 532 251 532 L259 539 C259 539 223 618 171 724 L171 724 Z " />
<glyph glyph-name="caron" unicode="&#x2c7;" horiz-adv-x="293" d="M251 768 C251 768 183 683 146 633 C121 668 80 723 42 768 L34 761 C27 770 123 576 123 576 C126 570 135 555 147 555 C159 555 168 570 171 576 C223 682 259 761 259 761 L251 768 L251 768 Z " />
<glyph glyph-name="firsttonechinese" unicode="&#x2c9;" horiz-adv-x="293" d="M15 607 L278 607 L278 648 L15 648 L15 607 L15 607 Z " />
<glyph glyph-name="breve" unicode="&#x2d8;" horiz-adv-x="293" d="M44 711 C61 647 107 596 147 596 C186 596 232 648 249 712 L236 715 C226 677 186 646 147 646 C107 646 67 677 57 715 L44 711 L44 711 Z " />
<glyph glyph-name="dotaccent" unicode="&#x2d9;" horiz-adv-x="293" d="M147 570 C172 570 192 590 192 616 C192 642 172 662 147 662 C121 662 101 642 101 616 C101 590 121 570 147 570 L147 570 Z " />
<glyph glyph-name="ring" unicode="&#x2da;" horiz-adv-x="293" d="M73 628 C73 670 106 703 147 703 C188 703 220 670 220 628 C220 590 183 552 147 552 C110 552 73 590 73 628 L73 628 Z M52 628 C52 582 100 535 147 535 C194 535 241 582 241 628 C241 679 199 720 147 720 C94 720 52 679 52 628 L52 628 Z " />
<glyph glyph-name="A_sc" unicode="&#x1d00;" horiz-adv-x="575" d="M312 0 L573 0 L573 13 L562 13 C530 13 494 38 479 71 L288 565 L269 565 L103 74 C90 39 52 11 17 12 L1 12 L1 -1 L219 -1 L219 12 L186 12 C143 11 119 43 129 84 L166 195 L353 195 L398 71 C408 37 390 12 356 12 L313 12 L312 0 L312 0 Z M346 214 L173 215 L255 464 L346 214 L346 214 Z " />
<glyph glyph-name="C_sc" unicode="&#x1d04;" horiz-adv-x="626" d="M562 65 L562 65 L562 65 Z M550 205 C548 194 543 178 541 167 C523 90 449 25 371 15 C238 3 140 123 140 277 C140 423 233 540 349 540 C363 540 379 538 396 535 C459 524 523 459 540 387 C542 376 547 360 549 349 L566 349 L566 492 C566 495 566 497 566 497 C508 530 412 558 348 558 C186 558 56 433 56 277 C56 120 186 -5 348 -5 C411 -5 508 22 567 56 L567 205 L550 205 L550 205 Z " />
<glyph glyph-name="D_sc" unicode="&#x1d05;" horiz-adv-x="627" d="M46 540 L63 540 C99 541 128 512 128 476 L128 77 C128 41 99 12 63 13 L46 13 L46 0 L293 0 C451 0 577 123 577 277 C577 430 441 553 271 553 L46 553 L46 540 L46 540 Z M203 19 L203 534 C222 534 252 535 271 535 C399 535 502 420 502 277 C502 134 409 19 293 19 L203 19 L203 19 Z " />
<glyph glyph-name="E_sc" unicode="&#x1d07;" horiz-adv-x="550" d="M364 194 L364 386 L351 386 L349 374 C342 335 298 304 251 304 L199 304 L199 534 C226 534 260 534 295 534 C347 529 394 487 405 435 L414 393 L428 393 L428 553 L42 553 L42 540 L59 540 C95 541 124 512 124 476 L124 77 C124 41 95 12 59 13 L42 13 L42 0 L432 0 L433 9 L433 9 C441 51 453 119 460 161 L446 161 L430 119 C408 64 347 19 291 19 L199 19 L199 286 L251 286 C299 286 342 251 349 208 L351 194 L364 194 L364 194 Z " />
<glyph glyph-name="J_sc" unicode="&#x1d0a;" horiz-adv-x="323" d="M284 553 L45 553 L45 540 L62 540 C98 541 127 512 127 476 L127 168 C127 59 116 5 95 5 C83 5 69 25 64 50 C60 67 45 80 30 80 C10 80 -4 67 0 50 C7 17 41 -10 77 -10 C160 -10 202 70 202 231 L202 476 C202 512 231 541 267 540 L284 540 L284 553 L284 553 Z " />
<glyph glyph-name="K_sc" unicode="&#x1d0b;" horiz-adv-x="572" d="M285 553 L46 553 L46 540 L63 540 C99 541 128 512 128 476 L128 77 C128 41 99 12 63 13 L46 13 L46 0 L285 0 L285 13 L268 13 C232 12 203 41 203 77 L203 272 L214 284 C231 261 268 212 310 155 C389 49 464 -4 534 -4 L562 -4 L562 11 C523 11 462 75 361 211 C319 268 282 317 265 340 L392 482 C425 515 476 541 510 540 L526 540 L526 553 L354 553 L354 540 L365 540 C398 541 398 511 366 475 L255 353 C255 353 209 303 204 298 L204 476 C204 512 233 541 269 540 L286 540 L285 553 L285 553 Z " />
<glyph glyph-name="M_sc" unicode="&#x1d0d;" horiz-adv-x="773" d="M732 554 L618 554 L618 553 L584 553 L401 87 L201 553 L62 553 L62 540 L78 540 C112 541 138 517 140 485 L122 77 C119 42 91 12 55 13 L38 13 L38 0 L258 0 L258 13 L222 13 C179 12 146 45 145 87 L162 461 C230 306 298 151 365 -5 L401 87 L401 87 L365 -5 L384 -5 L586 495 L603 75 C603 40 576 12 541 13 L524 13 L524 0 L762 0 L762 13 L745 13 C709 12 679 41 677 77 L655 481 C655 515 682 542 717 541 L732 540 L732 554 L732 554 Z " />
<glyph glyph-name="O_sc" unicode="&#x1d0f;" horiz-adv-x="672" d="M139 277 C139 408 217 540 339 540 C462 540 540 408 540 277 C540 146 462 14 339 14 C217 14 139 146 139 277 L139 277 Z M56 277 C56 136 166 -5 339 -5 C512 -5 622 136 622 277 C622 417 512 558 339 558 C166 558 56 417 56 277 L56 277 Z " />
<glyph glyph-name="P_sc" unicode="&#x1d18;" horiz-adv-x="501" d="M285 13 L268 13 C232 12 203 41 203 77 L203 249 L263 249 C384 249 481 316 481 400 C481 485 391 553 278 553 L46 553 L46 540 L63 540 C99 541 128 512 128 476 L128 77 C128 41 99 12 63 13 L46 13 L46 0 L285 0 L285 13 L285 13 Z M203 268 L203 534 C224 534 257 535 278 535 C347 535 402 475 402 400 C402 326 340 267 263 267 C263 267 220 268 203 268 L203 268 Z " />
<glyph glyph-name="T_sc" unicode="&#x1d1b;" horiz-adv-x="534" d="M7 378 L23 378 L44 455 C57 499 103 535 148 535 L230 535 L230 77 C230 41 201 12 165 13 L148 13 L148 0 L387 0 L387 13 L370 13 C334 12 305 41 305 77 L305 535 L386 535 C431 535 477 499 490 455 L511 378 L527 378 C523 428 518 505 513 554 L23 554 C18 505 13 428 9 378 L7 378 L7 378 Z " />
<glyph glyph-name="U_sc" unicode="&#x1d1c;" horiz-adv-x="611" d="M591 553 L380 553 L380 540 L402 540 C442 541 474 511 477 472 L476 155 C476 81 425 21 323 21 C236 21 193 82 193 158 L193 476 C193 512 222 541 258 540 L275 540 L275 553 L36 553 L36 540 L53 540 C89 541 118 512 118 476 L118 173 C118 74 183 -5 312 -5 C437 -5 499 63 499 148 L499 466 C499 508 532 541 574 540 L591 540 L591 553 L591 553 Z " />
<glyph glyph-name="V_sc" unicode="&#x1d20;" horiz-adv-x="572" d="M574 553 L347 553 L347 540 L375 540 C426 541 455 503 444 454 L328 81 L177 481 C166 515 185 542 220 541 L257 541 L257 554 L7 554 L7 541 L16 541 C47 542 84 512 99 476 L299 -15 L318 -15 L474 476 C486 511 523 541 559 540 L576 540 L574 553 L574 553 Z " />
<glyph glyph-name="W_sc" unicode="&#x1d21;" horiz-adv-x="786" d="M783 553 L571 553 L571 540 L615 540 C648 540 669 516 664 484 L560 93 L417 562 L399 562 L271 86 L160 483 C155 515 175 540 208 539 L237 539 L237 552 L-6 552 L-6 539 L4 539 C35 540 70 511 82 475 L243 -16 L262 -16 L385 446 L530 -16 L549 -16 L683 479 C694 513 730 540 765 539 L781 539 L783 553 L783 553 Z " />
<glyph glyph-name="Z_sc" unicode="&#x1d22;" horiz-adv-x="508" d="M435 176 L413 109 C397 59 344 19 294 19 L142 19 L443 553 L109 553 C100 511 81 450 70 408 L86 408 L110 455 C133 499 187 535 232 535 L348 535 L47 0 L425 0 L426 9 L426 9 C434 53 447 124 454 168 C448 171 435 176 435 176 L435 176 Z " />
<glyph glyph-name="Wgrave" unicode="&#x1e80;" horiz-adv-x="895" d="M384 869 C384 864 402 842 424 818 C453 780 539 690 539 690 L548 697 C548 697 491 810 462 847 C445 877 430 901 426 901 C414 901 384 878 384 869 L384 869 Z M248 660 L-4 660 L-4 647 L6 647 C36 648 67 623 81 591 L274 -15 L295 -15 L440 530 L612 -15 L633 -15 L795 589 C807 622 842 648 876 647 L892 647 L892 660 L677 660 L677 647 L721 647 C756 647 777 621 771 587 L648 117 L478 669 L457 669 L308 108 L174 582 C165 618 184 648 220 647 L249 647 L248 660 L248 660 Z " />
<glyph glyph-name="Wacute" unicode="&#x1e82;" horiz-adv-x="895" d="M406 690 C406 690 489 781 518 818 C540 843 557 865 557 869 C557 878 526 901 514 901 C512 901 497 877 480 847 C451 810 397 697 397 697 L406 690 L406 690 Z M248 660 L-4 660 L-4 647 L6 647 C36 648 67 623 81 591 L274 -15 L295 -15 L440 530 L612 -15 L633 -15 L795 589 C807 622 842 648 876 647 L892 647 L892 660 L677 660 L677 647 L721 647 C756 647 777 621 771 587 L648 117 L478 669 L457 669 L308 108 L174 582 C165 618 184 648 220 647 L249 647 L248 660 L248 660 Z " />
<glyph glyph-name="Wdieresis" unicode="&#x1e84;" horiz-adv-x="895" d="M557 730 C583 730 603 750 603 776 C603 802 583 822 557 822 C531 822 511 802 511 776 C511 750 531 730 557 730 L557 730 Z M376 730 C402 730 422 750 422 776 C422 802 402 822 376 822 C350 822 330 802 330 776 C330 750 350 730 376 730 L376 730 Z M248 660 L-4 660 L-4 647 L6 647 C36 648 67 623 81 591 L274 -15 L295 -15 L440 530 L612 -15 L633 -15 L795 589 C807 622 842 648 876 647 L892 647 L892 660 L677 660 L677 647 L721 647 C756 647 777 621 771 587 L648 117 L478 669 L457 669 L308 108 L174 582 C165 618 184 648 220 647 L249 647 L248 660 L248 660 Z " />
<glyph glyph-name="Etilde" unicode="&#x1ebc;" horiz-adv-x="593" d="M177 755 C177 790 192 818 211 818 C250 818 314 755 353 755 C390 755 419 804 419 865 L407 865 C407 832 390 805 369 805 C330 805 266 867 227 867 C193 867 165 817 165 755 L177 755 L177 755 Z M407 250 L407 444 L394 444 L392 432 C385 393 341 362 294 362 L205 362 L205 639 L328 639 C384 639 437 595 449 539 L458 497 L472 497 L472 660 L40 660 L40 647 L57 647 C93 648 122 619 122 583 L122 77 C122 41 93 12 57 13 L40 13 L40 0 L475 0 L477 10 L477 10 C484 52 497 121 504 163 L490 163 L474 121 C452 66 391 21 335 21 L205 21 L205 342 L294 342 C342 342 385 307 392 264 L394 250 L407 250 L407 250 Z " />
<glyph glyph-name="Ygrave" unicode="&#x1ef2;" horiz-adv-x="599" d="M178 0 L426 0 L426 13 L409 13 C373 12 344 41 344 77 L344 310 L497 583 C517 619 560 648 594 647 L604 647 L604 660 L398 660 L398 647 L423 647 C468 648 486 615 467 572 L329 322 L198 592 C186 624 202 648 235 647 L261 647 L261 660 L9 660 L9 647 L18 647 C47 648 85 618 103 582 L261 273 L260 76 C260 40 231 10 195 11 L178 11 L178 0 L178 0 Z M219 867 C219 862 237 840 259 816 C288 778 375 688 375 688 L383 695 C383 695 327 808 298 845 C281 875 266 899 262 899 C250 899 219 876 219 867 L219 867 Z " />
<glyph glyph-name="quoteleft" unicode="&#x2018;" horiz-adv-x="228" d="M75 451 L75 451 C108 417 168 441 168 489 C168 524 134 553 97 540 C89 587 120 639 154 656 L149 667 C95 640 51 573 51 516 C51 494 62 465 76 451 L75 451 L75 451 Z " />
<glyph glyph-name="quoteright" unicode="&#x2019;" horiz-adv-x="228" d="M153 649 L153 649 C120 683 60 659 60 611 C60 576 94 547 131 560 C139 513 108 461 74 444 L79 433 C133 460 177 527 177 584 C177 606 166 635 152 649 L153 649 L153 649 Z " />
<glyph glyph-name="quotedblleft" unicode="&#x201c;" horiz-adv-x="388" d="M235 451 L235 451 C268 417 328 441 328 489 C328 524 294 553 257 540 C249 587 280 639 314 656 L309 667 C255 640 211 573 211 516 C211 494 222 465 236 451 L235 451 L235 451 Z M76 451 L76 451 C109 417 169 441 169 489 C169 524 135 553 98 540 C90 587 121 639 155 656 L150 667 C96 640 52 573 52 516 C52 494 63 465 77 451 L76 451 L76 451 Z " />
<glyph glyph-name="quotedblright" unicode="&#x201d;" horiz-adv-x="388" d="M313 649 L313 649 C280 683 220 659 220 611 C220 576 254 547 291 560 C299 513 268 461 234 444 L239 433 C293 460 337 527 337 584 C337 606 326 635 312 649 L313 649 L313 649 Z M152 649 L152 649 C119 683 59 659 59 611 C59 576 93 547 130 560 C138 513 107 461 73 444 L78 433 C132 460 176 527 176 584 C176 606 165 635 151 649 L152 649 L152 649 Z " />
<glyph glyph-name="ellipsis" unicode="&#x2026;" horiz-adv-x="525" d="M438 0 C468 0 492 24 492 54 C492 84 468 108 438 108 C407 108 383 84 383 54 C383 24 407 0 438 0 L438 0 Z M263 0 C293 0 317 24 317 54 C317 84 293 108 263 108 C232 108 208 84 208 54 C208 24 232 0 263 0 L263 0 Z M88 0 C118 0 142 24 142 54 C142 84 118 108 88 108 C57 108 33 84 33 54 C33 24 57 0 88 0 L88 0 Z " />
<glyph glyph-name="perthousand" unicode="&#x2030;" horiz-adv-x="1073" d="M852 195 C852 283 878 353 910 353 C954 353 990 269 990 165 C990 84 962 19 927 19 C885 19 852 97 852 195 L852 195 Z M779 180 C779 77 842 -5 920 -5 C998 -5 1061 82 1061 190 C1061 293 998 375 920 375 C842 375 779 288 779 180 L779 180 Z M104 546 C104 633 129 703 161 703 C205 703 241 620 241 516 C241 435 213 370 178 370 C137 370 104 448 104 546 L104 546 Z M30 532 C30 428 93 345 171 345 C249 345 312 433 312 542 C312 644 249 725 171 725 C93 725 30 639 30 532 L30 532 Z M529 195 C529 283 557 353 591 353 C640 353 680 269 680 165 C680 84 648 19 608 19 C564 19 529 97 529 195 L529 195 Z M455 180 C455 77 520 -5 601 -5 C684 -5 750 82 750 190 C750 293 684 375 601 375 C520 375 455 288 455 180 L455 180 Z M188 -10 L634 710 L601 730 L155 10 L188 -10 L188 -10 Z " />
<glyph glyph-name="guilsinglleft" unicode="&#x2039;" horiz-adv-x="258" d="M94 251 L211 457 L203 465 L20 255 L20 247 L205 37 L213 45 L94 251 L94 251 Z " />
<glyph glyph-name="guilsinglright" unicode="&#x203a;" horiz-adv-x="258" d="M53 37 L238 247 L238 255 L55 465 L47 457 L164 251 L45 45 L53 37 L53 37 Z " />
<glyph glyph-name="fraction" unicode="&#x2044;" horiz-adv-x="472" d="M47 -10 L493 710 L460 730 L13 10 L47 -10 L47 -10 Z " />
<glyph glyph-name="Euro" unicode="&#x20ac;" horiz-adv-x="720" d="M643 206 C641 195 636 179 634 168 C617 96 543 32 464 19 C448 17 433 16 419 16 C312 16 223 116 198 251 L460 251 L468 305 L192 305 C191 321 191 338 192 354 L468 354 L476 408 L198 408 C223 543 312 643 419 643 C443 643 471 640 499 635 C559 619 617 557 632 491 C634 480 639 464 641 453 L658 453 L658 604 L653 595 L653 595 L658 604 C600 637 494 664 418 664 C266 664 140 555 106 408 L55 408 L47 354 L98 354 C97 338 97 321 98 305 L47 305 L39 251 L106 251 C140 104 266 -5 418 -5 C494 -5 600 22 658 55 L652 65 L652 65 L657 55 L657 206 L643 206 L643 206 Z " />
<glyph glyph-name="F_sc" unicode="&#xa730;" horiz-adv-x="459" d="M42 540 L59 540 C95 541 124 512 124 476 L124 77 C124 41 95 12 59 13 L42 13 L42 0 L291 0 L291 13 L264 13 C228 12 199 41 199 77 L199 282 L241 282 C289 282 332 247 339 204 L341 190 L354 190 L354 382 L341 382 L339 370 C332 331 288 300 241 300 L199 300 L199 534 C234 534 279 534 324 534 C376 529 423 487 434 434 L443 392 L457 392 L457 552 L41 552 L42 540 L42 540 Z " />
<glyph glyph-name="S_sc" unicode="&#xa731;" horiz-adv-x="421" d="M339 354 L339 509 L333 498 L333 498 L339 509 C292 536 233 558 207 558 C119 558 48 486 48 397 C48 341 106 276 178 250 C258 221 323 162 323 117 C323 58 270 8 202 15 C144 22 85 85 68 162 C66 173 61 189 59 200 L42 200 L42 45 C89 18 165 -4 212 -4 C303 -4 376 64 376 149 C376 207 312 276 232 305 C159 331 100 386 100 428 C100 495 159 559 226 535 C261 521 294 482 302 444 C308 419 316 379 322 354 L339 354 L339 354 Z " />
<glyph glyph-name="X_sc" unicode="&#xf078;" horiz-adv-x="565" d="M304 0 L551 0 L551 13 L542 13 C513 12 473 42 451 77 L306 322 L406 483 C430 516 474 541 508 540 L524 540 L524 553 L311 553 L311 540 L356 540 C391 540 403 513 383 478 L299 337 L213 483 C197 516 210 541 244 540 L279 540 L279 553 L32 553 L32 540 L41 540 C70 541 110 511 132 476 L257 265 L149 71 C128 38 86 12 52 13 L36 13 L36 0 L248 0 L248 13 L217 13 C173 12 158 49 181 92 L266 250 L372 70 C388 37 375 12 341 13 L306 13 L304 0 L304 0 Z " />
</font>
</svg>
