<?xml version="1.0" encoding="UTF-8"?>
<svg xmlns="http://www.w3.org/2000/svg" xmlns:xlink="http://www.w3.org/1999/xlink" version="1.2" >
<font id="Iffat Bold">
<font-face  font-family="Iffat" units-per-em="1024" ascent="975" descent="-300" font-style="normal" font-weight="700" font-stretch="normal" cap-height="924" x-height="488" underline-position="-125" underline-thickness="50" />
<missing-glyph  horiz-adv-x="100" d="" />
<glyph glyph-name="NULL" d="" />
<glyph glyph-name="CR" unicode="&#xd;" horiz-adv-x="256" d="" />
<glyph glyph-name="space" unicode="&#x20;" horiz-adv-x="238" d="" />
<glyph glyph-name="exclam" unicode="&#x21;" horiz-adv-x="283" d="M149 -10 C211 -10 229 8 229 70 C229 132 211 150 149 150 C87 150 69 132 69 70 C69 8 87 -10 149 -10 L149 -10 Z M80 660 L135 230 L163 230 L218 660 L80 660 L80 660 Z " />
<glyph glyph-name="quotedbl" unicode="&#x22;" horiz-adv-x="528" d="M319 740 L369 490 L398 490 L448 740 L319 740 L319 740 Z M80 740 L130 490 L159 490 L209 740 L80 740 L80 740 Z " />
<glyph glyph-name="numbersign" unicode="&#x23;" horiz-adv-x="446" d="M114 382 L85 259 L0 259 L0 191 L70 191 L25 0 L97 0 L141 191 L239 191 L194 0 L266 0 L311 191 L399 191 L399 259 L326 259 L355 382 L445 382 L445 450 L371 450 L420 660 L348 660 L299 450 L200 450 L249 660 L178 660 L129 450 L45 450 L45 382 L114 382 L114 382 Z M185 382 L284 382 L255 259 L157 259 L185 382 L185 382 Z " />
<glyph glyph-name="dollar" unicode="&#x24;" horiz-adv-x="468" d="M257 740 L257 670 C249 670 240 670 232 670 L232 740 L173 740 L173 665 C82 650 52 600 52 484 C52 381 71 359 173 297 L173 70 C158 82 153 104 153 140 L153 167 C151 167 148 171 148 171 L88 171 C58 171 49 164 49 140 C49 41 79 1 173 -8 L173 -80 L232 -80 L232 -10 C241 -10 250 -10 258 -10 L258 -81 L316 -81 L316 -2 C395 17 421 71 421 185 C421 268 404 310 316 369 L316 512 L367 512 C397 512 406 519 406 542 C406 619 384 654 316 666 L316 741 L257 740 L257 740 Z M232 424 L232 602 C242 602 251 602 258 601 L258 407 C248 413 239 419 231 424 L232 424 L232 424 Z M231 260 C241 253 250 247 258 241 L258 62 C250 60 241 59 231 59 L231 260 L231 260 Z " />
<glyph glyph-name="percent" unicode="&#x25;" horiz-adv-x="766" d="M143 574 C143 691 147 726 161 726 C201 726 213 680 213 528 C213 423 207 392 187 392 C153 392 143 434 143 574 L143 574 Z M31 552 C31 400 65 355 177 355 C288 355 321 404 321 567 C321 716 288 760 177 760 C65 760 31 712 31 552 L31 552 Z M554 213 C554 327 560 361 580 361 C631 361 646 316 646 167 C646 59 637 27 606 27 C566 27 554 70 554 213 L554 213 Z M441 191 C441 36 477 -10 596 -10 C718 -10 754 40 754 206 C754 352 718 395 596 395 C477 395 441 348 441 191 L441 191 Z M202 -15 L647 735 L596 765 L151 15 L202 -15 L202 -15 Z " />
<glyph glyph-name="ampersand" unicode="&#x26;" horiz-adv-x="614" d="M495 452 L477 420 C449 369 451 369 485 420 C498 420 519 470 519 470 L495 470 L495 452 L495 452 Z M669 18 C650 29 631 40 612 50 L489 175 C515 241 541 328 580 440 L601 453 L601 471 L519 471 C483 368 458 289 436 230 L275 393 C363 441 392 481 392 544 C392 641 358 670 246 670 C116 670 77 633 77 508 C77 422 92 391 135 346 C10 286 20 259 20 171 C20 32 61 -10 197 -10 C315 -10 380 10 426 61 L489 0 L669 0 L669 18 L669 18 Z M172 310 C177 305 182 300 188 294 L375 112 C349 84 317 73 269 73 C179 73 152 104 152 207 C152 263 149 290 171 311 L172 310 L172 310 Z M235 434 C210 460 202 477 202 533 C202 595 210 613 235 613 C260 613 268 596 268 538 C268 491 259 459 234 433 L235 434 L235 434 Z " />
<glyph glyph-name="quotesingle" unicode="&#x27;" horiz-adv-x="289" d="M80 740 L130 490 L159 490 L209 740 L80 740 L80 740 Z " />
<glyph glyph-name="parenleft" unicode="&#x28;" horiz-adv-x="289" d="M248 740 C98 602 53 562 53 295 C53 28 98 -12 248 -150 L284 -150 C180 -55 149 -27 149 295 C149 617 180 645 284 740 L248 740 L248 740 Z " />
<glyph glyph-name="parenright" unicode="&#x29;" horiz-adv-x="289" d="M55 -150 C205 -12 250 28 250 295 C250 562 205 602 55 740 L19 740 C123 645 154 617 154 295 C154 -27 123 -55 19 -150 L55 -150 L55 -150 Z " />
<glyph glyph-name="asterisk" unicode="&#x2a;" horiz-adv-x="420" d="M204 594 L204 594 L202 595 L202 595 L204 595 L204 594 L204 594 Z M238 583 L364 601 L337 683 L223 623 L245 749 L159 749 L181 624 L69 683 L42 601 L168 583 L77 495 L147 444 L203 557 L259 443 L329 494 L238 583 L238 583 Z " />
<glyph glyph-name="plus" unicode="&#x2b;" horiz-adv-x="510" d="M218 482 L218 308 L40 308 L40 236 L218 236 L218 52 L292 52 L292 236 L470 236 L470 308 L292 308 L292 482 L218 482 L218 482 Z " />
<glyph glyph-name="comma" unicode="&#x2c;" horiz-adv-x="269" d="M90 0 C134 -20 147 -41 147 -90 C147 -134 127 -155 60 -181 L60 -210 C182 -162 219 -121 219 -30 C219 53 202 86 143 113 C108 128 101 132 81 96 L44 34 L48 21 L90 0 L90 0 Z " />
<glyph glyph-name="hyphen" unicode="&#x2d;" horiz-adv-x="335" d="M50 202 L285 202 L285 302 L50 302 L50 202 L50 202 Z " />
<glyph glyph-name="period" unicode="&#x2e;" horiz-adv-x="290" d="M145 -10 C207 -10 225 8 225 70 C225 132 207 150 145 150 C83 150 65 132 65 70 C65 8 83 -10 145 -10 L145 -10 Z " />
<glyph glyph-name="slash" unicode="&#x2f;" horiz-adv-x="272" d="M0 -120 L72 -120 L272 750 L200 750 L0 -120 L0 -120 Z " />
<glyph glyph-name="zero" unicode="0" horiz-adv-x="496" d="M170 371 C170 549 182 602 223 602 C309 602 335 531 335 292 C335 113 320 60 271 60 C193 60 170 132 170 371 L170 371 Z M33 327 C33 68 82 -10 248 -10 C414 -10 463 70 463 339 C463 594 414 670 248 670 C82 670 33 591 33 327 L33 327 Z " />
<glyph glyph-name="one" unicode="1" horiz-adv-x="473" d="M378 0 L378 18 L354 50 L354 660 L325 660 L70 518 L70 468 L232 531 L232 50 L208 18 L208 0 L378 0 L378 0 Z " />
<glyph glyph-name="two" unicode="2" horiz-adv-x="440" d="M415 59 C417 91 418 110 421 142 L404 142 L369 118 L211 118 C402 342 419 337 419 487 C419 628 381 670 255 670 C90 670 41 630 41 497 C41 451 54 437 99 437 L166 437 C166 437 169 442 171 442 L171 520 C171 520 91 497 41 497 L171 520 C171 583 180 602 211 602 C263 602 279 575 279 484 C279 225 262 295 50 36 L50 0 L415 0 L415 59 L415 59 Z " />
<glyph glyph-name="three" unicode="3" horiz-adv-x="469" d="M162 120 L162 159 L151 170 L83 170 C83 170 32 159 32 120 C32 20 77 -10 227 -10 C396 -10 446 33 446 175 C446 293 427 347 344 366 C401 391 415 437 415 514 C415 634 377 670 248 670 C98 670 53 636 53 523 C53 485 110 473 110 473 L170 473 L181 484 L181 539 C181 590 190 605 218 605 C263 605 276 581 276 502 C276 418 262 383 194 373 C178 372 161 371 142 370 L142 307 C283 317 309 297 309 175 C309 83 290 55 228 55 C178 55 163 70 163 120 L162 120 L162 120 Z " />
<glyph glyph-name="four" unicode="4" horiz-adv-x="461" d="M321 660 L228 528 C154 424 80 321 8 216 L8 187 L228 187 L228 51 L204 19 L204 1 L374 1 L374 19 L350 51 L350 187 L448 187 L448 283 L350 283 L350 661 L321 660 L321 660 Z M228 422 L228 283 L139 283 L228 422 L228 422 Z " />
<glyph glyph-name="five" unicode="5" horiz-adv-x="464" d="M369 660 L86 660 L86 327 C110 335 127 337 160 337 C280 337 316 301 316 180 C316 88 298 60 238 60 C201 60 181 72 153 112 C148 112 139 136 139 136 L124 136 C104 136 73 98 73 98 C54 84 48 89 48 60 C48 48 51 42 59 32 C82 0 109 -10 179 -10 C364 -10 419 47 419 239 C419 402 364 451 180 451 C168 451 161 450 155 449 L155 549 L369 549 L369 660 L369 660 Z " />
<glyph glyph-name="six" unicode="6" horiz-adv-x="472" d="M392 670 C119 587 38 486 38 231 C38 45 85 -10 242 -10 C396 -10 442 39 442 204 C442 346 409 388 297 388 C241 388 204 378 178 351 C193 516 251 585 392 628 L392 670 L392 670 Z M174 236 C184 279 199 292 241 292 C294 292 310 265 310 174 C310 84 294 57 242 57 C191 57 175 99 174 236 L174 236 Z " />
<glyph glyph-name="seven" unicode="7" horiz-adv-x="460" d="M50 660 L50 549 L320 549 C134 168 77 37 78 -1 L239 -1 C232 188 274 333 420 630 L420 659 L50 660 L50 660 Z " />
<glyph glyph-name="eight" unicode="8" horiz-adv-x="462" d="M268 393 C266 394 264 395 262 396 C180 434 173 461 173 541 C173 590 183 604 218 604 C273 604 290 578 290 493 C290 445 284 413 269 393 L268 393 L268 393 Z M339 354 C396 374 416 418 416 501 C416 630 374 669 233 669 C89 669 46 629 46 496 C46 412 53 368 118 323 C61 299 42 245 42 142 C42 25 86 -10 233 -10 C380 -10 424 32 424 174 C424 261 409 308 340 354 L339 354 L339 354 Z M190 283 C195 280 201 277 207 274 C290 235 305 206 305 130 C305 68 291 50 242 50 C189 50 173 79 173 176 C173 226 178 260 190 282 L190 283 L190 283 Z " />
<glyph glyph-name="nine" unicode="9" horiz-adv-x="469" d="M80 -10 C353 -10 434 4 434 429 C434 615 387 670 230 670 C76 670 30 639 30 465 C30 314 64 269 179 269 C235 269 270 282 297 318 C287 61 231 34 80 34 L80 -10 L80 -10 Z M298 426 C284 380 269 366 234 366 C182 366 167 389 167 466 C167 584 181 605 230 605 C281 605 297 563 298 426 L298 426 Z " />
<glyph glyph-name="colon" unicode="&#x3a;" horiz-adv-x="290" d="M145 290 C207 290 225 308 225 370 C225 432 207 450 145 450 C83 450 65 432 65 370 C65 308 83 290 145 290 L145 290 Z M145 -10 C207 -10 225 8 225 70 C225 132 207 150 145 150 C83 150 65 132 65 70 C65 8 83 -10 145 -10 L145 -10 Z " />
<glyph glyph-name="semicolon" unicode="&#x3b;" horiz-adv-x="269" d="M133 290 C195 290 213 308 213 370 C213 432 195 450 133 450 C71 450 53 432 53 370 C53 308 71 290 133 290 L133 290 Z M90 0 C134 -20 147 -41 147 -90 C147 -134 127 -155 60 -181 L60 -210 C182 -162 219 -121 219 -30 C219 53 202 86 143 113 C108 128 101 132 81 96 L44 34 L48 21 L90 0 L90 0 Z " />
<glyph glyph-name="equal" unicode="&#x3d;" horiz-adv-x="460" d="M40 195 L40 123 L420 123 L420 195 L40 195 L40 195 Z M40 421 L40 349 L420 349 L420 421 L40 421 L40 421 Z " />
<glyph glyph-name="question" unicode="&#x3f;" horiz-adv-x="448" d="M218 -5 C280 -5 298 13 298 75 C298 137 280 155 218 155 C156 155 138 137 138 75 C138 13 156 -5 218 -5 L218 -5 Z M166 520 C166 520 89 507 40 507 C40 463 53 450 95 450 L155 450 C155 450 162 464 166 464 L166 520 L166 520 Z M166 520 C166 586 171 606 186 606 C244 606 261 578 261 485 C261 420 239 388 165 345 C165 301 203 230 203 230 L232 230 C232 230 234 236 237 245 C357 316 393 373 393 485 C393 627 356 670 230 670 C84 670 40 633 40 507 L166 520 L166 520 Z " />
<glyph glyph-name="A" unicode="A" horiz-adv-x="608" d="M148 18 L129 50 L127 50 C137 82 153 130 176 197 L176 187 L373 187 L373 191 C384 161 423 50 423 50 L401 18 L401 0 L575 0 L576 0 L589 0 L589 16 L559 45 L557 45 C502 189 345 626 345 626 L331 665 L262 665 C130 310 62 128 33 49 L-3 17 L-3 -1 L148 -1 L148 18 L148 18 Z M347 265 L201 265 C221 322 245 390 274 469 C295 410 321 336 347 264 L347 265 L347 265 Z M577 -2 L577 -2 L577 -2 Z " />
<glyph glyph-name="B" unicode="B" horiz-adv-x="542" d="M407 362 C452 390 469 435 469 504 C469 624 440 660 281 660 L65 660 L65 641 L94 605 L94 55 L65 19 L65 0 L269 0 C441 0 492 50 492 216 C492 296 476 341 408 363 L407 362 L407 362 Z M224 381 L224 581 C238 581 249 581 250 581 C322 581 335 555 335 469 C335 408 309 386 224 382 L224 381 L224 381 Z M224 80 L224 301 L276 301 C346 301 359 279 359 205 C359 109 339 80 270 80 L224 80 L224 80 Z " />
<glyph glyph-name="C" unicode="C" horiz-adv-x="681" d="M579 156 C560 140 529 117 512 102 C470 71 436 61 379 61 C243 61 203 127 203 350 C203 540 246 597 389 597 C442 597 470 585 510 543 L511 544 C529 528 543 517 562 501 L580 501 L578 625 L544 584 L544 584 L578 625 C545 659 502 669 388 669 C142 669 68 586 68 306 C68 62 139 -11 378 -11 C498 -11 546 0 589 36 L593 155 L579 156 L579 156 Z " />
<glyph glyph-name="D" unicode="D" horiz-adv-x="695" d="M319 0 C555 8 625 65 625 363 C625 615 549 660 294 660 L65 660 L65 641 L94 605 L94 55 L65 19 L65 0 L319 0 L319 0 Z M223 79 L223 581 C243 581 258 582 258 582 C437 582 490 541 490 314 C490 120 450 84 316 79 L223 79 L223 79 Z " />
<glyph glyph-name="E" unicode="E" horiz-adv-x="568" d="M419 79 L223 79 L223 300 L323 300 L365 271 L388 271 L388 409 L365 409 L323 380 L223 380 L223 581 L395 581 L452 539 L469 539 C470 555 470 568 470 581 L473 581 L473 660 L65 660 L65 641 L94 605 L94 55 L65 19 L65 0 L498 0 L498 79 L495 79 C494 93 493 107 492 125 L475 125 L419 79 L419 79 Z " />
<glyph glyph-name="F" unicode="F" horiz-adv-x="503" d="M323 300 L365 271 L388 271 L388 409 L365 409 L323 380 L223 380 L223 581 L385 581 L442 539 L459 539 C460 555 460 568 460 581 L463 581 L463 660 L65 660 L65 641 L94 605 L94 55 L65 19 L65 0 L258 0 L258 19 L223 55 L223 300 L323 300 L323 300 Z " />
<glyph glyph-name="G" unicode="G" horiz-adv-x="664" d="M572 502 L570 626 L536 585 L536 585 L570 626 C535 660 489 670 370 670 C116 670 40 587 40 307 C40 63 112 -10 352 -10 C461 -10 515 16 589 104 L589 235 L617 271 L617 290 L429 290 L429 271 L460 235 L460 86 C442 78 421 75 391 75 C223 75 173 138 173 351 C173 541 218 598 369 598 C427 598 457 586 500 544 L501 545 C517 531 534 518 553 502 L572 502 L572 502 Z " />
<glyph glyph-name="H" unicode="H" horiz-adv-x="678" d="M613 0 L613 19 L584 55 L584 605 L613 641 L613 660 L426 660 L426 641 L455 605 L455 380 L223 380 L223 605 L252 641 L252 660 L65 660 L65 641 L94 605 L94 55 L65 19 L65 0 L252 0 L252 19 L223 55 L223 300 L455 300 L455 55 L426 19 L426 0 L613 0 L613 0 Z " />
<glyph glyph-name="I" unicode="I" horiz-adv-x="328" d="M258 0 L258 19 L229 55 L229 605 L258 641 L258 660 L70 660 L70 641 L99 605 L99 55 L70 19 L70 0 L258 0 L258 0 Z " />
<glyph glyph-name="J" unicode="J" horiz-adv-x="328" d="M99 605 L99 50 C99 -42 90 -69 58 -69 C58 -69 19 -66 -18 -56 L-24 -56 C-24 -56 -38 -131 -38 -137 C-38 -165 -27 -173 9 -173 C178 -173 228 -81 228 228 C229 227 229 488 229 605 L258 641 L258 660 L70 660 L70 641 L99 605 L99 605 Z " />
<glyph glyph-name="K" unicode="K" horiz-adv-x="678" d="M640 14 L604 40 L339 374 C414 456 488 539 563 621 L601 647 L601 661 L428 661 L428 643 L433 611 L433 611 L224 339 L474 1 L639 1 L640 14 L640 14 Z M252 1 L252 20 L223 56 L223 606 L252 642 L252 661 L65 661 L65 642 L94 606 L94 56 L65 20 L65 1 L252 1 L252 1 Z " />
<glyph glyph-name="L" unicode="L" horiz-adv-x="552" d="M479 79 C478 98 477 116 476 140 L458 140 L398 79 L222 79 L222 605 L253 641 L253 660 L64 660 L64 641 L93 605 L93 55 L64 19 L64 0 L481 0 L481 79 L479 79 L479 79 Z " />
<glyph glyph-name="M" unicode="M" horiz-adv-x="837" d="M80 641 L111 605 L91 55 L60 19 L60 0 L207 0 L207 19 L177 55 L187 464 L364 -4 L429 -4 L611 464 L626 56 L599 20 L599 1 L776 1 L776 20 L749 56 L728 606 L758 642 L758 661 L603 661 L427 181 L249 661 L79 661 L80 641 L80 641 Z " />
<glyph glyph-name="N" unicode="N" horiz-adv-x="670" d="M63 641 L91 605 L91 55 L62 19 L62 0 L228 0 L228 19 L191 55 L191 441 C303 292 415 143 527 -5 L581 -5 L581 605 L609 641 L609 660 L444 660 L444 641 L481 605 L481 271 L191 660 L63 660 L63 641 L63 641 Z " />
<glyph glyph-name="O" unicode="O" horiz-adv-x="777" d="M208 375 C208 548 244 600 363 600 C522 600 570 526 570 277 C570 111 535 62 418 62 C256 62 208 134 208 375 L208 375 Z M70 324 C70 67 143 -10 389 -10 C634 -10 707 68 707 328 C707 591 634 670 389 670 C143 670 70 590 70 324 L70 324 Z " />
<glyph glyph-name="P" unicode="P" horiz-adv-x="553" d="M258 0 L258 19 L223 55 L223 277 L262 277 C432 277 483 323 483 475 C483 617 438 660 287 660 L65 660 L65 641 L94 605 L94 55 L65 19 L65 0 L258 0 L258 0 Z M223 357 L223 581 C240 581 254 581 255 581 C325 581 346 554 346 464 C346 381 334 356 292 356 C292 356 273 357 224 357 L223 357 L223 357 Z " />
<glyph glyph-name="Q" unicode="Q" horiz-adv-x="777" d="M804 -119 L804 -97 C787 -107 768 -110 722 -110 C666 -110 612 -29 549 8 C668 44 708 137 708 328 C708 591 635 670 390 670 C144 670 71 590 71 324 C71 56 155 -17 418 -10 C495 -63 563 -158 634 -158 C714 -158 753 -149 805 -119 L804 -119 L804 -119 Z M209 375 C209 548 245 600 364 600 C523 600 571 526 571 277 C571 111 536 62 419 62 C257 62 209 134 209 375 L209 375 Z " />
<glyph glyph-name="R" unicode="R" horiz-adv-x="582" d="M571 18 L531 50 L374 288 C457 309 485 363 485 475 C485 617 440 660 288 660 L66 660 L66 641 L95 605 L95 55 L66 19 L66 0 L252 0 L252 19 L224 55 L224 277 L228 277 L410 0 L572 0 L571 18 L571 18 Z M224 357 L224 581 C241 581 255 581 256 581 C325 581 345 554 345 464 C345 381 333 356 292 356 C292 356 273 357 224 357 L224 357 Z " />
<glyph glyph-name="S" unicode="S" horiz-adv-x="506" d="M107 69 C108 68 108 68 107 68 L107 69 L107 69 Z M331 577 C336 571 351 554 378 524 C386 515 392 510 400 501 L421 501 L417 627 C393 659 359 668 267 668 C125 668 83 625 83 482 C83 384 103 363 212 292 C309 229 327 213 327 157 C327 79 312 56 263 56 C212 56 181 69 135 113 C130 118 125 123 119 131 C106 149 97 160 84 178 L63 178 L66 31 C100 -2 144 -12 261 -12 C406 -12 449 34 449 190 C449 293 427 316 307 394 C224 448 209 463 209 529 C209 583 219 599 252 599 C286 599 308 593 328 576 L331 577 L331 577 Z " />
<glyph glyph-name="T" unicode="T" horiz-adv-x="622" d="M32 620 C33 585 34 564 35 528 L53 528 L114 581 L246 581 L246 55 L209 19 L209 0 L413 0 L413 19 L376 55 L376 581 L506 581 L567 528 L585 528 C586 549 587 565 588 582 L589 582 L589 661 L33 661 L32 620 L32 620 Z " />
<glyph glyph-name="U" unicode="U" horiz-adv-x="666" d="M84 605 L84 234 C84 46 140 -10 328 -10 C516 -10 572 46 572 234 L572 605 L601 641 L601 660 L435 660 L435 641 L472 605 L472 203 C472 103 448 73 367 73 C248 73 213 115 213 257 L213 605 L242 641 L242 660 L55 660 L55 641 L84 605 L84 605 Z " />
<glyph glyph-name="V" unicode="V" horiz-adv-x="648" d="M611 660 L467 660 L467 641 L483 605 L483 605 L265 21 L274 -5 L340 -5 L585 621 L611 646 L611 660 L611 660 Z M224 660 L36 660 L36 642 L67 610 L265 21 L321 171 L199 605 L224 641 L224 660 L224 660 Z " />
<glyph glyph-name="W" unicode="W" horiz-adv-x="877" d="M207 660 L17 660 L17 642 L45 610 L46 610 C97 405 149 201 199 -5 L258 -5 C317 143 376 291 435 439 C482 291 528 142 575 -6 L632 -6 L638 14 L829 620 L857 645 L857 659 L706 659 L706 640 L727 604 L611 203 C570 357 528 510 487 664 L423 664 C367 510 308 357 251 203 L176 604 L206 640 L207 660 L207 660 Z " />
<glyph glyph-name="X" unicode="X" horiz-adv-x="670" d="M418 0 L628 0 L628 16 L595 44 L396 345 L586 615 L621 643 L621 659 L489 659 L489 640 L495 604 L357 405 L225 605 L233 641 L233 660 L34 660 L34 642 L70 610 L253 322 C189 231 125 140 61 49 L22 17 L22 -1 L165 -1 L165 18 C164 22 156 54 154 54 L292 260 L423 54 L418 18 L418 0 L418 0 Z " />
<glyph glyph-name="Y" unicode="Y" horiz-adv-x="638" d="M204 660 L27 660 L27 642 L63 610 L258 315 L258 55 L225 19 L225 0 L420 0 L420 19 L387 55 L387 321 C447 421 507 521 568 620 L598 646 L598 660 L454 660 L454 641 C455 638 462 605 464 605 L341 397 C295 466 248 535 202 604 L205 640 L204 660 L204 660 Z " />
<glyph glyph-name="Z" unicode="Z" horiz-adv-x="606" d="M96 620 C97 588 98 568 99 535 L117 535 L178 581 L359 581 C268 399 178 216 86 35 L86 -1 L516 -1 L516 78 L514 78 C513 93 512 108 511 128 L493 128 L432 78 L234 78 C323 255 412 432 501 609 L501 658 L96 658 L96 620 L96 620 Z " />
<glyph glyph-name="bracketleft" unicode="&#x5b;" horiz-adv-x="274" d="M156 707 L269 707 L269 740 L67 740 L67 -150 L269 -150 L269 -117 L156 -117 L156 707 L156 707 Z " />
<glyph glyph-name="backslash" unicode="&#x5c;" horiz-adv-x="294" d="M222 -120 L294 -120 L72 750 L0 750 L222 -120 L222 -120 Z " />
<glyph glyph-name="bracketright" unicode="&#x5d;" horiz-adv-x="269" d="M115 707 L115 -117 L5 -117 L5 -150 L204 -150 L204 740 L5 740 L5 707 L115 707 L115 707 Z " />
<glyph glyph-name="asciicircum" unicode="&#x5e;" horiz-adv-x="290" d="M293 530 L160 705 L130 705 L2 530 L19 530 L145 608 L276 530 L293 530 L293 530 Z " />
<glyph glyph-name="underscore" unicode="&#x5f;" horiz-adv-x="460" d="M25 -86 L25 -157 L435 -157 L435 -86 L25 -86 L25 -86 Z " />
<glyph glyph-name="grave" unicode="&#x60;" horiz-adv-x="290" d="M152 530 L82 707 L-33 707 C-33 707 -24 641 8 619 L135 530 L152 530 L152 530 Z " />
<glyph glyph-name="a" unicode="a" horiz-adv-x="457" d="M169 339 C169 379 172 393 179 393 C226 393 235 377 235 322 L235 255 C70 204 39 168 39 93 C39 14 59 -10 128 -10 C184 -10 212 -2 242 39 C254 2 283 -10 341 -10 C403 -10 429 8 452 68 L447 76 L413 76 C364 76 350 79 350 90 C350 295 351 353 351 353 C351 435 330 460 216 460 C95 460 50 425 50 331 C50 299 57 289 80 291 L164 291 L169 296 L169 339 L169 339 Z M235 203 L235 100 C235 94 235 89 235 84 C224 80 209 79 188 79 C160 79 151 89 151 121 C151 159 165 178 235 202 L235 203 L235 203 Z " />
<glyph glyph-name="b" unicode="b" horiz-adv-x="492" d="M62 -10 L71 -10 C71 -10 88 0 108 14 C126 -4 163 -10 240 -10 C396 -10 443 51 443 255 C443 413 409 460 294 460 C239 460 206 451 178 425 L178 749 L155 749 L65 711 L63 711 L63 710 L39 700 L39 694 L43 683 C58 637 63 624 63 623 L62 -10 L62 -10 Z M178 114 L178 352 C183 360 191 362 213 362 C302 362 328 330 328 223 C328 96 317 58 278 58 C216 58 193 71 178 114 L178 114 Z " />
<glyph glyph-name="c" unicode="c" horiz-adv-x="437" d="M393 126 L393 139 L389 139 C352 107 332 97 300 97 C195 97 164 136 164 265 C164 361 178 390 224 390 C248 390 260 381 278 351 L307 302 L314 302 L385 336 C390 341 392 351 392 381 C392 397 390 404 385 413 C364 449 334 460 257 460 C98 460 50 400 50 200 C50 38 93 -10 239 -10 C321 -10 360 21 393 126 L393 126 Z " />
<glyph glyph-name="d" unicode="d" horiz-adv-x="498" d="M451 0 L451 18 L425 50 L425 752 L402 752 L286 715 L286 710 L290 700 C305 659 310 647 310 646 L310 458 C296 459 280 459 262 459 C97 459 48 397 48 190 C48 35 81 -11 190 -11 C250 -11 281 2 311 44 C315 23 324 -1 324 -1 L451 0 L451 0 Z M310 341 L310 97 C301 89 290 86 272 86 C188 86 163 118 163 227 C163 353 182 390 245 390 C245 390 261 378 311 341 L310 341 L310 341 Z " />
<glyph glyph-name="e" unicode="e" horiz-adv-x="443" d="M165 307 C169 372 186 393 227 393 C265 393 282 372 287 307 L165 307 L165 307 Z M392 126 L392 139 L388 139 C351 107 331 97 299 97 C201 97 167 131 163 240 L341 240 L392 247 C392 411 357 460 238 460 C92 460 49 400 49 200 C49 38 92 -10 238 -10 C320 -10 359 21 392 126 L392 126 Z " />
<glyph glyph-name="f" unicode="f" horiz-adv-x="347" d="M230 0 L230 18 L206 50 C206 122 206 259 206 382 L312 382 L312 450 L206 450 C206 551 206 629 206 629 L206 611 C206 623 211 631 226 631 C257 631 271 629 288 621 C306 613 315 610 315 610 L322 610 L355 694 C363 715 362 726 331 740 C331 740 311 750 299 750 C170 750 90 650 90 490 L90 450 L39 450 L39 382 L90 382 L90 50 L66 18 L66 0 L230 0 L230 0 Z " />
<glyph glyph-name="g" unicode="g" horiz-adv-x="514" d="M161 144 C182 138 208 136 240 136 C379 136 404 174 404 302 C404 335 401 362 394 384 L463 372 L463 450 L345 443 C320 455 286 460 240 460 C102 460 77 423 77 300 C77 228 89 185 122 161 C76 143 61 118 61 69 C61 17 73 -9 109 -19 C66 -37 52 -80 52 -125 C52 -214 91 -240 220 -240 C383 -240 432 -196 432 -49 C432 46 424 75 324 75 L198 75 C171 75 163 84 163 116 C163 139 160 145 160 145 L161 144 L161 144 Z M196 305 C196 381 201 404 231 404 C273 404 286 380 286 299 C286 219 282 195 257 195 C210 195 196 220 196 305 L196 305 Z M162 -24 L266 -24 C322 -24 327 -37 327 -79 C327 -171 306 -198 235 -198 C173 -198 155 -177 155 -108 C155 -45 157 -24 162 -24 L162 -24 Z " />
<glyph glyph-name="h" unicode="h" horiz-adv-x="476" d="M437 0 L437 18 L413 50 L413 343 C413 433 388 460 305 460 C248 460 229 443 189 389 L189 750 L166 750 L76 712 L74 712 L74 711 L50 701 L50 695 L54 684 C69 638 74 625 74 624 L74 50 L50 18 L50 0 L213 0 L213 18 L189 50 L189 345 C199 356 210 359 241 359 C285 359 298 340 298 277 L298 50 L274 18 L274 0 L437 0 L437 0 Z " />
<glyph glyph-name="i" unicode="i" horiz-adv-x="269" d="M129 610 C191 610 209 628 209 690 C209 752 191 770 129 770 C67 770 49 752 49 690 C49 628 67 610 129 610 L129 610 Z M219 0 L219 18 L193 50 L193 460 L170 460 L80 422 L78 422 L78 421 L54 411 L54 405 L58 394 C73 348 78 335 78 334 L78 50 L54 18 L54 0 L219 0 L219 0 Z " />
<glyph glyph-name="j" unicode="j" horiz-adv-x="269" d="M135 610 C197 610 215 628 215 690 C215 752 197 770 135 770 C73 770 55 752 55 690 C55 628 73 610 135 610 L135 610 Z M15 -211 L15 -236 C225 -105 193 -96 193 2 L193 460 L170 460 L80 422 L78 422 L78 421 L54 411 L54 405 L58 394 C73 348 78 335 78 334 L78 -14 C78 -135 105 -155 15 -211 L15 -211 Z " />
<glyph glyph-name="k" unicode="k" horiz-adv-x="497" d="M462 18 L427 50 L269 283 L393 401 L436 432 C438 436 445 450 445 450 L320 450 L320 429 L304 390 C300 381 300 379 305 384 L189 256 L189 761 L166 761 L76 723 L74 723 L74 722 L50 712 L50 706 L54 695 C69 649 74 636 74 635 L74 51 L50 19 L50 1 L215 1 L215 19 L189 51 L189 234 L306 1 L462 1 L462 18 L462 18 Z " />
<glyph glyph-name="l" unicode="l" horiz-adv-x="250" d="M207 0 L207 18 L183 50 L183 760 L160 760 L70 722 L68 722 L68 721 L44 711 L44 705 L48 694 C63 648 68 635 68 634 L68 50 L44 18 L44 0 L207 0 L207 0 Z " />
<glyph glyph-name="m" unicode="m" horiz-adv-x="683" d="M644 0 L644 18 L620 50 L620 343 C620 433 596 460 515 460 C459 460 441 442 397 382 C390 442 362 461 295 461 C242 461 224 443 182 385 C181 420 180 460 180 460 L157 460 L47 411 L47 405 L51 394 C66 348 71 335 71 334 L71 50 L47 18 L47 0 L210 0 L210 18 L186 50 L186 345 C196 356 206 359 233 359 C273 359 285 340 285 277 L285 50 L259 18 L259 0 L426 0 L426 18 L400 50 L400 340 C412 354 424 359 454 359 C495 359 507 340 507 277 L507 50 L481 18 L481 0 L644 0 L644 0 Z " />
<glyph glyph-name="n" unicode="n" horiz-adv-x="476" d="M437 0 L437 18 L413 50 L413 343 C413 433 388 460 305 460 C246 460 228 442 186 384 C185 419 184 459 184 459 L161 459 L51 410 L51 404 L55 393 C70 347 75 334 75 333 L75 49 L51 17 L51 -1 L216 -1 L216 17 L190 49 L190 344 C200 355 211 358 242 358 C286 358 299 339 299 276 L299 49 L273 17 L273 -1 L437 0 L437 0 Z " />
<glyph glyph-name="o" unicode="o" horiz-adv-x="508" d="M182 225 C182 360 190 400 234 400 C305 400 326 360 326 225 C326 90 318 50 274 50 C203 50 182 90 182 225 L182 225 Z M50 225 C50 44 97 -10 254 -10 C427 -10 458 44 458 225 C458 406 411 460 254 460 C81 460 50 406 50 225 L50 225 Z " />
<glyph glyph-name="p" unicode="p" horiz-adv-x="500" d="M185 400 C184 431 183 461 183 461 L160 461 L75 423 L74 423 L74 423 L50 412 L50 406 L54 395 C69 349 74 336 74 335 L74 -179 L50 -211 L50 -229 L215 -229 L215 -211 L189 -179 L189 -8 C201 -8 216 -8 234 -8 C400 -8 450 53 450 256 C450 415 418 462 313 462 C257 462 226 447 184 401 L185 400 L185 400 Z M188 102 L188 356 C198 362 210 364 230 364 C312 364 337 327 337 203 C337 93 322 60 272 60 C246 60 227 70 188 102 L188 102 Z " />
<glyph glyph-name="q" unicode="q" horiz-adv-x="507" d="M468 -230 L468 -212 L444 -180 L444 460 L435 460 L397 442 C372 455 339 459 275 459 C102 459 50 397 50 190 C50 35 85 -11 201 -11 C239 -11 269 4 329 53 L329 -180 L303 -212 L303 -230 L468 -230 L468 -230 Z M329 347 L329 104 C311 91 299 87 282 87 C191 87 164 119 164 228 C164 354 185 391 256 391 C269 391 288 380 330 347 L329 347 L329 347 Z " />
<glyph glyph-name="r" unicode="r" horiz-adv-x="352" d="M276 460 C246 460 230 440 189 375 L189 377 L186 377 C184 413 183 459 183 459 L160 459 L50 410 L50 404 L54 393 C69 347 74 334 74 333 L74 49 L50 17 L50 -1 L215 -1 L215 17 L189 49 L189 326 C199 341 203 346 205 346 C229 346 243 343 267 333 C282 326 305 312 305 312 L312 312 C343 375 352 397 352 408 C352 423 346 432 329 445 C316 457 293 459 276 459 L276 460 L276 460 Z " />
<glyph glyph-name="s" unicode="s" horiz-adv-x="403" d="M61 54 L61 54 L61 54 L61 54 Z M298 342 C304 342 310 341 317 341 L319 427 C275 452 246 460 195 460 C103 460 76 429 76 327 C76 224 89 211 158 186 C221 164 232 154 232 91 C232 53 222 41 190 41 C180 41 167 44 144 53 C127 62 111 76 90 99 C85 104 82 108 77 113 C73 113 69 114 64 114 L63 89 L63 89 L62 17 C108 -5 140 -11 199 -11 C304 -11 335 21 335 127 C335 237 321 250 244 278 C189 298 179 306 179 369 C179 395 185 403 203 403 C216 403 232 398 260 384 C271 375 289 356 301 340 L298 342 L298 342 Z " />
<glyph glyph-name="t" unicode="t" horiz-adv-x="353" d="M323 82 L319 96 C318 93 305 92 262 92 C218 92 205 104 205 144 L205 382 L311 382 L311 450 L205 450 L205 573 L196 573 L90 450 L18 391 L18 382 L90 382 L90 120 C90 20 116 -10 203 -10 C266 -10 294 11 323 82 L323 82 Z " />
<glyph glyph-name="u" unicode="u" horiz-adv-x="438" d="M274 400 L274 105 C261 97 247 95 221 95 C177 95 164 114 164 176 L164 450 L25 450 L25 432 L49 400 L49 107 C49 17 73 -10 155 -10 C192 -10 215 1 273 58 L273 1 L414 1 L414 19 L388 51 L388 451 L247 451 L247 433 L274 400 L274 400 Z " />
<glyph glyph-name="v" unicode="v" horiz-adv-x="464" d="M175 450 L-2 450 L-2 432 L31 400 L185 14 L191 0 L222 0 L385 396 L421 431 L421 450 L298 450 L298 431 L316 395 L242 181 C213 254 184 327 155 400 L175 432 L175 450 L175 450 Z " />
<glyph glyph-name="w" unicode="w" horiz-adv-x="722" d="M570 431 L588 395 L510 173 C465 265 420 357 375 449 L349 449 L345 437 L228 167 L157 399 L182 431 L182 449 L6 449 L6 431 L37 399 C80 266 124 133 165 -1 L202 -1 L332 275 C375 183 416 90 461 -1 L491 -1 L655 394 L692 430 L692 449 L569 449 L570 431 L570 431 Z " />
<glyph glyph-name="x" unicode="x" horiz-adv-x="468" d="M407 450 L303 450 L303 432 L308 400 L249 302 L187 400 L196 432 L196 450 L36 450 L36 432 L66 400 L66 400 L176 220 L68 50 L34 18 L34 0 L143 0 L143 18 L131 50 L202 178 L280 50 L275 19 L275 1 L439 1 L439 19 L408 51 L408 51 L273 265 C306 310 338 355 371 400 L405 432 C406 436 407 448 407 449 L407 450 L407 450 Z " />
<glyph glyph-name="y" unicode="y" horiz-adv-x="421" d="M182 450 L5 450 L5 432 L37 400 L37 400 L186 14 L161 -52 C139 -115 135 -120 99 -120 L33 -120 L29 -124 L29 -198 C29 -237 33 -240 78 -240 C152 -240 162 -227 216 -71 L391 396 L426 431 L426 450 L312 450 L312 431 L328 395 L328 395 L246 177 L160 400 L181 432 L182 450 L182 450 Z " />
<glyph glyph-name="z" unicode="z" horiz-adv-x="433" d="M58 348 L75 348 L111 385 L209 385 C158 265 107 145 55 26 L55 0 L358 0 L358 32 L359 32 L359 104 L342 104 L309 65 L195 65 C247 185 298 306 351 426 L351 450 L117 450 L77 454 L67 454 C67 453 67 452 67 451 L66 451 C66 415 62 385 59 350 L58 348 L58 348 Z " />
<glyph glyph-name="braceleft" unicode="&#x7b;" horiz-adv-x="239" d="M138 297 C180 319 195 363 195 442 C195 519 131 565 131 642 C131 718 148 720 205 718 L234 717 L234 750 L215 750 C75 750 33 757 33 596 C33 525 110 483 110 412 C110 335 94 314 34 314 L14 314 L14 280 L34 280 C93 280 110 259 110 190 C110 120 33 78 33 8 C33 -169 75 -156 215 -156 L234 -156 L234 -123 L204 -125 C148 -129 131 -125 131 -38 C131 39 195 84 195 161 C195 236 180 277 138 297 L138 297 Z " />
<glyph glyph-name="bar" unicode="&#x7c;" horiz-adv-x="236" d="M64 -260 L136 -260 L136 760 L64 760 L64 -260 L64 -260 Z " />
<glyph glyph-name="braceright" unicode="&#x7d;" horiz-adv-x="240" d="M235 314 L215 314 C155 314 139 335 139 412 C139 483 215 525 215 596 C215 757 173 750 34 750 L15 750 L15 717 L44 718 C101 720 118 718 118 642 C118 565 53 519 53 442 C53 363 68 319 111 298 C69 278 54 237 54 163 C54 86 118 41 118 -36 C118 -123 101 -127 45 -123 L15 -121 L15 -154 L34 -154 C174 -154 216 -167 216 10 C216 80 139 122 139 192 C139 261 156 282 215 282 L235 282 L235 314 L235 314 Z " />
<glyph glyph-name="asciitilde" unicode="&#x7e;" horiz-adv-x="290" d="M27 225 C40 264 41 275 60 275 C112 275 144 214 196 214 C244 214 248 245 282 350 L263 350 C250 310 249 298 230 298 C178 298 146 359 94 359 C45 359 42 328 8 225 L27 225 L27 225 Z " />
<glyph glyph-name="exclamdown" unicode="&#xa1;" horiz-adv-x="283" d="M149 460 C87 460 69 442 69 380 C69 318 87 300 149 300 C211 300 229 318 229 380 C229 442 211 460 149 460 L149 460 Z M80 -210 L218 -210 L163 220 L135 220 L80 -210 L80 -210 Z " />
<glyph glyph-name="cent" unicode="&#xa2;" horiz-adv-x="437" d="M393 126 L393 139 L389 139 C352 107 332 97 300 97 C280 97 262 98 247 101 L247 385 C258 380 267 369 278 350 L307 301 L314 301 L385 335 C390 340 392 350 392 380 C392 396 390 403 385 412 C363 449 327 460 247 459 L247 519 L188 519 L188 454 C84 436 50 367 50 200 C50 59 83 4 188 -8 L188 -80 L247 -80 L247 -10 C323 -8 360 25 392 126 L393 126 L393 126 Z M187 139 C170 165 163 205 163 264 C163 328 169 362 187 378 L187 139 L187 139 Z " />
<glyph glyph-name="guillemotleft" unicode="&#xab;" horiz-adv-x="380" d="M346 425 L176 248 L346 70 L360 70 L304 248 L360 425 L346 425 L346 425 Z M187 425 L17 248 L187 70 L201 70 L145 248 L201 425 L187 425 L187 425 Z " />
<glyph glyph-name="acute" unicode="&#xb4;" horiz-adv-x="290" d="M144 530 L161 530 L288 619 C320 641 329 707 329 707 L214 707 L144 530 L144 530 Z " />
<glyph glyph-name="periodcentered" unicode="&#xb7;" horiz-adv-x="290" d="M145 210 C207 210 225 228 225 290 C225 352 207 370 145 370 C83 370 65 352 65 290 C65 228 83 210 145 210 L145 210 Z " />
<glyph glyph-name="guillemotright" unicode="&#xbb;" horiz-adv-x="386" d="M179 425 L238 248 L179 70 L193 70 L366 248 L193 425 L179 425 L179 425 Z M20 425 L79 248 L20 70 L34 70 L207 248 L34 425 L20 425 L20 425 Z " />
<glyph glyph-name="questiondown" unicode="&#xbf;" horiz-adv-x="448" d="M230 455 C168 455 150 437 150 375 C150 313 168 295 230 295 C292 295 310 313 310 375 C310 437 292 455 230 455 L230 455 Z M282 -70 C282 -70 359 -57 408 -57 C408 -13 395 0 353 0 L293 0 C293 0 286 -14 282 -14 L282 -70 L282 -70 Z M282 -70 C282 -136 277 -156 262 -156 C204 -156 187 -128 187 -35 C187 30 209 62 283 105 C283 149 245 220 245 220 L216 220 C216 220 214 214 211 205 C91 134 55 77 55 -35 C55 -177 92 -220 218 -220 C364 -220 408 -183 408 -57 L282 -70 L282 -70 Z " />
<glyph glyph-name="Agrave" unicode="&#xc0;" horiz-adv-x="661" d="M334 705 L264 864 L149 864 C149 864 158 805 190 785 L317 705 L334 705 L334 705 Z M181 18 L162 50 L160 50 C170 82 186 130 209 197 L209 187 L406 187 L406 191 C417 161 456 50 456 50 L434 18 L434 0 L608 0 L609 0 L622 0 L622 16 L592 45 L590 45 C535 189 378 626 378 626 L364 665 L295 665 C163 310 95 128 66 49 L30 17 L30 -1 L181 -1 L181 18 L181 18 Z M380 265 L234 265 C254 322 278 390 307 469 C328 410 354 336 380 264 L380 265 L380 265 Z M610 -2 L610 -2 L610 -2 Z " />
<glyph glyph-name="Aacute" unicode="&#xc1;" horiz-adv-x="661" d="M325 705 L342 705 L469 785 C501 805 510 864 510 864 L395 864 L325 705 L325 705 Z M181 18 L162 50 L160 50 C170 82 186 130 209 197 L209 187 L406 187 L406 191 C417 161 456 50 456 50 L434 18 L434 0 L608 0 L609 0 L622 0 L622 16 L592 45 L590 45 C535 189 378 626 378 626 L364 665 L295 665 C163 310 95 128 66 49 L30 17 L30 -1 L181 -1 L181 18 L181 18 Z M380 265 L234 265 C254 322 278 390 307 469 C328 410 354 336 380 264 L380 265 L380 265 Z M610 -2 L610 -2 L610 -2 Z " />
<glyph glyph-name="Acircumflex" unicode="&#xc2;" horiz-adv-x="661" d="M480 705 L479 706 L480 706 L480 705 L480 705 Z M181 18 L162 50 L160 50 C170 82 186 130 209 197 L209 187 L406 187 L406 191 C417 161 456 50 456 50 L434 18 L434 0 L608 0 L609 0 L622 0 L622 16 L592 45 L590 45 C535 189 378 626 378 626 L364 665 L295 665 C163 310 95 128 66 49 L30 17 L30 -1 L181 -1 L181 18 L181 18 Z M347 862 L317 862 L188 705 L205 705 L332 776 L463 705 L479 705 L347 862 L347 862 Z M380 265 L234 265 C254 322 278 390 307 469 C328 410 354 336 380 264 L380 265 L380 265 Z M610 -2 L610 -2 L610 -2 Z " />
<glyph glyph-name="Atilde" unicode="&#xc3;" horiz-adv-x="661" d="M219 728 C232 763 233 773 252 773 C304 773 335 718 387 718 C435 718 439 746 473 841 L454 841 C441 805 440 794 421 794 C369 794 338 849 286 849 C237 849 234 821 200 728 L219 728 L219 728 Z M181 18 L162 50 L160 50 C170 82 186 130 209 197 L209 187 L406 187 L406 191 C417 161 456 50 456 50 L434 18 L434 0 L608 0 L609 0 L622 0 L622 16 L592 45 L590 45 C535 189 378 626 378 626 L364 665 L295 665 C163 310 95 128 66 49 L30 17 L30 -1 L181 -1 L181 18 L181 18 Z M380 265 L234 265 C254 322 278 390 307 469 C328 410 354 336 380 264 L380 265 L380 265 Z M610 -2 L610 -2 L610 -2 Z " />
<glyph glyph-name="Adieresis" unicode="&#xc4;" horiz-adv-x="661" d="M439 735 C494 735 511 752 511 807 C511 862 494 879 439 879 C384 879 367 862 367 807 C367 752 384 735 439 735 L439 735 Z M224 735 C279 735 296 752 296 807 C296 862 279 879 224 879 C169 879 152 862 152 807 C152 752 169 735 224 735 L224 735 Z M181 18 L162 50 L160 50 C170 82 186 130 209 197 L209 187 L406 187 L406 191 C417 161 456 50 456 50 L434 18 L434 0 L608 0 L609 0 L622 0 L622 16 L592 45 L590 45 C535 189 378 626 378 626 L364 665 L295 665 C163 310 95 128 66 49 L30 17 L30 -1 L181 -1 L181 18 L181 18 Z M380 265 L234 265 C254 322 278 390 307 469 C328 410 354 336 380 264 L380 265 L380 265 Z M610 -2 L610 -2 L610 -2 Z " />
<glyph glyph-name="Aring" unicode="&#xc5;" horiz-adv-x="661" d="M312 809 C312 843 316 853 328 853 C346 853 351 839 351 790 C351 758 347 744 337 744 C320 744 312 764 312 809 L312 809 Z M241 799 C241 737 269 710 332 710 C394 710 422 738 422 802 C422 867 401 887 332 887 C262 887 241 867 241 799 L241 799 Z M181 18 L162 50 L160 50 C170 82 186 130 209 197 L209 187 L406 187 L406 191 C417 161 456 50 456 50 L434 18 L434 0 L608 0 L609 0 L622 0 L622 16 L592 45 L590 45 C535 189 378 626 378 626 L364 665 L295 665 C163 310 95 128 66 49 L30 17 L30 -1 L181 -1 L181 18 L181 18 Z M380 265 L234 265 C254 322 278 390 307 469 C328 410 354 336 380 264 L380 265 L380 265 Z M610 -2 L610 -2 L610 -2 Z " />
<glyph glyph-name="Ccedilla" unicode="&#xc7;" horiz-adv-x="681" d="M579 156 C560 140 529 117 512 102 C470 71 436 61 379 61 C243 61 203 127 203 350 C203 540 246 597 389 597 C442 597 470 585 510 543 L511 544 C529 528 543 517 562 501 L580 501 L578 625 L544 584 L544 584 L578 625 C545 659 502 669 388 669 C142 669 68 586 68 306 C68 67 136 -8 363 -11 C358 -23 345 -56 319 -128 L363 -144 C373 -145 376 -152 376 -173 C376 -195 370 -201 352 -201 C323 -201 311 -196 299 -181 L299 -196 C326 -231 343 -241 372 -241 C441 -241 462 -220 462 -150 C462 -92 446 -66 397 -54 C406 -30 411 -16 414 -9 C508 -7 550 5 588 37 L592 156 L579 156 L579 156 Z " />
<glyph glyph-name="Egrave" unicode="&#xc8;" horiz-adv-x="568" d="M275 705 L205 864 L90 864 C90 864 99 805 131 785 L258 705 L275 705 L275 705 Z M419 79 L223 79 L223 300 L323 300 L365 271 L388 271 L388 409 L365 409 L323 380 L223 380 L223 581 L395 581 L452 539 L469 539 C470 555 470 568 470 581 L473 581 L473 660 L65 660 L65 641 L94 605 L94 55 L65 19 L65 0 L498 0 L498 79 L495 79 C494 93 493 107 492 125 L475 125 L419 79 L419 79 Z " />
<glyph glyph-name="Eacute" unicode="&#xc9;" horiz-adv-x="568" d="M266 705 L283 705 L410 785 C442 805 451 864 451 864 L336 864 L266 705 L266 705 Z M419 79 L223 79 L223 300 L323 300 L365 271 L388 271 L388 409 L365 409 L323 380 L223 380 L223 581 L395 581 L452 539 L469 539 C470 555 470 568 470 581 L473 581 L473 660 L65 660 L65 641 L94 605 L94 55 L65 19 L65 0 L498 0 L498 79 L495 79 C494 93 493 107 492 125 L475 125 L419 79 L419 79 Z " />
<glyph glyph-name="Ecircumflex" unicode="&#xca;" horiz-adv-x="568" d="M416 705 L415 706 L416 706 L416 705 L416 705 Z M283 863 L253 863 L124 706 L141 706 L268 777 L399 706 L415 706 L283 863 L283 863 Z M419 79 L223 79 L223 300 L323 300 L365 271 L388 271 L388 409 L365 409 L323 380 L223 380 L223 581 L395 581 L452 539 L469 539 C470 555 470 568 470 581 L473 581 L473 660 L65 660 L65 641 L94 605 L94 55 L65 19 L65 0 L498 0 L498 79 L495 79 C494 93 493 107 492 125 L475 125 L419 79 L419 79 Z " />
<glyph glyph-name="Edieresis" unicode="&#xcb;" horiz-adv-x="568" d="M375 735 C430 735 447 752 447 807 C447 862 430 879 375 879 C320 879 303 862 303 807 C303 752 320 735 375 735 L375 735 Z M160 735 C215 735 232 752 232 807 C232 862 215 879 160 879 C105 879 88 862 88 807 C88 752 105 735 160 735 L160 735 Z M419 79 L223 79 L223 300 L323 300 L365 271 L388 271 L388 409 L365 409 L323 380 L223 380 L223 581 L395 581 L452 539 L469 539 C470 555 470 568 470 581 L473 581 L473 660 L65 660 L65 641 L94 605 L94 55 L65 19 L65 0 L498 0 L498 79 L495 79 C494 93 493 107 492 125 L475 125 L419 79 L419 79 Z " />
<glyph glyph-name="Igrave" unicode="&#xcc;" horiz-adv-x="328" d="M171 705 L101 864 L-14 864 C-14 864 -5 805 27 785 L154 705 L171 705 L171 705 Z M258 0 L258 19 L229 55 L229 605 L258 641 L258 660 L70 660 L70 641 L99 605 L99 55 L70 19 L70 0 L258 0 L258 0 Z " />
<glyph glyph-name="Iacute" unicode="&#xcd;" horiz-adv-x="328" d="M163 705 L180 705 L307 785 C339 805 348 864 348 864 L233 864 L163 705 L163 705 Z M258 0 L258 19 L229 55 L229 605 L258 641 L258 660 L70 660 L70 641 L99 605 L99 55 L70 19 L70 0 L258 0 L258 0 Z " />
<glyph glyph-name="Icircumflex" unicode="&#xce;" horiz-adv-x="328" d="M312 705 L311 706 L312 706 L312 705 L312 705 Z M179 863 L149 863 L21 706 L38 706 L164 776 L295 706 L311 706 L179 863 L179 863 Z M258 0 L258 19 L229 55 L229 605 L258 641 L258 660 L70 660 L70 641 L99 605 L99 55 L70 19 L70 0 L258 0 L258 0 Z " />
<glyph glyph-name="Idieresis" unicode="&#xcf;" horiz-adv-x="328" d="M272 735 C327 735 343 752 343 807 C343 862 327 879 272 879 C217 879 200 862 200 807 C200 752 217 735 272 735 L272 735 Z M57 735 C112 735 128 752 128 807 C128 862 112 879 57 879 C2 879 -15 862 -15 807 C-15 752 2 735 57 735 L57 735 Z M258 0 L258 19 L229 55 L229 605 L258 641 L258 660 L70 660 L70 641 L99 605 L99 55 L70 19 L70 0 L258 0 L258 0 Z " />
<glyph glyph-name="Ntilde" unicode="&#xd1;" horiz-adv-x="670" d="M233 728 C246 763 247 773 266 773 C318 773 350 718 402 718 C450 718 454 746 488 841 L469 841 C456 805 455 794 436 794 C384 794 352 849 300 849 C251 849 248 821 214 728 L233 728 L233 728 Z M63 641 L91 605 L91 55 L62 19 L62 0 L228 0 L228 19 L191 55 L191 441 C303 292 415 143 527 -5 L581 -5 L581 605 L609 641 L609 660 L444 660 L444 641 L481 605 L481 271 L191 660 L63 660 L63 641 L63 641 Z " />
<glyph glyph-name="Ograve" unicode="&#xd2;" horiz-adv-x="777" d="M381 705 L311 864 L196 864 C196 864 205 805 237 785 L364 705 L381 705 L381 705 Z M208 375 C208 548 244 600 363 600 C522 600 570 526 570 277 C570 111 535 62 418 62 C256 62 208 134 208 375 L208 375 Z M70 324 C70 67 143 -10 389 -10 C634 -10 707 68 707 328 C707 591 634 670 389 670 C143 670 70 590 70 324 L70 324 Z " />
<glyph glyph-name="Oacute" unicode="&#xd3;" horiz-adv-x="777" d="M372 705 L389 705 L516 785 C548 805 557 864 557 864 L442 864 L372 705 L372 705 Z M208 375 C208 548 244 600 363 600 C522 600 570 526 570 277 C570 111 535 62 418 62 C256 62 208 134 208 375 L208 375 Z M70 324 C70 67 143 -10 389 -10 C634 -10 707 68 707 328 C707 591 634 670 389 670 C143 670 70 590 70 324 L70 324 Z " />
<glyph glyph-name="Ocircumflex" unicode="&#xd4;" horiz-adv-x="777" d="M522 705 L521 706 L522 706 L522 705 L522 705 Z M208 375 C208 548 244 600 363 600 C522 600 570 526 570 277 C570 111 535 62 418 62 C256 62 208 134 208 375 L208 375 Z M70 324 C70 67 143 -10 389 -10 C634 -10 707 68 707 328 C707 591 634 670 389 670 C143 670 70 590 70 324 L70 324 Z M389 863 L359 863 L230 706 L247 706 L374 777 L505 706 L521 706 L389 863 L389 863 Z " />
<glyph glyph-name="Otilde" unicode="&#xd5;" horiz-adv-x="777" d="M256 728 C269 763 270 773 289 773 C341 773 372 718 424 718 C472 718 476 746 510 841 L491 841 C478 805 477 794 458 794 C406 794 375 849 323 849 C274 849 271 821 237 728 L256 728 L256 728 Z M208 375 C208 548 244 600 363 600 C522 600 570 526 570 277 C570 111 535 62 418 62 C256 62 208 134 208 375 L208 375 Z M70 324 C70 67 143 -10 389 -10 C634 -10 707 68 707 328 C707 591 634 670 389 670 C143 670 70 590 70 324 L70 324 Z " />
<glyph glyph-name="Odieresis" unicode="&#xd6;" horiz-adv-x="777" d="M481 735 C536 735 553 752 553 807 C553 862 536 879 481 879 C426 879 409 862 409 807 C409 752 426 735 481 735 L481 735 Z M266 735 C321 735 338 752 338 807 C338 862 321 879 266 879 C211 879 194 862 194 807 C194 752 211 735 266 735 L266 735 Z M208 375 C208 548 244 600 363 600 C522 600 570 526 570 277 C570 111 535 62 418 62 C256 62 208 134 208 375 L208 375 Z M70 324 C70 67 143 -10 389 -10 C634 -10 707 68 707 328 C707 591 634 670 389 670 C143 670 70 590 70 324 L70 324 Z " />
<glyph glyph-name="Oslash" unicode="&#xd8;" horiz-adv-x="777" d="M70 324 C70 201 87 119 131 67 L70 -10 L169 -10 L194 21 C242 -1 306 -10 390 -10 C635 -10 708 68 708 328 C708 455 691 539 646 592 L708 670 L609 670 L584 639 C537 661 474 670 391 670 C145 670 72 590 72 324 L70 324 L70 324 Z M515 550 L228 188 C215 234 210 295 210 375 C210 548 246 600 365 600 C434 600 482 586 514 550 L515 550 L515 550 Z M552 473 C565 425 570 361 570 277 C570 111 535 62 418 62 C347 62 298 76 265 112 L552 473 L552 473 Z " />
<glyph glyph-name="Ugrave" unicode="&#xd9;" horiz-adv-x="666" d="M345 705 L275 864 L160 864 C160 864 169 805 201 785 L328 705 L345 705 L345 705 Z M84 605 L84 234 C84 46 140 -10 328 -10 C516 -10 572 46 572 234 L572 605 L601 641 L601 660 L435 660 L435 641 L472 605 L472 203 C472 103 448 73 367 73 C248 73 213 115 213 257 L213 605 L242 641 L242 660 L55 660 L55 641 L84 605 L84 605 Z " />
<glyph glyph-name="Uacute" unicode="&#xda;" horiz-adv-x="666" d="M327 705 L344 705 L471 785 C503 805 512 864 512 864 L397 864 L327 705 L327 705 Z M84 605 L84 234 C84 46 140 -10 328 -10 C516 -10 572 46 572 234 L572 605 L601 641 L601 660 L435 660 L435 641 L472 605 L472 203 C472 103 448 73 367 73 C248 73 213 115 213 257 L213 605 L242 641 L242 660 L55 660 L55 641 L84 605 L84 605 Z " />
<glyph glyph-name="Ucircumflex" unicode="&#xdb;" horiz-adv-x="666" d="M486 705 L485 706 L486 706 L486 705 L486 705 Z M353 863 L323 863 L195 706 L212 706 L338 776 L469 706 L485 706 L353 863 L353 863 Z M84 605 L84 234 C84 46 140 -10 328 -10 C516 -10 572 46 572 234 L572 605 L601 641 L601 660 L435 660 L435 641 L472 605 L472 203 C472 103 448 73 367 73 C248 73 213 115 213 257 L213 605 L242 641 L242 660 L55 660 L55 641 L84 605 L84 605 Z " />
<glyph glyph-name="Udieresis" unicode="&#xdc;" horiz-adv-x="666" d="M446 735 C501 735 517 752 517 807 C517 862 501 879 446 879 C391 879 374 862 374 807 C374 752 391 735 446 735 L446 735 Z M231 735 C286 735 302 752 302 807 C302 862 286 879 231 879 C176 879 159 862 159 807 C159 752 176 735 231 735 L231 735 Z M84 605 L84 234 C84 46 140 -10 328 -10 C516 -10 572 46 572 234 L572 605 L601 641 L601 660 L435 660 L435 641 L472 605 L472 203 C472 103 448 73 367 73 C248 73 213 115 213 257 L213 605 L242 641 L242 660 L55 660 L55 641 L84 605 L84 605 Z " />
<glyph glyph-name="Yacute" unicode="&#xdd;" horiz-adv-x="650" d="M322 705 L339 705 L466 785 C498 805 507 864 507 864 L392 864 L322 705 L322 705 Z M216 660 L39 660 L39 642 L75 610 L270 315 L270 55 L237 19 L237 0 L432 0 L432 19 L399 55 L399 321 C459 421 519 521 580 620 L610 646 L610 660 L466 660 L466 641 C467 638 474 605 476 605 L353 397 C307 466 260 535 214 604 L217 640 L216 660 L216 660 Z " />
<glyph glyph-name="agrave" unicode="&#xe0;" horiz-adv-x="457" d="M223 530 L153 707 L38 707 C38 707 47 641 79 619 L206 530 L223 530 L223 530 Z M169 339 C169 379 172 393 179 393 C226 393 235 377 235 322 L235 255 C70 204 39 168 39 93 C39 14 59 -10 128 -10 C184 -10 212 -2 242 39 C254 2 283 -10 341 -10 C403 -10 429 8 452 68 L447 76 L413 76 C364 76 350 79 350 90 C350 295 351 353 351 353 C351 435 330 460 216 460 C95 460 50 425 50 331 C50 299 57 289 80 291 L164 291 L169 296 L169 339 L169 339 Z M235 203 L235 100 C235 94 235 89 235 84 C224 80 209 79 188 79 C160 79 151 89 151 121 C151 159 165 178 235 202 L235 203 L235 203 Z " />
<glyph glyph-name="aacute" unicode="&#xe1;" horiz-adv-x="457" d="M215 530 L232 530 L359 619 C391 641 400 707 400 707 L285 707 L215 530 L215 530 Z M169 339 C169 379 172 393 179 393 C226 393 235 377 235 322 L235 255 C70 204 39 168 39 93 C39 14 59 -10 128 -10 C184 -10 212 -2 242 39 C254 2 283 -10 341 -10 C403 -10 429 8 452 68 L447 76 L413 76 C364 76 350 79 350 90 C350 295 351 353 351 353 C351 435 330 460 216 460 C95 460 50 425 50 331 C50 299 57 289 80 291 L164 291 L169 296 L169 339 L169 339 Z M235 203 L235 100 C235 94 235 89 235 84 C224 80 209 79 188 79 C160 79 151 89 151 121 C151 159 165 178 235 202 L235 203 L235 203 Z " />
<glyph glyph-name="acircumflex" unicode="&#xe2;" horiz-adv-x="457" d="M364 530 L231 705 L201 705 L73 530 L90 530 L216 608 L347 530 L364 530 L364 530 Z M169 339 C169 379 172 393 179 393 C226 393 235 377 235 322 L235 255 C70 204 39 168 39 93 C39 14 59 -10 128 -10 C184 -10 212 -2 242 39 C254 2 283 -10 341 -10 C403 -10 429 8 452 68 L447 76 L413 76 C364 76 350 79 350 90 C350 295 351 353 351 353 C351 435 330 460 216 460 C95 460 50 425 50 331 C50 299 57 289 80 291 L164 291 L169 296 L169 339 L169 339 Z M235 203 L235 100 C235 94 235 89 235 84 C224 80 209 79 188 79 C160 79 151 89 151 121 C151 159 165 178 235 202 L235 203 L235 203 Z " />
<glyph glyph-name="atilde" unicode="&#xe3;" horiz-adv-x="457" d="M83 555 C96 594 97 605 116 605 C168 605 200 544 252 544 C300 544 304 575 338 680 L319 680 C306 640 305 628 286 628 C234 628 202 689 150 689 C101 689 98 658 64 555 L83 555 L83 555 Z M169 339 C169 379 172 393 179 393 C226 393 235 377 235 322 L235 255 C70 204 39 168 39 93 C39 14 59 -10 128 -10 C184 -10 212 -2 242 39 C254 2 283 -10 341 -10 C403 -10 429 8 452 68 L447 76 L413 76 C364 76 350 79 350 90 C350 295 351 353 351 353 C351 435 330 460 216 460 C95 460 50 425 50 331 C50 299 57 289 80 291 L164 291 L169 296 L169 339 L169 339 Z M235 203 L235 100 C235 94 235 89 235 84 C224 80 209 79 188 79 C160 79 151 89 151 121 C151 159 165 178 235 202 L235 203 L235 203 Z " />
<glyph glyph-name="adieresis" unicode="&#xe4;" horiz-adv-x="457" d="M309 570 C364 570 380 587 380 642 C380 697 364 714 309 714 C254 714 237 697 237 642 C237 587 254 570 309 570 L309 570 Z M94 570 C149 570 165 587 165 642 C165 697 149 714 94 714 C39 714 22 697 22 642 C22 587 39 570 94 570 L94 570 Z M169 339 C169 379 172 393 179 393 C226 393 235 377 235 322 L235 255 C70 204 39 168 39 93 C39 14 59 -10 128 -10 C184 -10 212 -2 242 39 C254 2 283 -10 341 -10 C403 -10 429 8 452 68 L447 76 L413 76 C364 76 350 79 350 90 C350 295 351 353 351 353 C351 435 330 460 216 460 C95 460 50 425 50 331 C50 299 57 289 80 291 L164 291 L169 296 L169 339 L169 339 Z M235 203 L235 100 C235 94 235 89 235 84 C224 80 209 79 188 79 C160 79 151 89 151 121 C151 159 165 178 235 202 L235 203 L235 203 Z " />
<glyph glyph-name="aring" unicode="&#xe5;" horiz-adv-x="457" d="M186 634 C186 668 190 678 203 678 C221 678 226 664 226 615 C226 583 222 569 212 569 C194 569 186 589 186 634 L186 634 Z M115 624 C115 562 143 535 206 535 C269 535 297 563 297 627 C297 692 276 712 206 712 C136 712 115 692 115 624 L115 624 Z M169 339 C169 379 172 393 179 393 C226 393 235 377 235 322 L235 255 C70 204 39 168 39 93 C39 14 59 -10 128 -10 C184 -10 212 -2 242 39 C254 2 283 -10 341 -10 C403 -10 429 8 452 68 L447 76 L413 76 C364 76 350 79 350 90 C350 295 351 353 351 353 C351 435 330 460 216 460 C95 460 50 425 50 331 C50 299 57 289 80 291 L164 291 L169 296 L169 339 L169 339 Z M235 203 L235 100 C235 94 235 89 235 84 C224 80 209 79 188 79 C160 79 151 89 151 121 C151 159 165 178 235 202 L235 203 L235 203 Z " />
<glyph glyph-name="ccedilla" unicode="&#xe7;" horiz-adv-x="437" d="M258 -54 C268 -27 273 -13 275 -7 C332 2 364 39 392 127 L392 140 L388 140 C351 108 331 98 299 98 C194 98 163 137 163 266 C163 362 177 391 223 391 C247 391 259 382 277 352 L306 303 L313 303 L384 337 C389 342 391 352 391 382 C391 398 389 405 384 414 C363 450 333 461 256 461 C97 461 49 401 49 201 C49 45 89 -5 223 -8 C218 -20 205 -53 179 -125 L223 -141 C233 -142 236 -149 236 -170 C236 -192 230 -198 212 -198 C183 -198 171 -193 159 -178 L159 -193 C186 -228 203 -238 232 -238 C301 -238 322 -217 322 -147 C322 -89 306 -63 257 -51 L258 -54 L258 -54 Z " />
<glyph glyph-name="egrave" unicode="&#xe8;" horiz-adv-x="443" d="M239 530 L169 707 L54 707 C54 707 63 641 95 619 L222 530 L239 530 L239 530 Z M165 307 C169 372 186 393 227 393 C265 393 282 372 287 307 L165 307 L165 307 Z M392 126 L392 139 L388 139 C351 107 331 97 299 97 C201 97 167 131 163 240 L341 240 L392 247 C392 411 357 460 238 460 C92 460 49 400 49 200 C49 38 92 -10 238 -10 C320 -10 359 21 392 126 L392 126 Z " />
<glyph glyph-name="eacute" unicode="&#xe9;" horiz-adv-x="443" d="M230 530 L247 530 L374 619 C406 641 415 707 415 707 L300 707 L230 530 L230 530 Z M165 307 C169 372 186 393 227 393 C265 393 282 372 287 307 L165 307 L165 307 Z M392 126 L392 139 L388 139 C351 107 331 97 299 97 C201 97 167 131 163 240 L341 240 L392 247 C392 411 357 460 238 460 C92 460 49 400 49 200 C49 38 92 -10 238 -10 C320 -10 359 21 392 126 L392 126 Z " />
<glyph glyph-name="ecircumflex" unicode="&#xea;" horiz-adv-x="443" d="M380 530 L247 705 L217 705 L88 530 L105 530 L232 609 L363 530 L380 530 L380 530 Z M165 307 C169 372 186 393 227 393 C265 393 282 372 287 307 L165 307 L165 307 Z M392 126 L392 139 L388 139 C351 107 331 97 299 97 C201 97 167 131 163 240 L341 240 L392 247 C392 411 357 460 238 460 C92 460 49 400 49 200 C49 38 92 -10 238 -10 C320 -10 359 21 392 126 L392 126 Z " />
<glyph glyph-name="edieresis" unicode="&#xeb;" horiz-adv-x="443" d="M339 570 C394 570 411 587 411 642 C411 697 394 714 339 714 C284 714 267 697 267 642 C267 587 284 570 339 570 L339 570 Z M124 570 C179 570 196 587 196 642 C196 697 179 714 124 714 C69 714 52 697 52 642 C52 587 69 570 124 570 L124 570 Z M165 307 C169 372 186 393 227 393 C265 393 282 372 287 307 L165 307 L165 307 Z M392 126 L392 139 L388 139 C351 107 331 97 299 97 C201 97 167 131 163 240 L341 240 L392 247 C392 411 357 460 238 460 C92 460 49 400 49 200 C49 38 92 -10 238 -10 C320 -10 359 21 392 126 L392 126 Z " />
<glyph glyph-name="igrave" unicode="&#xec;" horiz-adv-x="269" d="M137 530 L67 707 L-48 707 C-48 707 -39 641 -7 619 L120 530 L137 530 L137 530 Z M217 0 L217 18 L193 50 L193 460 L170 460 L80 422 L78 422 L78 421 L54 411 L54 405 L58 394 C73 348 78 335 78 334 L78 50 L54 18 L54 0 L217 0 L217 0 Z " />
<glyph glyph-name="iacute" unicode="&#xed;" horiz-adv-x="269" d="M129 530 L146 530 L273 619 C305 641 314 707 314 707 L199 707 L129 530 L129 530 Z M217 0 L217 18 L193 50 L193 460 L170 460 L80 422 L78 422 L78 421 L54 411 L54 405 L58 394 C73 348 78 335 78 334 L78 50 L54 18 L54 0 L217 0 L217 0 Z " />
<glyph glyph-name="icircumflex" unicode="&#xee;" horiz-adv-x="269" d="M278 530 L145 705 L115 705 L-13 530 L4 530 L130 608 L261 530 L278 530 L278 530 Z M217 0 L217 18 L193 50 L193 460 L170 460 L80 422 L78 422 L78 421 L54 411 L54 405 L58 394 C73 348 78 335 78 334 L78 50 L54 18 L54 0 L217 0 L217 0 Z " />
<glyph glyph-name="idieresis" unicode="&#xef;" horiz-adv-x="269" d="M238 570 C293 570 309 587 309 642 C309 697 293 714 238 714 C183 714 166 697 166 642 C166 587 183 570 238 570 L238 570 Z M23 570 C78 570 94 587 94 642 C94 697 78 714 23 714 C-32 714 -49 697 -49 642 C-49 587 -32 570 23 570 L23 570 Z M217 0 L217 18 L193 50 L193 460 L170 460 L80 422 L78 422 L78 421 L54 411 L54 405 L58 394 C73 348 78 335 78 334 L78 50 L54 18 L54 0 L217 0 L217 0 Z " />
<glyph glyph-name="ntilde" unicode="&#xf1;" horiz-adv-x="476" d="M126 555 C139 594 140 605 159 605 C211 605 242 544 294 544 C342 544 346 575 380 680 L361 680 C348 640 347 628 328 628 C276 628 245 689 193 689 C144 689 141 658 107 555 L126 555 L126 555 Z M437 0 L437 18 L413 50 L413 343 C413 433 388 460 305 460 C246 460 228 442 186 384 C185 419 184 459 184 459 L161 459 L51 410 L51 404 L55 393 C70 347 75 334 75 333 L75 49 L51 17 L51 -1 L216 -1 L216 17 L190 49 L190 344 C200 355 211 358 242 358 C286 358 299 339 299 276 L299 49 L273 17 L273 -1 L437 0 L437 0 Z " />
<glyph glyph-name="ograve" unicode="&#xf2;" horiz-adv-x="508" d="M261 530 L191 707 L76 707 C76 707 85 641 117 619 L244 530 L261 530 L261 530 Z M182 225 C182 360 190 400 234 400 C305 400 326 360 326 225 C326 90 318 50 274 50 C203 50 182 90 182 225 L182 225 Z M50 225 C50 44 97 -10 254 -10 C427 -10 458 44 458 225 C458 406 411 460 254 460 C81 460 50 406 50 225 L50 225 Z " />
<glyph glyph-name="oacute" unicode="&#xf3;" horiz-adv-x="508" d="M253 530 L270 530 L397 619 C429 641 438 707 438 707 L323 707 L253 530 L253 530 Z M182 225 C182 360 190 400 234 400 C305 400 326 360 326 225 C326 90 318 50 274 50 C203 50 182 90 182 225 L182 225 Z M50 225 C50 44 97 -10 254 -10 C427 -10 458 44 458 225 C458 406 411 460 254 460 C81 460 50 406 50 225 L50 225 Z " />
<glyph glyph-name="ocircumflex" unicode="&#xf4;" horiz-adv-x="508" d="M402 530 L269 705 L239 705 L111 530 L128 530 L254 608 L385 530 L402 530 L402 530 Z M182 225 C182 360 190 400 234 400 C305 400 326 360 326 225 C326 90 318 50 274 50 C203 50 182 90 182 225 L182 225 Z M50 225 C50 44 97 -10 254 -10 C427 -10 458 44 458 225 C458 406 411 460 254 460 C81 460 50 406 50 225 L50 225 Z " />
<glyph glyph-name="otilde" unicode="&#xf5;" horiz-adv-x="508" d="M136 555 C149 594 150 605 169 605 C221 605 253 544 305 544 C353 544 357 575 391 680 L372 680 C359 640 358 628 339 628 C287 628 255 689 203 689 C154 689 151 658 117 555 L136 555 L136 555 Z M182 225 C182 360 190 400 234 400 C305 400 326 360 326 225 C326 90 318 50 274 50 C203 50 182 90 182 225 L182 225 Z M50 225 C50 44 97 -10 254 -10 C427 -10 458 44 458 225 C458 406 411 460 254 460 C81 460 50 406 50 225 L50 225 Z " />
<glyph glyph-name="odieresis" unicode="&#xf6;" horiz-adv-x="508" d="M362 570 C417 570 433 587 433 642 C433 697 417 714 362 714 C307 714 290 697 290 642 C290 587 307 570 362 570 L362 570 Z M147 570 C202 570 218 587 218 642 C218 697 202 714 147 714 C92 714 75 697 75 642 C75 587 92 570 147 570 L147 570 Z M182 225 C182 360 190 400 234 400 C305 400 326 360 326 225 C326 90 318 50 274 50 C203 50 182 90 182 225 L182 225 Z M50 225 C50 44 97 -10 254 -10 C427 -10 458 44 458 225 C458 406 411 460 254 460 C81 460 50 406 50 225 L50 225 Z " />
<glyph glyph-name="oslash" unicode="&#xf8;" horiz-adv-x="508" d="M50 225 C50 140 60 83 87 46 L49 -10 L144 -10 L152 2 C179 -7 212 -11 253 -11 C426 -11 457 43 457 224 C457 309 447 366 420 403 L458 459 L363 459 L355 447 C328 456 295 460 254 460 C81 460 50 406 50 225 L50 225 Z M303 370 L183 189 C183 200 183 212 183 225 C183 360 191 400 235 400 C267 400 289 392 303 370 L303 370 Z M326 261 C326 250 326 238 326 225 C326 90 318 50 274 50 C242 50 220 58 206 80 L326 261 L326 261 Z " />
<glyph glyph-name="ugrave" unicode="&#xf9;" horiz-adv-x="438" d="M222 530 L152 707 L37 707 C37 707 46 641 78 619 L205 530 L222 530 L222 530 Z M274 400 L274 105 C261 97 247 95 221 95 C177 95 164 114 164 176 L164 450 L25 450 L25 432 L49 400 L49 107 C49 17 73 -10 155 -10 C192 -10 215 1 273 58 L273 1 L414 1 L414 19 L388 51 L388 451 L247 451 L247 433 L274 400 L274 400 Z " />
<glyph glyph-name="uacute" unicode="&#xfa;" horiz-adv-x="438" d="M213 530 L230 530 L357 619 C389 641 398 707 398 707 L283 707 L213 530 L213 530 Z M274 400 L274 105 C261 97 247 95 221 95 C177 95 164 114 164 176 L164 450 L25 450 L25 432 L49 400 L49 107 C49 17 73 -10 155 -10 C192 -10 215 1 273 58 L273 1 L414 1 L414 19 L388 51 L388 451 L247 451 L247 433 L274 400 L274 400 Z " />
<glyph glyph-name="ucircumflex" unicode="&#xfb;" horiz-adv-x="438" d="M363 530 L230 705 L200 705 L71 530 L88 530 L215 609 L346 530 L363 530 L363 530 Z M274 400 L274 105 C261 97 247 95 221 95 C177 95 164 114 164 176 L164 450 L25 450 L25 432 L49 400 L49 107 C49 17 73 -10 155 -10 C192 -10 215 1 273 58 L273 1 L414 1 L414 19 L388 51 L388 451 L247 451 L247 433 L274 400 L274 400 Z " />
<glyph glyph-name="udieresis" unicode="&#xfc;" horiz-adv-x="438" d="M322 570 C377 570 394 587 394 642 C394 697 377 714 322 714 C267 714 250 697 250 642 C250 587 267 570 322 570 L322 570 Z M107 570 C162 570 179 587 179 642 C179 697 162 714 107 714 C52 714 35 697 35 642 C35 587 52 570 107 570 L107 570 Z M274 400 L274 105 C261 97 247 95 221 95 C177 95 164 114 164 176 L164 450 L25 450 L25 432 L49 400 L49 107 C49 17 73 -10 155 -10 C192 -10 215 1 273 58 L273 1 L414 1 L414 19 L388 51 L388 451 L247 451 L247 433 L274 400 L274 400 Z " />
<glyph glyph-name="yacute" unicode="&#xfd;" horiz-adv-x="382" d="M236 530 L253 530 L380 619 C412 641 421 707 421 707 L306 707 L236 530 L236 530 Z M158 450 L-19 450 L-19 432 L13 400 L13 400 L162 14 L137 -52 C115 -115 111 -120 75 -120 L9 -120 L5 -124 L5 -198 C5 -237 9 -240 54 -240 C128 -240 138 -227 192 -71 L367 396 L402 431 L402 450 L288 450 L288 431 L304 395 L304 395 L222 177 L136 400 L157 432 L158 450 L158 450 Z " />
<glyph glyph-name="ydieresis" unicode="&#xff;" horiz-adv-x="382" d="M345 570 C400 570 417 587 417 642 C417 697 400 714 345 714 C290 714 273 697 273 642 C273 587 290 570 345 570 L345 570 Z M130 570 C185 570 202 587 202 642 C202 697 185 714 130 714 C75 714 58 697 58 642 C58 587 75 570 130 570 L130 570 Z M158 450 L-19 450 L-19 432 L13 400 L13 400 L162 14 L137 -52 C115 -115 111 -120 75 -120 L9 -120 L5 -124 L5 -198 C5 -237 9 -240 54 -240 C128 -240 138 -227 192 -71 L367 396 L402 431 L402 450 L288 450 L288 431 L304 395 L304 395 L222 177 L136 400 L157 432 L158 450 L158 450 Z " />
<glyph glyph-name="Amacron" unicode="&#x100;" horiz-adv-x="661" d="M219 763 L445 763 L445 835 L219 835 L219 763 L219 763 Z M181 18 L162 50 L160 50 C170 82 186 130 209 197 L209 187 L406 187 L406 191 C417 161 456 50 456 50 L434 18 L434 0 L608 0 L609 0 L622 0 L622 16 L592 45 L590 45 C535 189 378 626 378 626 L364 665 L295 665 C163 310 95 128 66 49 L30 17 L30 -1 L181 -1 L181 18 L181 18 Z M380 265 L234 265 C254 322 278 390 307 469 C328 410 354 336 380 264 L380 265 L380 265 Z M610 -2 L610 -2 L610 -2 Z " />
<glyph glyph-name="amacron" unicode="&#x101;" horiz-adv-x="457" d="M93 593 L319 593 L319 665 L93 665 L93 593 L93 593 Z M169 339 C169 379 172 393 179 393 C226 393 235 377 235 322 L235 255 C70 204 39 168 39 93 C39 14 59 -10 128 -10 C184 -10 212 -2 242 39 C254 2 283 -10 341 -10 C403 -10 429 8 452 68 L447 76 L413 76 C364 76 350 79 350 90 C350 295 351 353 351 353 C351 435 330 460 216 460 C95 460 50 425 50 331 C50 299 57 289 80 291 L164 291 L169 296 L169 339 L169 339 Z M235 203 L235 100 C235 94 235 89 235 84 C224 80 209 79 188 79 C160 79 151 89 151 121 C151 159 165 178 235 202 L235 203 L235 203 Z " />
<glyph glyph-name="Abreve" unicode="&#x102;" horiz-adv-x="661" d="M217 868 L197 868 C238 726 248 714 332 714 C415 714 425 726 466 868 L446 868 C428 806 420 801 332 801 C244 801 235 806 217 868 L217 868 Z M181 18 L162 50 L160 50 C170 82 186 130 209 197 L209 187 L406 187 L406 191 C417 161 456 50 456 50 L434 18 L434 0 L608 0 L609 0 L622 0 L622 16 L592 45 L590 45 C535 189 378 626 378 626 L364 665 L295 665 C163 310 95 128 66 49 L30 17 L30 -1 L181 -1 L181 18 L181 18 Z M380 265 L234 265 C254 322 278 390 307 469 C328 410 354 336 380 264 L380 265 L380 265 Z M610 -2 L610 -2 L610 -2 Z " />
<glyph glyph-name="abreve" unicode="&#x103;" horiz-adv-x="457" d="M92 711 L71 711 C112 553 122 540 206 540 C290 540 300 553 341 711 L321 711 C303 642 294 636 206 636 C118 636 110 642 92 711 L92 711 Z M169 339 C169 379 172 393 179 393 C226 393 235 377 235 322 L235 255 C70 204 39 168 39 93 C39 14 59 -10 128 -10 C184 -10 212 -2 242 39 C254 2 283 -10 341 -10 C403 -10 429 8 452 68 L447 76 L413 76 C364 76 350 79 350 90 C350 295 351 353 351 353 C351 435 330 460 216 460 C95 460 50 425 50 331 C50 299 57 289 80 291 L164 291 L169 296 L169 339 L169 339 Z M235 203 L235 100 C235 94 235 89 235 84 C224 80 209 79 188 79 C160 79 151 89 151 121 C151 159 165 178 235 202 L235 203 L235 203 Z " />
<glyph glyph-name="Cacute" unicode="&#x106;" horiz-adv-x="681" d="M346 705 L363 705 L490 785 C522 805 531 864 531 864 L416 864 L346 705 L346 705 Z M579 156 C560 140 529 117 512 102 C470 71 436 61 379 61 C243 61 203 127 203 350 C203 540 246 597 389 597 C442 597 470 585 510 543 L511 544 C529 528 543 517 562 501 L580 501 L578 625 L544 584 L544 584 L578 625 C545 659 502 669 388 669 C142 669 68 586 68 306 C68 62 139 -11 378 -11 C498 -11 546 0 589 36 L593 155 L579 156 L579 156 Z " />
<glyph glyph-name="cacute" unicode="&#x107;" horiz-adv-x="437" d="M241 530 L258 530 L385 619 C417 641 426 707 426 707 L311 707 L241 530 L241 530 Z M393 126 L393 139 L389 139 C352 107 332 97 300 97 C195 97 164 136 164 265 C164 361 178 390 224 390 C248 390 260 381 278 351 L307 302 L314 302 L385 336 C390 341 392 351 392 381 C392 397 390 404 385 413 C364 449 334 460 257 460 C98 460 50 400 50 200 C50 38 93 -10 239 -10 C321 -10 360 21 393 126 L393 126 Z " />
<glyph glyph-name="Ccaron" unicode="&#x10c;" horiz-adv-x="681" d="M516 867 L515 867 L516 868 L516 867 L516 867 Z M353 710 L354 711 L382 711 L383 710 L515 867 L499 867 L368 796 L241 867 L224 867 L353 710 L353 710 Z M579 156 C560 140 529 117 512 102 C470 71 436 61 379 61 C243 61 203 127 203 350 C203 540 246 597 389 597 C442 597 470 585 510 543 L511 544 C529 528 543 517 562 501 L580 501 L578 625 L544 584 L544 584 L578 625 C545 659 502 669 388 669 C142 669 68 586 68 306 C68 62 139 -11 378 -11 C498 -11 546 0 589 36 L593 155 L579 156 L579 156 Z " />
<glyph glyph-name="ccaron" unicode="&#x10d;" horiz-adv-x="437" d="M258 535 L391 710 L374 710 L243 631 L116 710 L99 710 L228 535 L258 535 L258 535 Z M393 126 L393 139 L389 139 C352 107 332 97 300 97 C195 97 164 136 164 265 C164 361 178 390 224 390 C248 390 260 381 278 351 L307 302 L314 302 L385 336 C390 341 392 351 392 381 C392 397 390 404 385 413 C364 449 334 460 257 460 C98 460 50 400 50 200 C50 38 93 -10 239 -10 C321 -10 360 21 393 126 L393 126 Z " />
<glyph glyph-name="Dcaron" unicode="&#x10e;" horiz-adv-x="695" d="M518 867 L517 867 L518 868 L518 867 L518 867 Z M355 710 L356 711 L384 711 L385 710 L517 867 L501 867 L370 796 L243 867 L226 867 L355 710 L355 710 Z M319 0 C555 8 625 65 625 363 C625 615 549 660 294 660 L65 660 L65 641 L94 605 L94 55 L65 19 L65 0 L319 0 L319 0 Z M223 79 L223 581 C243 581 258 582 258 582 C437 582 490 541 490 314 C490 120 450 84 316 79 L223 79 L223 79 Z " />
<glyph glyph-name="dcaron" unicode="&#x10f;" horiz-adv-x="498" d="M633 748 C632 749 629 750 623 750 L515 750 L494 563 L511 563 L633 748 L633 748 Z M633 748 L645 766 C634 749 636 748 633 749 L633 748 L633 748 Z M451 1 L451 19 L425 51 L425 753 L402 753 L286 716 L286 711 L290 701 C305 660 310 648 310 647 L310 459 C296 460 280 460 262 460 C97 460 48 398 48 191 C48 36 81 -10 190 -10 C250 -10 281 3 311 45 C315 24 324 0 324 0 L451 1 L451 1 Z M310 342 L310 98 C301 90 290 87 272 87 C188 87 163 119 163 228 C163 354 182 391 245 391 C245 391 261 379 311 342 L310 342 L310 342 Z " />
<glyph glyph-name="Emacron" unicode="&#x112;" horiz-adv-x="568" d="M155 763 L381 763 L381 835 L155 835 L155 763 L155 763 Z M419 79 L223 79 L223 300 L323 300 L365 271 L388 271 L388 409 L365 409 L323 380 L223 380 L223 581 L395 581 L452 539 L469 539 C470 555 470 568 470 581 L473 581 L473 660 L65 660 L65 641 L94 605 L94 55 L65 19 L65 0 L498 0 L498 79 L495 79 C494 93 493 107 492 125 L475 125 L419 79 L419 79 Z " />
<glyph glyph-name="emacron" unicode="&#x113;" horiz-adv-x="443" d="M124 593 L350 593 L350 665 L124 665 L124 593 L124 593 Z M165 307 C169 372 186 393 227 393 C265 393 282 372 287 307 L165 307 L165 307 Z M392 126 L392 139 L388 139 C351 107 331 97 299 97 C201 97 167 131 163 240 L341 240 L392 247 C392 411 357 460 238 460 C92 460 49 400 49 200 C49 38 92 -10 238 -10 C320 -10 359 21 392 126 L392 126 Z " />
<glyph glyph-name="Edot" unicode="&#x116;" horiz-adv-x="568" d="M273 725 C335 725 353 743 353 805 C353 867 335 885 273 885 C211 885 193 867 193 805 C193 743 211 725 273 725 L273 725 Z M419 79 L223 79 L223 300 L323 300 L365 271 L388 271 L388 409 L365 409 L323 380 L223 380 L223 581 L395 581 L452 539 L469 539 C470 555 470 568 470 581 L473 581 L473 660 L65 660 L65 641 L94 605 L94 55 L65 19 L65 0 L498 0 L498 79 L495 79 C494 93 493 107 492 125 L475 125 L419 79 L419 79 Z " />
<glyph glyph-name="edot" unicode="&#x117;" horiz-adv-x="443" d="M242 583 C304 583 322 601 322 663 C322 725 304 743 242 743 C180 743 162 725 162 663 C162 601 180 583 242 583 L242 583 Z M165 307 C169 372 186 393 227 393 C265 393 282 372 287 307 L165 307 L165 307 Z M392 126 L392 139 L388 139 C351 107 331 97 299 97 C201 97 167 131 163 240 L341 240 L392 247 C392 411 357 460 238 460 C92 460 49 400 49 200 C49 38 92 -10 238 -10 C320 -10 359 21 392 126 L392 126 Z " />
<glyph glyph-name="Ecaron" unicode="&#x11a;" horiz-adv-x="568" d="M416 867 L415 867 L416 868 L416 867 L416 867 Z M253 710 L254 711 L282 711 L283 710 L415 867 L399 867 L268 796 L141 867 L124 867 L253 710 L253 710 Z M419 79 L223 79 L223 300 L323 300 L365 271 L388 271 L388 409 L365 409 L323 380 L223 380 L223 581 L395 581 L452 539 L469 539 C470 555 470 568 470 581 L473 581 L473 660 L65 660 L65 641 L94 605 L94 55 L65 19 L65 0 L498 0 L498 79 L495 79 C494 93 493 107 492 125 L475 125 L419 79 L419 79 Z " />
<glyph glyph-name="ecaron" unicode="&#x11b;" horiz-adv-x="443" d="M247 535 L380 710 L363 710 L232 631 L105 710 L88 710 L217 535 L247 535 L247 535 Z M165 307 C169 372 186 393 227 393 C265 393 282 372 287 307 L165 307 L165 307 Z M392 126 L392 139 L388 139 C351 107 331 97 299 97 C201 97 167 131 163 240 L341 240 L392 247 C392 411 357 460 238 460 C92 460 49 400 49 200 C49 38 92 -10 238 -10 C320 -10 359 21 392 126 L392 126 Z " />
<glyph glyph-name="Gbreve" unicode="&#x11e;" horiz-adv-x="694" d="M263 868 L243 868 C284 726 294 714 378 714 C461 714 471 726 512 868 L492 868 C474 806 466 801 378 801 C290 801 281 806 263 868 L263 868 Z M602 502 L600 626 L566 585 L566 585 L600 626 C565 660 519 670 400 670 C146 670 70 587 70 307 C70 63 142 -10 382 -10 C491 -10 545 16 619 104 L619 235 L647 271 L647 290 L459 290 L459 271 L490 235 L490 86 C472 78 451 75 421 75 C253 75 203 138 203 351 C203 541 248 598 399 598 C457 598 487 586 530 544 L531 545 C547 531 564 518 583 502 L602 502 L602 502 Z " />
<glyph glyph-name="gbreve" unicode="&#x11f;" horiz-adv-x="514" d="M133 711 L112 711 C153 553 163 540 247 540 C331 540 341 553 382 711 L362 711 C344 642 335 636 247 636 C159 636 151 642 133 711 L133 711 Z M161 144 C182 138 208 136 240 136 C379 136 404 174 404 302 C404 335 401 362 394 384 L463 372 L463 450 L345 443 C320 455 286 460 240 460 C102 460 77 423 77 300 C77 228 89 185 122 161 C76 143 61 118 61 69 C61 17 73 -9 109 -19 C66 -37 52 -80 52 -125 C52 -214 91 -240 220 -240 C383 -240 432 -196 432 -49 C432 46 424 75 324 75 L198 75 C171 75 163 84 163 116 C163 139 160 145 160 145 L161 144 L161 144 Z M196 305 C196 381 201 404 231 404 C273 404 286 380 286 299 C286 219 282 195 257 195 C210 195 196 220 196 305 L196 305 Z M162 -24 L266 -24 C322 -24 327 -37 327 -79 C327 -171 306 -198 235 -198 C173 -198 155 -177 155 -108 C155 -45 157 -24 162 -24 L162 -24 Z " />
<glyph glyph-name="Itilde" unicode="&#x128;" horiz-adv-x="328" d="M46 705 C59 744 60 755 79 755 C131 755 163 694 215 694 C263 694 267 725 301 830 L282 830 C269 790 268 778 249 778 C197 778 165 839 113 839 C64 839 61 808 27 705 L46 705 L46 705 Z M258 0 L258 19 L229 55 L229 605 L258 641 L258 660 L70 660 L70 641 L99 605 L99 55 L70 19 L70 0 L258 0 L258 0 Z " />
<glyph glyph-name="itilde" unicode="&#x129;" horiz-adv-x="269" d="M17 530 C30 569 31 580 50 580 C102 580 134 519 186 519 C234 519 238 550 272 655 L253 655 C240 615 239 603 220 603 C168 603 136 664 84 664 C35 664 32 633 -2 530 L17 530 L17 530 Z M217 0 L217 18 L193 50 L193 460 L170 460 L80 422 L78 422 L78 421 L54 411 L54 405 L58 394 C73 348 78 335 78 334 L78 50 L54 18 L54 0 L217 0 L217 0 Z " />
<glyph glyph-name="Imacron" unicode="&#x12a;" horiz-adv-x="328" d="M51 763 L277 763 L277 835 L51 835 L51 763 L51 763 Z M258 0 L258 19 L229 55 L229 605 L258 641 L258 660 L70 660 L70 641 L99 605 L99 55 L70 19 L70 0 L258 0 L258 0 Z " />
<glyph glyph-name="imacron" unicode="&#x12b;" horiz-adv-x="269" d="M17 593 L243 593 L243 665 L17 665 L17 593 L17 593 Z M217 0 L217 18 L193 50 L193 460 L170 460 L80 422 L78 422 L78 421 L54 411 L54 405 L58 394 C73 348 78 335 78 334 L78 50 L54 18 L54 0 L217 0 L217 0 Z " />
<glyph glyph-name="Idot" unicode="&#x130;" horiz-adv-x="328" d="M164 725 C226 725 244 743 244 805 C244 867 226 885 164 885 C102 885 84 867 84 805 C84 743 102 725 164 725 L164 725 Z M258 0 L258 19 L229 55 L229 605 L258 641 L258 660 L70 660 L70 641 L99 605 L99 55 L70 19 L70 0 L258 0 L258 0 Z " />
<glyph glyph-name="dotlessi" unicode="&#x131;" horiz-adv-x="269" d="M217 0 L217 18 L193 50 L193 460 L170 460 L80 422 L78 422 L78 421 L54 411 L54 405 L58 394 C73 348 78 335 78 334 L78 50 L54 18 L54 0 L217 0 L217 0 Z " />
<glyph glyph-name="Lacute" unicode="&#x139;" horiz-adv-x="552" d="M142 705 L159 705 L286 785 C318 805 327 864 327 864 L212 864 L142 705 L142 705 Z M479 79 C478 98 477 116 476 140 L458 140 L398 79 L222 79 L222 605 L253 641 L253 660 L64 660 L64 641 L93 605 L93 55 L64 19 L64 0 L481 0 L481 79 L479 79 L479 79 Z " />
<glyph glyph-name="lacute" unicode="&#x13a;" horiz-adv-x="250" d="M126 765 L259 845 C293 865 302 924 302 924 L181 924 L107 765 L126 765 L126 765 Z M207 0 L207 18 L183 50 L183 760 L160 760 L70 722 L68 722 L68 721 L44 711 L44 705 L48 694 C63 648 68 635 68 634 L68 50 L44 18 L44 0 L207 0 L207 0 Z " />
<glyph glyph-name="Lcaron" unicode="&#x13d;" horiz-adv-x="552" d="M440 658 C439 659 436 660 430 660 L322 660 L301 473 L318 473 L440 658 L440 658 Z M440 658 L452 676 C441 659 443 658 440 659 L440 658 L440 658 Z M478 80 C477 99 476 117 475 141 L457 141 L397 80 L221 80 L221 606 L252 642 L252 661 L63 661 L63 642 L92 606 L92 56 L63 20 L63 1 L480 1 L480 80 L478 80 L478 80 Z " />
<glyph glyph-name="lcaron" unicode="&#x13e;" horiz-adv-x="250" d="M391 748 C390 749 387 750 381 750 L273 750 L252 563 L269 563 L391 748 L391 748 Z M391 748 L403 766 C392 749 394 748 391 749 L391 748 L391 748 Z M207 1 L207 19 L183 51 L183 761 L160 761 L70 723 L68 723 L68 722 L44 712 L44 706 L48 695 C63 649 68 636 68 635 L68 51 L44 19 L44 1 L207 1 L207 1 Z " />
<glyph glyph-name="Nacute" unicode="&#x143;" horiz-adv-x="670" d="M345 705 L362 705 L489 785 C521 805 530 864 530 864 L415 864 L345 705 L345 705 Z M63 641 L91 605 L91 55 L62 19 L62 0 L228 0 L228 19 L191 55 L191 441 C303 292 415 143 527 -5 L581 -5 L581 605 L609 641 L609 660 L444 660 L444 641 L481 605 L481 271 L191 660 L63 660 L63 641 L63 641 Z " />
<glyph glyph-name="nacute" unicode="&#x144;" horiz-adv-x="476" d="M242 530 L259 530 L386 619 C418 641 427 707 427 707 L312 707 L242 530 L242 530 Z M437 0 L437 18 L413 50 L413 343 C413 433 388 460 305 460 C246 460 228 442 186 384 C185 419 184 459 184 459 L161 459 L51 410 L51 404 L55 393 C70 347 75 334 75 333 L75 49 L51 17 L51 -1 L216 -1 L216 17 L190 49 L190 344 C200 355 211 358 242 358 C286 358 299 339 299 276 L299 49 L273 17 L273 -1 L437 0 L437 0 Z " />
<glyph glyph-name="Ncaron" unicode="&#x147;" horiz-adv-x="670" d="M494 867 L493 867 L494 868 L494 867 L494 867 Z M331 710 L332 711 L360 711 L361 710 L493 867 L477 867 L346 797 L220 867 L203 867 L331 710 L331 710 Z M63 641 L91 605 L91 55 L62 19 L62 0 L228 0 L228 19 L191 55 L191 441 C303 292 415 143 527 -5 L581 -5 L581 605 L609 641 L609 660 L444 660 L444 641 L481 605 L481 271 L191 660 L63 660 L63 641 L63 641 Z " />
<glyph glyph-name="ncaron" unicode="&#x148;" horiz-adv-x="476" d="M259 535 L392 710 L375 710 L244 631 L117 710 L100 710 L229 535 L259 535 L259 535 Z M437 0 L437 18 L413 50 L413 343 C413 433 388 460 305 460 C246 460 228 442 186 384 C185 419 184 459 184 459 L161 459 L51 410 L51 404 L55 393 C70 347 75 334 75 333 L75 49 L51 17 L51 -1 L216 -1 L216 17 L190 49 L190 344 C200 355 211 358 242 358 C286 358 299 339 299 276 L299 49 L273 17 L273 -1 L437 0 L437 0 Z " />
<glyph glyph-name="Omacron" unicode="&#x14c;" horiz-adv-x="777" d="M261 763 L487 763 L487 835 L261 835 L261 763 L261 763 Z M208 375 C208 548 244 600 363 600 C522 600 570 526 570 277 C570 111 535 62 418 62 C256 62 208 134 208 375 L208 375 Z M70 324 C70 67 143 -10 389 -10 C634 -10 707 68 707 328 C707 591 634 670 389 670 C143 670 70 590 70 324 L70 324 Z " />
<glyph glyph-name="omacron" unicode="&#x14d;" horiz-adv-x="508" d="M141 593 L367 593 L367 665 L141 665 L141 593 L141 593 Z M182 225 C182 360 190 400 234 400 C305 400 326 360 326 225 C326 90 318 50 274 50 C203 50 182 90 182 225 L182 225 Z M50 225 C50 44 97 -10 254 -10 C427 -10 458 44 458 225 C458 406 411 460 254 460 C81 460 50 406 50 225 L50 225 Z " />
<glyph glyph-name="Racute" unicode="&#x154;" horiz-adv-x="582" d="M223 705 L240 705 L367 785 C399 805 408 864 408 864 L293 864 L223 705 L223 705 Z M571 18 L531 50 L374 288 C457 309 485 363 485 475 C485 617 440 660 288 660 L66 660 L66 641 L95 605 L95 55 L66 19 L66 0 L252 0 L252 19 L224 55 L224 277 L228 277 L410 0 L572 0 L571 18 L571 18 Z M224 357 L224 581 C241 581 255 581 256 581 C325 581 345 554 345 464 C345 381 333 356 292 356 C292 356 273 357 224 357 L224 357 Z " />
<glyph glyph-name="racute" unicode="&#x155;" horiz-adv-x="352" d="M207 530 L224 530 L351 619 C383 641 392 707 392 707 L277 707 L207 530 L207 530 Z M276 460 C246 460 230 440 189 375 L189 377 L186 377 C184 413 183 459 183 459 L160 459 L50 410 L50 404 L54 393 C69 347 74 334 74 333 L74 49 L50 17 L50 -1 L215 -1 L215 17 L189 49 L189 326 C199 341 203 346 205 346 C229 346 243 343 267 333 C282 326 305 312 305 312 L312 312 C343 375 352 397 352 408 C352 423 346 432 329 445 C316 457 293 459 276 459 L276 460 L276 460 Z " />
<glyph glyph-name="Rcaron" unicode="&#x158;" horiz-adv-x="582" d="M382 867 L381 867 L382 868 L382 867 L382 867 Z M219 710 L220 711 L248 711 L249 710 L381 867 L365 867 L234 797 L108 867 L91 867 L219 710 L219 710 Z M571 18 L531 50 L374 288 C457 309 485 363 485 475 C485 617 440 660 288 660 L66 660 L66 641 L95 605 L95 55 L66 19 L66 0 L252 0 L252 19 L224 55 L224 277 L228 277 L410 0 L572 0 L571 18 L571 18 Z M224 357 L224 581 C241 581 255 581 256 581 C325 581 345 554 345 464 C345 381 333 356 292 356 C292 356 273 357 224 357 L224 357 Z " />
<glyph glyph-name="rcaron" unicode="&#x159;" horiz-adv-x="352" d="M223 535 L356 710 L339 710 L208 632 L82 710 L65 710 L193 535 L223 535 L223 535 Z M276 460 C246 460 230 440 189 375 L189 377 L186 377 C184 413 183 459 183 459 L160 459 L50 410 L50 404 L54 393 C69 347 74 334 74 333 L74 49 L50 17 L50 -1 L215 -1 L215 17 L189 49 L189 326 C199 341 203 346 205 346 C229 346 243 343 267 333 C282 326 305 312 305 312 L312 312 C343 375 352 397 352 408 C352 423 346 432 329 445 C316 457 293 459 276 459 L276 460 L276 460 Z " />
<glyph glyph-name="Sacute" unicode="&#x15a;" horiz-adv-x="506" d="M212 705 L229 705 L356 785 C388 805 397 864 397 864 L282 864 L212 705 L212 705 Z M107 69 C108 68 108 68 107 68 L107 69 L107 69 Z M331 577 C336 571 351 554 378 524 C386 515 392 510 400 501 L421 501 L417 627 C393 659 359 668 267 668 C125 668 83 625 83 482 C83 384 103 363 212 292 C309 229 327 213 327 157 C327 79 312 56 263 56 C212 56 181 69 135 113 C130 118 125 123 119 131 C106 149 97 160 84 178 L63 178 L66 31 C100 -2 144 -12 261 -12 C406 -12 449 34 449 190 C449 293 427 316 307 394 C224 448 209 463 209 529 C209 583 219 599 252 599 C286 599 308 593 328 576 L331 577 L331 577 Z " />
<glyph glyph-name="sacute" unicode="&#x15b;" horiz-adv-x="403" d="M195 530 L212 530 L339 619 C371 641 380 707 380 707 L265 707 L195 530 L195 530 Z M61 54 L61 54 L61 54 L61 54 Z M298 342 C304 342 310 341 317 341 L319 427 C275 452 246 460 195 460 C103 460 76 429 76 327 C76 224 89 211 158 186 C221 164 232 154 232 91 C232 53 222 41 190 41 C180 41 167 44 144 53 C127 62 111 76 90 99 C85 104 82 108 77 113 C73 113 69 114 64 114 L63 89 L63 89 L62 17 C108 -5 140 -11 199 -11 C304 -11 335 21 335 127 C335 237 321 250 244 278 C189 298 179 306 179 369 C179 395 185 403 203 403 C216 403 232 398 260 384 C271 375 289 356 301 340 L298 342 L298 342 Z " />
<glyph glyph-name="Scedilla" unicode="&#x15e;" horiz-adv-x="506" d="M282 -54 C291 -29 296 -15 299 -9 C415 -1 451 50 451 192 C451 295 429 318 309 396 C226 450 211 465 211 531 C211 585 221 601 254 601 C288 601 310 595 330 578 C335 572 350 555 377 525 C385 516 391 511 399 502 L420 502 L416 628 C392 660 358 669 266 669 C124 669 82 626 82 483 C82 385 102 364 211 293 C308 230 326 214 326 158 C326 80 311 57 262 57 C211 57 180 70 134 114 C129 119 124 124 118 132 C105 150 96 161 83 179 L62 179 L65 32 C97 0 139 -11 245 -12 C240 -24 227 -57 201 -129 L245 -145 C255 -146 258 -153 258 -174 C258 -196 252 -202 234 -202 C205 -202 193 -197 181 -182 L181 -197 C208 -232 225 -242 254 -242 C323 -242 344 -221 344 -151 C344 -93 328 -67 279 -55 L282 -54 L282 -54 Z M105 68 C106 67 106 67 105 67 L105 68 L105 68 Z " />
<glyph glyph-name="scedilla" unicode="&#x15f;" horiz-adv-x="403" d="M216 -54 C226 -29 231 -15 234 -9 C310 -1 334 35 334 128 C334 238 320 251 243 279 C188 299 178 307 178 370 C178 396 184 404 202 404 C215 404 231 399 259 385 C270 376 288 357 300 341 C306 341 312 340 319 340 L321 426 C277 451 248 459 197 459 C105 459 78 428 78 326 C78 223 91 210 160 185 C223 163 234 153 234 90 C234 52 224 40 192 40 C182 40 169 43 146 52 C129 61 113 75 92 98 C87 103 84 107 79 112 C75 112 71 113 66 113 L65 88 L65 88 L65 52 L65 52 L64 16 C106 -4 136 -11 186 -12 C181 -24 168 -57 142 -129 L186 -145 C196 -146 199 -153 199 -174 C199 -196 193 -202 175 -202 C146 -202 134 -197 122 -182 L122 -197 C149 -232 166 -242 195 -242 C264 -242 285 -221 285 -151 C285 -93 269 -67 220 -55 L216 -54 L216 -54 Z " />
<glyph glyph-name="Scaron" unicode="&#x160;" horiz-adv-x="506" d="M377 867 L376 867 L377 868 L377 867 L377 867 Z M214 710 L215 711 L243 711 L244 710 L376 867 L360 867 L229 796 L102 867 L85 867 L214 710 L214 710 Z M107 69 C108 68 108 68 107 68 L107 69 L107 69 Z M331 577 C336 571 351 554 378 524 C386 515 392 510 400 501 L421 501 L417 627 C393 659 359 668 267 668 C125 668 83 625 83 482 C83 384 103 363 212 292 C309 229 327 213 327 157 C327 79 312 56 263 56 C212 56 181 69 135 113 C130 118 125 123 119 131 C106 149 97 160 84 178 L63 178 L66 31 C100 -2 144 -12 261 -12 C406 -12 449 34 449 190 C449 293 427 316 307 394 C224 448 209 463 209 529 C209 583 219 599 252 599 C286 599 308 593 328 576 L331 577 L331 577 Z " />
<glyph glyph-name="scaron" unicode="&#x161;" horiz-adv-x="403" d="M211 535 L344 710 L327 710 L196 632 L70 710 L53 710 L181 535 L211 535 L211 535 Z M61 54 L61 54 L61 54 L61 54 Z M298 342 C304 342 310 341 317 341 L319 427 C275 452 246 460 195 460 C103 460 76 429 76 327 C76 224 89 211 158 186 C221 164 232 154 232 91 C232 53 222 41 190 41 C180 41 167 44 144 53 C127 62 111 76 90 99 C85 104 82 108 77 113 C73 113 69 114 64 114 L63 89 L63 89 L62 17 C108 -5 140 -11 199 -11 C304 -11 335 21 335 127 C335 237 321 250 244 278 C189 298 179 306 179 369 C179 395 185 403 203 403 C216 403 232 398 260 384 C271 375 289 356 301 340 L298 342 L298 342 Z " />
<glyph glyph-name="Tcaron" unicode="&#x164;" horiz-adv-x="644" d="M472 867 L471 867 L472 868 L472 867 L472 867 Z M309 710 L310 711 L338 711 L339 710 L471 867 L455 867 L324 797 L198 867 L181 867 L309 710 L309 710 Z M43 620 C44 585 45 564 46 528 L64 528 L125 581 L257 581 L257 55 L220 19 L220 0 L424 0 L424 19 L387 55 L387 581 L517 581 L578 528 L596 528 C597 549 598 565 599 582 L600 582 L600 661 L44 661 L43 620 L43 620 Z " />
<glyph glyph-name="tcaron" unicode="&#x165;" horiz-adv-x="353" d="M323 82 L319 96 C318 93 305 92 262 92 C218 92 205 104 205 144 L205 382 L311 382 L311 450 L205 450 L205 573 L196 573 L90 450 L18 391 L18 382 L90 382 L90 120 C90 20 116 -10 203 -10 C266 -10 294 11 323 82 L323 82 Z M413 748 C412 749 409 750 403 750 L295 750 L274 563 L291 563 L413 748 L413 748 Z M413 748 L425 766 C414 749 416 748 413 749 L413 748 L413 748 Z " />
<glyph glyph-name="Utilde" unicode="&#x168;" horiz-adv-x="666" d="M210 705 C223 744 224 755 243 755 C295 755 327 694 379 694 C427 694 431 725 465 830 L446 830 C433 790 432 778 413 778 C361 778 329 839 277 839 C228 839 225 808 191 705 L210 705 L210 705 Z M84 605 L84 234 C84 46 140 -10 328 -10 C516 -10 572 46 572 234 L572 605 L601 641 L601 660 L435 660 L435 641 L472 605 L472 203 C472 103 448 73 367 73 C248 73 213 115 213 257 L213 605 L242 641 L242 660 L55 660 L55 641 L84 605 L84 605 Z " />
<glyph glyph-name="utilde" unicode="&#x169;" horiz-adv-x="438" d="M97 535 C110 574 111 585 130 585 C182 585 213 524 265 524 C313 524 317 555 351 660 L332 660 C319 620 318 608 299 608 C247 608 216 669 164 669 C115 669 112 638 78 535 L97 535 L97 535 Z M274 400 L274 105 C261 97 247 95 221 95 C177 95 164 114 164 176 L164 450 L25 450 L25 432 L49 400 L49 107 C49 17 73 -10 155 -10 C192 -10 215 1 273 58 L273 1 L414 1 L414 19 L388 51 L388 451 L247 451 L247 433 L274 400 L274 400 Z " />
<glyph glyph-name="Umacron" unicode="&#x16a;" horiz-adv-x="666" d="M225 763 L451 763 L451 835 L225 835 L225 763 L225 763 Z M84 605 L84 234 C84 46 140 -10 328 -10 C516 -10 572 46 572 234 L572 605 L601 641 L601 660 L435 660 L435 641 L472 605 L472 203 C472 103 448 73 367 73 C248 73 213 115 213 257 L213 605 L242 641 L242 660 L55 660 L55 641 L84 605 L84 605 Z " />
<glyph glyph-name="umacron" unicode="&#x16b;" horiz-adv-x="438" d="M102 593 L328 593 L328 665 L102 665 L102 593 L102 593 Z M274 400 L274 105 C261 97 247 95 221 95 C177 95 164 114 164 176 L164 450 L25 450 L25 432 L49 400 L49 107 C49 17 73 -10 155 -10 C192 -10 215 1 273 58 L273 1 L414 1 L414 19 L388 51 L388 451 L247 451 L247 433 L274 400 L274 400 Z " />
<glyph glyph-name="Uring" unicode="&#x16e;" horiz-adv-x="666" d="M313 809 C313 843 317 853 330 853 C348 853 353 839 353 790 C353 758 349 744 339 744 C321 744 313 764 313 809 L313 809 Z M242 799 C242 737 270 710 333 710 C396 710 424 738 424 802 C424 867 403 887 333 887 C263 887 242 867 242 799 L242 799 Z M84 605 L84 234 C84 46 140 -10 328 -10 C516 -10 572 46 572 234 L572 605 L601 641 L601 660 L435 660 L435 641 L472 605 L472 203 C472 103 448 73 367 73 C248 73 213 115 213 257 L213 605 L242 641 L242 660 L55 660 L55 641 L84 605 L84 605 Z " />
<glyph glyph-name="uring" unicode="&#x16f;" horiz-adv-x="438" d="M195 634 C195 668 199 678 211 678 C229 678 234 664 234 615 C234 583 230 569 220 569 C203 569 195 589 195 634 L195 634 Z M124 624 C124 562 152 535 215 535 C277 535 305 563 305 627 C305 692 284 712 215 712 C145 712 124 692 124 624 L124 624 Z M274 400 L274 105 C261 97 247 95 221 95 C177 95 164 114 164 176 L164 450 L25 450 L25 432 L49 400 L49 107 C49 17 73 -10 155 -10 C192 -10 215 1 273 58 L273 1 L414 1 L414 19 L388 51 L388 451 L247 451 L247 433 L274 400 L274 400 Z " />
<glyph glyph-name="Ydieresis" unicode="&#x178;" horiz-adv-x="650" d="M441 735 C496 735 512 752 512 807 C512 862 496 879 441 879 C386 879 369 862 369 807 C369 752 386 735 441 735 L441 735 Z M226 735 C281 735 297 752 297 807 C297 862 281 879 226 879 C171 879 154 862 154 807 C154 752 171 735 226 735 L226 735 Z M216 660 L39 660 L39 642 L75 610 L270 315 L270 55 L237 19 L237 0 L432 0 L432 19 L399 55 L399 321 C459 421 519 521 580 620 L610 646 L610 660 L466 660 L466 641 C467 638 474 605 476 605 L353 397 C307 466 260 535 214 604 L217 640 L216 660 L216 660 Z " />
<glyph glyph-name="Zacute" unicode="&#x179;" horiz-adv-x="606" d="M300 705 L317 705 L444 785 C476 805 485 864 485 864 L370 864 L300 705 L300 705 Z M96 620 C97 588 98 568 99 535 L117 535 L178 581 L359 581 C268 399 178 216 86 35 L86 -1 L516 -1 L516 78 L514 78 C513 93 512 108 511 128 L493 128 L432 78 L234 78 C323 255 412 432 501 609 L501 658 L96 658 L96 620 L96 620 Z " />
<glyph glyph-name="zacute" unicode="&#x17a;" horiz-adv-x="449" d="M223 530 L240 530 L367 619 C399 641 408 707 408 707 L293 707 L223 530 L223 530 Z M74 348 L91 348 L127 385 L225 385 C174 265 123 145 71 26 L71 0 L374 0 L374 32 L375 32 L375 104 L358 104 L325 65 L211 65 C263 185 314 306 367 426 L367 450 L133 450 L93 454 L83 454 C83 453 83 452 83 451 L82 451 C82 415 78 385 75 350 L74 348 L74 348 Z " />
<glyph glyph-name="Zdot" unicode="&#x17b;" horiz-adv-x="606" d="M311 725 C373 725 391 743 391 805 C391 867 373 885 311 885 C249 885 231 867 231 805 C231 743 249 725 311 725 L311 725 Z M96 620 C97 588 98 568 99 535 L117 535 L178 581 L359 581 C268 399 178 216 86 35 L86 -1 L516 -1 L516 78 L514 78 C513 93 512 108 511 128 L493 128 L432 78 L234 78 C323 255 412 432 501 609 L501 658 L96 658 L96 620 L96 620 Z " />
<glyph glyph-name="zdot" unicode="&#x17c;" horiz-adv-x="449" d="M230 583 C292 583 310 601 310 663 C310 725 292 743 230 743 C168 743 150 725 150 663 C150 601 168 583 230 583 L230 583 Z M74 348 L91 348 L127 385 L225 385 C174 265 123 145 71 26 L71 0 L374 0 L374 32 L375 32 L375 104 L358 104 L325 65 L211 65 C263 185 314 306 367 426 L367 450 L133 450 L93 454 L83 454 C83 453 83 452 83 451 L82 451 C82 415 78 385 75 350 L74 348 L74 348 Z " />
<glyph glyph-name="Zcaron" unicode="&#x17d;" horiz-adv-x="606" d="M464 867 L463 867 L464 868 L464 867 L464 867 Z M301 710 L302 711 L330 711 L331 710 L463 867 L447 867 L316 797 L190 867 L173 867 L301 710 L301 710 Z M96 620 C97 588 98 568 99 535 L117 535 L178 581 L359 581 C268 399 178 216 86 35 L86 -1 L516 -1 L516 78 L514 78 C513 93 512 108 511 128 L493 128 L432 78 L234 78 C323 255 412 432 501 609 L501 658 L96 658 L96 620 L96 620 Z " />
<glyph glyph-name="zcaron" unicode="&#x17e;" horiz-adv-x="449" d="M240 535 L373 710 L356 710 L225 631 L98 710 L81 710 L210 535 L240 535 L240 535 Z M74 348 L91 348 L127 385 L225 385 C174 265 123 145 71 26 L71 0 L374 0 L374 32 L375 32 L375 104 L358 104 L325 65 L211 65 C263 185 314 306 367 426 L367 450 L133 450 L93 454 L83 454 C83 453 83 452 83 451 L82 451 C82 415 78 385 75 350 L74 348 L74 348 Z " />
<glyph glyph-name="oogonek" unicode="&#x1eb;" horiz-adv-x="726" d="M743 -120 L743 -100 C727 -109 710 -112 667 -112 C623 -112 570 -31 511 5 C620 36 656 116 656 280 C656 507 589 575 363 575 C137 575 70 507 70 278 C70 47 147 -15 387 -10 C461 -61 527 -155 588 -155 C661 -155 697 -147 744 -120 L743 -120 L743 -120 Z M195 323 C195 469 229 512 341 512 C489 512 533 448 533 235 C533 96 500 55 390 55 C240 55 195 117 195 323 L195 323 Z " />
<glyph glyph-name="G_sc" unicode="&#x262;" horiz-adv-x="644" d="M489 456 C489 456 530 419 535 414 L553 414 L551 530 C516 565 475 575 370 575 C139 575 70 503 70 264 C70 53 135 -10 354 -10 C452 -10 502 14 569 94 L569 193 L597 229 L597 248 L422 248 L422 229 L453 193 L453 77 C437 69 417 66 389 66 C236 66 190 121 190 303 C190 462 231 510 370 510 C425 510 456 490 490 456 L489 456 L489 456 Z " />
<glyph glyph-name="I_sc" unicode="&#x26a;" horiz-adv-x="315" d="M245 0 L245 19 L216 55 L216 510 L245 546 L245 565 L70 565 L70 546 L99 510 L99 55 L70 19 L70 0 L245 0 L245 0 Z " />
<glyph glyph-name="N_sc" unicode="&#x274;" horiz-adv-x="620" d="M63 546 L91 510 L91 55 L62 19 L62 0 L219 0 L219 19 L182 55 L182 373 C282 247 383 122 483 -5 L531 -5 L531 510 L559 546 L559 565 L403 565 L403 546 L440 510 L440 238 L182 565 L63 565 L63 546 L63 546 Z " />
<glyph glyph-name="R_sc" unicode="&#x280;" horiz-adv-x="525" d="M514 0 L514 18 L475 49 L343 251 C407 270 429 316 429 406 C429 528 390 564 261 564 L65 564 L65 545 L94 509 L94 54 L65 18 L65 -1 L238 -1 L238 18 L210 54 L210 239 L213 239 L368 -1 L514 0 L514 0 Z M210 310 L210 493 C222 493 231 493 232 493 C287 493 303 471 303 396 C303 331 294 311 262 311 L210 310 L210 310 Z " />
<glyph glyph-name="Y_sc" unicode="&#x28f;" horiz-adv-x="600" d="M204 565 L40 565 L40 547 L77 516 L250 273 L250 55 L217 19 L217 0 L399 0 L399 19 L366 55 L366 276 L528 525 L560 551 L560 565 L425 565 L425 546 L431 510 L431 510 L326 347 L205 510 L204 546 L204 565 L204 565 Z " />
<glyph glyph-name="B_sc" unicode="&#x299;" horiz-adv-x="491" d="M368 316 C404 340 418 377 418 432 C418 534 394 565 258 565 L66 565 L66 546 L95 510 L95 55 L66 19 L66 0 L248 0 C397 0 442 44 442 190 C442 259 428 297 369 316 L368 316 L368 316 Z M211 332 L211 494 C220 494 227 494 228 494 C286 494 297 473 297 401 C297 355 276 337 211 333 L211 332 L211 332 Z M211 72 L211 260 L254 260 C311 260 321 242 321 181 C321 97 304 72 248 72 L211 72 L211 72 Z " />
<glyph glyph-name="H_sc" unicode="&#x29c;" horiz-adv-x="627" d="M562 0 L562 19 L533 55 L533 510 L562 546 L562 565 L388 565 L388 546 L417 510 L417 327 L210 327 L210 510 L239 546 L239 565 L65 565 L65 546 L94 510 L94 55 L65 19 L65 0 L239 0 L239 19 L210 55 L210 255 L417 255 L417 55 L388 19 L388 0 L562 0 L562 0 Z " />
<glyph glyph-name="L_sc" unicode="&#x29f;" horiz-adv-x="500" d="M427 71 C426 90 425 108 424 132 L406 132 L346 71 L209 71 L209 510 L240 546 L240 565 L64 565 L64 546 L93 510 L93 55 L64 19 L64 0 L429 0 L429 71 L427 71 L427 71 Z " />
<glyph glyph-name="circumflex" unicode="&#x2c6;" horiz-adv-x="290" d="M293 530 L160 705 L130 705 L2 530 L19 530 L145 608 L276 530 L293 530 L293 530 Z " />
<glyph glyph-name="caron" unicode="&#x2c7;" horiz-adv-x="290" d="M160 535 L293 710 L276 710 L145 632 L19 710 L2 710 L130 535 L160 535 L160 535 Z " />
<glyph glyph-name="firsttonechinese" unicode="&#x2c9;" horiz-adv-x="290" d="M32 528 L258 528 L258 600 L32 600 L32 528 L32 528 Z " />
<glyph glyph-name="breve" unicode="&#x2d8;" horiz-adv-x="290" d="M31 731 L10 731 C51 573 61 560 145 560 C229 560 239 573 280 731 L260 731 C242 662 233 656 145 656 C57 656 49 662 31 731 L31 731 Z " />
<glyph glyph-name="dotaccent" unicode="&#x2d9;" horiz-adv-x="290" d="M145 610 C200 610 217 627 217 682 C217 737 200 754 145 754 C90 754 73 737 73 682 C73 627 90 610 145 610 L145 610 Z " />
<glyph glyph-name="ring" unicode="&#x2da;" horiz-adv-x="290" d="M125 629 C125 663 129 673 142 673 C160 673 165 659 165 610 C165 578 161 564 151 564 C133 564 125 584 125 629 L125 629 Z M54 619 C54 557 82 530 145 530 C208 530 236 558 236 622 C236 687 215 707 145 707 C75 707 54 687 54 619 L54 619 Z " />
<glyph glyph-name="A_sc" unicode="&#x1d00;" horiz-adv-x="609" d="M172 18 L154 50 L152 50 C161 77 174 115 193 165 L193 156 L376 156 L376 158 L418 50 L397 18 L397 0 L558 0 L558 0 L571 0 L571 16 L540 45 L538 45 C485 175 343 538 343 538 L330 570 L271 570 C155 277 93 121 65 50 L28 18 L28 0 L170 0 L172 18 L172 18 Z M347 227 L214 227 C232 276 254 334 280 401 L347 227 L347 227 Z " />
<glyph glyph-name="C_sc" unicode="&#x1d04;" horiz-adv-x="631" d="M528 149 C510 133 500 123 482 107 C444 73 405 55 349 55 C226 55 189 112 189 303 C189 462 228 510 358 510 C394 510 418 503 445 479 C446 478 463 461 468 456 L469 457 C486 441 497 431 515 414 L533 414 L531 530 C499 565 459 575 359 575 C136 575 70 503 70 264 C70 53 134 -10 350 -10 C455 -10 499 1 541 38 L544 149 L528 149 L528 149 Z " />
<glyph glyph-name="D_sc" unicode="&#x1d05;" horiz-adv-x="643" d="M297 0 C510 7 573 56 573 310 C573 526 504 565 275 565 L65 565 L65 546 L94 510 L94 55 L65 19 L65 0 L297 0 L297 0 Z M210 71 L210 494 C228 494 242 495 242 495 C404 495 452 460 452 266 C452 106 416 75 294 71 L210 71 L210 71 Z " />
<glyph glyph-name="E_sc" unicode="&#x1d07;" horiz-adv-x="517" d="M444 71 C444 85 444 99 443 117 L426 117 L369 71 L210 71 L210 255 L272 255 L314 226 L337 226 L337 356 L314 356 L272 327 L210 327 L210 494 L344 494 L401 452 L418 452 C419 468 419 481 419 494 L422 494 L422 565 L65 565 L65 546 L94 510 L94 55 L65 19 L65 0 L447 0 L447 71 L444 71 L444 71 Z " />
<glyph glyph-name="J_sc" unicode="&#x1d0a;" horiz-adv-x="315" d="M99 510 L99 50 C99 -49 91 -79 65 -79 C65 -79 31 -76 -3 -67 L-9 -67 C-9 -67 -22 -134 -22 -140 C-22 -165 -12 -173 21 -173 C170 -173 215 -79 215 234 C216 234 216 416 216 510 L245 546 L245 565 L70 565 L70 546 L99 510 L99 510 Z " />
<glyph glyph-name="K_sc" unicode="&#x1d0b;" horiz-adv-x="631" d="M592 14 L555 40 L311 328 L497 526 L536 551 L536 565 L377 565 L377 547 L383 515 L211 289 L440 0 L591 0 L592 14 L592 14 Z M239 0 L239 19 L210 55 L210 510 L239 546 L239 565 L65 565 L65 546 L94 510 L94 55 L65 19 L65 0 L239 0 L239 0 Z " />
<glyph glyph-name="M_sc" unicode="&#x1d0d;" horiz-adv-x="785" d="M77 546 L108 510 L91 55 L60 19 L60 0 L198 0 L198 19 L168 55 L177 403 L345 -5 L403 -5 L573 400 L588 55 L561 20 L561 1 L724 1 L724 20 L697 56 L697 56 L677 511 L707 547 L707 566 L566 566 L401 158 L233 566 L77 566 L77 546 L77 546 Z " />
<glyph glyph-name="O_sc" unicode="&#x1d0f;" horiz-adv-x="726" d="M194 323 C194 469 228 512 340 512 C488 512 532 448 532 235 C532 96 499 55 389 55 C239 55 194 117 194 323 L194 323 Z M70 278 C70 56 137 -10 363 -10 C589 -10 656 57 656 280 C656 507 589 575 363 575 C137 575 70 507 70 278 L70 278 Z " />
<glyph glyph-name="P_sc" unicode="&#x1d18;" horiz-adv-x="499" d="M245 0 L245 19 L210 55 L210 240 L236 240 C385 240 429 278 429 407 C429 529 390 565 261 565 L65 565 L65 546 L94 510 L94 55 L65 19 L65 0 L245 0 L245 0 Z M210 311 L210 494 C222 494 231 494 232 494 C287 494 303 472 303 397 C303 332 294 312 262 312 L210 311 L210 311 Z " />
<glyph glyph-name="T_sc" unicode="&#x1d1b;" horiz-adv-x="593" d="M43 529 C44 496 45 475 46 441 L64 441 L125 494 L238 494 L238 55 L201 19 L201 0 L392 0 L392 19 L355 55 L355 494 L466 494 L527 441 L545 441 C546 461 547 477 548 494 L549 494 L549 565 L44 565 L43 529 L43 529 Z " />
<glyph glyph-name="U_sc" unicode="&#x1d1c;" horiz-adv-x="619" d="M397 546 C409 534 421 522 434 510 L435 172 C435 90 413 65 341 65 C235 65 203 101 203 221 L204 510 L204 510 L233 546 L233 565 L58 565 L58 546 L87 510 L87 200 C87 38 137 -10 306 -10 C475 -10 525 38 525 200 L525 510 L554 546 L554 565 L397 565 L397 546 L397 546 Z " />
<glyph glyph-name="V_sc" unicode="&#x1d20;" horiz-adv-x="598" d="M211 565 L37 565 L37 547 L69 515 C131 342 193 169 255 -4 L312 -4 L533 527 L560 552 L560 566 L425 566 L425 547 L440 511 L440 511 L301 159 C264 276 226 394 189 511 L211 547 L211 565 L211 565 Z " />
<glyph glyph-name="W_sc" unicode="&#x1d21;" horiz-adv-x="826" d="M806 565 L666 565 L666 546 L686 511 L584 190 C541 317 498 443 456 570 L403 570 C351 443 299 315 247 187 L168 510 L195 546 L195 565 L20 565 L20 547 L49 515 C98 342 146 168 196 -5 L245 -5 C302 122 357 250 413 378 C459 250 504 121 551 -6 L600 -6 C659 171 720 347 780 524 L808 550 L806 565 L806 565 Z " />
<glyph glyph-name="Z_sc" unicode="&#x1d22;" horiz-adv-x="558" d="M98 529 C99 498 99 480 100 448 L118 448 L179 494 L323 494 C245 340 167 186 88 32 L88 0 L468 0 L468 71 L465 71 C464 87 463 102 462 121 L444 121 L383 71 L222 71 C299 222 375 373 453 523 L453 565 L98 565 L98 529 L98 529 Z " />
<glyph glyph-name="Etilde" unicode="&#x1ebc;" horiz-adv-x="568" d="M165 705 C178 744 179 755 198 755 C250 755 281 694 333 694 C381 694 385 725 419 830 L400 830 C387 790 386 778 367 778 C315 778 284 839 232 839 C183 839 180 808 146 705 L165 705 L165 705 Z M419 79 L223 79 L223 300 L323 300 L365 271 L388 271 L388 409 L365 409 L323 380 L223 380 L223 581 L395 581 L452 539 L469 539 C470 555 470 568 470 581 L473 581 L473 660 L65 660 L65 641 L94 605 L94 55 L65 19 L65 0 L498 0 L498 79 L495 79 C494 93 493 107 492 125 L475 125 L419 79 L419 79 Z " />
<glyph glyph-name="endash" unicode="&#x2013;" horiz-adv-x="460" d="M50 231 L410 231 L410 303 L50 303 L50 231 L50 231 Z " />
<glyph glyph-name="emdash" unicode="&#x2014;" horiz-adv-x="960" d="M50 231 L910 231 L910 303 L50 303 L50 231 L50 231 Z " />
<glyph glyph-name="quoteleft" unicode="&#x2018;" horiz-adv-x="263" d="M174 607 C134 622 122 638 122 677 C122 709 142 719 211 721 L211 750 C85 747 47 717 47 621 C47 544 66 514 131 490 C165 477 183 472 196 509 L219 568 L219 583 L174 607 L174 607 Z " />
<glyph glyph-name="quoteright" unicode="&#x2019;" horiz-adv-x="263" d="M84 633 C124 618 136 602 136 563 C136 531 116 521 47 519 L47 490 C173 493 211 523 211 619 C211 696 192 726 127 750 C93 763 75 768 62 731 L39 672 L39 657 L84 633 L84 633 Z " />
<glyph glyph-name="quotedblleft" unicode="&#x201c;" horiz-adv-x="472" d="M174 607 C134 622 122 638 122 677 C122 709 142 721 211 721 L211 750 C85 750 47 717 47 621 C47 544 66 514 131 490 C165 477 183 472 196 509 L219 568 L219 583 L174 607 L174 607 Z M382 607 C342 622 330 638 330 677 C330 709 350 721 419 721 L419 750 C293 750 255 717 255 621 C255 544 274 514 339 490 C373 477 391 472 404 509 L427 568 L427 583 L382 607 L382 607 Z " />
<glyph glyph-name="quotedblright" unicode="&#x201d;" horiz-adv-x="472" d="M293 633 C333 618 345 602 345 563 C345 531 325 521 256 519 L256 490 C382 493 420 523 420 619 C420 696 401 726 336 750 C302 763 284 768 271 731 L248 672 L248 657 L293 633 L293 633 Z M85 633 C125 618 137 602 137 563 C137 531 117 521 48 519 L48 490 C174 493 212 523 212 619 C212 696 193 726 128 750 C94 763 76 768 63 731 L40 672 L40 657 L85 633 L85 633 Z " />
<glyph glyph-name="bullet" unicode="&#x2022;" horiz-adv-x="580" d="M290 128 C413 128 450 165 450 288 C450 411 413 448 290 448 C167 448 130 411 130 288 C130 165 167 128 290 128 L290 128 Z " />
<glyph glyph-name="ellipsis" unicode="&#x2026;" horiz-adv-x="730" d="M585 -10 C647 -10 665 8 665 70 C665 132 647 150 585 150 C523 150 505 132 505 70 C505 8 523 -10 585 -10 L585 -10 Z M365 -10 C427 -10 445 8 445 70 C445 132 427 150 365 150 C303 150 285 132 285 70 C285 8 303 -10 365 -10 L365 -10 Z M145 -10 C207 -10 225 8 225 70 C225 132 207 150 145 150 C83 150 65 132 65 70 C65 8 83 -10 145 -10 L145 -10 Z " />
<glyph glyph-name="perthousand" unicode="&#x2030;" horiz-adv-x="1085" d="M895 213 C895 327 899 361 913 361 C953 361 965 317 965 168 C965 59 959 27 939 27 C905 27 895 70 895 213 L895 213 Z M783 192 C783 36 817 -10 929 -10 C1040 -10 1073 40 1073 207 C1073 352 1040 395 929 395 C817 395 783 348 783 192 L783 192 Z M143 574 C143 691 147 726 161 726 C201 726 213 680 213 528 C213 423 207 392 187 392 C153 392 143 434 143 574 L143 574 Z M31 552 C31 400 65 355 177 355 C288 355 321 404 321 567 C321 716 288 760 177 760 C65 760 31 712 31 552 L31 552 Z M554 213 C554 327 560 361 580 361 C631 361 646 316 646 167 C646 59 637 27 606 27 C566 27 554 70 554 213 L554 213 Z M441 191 C441 36 477 -10 596 -10 C718 -10 754 40 754 206 C754 352 718 395 596 395 C477 395 441 348 441 191 L441 191 Z M202 -15 L647 735 L596 765 L151 15 L202 -15 L202 -15 Z " />
<glyph glyph-name="guilsinglleft" unicode="&#x2039;" horiz-adv-x="221" d="M187 425 L17 248 L187 70 L201 70 L145 248 L201 425 L187 425 L187 425 Z " />
<glyph glyph-name="guilsinglright" unicode="&#x203a;" horiz-adv-x="227" d="M20 425 L79 248 L20 70 L34 70 L207 248 L34 425 L20 425 L20 425 Z " />
<glyph glyph-name="fraction" unicode="&#x2044;" horiz-adv-x="461" d="M56 -15 L501 735 L449 765 L4 15 L56 -15 L56 -15 Z " />
<glyph glyph-name="Euro" unicode="&#x20ac;" horiz-adv-x="481" d="M456 108 C439 84 420 77 375 77 C270 77 236 114 226 225 L346 225 L346 288 L223 288 C222 315 222 348 222 380 L346 380 L346 443 L223 443 C227 570 245 611 289 611 C306 611 316 602 334 572 C346 572 365 527 365 527 L372 527 C402 527 450 558 450 558 C457 561 459 566 459 581 C459 588 456 594 447 610 C420 656 391 670 322 670 C170 670 106 615 88 443 L9 443 L9 380 L84 380 C83 352 83 318 83 288 L9 288 L9 225 L84 225 C90 46 125 -10 299 -10 C376 -10 413 9 458 72 L458 108 L456 108 L456 108 Z " />
<glyph glyph-name="F_sc" unicode="&#xa730;" horiz-adv-x="482" d="M272 255 L314 226 L337 226 L337 356 L314 356 L272 327 L210 327 L210 494 L334 494 L391 452 L408 452 C409 468 409 481 409 494 L412 494 L412 565 L65 565 L65 546 L94 510 L94 55 L65 19 L65 0 L245 0 L245 19 L210 55 L210 255 L272 255 L272 255 Z " />
<glyph glyph-name="S_sc" unicode="&#xa731;" horiz-adv-x="452" d="M104 64 C112 55 112 55 104 64 L104 64 Z M310 459 L310 460 C322 445 334 431 345 416 L366 416 L362 534 C341 566 312 576 236 576 C118 576 83 539 83 415 C83 332 100 313 191 251 C271 197 285 183 285 137 C285 72 274 52 236 52 C199 52 174 63 139 99 C132 106 124 114 119 122 C106 142 99 153 86 173 L65 173 L68 34 C99 0 137 -10 236 -10 C360 -10 397 30 397 166 C397 254 379 273 278 342 C211 388 199 400 199 456 C199 500 205 513 225 513 C251 513 268 508 285 492 C285 492 304 469 310 459 L310 459 Z " />
<glyph glyph-name="X_sc" unicode="&#xf078;" horiz-adv-x="617" d="M551 565 L441 565 L441 546 L445 510 L327 350 L216 510 L222 546 L222 565 L39 565 L39 547 L75 516 L239 272 L72 49 L32 18 L32 0 L151 0 L151 19 L143 55 L269 227 L385 55 L382 19 L382 0 L574 0 L574 16 L539 45 L539 45 L358 306 L515 520 L551 549 L551 565 L551 565 Z " />
</font>
</svg>
