<?xml version="1.0" encoding="UTF-8"?>
<svg xmlns="http://www.w3.org/2000/svg" xmlns:xlink="http://www.w3.org/1999/xlink" version="1.2" >
<font id="Iffat Light">
<font-face  font-family="Iffat" units-per-em="1024" ascent="975" descent="-300" font-style="normal" font-weight="300" font-stretch="normal" cap-height="1328" x-height="488" underline-position="-125" underline-thickness="50" />
<missing-glyph  horiz-adv-x="100" d="" />
<glyph glyph-name="NULL" d="" />
<glyph glyph-name="CR" unicode="&#xd;" horiz-adv-x="256" d="" />
<glyph glyph-name="space" unicode="&#x20;" horiz-adv-x="238" d="" />
<glyph glyph-name="exclam" unicode="&#x21;" horiz-adv-x="204" d="M104 -10 C133 -10 142 -1 142 28 C142 56 133 65 104 65 C76 65 67 56 67 28 C67 -1 76 -10 104 -10 L104 -10 Z M70 660 L98 145 L111 145 L139 660 L70 660 L70 660 Z " />
<glyph glyph-name="quotedbl" unicode="&#x22;" horiz-adv-x="382" d="M246 740 L268 546 L280 546 L302 740 L246 740 L246 740 Z M80 740 L102 546 L114 546 L136 740 L80 740 L80 740 Z " />
<glyph glyph-name="numbersign" unicode="&#x23;" horiz-adv-x="446" d="M133 421 L91 240 L0 240 L0 210 L84 210 L35 0 L67 0 L116 210 L275 210 L226 0 L257 0 L306 210 L400 210 L400 240 L313 240 L355 421 L446 421 L446 450 L362 450 L411 660 L380 660 L331 450 L171 450 L220 660 L189 660 L140 450 L46 450 L46 421 L133 421 L133 421 Z M165 421 L325 421 L283 240 L124 240 L165 421 L165 421 Z " />
<glyph glyph-name="dollar" unicode="&#x24;" horiz-adv-x="452" d="M265 740 L265 669 C247 670 224 670 206 669 L206 740 L180 740 L180 667 C84 655 54 608 54 493 C54 396 73 375 180 331 L180 20 C114 27 93 59 93 139 L93 156 C92 156 90 158 90 158 L72 158 C54 158 48 154 48 139 C48 35 79 -4 180 -11 L180 -82 L206 -82 L206 -12 C227 -12 248 -11 265 -9 L265 -81 L291 -81 L291 -5 C377 11 404 62 404 179 C404 261 386 300 291 345 L291 634 C330 623 344 596 344 542 L344 526 C344 526 346 523 347 523 L365 523 C383 523 389 527 389 542 C389 624 365 658 291 667 L291 740 L265 740 L265 740 Z M265 357 C246 365 222 374 205 381 L205 639 C223 640 247 640 264 638 L265 357 L265 357 Z M179 393 C121 422 109 446 109 513 C109 590 126 624 179 635 L179 393 L179 393 Z M205 321 C228 312 248 303 265 295 L265 23 C249 20 228 19 207 19 L205 321 L205 321 Z M292 280 C344 247 356 215 356 161 C356 84 340 45 292 29 L292 280 L292 280 Z " />
<glyph glyph-name="percent" unicode="&#x25;" horiz-adv-x="757" d="M79 565 C79 704 98 745 161 745 C236 745 258 699 258 545 C258 411 238 371 172 371 C100 371 79 416 79 565 L79 565 Z M30 555 C30 401 62 355 168 355 C273 355 305 403 305 562 C305 714 273 760 168 760 C62 760 30 713 30 555 L30 555 Z M512 204 C512 340 531 380 595 380 C674 380 698 335 698 184 C698 47 677 6 606 6 C534 6 512 52 512 204 L512 204 Z M463 194 C463 37 495 -10 602 -10 C712 -10 745 39 745 201 C745 350 712 395 602 395 C495 395 463 349 463 194 L463 194 Z M179 -7 L624 743 L602 757 L157 7 L179 -7 L179 -7 Z " />
<glyph glyph-name="ampersand" unicode="&#x26;" horiz-adv-x="604" d="M540 470 L550 470 C543 456 539 440 534 426 C531 423 528 421 525 421 L533 421 C491 294 467 205 435 145 L224 362 C339 425 375 471 375 545 C375 643 343 672 238 672 C115 672 78 635 78 513 C78 423 98 407 161 344 C9 265 21 241 21 152 C21 29 61 -8 195 -8 C317 -8 382 14 428 70 L494 2 L582 2 L582 20 L527 52 L460 121 C496 191 523 294 572 441 L592 454 L592 472 L551 472 C551 472 1173 1313 541 472 L540 470 L540 470 Z M541 472 C537 466 532 460 527 454 L527 472 L541 472 L541 472 Z M551 472 C549 469 527 423 514 423 C527 440 539 457 551 473 L551 472 L551 472 Z M175 331 C179 327 184 322 189 317 L402 98 C362 55 306 38 208 38 C107 38 77 68 77 169 C77 251 69 275 174 332 L175 331 L175 331 Z M209 379 C150 439 132 448 132 526 C132 621 155 649 232 649 C301 649 321 625 321 544 C321 470 294 428 209 379 L209 379 Z " />
<glyph glyph-name="quotesingle" unicode="&#x27;" horiz-adv-x="216" d="M80 740 L102 546 L114 546 L136 740 L80 740 L80 740 Z " />
<glyph glyph-name="parenleft" unicode="&#x28;" horiz-adv-x="203" d="M182 740 C83 614 54 576 54 295 C54 14 83 -24 182 -150 L198 -150 C119 -49 96 -20 96 295 C96 610 119 639 198 740 L182 740 L182 740 Z " />
<glyph glyph-name="parenright" unicode="&#x29;" horiz-adv-x="203" d="M55 -150 C154 -24 183 14 183 295 C183 576 154 614 55 740 L39 740 C118 639 141 610 141 295 C141 -20 118 -49 39 -150 L55 -150 L55 -150 Z " />
<glyph glyph-name="asterisk" unicode="&#x2a;" horiz-adv-x="362" d="M191 592 L331 626 L319 662 L186 607 L197 750 L159 750 L170 606 L37 661 L25 625 L165 591 L72 482 L103 460 L179 583 L255 460 L286 482 L191 592 L191 592 Z M179 596 L179 596 L179 596 Z " />
<glyph glyph-name="plus" unicode="&#x2b;" horiz-adv-x="510" d="M239 482 L239 288 L40 288 L40 256 L239 256 L239 52 L271 52 L271 256 L470 256 L470 288 L271 288 L271 482 L239 482 L239 482 Z " />
<glyph glyph-name="comma" unicode="&#x2c;" horiz-adv-x="215" d="M90 0 C120 -14 129 -33 129 -83 C129 -135 113 -161 60 -197 L60 -210 C141 -156 165 -120 165 -52 C165 14 154 39 116 57 C98 66 95 68 85 50 L67 19 L69 12 L90 0 L90 0 Z " />
<glyph glyph-name="hyphen" unicode="&#x2d;" horiz-adv-x="335" d="M50 230 L285 230 L285 274 L50 274 L50 230 L50 230 Z " />
<glyph glyph-name="period" unicode="&#x2e;" horiz-adv-x="205" d="M103 -10 C131 -10 140 -1 140 28 C140 56 131 65 103 65 C74 65 65 56 65 28 C65 -1 74 -10 103 -10 L103 -10 Z " />
<glyph glyph-name="slash" unicode="&#x2f;" horiz-adv-x="231" d="M0 -120 L31 -120 L231 750 L200 750 L0 -120 L0 -120 Z " />
<glyph glyph-name="zero" unicode="0" horiz-adv-x="478" d="M93 352 C93 575 124 641 228 641 C352 641 389 567 389 318 C389 89 357 20 249 20 C129 20 93 96 93 352 L93 352 Z M33 333 C33 69 80 -10 239 -10 C398 -10 445 70 445 338 C445 594 398 670 239 670 C80 670 33 592 33 333 L33 333 Z " />
<glyph glyph-name="one" unicode="1" horiz-adv-x="405" d="M310 0 L310 18 L286 50 L286 660 L274 660 L70 504 L70 482 L233 592 L233 591 L233 50 L209 18 L209 0 L310 0 L310 0 Z " />
<glyph glyph-name="two" unicode="2" horiz-adv-x="440" d="M412 25 C414 44 415 56 416 75 L399 75 L364 51 L114 51 C376 412 398 420 398 498 C398 630 362 669 243 669 C87 669 40 630 40 500 C40 480 46 474 65 474 L92 474 C92 474 95 479 97 479 L97 509 C97 509 62 500 40 500 L97 509 C97 610 126 640 224 640 C312 640 338 607 338 497 C338 370 316 384 50 15 L50 -1 L412 -1 L412 25 L412 25 Z " />
<glyph glyph-name="three" unicode="3" horiz-adv-x="446" d="M89 120 L89 137 L84 142 L55 142 C55 142 33 137 33 120 C33 20 75 -10 217 -10 C376 -10 423 33 423 175 C423 300 400 349 293 360 C376 382 395 432 395 529 C395 638 359 671 237 671 C95 671 53 638 53 526 C53 509 78 504 78 504 L104 504 L109 509 L109 533 C109 618 135 643 224 643 C309 643 335 616 335 524 C335 419 315 375 214 362 C191 361 165 360 136 358 L136 331 C328 344 363 321 363 176 C363 55 329 19 217 19 C118 19 89 42 89 121 L89 120 L89 120 Z " />
<glyph glyph-name="four" unicode="4" horiz-adv-x="461" d="M321 660 L280 601 C189 472 97 343 7 213 L7 200 L279 200 L279 50 L255 18 L255 0 L356 0 L356 18 L332 50 L332 200 L447 200 L447 241 L332 241 L332 660 L321 660 L321 660 Z M279 557 L279 241 L65 242 L279 557 L279 557 Z " />
<glyph glyph-name="five" unicode="5" horiz-adv-x="457" d="M362 660 L86 660 L86 359 C112 367 132 369 174 369 C323 369 368 332 368 207 C368 64 331 21 208 21 C159 21 136 33 108 73 C106 73 102 84 102 84 L96 84 C87 84 73 67 73 67 C65 61 62 63 62 51 C62 46 63 44 67 39 C93 1 120 -10 182 -10 C359 -10 412 46 412 233 C412 376 359 419 183 419 C152 419 136 417 116 411 L116 611 L362 611 L362 660 L362 660 Z " />
<glyph glyph-name="six" unicode="6" horiz-adv-x="451" d="M371 670 C113 591 36 491 36 233 C36 46 81 -10 231 -10 C377 -10 421 38 421 199 C421 345 384 388 261 388 C171 388 125 367 97 302 C108 508 177 592 371 651 L371 670 L371 670 Z M96 235 C116 320 148 346 237 346 C335 346 364 309 364 186 C364 57 333 19 231 19 C128 19 97 69 96 235 L96 235 Z " />
<glyph glyph-name="seven" unicode="7" horiz-adv-x="460" d="M50 660 L50 612 L374 612 C144 180 75 37 76 -1 L146 -1 C143 97 206 246 420 647 L420 659 L402 659 L400 660 L400 660 L50 660 L50 660 Z " />
<glyph glyph-name="eight" unicode="8" horiz-adv-x="445" d="M273 352 C263 356 253 360 242 364 C127 400 118 431 118 523 C118 615 142 642 224 642 C312 642 338 609 338 498 C338 411 322 369 273 353 L273 352 L273 352 Z M298 343 C369 358 393 403 393 502 C393 632 356 671 230 671 C101 671 62 633 62 504 C62 413 70 372 159 333 C69 318 40 267 40 148 C40 27 82 -9 223 -9 C363 -9 405 32 405 169 C405 262 387 306 298 344 L298 343 L298 343 Z M181 325 C194 320 209 315 225 310 C333 276 353 242 353 151 C353 49 324 19 226 19 C127 19 97 52 97 164 C97 263 118 309 181 325 L181 325 Z " />
<glyph glyph-name="nine" unicode="9" horiz-adv-x="450" d="M80 -10 C338 -10 415 9 415 427 C415 614 370 670 220 670 C74 670 30 639 30 465 C30 319 69 275 200 275 C283 275 325 298 356 369 C350 34 283 9 80 9 L80 -10 L80 -10 Z M356 425 C331 342 300 317 224 317 C121 317 90 351 90 465 C90 614 120 641 220 641 C324 641 355 591 356 425 L356 425 Z " />
<glyph glyph-name="colon" unicode="&#x3a;" horiz-adv-x="205" d="M103 206 C131 206 140 215 140 244 C140 272 131 281 103 281 C74 281 65 272 65 244 C65 215 74 206 103 206 L103 206 Z M103 -10 C131 -10 140 -1 140 28 C140 56 131 65 103 65 C74 65 65 56 65 28 C65 -1 74 -10 103 -10 L103 -10 Z " />
<glyph glyph-name="semicolon" unicode="&#x3b;" horiz-adv-x="215" d="M106 206 C135 206 144 215 144 244 C144 272 135 281 106 281 C78 281 69 272 69 244 C69 215 78 206 106 206 L106 206 Z M90 0 C120 -14 129 -33 129 -83 C129 -135 113 -161 60 -197 L60 -210 C141 -156 165 -120 165 -52 C165 14 154 39 116 57 C98 66 95 68 85 50 L67 19 L69 12 L90 0 L90 0 Z " />
<glyph glyph-name="equal" unicode="&#x3d;" horiz-adv-x="460" d="M40 195 L40 164 L420 164 L420 195 L40 195 L40 195 Z M40 380 L40 349 L420 349 L420 380 L40 380 L40 380 Z " />
<glyph glyph-name="question" unicode="&#x3f;" horiz-adv-x="429" d="M181 -5 C210 -5 219 4 219 33 C219 61 210 70 181 70 C153 70 144 61 144 33 C144 4 153 -5 181 -5 L181 -5 Z M95 514 C95 514 61 509 40 509 C40 490 46 484 64 484 L90 484 C90 484 93 490 95 490 L95 514 L95 514 Z M95 514 C95 613 119 642 201 642 C290 642 317 610 317 504 C317 399 281 362 159 345 C159 268 175 145 175 145 L187 145 C187 145 194 225 197 296 C333 320 375 371 375 503 C375 631 340 669 221 669 C82 669 41 632 41 508 L95 514 L95 514 Z " />
<glyph glyph-name="A" unicode="A" horiz-adv-x="589" d="M93 18 L75 50 L74 50 C88 89 112 154 148 251 L148 246 L403 246 L403 250 C433 171 461 98 479 52 L458 20 L458 2 L557 2 L557 2 L570 2 L570 18 L540 47 L539 47 C481 194 305 651 305 651 L299 667 L270 667 C133 313 63 131 33 52 L33 52 L-3 20 L-3 2 L93 2 L93 18 L93 18 Z M392 282 L160 282 C190 362 228 462 275 585 C300 520 347 398 391 282 L392 282 L392 282 Z " />
<glyph glyph-name="B" unicode="B" horiz-adv-x="523" d="M233 358 C222 358 189 357 150 357 L150 626 C184 626 236 626 237 625 C367 625 391 593 391 488 C391 397 354 364 233 358 L233 358 Z M352 350 C424 373 449 419 449 503 C449 624 419 660 251 660 L64 660 L64 641 L93 605 L93 55 L64 19 L64 0 L237 0 C418 0 472 46 472 202 C472 292 451 335 352 351 L352 350 L352 350 Z M149 35 L149 324 L244 324 C388 324 414 295 414 198 C414 72 373 35 237 35 L149 35 L149 35 Z " />
<glyph glyph-name="C" unicode="C" horiz-adv-x="674" d="M570 114 C550 91 538 78 518 55 C516 52 514 50 513 49 C472 28 434 21 376 21 C185 21 128 93 128 332 C128 568 188 639 387 639 C436 639 468 634 498 619 C500 618 502 617 505 613 C526 587 539 571 560 545 L577 545 L576 623 C532 660 488 671 387 671 C143 671 70 589 70 314 C70 65 140 -9 376 -9 C480 -9 528 3 584 42 L586 115 L570 114 L570 114 Z " />
<glyph glyph-name="D" unicode="D" horiz-adv-x="676" d="M271 0 C529 9 606 64 606 356 C606 613 527 660 263 660 L65 660 L65 641 L94 605 L94 55 L65 19 L65 0 L271 0 L271 0 Z M150 34 L150 626 L247 626 C478 626 547 581 547 335 C547 88 483 41 270 34 L150 34 L150 34 Z " />
<glyph glyph-name="E" unicode="E" horiz-adv-x="559" d="M488 34 C488 49 488 62 487 80 L470 80 L413 34 L150 34 L150 323 L314 323 L356 294 L379 294 L379 386 L356 386 L314 357 L150 357 L150 626 L388 626 L445 584 L462 584 C462 601 462 612 462 626 L464 626 L464 660 L65 660 L65 641 L94 605 L94 55 L65 19 L65 0 L489 0 L489 34 L488 34 L488 34 Z " />
<glyph glyph-name="F" unicode="F" horiz-adv-x="494" d="M314 323 L356 294 L379 294 L379 386 L356 386 L314 357 L150 357 L150 626 L378 626 L435 584 L452 584 C452 601 452 612 452 626 L454 626 L454 660 L65 660 L65 641 L94 605 L94 55 L65 19 L65 0 L185 0 L185 19 L150 55 L150 323 L314 323 L314 323 Z " />
<glyph glyph-name="G" unicode="G" horiz-adv-x="655" d="M567 544 L566 622 C522 659 476 670 368 670 C115 670 40 588 40 313 C40 64 111 -10 347 -10 C472 -10 526 9 580 74 L580 235 L608 271 L608 290 L493 290 L493 271 L524 235 L524 63 C492 36 449 28 364 28 C159 28 98 98 98 333 C98 569 160 640 368 640 C421 640 455 635 486 620 C486 620 494 614 495 613 C516 587 529 571 550 545 L567 544 L567 544 Z " />
<glyph glyph-name="H" unicode="H" horiz-adv-x="660" d="M595 0 L595 19 L566 55 L566 605 L595 641 L595 660 L481 660 L481 641 L510 605 L510 357 L150 357 L150 605 L179 641 L179 660 L65 660 L65 641 L94 605 L94 55 L65 19 L65 0 L179 0 L179 19 L150 55 L150 323 L510 323 L510 55 L481 19 L481 0 L595 0 L595 0 Z " />
<glyph glyph-name="I" unicode="I" horiz-adv-x="255" d="M185 0 L185 19 L156 55 L156 605 L185 641 L185 660 L70 660 L70 641 L99 605 L99 55 L70 19 L70 0 L185 0 L185 0 Z " />
<glyph glyph-name="J" unicode="J" horiz-adv-x="255" d="M99 605 L99 50 C99 -87 83 -128 30 -128 C30 -128 18 -127 1 -122 L-5 -122 C-5 -128 -27 -173 9 -173 C121 -173 155 -94 155 171 C156 171 156 477 156 605 L185 641 L185 660 L70 660 L70 641 L99 605 L99 605 Z " />
<glyph glyph-name="K" unicode="K" horiz-adv-x="604" d="M511 660 L407 660 L407 642 L403 610 C403 609 403 609 403 609 C331 531 259 452 187 375 L153 338 L485 0 L564 0 L564 14 L523 40 L523 40 L208 355 L472 621 L512 647 L511 660 L511 660 Z M181 1 L181 20 L152 56 L152 606 L181 642 L181 661 L67 661 L67 642 L96 606 L96 56 L67 20 L67 1 L181 1 L181 1 Z " />
<glyph glyph-name="L" unicode="L" horiz-adv-x="539" d="M467 34 C466 55 466 71 465 95 L447 95 L387 34 L149 34 L149 605 L180 641 L180 660 L64 660 L64 641 L93 605 L93 55 L64 19 L64 0 L468 0 L468 34 L467 34 L467 34 Z " />
<glyph glyph-name="M" unicode="M" horiz-adv-x="819" d="M82 641 L113 605 C106 422 99 238 91 55 L60 19 L60 0 L158 0 L158 19 L129 55 L129 55 L147 582 L391 -5 L419 -5 C418 -3 410 14 411 15 L419 -5 L659 577 L679 55 L652 19 L652 0 L759 0 L759 19 L732 55 L711 605 L741 641 L741 660 L656 660 L418 73 L174 660 L82 660 L82 641 L82 641 Z " />
<glyph glyph-name="N" unicode="N" horiz-adv-x="658" d="M65 641 L93 605 L93 55 L64 19 L64 0 L174 0 L174 19 L137 55 L137 562 C273 373 410 185 545 -5 L568 -5 L568 605 L596 641 L596 660 L487 660 L487 641 L524 605 L524 120 L136 660 L64 660 L65 641 L65 641 Z " />
<glyph glyph-name="O" unicode="O" horiz-adv-x="758" d="M130 353 C130 573 185 639 368 639 C568 639 628 563 628 307 C628 87 574 21 392 21 C190 21 130 97 130 353 L130 353 Z M70 332 C70 69 141 -10 379 -10 C617 -10 688 68 688 328 C688 591 617 670 379 670 C141 670 70 592 70 332 L70 332 Z " />
<glyph glyph-name="P" unicode="P" horiz-adv-x="514" d="M185 0 L185 19 L150 55 L150 300 L224 300 C393 300 444 342 444 483 C444 619 399 660 249 660 L65 660 L65 641 L94 605 L94 55 L65 19 L65 0 L185 0 L185 0 Z M150 334 L150 626 C183 626 234 626 235 625 C350 625 384 591 384 477 C384 367 350 334 236 334 L150 334 L150 334 Z " />
<glyph glyph-name="Q" unicode="Q" horiz-adv-x="758" d="M733 -124 L733 -114 C725 -119 714 -120 686 -120 C603 -120 550 -34 478 -4 C637 19 688 109 688 329 C688 592 617 671 379 671 C141 671 70 593 70 333 C70 58 152 -17 410 -9 C490 -47 551 -140 647 -140 C692 -140 712 -136 733 -124 L733 -124 Z M130 353 C130 573 185 639 368 639 C568 639 628 563 628 307 C628 87 574 21 392 21 C190 21 130 97 130 353 L130 353 Z " />
<glyph glyph-name="R" unicode="R" horiz-adv-x="535" d="M523 18 C509 29 496 40 482 50 L303 304 C411 317 446 366 446 483 C446 619 401 660 251 660 L66 660 L66 641 L95 605 L95 55 L66 19 L66 0 L179 0 L179 19 L151 55 L151 300 L226 300 C230 300 234 300 238 300 L449 0 L524 0 L523 18 L523 18 Z M151 334 L151 626 C184 626 235 626 236 625 C350 625 384 591 384 477 C384 367 350 334 238 334 L151 334 L151 334 Z " />
<glyph glyph-name="S" unicode="S" horiz-adv-x="471" d="M313 618 C318 614 321 610 325 603 C338 580 347 567 360 544 C364 544 366 545 370 545 L381 545 L378 625 C335 660 305 670 246 670 C122 670 85 629 85 493 C85 398 106 380 221 324 C340 267 361 250 361 167 C361 53 334 19 245 19 C215 19 187 27 138 53 C138 54 131 56 127 64 C113 92 103 108 89 136 L68 136 L70 38 C133 1 173 -10 245 -10 C376 -10 415 34 415 181 C415 285 392 304 267 365 C160 417 141 432 141 513 C141 611 164 640 241 640 C266 640 286 634 312 618 L313 618 L313 618 Z " />
<glyph glyph-name="T" unicode="T" horiz-adv-x="613" d="M372 0 L372 19 L335 55 L335 626 L499 626 L560 573 L578 573 C579 600 579 616 580 643 L579 643 L579 660 L33 660 L33 643 L34 643 L34 626 L35 626 C36 608 36 594 37 573 L55 573 L116 626 L279 626 L279 55 L242 19 L242 0 L372 0 L372 0 Z " />
<glyph glyph-name="U" unicode="U" horiz-adv-x="670" d="M102 605 L102 234 C102 46 157 -10 339 -10 C521 -10 576 46 576 234 L576 605 L605 641 L605 660 L495 660 L495 641 L532 605 L532 221 C532 71 492 26 356 26 C204 26 158 76 158 244 L159 605 L159 605 L188 641 L188 660 L73 660 L73 641 L102 605 L102 605 Z " />
<glyph glyph-name="V" unicode="V" horiz-adv-x="635" d="M150 660 L37 660 L37 642 L70 610 L299 7 L304 -5 L331 -5 C411 203 491 412 572 620 L598 646 L598 660 L508 660 L508 641 L524 605 L524 605 L326 81 C261 256 194 431 130 605 L149 641 L150 660 L150 660 Z " />
<glyph glyph-name="W" unicode="W" horiz-adv-x="863" d="M748 641 L770 605 L634 110 C571 295 508 480 446 665 L429 665 C370 480 312 295 254 110 L108 605 L132 641 L132 660 L18 660 L18 642 L48 610 L48 610 C111 405 173 200 236 -5 L253 -5 L260 15 L433 546 C495 363 557 179 620 -4 L637 -4 L643 16 C701 218 758 420 816 621 L843 647 L843 661 L747 661 L748 641 L748 641 Z " />
<glyph glyph-name="X" unicode="X" horiz-adv-x="644" d="M567 660 L482 660 L482 641 L490 605 L334 368 L164 606 L169 642 L169 661 L57 661 L57 643 L94 611 L94 611 L294 328 L95 51 L55 19 L55 1 L146 1 L146 20 L137 56 L312 302 L486 56 L485 20 L485 1 L600 1 L600 17 L565 46 L565 46 L352 344 L533 617 L567 646 L567 660 L567 660 Z " />
<glyph glyph-name="Y" unicode="Y" horiz-adv-x="625" d="M29 642 L66 611 L286 304 L286 56 L253 20 L253 1 L375 1 L375 20 L342 56 L342 307 L552 621 L584 647 L584 661 L495 661 L495 642 C495 639 499 606 500 606 L323 342 L131 606 L131 661 L29 661 L29 642 L29 642 Z " />
<glyph glyph-name="Z" unicode="Z" horiz-adv-x="606" d="M110 643 L110 626 L111 626 C111 611 111 598 112 580 L130 580 L191 626 L429 626 C319 423 210 218 98 16 L98 0 L516 0 L516 34 C516 51 516 64 515 84 L497 84 L436 34 L165 34 C277 241 390 447 501 654 L501 660 L109 660 L109 643 L110 643 L110 643 Z " />
<glyph glyph-name="bracketleft" unicode="&#x5b;" horiz-adv-x="223" d="M105 726 L218 726 L218 740 L66 740 L66 -150 L218 -150 L218 -136 L105 -136 L105 726 L105 726 Z " />
<glyph glyph-name="backslash" unicode="&#x5c;" horiz-adv-x="212" d="M181 -120 L212 -120 L31 750 L0 750 L181 -120 L181 -120 Z " />
<glyph glyph-name="bracketright" unicode="&#x5d;" horiz-adv-x="217" d="M114 726 L114 -136 L5 -136 L5 -150 L152 -150 L152 740 L5 740 L5 726 L114 726 L114 726 Z " />
<glyph glyph-name="asciicircum" unicode="&#x5e;" horiz-adv-x="290" d="M278 530 L154 705 L136 705 L17 530 L25 530 L145 648 L270 530 L278 530 L278 530 Z " />
<glyph glyph-name="underscore" unicode="&#x5f;" horiz-adv-x="460" d="M25 -94 L25 -125 L435 -125 L435 -94 L25 -94 L25 -94 Z " />
<glyph glyph-name="grave" unicode="&#x60;" horiz-adv-x="290" d="M150 530 L80 707 L30 707 C30 707 34 689 48 669 L142 530 L150 530 L150 530 Z " />
<glyph glyph-name="a" unicode="a" horiz-adv-x="442" d="M119 336 C119 405 140 431 199 431 C272 431 285 409 285 335 L285 257 C91 203 55 168 55 87 C55 13 77 -9 152 -9 C220 -9 250 1 286 55 C289 6 308 -9 359 -9 C400 -9 417 3 434 43 L432 46 C427 34 417 30 388 30 C347 30 335 39 335 70 L335 349 C335 435 317 461 215 461 C107 461 67 427 67 333 C67 319 70 315 80 316 L114 316 L119 321 L119 336 L119 336 Z M285 235 L285 74 C285 73 285 72 285 71 C260 37 234 30 176 30 C120 30 103 46 103 98 C103 162 132 190 285 233 L285 235 L285 235 Z " />
<glyph glyph-name="b" unicode="b" horiz-adv-x="476" d="M62 -10 L66 -10 C66 -10 91 7 104 24 C139 -1 170 -9 219 -9 C378 -9 426 51 426 251 C426 413 388 461 262 461 C187 461 149 444 112 390 L112 751 L102 751 L38 725 L38 719 L44 701 C58 660 62 648 62 648 L62 -10 L62 -10 Z M112 81 L112 354 C141 404 168 419 227 419 C341 419 375 377 375 238 C375 71 343 21 236 21 C192 21 163 35 112 81 L112 81 Z " />
<glyph glyph-name="c" unicode="c" horiz-adv-x="437" d="M389 101 C341 52 312 37 266 37 C137 37 99 83 99 237 C99 387 131 432 237 432 C288 432 311 421 333 383 L355 346 L359 346 L370 360 L392 381 L392 382 C392 387 389 394 379 410 C356 449 328 460 257 460 C98 460 50 402 50 209 C50 40 93 -10 239 -10 C319 -10 354 14 393 95 L393 101 L389 101 L389 101 Z " />
<glyph glyph-name="d" unicode="d" horiz-adv-x="482" d="M435 0 L435 18 L409 50 L409 756 L399 756 L335 736 L335 731 L346 703 C356 676 359 668 359 668 L359 445 C325 457 299 461 263 461 C97 461 48 400 48 197 C48 38 85 -9 211 -9 C287 -9 322 6 359 57 C360 34 365 1 365 1 L435 0 L435 0 Z M359 388 L359 80 C332 45 305 34 247 34 C132 34 98 75 98 214 C98 382 134 432 255 432 C255 432 280 422 359 388 L359 388 Z " />
<glyph glyph-name="e" unicode="e" horiz-adv-x="443" d="M100 273 C105 394 138 432 230 432 C316 432 345 394 348 273 L100 273 L100 273 Z M389 101 C341 52 312 37 266 37 C134 37 98 86 99 244 L239 244 C290 244 348 241 394 247 C394 411 359 460 240 460 C94 460 51 402 51 209 C51 40 94 -10 240 -10 C320 -10 355 14 394 95 L394 101 L389 101 L389 101 Z " />
<glyph glyph-name="f" unicode="f" horiz-adv-x="299" d="M277 698 C289 698 297 696 314 688 C332 680 341 677 341 677 L348 677 L357 694 C367 714 361 727 333 740 C333 740 315 750 303 750 C183 750 108 650 108 490 L108 450 L40 450 L40 421 L108 421 L108 50 L84 18 L84 0 L182 0 L182 18 L158 50 C158 133 158 302 158 420 L264 420 L264 449 L158 449 C158 508 158 549 158 549 C158 639 185 697 276 697 L277 698 L277 698 Z " />
<glyph glyph-name="g" unicode="g" horiz-adv-x="499" d="M131 302 C131 404 146 435 230 435 C313 435 338 404 338 300 C338 195 323 164 242 164 C157 164 131 196 131 302 L131 302 Z M80 301 C80 220 95 176 138 155 C91 140 77 119 77 76 C77 30 91 10 134 4 C84 -10 68 -61 68 -123 C68 -213 102 -240 215 -240 C383 -240 433 -203 433 -79 C433 18 423 47 303 47 L183 47 C135 47 121 59 121 98 C121 130 129 142 156 149 C177 143 203 140 235 140 C366 140 390 177 390 301 C390 361 382 400 359 425 L450 416 L450 450 L311 452 C291 458 266 460 236 460 C105 460 81 423 81 301 L80 301 L80 301 Z M168 3 L279 3 C381 3 389 -19 389 -92 C389 -192 351 -222 222 -222 C138 -222 113 -197 113 -115 C113 -40 126 3 168 3 L168 3 Z " />
<glyph glyph-name="h" unicode="h" horiz-adv-x="460" d="M421 0 L421 18 L397 50 L397 343 C397 433 368 460 269 460 C189 460 169 441 124 379 L124 750 L114 750 L50 724 L50 718 L56 700 C70 659 74 647 74 647 L74 50 L50 18 L50 0 L148 0 L148 18 L124 50 L124 360 C156 403 172 416 242 416 C323 416 347 393 347 314 L347 50 L323 18 L323 0 L421 0 L421 0 Z " />
<glyph glyph-name="i" unicode="i" horiz-adv-x="204" d="M100 610 C129 610 138 619 138 648 C138 676 129 685 100 685 C72 685 63 676 63 648 C63 619 72 610 100 610 L100 610 Z M154 0 L154 18 L128 50 L128 460 L118 460 L54 434 L54 428 L60 410 C74 369 78 357 78 357 L78 50 L54 18 L54 0 L154 0 L154 0 Z " />
<glyph glyph-name="j" unicode="j" horiz-adv-x="204" d="M103 610 C132 610 141 619 141 648 C141 676 132 685 103 685 C75 685 66 676 66 648 C66 619 75 610 103 610 L103 610 Z M15 -222 L15 -233 C159 -143 128 -126 128 -2 L128 460 L118 460 L54 434 L54 428 L60 410 C74 369 78 357 78 357 L78 -10 C78 -143 107 -165 15 -222 L15 -222 Z " />
<glyph glyph-name="k" unicode="k" horiz-adv-x="421" d="M383 18 L343 50 L343 50 L161 266 L325 401 L372 432 C370 431 371 432 375 438 C380 445 381 447 384 450 L300 450 L300 429 L259 390 C189 324 144 281 124 261 L124 657 L124 760 L114 760 L50 734 L50 728 L56 710 C70 669 74 657 74 657 L74 50 L50 18 L50 0 L150 0 L150 18 L124 50 L124 246 L321 0 L385 0 C384 4 383 16 383 17 L383 18 L383 18 Z M187 309 L124 254 L124 255 C136 265 157 283 187 309 L187 309 Z " />
<glyph glyph-name="l" unicode="l" horiz-adv-x="185" d="M142 0 L142 18 L118 50 L118 760 L108 760 L44 734 L44 728 L50 710 C64 669 68 657 68 657 L68 50 L44 18 L44 0 L142 0 L142 0 Z " />
<glyph glyph-name="m" unicode="m" horiz-adv-x="716" d="M677 0 L677 18 L653 50 L653 343 C653 433 624 460 529 460 C450 460 430 440 381 372 C375 439 343 460 259 460 C184 460 165 441 120 379 L120 382 L119 382 C118 412 117 460 117 460 L107 460 L46 434 L46 428 L52 410 C66 369 70 357 70 357 L70 50 L46 18 L46 0 L144 0 L144 18 L120 50 L120 360 C151 403 166 416 232 416 C310 416 333 393 333 314 L333 50 L307 18 L307 0 L409 0 L409 18 L383 50 L383 343 C383 347 383 351 383 355 C417 402 433 417 503 417 C581 417 604 394 604 315 L604 51 L578 19 L578 1 L677 0 L677 0 Z " />
<glyph glyph-name="n" unicode="n" horiz-adv-x="460" d="M421 0 L421 18 L397 50 L397 343 C397 433 368 460 269 460 C189 460 169 441 124 379 L124 382 L123 382 C122 412 121 460 121 460 L111 460 L50 434 L50 428 L56 410 C70 369 74 357 74 357 L74 50 L50 18 L50 0 L150 0 L150 18 L124 50 L124 360 C156 403 172 416 242 416 C323 416 347 393 347 314 L347 50 L321 18 L321 0 L421 0 L421 0 Z " />
<glyph glyph-name="o" unicode="o" horiz-adv-x="489" d="M108 225 C108 386 128 434 236 434 C348 434 382 386 382 225 C382 64 362 16 253 16 C141 16 108 64 108 225 L108 225 Z M50 225 C50 44 95 -10 245 -10 C409 -10 439 44 439 225 C439 406 394 460 245 460 C80 460 50 406 50 225 L50 225 Z " />
<glyph glyph-name="p" unicode="p" horiz-adv-x="484" d="M123 390 C122 420 121 459 121 459 L111 459 L50 433 L50 427 L56 409 C70 368 74 356 74 356 L74 -181 L50 -213 L50 -231 L150 -231 L150 -213 L124 -181 L124 2 C147 -8 177 -12 229 -12 C388 -12 435 47 435 245 C435 409 399 458 277 458 C206 458 169 442 123 388 L123 390 L123 390 Z M124 60 L124 370 C156 405 185 416 241 416 C352 416 385 371 385 222 C385 65 353 18 244 18 C190 18 163 28 124 60 L124 60 Z " />
<glyph glyph-name="q" unicode="q" horiz-adv-x="459" d="M420 -230 L420 -212 L396 -180 L396 460 L392 460 L361 445 C338 456 309 460 257 460 C98 460 51 399 51 196 C51 37 87 -10 206 -10 C249 -10 282 6 347 60 L347 -180 L321 -212 L321 -230 L420 -230 L420 -230 Z M347 390 L347 82 C301 44 276 32 242 32 C133 32 101 73 101 212 C101 380 135 430 248 430 C287 430 311 421 348 391 L347 390 L347 390 Z " />
<glyph glyph-name="r" unicode="r" horiz-adv-x="275" d="M275 424 C275 431 267 437 242 450 C224 458 215 460 202 460 C173 460 160 438 124 365 L124 375 L123 375 C122 405 121 460 121 460 L111 460 L50 434 L50 428 L56 410 C70 369 74 357 74 357 L74 50 L50 18 L50 0 L150 0 L150 18 L124 50 L124 344 C149 395 159 411 171 411 C185 411 195 408 217 399 C231 392 255 383 255 383 L262 383 C272 404 275 413 275 424 L275 424 Z " />
<glyph glyph-name="s" unicode="s" horiz-adv-x="374" d="M76 76 C72 76 67 77 61 77 L61 53 L61 53 L61 38 L61 38 L61 22 C114 -3 142 -10 183 -10 C277 -10 305 19 305 117 C305 196 290 210 207 250 C133 285 120 297 120 355 C120 417 135 436 185 436 C196 436 208 433 227 424 C239 416 257 396 270 379 C276 379 282 378 289 378 L290 423 C241 451 216 460 183 460 C101 460 77 431 77 336 C77 263 91 251 167 214 C247 175 262 163 262 101 C262 32 243 12 181 12 C130 12 112 42 78 76 L76 76 L76 76 Z " />
<glyph glyph-name="t" unicode="t" horiz-adv-x="280" d="M250 53 L248 59 C238 37 226 31 193 31 C146 31 132 47 132 101 L132 421 L238 421 L238 450 L132 450 L132 549 L128 549 L82 450 L18 425 L18 421 L82 421 L82 90 C82 13 100 -10 162 -10 C208 -10 228 4 250 53 L250 53 Z " />
<glyph glyph-name="u" unicode="u" horiz-adv-x="422" d="M323 400 L323 97 C271 45 248 36 204 36 C124 36 100 59 100 137 L100 450 L26 450 L26 432 L50 400 L50 107 C50 17 79 -10 175 -10 C221 -10 249 3 323 77 L323 0 L399 0 L399 18 L373 50 L373 450 L297 450 L297 432 L323 400 L323 400 Z " />
<glyph glyph-name="v" unicode="v" horiz-adv-x="453" d="M105 450 L-2 450 L-2 432 L32 400 L197 6 L200 0 L214 0 C267 132 320 264 374 395 L410 431 L410 450 L328 450 L328 431 L344 395 L344 395 L223 75 L86 400 L105 432 L105 450 L105 450 Z " />
<glyph glyph-name="w" unicode="w" horiz-adv-x="711" d="M600 431 L616 395 L465 6 L467 0 L481 0 L645 395 L682 431 L682 450 L600 450 L600 431 L600 431 Z M465 6 L493 79 L357 436 L352 450 L335 450 L333 443 L169 6 L171 0 L187 0 L330 367 L465 6 L465 6 Z M113 450 L6 450 L6 432 L37 400 L169 6 L196 79 C161 186 124 294 90 400 L113 432 L113 450 L113 450 Z " />
<glyph glyph-name="x" unicode="x" horiz-adv-x="412" d="M293 0 L383 0 L383 18 L351 49 L221 248 C255 298 288 349 322 399 L354 431 C355 432 355 444 355 449 L289 449 L289 431 L293 399 L293 399 L210 263 C180 308 150 354 121 399 L128 431 L128 449 L37 449 L37 431 L69 399 L69 399 L180 227 C143 168 106 108 68 49 L35 17 L35 -1 L107 -1 L107 17 L97 49 L191 211 L296 49 L293 17 L293 0 L293 0 Z " />
<glyph glyph-name="y" unicode="y" horiz-adv-x="413" d="M339 431 L356 395 L239 74 L94 400 L112 432 L112 450 L6 450 L6 432 L40 400 L214 6 L183 -79 C147 -180 140 -188 87 -188 L61 -188 L57 -192 L57 -222 C57 -239 59 -240 78 -240 C146 -240 156 -228 206 -87 C265 74 324 235 383 395 L418 431 L418 450 L339 450 L339 431 L339 431 Z " />
<glyph glyph-name="z" unicode="z" horiz-adv-x="424" d="M73 454 C73 447 73 443 72 436 L73 436 C71 416 70 405 68 385 L85 385 L121 422 L268 422 L72 28 L64 11 L64 0 L349 0 L349 28 L348 28 L348 67 L331 67 L298 28 L127 28 L323 422 L341 450 L123 450 L83 454 L73 454 L73 454 Z " />
<glyph glyph-name="braceleft" unicode="&#x7b;" horiz-adv-x="230" d="M86 297 C134 311 150 347 150 423 C150 507 122 557 122 641 C122 734 140 737 202 737 L225 737 L225 751 L206 751 C109 751 80 751 80 621 C80 540 113 492 113 411 C113 329 93 305 25 305 L5 305 L5 291 L25 291 C93 291 113 264 113 175 C113 95 80 46 80 -34 C80 -162 109 -155 206 -155 L225 -155 L225 -141 L201 -142 C140 -145 122 -144 122 -54 C122 29 150 79 150 162 C150 244 134 283 86 298 L86 297 L86 297 Z " />
<glyph glyph-name="bar" unicode="&#x7c;" horiz-adv-x="216" d="M84 -260 L116 -260 L116 760 L84 760 L84 -260 L84 -260 Z " />
<glyph glyph-name="braceright" unicode="&#x7d;" horiz-adv-x="240" d="M235 304 L215 304 C147 304 127 328 127 410 C127 491 160 539 160 620 C160 750 131 750 34 750 L15 750 L15 736 L38 736 C100 736 118 733 118 640 C118 556 90 506 90 422 C90 346 106 310 154 296 C106 281 90 242 90 160 C90 77 118 27 118 -56 C118 -146 100 -147 39 -144 L15 -143 L15 -157 L34 -157 C131 -157 160 -164 160 -36 C160 44 127 93 127 173 C127 262 147 289 215 289 L235 289 L235 304 L235 304 Z " />
<glyph glyph-name="asciitilde" unicode="&#x7e;" horiz-adv-x="290" d="M19 225 C36 278 35 294 80 294 C124 294 151 233 195 233 C251 233 252 258 279 341 L271 341 C253 286 254 270 210 270 C166 270 139 330 95 330 C37 330 37 306 11 225 L19 225 L19 225 Z " />
<glyph glyph-name="exclamdown" unicode="&#xa1;" horiz-adv-x="204" d="M104 460 C76 460 67 451 67 422 C67 394 76 385 104 385 C133 385 142 394 142 422 C142 451 133 460 104 460 L104 460 Z M70 -210 L139 -210 L111 305 L98 305 L70 -210 L70 -210 Z " />
<glyph glyph-name="cent" unicode="&#xa2;" horiz-adv-x="437" d="M389 101 C331 41 304 31 227 39 L227 432 C284 434 310 424 333 384 L355 347 L359 347 L370 361 L392 382 L392 383 C392 388 389 395 379 411 C356 450 328 461 257 461 C247 461 237 461 227 460 L227 521 L202 521 L202 458 C87 444 50 378 50 209 C50 55 86 0 202 -9 L202 -80 L227 -80 L227 -10 C316 -12 352 10 393 95 L393 101 L389 101 L389 101 Z M202 42 C124 58 99 112 99 237 C99 369 124 420 202 430 L202 42 L202 42 Z " />
<glyph glyph-name="guillemotleft" unicode="&#xab;" horiz-adv-x="376" d="M350 425 L180 248 L350 70 L356 70 L235 248 L356 425 L350 425 L350 425 Z M189 425 L19 248 L189 70 L195 70 L74 248 L195 425 L189 425 L189 425 Z " />
<glyph glyph-name="acute" unicode="&#xb4;" horiz-adv-x="290" d="M146 530 L154 530 L248 669 C262 689 266 707 266 707 L216 707 L146 530 L146 530 Z " />
<glyph glyph-name="periodcentered" unicode="&#xb7;" horiz-adv-x="205" d="M103 210 C131 210 140 219 140 248 C140 276 131 285 103 285 C74 285 65 276 65 248 C65 219 74 210 103 210 L103 210 Z " />
<glyph glyph-name="guillemotright" unicode="&#xbb;" horiz-adv-x="350" d="M161 425 L274 248 L161 70 L167 70 L330 248 L167 425 L161 425 L161 425 Z M20 425 L133 248 L20 70 L26 70 L189 248 L26 425 L20 425 L20 425 Z " />
<glyph glyph-name="questiondown" unicode="&#xbf;" horiz-adv-x="429" d="M248 455 C219 455 210 446 210 417 C210 389 219 380 248 380 C276 380 285 389 285 417 C285 446 276 455 248 455 L248 455 Z M334 -64 C334 -64 368 -59 389 -59 C389 -40 383 -34 365 -34 L339 -34 C339 -34 336 -40 334 -40 L334 -64 L334 -64 Z M334 -64 C334 -163 310 -192 228 -192 C139 -192 112 -160 112 -54 C112 51 148 88 270 105 C270 182 254 305 254 305 L242 305 C242 305 235 225 232 154 C96 130 54 79 54 -53 C54 -181 89 -219 208 -219 C347 -219 388 -182 388 -58 L334 -64 L334 -64 Z " />
<glyph glyph-name="Agrave" unicode="&#xc0;" horiz-adv-x="642" d="M316 705 L246 864 L196 864 C196 864 200 848 214 830 L309 705 L316 705 L316 705 Z M126 18 L108 50 L107 50 C121 89 145 154 181 251 L181 246 L436 246 L436 250 C466 171 494 98 512 52 L491 20 L491 2 L590 2 L590 2 L603 2 L603 18 L573 47 L572 47 C514 194 338 651 338 651 L332 667 L303 667 C166 313 96 131 66 52 L66 52 L30 20 L30 2 L126 2 L126 18 L126 18 Z M425 282 L193 282 C223 362 261 462 308 585 C333 520 380 398 424 282 L425 282 L425 282 Z " />
<glyph glyph-name="Aacute" unicode="&#xc1;" horiz-adv-x="642" d="M313 705 L320 705 L415 830 C429 848 433 864 433 864 L383 864 L313 705 L313 705 Z M126 18 L108 50 L107 50 C121 89 145 154 181 251 L181 246 L436 246 L436 250 C466 171 494 98 512 52 L491 20 L491 2 L590 2 L590 2 L603 2 L603 18 L573 47 L572 47 C514 194 338 651 338 651 L332 667 L303 667 C166 313 96 131 66 52 L66 52 L30 20 L30 2 L126 2 L126 18 L126 18 Z M425 282 L193 282 C223 362 261 462 308 585 C333 520 380 398 424 282 L425 282 L425 282 Z " />
<glyph glyph-name="Acircumflex" unicode="&#xc2;" horiz-adv-x="642" d="M449 705 L448 706 L449 706 L449 705 L449 705 Z M126 18 L108 50 L107 50 C121 89 145 154 181 251 L181 246 L436 246 L436 250 C466 171 494 98 512 52 L491 20 L491 2 L590 2 L590 2 L603 2 L603 18 L573 47 L572 47 C514 194 338 651 338 651 L332 667 L303 667 C166 313 96 131 66 52 L66 52 L30 20 L30 2 L126 2 L126 18 L126 18 Z M326 865 L307 865 L189 708 L196 708 L316 814 L442 708 L448 708 L326 865 L326 865 Z M425 282 L193 282 C223 362 261 462 308 585 C333 520 380 398 424 282 L425 282 L425 282 Z " />
<glyph glyph-name="Atilde" unicode="&#xc3;" horiz-adv-x="642" d="M196 728 C213 775 213 789 256 789 C301 789 327 734 372 734 C428 734 429 757 456 832 L447 832 C429 782 430 768 387 768 C342 768 316 822 271 822 C213 822 213 800 187 727 L196 727 L196 728 L196 728 Z M126 18 L108 50 L107 50 C121 89 145 154 181 251 L181 246 L436 246 L436 250 C466 171 494 98 512 52 L491 20 L491 2 L590 2 L590 2 L603 2 L603 18 L573 47 L572 47 C514 194 338 651 338 651 L332 667 L303 667 C166 313 96 131 66 52 L66 52 L30 20 L30 2 L126 2 L126 18 L126 18 Z M425 282 L193 282 C223 362 261 462 308 585 C333 520 380 398 424 282 L425 282 L425 282 Z " />
<glyph glyph-name="Adieresis" unicode="&#xc4;" horiz-adv-x="642" d="M392 735 C416 735 423 742 423 766 C423 791 416 798 392 798 C367 798 360 791 360 766 C360 742 367 735 392 735 L392 735 Z M242 735 C266 735 273 742 273 766 C273 791 266 798 242 798 C217 798 210 791 210 766 C210 742 217 735 242 735 L242 735 Z M126 18 L108 50 L107 50 C121 89 145 154 181 251 L181 246 L436 246 L436 250 C466 171 494 98 512 52 L491 20 L491 2 L590 2 L590 2 L603 2 L603 18 L573 47 L572 47 C514 194 338 651 338 651 L332 667 L303 667 C166 313 96 131 66 52 L66 52 L30 20 L30 2 L126 2 L126 18 L126 18 Z M425 282 L193 282 C223 362 261 462 308 585 C333 520 380 398 424 282 L425 282 L425 282 Z " />
<glyph glyph-name="Aring" unicode="&#xc5;" horiz-adv-x="642" d="M267 793 C267 838 278 851 315 851 C354 851 366 836 366 784 C366 743 352 725 319 725 C283 725 267 746 267 793 L267 793 Z M236 788 C236 734 261 710 317 710 C372 710 397 734 397 789 C397 848 379 866 317 866 C255 866 236 848 236 788 L236 788 Z M126 18 L108 50 L107 50 C121 89 145 154 181 251 L181 246 L436 246 L436 250 C466 171 494 98 512 52 L491 20 L491 2 L590 2 L590 2 L603 2 L603 18 L573 47 L572 47 C514 194 338 651 338 651 L332 667 L303 667 C166 313 96 131 66 52 L66 52 L30 20 L30 2 L126 2 L126 18 L126 18 Z M425 282 L193 282 C223 362 261 462 308 585 C333 520 380 398 424 282 L425 282 L425 282 Z " />
<glyph glyph-name="Ccedilla" unicode="&#xc7;" horiz-adv-x="674" d="M570 114 C550 91 538 78 518 55 C516 52 514 50 513 49 C472 28 434 21 376 21 C185 21 128 93 128 332 C128 568 188 639 387 639 C436 639 468 634 498 619 C500 618 502 617 505 613 C526 587 539 571 560 545 L577 545 L576 623 C532 660 488 671 387 671 C143 671 70 589 70 314 C70 67 139 -8 370 -9 C366 -18 353 -50 324 -128 L343 -135 C382 -144 393 -155 393 -182 C393 -212 387 -221 368 -221 C333 -221 318 -218 304 -206 L304 -213 C328 -232 345 -238 377 -238 C418 -238 430 -223 430 -172 C430 -129 413 -111 357 -97 C377 -42 386 -17 389 -9 C483 -8 529 5 582 42 L584 115 L570 114 L570 114 Z " />
<glyph glyph-name="Egrave" unicode="&#xc8;" horiz-adv-x="559" d="M269 705 L199 864 L149 864 C149 864 153 848 167 830 L261 705 L269 705 L269 705 Z M488 34 C488 49 488 62 487 80 L470 80 L413 34 L150 34 L150 323 L314 323 L356 294 L379 294 L379 386 L356 386 L314 357 L150 357 L150 626 L388 626 L445 584 L462 584 C462 601 462 612 462 626 L464 626 L464 660 L65 660 L65 641 L94 605 L94 55 L65 19 L65 0 L489 0 L489 34 L488 34 L488 34 Z " />
<glyph glyph-name="Eacute" unicode="&#xc9;" horiz-adv-x="559" d="M265 705 L273 705 L367 830 C381 848 385 864 385 864 L335 864 L265 705 L265 705 Z M488 34 C488 49 488 62 487 80 L470 80 L413 34 L150 34 L150 323 L314 323 L356 294 L379 294 L379 386 L356 386 L314 357 L150 357 L150 626 L388 626 L445 584 L462 584 C462 601 462 612 462 626 L464 626 L464 660 L65 660 L65 641 L94 605 L94 55 L65 19 L65 0 L489 0 L489 34 L488 34 L488 34 Z " />
<glyph glyph-name="Ecircumflex" unicode="&#xca;" horiz-adv-x="559" d="M397 705 L396 706 L397 706 L397 705 L397 705 Z M273 863 L255 863 L136 706 L144 706 L264 812 L389 706 L396 706 L273 863 L273 863 Z M488 34 C488 49 488 62 487 80 L470 80 L413 34 L150 34 L150 323 L314 323 L356 294 L379 294 L379 386 L356 386 L314 357 L150 357 L150 626 L388 626 L445 584 L462 584 C462 601 462 612 462 626 L464 626 L464 660 L65 660 L65 641 L94 605 L94 55 L65 19 L65 0 L489 0 L489 34 L488 34 L488 34 Z " />
<glyph glyph-name="Edieresis" unicode="&#xcb;" horiz-adv-x="559" d="M339 735 C363 735 370 742 370 766 C370 791 363 798 339 798 C315 798 308 791 308 766 C308 742 315 735 339 735 L339 735 Z M189 735 C213 735 220 742 220 766 C220 791 213 798 189 798 C165 798 158 791 158 766 C158 742 165 735 189 735 L189 735 Z M488 34 C488 49 488 62 487 80 L470 80 L413 34 L150 34 L150 323 L314 323 L356 294 L379 294 L379 386 L356 386 L314 357 L150 357 L150 626 L388 626 L445 584 L462 584 C462 601 462 612 462 626 L464 626 L464 660 L65 660 L65 641 L94 605 L94 55 L65 19 L65 0 L489 0 L489 34 L488 34 L488 34 Z " />
<glyph glyph-name="Igrave" unicode="&#xcc;" horiz-adv-x="255" d="M133 705 L63 864 L13 864 C13 864 17 848 31 830 L125 705 L133 705 L133 705 Z M185 0 L185 19 L156 55 L156 605 L185 641 L185 660 L70 660 L70 641 L99 605 L99 55 L70 19 L70 0 L185 0 L185 0 Z " />
<glyph glyph-name="Iacute" unicode="&#xcd;" horiz-adv-x="255" d="M129 705 L137 705 L231 830 C245 848 249 864 249 864 L199 864 L129 705 L129 705 Z M185 0 L185 19 L156 55 L156 605 L185 641 L185 660 L70 660 L70 641 L99 605 L99 55 L70 19 L70 0 L185 0 L185 0 Z " />
<glyph glyph-name="Icircumflex" unicode="&#xce;" horiz-adv-x="255" d="M261 705 L260 706 L261 706 L261 705 L261 705 Z M137 863 L119 863 L0 706 L8 706 L128 812 L253 706 L260 706 L137 863 L137 863 Z M185 0 L185 19 L156 55 L156 605 L185 641 L185 660 L70 660 L70 641 L99 605 L99 55 L70 19 L70 0 L185 0 L185 0 Z " />
<glyph glyph-name="Idieresis" unicode="&#xcf;" horiz-adv-x="255" d="M203 735 C227 735 234 742 234 766 C234 791 227 798 203 798 C179 798 172 791 172 766 C172 742 179 735 203 735 L203 735 Z M53 735 C77 735 84 742 84 766 C84 791 77 798 53 798 C29 798 22 791 22 766 C22 742 29 735 53 735 L53 735 Z M185 0 L185 19 L156 55 L156 605 L185 641 L185 660 L70 660 L70 641 L99 605 L99 55 L70 19 L70 0 L185 0 L185 0 Z " />
<glyph glyph-name="Ntilde" unicode="&#xd1;" horiz-adv-x="658" d="M220 728 C237 775 236 789 281 789 C325 789 352 734 396 734 C452 734 453 757 480 832 L472 832 C454 782 455 768 411 768 C367 768 340 822 296 822 C238 822 238 800 212 727 L220 727 L220 728 L220 728 Z M65 641 L93 605 L93 55 L64 19 L64 0 L174 0 L174 19 L137 55 L137 562 C273 373 410 185 545 -5 L568 -5 L568 605 L596 641 L596 660 L487 660 L487 641 L524 605 L524 120 L136 660 L64 660 L65 641 L65 641 Z " />
<glyph glyph-name="Ograve" unicode="&#xd2;" horiz-adv-x="758" d="M369 705 L299 864 L249 864 C249 864 253 848 267 830 L361 705 L369 705 L369 705 Z M130 353 C130 573 185 639 368 639 C568 639 628 563 628 307 C628 87 574 21 392 21 C190 21 130 97 130 353 L130 353 Z M70 332 C70 69 141 -10 379 -10 C617 -10 688 68 688 328 C688 591 617 670 379 670 C141 670 70 592 70 332 L70 332 Z " />
<glyph glyph-name="Oacute" unicode="&#xd3;" horiz-adv-x="758" d="M365 705 L373 705 L467 830 C481 848 485 864 485 864 L435 864 L365 705 L365 705 Z M130 353 C130 573 185 639 368 639 C568 639 628 563 628 307 C628 87 574 21 392 21 C190 21 130 97 130 353 L130 353 Z M70 332 C70 69 141 -10 379 -10 C617 -10 688 68 688 328 C688 591 617 670 379 670 C141 670 70 592 70 332 L70 332 Z " />
<glyph glyph-name="Ocircumflex" unicode="&#xd4;" horiz-adv-x="758" d="M497 705 L496 706 L497 706 L497 705 L497 705 Z M130 353 C130 573 185 639 368 639 C568 639 628 563 628 307 C628 87 574 21 392 21 C190 21 130 97 130 353 L130 353 Z M70 332 C70 69 141 -10 379 -10 C617 -10 688 68 688 328 C688 591 617 670 379 670 C141 670 70 592 70 332 L70 332 Z M373 863 L355 863 L236 706 L244 706 L364 812 L489 706 L496 706 L373 863 L373 863 Z " />
<glyph glyph-name="Otilde" unicode="&#xd5;" horiz-adv-x="758" d="M238 728 C255 775 254 789 299 789 C343 789 370 734 414 734 C470 734 471 757 498 832 L490 832 C472 782 473 768 429 768 C385 768 358 822 314 822 C256 822 256 800 230 727 L238 727 L238 728 L238 728 Z M130 353 C130 573 185 639 368 639 C568 639 628 563 628 307 C628 87 574 21 392 21 C190 21 130 97 130 353 L130 353 Z M70 332 C70 69 141 -10 379 -10 C617 -10 688 68 688 328 C688 591 617 670 379 670 C141 670 70 592 70 332 L70 332 Z " />
<glyph glyph-name="Odieresis" unicode="&#xd6;" horiz-adv-x="758" d="M439 735 C463 735 470 742 470 766 C470 791 463 798 439 798 C415 798 408 791 408 766 C408 742 415 735 439 735 L439 735 Z M289 735 C313 735 320 742 320 766 C320 791 313 798 289 798 C265 798 258 791 258 766 C258 742 265 735 289 735 L289 735 Z M130 353 C130 573 185 639 368 639 C568 639 628 563 628 307 C628 87 574 21 392 21 C190 21 130 97 130 353 L130 353 Z M70 332 C70 69 141 -10 379 -10 C617 -10 688 68 688 328 C688 591 617 670 379 670 C141 670 70 592 70 332 L70 332 Z " />
<glyph glyph-name="Oslash" unicode="&#xd8;" horiz-adv-x="758" d="M70 332 C70 202 87 117 133 64 L70 -11 L113 -11 L157 41 C205 3 276 -12 378 -12 C616 -12 687 66 687 326 C687 456 670 541 624 594 L687 669 L644 669 L600 617 C552 655 481 670 379 670 C141 670 70 592 70 332 L70 332 Z M566 577 L172 111 C142 163 130 241 130 354 C130 574 185 640 368 640 C463 640 526 623 566 578 L566 577 L566 577 Z M586 551 C616 499 628 421 628 308 C628 88 574 22 392 22 C296 22 232 39 191 84 L586 551 L586 551 Z " />
<glyph glyph-name="Ugrave" unicode="&#xd9;" horiz-adv-x="670" d="M354 705 L284 864 L234 864 C234 864 238 848 252 830 L346 705 L354 705 L354 705 Z M102 605 L102 234 C102 46 157 -10 339 -10 C521 -10 576 46 576 234 L576 605 L605 641 L605 660 L495 660 L495 641 L532 605 L532 221 C532 71 492 26 356 26 C204 26 158 76 158 244 L159 605 L159 605 L188 641 L188 660 L73 660 L73 641 L102 605 L102 605 Z " />
<glyph glyph-name="Uacute" unicode="&#xda;" horiz-adv-x="670" d="M340 705 L348 705 L442 830 C456 848 460 864 460 864 L410 864 L340 705 L340 705 Z M102 605 L102 234 C102 46 157 -10 339 -10 C521 -10 576 46 576 234 L576 605 L605 641 L605 660 L495 660 L495 641 L532 605 L532 221 C532 71 492 26 356 26 C204 26 158 76 158 244 L159 605 L159 605 L188 641 L188 660 L73 660 L73 641 L102 605 L102 605 Z " />
<glyph glyph-name="Ucircumflex" unicode="&#xdb;" horiz-adv-x="670" d="M482 705 L481 706 L482 706 L482 705 L482 705 Z M358 863 L340 863 L221 706 L229 706 L349 812 L474 706 L481 706 L358 863 L358 863 Z M102 605 L102 234 C102 46 157 -10 339 -10 C521 -10 576 46 576 234 L576 605 L605 641 L605 660 L495 660 L495 641 L532 605 L532 221 C532 71 492 26 356 26 C204 26 158 76 158 244 L159 605 L159 605 L188 641 L188 660 L73 660 L73 641 L102 605 L102 605 Z " />
<glyph glyph-name="Udieresis" unicode="&#xdc;" horiz-adv-x="670" d="M424 735 C448 735 455 742 455 766 C455 791 448 798 424 798 C400 798 393 791 393 766 C393 742 400 735 424 735 L424 735 Z M274 735 C298 735 305 742 305 766 C305 791 298 798 274 798 C250 798 243 791 243 766 C243 742 250 735 274 735 L274 735 Z M102 605 L102 234 C102 46 157 -10 339 -10 C521 -10 576 46 576 234 L576 605 L605 641 L605 660 L495 660 L495 641 L532 605 L532 221 C532 71 492 26 356 26 C204 26 158 76 158 244 L159 605 L159 605 L188 641 L188 660 L73 660 L73 641 L102 605 L102 605 Z " />
<glyph glyph-name="Yacute" unicode="&#xdd;" horiz-adv-x="637" d="M318 705 L326 705 L420 830 C434 848 438 864 438 864 L388 864 L318 705 L318 705 Z M41 642 L78 611 L298 304 L298 56 L265 20 L265 1 L387 1 L387 20 L354 56 L354 307 L564 621 L596 647 L596 661 L507 661 L507 642 C507 639 511 606 512 606 L335 342 L143 606 L143 661 L41 661 L41 642 L41 642 Z " />
<glyph glyph-name="agrave" unicode="&#xe0;" horiz-adv-x="442" d="M220 530 L150 707 L100 707 C100 707 104 689 118 669 L212 530 L220 530 L220 530 Z M119 336 C119 405 140 431 199 431 C272 431 285 409 285 335 L285 257 C91 203 55 168 55 87 C55 13 77 -9 152 -9 C220 -9 250 1 286 55 C289 6 308 -9 359 -9 C400 -9 417 3 434 43 L432 46 C427 34 417 30 388 30 C347 30 335 39 335 70 L335 349 C335 435 317 461 215 461 C107 461 67 427 67 333 C67 319 70 315 80 316 L114 316 L119 321 L119 336 L119 336 Z M285 235 L285 74 C285 73 285 72 285 71 C260 37 234 30 176 30 C120 30 103 46 103 98 C103 162 132 190 285 233 L285 235 L285 235 Z " />
<glyph glyph-name="aacute" unicode="&#xe1;" horiz-adv-x="442" d="M216 530 L224 530 L318 669 C332 689 336 707 336 707 L286 707 L216 530 L216 530 Z M119 336 C119 405 140 431 199 431 C272 431 285 409 285 335 L285 257 C91 203 55 168 55 87 C55 13 77 -9 152 -9 C220 -9 250 1 286 55 C289 6 308 -9 359 -9 C400 -9 417 3 434 43 L432 46 C427 34 417 30 388 30 C347 30 335 39 335 70 L335 349 C335 435 317 461 215 461 C107 461 67 427 67 333 C67 319 70 315 80 316 L114 316 L119 321 L119 336 L119 336 Z M285 235 L285 74 C285 73 285 72 285 71 C260 37 234 30 176 30 C120 30 103 46 103 98 C103 162 132 190 285 233 L285 235 L285 235 Z " />
<glyph glyph-name="acircumflex" unicode="&#xe2;" horiz-adv-x="442" d="M348 530 L224 705 L206 705 L87 530 L95 530 L215 648 L340 530 L348 530 L348 530 Z M119 336 C119 405 140 431 199 431 C272 431 285 409 285 335 L285 257 C91 203 55 168 55 87 C55 13 77 -9 152 -9 C220 -9 250 1 286 55 C289 6 308 -9 359 -9 C400 -9 417 3 434 43 L432 46 C427 34 417 30 388 30 C347 30 335 39 335 70 L335 349 C335 435 317 461 215 461 C107 461 67 427 67 333 C67 319 70 315 80 316 L114 316 L119 321 L119 336 L119 336 Z M285 235 L285 74 C285 73 285 72 285 71 C260 37 234 30 176 30 C120 30 103 46 103 98 C103 162 132 190 285 233 L285 235 L285 235 Z " />
<glyph glyph-name="atilde" unicode="&#xe3;" horiz-adv-x="442" d="M74 555 C91 608 90 624 135 624 C179 624 206 563 250 563 C306 563 307 588 334 671 L326 671 C308 616 309 600 265 600 C221 600 194 660 150 660 C92 660 92 636 66 555 L74 555 L74 555 Z M119 336 C119 405 140 431 199 431 C272 431 285 409 285 335 L285 257 C91 203 55 168 55 87 C55 13 77 -9 152 -9 C220 -9 250 1 286 55 C289 6 308 -9 359 -9 C400 -9 417 3 434 43 L432 46 C427 34 417 30 388 30 C347 30 335 39 335 70 L335 349 C335 435 317 461 215 461 C107 461 67 427 67 333 C67 319 70 315 80 316 L114 316 L119 321 L119 336 L119 336 Z M285 235 L285 74 C285 73 285 72 285 71 C260 37 234 30 176 30 C120 30 103 46 103 98 C103 162 132 190 285 233 L285 235 L285 235 Z " />
<glyph glyph-name="adieresis" unicode="&#xe4;" horiz-adv-x="442" d="M275 570 C299 570 306 577 306 601 C306 626 299 633 275 633 C251 633 244 626 244 601 C244 577 251 570 275 570 L275 570 Z M125 570 C149 570 156 577 156 601 C156 626 149 633 125 633 C101 633 94 626 94 601 C94 577 101 570 125 570 L125 570 Z M119 336 C119 405 140 431 199 431 C272 431 285 409 285 335 L285 257 C91 203 55 168 55 87 C55 13 77 -9 152 -9 C220 -9 250 1 286 55 C289 6 308 -9 359 -9 C400 -9 417 3 434 43 L432 46 C427 34 417 30 388 30 C347 30 335 39 335 70 L335 349 C335 435 317 461 215 461 C107 461 67 427 67 333 C67 319 70 315 80 316 L114 316 L119 321 L119 336 L119 336 Z M285 235 L285 74 C285 73 285 72 285 71 C260 37 234 30 176 30 C120 30 103 46 103 98 C103 162 132 190 285 233 L285 235 L285 235 Z " />
<glyph glyph-name="aring" unicode="&#xe5;" horiz-adv-x="442" d="M155 618 C155 663 166 676 204 676 C243 676 255 661 255 609 C255 568 241 550 208 550 C171 550 155 571 155 618 L155 618 Z M124 613 C124 559 149 535 205 535 C261 535 286 559 286 614 C286 673 267 691 205 691 C143 691 124 673 124 613 L124 613 Z M119 336 C119 405 140 431 199 431 C272 431 285 409 285 335 L285 257 C91 203 55 168 55 87 C55 13 77 -9 152 -9 C220 -9 250 1 286 55 C289 6 308 -9 359 -9 C400 -9 417 3 434 43 L432 46 C427 34 417 30 388 30 C347 30 335 39 335 70 L335 349 C335 435 317 461 215 461 C107 461 67 427 67 333 C67 319 70 315 80 316 L114 316 L119 321 L119 336 L119 336 Z M285 235 L285 74 C285 73 285 72 285 71 C260 37 234 30 176 30 C120 30 103 46 103 98 C103 162 132 190 285 233 L285 235 L285 235 Z " />
<glyph glyph-name="ccedilla" unicode="&#xe7;" horiz-adv-x="437" d="M389 101 C341 52 312 37 266 37 C137 37 99 83 99 237 C99 387 131 432 237 432 C288 432 311 421 333 383 L355 346 L359 346 L370 360 L392 381 L392 382 C392 387 389 394 379 410 C356 449 328 460 257 460 C98 460 50 402 50 209 C50 42 92 -9 233 -10 C229 -19 216 -51 187 -129 L206 -136 C245 -145 256 -156 256 -183 C256 -213 250 -222 231 -222 C196 -222 181 -219 167 -207 L167 -214 C191 -233 208 -239 240 -239 C281 -239 293 -224 293 -173 C293 -130 276 -112 220 -98 C241 -42 250 -17 253 -9 C323 -6 356 20 392 96 L392 102 L389 101 L389 101 Z " />
<glyph glyph-name="egrave" unicode="&#xe8;" horiz-adv-x="443" d="M236 530 L166 707 L116 707 C116 707 120 689 134 669 L229 530 L236 530 L236 530 Z M100 273 C105 394 138 432 230 432 C316 432 345 394 348 273 L100 273 L100 273 Z M389 101 C341 52 312 37 266 37 C134 37 98 86 99 244 L239 244 C290 244 348 241 394 247 C394 411 359 460 240 460 C94 460 51 402 51 209 C51 40 94 -10 240 -10 C320 -10 355 14 394 95 L394 101 L389 101 L389 101 Z " />
<glyph glyph-name="eacute" unicode="&#xe9;" horiz-adv-x="443" d="M233 530 L240 530 L335 669 C349 689 353 707 353 707 L303 707 L233 530 L233 530 Z M100 273 C105 394 138 432 230 432 C316 432 345 394 348 273 L100 273 L100 273 Z M389 101 C341 52 312 37 266 37 C134 37 98 86 99 244 L239 244 C290 244 348 241 394 247 C394 411 359 460 240 460 C94 460 51 402 51 209 C51 40 94 -10 240 -10 C320 -10 355 14 394 95 L394 101 L389 101 L389 101 Z " />
<glyph glyph-name="ecircumflex" unicode="&#xea;" horiz-adv-x="443" d="M364 530 L241 705 L222 705 L104 530 L111 530 L231 648 L357 530 L364 530 L364 530 Z M100 273 C105 394 138 432 230 432 C316 432 345 394 348 273 L100 273 L100 273 Z M389 101 C341 52 312 37 266 37 C134 37 98 86 99 244 L239 244 C290 244 348 241 394 247 C394 411 359 460 240 460 C94 460 51 402 51 209 C51 40 94 -10 240 -10 C320 -10 355 14 394 95 L394 101 L389 101 L389 101 Z " />
<glyph glyph-name="edieresis" unicode="&#xeb;" horiz-adv-x="443" d="M307 570 C331 570 338 577 338 601 C338 626 331 633 307 633 C282 633 275 626 275 601 C275 577 282 570 307 570 L307 570 Z M157 570 C181 570 188 577 188 601 C188 626 181 633 157 633 C132 633 125 626 125 601 C125 577 132 570 157 570 L157 570 Z M100 273 C105 394 138 432 230 432 C316 432 345 394 348 273 L100 273 L100 273 Z M389 101 C341 52 312 37 266 37 C134 37 98 86 99 244 L239 244 C290 244 348 241 394 247 C394 411 359 460 240 460 C94 460 51 402 51 209 C51 40 94 -10 240 -10 C320 -10 355 14 394 95 L394 101 L389 101 L389 101 Z " />
<glyph glyph-name="igrave" unicode="&#xec;" horiz-adv-x="204" d="M103 530 L33 707 L-17 707 C-17 707 -13 689 1 669 L95 530 L103 530 L103 530 Z M152 0 L152 18 L128 50 L128 460 L118 460 L54 434 L54 428 L60 410 C74 369 78 357 78 357 L78 50 L54 18 L54 0 L152 0 L152 0 Z " />
<glyph glyph-name="iacute" unicode="&#xed;" horiz-adv-x="204" d="M99 530 L107 530 L201 669 C215 689 219 707 219 707 L169 707 L99 530 L99 530 Z M152 0 L152 18 L128 50 L128 460 L118 460 L54 434 L54 428 L60 410 C74 369 78 357 78 357 L78 50 L54 18 L54 0 L152 0 L152 0 Z " />
<glyph glyph-name="icircumflex" unicode="&#xee;" horiz-adv-x="204" d="M231 530 L107 705 L89 705 L-30 530 L-22 530 L98 648 L223 530 L231 530 L231 530 Z M152 0 L152 18 L128 50 L128 460 L118 460 L54 434 L54 428 L60 410 C74 369 78 357 78 357 L78 50 L54 18 L54 0 L152 0 L152 0 Z " />
<glyph glyph-name="idieresis" unicode="&#xef;" horiz-adv-x="204" d="M173 570 C197 570 204 577 204 601 C204 626 197 633 173 633 C149 633 142 626 142 601 C142 577 149 570 173 570 L173 570 Z M23 570 C47 570 54 577 54 601 C54 626 47 633 23 633 C-1 633 -8 626 -8 601 C-8 577 -1 570 23 570 L23 570 Z M152 0 L152 18 L128 50 L128 460 L118 460 L54 434 L54 428 L60 410 C74 369 78 357 78 357 L78 50 L54 18 L54 0 L152 0 L152 0 Z " />
<glyph glyph-name="ntilde" unicode="&#xf1;" horiz-adv-x="460" d="M110 555 C127 608 127 624 170 624 C215 624 241 563 286 563 C342 563 343 588 370 671 L361 671 C343 616 344 600 301 600 C256 600 230 660 185 660 C127 660 127 636 101 555 L110 555 L110 555 Z M421 0 L421 18 L397 50 L397 343 C397 433 368 460 269 460 C189 460 169 441 124 379 L124 382 L123 382 C122 412 121 460 121 460 L111 460 L50 434 L50 428 L56 410 C70 369 74 357 74 357 L74 50 L50 18 L50 0 L150 0 L150 18 L124 50 L124 360 C156 403 172 416 242 416 C323 416 347 393 347 314 L347 50 L321 18 L321 0 L421 0 L421 0 Z " />
<glyph glyph-name="ograve" unicode="&#xf2;" horiz-adv-x="489" d="M249 530 L179 707 L129 707 C129 707 133 689 147 669 L242 530 L249 530 L249 530 Z M108 225 C108 386 128 434 236 434 C348 434 382 386 382 225 C382 64 362 16 253 16 C141 16 108 64 108 225 L108 225 Z M50 225 C50 44 95 -10 245 -10 C409 -10 439 44 439 225 C439 406 394 460 245 460 C80 460 50 406 50 225 L50 225 Z " />
<glyph glyph-name="oacute" unicode="&#xf3;" horiz-adv-x="489" d="M246 530 L253 530 L348 669 C362 689 366 707 366 707 L316 707 L246 530 L246 530 Z M108 225 C108 386 128 434 236 434 C348 434 382 386 382 225 C382 64 362 16 253 16 C141 16 108 64 108 225 L108 225 Z M50 225 C50 44 95 -10 245 -10 C409 -10 439 44 439 225 C439 406 394 460 245 460 C80 460 50 406 50 225 L50 225 Z " />
<glyph glyph-name="ocircumflex" unicode="&#xf4;" horiz-adv-x="489" d="M377 530 L254 705 L235 705 L117 530 L124 530 L244 648 L370 530 L377 530 L377 530 Z M108 225 C108 386 128 434 236 434 C348 434 382 386 382 225 C382 64 362 16 253 16 C141 16 108 64 108 225 L108 225 Z M50 225 C50 44 95 -10 245 -10 C409 -10 439 44 439 225 C439 406 394 460 245 460 C80 460 50 406 50 225 L50 225 Z " />
<glyph glyph-name="otilde" unicode="&#xf5;" horiz-adv-x="489" d="M119 555 C136 608 136 624 179 624 C224 624 250 563 295 563 C351 563 352 588 379 671 L370 671 C352 616 353 600 310 600 C265 600 239 660 194 660 C136 660 136 636 110 555 L119 555 L119 555 Z M108 225 C108 386 128 434 236 434 C348 434 382 386 382 225 C382 64 362 16 253 16 C141 16 108 64 108 225 L108 225 Z M50 225 C50 44 95 -10 245 -10 C409 -10 439 44 439 225 C439 406 394 460 245 460 C80 460 50 406 50 225 L50 225 Z " />
<glyph glyph-name="odieresis" unicode="&#xf6;" horiz-adv-x="489" d="M320 570 C344 570 351 577 351 601 C351 626 344 633 320 633 C295 633 288 626 288 601 C288 577 295 570 320 570 L320 570 Z M170 570 C194 570 201 577 201 601 C201 626 194 633 170 633 C145 633 138 626 138 601 C138 577 145 570 170 570 L170 570 Z M108 225 C108 386 128 434 236 434 C348 434 382 386 382 225 C382 64 362 16 253 16 C141 16 108 64 108 225 L108 225 Z M50 225 C50 44 95 -10 245 -10 C409 -10 439 44 439 225 C439 406 394 460 245 460 C80 460 50 406 50 225 L50 225 Z " />
<glyph glyph-name="oslash" unicode="&#xf8;" horiz-adv-x="489" d="M50 225 C50 137 61 79 89 43 L50 -10 L91 -10 L113 20 C143 -1 186 -9 245 -9 C409 -9 439 45 439 226 C439 314 428 372 400 408 L439 460 L398 460 L376 430 C346 451 303 459 244 459 C79 459 49 405 49 224 L50 225 L50 225 Z M348 392 L123 88 C112 120 108 164 108 223 C108 384 128 432 236 432 C290 432 326 421 349 391 L348 392 L348 392 Z M366 359 C378 327 383 283 383 223 C383 62 363 14 254 14 C200 14 164 25 142 55 L366 359 L366 359 Z " />
<glyph glyph-name="ugrave" unicode="&#xf9;" horiz-adv-x="422" d="M211 530 L141 707 L91 707 C91 707 95 689 109 669 L204 530 L211 530 L211 530 Z M323 400 L323 97 C271 45 248 36 204 36 C124 36 100 59 100 137 L100 450 L26 450 L26 432 L50 400 L50 107 C50 17 79 -10 175 -10 C221 -10 249 3 323 77 L323 0 L399 0 L399 18 L373 50 L373 450 L297 450 L297 432 L323 400 L323 400 Z " />
<glyph glyph-name="uacute" unicode="&#xfa;" horiz-adv-x="422" d="M208 530 L215 530 L310 669 C324 689 328 707 328 707 L278 707 L208 530 L208 530 Z M323 400 L323 97 C271 45 248 36 204 36 C124 36 100 59 100 137 L100 450 L26 450 L26 432 L50 400 L50 107 C50 17 79 -10 175 -10 C221 -10 249 3 323 77 L323 0 L399 0 L399 18 L373 50 L373 450 L297 450 L297 432 L323 400 L323 400 Z " />
<glyph glyph-name="ucircumflex" unicode="&#xfb;" horiz-adv-x="422" d="M339 530 L216 705 L197 705 L79 530 L86 530 L206 648 L332 530 L339 530 L339 530 Z M323 400 L323 97 C271 45 248 36 204 36 C124 36 100 59 100 137 L100 450 L26 450 L26 432 L50 400 L50 107 C50 17 79 -10 175 -10 C221 -10 249 3 323 77 L323 0 L399 0 L399 18 L373 50 L373 450 L297 450 L297 432 L323 400 L323 400 Z " />
<glyph glyph-name="udieresis" unicode="&#xfc;" horiz-adv-x="422" d="M282 570 C306 570 313 577 313 601 C313 626 306 633 282 633 C257 633 250 626 250 601 C250 577 257 570 282 570 L282 570 Z M132 570 C156 570 163 577 163 601 C163 626 156 633 132 633 C107 633 100 626 100 601 C100 577 107 570 132 570 L132 570 Z M323 400 L323 97 C271 45 248 36 204 36 C124 36 100 59 100 137 L100 450 L26 450 L26 432 L50 400 L50 107 C50 17 79 -10 175 -10 C221 -10 249 3 323 77 L323 0 L399 0 L399 18 L373 50 L373 450 L297 450 L297 432 L323 400 L323 400 Z " />
<glyph glyph-name="yacute" unicode="&#xfd;" horiz-adv-x="374" d="M200 530 L207 530 L302 669 C316 689 320 707 320 707 L270 707 L200 530 L200 530 Z M315 431 L332 395 L215 74 L70 400 L88 432 L88 450 L-18 450 L-18 432 L16 400 L190 6 L159 -79 C123 -180 116 -188 63 -188 L37 -188 L33 -192 L33 -222 C33 -239 35 -240 54 -240 C122 -240 132 -228 182 -87 C241 74 300 235 359 395 L394 431 L394 450 L315 450 L315 431 L315 431 Z " />
<glyph glyph-name="ydieresis" unicode="&#xff;" horiz-adv-x="374" d="M274 570 C298 570 305 577 305 601 C305 626 298 633 274 633 C249 633 242 626 242 601 C242 577 249 570 274 570 L274 570 Z M124 570 C148 570 155 577 155 601 C155 626 148 633 124 633 C99 633 92 626 92 601 C92 577 99 570 124 570 L124 570 Z M315 431 L332 395 L215 74 L70 400 L88 432 L88 450 L-18 450 L-18 432 L16 400 L190 6 L159 -79 C123 -180 116 -188 63 -188 L37 -188 L33 -192 L33 -222 C33 -239 35 -240 54 -240 C122 -240 132 -228 182 -87 C241 74 300 235 359 395 L394 431 L394 450 L315 450 L315 431 L315 431 Z " />
<glyph glyph-name="Amacron" unicode="&#x100;" horiz-adv-x="642" d="M204 767 L430 767 L430 798 L204 798 L204 767 L204 767 Z M126 18 L108 50 L107 50 C121 89 145 154 181 251 L181 246 L436 246 L436 250 C466 171 494 98 512 52 L491 20 L491 2 L590 2 L590 2 L603 2 L603 18 L573 47 L572 47 C514 194 338 651 338 651 L332 667 L303 667 C166 313 96 131 66 52 L66 52 L30 20 L30 2 L126 2 L126 18 L126 18 Z M425 282 L193 282 C223 362 261 462 308 585 C333 520 380 398 424 282 L425 282 L425 282 Z " />
<glyph glyph-name="amacron" unicode="&#x101;" horiz-adv-x="442" d="M92 597 L318 597 L318 628 L92 628 L92 597 L92 597 Z M119 336 C119 405 140 431 199 431 C272 431 285 409 285 335 L285 257 C91 203 55 168 55 87 C55 13 77 -9 152 -9 C220 -9 250 1 286 55 C289 6 308 -9 359 -9 C400 -9 417 3 434 43 L432 46 C427 34 417 30 388 30 C347 30 335 39 335 70 L335 349 C335 435 317 461 215 461 C107 461 67 427 67 333 C67 319 70 315 80 316 L114 316 L119 321 L119 336 L119 336 Z M285 235 L285 74 C285 73 285 72 285 71 C260 37 234 30 176 30 C120 30 103 46 103 98 C103 162 132 190 285 233 L285 235 L285 235 Z " />
<glyph glyph-name="Abreve" unicode="&#x102;" horiz-adv-x="642" d="M210 842 L201 842 C235 724 244 714 317 714 C390 714 398 724 432 842 L423 842 C399 759 391 752 317 752 C242 752 234 759 210 842 L210 842 Z M126 18 L108 50 L107 50 C121 89 145 154 181 251 L181 246 L436 246 L436 250 C466 171 494 98 512 52 L491 20 L491 2 L590 2 L590 2 L603 2 L603 18 L573 47 L572 47 C514 194 338 651 338 651 L332 667 L303 667 C166 313 96 131 66 52 L66 52 L30 20 L30 2 L126 2 L126 18 L126 18 Z M425 282 L193 282 C223 362 261 462 308 585 C333 520 380 398 424 282 L425 282 L425 282 Z " />
<glyph glyph-name="abreve" unicode="&#x103;" horiz-adv-x="442" d="M98 682 L90 682 C124 551 132 540 205 540 C278 540 286 551 320 682 L311 682 C287 590 279 582 205 582 C130 582 122 590 98 682 L98 682 Z M119 336 C119 405 140 431 199 431 C272 431 285 409 285 335 L285 257 C91 203 55 168 55 87 C55 13 77 -9 152 -9 C220 -9 250 1 286 55 C289 6 308 -9 359 -9 C400 -9 417 3 434 43 L432 46 C427 34 417 30 388 30 C347 30 335 39 335 70 L335 349 C335 435 317 461 215 461 C107 461 67 427 67 333 C67 319 70 315 80 316 L114 316 L119 321 L119 336 L119 336 Z M285 235 L285 74 C285 73 285 72 285 71 C260 37 234 30 176 30 C120 30 103 46 103 98 C103 162 132 190 285 233 L285 235 L285 235 Z " />
<glyph glyph-name="Cacute" unicode="&#x106;" horiz-adv-x="674" d="M346 705 L354 705 L448 830 C462 848 466 864 466 864 L416 864 L346 705 L346 705 Z M570 114 C550 91 538 78 518 55 C516 52 514 50 513 49 C472 28 434 21 376 21 C185 21 128 93 128 332 C128 568 188 639 387 639 C436 639 468 634 498 619 C500 618 502 617 505 613 C526 587 539 571 560 545 L577 545 L576 623 C532 660 488 671 387 671 C143 671 70 589 70 314 C70 65 140 -9 376 -9 C480 -9 528 3 584 42 L586 115 L570 114 L570 114 Z " />
<glyph glyph-name="cacute" unicode="&#x107;" horiz-adv-x="437" d="M241 530 L248 530 L343 669 C357 689 361 707 361 707 L311 707 L241 530 L241 530 Z M389 101 C341 52 312 37 266 37 C137 37 99 83 99 237 C99 387 131 432 237 432 C288 432 311 421 333 383 L355 346 L359 346 L370 360 L392 381 L392 382 C392 387 389 394 379 410 C356 449 328 460 257 460 C98 460 50 402 50 209 C50 40 93 -10 239 -10 C319 -10 354 14 393 95 L393 101 L389 101 L389 101 Z " />
<glyph glyph-name="Ccaron" unicode="&#x10c;" horiz-adv-x="674" d="M498 867 L497 867 L498 868 L498 867 L498 867 Z M356 710 L357 711 L373 711 L374 710 L497 867 L490 867 L365 761 L245 867 L237 867 L356 710 L356 710 Z M570 114 C550 91 538 78 518 55 C516 52 514 50 513 49 C472 28 434 21 376 21 C185 21 128 93 128 332 C128 568 188 639 387 639 C436 639 468 634 498 619 C500 618 502 617 505 613 C526 587 539 571 560 545 L577 545 L576 623 C532 660 488 671 387 671 C143 671 70 589 70 314 C70 65 140 -9 376 -9 C480 -9 528 3 584 42 L586 115 L570 114 L570 114 Z " />
<glyph glyph-name="ccaron" unicode="&#x10d;" horiz-adv-x="437" d="M249 535 L372 710 L365 710 L239 592 L119 710 L112 710 L230 535 L249 535 L249 535 Z M389 101 C341 52 312 37 266 37 C137 37 99 83 99 237 C99 387 131 432 237 432 C288 432 311 421 333 383 L355 346 L359 346 L370 360 L392 381 L392 382 C392 387 389 394 379 410 C356 449 328 460 257 460 C98 460 50 402 50 209 C50 40 93 -10 239 -10 C319 -10 354 14 393 95 L393 101 L389 101 L389 101 Z " />
<glyph glyph-name="Dcaron" unicode="&#x10e;" horiz-adv-x="676" d="M493 867 L492 867 L493 868 L493 867 L493 867 Z M351 710 L352 711 L368 711 L369 710 L492 867 L485 867 L360 761 L240 867 L232 867 L351 710 L351 710 Z M271 0 C529 9 606 64 606 356 C606 613 527 660 263 660 L65 660 L65 641 L94 605 L94 55 L65 19 L65 0 L271 0 L271 0 Z M150 34 L150 626 L247 626 C478 626 547 581 547 335 C547 88 483 41 270 34 L150 34 L150 34 Z " />
<glyph glyph-name="dcaron" unicode="&#x10f;" horiz-adv-x="482" d="M557 750 L510 750 L491 563 L499 563 L562 746 C561 745 562 750 557 750 L557 750 Z M562 746 L565 753 C563 748 562 746 562 745 L562 746 L562 746 Z M565 752 L566 756 C566 755 566 754 566 753 L565 752 L565 752 Z M436 0 L436 18 L410 50 L410 756 L400 756 L336 736 L336 731 L347 703 C357 676 360 668 360 668 L360 445 C326 457 300 461 264 461 C98 461 49 400 49 197 C49 38 86 -9 212 -9 C288 -9 323 6 360 57 C361 34 366 1 366 1 L436 0 L436 0 Z M360 388 L360 80 C333 45 306 34 248 34 C133 34 99 75 99 214 C99 382 135 432 256 432 C256 432 281 422 360 388 L360 388 Z " />
<glyph glyph-name="Emacron" unicode="&#x112;" horiz-adv-x="559" d="M151 767 L377 767 L377 798 L151 798 L151 767 L151 767 Z M488 34 C488 49 488 62 487 80 L470 80 L413 34 L150 34 L150 323 L314 323 L356 294 L379 294 L379 386 L356 386 L314 357 L150 357 L150 626 L388 626 L445 584 L462 584 C462 601 462 612 462 626 L464 626 L464 660 L65 660 L65 641 L94 605 L94 55 L65 19 L65 0 L489 0 L489 34 L488 34 L488 34 Z " />
<glyph glyph-name="emacron" unicode="&#x113;" horiz-adv-x="443" d="M124 597 L350 597 L350 628 L124 628 L124 597 L124 597 Z M100 273 C105 394 138 432 230 432 C316 432 345 394 348 273 L100 273 L100 273 Z M389 101 C341 52 312 37 266 37 C134 37 98 86 99 244 L239 244 C290 244 348 241 394 247 C394 411 359 460 240 460 C94 460 51 402 51 209 C51 40 94 -10 240 -10 C320 -10 355 14 394 95 L394 101 L389 101 L389 101 Z " />
<glyph glyph-name="Edot" unicode="&#x116;" horiz-adv-x="559" d="M269 725 C298 725 307 734 307 763 C307 791 298 800 269 800 C241 800 232 791 232 763 C232 734 241 725 269 725 L269 725 Z M488 34 C488 49 488 62 487 80 L470 80 L413 34 L150 34 L150 323 L314 323 L356 294 L379 294 L379 386 L356 386 L314 357 L150 357 L150 626 L388 626 L445 584 L462 584 C462 601 462 612 462 626 L464 626 L464 660 L65 660 L65 641 L94 605 L94 55 L65 19 L65 0 L489 0 L489 34 L488 34 L488 34 Z " />
<glyph glyph-name="edot" unicode="&#x117;" horiz-adv-x="443" d="M242 583 C270 583 279 592 279 621 C279 649 270 658 242 658 C213 658 204 649 204 621 C204 592 213 583 242 583 L242 583 Z M100 273 C105 394 138 432 230 432 C316 432 345 394 348 273 L100 273 L100 273 Z M389 101 C341 52 312 37 266 37 C134 37 98 86 99 244 L239 244 C290 244 348 241 394 247 C394 411 359 460 240 460 C94 460 51 402 51 209 C51 40 94 -10 240 -10 C320 -10 355 14 394 95 L394 101 L389 101 L389 101 Z " />
<glyph glyph-name="Ecaron" unicode="&#x11a;" horiz-adv-x="559" d="M397 867 L396 867 L397 868 L397 867 L397 867 Z M255 710 L256 711 L272 711 L273 710 L396 867 L389 867 L264 761 L144 867 L136 867 L255 710 L255 710 Z M488 34 C488 49 488 62 487 80 L470 80 L413 34 L150 34 L150 323 L314 323 L356 294 L379 294 L379 386 L356 386 L314 357 L150 357 L150 626 L388 626 L445 584 L462 584 C462 601 462 612 462 626 L464 626 L464 660 L65 660 L65 641 L94 605 L94 55 L65 19 L65 0 L489 0 L489 34 L488 34 L488 34 Z " />
<glyph glyph-name="ecaron" unicode="&#x11b;" horiz-adv-x="443" d="M241 535 L364 710 L357 710 L231 592 L111 710 L104 710 L222 535 L241 535 L241 535 Z M100 273 C105 394 138 432 230 432 C316 432 345 394 348 273 L100 273 L100 273 Z M389 101 C341 52 312 37 266 37 C134 37 98 86 99 244 L239 244 C290 244 348 241 394 247 C394 411 359 460 240 460 C94 460 51 402 51 209 C51 40 94 -10 240 -10 C320 -10 355 14 394 95 L394 101 L389 101 L389 101 Z " />
<glyph glyph-name="Gbreve" unicode="&#x11e;" horiz-adv-x="685" d="M269 842 L260 842 C294 724 303 714 376 714 C449 714 457 724 491 842 L482 842 C458 759 450 752 376 752 C301 752 293 759 269 842 L269 842 Z M597 544 L596 622 C552 659 506 670 398 670 C145 670 70 588 70 313 C70 64 141 -10 377 -10 C502 -10 556 9 610 74 L610 235 L638 271 L638 290 L523 290 L523 271 L554 235 L554 63 C522 36 479 28 394 28 C189 28 128 98 128 333 C128 569 190 640 398 640 C451 640 485 635 516 620 C516 620 524 614 525 613 C546 587 559 571 580 545 L597 544 L597 544 Z " />
<glyph glyph-name="gbreve" unicode="&#x11f;" horiz-adv-x="499" d="M133 682 L125 682 C159 551 167 540 240 540 C313 540 321 551 355 682 L346 682 C322 590 314 582 240 582 C165 582 157 590 133 682 L133 682 Z M131 302 C131 404 146 435 230 435 C313 435 338 404 338 300 C338 195 323 164 242 164 C157 164 131 196 131 302 L131 302 Z M80 301 C80 220 95 176 138 155 C91 140 77 119 77 76 C77 30 91 10 134 4 C84 -10 68 -61 68 -123 C68 -213 102 -240 215 -240 C383 -240 433 -203 433 -79 C433 18 423 47 303 47 L183 47 C135 47 121 59 121 98 C121 130 129 142 156 149 C177 143 203 140 235 140 C366 140 390 177 390 301 C390 361 382 400 359 425 L450 416 L450 450 L311 452 C291 458 266 460 236 460 C105 460 81 423 81 301 L80 301 L80 301 Z M168 3 L279 3 C381 3 389 -19 389 -92 C389 -192 351 -222 222 -222 C138 -222 113 -197 113 -115 C113 -40 126 3 168 3 L168 3 Z " />
<glyph glyph-name="Itilde" unicode="&#x128;" horiz-adv-x="255" d="M2 705 C19 758 18 774 63 774 C107 774 134 713 178 713 C234 713 235 738 262 821 L254 821 C236 766 237 750 193 750 C149 750 122 810 78 810 C20 810 20 786 -6 705 L2 705 L2 705 Z M185 0 L185 19 L156 55 L156 605 L185 641 L185 660 L70 660 L70 641 L99 605 L99 55 L70 19 L70 0 L185 0 L185 0 Z " />
<glyph glyph-name="itilde" unicode="&#x129;" horiz-adv-x="204" d="M-23 530 C-6 583 -7 599 38 599 C82 599 109 538 153 538 C209 538 210 563 237 646 L229 646 C211 591 212 575 168 575 C124 575 97 635 53 635 C-5 635 -5 611 -31 530 L-23 530 L-23 530 Z M152 0 L152 18 L128 50 L128 460 L118 460 L54 434 L54 428 L60 410 C74 369 78 357 78 357 L78 50 L54 18 L54 0 L152 0 L152 0 Z " />
<glyph glyph-name="Imacron" unicode="&#x12a;" horiz-adv-x="255" d="M15 767 L241 767 L241 798 L15 798 L15 767 L15 767 Z M185 0 L185 19 L156 55 L156 605 L185 641 L185 660 L70 660 L70 641 L99 605 L99 55 L70 19 L70 0 L185 0 L185 0 Z " />
<glyph glyph-name="imacron" unicode="&#x12b;" horiz-adv-x="204" d="M-15 597 L211 597 L211 628 L-15 628 L-15 597 L-15 597 Z M152 0 L152 18 L128 50 L128 460 L118 460 L54 434 L54 428 L60 410 C74 369 78 357 78 357 L78 50 L54 18 L54 0 L152 0 L152 0 Z " />
<glyph glyph-name="Idot" unicode="&#x130;" horiz-adv-x="255" d="M128 725 C157 725 166 734 166 763 C166 791 157 800 128 800 C100 800 91 791 91 763 C91 734 100 725 128 725 L128 725 Z M185 0 L185 19 L156 55 L156 605 L185 641 L185 660 L70 660 L70 641 L99 605 L99 55 L70 19 L70 0 L185 0 L185 0 Z " />
<glyph glyph-name="dotlessi" unicode="&#x131;" horiz-adv-x="204" d="M152 0 L152 18 L128 50 L128 460 L118 460 L54 434 L54 428 L60 410 C74 369 78 357 78 357 L78 50 L54 18 L54 0 L152 0 L152 0 Z " />
<glyph glyph-name="Lacute" unicode="&#x139;" horiz-adv-x="539" d="M108 705 L116 705 L210 830 C224 848 228 864 228 864 L178 864 L108 705 L108 705 Z M467 34 C466 55 466 71 465 95 L447 95 L387 34 L149 34 L149 605 L180 641 L180 660 L64 660 L64 641 L93 605 L93 55 L64 19 L64 0 L468 0 L468 34 L467 34 L467 34 Z " />
<glyph glyph-name="lacute" unicode="&#x13a;" horiz-adv-x="185" d="M78 765 L86 765 L185 890 C200 908 204 924 204 924 L152 924 L78 765 L78 765 Z M142 0 L142 18 L118 50 L118 760 L108 760 L44 734 L44 728 L50 710 C64 669 68 657 68 657 L68 50 L44 18 L44 0 L142 0 L142 0 Z " />
<glyph glyph-name="Lcaron" unicode="&#x13d;" horiz-adv-x="539" d="M432 660 L385 660 L366 473 L374 473 L437 656 C436 655 437 660 432 660 L432 660 Z M437 656 L440 663 C438 658 437 656 437 655 L437 656 L437 656 Z M440 662 L441 666 C441 665 441 664 441 663 L440 662 L440 662 Z M469 34 C468 55 468 71 467 95 L449 95 L389 34 L151 34 L151 605 L182 641 L182 660 L66 660 L66 641 L95 605 L95 55 L66 19 L66 0 L470 0 L470 34 L469 34 L469 34 Z " />
<glyph glyph-name="lcaron" unicode="&#x13e;" horiz-adv-x="185" d="M266 750 L219 750 L200 563 L208 563 L271 746 C270 745 271 750 266 750 L266 750 Z M271 746 L274 753 C272 748 271 746 271 745 L271 746 L271 746 Z M274 752 L275 756 C275 755 275 754 275 753 L274 752 L274 752 Z M143 0 L143 18 L119 50 L119 760 L109 760 L45 734 L45 728 L51 710 C65 669 69 657 69 657 L69 50 L45 18 L45 0 L143 0 L143 0 Z " />
<glyph glyph-name="Nacute" unicode="&#x143;" horiz-adv-x="658" d="M342 705 L350 705 L444 830 C458 848 462 864 462 864 L412 864 L342 705 L342 705 Z M65 641 L93 605 L93 55 L64 19 L64 0 L174 0 L174 19 L137 55 L137 562 C273 373 410 185 545 -5 L568 -5 L568 605 L596 641 L596 660 L487 660 L487 641 L524 605 L524 120 L136 660 L64 660 L65 641 L65 641 Z " />
<glyph glyph-name="nacute" unicode="&#x144;" horiz-adv-x="460" d="M237 530 L244 530 L339 669 C353 689 357 707 357 707 L307 707 L237 530 L237 530 Z M421 0 L421 18 L397 50 L397 343 C397 433 368 460 269 460 C189 460 169 441 124 379 L124 382 L123 382 C122 412 121 460 121 460 L111 460 L50 434 L50 428 L56 410 C70 369 74 357 74 357 L74 50 L50 18 L50 0 L150 0 L150 18 L124 50 L124 360 C156 403 172 416 242 416 C323 416 347 393 347 314 L347 50 L321 18 L321 0 L421 0 L421 0 Z " />
<glyph glyph-name="Ncaron" unicode="&#x147;" horiz-adv-x="658" d="M474 867 L473 867 L474 868 L474 867 L474 867 Z M332 710 L333 711 L349 711 L350 710 L473 867 L466 867 L341 761 L221 867 L213 867 L332 710 L332 710 Z M65 641 L93 605 L93 55 L64 19 L64 0 L174 0 L174 19 L137 55 L137 562 C273 373 410 185 545 -5 L568 -5 L568 605 L596 641 L596 660 L487 660 L487 641 L524 605 L524 120 L136 660 L64 660 L65 641 L65 641 Z " />
<glyph glyph-name="ncaron" unicode="&#x148;" horiz-adv-x="460" d="M245 535 L368 710 L361 710 L235 592 L115 710 L108 710 L226 535 L245 535 L245 535 Z M421 0 L421 18 L397 50 L397 343 C397 433 368 460 269 460 C189 460 169 441 124 379 L124 382 L123 382 C122 412 121 460 121 460 L111 460 L50 434 L50 428 L56 410 C70 369 74 357 74 357 L74 50 L50 18 L50 0 L150 0 L150 18 L124 50 L124 360 C156 403 172 416 242 416 C323 416 347 393 347 314 L347 50 L321 18 L321 0 L421 0 L421 0 Z " />
<glyph glyph-name="Omacron" unicode="&#x14c;" horiz-adv-x="758" d="M251 767 L477 767 L477 798 L251 798 L251 767 L251 767 Z M130 353 C130 573 185 639 368 639 C568 639 628 563 628 307 C628 87 574 21 392 21 C190 21 130 97 130 353 L130 353 Z M70 332 C70 69 141 -10 379 -10 C617 -10 688 68 688 328 C688 591 617 670 379 670 C141 670 70 592 70 332 L70 332 Z " />
<glyph glyph-name="omacron" unicode="&#x14d;" horiz-adv-x="489" d="M132 597 L358 597 L358 628 L132 628 L132 597 L132 597 Z M108 225 C108 386 128 434 236 434 C348 434 382 386 382 225 C382 64 362 16 253 16 C141 16 108 64 108 225 L108 225 Z M50 225 C50 44 95 -10 245 -10 C409 -10 439 44 439 225 C439 406 394 460 245 460 C80 460 50 406 50 225 L50 225 Z " />
<glyph glyph-name="Racute" unicode="&#x154;" horiz-adv-x="535" d="M245 705 L252 705 L347 830 C361 848 365 864 365 864 L315 864 L245 705 L245 705 Z M523 18 C509 29 496 40 482 50 L303 304 C411 317 446 366 446 483 C446 619 401 660 251 660 L66 660 L66 641 L95 605 L95 55 L66 19 L66 0 L179 0 L179 19 L151 55 L151 300 L226 300 C230 300 234 300 238 300 L449 0 L524 0 L523 18 L523 18 Z M151 334 L151 626 C184 626 235 626 236 625 C350 625 384 591 384 477 C384 367 350 334 238 334 L151 334 L151 334 Z " />
<glyph glyph-name="racute" unicode="&#x155;" horiz-adv-x="275" d="M171 530 L178 530 L273 669 C287 689 291 707 291 707 L241 707 L171 530 L171 530 Z M275 424 C275 431 267 437 242 450 C224 458 215 460 202 460 C173 460 160 438 124 365 L124 375 L123 375 C122 405 121 460 121 460 L111 460 L50 434 L50 428 L56 410 C70 369 74 357 74 357 L74 50 L50 18 L50 0 L150 0 L150 18 L124 50 L124 344 C149 395 159 411 171 411 C185 411 195 408 217 399 C231 392 255 383 255 383 L262 383 C272 404 275 413 275 424 L275 424 Z " />
<glyph glyph-name="Rcaron" unicode="&#x158;" horiz-adv-x="535" d="M386 867 L385 867 L386 868 L386 867 L386 867 Z M244 710 L245 711 L262 711 L263 710 L385 867 L379 867 L253 761 L133 867 L126 867 L244 710 L244 710 Z M523 18 C509 29 496 40 482 50 L303 304 C411 317 446 366 446 483 C446 619 401 660 251 660 L66 660 L66 641 L95 605 L95 55 L66 19 L66 0 L179 0 L179 19 L151 55 L151 300 L226 300 C230 300 234 300 238 300 L449 0 L524 0 L523 18 L523 18 Z M151 334 L151 626 C184 626 235 626 236 625 C350 625 384 591 384 477 C384 367 350 334 238 334 L151 334 L151 334 Z " />
<glyph glyph-name="rcaron" unicode="&#x159;" horiz-adv-x="275" d="M179 535 L302 710 L295 710 L169 592 L49 710 L42 710 L160 535 L179 535 L179 535 Z M275 424 C275 431 267 437 242 450 C224 458 215 460 202 460 C173 460 160 438 124 365 L124 375 L123 375 C122 405 121 460 121 460 L111 460 L50 434 L50 428 L56 410 C70 369 74 357 74 357 L74 50 L50 18 L50 0 L150 0 L150 18 L124 50 L124 344 C149 395 159 411 171 411 C185 411 195 408 217 399 C231 392 255 383 255 383 L262 383 C272 404 275 413 275 424 L275 424 Z " />
<glyph glyph-name="Sacute" unicode="&#x15a;" horiz-adv-x="471" d="M213 705 L221 705 L315 830 C329 848 333 864 333 864 L283 864 L213 705 L213 705 Z M313 618 C318 614 321 610 325 603 C338 580 347 567 360 544 C364 544 366 545 370 545 L381 545 L378 625 C335 660 305 670 246 670 C122 670 85 629 85 493 C85 398 106 380 221 324 C340 267 361 250 361 167 C361 53 334 19 245 19 C215 19 187 27 138 53 C138 54 131 56 127 64 C113 92 103 108 89 136 L68 136 L70 38 C133 1 173 -10 245 -10 C376 -10 415 34 415 181 C415 285 392 304 267 365 C160 417 141 432 141 513 C141 611 164 640 241 640 C266 640 286 634 312 618 L313 618 L313 618 Z " />
<glyph glyph-name="sacute" unicode="&#x15b;" horiz-adv-x="374" d="M180 530 L188 530 L282 669 C296 689 300 707 300 707 L250 707 L180 530 L180 530 Z M76 76 C72 76 67 77 61 77 L61 53 L61 53 L61 38 L61 38 L61 22 C114 -3 142 -10 183 -10 C277 -10 305 19 305 117 C305 196 290 210 207 250 C133 285 120 297 120 355 C120 417 135 436 185 436 C196 436 208 433 227 424 C239 416 257 396 270 379 C276 379 282 378 289 378 L290 423 C241 451 216 460 183 460 C101 460 77 431 77 336 C77 263 91 251 167 214 C247 175 262 163 262 101 C262 32 243 12 181 12 C130 12 112 42 78 76 L76 76 L76 76 Z " />
<glyph glyph-name="Scedilla" unicode="&#x15e;" horiz-adv-x="471" d="M228 -98 C249 -42 258 -17 261 -9 C380 -6 416 40 416 181 C416 285 393 304 268 365 C161 417 142 432 142 513 C142 611 165 640 242 640 C267 640 287 634 313 618 C318 614 321 610 325 603 C338 580 347 567 360 544 C364 544 366 545 370 545 L381 545 L378 625 C335 660 305 670 246 670 C122 670 85 629 85 493 C85 398 106 380 221 324 C340 267 361 250 361 167 C361 53 334 19 245 19 C215 19 187 27 138 53 C138 54 131 56 127 64 C113 92 103 108 89 136 L68 136 L70 38 C131 2 170 -9 238 -10 C234 -19 221 -51 192 -129 L211 -136 C250 -145 261 -156 261 -183 C261 -213 255 -222 236 -222 C201 -222 186 -219 172 -207 L172 -214 C196 -233 213 -239 245 -239 C286 -239 298 -224 298 -173 C298 -130 281 -112 225 -98 L228 -98 L228 -98 Z " />
<glyph glyph-name="scedilla" unicode="&#x15f;" horiz-adv-x="374" d="M76 76 C72 76 67 77 61 77 L61 53 L61 53 L61 38 L61 38 L61 22 C111 -2 139 -10 177 -11 C173 -20 160 -52 131 -131 L150 -138 C189 -147 200 -158 200 -185 C200 -215 194 -224 175 -224 C140 -224 125 -221 111 -209 L111 -216 C135 -235 152 -241 184 -241 C225 -241 237 -226 237 -175 C237 -132 220 -114 164 -100 C185 -44 194 -19 197 -11 C279 -8 304 23 304 116 C304 195 289 209 206 249 C132 284 119 296 119 354 C119 416 134 435 184 435 C195 435 207 432 226 423 C238 415 256 395 269 378 C275 378 281 377 288 377 L289 422 C240 450 215 459 182 459 C100 459 76 430 76 335 C76 262 90 250 166 213 C246 174 261 162 261 100 C261 31 242 11 180 11 C129 11 111 41 77 75 L76 76 L76 76 Z " />
<glyph glyph-name="Scaron" unicode="&#x160;" horiz-adv-x="471" d="M360 867 L359 867 L360 868 L360 867 L360 867 Z M218 710 L219 711 L235 711 L236 710 L359 867 L352 867 L227 761 L107 867 L99 867 L218 710 L218 710 Z M313 618 C318 614 321 610 325 603 C338 580 347 567 360 544 C364 544 366 545 370 545 L381 545 L378 625 C335 660 305 670 246 670 C122 670 85 629 85 493 C85 398 106 380 221 324 C340 267 361 250 361 167 C361 53 334 19 245 19 C215 19 187 27 138 53 C138 54 131 56 127 64 C113 92 103 108 89 136 L68 136 L70 38 C133 1 173 -10 245 -10 C376 -10 415 34 415 181 C415 285 392 304 267 365 C160 417 141 432 141 513 C141 611 164 640 241 640 C266 640 286 634 312 618 L313 618 L313 618 Z " />
<glyph glyph-name="scaron" unicode="&#x161;" horiz-adv-x="374" d="M188 535 L312 710 L304 710 L179 592 L59 710 L51 710 L170 535 L188 535 L188 535 Z M76 76 C72 76 67 77 61 77 L61 53 L61 53 L61 38 L61 38 L61 22 C114 -3 142 -10 183 -10 C277 -10 305 19 305 117 C305 196 290 210 207 250 C133 285 120 297 120 355 C120 417 135 436 185 436 C196 436 208 433 227 424 C239 416 257 396 270 379 C276 379 282 378 289 378 L290 423 C241 451 216 460 183 460 C101 460 77 431 77 336 C77 263 91 251 167 214 C247 175 262 163 262 101 C262 32 243 12 181 12 C130 12 112 42 78 76 L76 76 L76 76 Z " />
<glyph glyph-name="Tcaron" unicode="&#x164;" horiz-adv-x="635" d="M452 867 L451 867 L452 868 L452 867 L452 867 Z M310 710 L311 711 L328 711 L329 710 L451 867 L445 867 L319 761 L199 867 L192 867 L310 710 L310 710 Z M383 0 L383 19 L346 55 L346 626 L510 626 L571 573 L589 573 C590 600 590 616 591 643 L590 643 L590 660 L44 660 L44 643 L45 643 L45 626 L46 626 C47 608 47 594 48 573 L66 573 L127 626 L290 626 L290 55 L253 19 L253 0 L383 0 L383 0 Z " />
<glyph glyph-name="tcaron" unicode="&#x165;" horiz-adv-x="280" d="M280 750 L233 750 L214 563 L222 563 L285 746 C284 745 285 750 280 750 L280 750 Z M250 53 L248 59 C238 37 226 31 193 31 C146 31 132 47 132 101 L132 421 L238 421 L238 450 L132 450 L132 549 L128 549 L82 450 L18 425 L18 421 L82 421 L82 90 C82 13 100 -10 162 -10 C208 -10 228 4 250 53 L250 53 Z M285 746 L288 753 C286 748 285 746 285 745 L285 746 L285 746 Z M288 752 L289 756 C289 755 289 754 289 753 L288 752 L288 752 Z " />
<glyph glyph-name="Utilde" unicode="&#x168;" horiz-adv-x="670" d="M213 705 C230 758 229 774 274 774 C318 774 345 713 389 713 C445 713 446 738 473 821 L465 821 C447 766 448 750 404 750 C360 750 333 810 289 810 C231 810 231 786 205 705 L213 705 L213 705 Z M102 605 L102 234 C102 46 157 -10 339 -10 C521 -10 576 46 576 234 L576 605 L605 641 L605 660 L495 660 L495 641 L532 605 L532 221 C532 71 492 26 356 26 C204 26 158 76 158 244 L159 605 L159 605 L188 641 L188 660 L73 660 L73 641 L102 605 L102 605 Z " />
<glyph glyph-name="utilde" unicode="&#x169;" horiz-adv-x="422" d="M81 535 C98 588 98 604 141 604 C186 604 212 543 257 543 C313 543 314 568 341 651 L332 651 C314 596 315 580 272 580 C227 580 201 640 156 640 C98 640 98 616 72 535 L81 535 L81 535 Z M323 400 L323 97 C271 45 248 36 204 36 C124 36 100 59 100 137 L100 450 L26 450 L26 432 L50 400 L50 107 C50 17 79 -10 175 -10 C221 -10 249 3 323 77 L323 0 L399 0 L399 18 L373 50 L373 450 L297 450 L297 432 L323 400 L323 400 Z " />
<glyph glyph-name="Umacron" unicode="&#x16a;" horiz-adv-x="670" d="M236 767 L462 767 L462 798 L236 798 L236 767 L236 767 Z M102 605 L102 234 C102 46 157 -10 339 -10 C521 -10 576 46 576 234 L576 605 L605 641 L605 660 L495 660 L495 641 L532 605 L532 221 C532 71 492 26 356 26 C204 26 158 76 158 244 L159 605 L159 605 L188 641 L188 660 L73 660 L73 641 L102 605 L102 605 Z " />
<glyph glyph-name="umacron" unicode="&#x16b;" horiz-adv-x="422" d="M94 597 L320 597 L320 628 L94 628 L94 597 L94 597 Z M323 400 L323 97 C271 45 248 36 204 36 C124 36 100 59 100 137 L100 450 L26 450 L26 432 L50 400 L50 107 C50 17 79 -10 175 -10 C221 -10 249 3 323 77 L323 0 L399 0 L399 18 L373 50 L373 450 L297 450 L297 432 L323 400 L323 400 Z " />
<glyph glyph-name="Uring" unicode="&#x16e;" horiz-adv-x="670" d="M294 793 C294 838 305 851 343 851 C382 851 394 836 394 784 C394 743 380 725 347 725 C310 725 294 746 294 793 L294 793 Z M263 788 C263 734 288 710 344 710 C400 710 425 734 425 789 C425 848 406 866 344 866 C282 866 263 848 263 788 L263 788 Z M102 605 L102 234 C102 46 157 -10 339 -10 C521 -10 576 46 576 234 L576 605 L605 641 L605 660 L495 660 L495 641 L532 605 L532 221 C532 71 492 26 356 26 C204 26 158 76 158 244 L159 605 L159 605 L188 641 L188 660 L73 660 L73 641 L102 605 L102 605 Z " />
<glyph glyph-name="uring" unicode="&#x16f;" horiz-adv-x="422" d="M157 618 C157 663 168 676 205 676 C244 676 256 661 256 609 C256 568 242 550 209 550 C173 550 157 571 157 618 L157 618 Z M126 613 C126 559 151 535 207 535 C262 535 287 559 287 614 C287 673 269 691 207 691 C145 691 126 673 126 613 L126 613 Z M323 400 L323 97 C271 45 248 36 204 36 C124 36 100 59 100 137 L100 450 L26 450 L26 432 L50 400 L50 107 C50 17 79 -10 175 -10 C221 -10 249 3 323 77 L323 0 L399 0 L399 18 L373 50 L373 450 L297 450 L297 432 L323 400 L323 400 Z " />
<glyph glyph-name="Ydieresis" unicode="&#x178;" horiz-adv-x="637" d="M402 735 C426 735 433 742 433 766 C433 791 426 798 402 798 C378 798 371 791 371 766 C371 742 378 735 402 735 L402 735 Z M252 735 C276 735 283 742 283 766 C283 791 276 798 252 798 C228 798 221 791 221 766 C221 742 228 735 252 735 L252 735 Z M41 642 L78 611 L298 304 L298 56 L265 20 L265 1 L387 1 L387 20 L354 56 L354 307 L564 621 L596 647 L596 661 L507 661 L507 642 C507 639 511 606 512 606 L335 342 L143 606 L143 661 L41 661 L41 642 L41 642 Z " />
<glyph glyph-name="Zacute" unicode="&#x179;" horiz-adv-x="606" d="M309 705 L317 705 L411 830 C425 848 429 864 429 864 L379 864 L309 705 L309 705 Z M110 643 L110 626 L111 626 C111 611 111 598 112 580 L130 580 L191 626 L429 626 C319 423 210 218 98 16 L98 0 L516 0 L516 34 C516 51 516 64 515 84 L497 84 L436 34 L165 34 C277 241 390 447 501 654 L501 660 L109 660 L109 643 L110 643 L110 643 Z " />
<glyph glyph-name="zacute" unicode="&#x17a;" horiz-adv-x="440" d="M224 530 L231 530 L326 669 C340 689 344 707 344 707 L294 707 L224 530 L224 530 Z M89 454 C89 447 89 443 88 436 L89 436 C87 416 86 405 84 385 L101 385 L137 422 L284 422 L88 28 L80 11 L80 0 L365 0 L365 28 L364 28 L364 67 L347 67 L314 28 L143 28 L339 422 L357 450 L139 450 L99 454 L89 454 L89 454 Z " />
<glyph glyph-name="Zdot" unicode="&#x17b;" horiz-adv-x="606" d="M318 725 C347 725 356 734 356 763 C356 791 347 800 318 800 C290 800 281 791 281 763 C281 734 290 725 318 725 L318 725 Z M110 643 L110 626 L111 626 C111 611 111 598 112 580 L130 580 L191 626 L429 626 C319 423 210 218 98 16 L98 0 L516 0 L516 34 C516 51 516 64 515 84 L497 84 L436 34 L165 34 C277 241 390 447 501 654 L501 660 L109 660 L109 643 L110 643 L110 643 Z " />
<glyph glyph-name="zdot" unicode="&#x17c;" horiz-adv-x="440" d="M228 583 C256 583 265 592 265 621 C265 649 256 658 228 658 C199 658 190 649 190 621 C190 592 199 583 228 583 L228 583 Z M89 454 C89 447 89 443 88 436 L89 436 C87 416 86 405 84 385 L101 385 L137 422 L284 422 L88 28 L80 11 L80 0 L365 0 L365 28 L364 28 L364 67 L347 67 L314 28 L143 28 L339 422 L357 450 L139 450 L99 454 L89 454 L89 454 Z " />
<glyph glyph-name="Zcaron" unicode="&#x17d;" horiz-adv-x="606" d="M456 867 L455 867 L456 868 L456 867 L456 867 Z M314 710 L315 711 L331 711 L332 710 L455 867 L448 867 L323 761 L203 867 L195 867 L314 710 L314 710 Z M110 643 L110 626 L111 626 C111 611 111 598 112 580 L130 580 L191 626 L429 626 C319 423 210 218 98 16 L98 0 L516 0 L516 34 C516 51 516 64 515 84 L497 84 L436 34 L165 34 C277 241 390 447 501 654 L501 660 L109 660 L109 643 L110 643 L110 643 Z " />
<glyph glyph-name="zcaron" unicode="&#x17e;" horiz-adv-x="440" d="M89 454 C89 447 89 443 88 436 L89 436 C87 416 86 405 84 385 L101 385 L137 422 L284 422 L88 28 L80 11 L80 0 L365 0 L365 28 L364 28 L364 67 L347 67 L314 28 L143 28 L339 422 L357 450 L139 450 L99 454 L89 454 L89 454 Z M232 535 L355 710 L348 710 L222 592 L102 710 L95 710 L213 535 L232 535 L232 535 Z " />
<glyph glyph-name="oogonek" unicode="&#x1eb;" horiz-adv-x="708" d="M677 -124 L677 -116 C670 -120 660 -121 633 -121 C564 -121 511 -34 443 -5 C592 14 639 91 639 281 C639 507 574 575 355 575 C136 575 71 508 71 285 C71 48 146 -16 381 -9 C457 -45 517 -139 599 -139 C640 -139 658 -136 678 -124 L677 -124 L677 -124 Z M125 304 C125 492 176 548 345 548 C531 548 586 482 586 261 C586 74 535 18 366 18 C180 18 125 84 125 304 L125 304 Z " />
<glyph glyph-name="G_sc" unicode="&#x262;" horiz-adv-x="636" d="M549 452 L548 526 L535 510 L535 510 L548 526 C503 564 462 575 368 575 C139 575 70 505 70 269 C70 54 134 -10 349 -10 C458 -10 507 9 561 74 L561 193 L589 229 L589 248 L479 248 L479 229 L510 193 L510 62 C478 32 440 23 365 23 C178 23 122 83 122 286 C122 487 179 547 368 547 C411 547 441 542 469 529 C469 529 476 523 476 522 C497 495 511 478 532 451 L549 452 L549 452 Z " />
<glyph glyph-name="I_sc" unicode="&#x26a;" horiz-adv-x="249" d="M179 0 L179 19 L150 55 L150 510 L179 546 L179 565 L70 565 L70 546 L99 510 L99 55 L70 19 L70 0 L179 0 L179 0 Z " />
<glyph glyph-name="N_sc" unicode="&#x274;" horiz-adv-x="609" d="M65 546 L93 510 L93 55 L64 19 L64 0 L169 0 L169 19 L132 55 L132 480 C255 318 378 157 501 -5 L520 -5 L520 510 L548 546 L548 565 L443 565 L443 546 L480 510 L480 106 L132 565 L65 565 L65 546 L65 546 Z " />
<glyph glyph-name="R_sc" unicode="&#x280;" horiz-adv-x="485" d="M473 0 L473 18 L431 49 L274 263 C364 275 393 316 393 413 C393 529 355 564 228 564 L65 564 L65 545 L94 509 L94 54 L65 18 L65 -1 L173 -1 L173 18 L145 54 L145 259 L203 259 C207 259 211 259 215 259 L405 -1 L473 0 L473 0 Z M146 290 L146 533 L216 533 C311 533 340 504 340 408 C340 317 311 290 215 290 L146 290 L146 290 Z " />
<glyph glyph-name="Y_sc" unicode="&#x28f;" horiz-adv-x="588" d="M547 565 L462 565 L462 546 L465 511 L311 296 L144 508 C145 507 145 508 144 510 L138 546 L138 565 L42 565 L42 547 L81 515 L81 515 L275 262 L275 55 L242 19 L242 0 L359 0 L359 19 L326 55 L326 264 L514 526 L547 551 L547 565 L547 565 Z " />
<glyph glyph-name="B_sc" unicode="&#x299;" horiz-adv-x="474" d="M172 310 L145 310 L145 534 L218 534 C327 534 347 507 347 418 C347 335 307 310 172 310 L172 310 Z M319 304 C379 324 400 363 400 433 C400 535 374 566 230 566 L65 566 L65 547 L94 511 L94 56 L65 20 L65 1 L220 1 C377 1 424 42 424 179 C424 256 405 292 318 305 L319 304 L319 304 Z M144 32 L144 280 L225 280 C348 280 370 256 370 174 C370 65 335 32 219 32 L144 32 L144 32 Z " />
<glyph glyph-name="H_sc" unicode="&#x29c;" horiz-adv-x="611" d="M546 0 L546 19 L517 55 L517 510 L546 546 L546 565 L437 565 L437 546 L466 510 L466 307 L145 307 L145 510 L174 546 L174 565 L65 565 L65 546 L94 510 L94 55 L65 19 L65 0 L174 0 L174 19 L145 55 L145 276 L466 276 L466 55 L437 19 L437 0 L546 0 L546 0 Z " />
<glyph glyph-name="L_sc" unicode="&#x29f;" horiz-adv-x="491" d="M420 31 C419 52 419 68 418 92 L400 92 L340 31 L145 31 L145 510 L176 546 L176 565 L65 565 L65 546 L94 510 L94 55 L65 19 L65 0 L421 0 L421 31 L420 31 L420 31 Z " />
<glyph glyph-name="circumflex" unicode="&#x2c6;" horiz-adv-x="290" d="M278 530 L154 705 L136 705 L17 530 L25 530 L145 648 L270 530 L278 530 L278 530 Z " />
<glyph glyph-name="caron" unicode="&#x2c7;" horiz-adv-x="290" d="M154 535 L278 710 L270 710 L145 592 L25 710 L17 710 L136 535 L154 535 L154 535 Z " />
<glyph glyph-name="firsttonechinese" unicode="&#x2c9;" horiz-adv-x="290" d="M32 532 L258 532 L258 563 L32 563 L32 532 L32 532 Z " />
<glyph glyph-name="breve" unicode="&#x2d8;" horiz-adv-x="290" d="M38 702 L30 702 C64 571 72 560 145 560 C218 560 226 571 260 702 L251 702 C227 610 219 602 145 602 C70 602 62 610 38 702 L38 702 Z " />
<glyph glyph-name="dotaccent" unicode="&#x2d9;" horiz-adv-x="290" d="M145 610 C169 610 176 617 176 641 C176 666 169 673 145 673 C121 673 114 666 114 641 C114 617 121 610 145 610 L145 610 Z " />
<glyph glyph-name="ring" unicode="&#x2da;" horiz-adv-x="290" d="M95 613 C95 658 106 671 144 671 C183 671 195 656 195 604 C195 563 181 545 148 545 C111 545 95 566 95 613 L95 613 Z M64 608 C64 554 89 530 145 530 C201 530 226 554 226 609 C226 668 207 686 145 686 C83 686 64 668 64 608 L64 608 Z " />
<glyph glyph-name="A_sc" unicode="&#x1d00;" horiz-adv-x="592" d="M122 18 L105 50 L104 50 C117 84 138 137 169 213 L169 208 L402 208 L402 211 L468 50 L448 18 L448 0 L554 0 L554 16 L522 45 C467 178 312 557 312 557 L307 570 L281 570 C277 560 272 550 268 540 C156 266 96 119 68 51 L31 20 L31 2 L123 2 L122 18 L122 18 Z M391 241 L180 241 C208 309 243 394 286 499 L391 241 L391 241 Z " />
<glyph glyph-name="C_sc" unicode="&#x1d04;" horiz-adv-x="625" d="M529 452 L528 526 L515 510 L515 510 L528 526 C483 564 444 575 357 575 C136 575 70 505 70 269 C70 54 133 -10 346 -10 C434 -10 478 2 535 42 L537 111 L521 111 C501 87 489 73 469 49 C468 48 460 42 460 42 C424 24 392 18 346 18 C174 18 122 80 122 286 C122 487 176 547 357 547 C395 547 422 542 449 529 C452 527 454 526 457 522 C478 494 492 479 513 451 L529 452 L529 452 Z " />
<glyph glyph-name="D_sc" unicode="&#x1d05;" horiz-adv-x="626" d="M254 0 C487 8 556 55 556 304 C556 525 485 565 247 565 L65 565 L65 546 L94 510 L94 55 L65 19 L65 0 L254 0 L254 0 Z M145 31 L145 534 L233 534 C441 534 503 496 503 285 C503 77 445 38 253 31 L145 31 L145 31 Z " />
<glyph glyph-name="E_sc" unicode="&#x1d07;" horiz-adv-x="511" d="M440 31 C440 46 440 58 439 76 L422 76 L365 30 L145 30 L145 275 L266 275 L308 246 L331 246 L331 335 L308 335 L266 306 L145 306 L145 533 L340 533 L397 491 L414 491 C414 507 414 519 414 533 L416 533 L416 564 L65 564 L65 545 L94 509 L94 54 L65 18 L65 -1 L441 -1 L441 30 L440 31 L440 31 Z " />
<glyph glyph-name="J_sc" unicode="&#x1d0a;" horiz-adv-x="249" d="M99 510 L99 50 C99 -90 85 -132 40 -132 C40 -132 28 -131 14 -127 L8 -127 C8 -127 2 -157 2 -159 C2 -170 6 -173 21 -173 C120 -173 150 -97 150 159 L150 510 L179 546 L179 565 L70 565 L70 546 L99 510 L99 510 Z " />
<glyph glyph-name="K_sc" unicode="&#x1d0b;" horiz-adv-x="563" d="M521 14 L479 40 L193 307 C267 380 340 453 414 525 L455 551 L455 565 L357 565 L357 547 L353 515 C353 514 353 514 354 514 L146 289 L448 0 L521 0 L521 14 L521 14 Z M174 0 L174 19 L145 55 L145 510 L174 546 L174 565 L66 565 L66 546 L95 510 L95 55 L66 19 L66 0 L174 0 L174 0 Z " />
<glyph glyph-name="M_sc" unicode="&#x1d0d;" horiz-adv-x="770" d="M83 546 L113 510 L113 510 L91 55 L60 19 L60 0 L153 0 L153 19 L124 55 L143 501 L367 -5 L392 -5 L614 497 L634 55 L607 20 L607 1 L709 1 L709 20 L682 56 L682 56 L662 511 L692 547 L692 566 L612 566 L392 65 L169 566 L83 566 L83 546 L83 546 Z " />
<glyph glyph-name="O_sc" unicode="&#x1d0f;" horiz-adv-x="708" d="M124 304 C124 492 175 548 344 548 C530 548 585 482 585 261 C585 74 534 18 365 18 C179 18 124 84 124 304 L124 304 Z M70 285 C70 58 135 -10 354 -10 C573 -10 638 57 638 281 C638 507 573 575 354 575 C135 575 70 508 70 285 L70 285 Z " />
<glyph glyph-name="P_sc" unicode="&#x1d18;" horiz-adv-x="463" d="M180 0 L180 19 L145 55 L145 260 L203 260 C349 260 393 295 393 414 C393 530 355 565 228 565 L65 565 L65 546 L94 510 L94 55 L65 19 L65 0 L180 0 L180 0 Z M145 291 L145 534 L215 534 C310 534 339 505 339 409 C339 318 310 291 214 291 L145 291 L145 291 Z " />
<glyph glyph-name="T_sc" unicode="&#x1d1b;" horiz-adv-x="587" d="M356 0 L356 19 L319 55 L319 534 L462 534 L523 481 L541 481 C542 508 542 523 543 550 L542 550 L542 565 L44 565 L44 549 L45 549 L45 534 L46 534 C47 516 47 502 48 481 L66 481 L127 534 L269 534 L269 55 L232 19 L232 0 L356 0 L356 0 Z " />
<glyph glyph-name="U_sc" unicode="&#x1d1c;" horiz-adv-x="623" d="M452 546 C464 534 476 522 489 510 L490 188 C490 61 454 23 332 23 C195 23 154 66 154 209 L154 510 L183 546 L183 565 L75 565 L75 546 L104 510 L104 200 C104 38 153 -10 317 -10 C480 -10 529 38 529 200 L529 510 L558 546 L558 565 L452 565 L452 546 L452 546 Z " />
<glyph glyph-name="V_sc" unicode="&#x1d20;" horiz-adv-x="586" d="M144 565 L39 565 L39 547 L72 515 L72 515 L277 6 L281 -5 L306 -5 C378 172 450 349 522 525 L549 551 L549 565 L463 565 L463 546 L478 510 L303 72 L126 510 L144 546 L144 565 L144 565 Z " />
<glyph glyph-name="W_sc" unicode="&#x1d21;" horiz-adv-x="814" d="M127 565 L21 565 L21 547 L52 515 C110 342 169 169 227 -5 L241 -5 L247 13 L408 468 C468 311 529 154 588 -4 L602 -4 L608 14 C661 185 714 356 768 526 L796 552 L796 566 L705 566 L705 547 L725 511 L725 511 L601 100 C540 257 481 415 419 571 L407 571 L399 549 L245 99 C199 236 152 374 107 510 L128 546 L127 565 L127 565 Z " />
<glyph glyph-name="Z_sc" unicode="&#x1d22;" horiz-adv-x="558" d="M111 549 L111 534 L112 534 C112 519 112 507 113 489 L131 489 L192 535 L386 535 L108 32 L99 15 L99 1 L468 1 L468 32 C468 49 468 63 467 82 L449 82 L388 32 L160 32 C258 209 355 386 453 562 L453 566 L110 566 L110 550 L111 549 L111 549 Z " />
<glyph glyph-name="Etilde" unicode="&#x1ebc;" horiz-adv-x="559" d="M153 705 C170 758 169 774 214 774 C258 774 285 713 329 713 C385 713 386 738 413 821 L405 821 C387 766 388 750 344 750 C300 750 273 810 229 810 C171 810 171 786 145 705 L153 705 L153 705 Z M488 34 C488 49 488 62 487 80 L470 80 L413 34 L150 34 L150 323 L314 323 L356 294 L379 294 L379 386 L356 386 L314 357 L150 357 L150 626 L388 626 L445 584 L462 584 C462 601 462 612 462 626 L464 626 L464 660 L65 660 L65 641 L94 605 L94 55 L65 19 L65 0 L489 0 L489 34 L488 34 L488 34 Z " />
<glyph glyph-name="endash" unicode="&#x2013;" horiz-adv-x="460" d="M50 252 L410 252 L410 283 L50 283 L50 252 L50 252 Z " />
<glyph glyph-name="emdash" unicode="&#x2014;" horiz-adv-x="960" d="M50 252 L910 252 L910 283 L50 283 L50 252 L50 252 Z " />
<glyph glyph-name="quoteleft" unicode="&#x2018;" horiz-adv-x="235" d="M146 587 C115 598 106 617 106 667 C106 703 124 719 183 738 L183 750 C95 722 69 696 69 639 C69 569 82 544 125 528 C142 522 151 520 158 538 L169 567 L169 575 L146 587 L146 587 Z " />
<glyph glyph-name="quoteright" unicode="&#x2019;" horiz-adv-x="235" d="M106 691 C137 680 146 661 146 611 C146 575 128 559 69 540 L69 528 C157 556 183 582 183 639 C183 709 170 734 127 750 C110 756 101 758 94 740 L83 711 L83 703 L106 691 L106 691 Z " />
<glyph glyph-name="quotedblleft" unicode="&#x201c;" horiz-adv-x="397" d="M146 587 C115 598 106 617 106 667 C106 703 124 738 183 738 L183 750 C95 750 69 696 69 639 C69 569 82 544 125 528 C142 522 151 520 158 538 L169 567 L169 575 L146 587 L146 587 Z M308 587 C277 598 268 617 268 667 C268 703 286 738 345 738 L345 750 C257 750 231 696 231 639 C231 569 244 544 287 528 C304 522 313 520 320 538 L331 567 L331 575 L308 587 L308 587 Z " />
<glyph glyph-name="quotedblright" unicode="&#x201d;" horiz-adv-x="397" d="M268 691 C299 680 308 661 308 611 C308 575 290 559 231 540 L231 528 C319 556 345 582 345 639 C345 709 332 734 289 750 C272 756 263 758 256 740 L245 711 L245 703 L268 691 L268 691 Z M106 691 C137 680 146 661 146 611 C146 575 128 559 69 540 L69 528 C157 556 183 582 183 639 C183 709 170 734 127 750 C110 756 101 758 94 740 L83 711 L83 703 L106 691 L106 691 Z " />
<glyph glyph-name="bullet" unicode="&#x2022;" horiz-adv-x="410" d="M205 169 C263 169 280 186 280 244 C280 302 263 319 205 319 C147 319 130 302 130 244 C130 186 147 169 205 169 L205 169 Z " />
<glyph glyph-name="ellipsis" unicode="&#x2026;" horiz-adv-x="560" d="M458 -10 C486 -10 495 -1 495 28 C495 56 486 65 458 65 C429 65 420 56 420 28 C420 -1 429 -10 458 -10 L458 -10 Z M280 -10 C309 -10 318 -1 318 28 C318 56 309 65 280 65 C252 65 243 56 243 28 C243 -1 252 -10 280 -10 L280 -10 Z M103 -10 C131 -10 140 -1 140 28 C140 56 131 65 103 65 C74 65 65 56 65 28 C65 -1 74 -10 103 -10 L103 -10 Z " />
<glyph glyph-name="perthousand" unicode="&#x2030;" horiz-adv-x="1060" d="M822 204 C822 340 841 380 904 380 C979 380 1001 335 1001 184 C1001 47 981 6 915 6 C843 6 822 52 822 204 L822 204 Z M773 195 C773 37 805 -10 911 -10 C1016 -10 1048 39 1048 201 C1048 350 1016 395 911 395 C805 395 773 349 773 195 L773 195 Z M79 565 C79 704 98 745 161 745 C236 745 258 699 258 545 C258 411 238 371 172 371 C100 371 79 416 79 565 L79 565 Z M30 555 C30 401 62 355 168 355 C273 355 305 403 305 562 C305 714 273 760 168 760 C62 760 30 713 30 555 L30 555 Z M512 204 C512 340 531 380 595 380 C674 380 698 335 698 184 C698 47 677 6 606 6 C534 6 512 52 512 204 L512 204 Z M463 194 C463 37 495 -10 602 -10 C712 -10 745 39 745 201 C745 350 712 395 602 395 C495 395 463 349 463 194 L463 194 Z M179 -7 L624 743 L602 757 L157 7 L179 -7 L179 -7 Z " />
<glyph glyph-name="guilsinglleft" unicode="&#x2039;" horiz-adv-x="215" d="M189 425 L19 248 L189 70 L195 70 L74 248 L195 425 L189 425 L189 425 Z " />
<glyph glyph-name="guilsinglright" unicode="&#x203a;" horiz-adv-x="209" d="M20 425 L133 248 L20 70 L26 70 L189 248 L26 425 L20 425 L20 425 Z " />
<glyph glyph-name="fraction" unicode="&#x2044;" horiz-adv-x="476" d="M41 -7 L486 743 L464 757 L19 7 L41 -7 L41 -7 Z " />
<glyph glyph-name="Euro" unicode="&#x20ac;" horiz-adv-x="459" d="M436 90 C405 44 377 30 318 30 C181 30 151 83 145 248 L330 248 L330 276 L145 276 C144 311 144 356 145 392 L331 392 L331 420 L146 420 C153 604 189 661 282 661 C321 661 342 645 371 592 C378 592 390 564 390 564 C405 564 421 578 423 580 C435 587 429 593 421 607 C395 655 369 669 310 669 C160 669 101 609 88 419 L11 419 L11 391 L86 391 C85 356 85 312 85 275 L11 275 L11 247 L86 247 C91 50 122 -11 290 -11 C362 -11 396 8 440 73 L440 89 L436 90 L436 90 Z " />
<glyph glyph-name="F_sc" unicode="&#xa730;" horiz-adv-x="476" d="M266 276 L308 247 L331 247 L331 336 L308 336 L266 307 L145 307 L145 534 L330 534 L387 492 L404 492 C404 508 404 520 404 534 L406 534 L406 565 L65 565 L65 546 L94 510 L94 55 L65 19 L65 0 L180 0 L180 19 L145 55 L145 276 L266 276 L266 276 Z " />
<glyph glyph-name="S_sc" unicode="&#xa731;" horiz-adv-x="420" d="M256 536 L256 536 C264 532 267 528 272 519 C286 493 294 478 308 452 C315 452 322 453 330 453 L328 529 C290 564 265 575 220 575 C118 575 88 540 88 422 C88 347 105 331 202 278 C300 224 318 209 318 144 C318 45 296 16 222 16 C199 16 177 23 139 45 C140 46 134 48 130 55 C115 85 107 102 92 132 L71 132 L73 39 C130 1 164 -10 222 -10 C333 -10 366 28 366 157 C366 240 347 257 243 314 C154 363 138 377 138 441 C138 523 156 548 215 548 C230 548 243 545 258 536 L256 536 L256 536 Z " />
<glyph glyph-name="X_sc" unicode="&#xf078;" horiz-adv-x="594" d="M164 565 L59 565 L59 547 L98 515 L98 515 L276 278 L103 50 L62 18 L62 0 L142 0 L142 19 L136 55 L136 55 L290 259 L443 55 C443 55 443 55 443 54 L445 18 L445 -1 L552 -1 L552 15 L515 44 L515 44 L320 301 L483 519 L519 547 L519 563 L444 563 L444 544 L447 508 L306 319 C258 382 209 446 162 509 L164 545 L164 565 L164 565 Z " />
</font>
</svg>
