<?xml version="1.0" encoding="UTF-8"?>
<svg xmlns="http://www.w3.org/2000/svg" xmlns:xlink="http://www.w3.org/1999/xlink" version="1.2" >
<font id="Iffat Regular">
<font-face  font-family="Iffat" units-per-em="1024" ascent="975" descent="-300" font-style="normal" font-weight="400" font-stretch="normal" cap-height="924" x-height="488" underline-position="-125" underline-thickness="50" />
<missing-glyph  horiz-adv-x="100" d="" />
<glyph glyph-name="NULL" d="" />
<glyph glyph-name="CR" unicode="&#xd;" horiz-adv-x="256" d="" />
<glyph glyph-name="space" unicode="&#x20;" horiz-adv-x="238" d="" />
<glyph glyph-name="exclam" unicode="&#x21;" horiz-adv-x="245" d="M125 -10 C171 -10 185 4 185 50 C185 96 171 110 125 110 C79 110 65 96 65 50 C65 4 79 -10 125 -10 L125 -10 Z M70 660 L115 190 L135 190 L180 660 L70 660 L70 660 Z " />
<glyph glyph-name="quotedbl" unicode="&#x22;" horiz-adv-x="450" d="M280 740 L315 490 L335 490 L370 740 L280 740 L280 740 Z M80 740 L115 490 L135 490 L170 740 L80 740 L80 740 Z " />
<glyph glyph-name="numbersign" unicode="&#x23;" horiz-adv-x="446" d="M125 403 L89 249 L0 249 L0 202 L78 202 L31 0 L81 0 L128 202 L258 202 L211 0 L261 0 L308 202 L400 202 L400 249 L319 249 L355 403 L446 403 L446 450 L366 450 L415 660 L365 660 L316 450 L186 450 L235 660 L185 660 L136 450 L46 450 L46 403 L125 403 L125 403 Z M175 403 L305 403 L269 249 L139 249 L175 403 L175 403 Z " />
<glyph glyph-name="dollar" unicode="&#x24;" horiz-adv-x="460" d="M262 740 L262 670 C248 670 232 670 218 669 L218 739 L177 739 L177 665 C83 652 53 604 53 488 C53 388 72 366 177 314 L177 39 C134 48 120 76 120 138 L120 165 C118 165 115 169 115 169 L87 169 C57 169 48 162 48 138 C48 36 79 -3 177 -11 L177 -82 L218 -82 L218 -12 C234 -12 249 -12 263 -11 L263 -82 L304 -82 L304 -5 C386 12 413 64 413 179 C413 261 395 301 304 352 L304 604 C320 592 326 571 326 538 L326 512 C326 512 329 508 331 508 L359 508 C389 508 398 515 398 538 C398 618 375 652 304 662 L304 736 L262 740 L262 740 Z M263 373 C246 381 231 388 218 395 L218 618 C232 619 250 619 262 618 L263 373 L263 373 Z M177 422 C149 445 142 470 142 518 C142 569 151 596 177 609 L177 422 L177 422 Z M218 292 C235 283 250 275 262 267 L262 37 C249 35 234 34 217 34 L218 292 L218 292 Z M302 235 C326 210 332 185 332 150 C332 101 324 71 302 54 L302 235 L302 235 Z " />
<glyph glyph-name="percent" unicode="&#x25;" horiz-adv-x="760" d="M109 569 C109 698 121 736 161 736 C220 736 237 690 237 537 C237 417 223 381 178 381 C125 381 109 424 109 569 L109 569 Z M30 554 C30 401 62 355 171 355 C280 355 312 403 312 564 C312 715 280 760 171 760 C62 760 30 713 30 554 L30 554 Z M530 208 C530 334 543 371 587 371 C653 371 673 326 673 176 C673 53 657 16 605 16 C547 16 530 60 530 208 L530 208 Z M451 193 C451 37 485 -10 598 -10 C714 -10 748 39 748 203 C748 351 714 395 598 395 C485 395 451 349 451 193 L451 193 Z M190 -11 L635 739 L598 761 L153 11 L190 -11 L190 -11 Z " />
<glyph glyph-name="ampersand" unicode="&#x26;" horiz-adv-x="609" d="M512 452 L491 420 C396 277 398 277 500 420 C514 420 536 470 536 470 L512 470 L512 452 L512 452 Z M536 470 C491 340 464 247 436 182 L246 377 C349 431 382 474 382 542 C382 640 350 669 241 669 C115 669 77 632 77 509 C77 423 93 399 142 350 C9 285 19 257 19 164 C19 30 59 -10 194 -10 C314 -10 379 11 425 65 L489 0 L620 0 L620 18 L564 50 L472 144 C503 213 530 309 574 439 L595 452 L595 470 L536 470 L536 470 Z M165 327 C172 320 179 313 187 305 L388 103 C355 67 311 53 239 53 C141 53 112 84 112 189 C112 265 107 294 166 328 L165 327 L165 327 Z M221 403 C178 446 165 459 165 528 C165 607 181 631 234 631 C283 631 297 610 297 540 C297 477 278 439 221 403 L221 403 Z " />
<glyph glyph-name="quotesingle" unicode="&#x27;" horiz-adv-x="250" d="M80 740 L115 490 L135 490 L170 740 L80 740 L80 740 Z " />
<glyph glyph-name="parenleft" unicode="&#x28;" horiz-adv-x="236" d="M206 740 C88 589 53 544 53 295 C53 46 88 1 206 -150 L231 -150 C146 -41 120 -8 120 295 C120 598 146 631 231 740 L206 740 L206 740 Z " />
<glyph glyph-name="parenright" unicode="&#x29;" horiz-adv-x="236" d="M55 -150 C173 1 208 46 208 295 C208 544 173 589 55 740 L30 740 C115 631 141 598 141 295 C141 -8 115 -41 30 -150 L55 -150 L55 -150 Z " />
<glyph glyph-name="asterisk" unicode="&#x2a;" horiz-adv-x="389" d="M210 588 L344 615 L325 672 L202 615 L219 750 L159 750 L176 615 L52 673 L33 616 L166 590 L73 490 L122 455 L188 574 L254 454 L303 489 L210 588 L210 588 Z " />
<glyph glyph-name="plus" unicode="&#x2b;" horiz-adv-x="510" d="M229 482 L229 297 L40 297 L40 247 L229 247 L229 52 L281 52 L281 247 L470 247 L470 297 L281 297 L281 482 L229 482 L229 482 Z " />
<glyph glyph-name="comma" unicode="&#x2c;" horiz-adv-x="247" d="M90 0 C129 -18 140 -38 140 -87 C140 -135 122 -158 60 -190 L60 -210 C165 -156 197 -117 197 -39 C197 38 182 68 132 91 C104 104 99 106 82 77 L53 27 L56 17 L90 0 L90 0 Z " />
<glyph glyph-name="hyphen" unicode="&#x2d;" horiz-adv-x="335" d="M50 217 L285 217 L285 287 L50 287 L50 217 L50 217 Z " />
<glyph glyph-name="period" unicode="&#x2e;" horiz-adv-x="250" d="M125 -10 C171 -10 185 4 185 50 C185 96 171 110 125 110 C79 110 65 96 65 50 C65 4 79 -10 125 -10 L125 -10 Z " />
<glyph glyph-name="slash" unicode="&#x2f;" horiz-adv-x="250" d="M0 -120 L50 -120 L250 750 L200 750 L0 -120 L0 -120 Z " />
<glyph glyph-name="zero" unicode="0" horiz-adv-x="486" d="M128 361 C128 563 151 623 226 623 C332 623 364 550 364 306 C364 100 340 39 259 39 C158 39 128 113 128 361 L128 361 Z M33 330 C33 68 81 -10 243 -10 C405 -10 453 70 453 338 C453 594 405 670 243 670 C81 670 33 592 33 330 L33 330 Z " />
<glyph glyph-name="one" unicode="1" horiz-adv-x="437" d="M342 0 L342 18 L318 50 L318 660 L298 660 L70 511 L70 476 L233 561 L233 50 L209 18 L209 0 L342 0 L342 0 Z " />
<glyph glyph-name="two" unicode="2" horiz-adv-x="440" d="M414 41 C416 66 417 81 419 106 L402 106 L367 82 L156 82 C386 379 406 378 406 493 C406 629 369 670 247 670 C87 670 39 631 39 499 C39 467 48 457 79 457 L125 457 C125 457 128 462 130 462 L130 515 C130 515 74 499 39 499 L130 515 C130 598 150 623 216 623 C288 623 309 593 309 492 C309 298 289 340 49 25 L49 0 L413 0 L414 41 L414 41 Z " />
<glyph glyph-name="three" unicode="3" horiz-adv-x="458" d="M123 120 L123 147 L115 155 L68 155 C68 155 33 147 33 120 C33 20 77 -10 223 -10 C386 -10 435 33 435 175 C435 296 414 347 320 362 C389 386 405 434 405 521 C405 636 368 670 243 670 C97 670 54 636 54 524 C54 497 94 489 94 489 L135 489 L143 497 L143 535 C143 604 161 625 222 625 C289 625 309 599 309 513 C309 418 291 378 205 367 C185 366 163 365 139 363 L139 319 C308 331 338 309 338 175 C338 67 311 35 222 35 C145 35 122 55 122 120 L123 120 L123 120 Z " />
<glyph glyph-name="four" unicode="4" horiz-adv-x="461" d="M321 660 C227 526 133 393 39 260 L8 213 L8 193 L256 193 L256 50 L232 18 L232 0 L365 0 L365 18 L341 50 L341 193 L448 193 L448 260 L341 260 L341 660 L321 660 L321 660 Z M256 495 L256 260 L99 260 L256 495 L256 495 Z " />
<glyph glyph-name="five" unicode="5" horiz-adv-x="460" d="M365 660 L86 660 L86 345 C111 353 130 355 167 355 C303 355 344 318 344 195 C344 75 316 39 221 39 C178 39 157 51 129 91 C125 91 119 108 119 108 L109 108 C95 108 73 81 73 81 C59 71 55 75 55 55 C55 48 57 43 63 36 C88 1 115 -10 180 -10 C361 -10 415 47 415 236 C415 388 361 433 181 433 C156 433 144 432 135 430 L135 583 L366 583 L365 660 L365 660 Z " />
<glyph glyph-name="six" unicode="6" horiz-adv-x="461" d="M381 670 C116 589 37 489 37 233 C37 46 83 -10 236 -10 C386 -10 431 39 431 201 C431 345 396 388 278 388 C205 388 163 373 135 329 C149 513 214 589 382 641 L381 670 L381 670 Z M133 236 C148 301 173 321 240 321 C317 321 340 289 340 181 C340 70 316 37 237 37 C158 37 134 83 133 236 L133 236 Z " />
<glyph glyph-name="seven" unicode="7" horiz-adv-x="460" d="M50 660 L50 583 L348 583 C139 175 76 38 77 0 L189 0 C184 138 237 285 420 640 L420 660 L50 660 L50 660 Z " />
<glyph glyph-name="eight" unicode="8" horiz-adv-x="453" d="M273 369 C267 372 260 375 253 378 C151 425 143 453 143 531 C143 603 161 624 221 624 C294 624 316 594 316 495 C316 426 305 387 273 368 L273 369 L273 369 Z M315 346 C382 363 404 408 404 501 C404 630 364 669 232 669 C96 669 55 630 55 499 C55 417 63 378 144 330 C67 312 42 259 42 145 C42 26 85 -10 229 -10 C372 -10 415 32 415 171 C415 255 399 298 317 346 L315 346 L315 346 Z M183 309 C193 304 204 299 216 293 C314 247 332 216 332 140 C332 58 309 33 234 33 C156 33 133 64 133 169 C133 247 146 289 183 309 L183 309 Z " />
<glyph glyph-name="nine" unicode="9" horiz-adv-x="459" d="M80 -10 C345 -10 424 6 424 427 C424 614 378 670 225 670 C75 670 30 639 30 465 C30 316 67 272 190 272 C259 272 298 289 327 341 C319 46 257 19 79 19 L80 -10 L80 -10 Z M328 424 C308 358 285 338 228 338 C148 338 124 367 124 464 C124 599 147 623 224 623 C303 623 327 577 328 424 L328 424 Z " />
<glyph glyph-name="colon" unicode="&#x3a;" horiz-adv-x="250" d="M125 330 C171 330 185 344 185 390 C185 436 171 450 125 450 C79 450 65 436 65 390 C65 344 79 330 125 330 L125 330 Z M125 -10 C171 -10 185 4 185 50 C185 96 171 110 125 110 C79 110 65 96 65 50 C65 4 79 -10 125 -10 L125 -10 Z " />
<glyph glyph-name="semicolon" unicode="&#x3b;" horiz-adv-x="247" d="M122 330 C168 330 182 344 182 390 C182 436 168 450 122 450 C76 450 62 436 62 390 C62 344 76 330 122 330 L122 330 Z M90 0 C129 -18 140 -38 140 -87 C140 -135 122 -158 60 -190 L60 -210 C165 -156 197 -117 197 -39 C197 38 182 68 132 91 C104 104 99 106 82 77 L53 27 L56 17 L90 0 L90 0 Z " />
<glyph glyph-name="equal" unicode="&#x3d;" horiz-adv-x="460" d="M40 195 L40 145 L420 145 L420 195 L40 195 L40 195 Z M40 399 L40 349 L420 349 L420 399 L40 399 L40 399 Z " />
<glyph glyph-name="question" unicode="&#x3f;" horiz-adv-x="438" d="M198 -5 C244 -5 258 9 258 55 C258 101 244 115 198 115 C152 115 138 101 138 55 C138 9 152 -5 198 -5 L198 -5 Z M128 517 C128 517 74 508 40 508 C40 477 49 468 78 468 L120 468 C120 468 125 478 128 478 L128 517 L128 517 Z M128 517 C128 601 143 626 194 626 C269 626 291 596 291 495 C291 409 261 374 162 345 C162 285 188 190 188 190 L208 190 C208 190 215 230 220 275 C345 318 383 373 383 496 C383 631 347 671 225 671 C83 671 40 634 40 509 L128 517 L128 517 Z " />
<glyph glyph-name="A" unicode="A" horiz-adv-x="598" d="M119 18 L100 50 L99 50 C112 86 132 144 162 227 L162 219 L391 219 L391 220 C412 163 434 106 454 50 L433 18 L433 0 L567 0 L567 0 L580 0 L580 16 L550 45 L548 45 C491 191 323 639 323 639 L313 665 L266 665 L245 610 C124 292 60 125 32 50 L-4 18 L-4 0 L118 0 L119 18 L119 18 Z M370 274 L178 274 C204 344 236 429 275 531 L370 274 L370 274 Z " />
<glyph glyph-name="B" unicode="B" horiz-adv-x="532" d="M184 368 L184 605 C212 605 242 605 243 604 C346 604 365 575 365 479 C365 391 320 368 184 368 L184 368 Z M380 356 C437 382 458 428 458 504 C458 624 428 660 265 660 L65 660 L65 641 L94 605 L94 55 L65 19 L65 0 L252 0 C429 0 482 48 482 209 C482 293 463 337 380 356 L380 356 Z M184 55 L184 313 L259 313 C368 313 388 287 388 201 C388 89 357 55 252 55 L184 55 L184 55 Z " />
<glyph glyph-name="C" unicode="C" horiz-adv-x="677" d="M574 134 L525 85 C521 81 518 78 515 76 C469 48 433 39 377 39 C212 39 163 108 163 340 C163 555 215 619 389 619 C436 619 466 611 501 587 C524 564 540 546 562 523 L579 523 L578 623 C536 658 492 669 389 669 C143 669 70 586 70 309 C70 63 141 -11 377 -11 C485 -11 533 0 587 38 L590 133 L574 134 L574 134 Z " />
<glyph glyph-name="D" unicode="D" horiz-adv-x="684" d="M293 0 C540 9 614 65 614 360 C614 614 537 660 278 660 L65 660 L65 641 L94 605 L94 55 L65 19 L65 0 L293 0 L293 0 Z M184 55 L184 605 C216 605 253 605 252 606 C459 606 521 563 521 325 C521 103 468 61 291 55 L184 55 L184 55 Z " />
<glyph glyph-name="E" unicode="E" horiz-adv-x="559" d="M487 55 C487 70 487 84 486 102 L469 102 L412 56 L184 56 L184 314 L314 314 L356 285 L379 285 L379 398 L356 398 L314 369 L184 369 L184 606 L387 606 L444 564 L461 564 C462 580 462 592 462 605 L464 605 L464 660 L65 660 L65 641 L94 605 L94 55 L65 19 L65 0 L489 0 L489 55 L487 55 L487 55 Z " />
<glyph glyph-name="F" unicode="F" horiz-adv-x="494" d="M314 313 L356 284 L379 284 L379 397 L356 397 L314 368 L184 368 L184 605 L377 605 L434 563 L451 563 C452 579 452 591 452 604 L454 604 L454 659 L65 659 L65 640 L94 604 L94 54 L65 18 L65 -1 L219 -1 L219 18 L184 54 L184 312 L314 313 L314 313 Z " />
<glyph glyph-name="G" unicode="G" horiz-adv-x="659" d="M569 524 L568 624 C526 659 480 670 369 670 C116 670 40 587 40 310 C40 64 111 -10 350 -10 C476 -10 530 9 584 74 L584 235 L612 271 L612 290 L463 290 L463 271 L494 235 L494 63 C471 53 436 49 377 49 C189 49 133 116 133 341 C133 556 187 620 369 620 C421 620 453 613 488 590 C491 588 494 585 498 580 C518 559 530 546 550 525 L569 524 L569 524 Z " />
<glyph glyph-name="H" unicode="H" horiz-adv-x="669" d="M604 0 L604 19 L575 55 L575 605 L604 641 L604 660 L456 660 L456 641 L485 605 L485 368 L184 368 L184 605 L213 641 L213 660 L65 660 L65 641 L94 605 L94 55 L65 19 L65 0 L213 0 L213 19 L184 55 L184 313 L485 313 L485 55 L456 19 L456 0 L604 0 L604 0 Z " />
<glyph glyph-name="I" unicode="I" horiz-adv-x="288" d="M218 0 L218 19 L189 55 L189 605 L218 641 L218 660 L70 660 L70 641 L99 605 L99 55 L70 19 L70 0 L218 0 L218 0 Z " />
<glyph glyph-name="J" unicode="J" horiz-adv-x="288" d="M99 605 L99 50 C99 -65 86 -100 43 -100 C43 -100 18 -98 -8 -91 L-14 -91 C-14 -91 -24 -143 -24 -147 C-24 -167 -16 -173 9 -173 C148 -173 189 -77 189 243 L189 605 L218 641 L218 660 L70 660 L70 641 L99 605 L99 605 Z " />
<glyph glyph-name="K" unicode="K" horiz-adv-x="641" d="M553 660 L417 660 L417 642 L418 610 L418 610 L186 338 L480 0 L601 0 L601 14 L563 40 L563 40 L270 364 C352 449 433 535 515 620 L554 646 L553 660 L553 660 Z M215 0 L215 19 L186 55 L186 605 L215 641 L215 660 L67 660 L67 641 L96 605 L96 55 L67 19 L67 0 L215 0 L215 0 Z " />
<glyph glyph-name="L" unicode="L" horiz-adv-x="539" d="M467 55 C466 75 465 92 464 116 L446 116 L386 55 L183 55 L183 605 L214 641 L214 660 L64 660 L64 641 L93 605 L93 55 L64 19 L64 0 L468 0 L468 55 L467 55 L467 55 Z " />
<glyph glyph-name="M" unicode="M" horiz-adv-x="827" d="M77 641 L108 605 L108 605 L90 55 L59 19 L59 0 L179 0 L179 19 L149 55 L161 532 L378 -5 L423 -5 L636 526 L654 55 L627 19 L627 0 L766 0 L766 19 L739 55 L718 605 L748 641 L748 660 L631 660 L421 120 L204 660 L76 660 L77 641 L77 641 Z " />
<glyph glyph-name="N" unicode="N" horiz-adv-x="664" d="M64 641 L92 605 L92 55 L63 19 L63 0 L199 0 L199 19 L162 55 L162 505 C287 335 412 165 537 -5 L575 -5 L575 605 L603 641 L603 660 L468 660 L468 641 L505 605 L505 191 L162 660 L64 660 L64 641 L64 641 Z " />
<glyph glyph-name="O" unicode="O" horiz-adv-x="767" d="M166 363 C166 562 212 621 366 621 C547 621 601 546 601 293 C601 98 556 40 404 40 C221 40 166 114 166 363 L166 363 Z M70 328 C70 68 142 -10 384 -10 C625 -10 697 68 697 328 C697 591 625 670 384 670 C142 670 70 591 70 328 L70 328 Z " />
<glyph glyph-name="P" unicode="P" horiz-adv-x="532" d="M219 0 L219 19 L184 55 L184 290 L242 290 C411 290 462 333 462 479 C462 618 417 660 267 660 L65 660 L65 641 L94 605 L94 55 L65 19 L65 0 L219 0 L219 0 Z M184 345 L184 605 C212 605 243 605 244 604 C338 604 366 573 366 471 C366 374 342 345 262 345 L184 345 L184 345 Z " />
<glyph glyph-name="Q" unicode="Q" horiz-adv-x="767" d="M766 -121 L766 -106 C754 -113 740 -115 703 -115 C636 -115 582 -31 516 2 C652 32 696 124 696 328 C696 591 624 670 383 670 C141 670 69 591 69 328 C69 57 151 -17 411 -10 C489 -56 554 -149 640 -149 C700 -149 729 -143 765 -122 L766 -121 L766 -121 Z M165 362 C165 561 211 620 365 620 C546 620 600 545 600 292 C600 97 555 39 403 39 C220 39 165 113 165 362 L165 362 Z " />
<glyph glyph-name="R" unicode="R" horiz-adv-x="555" d="M544 0 L544 18 L505 49 L343 297 C433 315 463 366 463 478 C463 617 418 659 267 659 L65 659 L65 640 L94 604 L94 54 L65 18 L65 -1 L212 -1 L212 18 L184 54 L184 289 L242 289 L430 -1 L544 0 L544 0 Z M184 344 L184 604 C212 604 244 604 245 603 C337 603 365 572 365 470 C365 373 341 344 262 344 L184 344 L184 344 Z " />
<glyph glyph-name="S" unicode="S" horiz-adv-x="487" d="M325 597 C333 590 339 583 348 570 C359 553 367 542 378 525 L399 525 L396 627 C363 660 331 670 256 670 C124 670 85 628 85 489 C85 392 105 373 217 311 C326 250 346 233 346 163 C346 66 325 37 253 37 C212 37 182 47 136 79 C130 83 127 86 124 93 C110 117 102 131 88 155 L67 155 L70 35 C116 0 158 -11 253 -11 C391 -11 432 34 432 185 C432 289 410 310 288 378 C191 432 174 447 174 520 C174 598 191 621 248 621 C279 621 301 615 326 596 L325 597 L325 597 Z " />
<glyph glyph-name="T" unicode="T" horiz-adv-x="613" d="M33 633 L32 633 C32 602 32 583 33 552 L51 552 L112 605 L262 605 L262 55 L225 19 L225 0 L389 0 L389 19 L352 55 L352 605 L496 605 L557 552 L575 552 C575 573 575 588 575 605 L579 605 L579 660 L33 660 L33 633 L33 633 Z " />
<glyph glyph-name="U" unicode="U" horiz-adv-x="669" d="M94 605 L94 234 C94 46 149 -10 335 -10 C520 -10 575 46 575 234 L575 605 L604 641 L604 660 L468 660 L468 641 L505 605 L505 213 C505 86 472 48 362 48 C225 48 184 94 184 250 L184 605 L213 641 L213 660 L65 660 L65 641 L94 605 L94 605 Z " />
<glyph glyph-name="V" unicode="V" horiz-adv-x="641" d="M184 660 L37 660 L37 642 L69 610 C143 405 216 199 291 -5 L335 -5 L578 621 L604 646 L604 660 L489 660 L489 641 L505 605 L505 605 L328 133 L163 606 L184 642 L184 660 L184 660 Z " />
<glyph glyph-name="W" unicode="W" horiz-adv-x="869" d="M167 660 L19 660 L19 642 L48 610 C105 405 164 201 219 -5 L256 -5 C315 162 376 328 436 495 C491 328 546 162 600 -5 L636 -5 C698 203 760 412 822 620 L850 646 L850 660 L729 660 L729 641 L751 605 L628 165 C574 332 519 498 466 665 L429 665 C370 500 315 332 258 166 L143 606 L169 642 L167 660 L167 660 Z " />
<glyph glyph-name="X" unicode="X" horiz-adv-x="656" d="M198 660 L46 660 L46 642 L82 610 L275 324 L79 49 L40 18 L40 0 L155 0 L155 19 L145 55 L304 283 L458 55 L455 19 L455 0 L614 0 L614 16 L579 45 L579 45 L368 350 C430 438 491 527 553 615 L588 644 L588 660 L481 660 L481 641 L487 605 L340 391 L192 605 L198 641 L198 660 L198 660 Z " />
<glyph glyph-name="Y" unicode="Y" horiz-adv-x="631" d="M165 660 L28 660 L28 642 L65 610 L65 610 L273 309 L273 55 L240 19 L240 0 L396 0 L396 19 L363 55 L363 312 L560 621 L591 646 L591 660 L476 660 L476 641 L483 605 L332 367 C276 446 219 526 164 605 L165 641 L165 660 L165 660 Z " />
<glyph glyph-name="Z" unicode="Z" horiz-adv-x="606" d="M103 633 L102 633 C102 605 102 587 103 559 L121 559 L182 605 L396 605 C295 412 195 218 92 25 L92 0 L516 0 L516 55 L513 55 C513 71 513 85 512 105 L494 105 L433 55 L198 55 C299 248 401 440 501 634 L501 660 L103 660 L103 633 L103 633 Z " />
<glyph glyph-name="bracketleft" unicode="&#x5b;" horiz-adv-x="247" d="M129 717 L242 717 L242 740 L67 740 L67 -150 L242 -150 L242 -127 L129 -127 L129 717 L129 717 Z " />
<glyph glyph-name="backslash" unicode="&#x5c;" horiz-adv-x="250" d="M200 -120 L250 -120 L50 750 L0 750 L200 -120 L200 -120 Z " />
<glyph glyph-name="bracketright" unicode="&#x5d;" horiz-adv-x="241" d="M114 717 L114 -127 L5 -127 L5 -150 L176 -150 L176 740 L5 740 L5 717 L114 717 L114 717 Z " />
<glyph glyph-name="asciicircum" unicode="&#x5e;" horiz-adv-x="290" d="M285 530 L160 705 L130 705 L10 530 L22 530 L146 621 L273 530 L285 530 L285 530 Z " />
<glyph glyph-name="underscore" unicode="&#x5f;" horiz-adv-x="460" d="M25 -90 L25 -140 L435 -140 L435 -90 L25 -90 L25 -90 Z " />
<glyph glyph-name="grave" unicode="&#x60;" horiz-adv-x="290" d="M151 530 L81 707 L1 707 C1 707 8 670 30 646 L139 530 L151 530 L151 530 Z " />
<glyph glyph-name="a" unicode="a" horiz-adv-x="449" d="M142 337 C142 393 155 414 189 414 C251 414 262 394 262 329 L262 256 C82 203 48 167 48 88 C48 12 69 -11 141 -11 C202 -11 232 -2 264 44 C270 3 294 -10 351 -10 C401 -10 422 2 442 44 L439 50 C439 51 430 51 399 51 C355 51 342 55 342 67 L342 350 C342 435 323 460 215 460 C101 460 59 426 59 332 C59 309 64 303 80 304 L137 304 L142 309 L142 337 L142 337 Z M262 220 L262 74 C262 73 262 72 262 72 C245 56 223 52 182 52 C139 52 126 65 126 108 C126 160 148 184 263 219 L262 220 L262 220 Z " />
<glyph glyph-name="b" unicode="b" horiz-adv-x="483" d="M62 -10 L68 -10 C68 -10 83 -1 99 12 C122 -4 157 -9 228 -9 C386 -9 433 51 433 253 C433 413 397 461 276 461 C211 461 175 449 142 410 L142 751 L126 751 L38 714 L38 708 L42 698 C57 652 62 639 62 638 L62 -10 L62 -10 Z M142 81 L142 354 C161 385 179 394 219 394 C322 394 353 357 353 232 C353 83 330 39 254 39 C196 39 170 49 142 81 L142 81 Z " />
<glyph glyph-name="c" unicode="c" horiz-adv-x="437" d="M389 105 C343 73 318 64 282 64 C164 64 129 107 129 250 C129 376 152 414 229 414 C267 414 285 403 307 368 L333 326 L340 326 L382 355 C398 369 394 393 382 411 C359 449 330 460 257 460 C98 460 50 401 50 205 C50 39 93 -10 239 -10 C318 -10 356 14 393 95 L393 105 L389 105 L389 105 Z " />
<glyph glyph-name="d" unicode="d" horiz-adv-x="489" d="M442 0 L442 18 L416 50 L416 754 L400 754 L312 726 L312 721 L316 711 C331 670 336 658 336 658 L336 454 C315 459 292 461 262 461 C97 461 48 400 48 195 C48 38 83 -9 201 -9 C269 -9 302 5 335 52 C337 30 345 2 345 2 L442 0 L442 0 Z M335 366 L335 88 C317 66 297 59 257 59 C156 59 126 96 126 221 C126 370 154 414 248 414 C248 414 269 403 335 366 L335 366 Z " />
<glyph glyph-name="e" unicode="e" horiz-adv-x="443" d="M130 288 C135 385 160 415 227 415 C292 415 317 384 322 288 L130 288 L130 288 Z M395 95 L395 105 L391 105 C345 73 320 64 284 64 C168 64 132 105 131 242 L359 242 L395 247 C395 411 360 460 241 460 C95 460 52 401 52 205 C52 39 95 -10 241 -10 C320 -10 358 14 395 95 L395 95 Z " />
<glyph glyph-name="f" unicode="f" horiz-adv-x="321" d="M204 0 L204 18 L180 50 C180 127 180 280 180 403 L286 403 L286 450 L180 450 C180 529 180 587 180 587 C180 636 195 667 247 667 C267 667 277 665 294 657 C312 649 321 646 321 646 L328 646 L348 694 C357 715 354 727 324 740 C324 740 306 750 294 750 C174 750 99 650 99 490 L99 450 L39 450 L39 403 L99 403 L99 50 L75 18 L75 0 L204 0 L204 0 Z " />
<glyph glyph-name="g" unicode="g" horiz-adv-x="506" d="M327 449 L327 449 C304 457 275 460 238 460 C104 460 80 423 80 300 C80 224 93 181 130 158 C84 141 70 118 70 72 C70 22 83 -1 123 -9 C76 -25 61 -73 61 -126 C61 -215 97 -242 218 -242 C384 -242 433 -202 433 -68 C433 29 424 58 313 58 L191 58 C153 58 141 69 141 104 C141 132 145 141 158 145 C179 139 205 136 237 136 C372 136 396 174 396 300 C396 346 391 380 378 404 L456 394 L456 448 L327 449 L327 449 Z M161 301 C161 392 172 419 231 419 C296 419 315 391 315 297 C315 204 305 176 250 176 C181 176 161 205 161 301 L161 301 Z M165 -12 L273 -12 C353 -12 360 -30 360 -89 C360 -185 330 -214 228 -214 C154 -214 132 -191 132 -115 C132 -45 140 -12 165 -12 L165 -12 Z " />
<glyph glyph-name="h" unicode="h" horiz-adv-x="467" d="M428 0 L428 18 L404 50 L404 343 C404 433 377 460 285 460 C216 460 197 442 154 384 L154 750 L138 750 L50 713 L50 707 L54 697 C69 651 74 638 74 637 L74 50 L50 18 L50 0 L178 0 L178 18 L154 50 L154 354 C175 381 189 390 242 390 C306 390 325 369 325 297 L325 50 L301 18 L301 0 L428 0 L428 0 Z " />
<glyph glyph-name="i" unicode="i" horiz-adv-x="234" d="M114 610 C160 610 174 624 174 670 C174 716 160 730 114 730 C68 730 54 716 54 670 C54 624 68 610 114 610 L114 610 Z M184 0 L184 18 L158 50 L158 460 L142 460 L54 423 L54 417 L58 407 C73 361 78 348 78 347 L78 50 L54 18 L54 0 L184 0 L184 0 Z " />
<glyph glyph-name="j" unicode="j" horiz-adv-x="234" d="M118 610 C164 610 178 624 178 670 C178 716 164 730 118 730 C72 730 58 716 58 670 C58 624 72 610 118 610 L118 610 Z M15 -216 L15 -234 C189 -125 158 -111 158 0 L158 460 L142 460 L54 423 L54 417 L58 407 C73 361 78 348 78 347 L78 -12 C78 -139 106 -159 15 -216 L15 -216 Z " />
<glyph glyph-name="k" unicode="k" horiz-adv-x="454" d="M418 18 L381 49 L212 274 L358 401 L403 432 C403 432 403 433 406 438 L414 450 L309 450 L309 429 L280 390 C253 354 256 354 293 390 L154 255 L154 760 L138 760 L50 723 L50 717 L54 707 C69 661 74 648 74 647 L74 50 L50 18 L50 0 L180 0 L180 18 L154 50 L154 240 L314 0 L418 0 L418 18 L418 18 Z " />
<glyph glyph-name="l" unicode="l" horiz-adv-x="215" d="M172 0 L172 18 L148 50 L148 760 L132 760 L44 723 L44 717 L48 707 C63 661 68 648 68 647 L68 50 L44 18 L44 0 L172 0 L172 0 Z " />
<glyph glyph-name="m" unicode="m" horiz-adv-x="700" d="M661 0 L661 18 L637 50 L637 343 C637 433 611 460 522 460 C454 460 434 441 388 377 C381 440 351 460 275 460 C211 460 192 442 148 383 L147 383 C146 416 145 460 145 460 L129 460 L45 423 L45 417 L49 407 C64 361 69 348 69 347 L69 50 L45 18 L45 0 L173 0 L173 18 L149 50 L149 354 C170 381 183 390 231 390 C291 390 309 369 309 297 L309 50 L283 18 L283 0 L415 0 L415 18 L389 50 L389 343 C389 345 389 347 389 349 C413 380 427 390 478 390 C539 390 557 369 557 297 L557 50 L531 18 L531 0 L661 0 L661 0 Z " />
<glyph glyph-name="n" unicode="n" horiz-adv-x="467" d="M428 0 L428 18 L404 50 L404 343 C404 433 377 460 285 460 C216 460 197 442 153 383 L152 383 C151 416 150 460 150 460 L134 460 L50 423 L50 417 L54 407 C69 361 74 348 74 347 L74 50 L50 18 L50 0 L180 0 L180 18 L154 50 L154 354 C175 381 189 390 242 390 C306 390 325 369 325 297 L325 50 L299 18 L299 0 L428 0 L428 0 Z " />
<glyph glyph-name="o" unicode="o" horiz-adv-x="498" d="M142 225 C142 374 156 418 235 418 C328 418 356 374 356 225 C356 76 342 32 263 32 C170 32 142 76 142 225 L142 225 Z M50 225 C50 44 96 -10 249 -10 C418 -10 448 44 448 225 C448 406 402 460 249 460 C80 460 50 406 50 225 L50 225 Z " />
<glyph glyph-name="p" unicode="p" horiz-adv-x="491" d="M151 395 C150 426 149 460 149 460 L133 460 L49 423 L49 417 L53 407 C68 361 73 348 73 347 L73 -180 L49 -212 L49 -230 L179 -230 L179 -212 L153 -180 L153 -6 C171 -9 195 -10 230 -10 C392 -10 440 50 440 250 C440 412 406 460 292 460 C229 460 195 445 151 395 L151 395 Z M154 80 L154 365 C175 386 196 393 236 393 C335 393 364 352 364 214 C364 78 339 38 257 38 C216 38 193 48 154 80 L154 80 Z " />
<glyph glyph-name="q" unicode="q" horiz-adv-x="481" d="M442 -230 L442 -212 L418 -180 L418 460 L412 460 L377 444 C353 456 322 460 264 460 C99 460 50 399 50 194 C50 37 85 -10 203 -10 C244 -10 276 5 338 56 L338 -181 L312 -213 L312 -231 L442 -230 L442 -230 Z M338 368 L338 91 C305 65 285 57 259 57 C158 57 128 94 128 219 C128 368 156 412 250 412 C275 412 297 402 338 369 L338 368 L338 368 Z " />
<glyph glyph-name="r" unicode="r" horiz-adv-x="310" d="M236 460 C207 460 192 439 154 371 L154 377 L152 377 C151 410 150 461 150 461 L134 461 L50 424 L50 418 L54 408 C69 362 74 349 74 348 L74 51 L50 19 L50 1 L180 1 L180 19 L154 51 L154 337 C173 371 180 382 187 382 C206 382 218 379 240 370 C254 363 278 354 278 354 L285 354 C304 394 310 409 310 420 C310 431 304 438 283 450 C267 460 251 462 236 462 L236 460 L236 460 Z " />
<glyph glyph-name="s" unicode="s" horiz-adv-x="387" d="M282 362 C287 362 292 361 298 361 L299 400 L299 400 L300 425 C253 452 227 460 186 460 C100 460 74 431 74 332 C74 245 87 232 159 202 C233 171 246 160 246 96 C246 42 231 26 182 26 C181 26 173 26 173 27 C141 31 122 43 88 80 L75 93 C71 93 67 94 62 94 L61 70 L61 70 L60 20 C110 -3 139 -10 189 -10 C288 -10 317 20 317 122 C317 216 303 229 223 263 C158 291 146 301 146 362 C146 407 157 421 192 421 C204 421 217 417 238 407 C250 399 269 379 282 362 L282 362 Z " />
<glyph glyph-name="t" unicode="t" horiz-adv-x="314" d="M284 53 L281 63 C279 60 267 59 225 59 C180 59 166 70 166 107 L166 403 L272 403 L272 450 L166 450 L166 560 L160 560 L86 450 L18 409 L18 403 L86 403 L86 90 C86 13 108 -10 181 -10 C237 -10 260 4 284 53 L284 53 Z " />
<glyph glyph-name="u" unicode="u" horiz-adv-x="429" d="M300 400 L300 100 C267 69 248 63 212 63 C149 63 130 84 130 155 L130 450 L26 450 L26 432 L50 400 L50 107 C50 17 77 -10 166 -10 C207 -10 233 2 300 68 L300 0 L406 0 L406 18 L380 50 L380 450 L274 450 L274 432 L300 400 L300 400 Z " />
<glyph glyph-name="v" unicode="v" horiz-adv-x="458" d="M314 431 L331 395 L232 122 C194 215 155 309 118 401 L137 433 L137 451 L-2 451 L-2 433 L31 401 L31 401 C86 268 141 135 195 1 L218 1 C272 133 325 265 379 396 L415 432 L415 451 L314 451 L314 431 L314 431 Z " />
<glyph glyph-name="w" unicode="w" horiz-adv-x="716" d="M586 431 L603 395 L502 123 C456 232 410 341 363 450 L343 450 L339 438 L210 121 L120 400 L144 432 L144 450 L6 450 L6 432 L36 400 L36 400 C80 267 123 133 167 0 L193 0 L330 320 C374 213 420 107 463 0 L485 0 L649 395 L686 431 L686 450 L585 450 L586 431 L586 431 Z " />
<glyph glyph-name="x" unicode="x" horiz-adv-x="438" d="M159 450 L36 450 L36 432 L67 401 L178 225 C141 167 105 108 67 50 L34 18 L34 0 L123 0 L123 18 L112 50 L196 197 C227 148 259 98 289 50 L286 18 L286 0 L410 0 L410 18 L378 50 L378 50 L245 256 L346 401 L379 432 C379 436 380 450 380 450 L297 450 L297 432 L301 400 L301 400 L228 281 L151 400 L159 432 L159 450 L159 450 Z " />
<glyph glyph-name="y" unicode="y" horiz-adv-x="417" d="M327 431 L344 395 L173 -67 C144 -149 138 -156 93 -156 L48 -156 L44 -160 L44 -211 C44 -238 47 -240 78 -240 C149 -240 159 -228 211 -80 C270 78 328 237 387 395 L422 431 L422 450 L327 450 L327 431 L327 431 Z M145 450 L5 450 L5 432 L39 400 L201 10 L242 120 C203 213 164 307 126 400 L145 432 L145 450 L145 450 Z " />
<glyph glyph-name="z" unicode="z" horiz-adv-x="424" d="M70 454 C70 444 69 437 68 428 C67 428 63 374 62 368 L79 368 L115 405 L235 405 C176 276 116 148 58 18 L58 0 L347 0 L347 84 L330 84 L297 45 L157 45 C218 178 278 311 339 444 L339 450 L118 450 L78 454 L70 454 L70 454 Z " />
<glyph glyph-name="braceleft" unicode="&#x7b;" horiz-adv-x="230" d="M108 297 C152 315 167 355 167 431 C167 512 122 560 122 641 C122 726 140 730 199 728 L225 727 L225 750 L206 750 C89 750 54 753 54 609 C54 533 107 487 107 411 C107 331 89 309 25 309 L5 309 L5 285 L25 285 C89 285 107 263 107 182 C107 106 54 61 54 -15 C54 -166 89 -156 206 -156 L225 -156 L225 -133 L198 -135 C139 -139 122 -136 122 -47 C122 33 167 81 167 161 C167 238 152 279 108 297 L108 297 Z " />
<glyph glyph-name="bar" unicode="&#x7c;" horiz-adv-x="225" d="M75 -260 L125 -260 L125 760 L75 760 L75 -260 L75 -260 Z " />
<glyph glyph-name="braceright" unicode="&#x7d;" horiz-adv-x="240" d="M235 285 L235 309 L215 309 C151 309 133 331 133 411 C133 487 186 533 186 609 C186 753 151 750 34 750 L15 750 L15 727 L41 728 C100 730 118 726 118 641 C118 560 73 512 73 431 C73 355 88 315 132 297 C88 279 73 238 73 161 C73 81 118 33 118 -47 C118 -136 101 -139 42 -135 L15 -133 L15 -156 L34 -156 C151 -156 186 -166 186 -15 C186 61 133 106 133 182 C133 263 151 285 215 285 L235 285 L235 285 Z " />
<glyph glyph-name="asciitilde" unicode="&#x7e;" horiz-adv-x="290" d="M23 225 C39 275 40 290 71 290 C119 290 147 225 195 225 C246 225 249 254 280 350 L267 350 C250 298 249 283 219 283 C171 283 143 348 95 348 C43 348 41 320 10 225 L23 225 L23 225 Z " />
<glyph glyph-name="exclamdown" unicode="&#xa1;" horiz-adv-x="245" d="M125 460 C79 460 65 446 65 400 C65 354 79 340 125 340 C171 340 185 354 185 400 C185 446 171 460 125 460 L125 460 Z M70 -210 L180 -210 L135 260 L115 260 L70 -210 L70 -210 Z " />
<glyph glyph-name="cent" unicode="&#xa2;" horiz-adv-x="437" d="M393 95 L393 105 L389 105 C330 64 304 57 237 66 L237 413 C270 411 287 399 307 367 L333 325 L340 325 L382 354 C398 368 394 392 382 410 C357 451 317 461 237 458 L237 518 L196 518 L196 454 C85 438 50 371 50 203 C50 55 84 0 196 -10 L196 -82 L237 -82 L237 -12 C318 -12 356 12 393 93 L393 95 L393 95 Z M196 76 C146 98 129 149 129 248 C129 354 145 398 196 409 L196 76 L196 76 Z " />
<glyph glyph-name="guillemotleft" unicode="&#xab;" horiz-adv-x="378" d="M348 425 L178 248 L348 70 L358 70 L267 248 L358 425 L348 425 L348 425 Z M188 425 L18 248 L188 70 L198 70 L107 248 L198 425 L188 425 L188 425 Z " />
<glyph glyph-name="acute" unicode="&#xb4;" horiz-adv-x="290" d="M145 530 L157 530 L266 646 C288 670 295 707 295 707 L215 707 L145 530 L145 530 Z " />
<glyph glyph-name="periodcentered" unicode="&#xb7;" horiz-adv-x="250" d="M125 210 C171 210 185 224 185 270 C185 316 171 330 125 330 C79 330 65 316 65 270 C65 224 79 210 125 210 L125 210 Z " />
<glyph glyph-name="guillemotright" unicode="&#xbb;" horiz-adv-x="366" d="M169 425 L257 248 L169 70 L179 70 L346 248 L179 425 L169 425 L169 425 Z M20 425 L108 248 L20 70 L30 70 L197 248 L30 425 L20 425 L20 425 Z " />
<glyph glyph-name="questiondown" unicode="&#xbf;" horiz-adv-x="438" d="M240 455 C194 455 180 441 180 395 C180 349 194 335 240 335 C286 335 300 349 300 395 C300 441 286 455 240 455 L240 455 Z M310 -67 C310 -67 364 -58 398 -58 C398 -27 389 -18 360 -18 L318 -18 C318 -18 313 -28 310 -28 L310 -67 L310 -67 Z M310 -67 C310 -151 295 -176 244 -176 C169 -176 147 -146 147 -45 C147 41 177 76 276 105 C276 165 250 260 250 260 L230 260 C230 260 223 220 218 175 C93 132 55 77 55 -46 C55 -181 91 -221 213 -221 C355 -221 398 -184 398 -59 L310 -67 L310 -67 Z " />
<glyph glyph-name="Agrave" unicode="&#xc0;" horiz-adv-x="651" d="M325 705 L255 864 L175 864 C175 864 182 831 204 809 L313 705 L325 705 L325 705 Z M152 18 L133 50 L132 50 C145 86 165 144 195 227 L195 219 L424 219 L424 220 C445 163 467 106 487 50 L466 18 L466 0 L600 0 L600 0 L613 0 L613 16 L583 45 L581 45 C524 191 356 639 356 639 L346 665 L299 665 L278 610 C157 292 93 125 65 50 L29 18 L29 0 L151 0 L152 18 L152 18 Z M403 274 L211 274 C237 344 269 429 308 531 L403 274 L403 274 Z " />
<glyph glyph-name="Aacute" unicode="&#xc1;" horiz-adv-x="651" d="M319 705 L331 705 L440 809 C462 831 469 864 469 864 L389 864 L319 705 L319 705 Z M152 18 L133 50 L132 50 C145 86 165 144 195 227 L195 219 L424 219 L424 220 C445 163 467 106 487 50 L466 18 L466 0 L600 0 L600 0 L613 0 L613 16 L583 45 L581 45 C524 191 356 639 356 639 L346 665 L299 665 L278 610 C157 292 93 125 65 50 L29 18 L29 0 L151 0 L152 18 L152 18 Z M403 274 L211 274 C237 344 269 429 308 531 L403 274 L403 274 Z " />
<glyph glyph-name="Acircumflex" unicode="&#xc2;" horiz-adv-x="651" d="M464 705 L463 706 L464 706 L464 705 L464 705 Z M152 18 L133 50 L132 50 C145 86 165 144 195 227 L195 219 L424 219 L424 220 C445 163 467 106 487 50 L466 18 L466 0 L600 0 L600 0 L613 0 L613 16 L583 45 L581 45 C524 191 356 639 356 639 L346 665 L299 665 L278 610 C157 292 93 125 65 50 L29 18 L29 0 L151 0 L152 18 L152 18 Z M338 863 L308 863 L188 706 L200 706 L323 787 L451 706 L462 706 L338 863 L338 863 Z M403 274 L211 274 C237 344 269 429 308 531 L403 274 L403 274 Z " />
<glyph glyph-name="Atilde" unicode="&#xc3;" horiz-adv-x="651" d="M206 728 C222 773 223 787 254 787 C302 787 331 729 379 729 C430 729 433 755 464 841 L451 841 C434 794 433 781 403 781 C355 781 326 840 278 840 C226 840 224 815 193 730 L206 730 L206 728 L206 728 Z M152 18 L133 50 L132 50 C145 86 165 144 195 227 L195 219 L424 219 L424 220 C445 163 467 106 487 50 L466 18 L466 0 L600 0 L600 0 L613 0 L613 16 L583 45 L581 45 C524 191 356 639 356 639 L346 665 L299 665 L278 610 C157 292 93 125 65 50 L29 18 L29 0 L151 0 L152 18 L152 18 Z M403 274 L211 274 C237 344 269 429 308 531 L403 274 L403 274 Z " />
<glyph glyph-name="Adieresis" unicode="&#xc4;" horiz-adv-x="651" d="M414 735 C453 735 464 747 464 785 C464 824 453 835 414 835 C376 835 364 824 364 785 C364 747 376 735 414 735 L414 735 Z M234 735 C273 735 284 747 284 785 C284 824 273 835 234 835 C196 835 184 824 184 785 C184 747 196 735 234 735 L234 735 Z M152 18 L133 50 L132 50 C145 86 165 144 195 227 L195 219 L424 219 L424 220 C445 163 467 106 487 50 L466 18 L466 0 L600 0 L600 0 L613 0 L613 16 L583 45 L581 45 C524 191 356 639 356 639 L346 665 L299 665 L278 610 C157 292 93 125 65 50 L29 18 L29 0 L151 0 L152 18 L152 18 Z M403 274 L211 274 C237 344 269 429 308 531 L403 274 L403 274 Z " />
<glyph glyph-name="Aring" unicode="&#xc5;" horiz-adv-x="651" d="M288 800 C288 840 296 852 321 852 C351 852 360 837 360 786 C360 750 350 734 328 734 C300 734 288 754 288 800 L288 800 Z M238 793 C238 735 264 710 324 710 C383 710 409 736 409 795 C409 857 389 876 324 876 C258 876 238 857 238 793 L238 793 Z M152 18 L133 50 L132 50 C145 86 165 144 195 227 L195 219 L424 219 L424 220 C445 163 467 106 487 50 L466 18 L466 0 L600 0 L600 0 L613 0 L613 16 L583 45 L581 45 C524 191 356 639 356 639 L346 665 L299 665 L278 610 C157 292 93 125 65 50 L29 18 L29 0 L151 0 L152 18 L152 18 Z M403 274 L211 274 C237 344 269 429 308 531 L403 274 L403 274 Z " />
<glyph glyph-name="Ccedilla" unicode="&#xc7;" horiz-adv-x="677" d="M574 134 L525 85 C521 81 518 78 515 76 C469 48 433 39 377 39 C212 39 163 108 163 340 C163 555 215 619 389 619 C436 619 466 611 501 587 C524 564 540 546 562 523 L579 523 L578 623 C536 658 492 669 389 669 C143 669 70 586 70 309 C70 67 139 -8 367 -10 C363 -20 350 -53 322 -129 L352 -140 C377 -146 385 -155 385 -178 C385 -204 379 -212 361 -212 C328 -212 315 -208 302 -196 L302 -207 C328 -232 345 -240 375 -240 C429 -240 445 -222 445 -162 C445 -114 428 -92 375 -77 C390 -36 398 -16 401 -9 C492 -7 537 5 587 40 L590 135 L574 134 L574 134 Z " />
<glyph glyph-name="Egrave" unicode="&#xc8;" horiz-adv-x="559" d="M270 705 L200 864 L120 864 C120 864 127 831 149 809 L258 705 L270 705 L270 705 Z M487 55 C487 70 487 84 486 102 L469 102 L412 56 L184 56 L184 314 L314 314 L356 285 L379 285 L379 398 L356 398 L314 369 L184 369 L184 606 L387 606 L444 564 L461 564 C462 580 462 592 462 605 L464 605 L464 660 L65 660 L65 641 L94 605 L94 55 L65 19 L65 0 L489 0 L489 55 L487 55 L487 55 Z " />
<glyph glyph-name="Eacute" unicode="&#xc9;" horiz-adv-x="559" d="M264 705 L276 705 L385 809 C407 831 414 864 414 864 L334 864 L264 705 L264 705 Z M487 55 C487 70 487 84 486 102 L469 102 L412 56 L184 56 L184 314 L314 314 L356 285 L379 285 L379 398 L356 398 L314 369 L184 369 L184 606 L387 606 L444 564 L461 564 C462 580 462 592 462 605 L464 605 L464 660 L65 660 L65 641 L94 605 L94 55 L65 19 L65 0 L489 0 L489 55 L487 55 L487 55 Z " />
<glyph glyph-name="Ecircumflex" unicode="&#xca;" horiz-adv-x="559" d="M404 705 L403 706 L404 706 L404 705 L404 705 Z M279 863 L249 863 L129 706 L141 706 L265 788 L392 706 L403 706 L279 863 L279 863 Z M487 55 C487 70 487 84 486 102 L469 102 L412 56 L184 56 L184 314 L314 314 L356 285 L379 285 L379 398 L356 398 L314 369 L184 369 L184 606 L387 606 L444 564 L461 564 C462 580 462 592 462 605 L464 605 L464 660 L65 660 L65 641 L94 605 L94 55 L65 19 L65 0 L489 0 L489 55 L487 55 L487 55 Z " />
<glyph glyph-name="Edieresis" unicode="&#xcb;" horiz-adv-x="559" d="M354 735 C393 735 404 747 404 785 C404 824 393 835 354 835 C316 835 304 824 304 785 C304 747 316 735 354 735 L354 735 Z M174 735 C213 735 224 747 224 785 C224 824 213 835 174 835 C136 835 124 824 124 785 C124 747 136 735 174 735 L174 735 Z M487 55 C487 70 487 84 486 102 L469 102 L412 56 L184 56 L184 314 L314 314 L356 285 L379 285 L379 398 L356 398 L314 369 L184 369 L184 606 L387 606 L444 564 L461 564 C462 580 462 592 462 605 L464 605 L464 660 L65 660 L65 641 L94 605 L94 55 L65 19 L65 0 L489 0 L489 55 L487 55 L487 55 Z " />
<glyph glyph-name="Igrave" unicode="&#xcc;" horiz-adv-x="288" d="M150 705 L80 864 L0 864 C0 864 7 831 29 809 L138 705 L150 705 L150 705 Z M218 0 L218 19 L189 55 L189 605 L218 641 L218 660 L70 660 L70 641 L99 605 L99 55 L70 19 L70 0 L218 0 L218 0 Z " />
<glyph glyph-name="Iacute" unicode="&#xcd;" horiz-adv-x="288" d="M144 705 L156 705 L265 809 C287 831 294 864 294 864 L214 864 L144 705 L144 705 Z M218 0 L218 19 L189 55 L189 605 L218 641 L218 660 L70 660 L70 641 L99 605 L99 55 L70 19 L70 0 L218 0 L218 0 Z " />
<glyph glyph-name="Icircumflex" unicode="&#xce;" horiz-adv-x="288" d="M284 705 L283 706 L284 706 L284 705 L284 705 Z M159 863 L129 863 L9 706 L21 706 L145 788 L272 706 L283 706 L159 863 L159 863 Z M218 0 L218 19 L189 55 L189 605 L218 641 L218 660 L70 660 L70 641 L99 605 L99 55 L70 19 L70 0 L218 0 L218 0 Z " />
<glyph glyph-name="Idieresis" unicode="&#xcf;" horiz-adv-x="288" d="M234 735 C273 735 284 747 284 785 C284 824 273 835 234 835 C196 835 184 824 184 785 C184 747 196 735 234 735 L234 735 Z M54 735 C93 735 104 747 104 785 C104 824 93 835 54 835 C16 835 4 824 4 785 C4 747 16 735 54 735 L54 735 Z M218 0 L218 19 L189 55 L189 605 L218 641 L218 660 L70 660 L70 641 L99 605 L99 55 L70 19 L70 0 L218 0 L218 0 Z " />
<glyph glyph-name="Ntilde" unicode="&#xd1;" horiz-adv-x="664" d="M226 728 C242 773 243 787 274 787 C322 787 351 729 399 729 C450 729 453 755 484 841 L471 841 C454 794 453 781 423 781 C375 781 346 840 298 840 C246 840 244 815 213 730 L226 730 L226 728 L226 728 Z M64 641 L92 605 L92 55 L63 19 L63 0 L199 0 L199 19 L162 55 L162 505 C287 335 412 165 537 -5 L575 -5 L575 605 L603 641 L603 660 L468 660 L468 641 L505 605 L505 191 L162 660 L64 660 L64 641 L64 641 Z " />
<glyph glyph-name="Ograve" unicode="&#xd2;" horiz-adv-x="767" d="M375 705 L305 864 L225 864 C225 864 232 831 254 809 L363 705 L375 705 L375 705 Z M166 363 C166 562 212 621 366 621 C547 621 601 546 601 293 C601 98 556 40 404 40 C221 40 166 114 166 363 L166 363 Z M70 328 C70 68 142 -10 384 -10 C625 -10 697 68 697 328 C697 591 625 670 384 670 C142 670 70 591 70 328 L70 328 Z " />
<glyph glyph-name="Oacute" unicode="&#xd3;" horiz-adv-x="767" d="M369 705 L381 705 L490 809 C512 831 519 864 519 864 L439 864 L369 705 L369 705 Z M166 363 C166 562 212 621 366 621 C547 621 601 546 601 293 C601 98 556 40 404 40 C221 40 166 114 166 363 L166 363 Z M70 328 C70 68 142 -10 384 -10 C625 -10 697 68 697 328 C697 591 625 670 384 670 C142 670 70 591 70 328 L70 328 Z " />
<glyph glyph-name="Ocircumflex" unicode="&#xd4;" horiz-adv-x="767" d="M509 705 L508 706 L509 706 L509 705 L509 705 Z M166 363 C166 562 212 621 366 621 C547 621 601 546 601 293 C601 98 556 40 404 40 C221 40 166 114 166 363 L166 363 Z M70 328 C70 68 142 -10 384 -10 C625 -10 697 68 697 328 C697 591 625 670 384 670 C142 670 70 591 70 328 L70 328 Z M384 863 L354 863 L234 706 L246 706 L369 787 L497 706 L508 706 L384 863 L384 863 Z " />
<glyph glyph-name="Otilde" unicode="&#xd5;" horiz-adv-x="767" d="M246 728 C262 773 263 787 294 787 C342 787 371 729 419 729 C470 729 473 755 504 841 L491 841 C474 794 473 781 443 781 C395 781 366 840 318 840 C266 840 264 815 233 730 L246 730 L246 728 L246 728 Z M166 363 C166 562 212 621 366 621 C547 621 601 546 601 293 C601 98 556 40 404 40 C221 40 166 114 166 363 L166 363 Z M70 328 C70 68 142 -10 384 -10 C625 -10 697 68 697 328 C697 591 625 670 384 670 C142 670 70 591 70 328 L70 328 Z " />
<glyph glyph-name="Odieresis" unicode="&#xd6;" horiz-adv-x="767" d="M459 735 C498 735 509 746 509 785 C509 824 498 835 459 835 C421 835 409 824 409 785 C409 747 421 735 459 735 L459 735 Z M279 735 C318 735 329 747 329 785 C329 824 318 835 279 835 C241 835 229 824 229 785 C229 747 241 735 279 735 L279 735 Z M166 363 C166 562 212 621 366 621 C547 621 601 546 601 293 C601 98 556 40 404 40 C221 40 166 114 166 363 L166 363 Z M70 328 C70 68 142 -10 384 -10 C625 -10 697 68 697 328 C697 591 625 670 384 670 C142 670 70 591 70 328 L70 328 Z " />
<glyph glyph-name="Oslash" unicode="&#xd8;" horiz-adv-x="767" d="M70 328 C70 202 87 119 132 67 L70 -9 L139 -9 L173 32 C221 2 289 -10 383 -10 C624 -10 696 68 696 328 C696 456 679 541 633 594 L696 670 L627 670 L593 628 C545 658 477 670 384 670 C142 670 70 591 70 328 L70 328 Z M541 564 L196 143 C174 193 165 264 165 362 C165 561 211 620 365 620 C448 620 504 604 541 563 L541 564 L541 564 Z M571 515 C593 464 601 392 601 292 C601 97 556 39 404 39 C320 39 263 55 226 96 L571 515 L571 515 Z " />
<glyph glyph-name="Ugrave" unicode="&#xd9;" horiz-adv-x="669" d="M351 705 L281 864 L201 864 C201 864 208 831 230 809 L339 705 L351 705 L351 705 Z M94 605 L94 234 C94 46 149 -10 335 -10 C520 -10 575 46 575 234 L575 605 L604 641 L604 660 L468 660 L468 641 L505 605 L505 213 C505 86 472 48 362 48 C225 48 184 94 184 250 L184 605 L213 641 L213 660 L65 660 L65 641 L94 605 L94 605 Z " />
<glyph glyph-name="Uacute" unicode="&#xda;" horiz-adv-x="669" d="M335 705 L347 705 L456 809 C478 831 485 864 485 864 L405 864 L335 705 L335 705 Z M94 605 L94 234 C94 46 149 -10 335 -10 C520 -10 575 46 575 234 L575 605 L604 641 L604 660 L468 660 L468 641 L505 605 L505 213 C505 86 472 48 362 48 C225 48 184 94 184 250 L184 605 L213 641 L213 660 L65 660 L65 641 L94 605 L94 605 Z " />
<glyph glyph-name="Ucircumflex" unicode="&#xdb;" horiz-adv-x="669" d="M485 705 L484 706 L485 706 L485 705 L485 705 Z M360 863 L330 863 L210 706 L222 706 L345 787 L473 706 L484 706 L360 863 L360 863 Z M94 605 L94 234 C94 46 149 -10 335 -10 C520 -10 575 46 575 234 L575 605 L604 641 L604 660 L468 660 L468 641 L505 605 L505 213 C505 86 472 48 362 48 C225 48 184 94 184 250 L184 605 L213 641 L213 660 L65 660 L65 641 L94 605 L94 605 Z " />
<glyph glyph-name="Udieresis" unicode="&#xdc;" horiz-adv-x="669" d="M435 735 C474 735 485 746 485 785 C485 824 474 835 435 835 C397 835 385 824 385 785 C385 747 397 735 435 735 L435 735 Z M255 735 C294 735 305 747 305 785 C305 824 294 835 255 835 C217 835 205 824 205 785 C205 747 217 735 255 735 L255 735 Z M94 605 L94 234 C94 46 149 -10 335 -10 C520 -10 575 46 575 234 L575 605 L604 641 L604 660 L468 660 L468 641 L505 605 L505 213 C505 86 472 48 362 48 C225 48 184 94 184 250 L184 605 L213 641 L213 660 L65 660 L65 641 L94 605 L94 605 Z " />
<glyph glyph-name="Yacute" unicode="&#xdd;" horiz-adv-x="643" d="M320 705 L332 705 L441 809 C463 831 470 864 470 864 L390 864 L320 705 L320 705 Z M177 660 L40 660 L40 642 L77 610 L77 610 L285 309 L285 55 L252 19 L252 0 L408 0 L408 19 L375 55 L375 312 L572 621 L603 646 L603 660 L488 660 L488 641 L495 605 L344 367 C288 446 231 526 176 605 L177 641 L177 660 L177 660 Z " />
<glyph glyph-name="agrave" unicode="&#xe0;" horiz-adv-x="449" d="M221 530 L151 707 L71 707 C71 707 78 670 100 646 L209 530 L221 530 L221 530 Z M142 337 C142 393 155 414 189 414 C251 414 262 394 262 329 L262 256 C82 203 48 167 48 88 C48 12 69 -11 141 -11 C202 -11 232 -2 264 44 C270 3 294 -10 351 -10 C401 -10 422 2 442 44 L439 50 C439 51 430 51 399 51 C355 51 342 55 342 67 L342 350 C342 435 323 460 215 460 C101 460 59 426 59 332 C59 309 64 303 80 304 L137 304 L142 309 L142 337 L142 337 Z M262 220 L262 74 C262 73 262 72 262 72 C245 56 223 52 182 52 C139 52 126 65 126 108 C126 160 148 184 263 219 L262 220 L262 220 Z " />
<glyph glyph-name="aacute" unicode="&#xe1;" horiz-adv-x="449" d="M215 530 L227 530 L336 646 C358 670 365 707 365 707 L285 707 L215 530 L215 530 Z M142 337 C142 393 155 414 189 414 C251 414 262 394 262 329 L262 256 C82 203 48 167 48 88 C48 12 69 -11 141 -11 C202 -11 232 -2 264 44 C270 3 294 -10 351 -10 C401 -10 422 2 442 44 L439 50 C439 51 430 51 399 51 C355 51 342 55 342 67 L342 350 C342 435 323 460 215 460 C101 460 59 426 59 332 C59 309 64 303 80 304 L137 304 L142 309 L142 337 L142 337 Z M262 220 L262 74 C262 73 262 72 262 72 C245 56 223 52 182 52 C139 52 126 65 126 108 C126 160 148 184 263 219 L262 220 L262 220 Z " />
<glyph glyph-name="acircumflex" unicode="&#xe2;" horiz-adv-x="449" d="M355 530 L230 705 L200 705 L80 530 L92 530 L216 621 L343 530 L355 530 L355 530 Z M142 337 C142 393 155 414 189 414 C251 414 262 394 262 329 L262 256 C82 203 48 167 48 88 C48 12 69 -11 141 -11 C202 -11 232 -2 264 44 C270 3 294 -10 351 -10 C401 -10 422 2 442 44 L439 50 C439 51 430 51 399 51 C355 51 342 55 342 67 L342 350 C342 435 323 460 215 460 C101 460 59 426 59 332 C59 309 64 303 80 304 L137 304 L142 309 L142 337 L142 337 Z M262 220 L262 74 C262 73 262 72 262 72 C245 56 223 52 182 52 C139 52 126 65 126 108 C126 160 148 184 263 219 L262 220 L262 220 Z " />
<glyph glyph-name="atilde" unicode="&#xe3;" horiz-adv-x="449" d="M78 555 C94 605 95 620 126 620 C174 620 202 555 250 555 C301 555 304 584 335 680 L322 680 C305 628 304 613 274 613 C226 613 198 678 150 678 C98 678 96 650 65 555 L78 555 L78 555 Z M142 337 C142 393 155 414 189 414 C251 414 262 394 262 329 L262 256 C82 203 48 167 48 88 C48 12 69 -11 141 -11 C202 -11 232 -2 264 44 C270 3 294 -10 351 -10 C401 -10 422 2 442 44 L439 50 C439 51 430 51 399 51 C355 51 342 55 342 67 L342 350 C342 435 323 460 215 460 C101 460 59 426 59 332 C59 309 64 303 80 304 L137 304 L142 309 L142 337 L142 337 Z M262 220 L262 74 C262 73 262 72 262 72 C245 56 223 52 182 52 C139 52 126 65 126 108 C126 160 148 184 263 219 L262 220 L262 220 Z " />
<glyph glyph-name="adieresis" unicode="&#xe4;" horiz-adv-x="449" d="M290 570 C329 570 340 582 340 620 C340 659 329 670 290 670 C252 670 240 659 240 620 C240 582 252 570 290 570 L290 570 Z M110 570 C149 570 160 582 160 620 C160 659 149 670 110 670 C72 670 60 659 60 620 C60 582 72 570 110 570 L110 570 Z M142 337 C142 393 155 414 189 414 C251 414 262 394 262 329 L262 256 C82 203 48 167 48 88 C48 12 69 -11 141 -11 C202 -11 232 -2 264 44 C270 3 294 -10 351 -10 C401 -10 422 2 442 44 L439 50 C439 51 430 51 399 51 C355 51 342 55 342 67 L342 350 C342 435 323 460 215 460 C101 460 59 426 59 332 C59 309 64 303 80 304 L137 304 L142 309 L142 337 L142 337 Z M262 220 L262 74 C262 73 262 72 262 72 C245 56 223 52 182 52 C139 52 126 65 126 108 C126 160 148 184 263 219 L262 220 L262 220 Z " />
<glyph glyph-name="aring" unicode="&#xe5;" horiz-adv-x="449" d="M169 625 C169 665 177 677 203 677 C232 677 241 662 241 611 C241 575 231 559 209 559 C181 559 169 579 169 625 L169 625 Z M120 618 C120 560 146 535 205 535 C264 535 290 561 290 620 C290 682 270 701 205 701 C140 701 120 682 120 618 L120 618 Z M142 337 C142 393 155 414 189 414 C251 414 262 394 262 329 L262 256 C82 203 48 167 48 88 C48 12 69 -11 141 -11 C202 -11 232 -2 264 44 C270 3 294 -10 351 -10 C401 -10 422 2 442 44 L439 50 C439 51 430 51 399 51 C355 51 342 55 342 67 L342 350 C342 435 323 460 215 460 C101 460 59 426 59 332 C59 309 64 303 80 304 L137 304 L142 309 L142 337 L142 337 Z M262 220 L262 74 C262 73 262 72 262 72 C245 56 223 52 182 52 C139 52 126 65 126 108 C126 160 148 184 263 219 L262 220 L262 220 Z " />
<glyph glyph-name="ccedilla" unicode="&#xe7;" horiz-adv-x="437" d="M389 105 C343 73 318 64 282 64 C164 64 129 107 129 250 C129 376 152 414 229 414 C267 414 285 403 307 368 L333 326 L340 326 L382 355 C398 369 394 393 382 411 C359 449 330 460 257 460 C98 460 50 401 50 205 C50 43 91 -8 229 -10 C225 -20 212 -53 184 -129 L214 -140 C239 -146 247 -155 247 -178 C247 -204 241 -212 223 -212 C190 -212 177 -208 164 -196 L164 -207 C190 -232 207 -240 237 -240 C291 -240 307 -222 307 -162 C307 -114 290 -92 237 -77 C253 -35 261 -15 264 -8 C326 -3 360 25 393 97 L393 107 L389 105 L389 105 Z " />
<glyph glyph-name="egrave" unicode="&#xe8;" horiz-adv-x="443" d="M238 530 L168 707 L88 707 C88 707 95 670 117 646 L226 530 L238 530 L238 530 Z M130 288 C135 385 160 415 227 415 C292 415 317 384 322 288 L130 288 L130 288 Z M395 95 L395 105 L391 105 C345 73 320 64 284 64 C168 64 132 105 131 242 L359 242 L395 247 C395 411 360 460 241 460 C95 460 52 401 52 205 C52 39 95 -10 241 -10 C320 -10 358 14 395 95 L395 95 Z " />
<glyph glyph-name="eacute" unicode="&#xe9;" horiz-adv-x="443" d="M232 530 L244 530 L353 646 C375 670 382 707 382 707 L302 707 L232 530 L232 530 Z M130 288 C135 385 160 415 227 415 C292 415 317 384 322 288 L130 288 L130 288 Z M395 95 L395 105 L391 105 C345 73 320 64 284 64 C168 64 132 105 131 242 L359 242 L395 247 C395 411 360 460 241 460 C95 460 52 401 52 205 C52 39 95 -10 241 -10 C320 -10 358 14 395 95 L395 95 Z " />
<glyph glyph-name="ecircumflex" unicode="&#xea;" horiz-adv-x="443" d="M372 530 L247 705 L217 705 L97 530 L109 530 L232 621 L360 530 L372 530 L372 530 Z M130 288 C135 385 160 415 227 415 C292 415 317 384 322 288 L130 288 L130 288 Z M395 95 L395 105 L391 105 C345 73 320 64 284 64 C168 64 132 105 131 242 L359 242 L395 247 C395 411 360 460 241 460 C95 460 52 401 52 205 C52 39 95 -10 241 -10 C320 -10 358 14 395 95 L395 95 Z " />
<glyph glyph-name="edieresis" unicode="&#xeb;" horiz-adv-x="443" d="M322 570 C361 570 372 582 372 620 C372 659 361 670 322 670 C284 670 272 659 272 620 C272 582 284 570 322 570 L322 570 Z M142 570 C181 570 192 582 192 620 C192 659 181 670 142 670 C104 670 92 659 92 620 C92 582 104 570 142 570 L142 570 Z M130 288 C135 385 160 415 227 415 C292 415 317 384 322 288 L130 288 L130 288 Z M395 95 L395 105 L391 105 C345 73 320 64 284 64 C168 64 132 105 131 242 L359 242 L395 247 C395 411 360 460 241 460 C95 460 52 401 52 205 C52 39 95 -10 241 -10 C320 -10 358 14 395 95 L395 95 Z " />
<glyph glyph-name="igrave" unicode="&#xec;" horiz-adv-x="234" d="M119 530 L49 707 L-31 707 C-31 707 -24 670 -2 646 L107 530 L119 530 L119 530 Z M182 0 L182 18 L158 50 L158 460 L142 460 L54 423 L54 417 L58 407 C73 361 78 348 78 347 L78 50 L54 18 L54 0 L182 0 L182 0 Z " />
<glyph glyph-name="iacute" unicode="&#xed;" horiz-adv-x="234" d="M113 530 L125 530 L234 646 C256 670 263 707 263 707 L183 707 L113 530 L113 530 Z M182 0 L182 18 L158 50 L158 460 L142 460 L54 423 L54 417 L58 407 C73 361 78 348 78 347 L78 50 L54 18 L54 0 L182 0 L182 0 Z " />
<glyph glyph-name="icircumflex" unicode="&#xee;" horiz-adv-x="234" d="M253 530 L128 705 L98 705 L-22 530 L-10 530 L114 621 L241 530 L253 530 L253 530 Z M182 0 L182 18 L158 50 L158 460 L142 460 L54 423 L54 417 L58 407 C73 361 78 348 78 347 L78 50 L54 18 L54 0 L182 0 L182 0 Z " />
<glyph glyph-name="idieresis" unicode="&#xef;" horiz-adv-x="234" d="M203 570 C242 570 253 582 253 620 C253 659 242 670 203 670 C165 670 153 659 153 620 C153 582 165 570 203 570 L203 570 Z M23 570 C61 570 73 582 73 620 C73 659 61 670 23 670 C-15 670 -27 659 -27 620 C-27 582 -15 570 23 570 L23 570 Z M182 0 L182 18 L158 50 L158 460 L142 460 L54 423 L54 417 L58 407 C73 361 78 348 78 347 L78 50 L54 18 L54 0 L182 0 L182 0 Z " />
<glyph glyph-name="ntilde" unicode="&#xf1;" horiz-adv-x="467" d="M117 555 C133 605 134 620 165 620 C213 620 241 555 289 555 C340 555 343 584 374 680 L361 680 C344 628 343 613 313 613 C265 613 237 678 189 678 C137 678 135 650 104 555 L117 555 L117 555 Z M428 0 L428 18 L404 50 L404 343 C404 433 377 460 285 460 C216 460 197 442 153 383 L152 383 C151 416 150 460 150 460 L134 460 L50 423 L50 417 L54 407 C69 361 74 348 74 347 L74 50 L50 18 L50 0 L180 0 L180 18 L154 50 L154 354 C175 381 189 390 242 390 C306 390 325 369 325 297 L325 50 L299 18 L299 0 L428 0 L428 0 Z " />
<glyph glyph-name="ograve" unicode="&#xf2;" horiz-adv-x="498" d="M255 530 L185 707 L105 707 C105 707 112 670 134 646 L243 530 L255 530 L255 530 Z M142 225 C142 374 156 418 235 418 C328 418 356 374 356 225 C356 76 342 32 263 32 C170 32 142 76 142 225 L142 225 Z M50 225 C50 44 96 -10 249 -10 C418 -10 448 44 448 225 C448 406 402 460 249 460 C80 460 50 406 50 225 L50 225 Z " />
<glyph glyph-name="oacute" unicode="&#xf3;" horiz-adv-x="498" d="M249 530 L261 530 L370 646 C392 670 399 707 399 707 L319 707 L249 530 L249 530 Z M142 225 C142 374 156 418 235 418 C328 418 356 374 356 225 C356 76 342 32 263 32 C170 32 142 76 142 225 L142 225 Z M50 225 C50 44 96 -10 249 -10 C418 -10 448 44 448 225 C448 406 402 460 249 460 C80 460 50 406 50 225 L50 225 Z " />
<glyph glyph-name="ocircumflex" unicode="&#xf4;" horiz-adv-x="498" d="M389 530 L264 705 L234 705 L114 530 L126 530 L250 621 L377 530 L389 530 L389 530 Z M142 225 C142 374 156 418 235 418 C328 418 356 374 356 225 C356 76 342 32 263 32 C170 32 142 76 142 225 L142 225 Z M50 225 C50 44 96 -10 249 -10 C418 -10 448 44 448 225 C448 406 402 460 249 460 C80 460 50 406 50 225 L50 225 Z " />
<glyph glyph-name="otilde" unicode="&#xf5;" horiz-adv-x="498" d="M127 555 C143 605 144 620 175 620 C223 620 251 555 299 555 C350 555 353 584 384 680 L371 680 C354 628 353 613 323 613 C275 613 247 678 199 678 C147 678 145 650 114 555 L127 555 L127 555 Z M142 225 C142 374 156 418 235 418 C328 418 356 374 356 225 C356 76 342 32 263 32 C170 32 142 76 142 225 L142 225 Z M50 225 C50 44 96 -10 249 -10 C418 -10 448 44 448 225 C448 406 402 460 249 460 C80 460 50 406 50 225 L50 225 Z " />
<glyph glyph-name="odieresis" unicode="&#xf6;" horiz-adv-x="498" d="M339 570 C378 570 389 582 389 620 C389 659 378 670 339 670 C301 670 289 659 289 620 C289 582 301 570 339 570 L339 570 Z M159 570 C198 570 209 582 209 620 C209 659 198 670 159 670 C121 670 109 659 109 620 C109 582 121 570 159 570 L159 570 Z M142 225 C142 374 156 418 235 418 C328 418 356 374 356 225 C356 76 342 32 263 32 C170 32 142 76 142 225 L142 225 Z M50 225 C50 44 96 -10 249 -10 C418 -10 448 44 448 225 C448 406 402 460 249 460 C80 460 50 406 50 225 L50 225 Z " />
<glyph glyph-name="oslash" unicode="&#xf8;" horiz-adv-x="498" d="M50 225 C50 138 61 80 89 44 L51 -10 L117 -10 L131 10 C160 -4 199 -10 249 -10 C418 -10 448 44 448 225 C448 312 437 370 409 406 L447 460 L381 460 L367 440 C338 454 299 460 249 460 C80 460 50 406 50 225 L50 225 Z M327 382 L148 129 C144 155 142 187 142 226 C142 375 156 419 235 419 C279 419 308 409 327 383 L327 382 L327 382 Z M350 322 C354 296 356 264 356 225 C356 76 342 32 263 32 C219 32 190 42 171 68 L350 322 L350 322 Z " />
<glyph glyph-name="ugrave" unicode="&#xf9;" horiz-adv-x="429" d="M216 530 L146 707 L66 707 C66 707 73 670 95 646 L204 530 L216 530 L216 530 Z M300 400 L300 100 C267 69 248 63 212 63 C149 63 130 84 130 155 L130 450 L26 450 L26 432 L50 400 L50 107 C50 17 77 -10 166 -10 C207 -10 233 2 300 68 L300 0 L406 0 L406 18 L380 50 L380 450 L274 450 L274 432 L300 400 L300 400 Z " />
<glyph glyph-name="uacute" unicode="&#xfa;" horiz-adv-x="429" d="M210 530 L222 530 L331 646 C353 670 360 707 360 707 L280 707 L210 530 L210 530 Z M300 400 L300 100 C267 69 248 63 212 63 C149 63 130 84 130 155 L130 450 L26 450 L26 432 L50 400 L50 107 C50 17 77 -10 166 -10 C207 -10 233 2 300 68 L300 0 L406 0 L406 18 L380 50 L380 450 L274 450 L274 432 L300 400 L300 400 Z " />
<glyph glyph-name="ucircumflex" unicode="&#xfb;" horiz-adv-x="429" d="M350 530 L225 705 L195 705 L75 530 L87 530 L211 621 L338 530 L350 530 L350 530 Z M300 400 L300 100 C267 69 248 63 212 63 C149 63 130 84 130 155 L130 450 L26 450 L26 432 L50 400 L50 107 C50 17 77 -10 166 -10 C207 -10 233 2 300 68 L300 0 L406 0 L406 18 L380 50 L380 450 L274 450 L274 432 L300 400 L300 400 Z " />
<glyph glyph-name="udieresis" unicode="&#xfc;" horiz-adv-x="429" d="M300 570 C339 570 350 582 350 620 C350 659 339 670 300 670 C262 670 250 659 250 620 C250 582 262 570 300 570 L300 570 Z M120 570 C159 570 170 582 170 620 C170 659 159 670 120 670 C82 670 70 659 70 620 C70 582 82 570 120 570 L120 570 Z M300 400 L300 100 C267 69 248 63 212 63 C149 63 130 84 130 155 L130 450 L26 450 L26 432 L50 400 L50 107 C50 17 77 -10 166 -10 C207 -10 233 2 300 68 L300 0 L406 0 L406 18 L380 50 L380 450 L274 450 L274 432 L300 400 L300 400 Z " />
<glyph glyph-name="yacute" unicode="&#xfd;" horiz-adv-x="378" d="M217 530 L229 530 L338 646 C360 670 367 707 367 707 L287 707 L217 530 L217 530 Z M303 431 L320 395 L149 -67 C120 -149 114 -156 69 -156 L24 -156 L20 -160 L20 -211 C20 -238 23 -240 54 -240 C125 -240 135 -228 187 -80 C246 78 304 237 363 395 L398 431 L398 450 L303 450 L303 431 L303 431 Z M121 450 L-19 450 L-19 432 L15 400 L177 10 L218 120 C179 213 140 307 102 400 L121 432 L121 450 L121 450 Z " />
<glyph glyph-name="ydieresis" unicode="&#xff;" horiz-adv-x="378" d="M307 570 C346 570 357 582 357 620 C357 659 346 670 307 670 C269 670 257 659 257 620 C257 582 269 570 307 570 L307 570 Z M127 570 C166 570 177 582 177 620 C177 659 166 670 127 670 C89 670 77 659 77 620 C77 582 89 570 127 570 L127 570 Z M303 431 L320 395 L149 -67 C120 -149 114 -156 69 -156 L24 -156 L20 -160 L20 -211 C20 -238 23 -240 54 -240 C125 -240 135 -228 187 -80 C246 78 304 237 363 395 L398 431 L398 450 L303 450 L303 431 L303 431 Z M121 450 L-19 450 L-19 432 L15 400 L177 10 L218 120 C179 213 140 307 102 400 L121 432 L121 450 L121 450 Z " />
<glyph glyph-name="Amacron" unicode="&#x100;" horiz-adv-x="651" d="M211 765 L437 765 L437 815 L211 815 L211 765 L211 765 Z M152 18 L133 50 L132 50 C145 86 165 144 195 227 L195 219 L424 219 L424 220 C445 163 467 106 487 50 L466 18 L466 0 L600 0 L600 0 L613 0 L613 16 L583 45 L581 45 C524 191 356 639 356 639 L346 665 L299 665 L278 610 C157 292 93 125 65 50 L29 18 L29 0 L151 0 L152 18 L152 18 Z M403 274 L211 274 C237 344 269 429 308 531 L403 274 L403 274 Z " />
<glyph glyph-name="amacron" unicode="&#x101;" horiz-adv-x="449" d="M92 595 L318 595 L318 645 L92 645 L92 595 L92 595 Z M142 337 C142 393 155 414 189 414 C251 414 262 394 262 329 L262 256 C82 203 48 167 48 88 C48 12 69 -11 141 -11 C202 -11 232 -2 264 44 C270 3 294 -10 351 -10 C401 -10 422 2 442 44 L439 50 C439 51 430 51 399 51 C355 51 342 55 342 67 L342 350 C342 435 323 460 215 460 C101 460 59 426 59 332 C59 309 64 303 80 304 L137 304 L142 309 L142 337 L142 337 Z M262 220 L262 74 C262 73 262 72 262 72 C245 56 223 52 182 52 C139 52 126 65 126 108 C126 160 148 184 263 219 L262 220 L262 220 Z " />
<glyph glyph-name="Abreve" unicode="&#x102;" horiz-adv-x="651" d="M213 864 L199 864 C239 726 248 714 324 714 C399 714 408 726 448 865 L434 865 C410 783 402 776 324 776 C245 776 237 783 213 866 L213 864 L213 864 Z M152 18 L133 50 L132 50 C145 86 165 144 195 227 L195 219 L424 219 L424 220 C445 163 467 106 487 50 L466 18 L466 0 L600 0 L600 0 L613 0 L613 16 L583 45 L581 45 C524 191 356 639 356 639 L346 665 L299 665 L278 610 C157 292 93 125 65 50 L29 18 L29 0 L151 0 L152 18 L152 18 Z M403 274 L211 274 C237 344 269 429 308 531 L403 274 L403 274 Z " />
<glyph glyph-name="abreve" unicode="&#x103;" horiz-adv-x="449" d="M95 707 L81 707 C121 553 130 540 205 540 C280 540 289 553 329 707 L315 707 C291 615 283 607 205 607 C127 607 119 615 95 707 L95 707 Z M142 337 C142 393 155 414 189 414 C251 414 262 394 262 329 L262 256 C82 203 48 167 48 88 C48 12 69 -11 141 -11 C202 -11 232 -2 264 44 C270 3 294 -10 351 -10 C401 -10 422 2 442 44 L439 50 C439 51 430 51 399 51 C355 51 342 55 342 67 L342 350 C342 435 323 460 215 460 C101 460 59 426 59 332 C59 309 64 303 80 304 L137 304 L142 309 L142 337 L142 337 Z M262 220 L262 74 C262 73 262 72 262 72 C245 56 223 52 182 52 C139 52 126 65 126 108 C126 160 148 184 263 219 L262 220 L262 220 Z " />
<glyph glyph-name="Cacute" unicode="&#x106;" horiz-adv-x="677" d="M347 705 L359 705 L468 809 C490 831 497 864 497 864 L417 864 L347 705 L347 705 Z M574 134 L525 85 C521 81 518 78 515 76 C469 48 433 39 377 39 C212 39 163 108 163 340 C163 555 215 619 389 619 C436 619 466 611 501 587 C524 564 540 546 562 523 L579 523 L578 623 C536 658 492 669 389 669 C143 669 70 586 70 309 C70 63 141 -11 377 -11 C485 -11 533 0 587 38 L590 133 L574 134 L574 134 Z " />
<glyph glyph-name="cacute" unicode="&#x107;" horiz-adv-x="437" d="M241 530 L253 530 L362 646 C384 670 391 707 391 707 L311 707 L241 530 L241 530 Z M389 105 C343 73 318 64 282 64 C164 64 129 107 129 250 C129 376 152 414 229 414 C267 414 285 403 307 368 L333 326 L340 326 L382 355 C398 369 394 393 382 411 C359 449 330 460 257 460 C98 460 50 401 50 205 C50 39 93 -10 239 -10 C318 -10 356 14 393 95 L393 105 L389 105 L389 105 Z " />
<glyph glyph-name="Ccaron" unicode="&#x10c;" horiz-adv-x="677" d="M507 867 L506 867 L507 868 L507 867 L507 867 Z M352 710 L353 711 L381 711 L382 710 L506 867 L495 867 L367 786 L244 867 L232 867 L352 710 L352 710 Z M574 134 L525 85 C521 81 518 78 515 76 C469 48 433 39 377 39 C212 39 163 108 163 340 C163 555 215 619 389 619 C436 619 466 611 501 587 C524 564 540 546 562 523 L579 523 L578 623 C536 658 492 669 389 669 C143 669 70 586 70 309 C70 63 141 -11 377 -11 C485 -11 533 0 587 38 L590 133 L574 134 L574 134 Z " />
<glyph glyph-name="ccaron" unicode="&#x10d;" horiz-adv-x="437" d="M256 535 L381 710 L369 710 L242 619 L118 710 L106 710 L226 535 L256 535 L256 535 Z M389 105 C343 73 318 64 282 64 C164 64 129 107 129 250 C129 376 152 414 229 414 C267 414 285 403 307 368 L333 326 L340 326 L382 355 C398 369 394 393 382 411 C359 449 330 460 257 460 C98 460 50 401 50 205 C50 39 93 -10 239 -10 C318 -10 356 14 393 95 L393 105 L389 105 L389 105 Z " />
<glyph glyph-name="Dcaron" unicode="&#x10e;" horiz-adv-x="684" d="M504 867 L503 867 L504 868 L504 867 L504 867 Z M349 710 L350 711 L378 711 L379 710 L503 867 L492 867 L365 785 L241 867 L229 867 L349 710 L349 710 Z M293 0 C540 9 614 65 614 360 C614 614 537 660 278 660 L65 660 L65 641 L94 605 L94 55 L65 19 L65 0 L293 0 L293 0 Z M184 55 L184 605 C216 605 253 605 252 606 C459 606 521 563 521 325 C521 103 468 61 291 55 L184 55 L184 55 Z " />
<glyph glyph-name="dcaron" unicode="&#x10f;" horiz-adv-x="489" d="M587 750 L512 750 L492 563 L504 563 L595 747 C594 747 594 750 587 750 L587 750 Z M595 747 L597 752 C596 749 596 748 596 748 L595 747 L595 747 Z M598 753 L603 762 C601 758 600 755 599 753 L598 753 L598 753 Z M444 1 L444 19 L418 51 L418 755 L402 755 L314 727 L314 722 L318 712 C333 671 338 659 338 659 L338 455 C317 460 294 462 264 462 C99 462 50 401 50 196 C50 39 85 -8 203 -8 C271 -8 304 6 337 53 C339 31 347 3 347 3 L444 1 L444 1 Z M337 367 L337 89 C319 67 299 60 259 60 C158 60 128 97 128 222 C128 371 156 415 250 415 C250 415 271 404 337 367 L337 367 Z " />
<glyph glyph-name="Emacron" unicode="&#x112;" horiz-adv-x="559" d="M151 765 L377 765 L377 815 L151 815 L151 765 L151 765 Z M487 55 C487 70 487 84 486 102 L469 102 L412 56 L184 56 L184 314 L314 314 L356 285 L379 285 L379 398 L356 398 L314 369 L184 369 L184 606 L387 606 L444 564 L461 564 C462 580 462 592 462 605 L464 605 L464 660 L65 660 L65 641 L94 605 L94 55 L65 19 L65 0 L489 0 L489 55 L487 55 L487 55 Z " />
<glyph glyph-name="emacron" unicode="&#x113;" horiz-adv-x="443" d="M124 595 L350 595 L350 645 L124 645 L124 595 L124 595 Z M130 288 C135 385 160 415 227 415 C292 415 317 384 322 288 L130 288 L130 288 Z M395 95 L395 105 L391 105 C345 73 320 64 284 64 C168 64 132 105 131 242 L359 242 L395 247 C395 411 360 460 241 460 C95 460 52 401 52 205 C52 39 95 -10 241 -10 C320 -10 358 14 395 95 L395 95 Z " />
<glyph glyph-name="Edot" unicode="&#x116;" horiz-adv-x="559" d="M269 725 C315 725 329 739 329 785 C329 831 315 845 269 845 C223 845 209 831 209 785 C209 739 223 725 269 725 L269 725 Z M487 55 C487 70 487 84 486 102 L469 102 L412 56 L184 56 L184 314 L314 314 L356 285 L379 285 L379 398 L356 398 L314 369 L184 369 L184 606 L387 606 L444 564 L461 564 C462 580 462 592 462 605 L464 605 L464 660 L65 660 L65 641 L94 605 L94 55 L65 19 L65 0 L489 0 L489 55 L487 55 L487 55 Z " />
<glyph glyph-name="edot" unicode="&#x117;" horiz-adv-x="443" d="M242 583 C288 583 302 597 302 643 C302 689 288 703 242 703 C196 703 182 689 182 643 C182 597 196 583 242 583 L242 583 Z M130 288 C135 385 160 415 227 415 C292 415 317 384 322 288 L130 288 L130 288 Z M395 95 L395 105 L391 105 C345 73 320 64 284 64 C168 64 132 105 131 242 L359 242 L395 247 C395 411 360 460 241 460 C95 460 52 401 52 205 C52 39 95 -10 241 -10 C320 -10 358 14 395 95 L395 95 Z " />
<glyph glyph-name="Ecaron" unicode="&#x11a;" horiz-adv-x="559" d="M404 867 L403 867 L404 868 L404 867 L404 867 Z M249 710 L250 711 L278 711 L279 710 L403 867 L392 867 L265 785 L141 867 L129 867 L249 710 L249 710 Z M487 55 C487 70 487 84 486 102 L469 102 L412 56 L184 56 L184 314 L314 314 L356 285 L379 285 L379 398 L356 398 L314 369 L184 369 L184 606 L387 606 L444 564 L461 564 C462 580 462 592 462 605 L464 605 L464 660 L65 660 L65 641 L94 605 L94 55 L65 19 L65 0 L489 0 L489 55 L487 55 L487 55 Z " />
<glyph glyph-name="ecaron" unicode="&#x11b;" horiz-adv-x="443" d="M247 535 L372 710 L360 710 L232 619 L109 710 L97 710 L217 535 L247 535 L247 535 Z M130 288 C135 385 160 415 227 415 C292 415 317 384 322 288 L130 288 L130 288 Z M395 95 L395 105 L391 105 C345 73 320 64 284 64 C168 64 132 105 131 242 L359 242 L395 247 C395 411 360 460 241 460 C95 460 52 401 52 205 C52 39 95 -10 241 -10 C320 -10 358 14 395 95 L395 95 Z " />
<glyph glyph-name="Gbreve" unicode="&#x11e;" horiz-adv-x="689" d="M266 864 L252 864 C292 726 301 714 377 714 C452 714 461 726 501 865 L487 865 C463 783 455 776 377 776 C298 776 290 783 266 866 L266 864 L266 864 Z M599 524 L598 624 C556 659 510 670 399 670 C146 670 70 587 70 310 C70 64 141 -10 380 -10 C506 -10 560 9 614 74 L614 235 L642 271 L642 290 L493 290 L493 271 L524 235 L524 63 C501 53 466 49 407 49 C219 49 163 116 163 341 C163 556 217 620 399 620 C451 620 483 613 518 590 C521 588 524 585 528 580 C548 559 560 546 580 525 L599 524 L599 524 Z " />
<glyph glyph-name="gbreve" unicode="&#x11f;" horiz-adv-x="506" d="M133 707 L119 707 C159 553 168 540 243 540 C318 540 327 553 367 707 L353 707 C329 615 321 607 243 607 C165 607 157 615 133 707 L133 707 Z M327 449 L327 449 C304 457 275 460 238 460 C104 460 80 423 80 300 C80 224 93 181 130 158 C84 141 70 118 70 72 C70 22 83 -1 123 -9 C76 -25 61 -73 61 -126 C61 -215 97 -242 218 -242 C384 -242 433 -202 433 -68 C433 29 424 58 313 58 L191 58 C153 58 141 69 141 104 C141 132 145 141 158 145 C179 139 205 136 237 136 C372 136 396 174 396 300 C396 346 391 380 378 404 L456 394 L456 448 L327 449 L327 449 Z M161 301 C161 392 172 419 231 419 C296 419 315 391 315 297 C315 204 305 176 250 176 C181 176 161 205 161 301 L161 301 Z M165 -12 L273 -12 C353 -12 360 -30 360 -89 C360 -185 330 -214 228 -214 C154 -214 132 -191 132 -115 C132 -45 140 -12 165 -12 L165 -12 Z " />
<glyph glyph-name="Itilde" unicode="&#x128;" horiz-adv-x="288" d="M22 705 C38 755 39 770 70 770 C118 770 146 705 194 705 C245 705 248 734 279 830 L266 830 C249 778 248 763 218 763 C170 763 142 828 94 828 C42 828 40 800 9 705 L22 705 L22 705 Z M218 0 L218 19 L189 55 L189 605 L218 641 L218 660 L70 660 L70 641 L99 605 L99 55 L70 19 L70 0 L218 0 L218 0 Z " />
<glyph glyph-name="itilde" unicode="&#x129;" horiz-adv-x="234" d="M-4 530 C12 580 13 595 44 595 C92 595 120 530 168 530 C219 530 222 559 253 655 L240 655 C223 603 222 588 192 588 C144 588 116 653 68 653 C16 653 14 625 -17 530 L-4 530 L-4 530 Z M182 0 L182 18 L158 50 L158 460 L142 460 L54 423 L54 417 L58 407 C73 361 78 348 78 347 L78 50 L54 18 L54 0 L182 0 L182 0 Z " />
<glyph glyph-name="Imacron" unicode="&#x12a;" horiz-adv-x="288" d="M31 765 L257 765 L257 815 L31 815 L31 765 L31 765 Z M218 0 L218 19 L189 55 L189 605 L218 641 L218 660 L70 660 L70 641 L99 605 L99 55 L70 19 L70 0 L218 0 L218 0 Z " />
<glyph glyph-name="imacron" unicode="&#x12b;" horiz-adv-x="234" d="M0 595 L226 595 L226 645 L0 645 L0 595 L0 595 Z M182 0 L182 18 L158 50 L158 460 L142 460 L54 423 L54 417 L58 407 C73 361 78 348 78 347 L78 50 L54 18 L54 0 L182 0 L182 0 Z " />
<glyph glyph-name="Idot" unicode="&#x130;" horiz-adv-x="288" d="M144 725 C190 725 204 739 204 785 C204 831 190 845 144 845 C98 845 84 831 84 785 C84 739 98 725 144 725 L144 725 Z M218 0 L218 19 L189 55 L189 605 L218 641 L218 660 L70 660 L70 641 L99 605 L99 55 L70 19 L70 0 L218 0 L218 0 Z " />
<glyph glyph-name="dotlessi" unicode="&#x131;" horiz-adv-x="234" d="M182 0 L182 18 L158 50 L158 460 L142 460 L54 423 L54 417 L58 407 C73 361 78 348 78 347 L78 50 L54 18 L54 0 L182 0 L182 0 Z " />
<glyph glyph-name="Lacute" unicode="&#x139;" horiz-adv-x="539" d="M124 705 L136 705 L245 809 C267 831 274 864 274 864 L194 864 L124 705 L124 705 Z M467 55 C466 75 465 92 464 116 L446 116 L386 55 L183 55 L183 605 L214 641 L214 660 L64 660 L64 641 L93 605 L93 55 L64 19 L64 0 L468 0 L468 55 L467 55 L467 55 Z " />
<glyph glyph-name="lacute" unicode="&#x13a;" horiz-adv-x="215" d="M92 765 L105 765 L219 869 C242 891 249 924 249 924 L165 924 L92 765 L92 765 Z M172 0 L172 18 L148 50 L148 760 L132 760 L44 723 L44 717 L48 707 C63 661 68 648 68 647 L68 50 L44 18 L44 0 L172 0 L172 0 Z " />
<glyph glyph-name="Lcaron" unicode="&#x13d;" horiz-adv-x="539" d="M425 660 L350 660 L330 473 L342 473 L433 657 C432 657 432 660 425 660 L425 660 Z M433 657 L435 662 C434 659 434 658 434 658 L433 657 L433 657 Z M436 663 L441 672 C439 668 438 665 437 663 L436 663 L436 663 Z M469 56 C468 76 467 93 466 117 L448 117 L388 56 L185 56 L185 606 L216 642 L216 661 L66 661 L66 642 L95 606 L95 56 L66 20 L66 1 L470 1 L470 56 L469 56 L469 56 Z " />
<glyph glyph-name="lcaron" unicode="&#x13e;" horiz-adv-x="215" d="M319 750 L244 750 L224 563 L236 563 L327 747 C326 747 326 750 319 750 L319 750 Z M327 747 L329 752 C328 749 328 748 328 748 L327 747 L327 747 Z M330 753 L335 762 C333 758 332 755 331 753 L330 753 L330 753 Z M174 1 L174 19 L150 51 L150 761 L134 761 L46 724 L46 718 L50 708 C65 662 70 649 70 648 L70 51 L46 19 L46 1 L174 1 L174 1 Z " />
<glyph glyph-name="Nacute" unicode="&#x143;" horiz-adv-x="664" d="M344 705 L356 705 L465 809 C487 831 494 864 494 864 L414 864 L344 705 L344 705 Z M64 641 L92 605 L92 55 L63 19 L63 0 L199 0 L199 19 L162 55 L162 505 C287 335 412 165 537 -5 L575 -5 L575 605 L603 641 L603 660 L468 660 L468 641 L505 605 L505 191 L162 660 L64 660 L64 641 L64 641 Z " />
<glyph glyph-name="nacute" unicode="&#x144;" horiz-adv-x="467" d="M239 530 L251 530 L360 646 C382 670 389 707 389 707 L309 707 L239 530 L239 530 Z M428 0 L428 18 L404 50 L404 343 C404 433 377 460 285 460 C216 460 197 442 153 383 L152 383 C151 416 150 460 150 460 L134 460 L50 423 L50 417 L54 407 C69 361 74 348 74 347 L74 50 L50 18 L50 0 L180 0 L180 18 L154 50 L154 354 C175 381 189 390 242 390 C306 390 325 369 325 297 L325 50 L299 18 L299 0 L428 0 L428 0 Z " />
<glyph glyph-name="Ncaron" unicode="&#x147;" horiz-adv-x="664" d="M484 867 L483 867 L484 868 L484 867 L484 867 Z M329 710 L330 711 L358 711 L359 710 L483 867 L472 867 L344 786 L221 867 L209 867 L329 710 L329 710 Z M64 641 L92 605 L92 55 L63 19 L63 0 L199 0 L199 19 L162 55 L162 505 C287 335 412 165 537 -5 L575 -5 L575 605 L603 641 L603 660 L468 660 L468 641 L505 605 L505 191 L162 660 L64 660 L64 641 L64 641 Z " />
<glyph glyph-name="ncaron" unicode="&#x148;" horiz-adv-x="467" d="M254 535 L379 710 L367 710 L240 619 L116 710 L104 710 L224 535 L254 535 L254 535 Z M428 0 L428 18 L404 50 L404 343 C404 433 377 460 285 460 C216 460 197 442 153 383 L152 383 C151 416 150 460 150 460 L134 460 L50 423 L50 417 L54 407 C69 361 74 348 74 347 L74 50 L50 18 L50 0 L180 0 L180 18 L154 50 L154 354 C175 381 189 390 242 390 C306 390 325 369 325 297 L325 50 L299 18 L299 0 L428 0 L428 0 Z " />
<glyph glyph-name="Omacron" unicode="&#x14c;" horiz-adv-x="767" d="M256 765 L482 765 L482 815 L256 815 L256 765 L256 765 Z M166 363 C166 562 212 621 366 621 C547 621 601 546 601 293 C601 98 556 40 404 40 C221 40 166 114 166 363 L166 363 Z M70 328 C70 68 142 -10 384 -10 C625 -10 697 68 697 328 C697 591 625 670 384 670 C142 670 70 591 70 328 L70 328 Z " />
<glyph glyph-name="omacron" unicode="&#x14d;" horiz-adv-x="498" d="M136 595 L362 595 L362 645 L136 645 L136 595 L136 595 Z M142 225 C142 374 156 418 235 418 C328 418 356 374 356 225 C356 76 342 32 263 32 C170 32 142 76 142 225 L142 225 Z M50 225 C50 44 96 -10 249 -10 C418 -10 448 44 448 225 C448 406 402 460 249 460 C80 460 50 406 50 225 L50 225 Z " />
<glyph glyph-name="Racute" unicode="&#x154;" horiz-adv-x="555" d="M235 705 L247 705 L356 809 C378 831 385 864 385 864 L305 864 L235 705 L235 705 Z M544 0 L544 18 L505 49 L343 297 C433 315 463 366 463 478 C463 617 418 659 267 659 L65 659 L65 640 L94 604 L94 54 L65 18 L65 -1 L212 -1 L212 18 L184 54 L184 289 L242 289 L430 -1 L544 0 L544 0 Z M184 344 L184 604 C212 604 244 604 245 603 C337 603 365 572 365 470 C365 373 341 344 262 344 L184 344 L184 344 Z " />
<glyph glyph-name="racute" unicode="&#x155;" horiz-adv-x="310" d="M187 530 L199 530 L308 646 C330 670 337 707 337 707 L257 707 L187 530 L187 530 Z M236 460 C207 460 192 439 154 371 L154 377 L152 377 C151 410 150 461 150 461 L134 461 L50 424 L50 418 L54 408 C69 362 74 349 74 348 L74 51 L50 19 L50 1 L180 1 L180 19 L154 51 L154 337 C173 371 180 382 187 382 C206 382 218 379 240 370 C254 363 278 354 278 354 L285 354 C304 394 310 409 310 420 C310 431 304 438 283 450 C267 460 251 462 236 462 L236 460 L236 460 Z " />
<glyph glyph-name="Rcaron" unicode="&#x158;" horiz-adv-x="555" d="M385 867 L384 867 L385 868 L385 867 L385 867 Z M230 710 L231 711 L259 711 L260 710 L384 867 L373 867 L245 786 L122 867 L110 867 L230 710 L230 710 Z M544 0 L544 18 L505 49 L343 297 C433 315 463 366 463 478 C463 617 418 659 267 659 L65 659 L65 640 L94 604 L94 54 L65 18 L65 -1 L212 -1 L212 18 L184 54 L184 289 L242 289 L430 -1 L544 0 L544 0 Z M184 344 L184 604 C212 604 244 604 245 603 C337 603 365 572 365 470 C365 373 341 344 262 344 L184 344 L184 344 Z " />
<glyph glyph-name="rcaron" unicode="&#x159;" horiz-adv-x="310" d="M202 535 L327 710 L315 710 L188 619 L64 710 L52 710 L172 535 L202 535 L202 535 Z M236 460 C207 460 192 439 154 371 L154 377 L152 377 C151 410 150 461 150 461 L134 461 L50 424 L50 418 L54 408 C69 362 74 349 74 348 L74 51 L50 19 L50 1 L180 1 L180 19 L154 51 L154 337 C173 371 180 382 187 382 C206 382 218 379 240 370 C254 363 278 354 278 354 L285 354 C304 394 310 409 310 420 C310 431 304 438 283 450 C267 460 251 462 236 462 L236 460 L236 460 Z " />
<glyph glyph-name="Sacute" unicode="&#x15a;" horiz-adv-x="487" d="M213 705 L225 705 L334 809 C356 831 363 864 363 864 L283 864 L213 705 L213 705 Z M325 597 C333 590 339 583 348 570 C359 553 367 542 378 525 L399 525 L396 627 C363 660 331 670 256 670 C124 670 85 628 85 489 C85 392 105 373 217 311 C326 250 346 233 346 163 C346 66 325 37 253 37 C212 37 182 47 136 79 C130 83 127 86 124 93 C110 117 102 131 88 155 L67 155 L70 35 C116 0 158 -11 253 -11 C391 -11 432 34 432 185 C432 289 410 310 288 378 C191 432 174 447 174 520 C174 598 191 621 248 621 C279 621 301 615 326 596 L325 597 L325 597 Z " />
<glyph glyph-name="sacute" unicode="&#x15b;" horiz-adv-x="387" d="M187 530 L199 530 L308 646 C330 670 337 707 337 707 L257 707 L187 530 L187 530 Z M282 362 C287 362 292 361 298 361 L299 400 L299 400 L300 425 C253 452 227 460 186 460 C100 460 74 431 74 332 C74 245 87 232 159 202 C233 171 246 160 246 96 C246 42 231 26 182 26 C181 26 173 26 173 27 C141 31 122 43 88 80 L75 93 C71 93 67 94 62 94 L61 70 L61 70 L60 20 C110 -3 139 -10 189 -10 C288 -10 317 20 317 122 C317 216 303 229 223 263 C158 291 146 301 146 362 C146 407 157 421 192 421 C204 421 217 417 238 407 C250 399 269 379 282 362 L282 362 Z " />
<glyph glyph-name="Scedilla" unicode="&#x15e;" horiz-adv-x="487" d="M251 -78 C267 -37 275 -17 278 -10 C396 -5 432 43 432 185 C432 289 410 310 288 378 C191 432 174 447 174 520 C174 598 191 621 248 621 C279 621 301 615 326 596 C334 589 340 582 349 569 C360 552 368 541 379 524 L400 524 L397 626 C364 659 332 669 257 669 C125 669 86 627 86 488 C86 391 106 372 218 310 C327 249 347 232 347 162 C347 65 326 36 254 36 C213 36 183 46 137 78 C131 82 128 85 125 92 C111 116 103 130 89 154 L68 154 L71 34 C115 0 156 -11 244 -12 C240 -22 227 -55 199 -131 L229 -142 C254 -148 262 -157 262 -180 C262 -206 256 -214 238 -214 C205 -214 192 -210 179 -198 L179 -209 C205 -234 222 -242 252 -242 C306 -242 322 -224 322 -164 C322 -116 305 -94 252 -79 L251 -78 L251 -78 Z " />
<glyph glyph-name="scedilla" unicode="&#x15f;" horiz-adv-x="387" d="M187 -78 C203 -36 211 -16 214 -9 C293 -4 317 29 317 122 C317 216 303 229 223 263 C158 291 146 301 146 362 C146 407 157 421 192 421 C204 421 217 417 238 407 C250 399 269 379 282 362 C287 362 292 361 298 361 L299 400 L299 400 L300 425 C253 452 227 460 186 460 C100 460 74 431 74 332 C74 245 87 232 159 202 C233 171 246 160 246 96 C246 42 231 26 182 26 C181 26 173 26 173 27 C141 31 122 43 88 80 L75 93 C71 93 67 94 62 94 L61 70 L61 70 L60 20 C106 -1 134 -9 178 -10 C174 -20 161 -53 133 -129 L163 -140 C188 -146 196 -155 196 -178 C196 -204 190 -212 172 -212 C139 -212 126 -208 113 -196 L113 -207 C139 -232 156 -240 186 -240 C240 -240 256 -222 256 -162 C256 -114 239 -92 186 -77 L187 -78 L187 -78 Z " />
<glyph glyph-name="Scaron" unicode="&#x160;" horiz-adv-x="487" d="M368 867 L367 867 L368 868 L368 867 L368 867 Z M213 710 L214 711 L242 711 L243 710 L367 867 L356 867 L229 785 L105 867 L93 867 L213 710 L213 710 Z M325 597 C333 590 339 583 348 570 C359 553 367 542 378 525 L399 525 L396 627 C363 660 331 670 256 670 C124 670 85 628 85 489 C85 392 105 373 217 311 C326 250 346 233 346 163 C346 66 325 37 253 37 C212 37 182 47 136 79 C130 83 127 86 124 93 C110 117 102 131 88 155 L67 155 L70 35 C116 0 158 -11 253 -11 C391 -11 432 34 432 185 C432 289 410 310 288 378 C191 432 174 447 174 520 C174 598 191 621 248 621 C279 621 301 615 326 596 L325 597 L325 597 Z " />
<glyph glyph-name="scaron" unicode="&#x161;" horiz-adv-x="387" d="M202 535 L327 710 L315 710 L188 619 L64 710 L52 710 L172 535 L202 535 L202 535 Z M282 362 C287 362 292 361 298 361 L299 400 L299 400 L300 425 C253 452 227 460 186 460 C100 460 74 431 74 332 C74 245 87 232 159 202 C233 171 246 160 246 96 C246 42 231 26 182 26 C181 26 173 26 173 27 C141 31 122 43 88 80 L75 93 C71 93 67 94 62 94 L61 70 L61 70 L60 20 C110 -3 139 -10 189 -10 C288 -10 317 20 317 122 C317 216 303 229 223 263 C158 291 146 301 146 362 C146 407 157 421 192 421 C204 421 217 417 238 407 C250 399 269 379 282 362 L282 362 Z " />
<glyph glyph-name="Tcaron" unicode="&#x164;" horiz-adv-x="635" d="M456 867 L455 867 L456 868 L456 867 L456 867 Z M301 710 L302 711 L330 711 L331 710 L455 867 L444 867 L316 786 L193 867 L181 867 L301 710 L301 710 Z M44 633 L43 633 C43 602 43 583 44 552 L62 552 L123 605 L273 605 L273 55 L236 19 L236 0 L400 0 L400 19 L363 55 L363 605 L507 605 L568 552 L586 552 C586 573 586 588 586 605 L590 605 L590 660 L44 660 L44 633 L44 633 Z " />
<glyph glyph-name="tcaron" unicode="&#x165;" horiz-adv-x="314" d="M337 750 L262 750 L242 563 L254 563 L345 747 C344 747 344 750 337 750 L337 750 Z M284 53 L281 63 C279 60 267 59 225 59 C180 59 166 70 166 107 L166 403 L272 403 L272 450 L166 450 L166 560 L160 560 L86 450 L18 409 L18 403 L86 403 L86 90 C86 13 108 -10 181 -10 C237 -10 260 4 284 53 L284 53 Z M345 747 L347 752 C346 749 346 748 346 748 L345 747 L345 747 Z M348 753 L353 762 C351 758 350 755 349 753 L348 753 L348 753 Z " />
<glyph glyph-name="Utilde" unicode="&#x168;" horiz-adv-x="669" d="M212 705 C228 755 229 770 260 770 C308 770 337 705 385 705 C436 705 439 734 470 830 L457 830 C440 778 439 763 409 763 C361 763 332 828 284 828 C232 828 230 800 199 705 L212 705 L212 705 Z M94 605 L94 234 C94 46 149 -10 335 -10 C520 -10 575 46 575 234 L575 605 L604 641 L604 660 L468 660 L468 641 L505 605 L505 213 C505 86 472 48 362 48 C225 48 184 94 184 250 L184 605 L213 641 L213 660 L65 660 L65 641 L94 605 L94 605 Z " />
<glyph glyph-name="utilde" unicode="&#x169;" horiz-adv-x="429" d="M88 535 C104 585 105 600 136 600 C184 600 212 535 260 535 C311 535 314 564 345 660 L332 660 C315 608 314 593 284 593 C236 593 208 658 160 658 C108 658 106 630 75 535 L88 535 L88 535 Z M300 400 L300 100 C267 69 248 63 212 63 C149 63 130 84 130 155 L130 450 L26 450 L26 432 L50 400 L50 107 C50 17 77 -10 166 -10 C207 -10 233 2 300 68 L300 0 L406 0 L406 18 L380 50 L380 450 L274 450 L274 432 L300 400 L300 400 Z " />
<glyph glyph-name="Umacron" unicode="&#x16a;" horiz-adv-x="669" d="M232 765 L458 765 L458 815 L232 815 L232 765 L232 765 Z M94 605 L94 234 C94 46 149 -10 335 -10 C520 -10 575 46 575 234 L575 605 L604 641 L604 660 L468 660 L468 641 L505 605 L505 213 C505 86 472 48 362 48 C225 48 184 94 184 250 L184 605 L213 641 L213 660 L65 660 L65 641 L94 605 L94 605 Z " />
<glyph glyph-name="umacron" unicode="&#x16b;" horiz-adv-x="429" d="M97 595 L323 595 L323 645 L97 645 L97 595 L97 595 Z M300 400 L300 100 C267 69 248 63 212 63 C149 63 130 84 130 155 L130 450 L26 450 L26 432 L50 400 L50 107 C50 17 77 -10 166 -10 C207 -10 233 2 300 68 L300 0 L406 0 L406 18 L380 50 L380 450 L274 450 L274 432 L300 400 L300 400 Z " />
<glyph glyph-name="Uring" unicode="&#x16e;" horiz-adv-x="669" d="M304 800 C304 840 312 852 337 852 C367 852 376 837 376 786 C376 750 366 734 344 734 C316 734 304 754 304 800 L304 800 Z M254 793 C254 735 280 710 340 710 C399 710 425 736 425 795 C425 857 405 876 340 876 C274 876 254 857 254 793 L254 793 Z M94 605 L94 234 C94 46 149 -10 335 -10 C520 -10 575 46 575 234 L575 605 L604 641 L604 660 L468 660 L468 641 L505 605 L505 213 C505 86 472 48 362 48 C225 48 184 94 184 250 L184 605 L213 641 L213 660 L65 660 L65 641 L94 605 L94 605 Z " />
<glyph glyph-name="uring" unicode="&#x16f;" horiz-adv-x="429" d="M174 625 C174 665 182 677 208 677 C237 677 246 662 246 611 C246 575 236 559 214 559 C186 559 174 579 174 625 L174 625 Z M125 618 C125 560 151 535 210 535 C269 535 295 561 295 620 C295 682 275 701 210 701 C145 701 125 682 125 618 L125 618 Z M300 400 L300 100 C267 69 248 63 212 63 C149 63 130 84 130 155 L130 450 L26 450 L26 432 L50 400 L50 107 C50 17 77 -10 166 -10 C207 -10 233 2 300 68 L300 0 L406 0 L406 18 L380 50 L380 450 L274 450 L274 432 L300 400 L300 400 Z " />
<glyph glyph-name="Ydieresis" unicode="&#x178;" horiz-adv-x="643" d="M420 735 C459 735 470 746 470 785 C470 824 459 835 420 835 C382 835 370 824 370 785 C370 747 382 735 420 735 L420 735 Z M240 735 C279 735 290 747 290 785 C290 824 279 835 240 835 C202 835 190 824 190 785 C190 747 202 735 240 735 L240 735 Z M177 660 L40 660 L40 642 L77 610 L77 610 L285 309 L285 55 L252 19 L252 0 L408 0 L408 19 L375 55 L375 312 L572 621 L603 646 L603 660 L488 660 L488 641 L495 605 L344 367 C288 446 231 526 176 605 L177 641 L177 660 L177 660 Z " />
<glyph glyph-name="Zacute" unicode="&#x179;" horiz-adv-x="606" d="M303 705 L315 705 L424 809 C446 831 453 864 453 864 L373 864 L303 705 L303 705 Z M103 633 L102 633 C102 605 102 587 103 559 L121 559 L182 605 L396 605 C295 412 195 218 92 25 L92 0 L516 0 L516 55 L513 55 C513 71 513 85 512 105 L494 105 L433 55 L198 55 C299 248 401 440 501 634 L501 660 L103 660 L103 633 L103 633 Z " />
<glyph glyph-name="zacute" unicode="&#x17a;" horiz-adv-x="440" d="M222 530 L234 530 L343 646 C365 670 372 707 372 707 L292 707 L222 530 L222 530 Z M86 454 C86 444 85 437 84 428 C83 428 79 374 78 368 L95 368 L131 405 L251 405 C192 276 132 148 74 18 L74 0 L363 0 L363 84 L346 84 L313 45 L173 45 C234 178 294 311 355 444 L355 450 L134 450 L94 454 L86 454 L86 454 Z " />
<glyph glyph-name="Zdot" unicode="&#x17b;" horiz-adv-x="606" d="M313 725 C359 725 373 739 373 785 C373 831 359 845 313 845 C267 845 253 831 253 785 C253 739 267 725 313 725 L313 725 Z M103 633 L102 633 C102 605 102 587 103 559 L121 559 L182 605 L396 605 C295 412 195 218 92 25 L92 0 L516 0 L516 55 L513 55 C513 71 513 85 512 105 L494 105 L433 55 L198 55 C299 248 401 440 501 634 L501 660 L103 660 L103 633 L103 633 Z " />
<glyph glyph-name="zdot" unicode="&#x17c;" horiz-adv-x="440" d="M227 583 C273 583 287 597 287 643 C287 689 273 703 227 703 C181 703 167 689 167 643 C167 597 181 583 227 583 L227 583 Z M86 454 C86 444 85 437 84 428 C83 428 79 374 78 368 L95 368 L131 405 L251 405 C192 276 132 148 74 18 L74 0 L363 0 L363 84 L346 84 L313 45 L173 45 C234 178 294 311 355 444 L355 450 L134 450 L94 454 L86 454 L86 454 Z " />
<glyph glyph-name="Zcaron" unicode="&#x17d;" horiz-adv-x="606" d="M458 867 L457 867 L458 868 L458 867 L458 867 Z M303 710 L304 711 L332 711 L333 710 L457 867 L446 867 L319 785 L195 867 L183 867 L303 710 L303 710 Z M103 633 L102 633 C102 605 102 587 103 559 L121 559 L182 605 L396 605 C295 412 195 218 92 25 L92 0 L516 0 L516 55 L513 55 C513 71 513 85 512 105 L494 105 L433 55 L198 55 C299 248 401 440 501 634 L501 660 L103 660 L103 633 L103 633 Z " />
<glyph glyph-name="zcaron" unicode="&#x17e;" horiz-adv-x="440" d="M237 535 L362 710 L350 710 L222 619 L99 710 L87 710 L207 535 L237 535 L237 535 Z M86 454 C86 444 85 437 84 428 C83 428 79 374 78 368 L95 368 L131 405 L251 405 C192 276 132 148 74 18 L74 0 L363 0 L363 84 L346 84 L313 45 L173 45 C234 178 294 311 355 444 L355 450 L134 450 L94 454 L86 454 L86 454 Z " />
<glyph glyph-name="oogonek" unicode="&#x1eb;" horiz-adv-x="717" d="M708 -122 L708 -109 C697 -115 684 -117 649 -117 C595 -117 542 -33 480 0 C606 26 647 105 647 282 C647 508 581 576 359 576 C136 576 70 509 70 283 C70 49 146 -14 383 -8 C457 -52 520 -144 593 -144 C649 -144 675 -138 707 -120 L708 -122 L708 -122 Z M155 315 C155 483 198 533 341 533 C509 533 559 468 559 251 C559 86 517 37 376 37 C206 37 155 101 155 315 L155 315 Z " />
<glyph glyph-name="G_sc" unicode="&#x262;" horiz-adv-x="639" d="M550 434 L549 528 L528 502 L528 502 L549 528 C506 564 464 575 368 575 C139 575 70 504 70 267 C70 54 135 -10 351 -10 C461 -10 510 9 564 74 L564 193 L592 229 L592 248 L452 248 L452 229 L483 193 L483 61 L484 61 C461 47 430 43 376 43 C205 43 154 101 154 294 C154 476 203 530 368 530 C408 530 435 524 465 505 C465 505 477 495 479 493 C499 470 512 457 532 434 L550 434 L550 434 Z " />
<glyph glyph-name="I_sc" unicode="&#x26a;" horiz-adv-x="279" d="M209 0 L209 19 L180 55 L180 510 L209 546 L209 565 L70 565 L70 546 L99 510 L99 55 L70 19 L70 0 L209 0 L209 0 Z " />
<glyph glyph-name="N_sc" unicode="&#x274;" horiz-adv-x="614" d="M64 546 L92 510 L92 55 L63 19 L63 0 L192 0 L192 19 L155 55 L155 430 C268 285 380 139 494 -5 L525 -5 L525 510 L553 546 L553 565 L425 565 L425 546 L462 510 L462 168 L155 565 L64 565 L64 546 L64 546 Z " />
<glyph glyph-name="R_sc" unicode="&#x280;" horiz-adv-x="501" d="M490 18 C477 29 464 40 451 51 L316 261 C387 278 411 322 411 412 C411 531 373 566 244 566 L66 566 L66 547 L95 511 L95 56 L66 20 L66 1 L204 1 L204 20 L176 56 L176 252 L219 252 C222 252 225 252 228 252 L389 1 L492 1 L490 18 L490 18 Z M177 301 L177 517 C200 517 224 517 225 516 C301 516 324 490 324 404 C324 325 304 301 238 301 L177 301 L177 301 Z " />
<glyph glyph-name="Y_sc" unicode="&#x28f;" horiz-adv-x="593" d="M169 565 L40 565 L40 547 L79 515 L263 266 L263 55 L230 19 L230 0 L377 0 L377 19 L344 55 L344 269 C403 354 461 440 520 525 L552 551 L552 565 L445 565 L445 546 L449 510 L449 510 L318 319 L172 509 C172 508 173 508 173 510 L169 546 L169 565 L169 565 Z " />
<glyph glyph-name="B_sc" unicode="&#x299;" horiz-adv-x="482" d="M344 310 C391 332 408 370 408 432 C408 534 383 565 243 565 L65 565 L65 546 L94 510 L94 55 L65 19 L65 0 L233 0 C386 0 432 42 432 184 C432 256 416 293 344 309 L344 310 L344 310 Z M175 319 L175 515 C197 515 221 515 222 514 C308 514 324 490 324 409 C324 340 290 319 175 319 L175 319 Z M175 49 L175 269 L238 269 C330 269 347 247 347 175 C347 78 321 49 233 49 L175 49 L175 49 Z " />
<glyph glyph-name="H_sc" unicode="&#x29c;" horiz-adv-x="618" d="M553 0 L553 19 L524 55 L524 510 L553 546 L553 565 L414 565 L414 546 L443 510 L443 316 L175 316 L175 510 L204 546 L204 565 L65 565 L65 546 L94 510 L94 55 L65 19 L65 0 L204 0 L204 19 L175 55 L175 266 L443 266 L443 55 L414 19 L414 0 L553 0 L553 0 Z " />
<glyph glyph-name="L_sc" unicode="&#x29f;" horiz-adv-x="491" d="M419 50 C418 70 417 87 416 111 L398 111 L338 50 L174 50 L174 510 L205 546 L205 565 L64 565 L64 546 L93 510 L93 55 L64 19 L64 0 L420 0 L420 50 L419 50 L419 50 Z " />
<glyph glyph-name="circumflex" unicode="&#x2c6;" horiz-adv-x="290" d="M285 530 L160 705 L130 705 L10 530 L22 530 L146 621 L273 530 L285 530 L285 530 Z " />
<glyph glyph-name="caron" unicode="&#x2c7;" horiz-adv-x="290" d="M160 535 L285 710 L273 710 L146 619 L22 710 L10 710 L130 535 L160 535 L160 535 Z " />
<glyph glyph-name="firsttonechinese" unicode="&#x2c9;" horiz-adv-x="290" d="M32 530 L258 530 L258 580 L32 580 L32 530 L32 530 Z " />
<glyph glyph-name="breve" unicode="&#x2d8;" horiz-adv-x="290" d="M35 727 L21 727 C61 573 70 560 145 560 C220 560 229 573 269 727 L255 727 C231 635 223 627 145 627 C67 627 59 635 35 727 L35 727 Z " />
<glyph glyph-name="dotaccent" unicode="&#x2d9;" horiz-adv-x="290" d="M145 610 C184 610 195 622 195 660 C195 699 184 710 145 710 C107 710 95 699 95 660 C95 622 107 610 145 610 L145 610 Z " />
<glyph glyph-name="ring" unicode="&#x2da;" horiz-adv-x="290" d="M109 620 C109 660 117 672 143 672 C172 672 181 657 181 606 C181 570 171 554 149 554 C121 554 109 574 109 620 L109 620 Z M60 613 C60 555 86 530 145 530 C204 530 230 556 230 615 C230 677 210 696 145 696 C80 696 60 677 60 613 L60 613 Z " />
<glyph glyph-name="A_sc" unicode="&#x1d00;" horiz-adv-x="600" d="M145 18 L128 50 L126 50 C137 81 154 127 179 191 L179 184 L390 184 L390 185 L444 50 L424 18 L424 0 L548 0 L548 0 L561 0 L561 16 L530 45 L528 45 C474 176 325 548 325 548 L316 570 L276 570 C269 554 262 538 256 522 C151 261 94 119 67 52 L67 52 L30 20 L30 2 L145 2 L145 18 L145 18 Z M372 235 L196 235 C219 295 248 368 283 456 L372 235 L372 235 Z " />
<glyph glyph-name="C_sc" unicode="&#x1d04;" horiz-adv-x="628" d="M530 434 L529 528 L508 502 L508 502 L529 528 C486 564 447 575 358 575 C136 575 70 504 70 267 C70 54 134 -10 348 -10 C439 -10 483 2 538 40 L519 66 L519 66 L537 40 L540 128 L524 128 C505 108 493 97 474 77 C471 74 459 65 459 65 C420 43 390 36 348 36 C199 36 154 96 154 295 C154 477 201 531 358 531 C393 531 418 525 448 506 C452 503 455 501 459 496 C479 473 492 459 512 436 L530 434 L530 434 Z " />
<glyph glyph-name="D_sc" unicode="&#x1d05;" horiz-adv-x="634" d="M274 0 C497 8 564 56 564 307 C564 526 494 565 260 565 L65 565 L65 546 L94 510 L94 55 L65 19 L65 0 L274 0 L274 0 Z M175 50 L175 516 L237 516 C424 516 480 479 480 276 C480 90 432 55 272 49 C272 49 268 50 175 50 L175 50 Z " />
<glyph glyph-name="E_sc" unicode="&#x1d07;" horiz-adv-x="511" d="M439 50 C439 65 439 78 438 96 L421 96 L364 50 L175 50 L175 266 L266 266 L308 237 L331 237 L331 345 L308 345 L266 316 L175 316 L175 516 L339 516 L396 474 L413 474 C414 491 414 503 414 516 L416 516 L416 565 L65 565 L65 546 L94 510 L94 55 L65 19 L65 0 L441 0 L441 50 L439 50 L439 50 Z " />
<glyph glyph-name="J_sc" unicode="&#x1d0a;" horiz-adv-x="279" d="M99 510 L99 50 C99 -72 88 -108 51 -108 C51 -108 29 -106 6 -100 L0 -100 C0 -100 -9 -146 -9 -150 C-9 -168 -2 -173 21 -173 C143 -173 180 -82 180 224 L180 510 L209 546 L209 565 L70 565 L70 546 L99 510 L99 510 Z " />
<glyph glyph-name="K_sc" unicode="&#x1d0b;" horiz-adv-x="597" d="M493 565 L367 565 L367 547 L369 515 L177 289 L445 0 L556 0 L556 14 L517 40 L517 40 L250 318 C318 387 386 456 454 525 L494 551 L493 565 L493 565 Z M206 0 L206 19 L177 55 L177 510 L206 546 L206 565 L67 565 L67 546 L96 510 L96 55 L67 19 L67 0 L206 0 L206 0 Z " />
<glyph glyph-name="M_sc" unicode="&#x1d0d;" horiz-adv-x="777" d="M79 546 L110 510 C104 358 98 206 91 55 L60 19 L60 0 L174 0 L174 19 L145 55 L145 55 L158 459 L358 -5 L399 -5 L596 451 L614 54 L587 19 L587 0 L717 0 L717 19 L690 55 L690 55 L670 510 L700 546 L700 565 L592 565 L398 104 L199 565 L80 565 L79 546 L79 546 Z " />
<glyph glyph-name="O_sc" unicode="&#x1d0f;" horiz-adv-x="717" d="M156 313 C156 481 199 531 342 531 C510 531 560 466 560 249 C560 84 518 35 377 35 C207 35 156 99 156 313 L156 313 Z M70 282 C70 57 136 -10 359 -10 C581 -10 647 57 647 281 C647 507 581 575 359 575 C136 575 70 508 70 282 L70 282 Z " />
<glyph glyph-name="P_sc" unicode="&#x1d18;" horiz-adv-x="479" d="M210 0 L210 19 L175 55 L175 251 L218 251 C365 251 409 288 409 411 C409 530 371 565 243 565 L65 565 L65 546 L94 510 L94 55 L65 19 L65 0 L210 0 L210 0 Z M175 300 L175 516 C198 516 222 516 223 515 C300 515 323 489 323 403 C323 324 303 300 236 300 L175 300 L175 300 Z " />
<glyph glyph-name="T_sc" unicode="&#x1d1b;" horiz-adv-x="587" d="M44 541 L43 541 C44 511 44 493 45 463 L63 463 L124 516 L253 516 L253 55 L216 19 L216 0 L371 0 L371 19 L334 55 L334 516 L460 516 L521 463 L539 463 C540 484 540 499 540 516 L542 516 L542 565 L44 565 L44 541 L44 541 Z " />
<glyph glyph-name="U_sc" unicode="&#x1d1c;" horiz-adv-x="621" d="M96 510 L96 200 C96 38 146 -10 312 -10 C478 -10 527 38 527 200 L527 510 L556 546 L556 565 L427 565 L427 546 L464 510 L464 181 C464 74 435 42 336 42 C214 42 177 82 177 215 L177 510 L206 546 L206 565 L67 565 L67 546 L96 510 L96 510 Z " />
<glyph glyph-name="V_sc" unicode="&#x1d20;" horiz-adv-x="591" d="M175 565 L38 565 L38 547 L70 515 L70 515 C137 342 203 168 270 -5 L309 -5 C382 172 454 349 527 525 L554 551 L554 565 L446 565 L446 546 L461 510 L305 118 C255 249 205 380 156 511 L175 547 L175 565 L175 565 Z " />
<glyph glyph-name="W_sc" unicode="&#x1d21;" horiz-adv-x="820" d="M158 565 L19 565 L19 547 L49 516 C103 342 157 168 211 -6 L241 -6 C297 138 353 282 409 426 C462 282 514 138 568 -5 L597 -5 L603 13 C659 184 715 355 771 525 L800 551 L800 565 L685 565 L685 546 L705 510 L593 148 C540 289 487 430 433 571 L402 571 C351 430 298 290 246 149 C209 270 172 391 135 512 L158 548 L158 565 L158 565 Z " />
<glyph glyph-name="Z_sc" unicode="&#x1d22;" horiz-adv-x="558" d="M104 541 L103 541 C104 514 104 497 105 470 L123 470 L184 516 L357 516 L108 50 L93 23 L93 0 L468 0 L468 50 L466 50 C466 66 466 80 465 100 L447 100 L386 50 L189 50 C277 215 365 380 453 544 L453 565 L104 565 L104 541 L104 541 Z " />
<glyph glyph-name="Etilde" unicode="&#x1ebc;" horiz-adv-x="559" d="M157 705 C173 755 174 770 205 770 C253 770 281 705 329 705 C380 705 383 734 414 830 L401 830 C384 778 383 763 353 763 C305 763 277 828 229 828 C177 828 175 800 144 705 L157 705 L157 705 Z M487 55 C487 70 487 84 486 102 L469 102 L412 56 L184 56 L184 314 L314 314 L356 285 L379 285 L379 398 L356 398 L314 369 L184 369 L184 606 L387 606 L444 564 L461 564 C462 580 462 592 462 605 L464 605 L464 660 L65 660 L65 641 L94 605 L94 55 L65 19 L65 0 L489 0 L489 55 L487 55 L487 55 Z " />
<glyph glyph-name="endash" unicode="&#x2013;" horiz-adv-x="460" d="M50 242 L410 242 L410 292 L50 292 L50 242 L50 242 Z " />
<glyph glyph-name="emdash" unicode="&#x2014;" horiz-adv-x="960" d="M50 242 L910 242 L910 292 L50 292 L50 242 L50 242 Z " />
<glyph glyph-name="quoteleft" unicode="&#x2018;" horiz-adv-x="252" d="M163 584 C127 597 116 616 116 666 C116 701 135 716 200 730 L200 750 C89 726 56 696 56 621 C56 541 73 510 129 490 C157 481 172 476 182 505 L200 553 L200 565 L163 584 L163 584 Z " />
<glyph glyph-name="quoteright" unicode="&#x2019;" horiz-adv-x="252" d="M93 656 C129 643 140 624 140 574 C140 539 121 524 56 510 L56 490 C167 514 200 544 200 619 C200 699 183 730 127 750 C99 759 84 764 74 735 L56 687 L56 675 L93 656 L93 656 Z " />
<glyph glyph-name="quotedblleft" unicode="&#x201c;" horiz-adv-x="450" d="M163 584 C127 597 116 616 116 666 C116 701 135 730 200 730 L200 750 C89 750 56 696 56 621 C56 541 73 510 129 490 C157 481 172 476 182 505 L200 553 L200 565 L163 584 L163 584 Z M361 584 C325 597 314 616 314 666 C314 701 333 730 398 730 L398 750 C287 750 254 696 254 621 C254 541 271 510 327 490 C355 481 370 476 380 505 L398 553 L398 565 L361 584 L361 584 Z " />
<glyph glyph-name="quotedblright" unicode="&#x201d;" horiz-adv-x="450" d="M291 656 C327 643 338 624 338 574 C338 539 319 524 254 510 L254 490 C365 514 398 544 398 619 C398 699 381 730 325 750 C297 759 282 764 272 735 L254 687 L254 675 L291 656 L291 656 Z M93 656 C129 643 140 624 140 574 C140 539 121 524 56 510 L56 490 C167 514 200 544 200 619 C200 699 183 730 127 750 C99 759 84 764 74 735 L56 687 L56 675 L93 656 L93 656 Z " />
<glyph glyph-name="bullet" unicode="&#x2022;" horiz-adv-x="500" d="M250 150 C342 150 370 178 370 270 C370 362 342 390 250 390 C158 390 130 362 130 270 C130 178 158 150 250 150 L250 150 Z " />
<glyph glyph-name="ellipsis" unicode="&#x2026;" horiz-adv-x="650" d="M525 -10 C571 -10 585 4 585 50 C585 96 571 110 525 110 C479 110 465 96 465 50 C465 4 479 -10 525 -10 L525 -10 Z M325 -10 C371 -10 385 4 385 50 C385 96 371 110 325 110 C279 110 265 96 265 50 C265 4 279 -10 325 -10 L325 -10 Z M125 -10 C171 -10 185 4 185 50 C185 96 171 110 125 110 C79 110 65 96 65 50 C65 4 79 -10 125 -10 L125 -10 Z " />
<glyph glyph-name="perthousand" unicode="&#x2030;" horiz-adv-x="1070" d="M855 208 C855 334 867 371 907 371 C966 371 983 326 983 176 C983 53 969 16 924 16 C871 16 855 60 855 208 L855 208 Z M776 193 C776 37 808 -10 917 -10 C1026 -10 1058 39 1058 204 C1058 351 1026 395 917 395 C808 395 776 349 776 193 L776 193 Z M109 569 C109 698 121 736 161 736 C220 736 237 690 237 537 C237 417 223 381 178 381 C125 381 109 424 109 569 L109 569 Z M30 554 C30 401 62 355 171 355 C280 355 312 403 312 564 C312 715 280 760 171 760 C62 760 30 713 30 554 L30 554 Z M530 208 C530 334 543 371 587 371 C653 371 673 326 673 176 C673 53 657 16 605 16 C547 16 530 60 530 208 L530 208 Z M451 193 C451 37 485 -10 598 -10 C714 -10 748 39 748 203 C748 351 714 395 598 395 C485 395 451 349 451 193 L451 193 Z M190 -11 L635 739 L598 761 L153 11 L190 -11 L190 -11 Z " />
<glyph glyph-name="guilsinglleft" unicode="&#x2039;" horiz-adv-x="218" d="M188 425 L18 248 L188 70 L198 70 L107 248 L198 425 L188 425 L188 425 Z " />
<glyph glyph-name="guilsinglright" unicode="&#x203a;" horiz-adv-x="217" d="M20 425 L108 248 L20 70 L30 70 L197 248 L30 425 L20 425 L20 425 Z " />
<glyph glyph-name="fraction" unicode="&#x2044;" horiz-adv-x="469" d="M48 -11 L493 739 L457 761 L12 11 L48 -11 L48 -11 Z " />
<glyph glyph-name="Euro" unicode="&#x20ac;" horiz-adv-x="459" d="M435 98 C411 63 389 52 339 52 C221 52 190 97 182 237 L330 237 L330 281 L181 281 C180 312 180 353 180 387 L330 387 L330 431 L181 431 C187 586 213 635 278 635 C306 635 321 623 343 584 C355 584 374 539 374 539 L381 539 C398 539 426 565 426 565 C433 569 435 573 435 584 C435 586 432 591 423 608 C397 656 371 670 309 670 C162 670 102 612 87 431 L9 431 L9 387 L84 387 C83 355 83 315 83 281 L9 281 L9 237 L84 237 C89 49 121 -10 287 -10 C359 -10 393 9 437 74 L437 98 L435 98 L435 98 Z " />
<glyph glyph-name="F_sc" unicode="&#xa730;" horiz-adv-x="476" d="M266 266 L308 237 L331 237 L331 345 L308 345 L266 316 L175 316 L175 516 L329 516 L386 474 L403 474 C404 491 404 503 404 516 L406 516 L406 565 L65 565 L65 546 L94 510 L94 55 L65 19 L65 0 L210 0 L210 19 L175 55 L175 266 L266 266 L266 266 Z " />
<glyph glyph-name="S_sc" unicode="&#xa731;" horiz-adv-x="435" d="M269 517 L269 517 C280 509 286 503 294 489 C306 468 314 456 326 435 C330 435 332 436 336 436 L347 436 L344 531 L326 506 L326 506 L344 531 C315 565 289 575 227 575 C118 575 85 539 85 419 C85 340 102 323 196 266 C286 211 302 197 302 140 C302 57 285 32 228 32 C198 32 175 41 139 68 C140 69 131 72 126 83 C112 109 104 125 90 151 L69 151 L71 36 C112 1 149 -10 229 -10 C346 -10 381 29 381 161 C381 246 362 265 260 327 C180 375 166 389 166 448 C166 513 179 532 221 532 C240 532 255 528 270 517 L269 517 L269 517 Z " />
<glyph glyph-name="X_sc" unicode="&#xf078;" horiz-adv-x="605" d="M191 565 L50 565 L50 547 L87 516 L258 276 L88 50 L48 19 L48 1 L146 1 L146 20 L139 56 L281 245 L416 55 L415 19 L415 0 L562 0 L562 16 L526 45 L333 309 C386 379 438 450 491 520 L527 549 L527 565 L436 565 L436 546 L439 510 L439 510 L312 339 L187 511 L191 547 L191 565 L191 565 Z " />
</font>
</svg>
