<?xml version="1.0" encoding="UTF-8"?>
<svg xmlns="http://www.w3.org/2000/svg" xmlns:xlink="http://www.w3.org/1999/xlink" version="1.2" >
<font id="Iffat Round">
<font-face  font-family="Iffat" units-per-em="1024" ascent="975" descent="-300" font-style="normal" font-weight="400" font-stretch="normal" cap-height="924" x-height="488" underline-position="-125" underline-thickness="50" />
<missing-glyph  horiz-adv-x="100" d="" />
<glyph glyph-name="NULL" d="" />
<glyph glyph-name="CR" unicode="&#xd;" horiz-adv-x="256" d="" />
<glyph glyph-name="space" unicode="&#x20;" horiz-adv-x="238" d="" />
<glyph glyph-name="exclam" unicode="&#x21;" horiz-adv-x="245" d="M125 -10 C171 -10 185 4 185 50 C185 96 171 110 125 110 C79 110 65 96 65 50 C65 4 79 -10 125 -10 L125 -10 Z M75.242 605.25 L114.047 199.954 C114.571 194.485 119.505 190 125 190 C130.495 190 135.429 194.485 135.953 199.954 L174.758 605.25 C177.638 635.333 155.22 660 125 660 C94.7798 660 72.3617 635.333 75.242 605.25 L75.242 605.25 Z " />
<glyph glyph-name="quotedbl" unicode="&#x22;" horiz-adv-x="450" d="M286.239 695.435 L313.614 499.903 C314.371 494.49 319.534 490 325 490 C330.466 490 335.629 494.49 336.386 499.903 L363.761 695.435 C367.171 719.796 349.599 740 325 740 C300.401 740 282.829 719.796 286.239 695.435 L286.239 695.435 Z M86.2392 695.435 L113.614 499.903 C114.371 494.49 119.534 490 125 490 C130.466 490 135.629 494.49 136.386 499.903 L163.761 695.435 C167.171 719.796 149.599 740 125 740 C100.401 740 82.8286 719.796 86.2392 695.435 L86.2392 695.435 Z " />
<glyph glyph-name="numbersign" unicode="&#x23;" horiz-adv-x="446" d="M116.009 364.537 L99.1295 292.332 C93.6851 269.042 68.4178 249 44.5 249 L23.5 249 C10.5287 249 0 238.471 0 225.5 C0 212.529 10.5287 202 23.5 202 L39 202 C59.9668 202 73.9133 184.436 69.1618 164.015 L36.6655 24.3496 C33.6197 11.259 42.5598 0 56 0 C69.4402 0 83.6197 11.259 86.6655 24.3496 L116.944 154.484 C122.888 180.029 150.558 202 176.786 202 L193 202 C227.945 202 251.189 172.727 243.27 138.691 L216.665 24.3496 C213.62 11.259 222.56 0 236 0 C249.44 0 263.62 11.259 266.665 24.3496 L297.575 157.197 C303.18 181.283 329.27 202 354 202 L376.5 202 C389.471 202 400 212.529 400 225.5 C400 238.471 389.471 249 376.5 249 L359.5 249 C337.732 249 323.264 267.24 328.219 288.437 L344.643 358.694 C350.21 382.508 376.045 403 400.5 403 L422.5 403 C435.471 403 446 413.529 446 426.5 C446 439.471 435.471 450 422.5 450 L406 450 C384.499 450 370.203 468.015 375.089 488.954 L409.319 635.654 C412.373 648.741 403.438 660 390 660 C376.562 660 362.373 648.741 359.319 635.654 L327.078 497.479 C321.123 471.958 293.453 450 267.246 450 L251 450 C216.06 450 192.831 479.274 200.77 513.3 L229.319 635.654 C232.373 648.741 223.438 660 210 660 C196.562 660 182.373 648.741 179.319 635.654 L146.225 493.823 C140.729 470.267 115.189 450 91 450 L69.5 450 C56.5287 450 46 439.471 46 426.5 C46 413.529 56.5287 403 69.5 403 L85.5 403 C106.73 403 120.841 385.21 116.009 364.537 L116.009 364.537 Z M223.734 403 L240 403 C274.936 403 298.157 373.725 290.204 339.706 L280.093 296.454 C274.131 270.949 246.46 249 220.266 249 L204 249 C169.064 249 145.843 278.275 153.796 312.294 L163.907 355.546 C169.869 381.051 197.54 403 223.734 403 L223.734 403 Z " />
<glyph glyph-name="dollar" unicode="&#x24;" horiz-adv-x="460" d="M262 718.905 L262 677 C262 673.143 259.092 670.003 255.235 669.996 C245.292 669.979 234.708 669.888 224.765 669.403 C220.987 669.218 218 672.235 218 676.018 L218 718.5 C218 729.815 208.815 739 197.5 739 C186.185 739 177 729.815 177 718.5 L177 702 C177 685.719 154.408 661.65 138.905 656.676 C74.675 636.07 53 586.6 53 488 C53 400.5 67.5469 372.719 141.525 332.305 C157.019 323.841 177 293.52 177 275.866 L177 60.9659 C177 46.828 169.737 39.3956 157.009 45.551 C129.529 58.8412 120 86.85 120 138 L120 165 C118 165 115 169 115 169 L87 169 C57 169 48 162 48 138 C48 48.75 71.7344 7.73438 143.32 -6.48438 C160.11 -9.81927 177 -29.3821 177 -46.5 L177 -61.5 C177 -72.8154 186.185 -82 197.5 -82 C208.815 -82 218 -72.8154 218 -61.5 L218 -20 C218 -15.5906 220.723 -12.0029 225.132 -11.9966 C236.123 -11.9809 246.623 -11.8916 256.632 -11.3859 C260.416 -11.1947 263 -14.229 263 -18.0178 L263 -61.5 C263 -72.8154 272.185 -82 283.5 -82 C294.815 -82 304 -72.8154 304 -61.5 L304 -43.5 C304 -28.5615 328.645 0.899589 342.147 7.29069 C394.623 32.1294 413 84.125 413 179 C413 250.75 399.219 290.344 334.811 333.287 C322.247 341.664 304 372.898 304 387.998 L304 594 C304 598.829 307.402 601.535 310.598 597.915 C321.68 585.361 326 566 326 538 L326 512 C326 512 329 508 331 508 L359 508 C389 508 398 515 398 538 C398 604 382.346 638.691 336.999 654.427 C322.539 659.445 304 682.545 304 697.85 L304 714.905 C304 726.496 294.539 736.901 283 738 C271.461 739.099 262 730.496 262 718.905 L262 718.905 Z M253.926 377.27 C243.57 382.151 234.025 386.7 225.289 391.176 C221.986 392.868 218 398.671 218 402.382 L218 610.982 C218 614.953 220.925 618.218 224.891 618.399 C235.164 618.867 246.57 618.867 255.906 618.399 C259.332 618.227 262.011 615.409 262.025 611.979 L262.962 382.394 C262.981 377.71 258.163 375.273 253.926 377.27 L253.926 377.27 Z M164.154 434.371 C146.764 454.454 142 478.4 142 518 C142 560.075 148.126 585.815 164.869 600.835 C171.024 606.357 177 602.735 177 594.466 L177 440.118 C177 431.817 169.588 428.096 164.154 434.371 L164.154 434.371 Z M227.068 287.184 C237.403 281.667 246.853 276.482 255.163 271.37 C258.178 269.515 262 263.329 262 259.789 L262 43.5765 C262 39.8701 259.693 36.6272 256.015 36.1675 C246.495 34.9775 235.995 34.2775 224.515 34.0675 C219.739 33.9801 217.014 37.7228 217.033 42.4999 L217.963 282.382 C217.981 287.093 222.912 289.403 227.068 287.184 L227.068 287.184 Z M313.011 221.821 C327.916 200.944 332 178.875 332 150 C332 109.575 326.555 82.0819 312.296 64.1515 C308.115 58.8944 302 61.1846 302 67.9014 L302 217.672 C302 224.652 308.955 227.502 313.011 221.821 L313.011 221.821 Z " />
<glyph glyph-name="percent" unicode="&#x25;" horiz-adv-x="760" d="M109 569 C109 698 121 736 161 736 C220 736 237 690 237 537 C237 417 223 381 178 381 C125 381 109 424 109 569 L109 569 Z M30 554 C30 401 62 355 171 355 C280 355 312 403 312 564 C312 715 280 760 171 760 C62 760 30 713 30 554 L30 554 Z M530 208 C530 334 543 371 587 371 C653 371 673 326 673 176 C673 53 657 16 605 16 C547 16 530 60 530 208 L530 208 Z M451 193 C451 37 485 -10 598 -10 C714 -10 748 39 748 203 C748 351 714 395 598 395 C485 395 451 349 451 193 L451 193 Z M200.983 7.51025 L624.017 720.49 C630.079 730.707 626.711 743.928 616.5 750 C606.289 756.072 593.079 752.707 587.017 742.49 L163.983 29.5102 C157.921 19.2932 161.289 6.07167 171.5 0 C181.711 -6.07167 194.921 -2.70685 200.983 7.51025 L200.983 7.51025 Z " />
<glyph glyph-name="ampersand" unicode="&#x26;" horiz-adv-x="609" d="M507.062 444.476 L491 420 C398.375 280.575 397.961 277.089 492.537 409.543 C492.783 409.887 505.221 421.905 505.566 422.148 C519.156 431.719 536 470 536 470 C536 470 528.322 470 524 470 L521 470 C516.032 470 512 465.968 512 461 C512 458.274 508.557 446.754 507.062 444.476 L507.062 444.476 Z M526.171 441.371 C493.305 344.883 470.395 270.212 448.597 213.17 C441.974 195.84 424.252 194.057 411.305 207.345 L286.58 335.352 C266.554 355.905 269.713 389.002 293.842 404.532 C359.539 446.816 382 485.9 382 542 C382 640 350 669 241 669 C115 669 77 632 77 509 C77 438.05 87.89 409.299 119.216 373.894 C130.36 361.299 129.259 343.878 114.424 335.956 C10.4438 280.434 19 250.025 19 164 C19 30 59 -10 194 -10 C293 -10 354.566 4.29312 398.911 39.6176 C411.469 49.6202 438.621 51.1661 449.885 39.7265 L470.949 18.3334 C478.049 11.1226 504.609 0 514.729 0 L611 0 C615.968 0 620 4.03227 620 9 C620 13.3132 615.931 20.3253 612.186 22.4653 L571.436 45.7509 C570.314 46.3923 558.914 55.1968 558.01 56.1207 L498.455 116.97 C485.825 129.875 479.163 160.084 485.751 176.896 C510.726 240.634 535.122 323.463 570.732 429.314 C572.122 433.448 580.791 443.204 584.5 445.5 L587.348 447.263 C590.939 449.486 595 456.776 595 461 C595 465.968 590.968 470 586 470 L565.5 470 C550.006 470 531.167 456.038 526.171 441.371 L526.171 441.371 Z M176 316 L187 305 L370.777 120.309 C382.027 109.003 382.249 95.7602 369.573 86.0784 C338.742 62.5288 298.4 53 239 53 C141 53 112 84 112 189 C112 259.3 107.294 288.958 153.284 319.92 C160.794 324.976 169.598 322.402 176 316 L176 316 Z M198.664 425.888 C173.32 453.44 165 472.8 165 528 C165 607 181 631 234 631 C283 631 297 610 297 540 C297 486.45 283.272 450.962 244.149 419.413 C228.868 407.09 211.954 411.44 198.664 425.888 L198.664 425.888 Z " />
<glyph glyph-name="quotesingle" unicode="&#x27;" horiz-adv-x="250" d="M86.2392 695.435 L113.614 499.903 C114.371 494.49 119.534 490 125 490 C130.466 490 135.629 494.49 136.386 499.903 L163.761 695.435 C167.171 719.796 149.599 740 125 740 C100.401 740 82.8286 719.796 86.2392 695.435 L86.2392 695.435 Z " />
<glyph glyph-name="parenleft" unicode="&#x28;" horiz-adv-x="236" d="M197.305 728.869 C86.2719 586.622 53 537.775 53 295 C53 52.225 86.2719 3.3775 197.305 -138.869 C200.654 -143.159 213.057 -150 218.5 -150 C223.939 -150 228.076 -146.254 224.735 -141.962 C144.716 -39.1812 120 -0.425 120 295 C120 590.425 144.716 629.181 224.735 731.962 C228.076 736.254 223.939 740 218.5 740 C213.057 740 200.654 733.159 197.305 728.869 L197.305 728.869 Z " />
<glyph glyph-name="parenright" unicode="&#x29;" horiz-adv-x="236" d="M63.6951 -138.869 C174.728 3.3775 208 52.225 208 295 C208 537.775 174.728 586.622 63.6951 728.869 C60.3462 733.159 47.9427 740 42.5 740 C37.0613 740 32.9238 736.254 36.2649 731.962 C116.284 629.181 141 590.425 141 295 C141 -0.425 116.284 -39.1812 36.2649 -141.962 C32.9238 -146.254 37.0613 -150 42.5 -150 C47.9427 -150 60.3462 -143.159 63.6951 -138.869 L63.6951 -138.869 Z " />
<glyph glyph-name="asterisk" unicode="&#x2a;" horiz-adv-x="389" d="M276.577 601.415 L314.55 609.066 C330.683 612.317 339.704 627.888 334.5 643.5 C329.289 659.132 312.693 666.297 297.743 659.369 L263.5 643.5 C234.725 630.165 206.506 650.785 210.469 682.252 L215.252 720.235 C217.304 736.536 205.429 750 189 750 C172.571 750 160.696 736.536 162.748 720.235 L167.5 682.5 C171.468 650.988 143.144 630.368 114.375 643.825 L79.212 660.272 C64.2923 667.25 47.7086 660.126 42.5 644.5 C37.2997 628.899 46.3441 613.391 62.4836 610.236 L99.5 603 C130.675 596.906 141.488 563.643 119.855 540.382 L93.504 512.047 C82.2803 499.979 84.0889 482.079 97.5 472.5 C110.936 462.903 128.595 466.891 136.603 481.33 L155 514.5 C170.418 542.298 205.47 542.236 220.789 514.384 L239.49 480.381 C247.444 465.92 265.07 461.907 278.5 471.5 C291.902 481.073 293.662 498.94 282.386 510.944 L256.5 538.5 C234.69 561.717 245.351 595.123 276.577 601.415 L276.577 601.415 Z " />
<glyph glyph-name="plus" unicode="&#x2b;" horiz-adv-x="510" d="M229 456 L229 358.44 C229 324.527 201.473 297 167.56 297 L65 297 C51.2007 297 40 285.799 40 272 C40 258.201 51.2007 247 65 247 L167.56 247 C201.473 247 229 219.473 229 185.56 L229 78 C229 63.6488 240.649 52 255 52 C269.351 52 281 63.6488 281 78 L281 185.56 C281 219.473 308.527 247 342.44 247 L445 247 C458.799 247 470 258.201 470 272 C470 285.799 458.799 297 445 297 L342.44 297 C308.527 297 281 324.527 281 358.44 L281 456 C281 470.351 269.351 482 255 482 C240.649 482 229 470.351 229 456 L229 456 Z " />
<glyph glyph-name="comma" unicode="&#x2c;" horiz-adv-x="247" d="M90 0 C129 -18 140 -38 140 -87 C140 -132.6 123.755 -155.638 68.9733 -185.263 C64.7947 -187.523 60 -195.25 60 -200 C60 -204.935 63.3702 -208.273 67.7388 -205.977 C166.58 -154.026 197 -115.05 197 -39 C197 38 182 68 132 91 C104 104 99 106 82 77 L55.619 31.5156 C54.565 29.6983 53.8963 24.0123 54.5 22 C55.1029 19.9903 58.7923 15.6038 60.669 14.6655 L90 0 L90 0 Z " />
<glyph glyph-name="hyphen" unicode="&#x2d;" horiz-adv-x="335" d="M85 217 L250 217 C269.319 217 285 232.681 285 252 C285 271.319 269.319 287 250 287 L85 287 C65.681 287 50 271.319 50 252 C50 232.681 65.681 217 85 217 L85 217 Z " />
<glyph glyph-name="period" unicode="&#x2e;" horiz-adv-x="250" d="M125 -10 C171 -10 185 4 185 50 C185 96 171 110 125 110 C79 110 65 96 65 50 C65 4 79 -10 125 -10 L125 -10 Z " />
<glyph glyph-name="slash" unicode="&#x2f;" horiz-adv-x="250" d="M25 -120 C38.4485 -120 52.588 -108.742 55.601 -95.6355 L244.399 725.636 C247.412 738.742 238.448 750 225 750 C211.552 750 197.412 738.742 194.399 725.636 L5.60103 -95.6355 C2.58802 -108.742 11.5515 -120 25 -120 L25 -120 Z " />
<glyph glyph-name="zero" unicode="0" horiz-adv-x="486" d="M128 361 C128 563 151 623 226 623 C332 623 364 550 364 306 C364 100 340 39 259 39 C158 39 128 113 128 361 L128 361 Z M33 330 C33 68 81 -10 243 -10 C405 -10 453 70 453 338 C453 594 405 670 243 670 C81 670 33 592 33 330 L33 330 Z " />
<glyph glyph-name="one" unicode="1" horiz-adv-x="437" d="M342 9 C342 11.9806 338.388 22.8155 336.6 25.2 L330 34 C326.026 39.2989 318 63.3764 318 70 L318 650 C318 655.52 313.52 660 308 660 C304.98 660 292.157 656.181 289.629 654.529 L84.6492 520.573 C77.8805 516.15 70 501.586 70 493.5 C70 484.935 77.9226 480.131 85.5169 484.092 L151.5 518.5 C191.388 539.3 233 514.07 233 469.084 L233 70 C233 63.3764 224.974 39.2989 221 34 L214.4 25.2 C212.612 22.8155 209 11.9806 209 9 C209 4.03227 213.032 0 218 0 L333 0 C337.968 0 342 4.03227 342 9 L342 9 Z " />
<glyph glyph-name="two" unicode="2" horiz-adv-x="440" d="M414 41 C415.793 63.4138 416.782 77.7895 418.409 98.5403 C418.774 103.196 415.17 106 410.5 106 C407.847 106 397.178 102.694 394.99 101.193 L382.704 92.7687 C377.802 89.4072 353.902 82 347.958 82 L261.5 82 C215.294 82 190.332 126.25 218.89 162.574 C389.8 379.96 406 389.5 406 493 C406 629 369 670 247 670 C87 670 39 631 39 499 C39 467 48 457 79 457 L122.085 457 C123.378 457 124.623 456.436 125.328 457.52 C126.16 458.8 128.4 462 130 462 L130 488.5 C130 502.542 143.406 518.8 129.896 514.971 C127.626 514.327 88.5508 503.338 55.9076 499.972 C54.2332 499.799 54.5777 501.739 56.2356 502.03 L89.127 507.814 C107.524 511.048 129.875 539.625 132.608 558.104 C139.84 607 163.2 623 216 623 C288 623 309 593 309 492 C309 298 289 340 49 25 C46.4658 21.6739 49 16.6815 49 12.5 C49 5.60037 54.6004 0 61.5 0 L392.494 0 C403.809 0 413.224 9.18798 413.5 20.5 L414 41 L414 41 Z " />
<glyph glyph-name="three" unicode="3" horiz-adv-x="458" d="M123 120 L123 141.343 C123 143.551 120.561 149.439 119 151 C117.439 152.561 111.551 155 109.343 155 L74.9323 155 C73.9939 155 68.8234 155.198 67.911 154.979 C65.9715 154.513 33 146.206 33 120 C33 20 77 -10 223 -10 C386 -10 435 33 435 175 C435 277.85 419.827 330.125 357.548 352.705 C349.871 355.489 344.666 372.498 351.554 376.885 C394.11 403.994 405 449.225 405 521 C405 636 368 670 243 670 C97 670 54 636 54 524 C54 497 94 489 94 489 C94 489 66.1707 489 100.084 489 L129.343 489 C131.551 489 137.439 491.439 139 493 C140.561 494.561 143 500.449 143 502.657 L143 535 C143 604 161 625 222 625 C289 625 309 599 309 513 C309 418 291 378 205 367 C188.448 366.172 170.527 365.345 151.235 363.95 C144.55 363.467 139 357.661 139 350.958 L139 341 C139 329.077 151.416 319.891 163.321 320.535 C310.925 328.52 338 302.3 338 175 C338 67 311 35 222 35 C145 35 122.5 55 122.5 120 L123 120 Z " />
<glyph glyph-name="four" unicode="4" horiz-adv-x="461" d="M313.95 649.952 C222.3 519.35 130.65 389.675 39 260 L13.5059 221.348 C11.8326 218.811 8 206.039 8 203 C8 197.48 12.4803 193 18 193 L194.56 193 C228.473 193 256 165.473 256 131.56 L256 70 C256 63.3764 247.974 39.2989 244 34 L237.4 25.2 C235.612 22.8155 232 11.9806 232 9 C232 4.03227 236.032 0 241 0 L356 0 C360.968 0 365 4.03227 365 9 C365 11.9806 361.388 22.8155 359.6 25.2 L353 34 C349.026 39.2989 341 63.3764 341 70 L341 139.5 C341 169.03 364.97 193 394.5 193 L414.5 193 C432.991 193 448 208.009 448 226.5 C448 244.991 432.991 260 414.5 260 L394.5 260 C364.97 260 341 283.97 341 313.5 L341 650 C341 655.52 336.52 660 331 660 C326.483 660 316.545 653.649 313.95 649.952 L313.95 649.952 Z M256 377.5 L256 321.44 C256 287.527 228.473 260 194.56 260 L177.5 260 C141.471 260 122.593 295.315 142.608 325.273 L190.727 397.298 C210.741 427.256 256 413.529 256 377.5 L256 377.5 Z " />
<glyph glyph-name="five" unicode="5" horiz-adv-x="460" d="M326.497 660 L147.44 660 C113.527 660 86 632.473 86 598.56 L86 358.124 C86 351.506 91.3854 346.77 97.7912 348.436 C117.636 353.596 136 355 167 355 C303 355 344 318 344 195 C344 75 316 39 221 39 C178 39 157 51 129 91 C125 91 119 108 119 108 C119 108 117.901 108 114 108 L109 108 C95 108 73 81 73 81 C73 81 95.1117 93.3496 65.752 76.376 C57.56 71.64 55 71 55 55 C55 48.7 56.62 44.02 61.318 38.044 C61.3257 38.0342 64.8718 33.4298 64.8793 33.4198 C89.3738 0.456875 116.625 -10 180 -10 C361 -10 415 47 415 236 C415 388 361 433 181 433 C159.409 433 147.514 432.254 138.875 430.762 C136.521 430.356 135 432.221 135 434.61 L135 521.56 C135 555.473 162.527 583 196.44 583 L327.497 583 C348.748 583 365.776 600.251 365.5 621.5 C365.224 642.749 347.748 660 326.497 660 L326.497 660 Z " />
<glyph glyph-name="six" unicode="6" horiz-adv-x="461" d="M361.472 663.887 C112.099 583.902 37 482.6 37 233 C37 46 83 -10 236 -10 C386 -10 431 39 431 201 C431 345 396 388 278 388 C217.775 388 178.649 377.791 151.077 349.511 C146.576 344.894 136.778 349.392 137.489 355.8 C155.277 516.205 218.926 587.795 369.592 637.054 C376.785 639.405 381.761 647.937 381.5 655.5 C381.231 663.311 368.915 666.274 361.472 663.887 L361.472 663.887 Z M134.144 240.791 C149.276 301.987 174.675 321 240 321 C317 321 340 289 340 181 C340 70 316 37 237 37 C159.975 37 135.234 80.7287 133.119 224.725 C133.102 225.839 133.877 239.709 134.144 240.791 L134.144 240.791 Z " />
<glyph glyph-name="seven" unicode="7" horiz-adv-x="460" d="M50 621.5 C50 600.249 67.2492 583 88.5 583 L247.495 583 C296.797 583 325.777 539.634 303.404 495.701 C153.355 201.047 92.8102 71.5766 79.7852 19.2266 C76.5567 6.25084 82.6353 0 96.0066 0 L133 0 C160.607 0 187.944 25.0288 189.984 52.5605 C199.281 178 259.875 329.375 420 640 C421.159 642.248 420 647.471 420 650 C420 655.52 415.52 660 410 660 L88.5 660 C67.2492 660 50 642.751 50 621.5 L50 621.5 Z " />
<glyph glyph-name="eight" unicode="8" horiz-adv-x="453" d="M263 373.5 L253 378 C151 425 143 453 143 531 C143 603 161 624 221 624 C294 624 316 594 316 495 C316 432.9 307.09 395.505 281.98 374.796 C276.971 370.665 268.921 370.835 263 373.5 L263 373.5 Z M346.164 357.605 C389.026 380.22 404 424.275 404 501 C404 630 364 669 232 669 C96 669 55 630 55 499 C55 429.3 60.78 390.668 112.258 351.168 C122.161 343.569 119.28 322.96 108.208 317.195 C59.0156 291.582 42 239.05 42 145 C42 26 85 -10 229 -10 C372 -10 415 32 415 171 C415 244.5 401.984 286.609 343.797 328.145 C334.576 334.727 336.144 352.318 346.164 357.605 L346.164 357.605 Z M188.73 306.181 C197.16 302.09 206.25 297.875 216 293 C314 247 332 216 332 140 C332 58 309 33 234 33 C156 33 133 64 133 169 C133 243.1 144.732 284.71 177.629 305.833 C180.019 307.368 186.174 307.421 188.73 306.181 L188.73 306.181 Z " />
<glyph glyph-name="nine" unicode="9" horiz-adv-x="459" d="M99.5279 -9.96392 C348.901 -8.94687 424 16.525 424 427 C424 614 378 670 225 670 C75 670 30 639 30 465 C30 316 67 272 190 272 C246.925 272 283.431 283.571 310.749 316.819 C315.351 322.42 326.574 326.617 326.298 319.374 C316.096 51.7106 255.76 20.48 92.1335 19.0544 C84.1976 18.9852 79.2265 12.4315 79.5 4.5 C79.777 -3.53258 91.4906 -9.9967 99.5279 -9.96392 L99.5279 -9.96392 Z M324.974 414.442 C305.615 356.05 282.15 338 228 338 C148 338 124 367 124 464 C124 599 147 623 224 623 C301.025 623 325.766 579.271 327.881 435.275 C327.909 433.392 325.566 416.229 324.974 414.442 L324.974 414.442 Z " />
<glyph glyph-name="colon" unicode="&#x3a;" horiz-adv-x="250" d="M125 330 C171 330 185 344 185 390 C185 436 171 450 125 450 C79 450 65 436 65 390 C65 344 79 330 125 330 L125 330 Z M125 -10 C171 -10 185 4 185 50 C185 96 171 110 125 110 C79 110 65 96 65 50 C65 4 79 -10 125 -10 L125 -10 Z " />
<glyph glyph-name="semicolon" unicode="&#x3b;" horiz-adv-x="247" d="M122 330 C168 330 182 344 182 390 C182 436 168 450 122 450 C76 450 62 436 62 390 C62 344 76 330 122 330 L122 330 Z M90 0 C129 -18 140 -38 140 -87 C140 -132.6 123.755 -155.638 68.9733 -185.263 C64.7947 -187.523 60 -195.25 60 -200 C60 -204.935 63.3702 -208.273 67.7388 -205.977 C166.58 -154.026 197 -115.05 197 -39 C197 38 182 68 132 91 C104 104 99 106 82 77 L55.619 31.5156 C54.565 29.6983 53.8963 24.0123 54.5 22 C55.1029 19.9903 58.7923 15.6038 60.669 14.6655 L90 0 L90 0 Z " />
<glyph glyph-name="equal" unicode="&#x3d;" horiz-adv-x="460" d="M40 170 C40 156.201 51.2007 145 65 145 L395 145 C408.799 145 420 156.201 420 170 C420 183.799 408.799 195 395 195 L65 195 C51.2007 195 40 183.799 40 170 L40 170 Z M40 374 C40 360.201 51.2007 349 65 349 L395 349 C408.799 349 420 360.201 420 374 C420 387.799 408.799 399 395 399 L65 399 C51.2007 399 40 387.799 40 374 L40 374 Z " />
<glyph glyph-name="question" unicode="&#x3f;" horiz-adv-x="438" d="M198 -5 C244 -5 258 9 258 55 C258 101 244 115 198 115 C152 115 138 101 138 55 C138 9 152 -5 198 -5 L198 -5 Z M127.9 516.983 C125.711 516.621 88.0266 510.44 56.4003 508.547 C47.0569 507.987 39.5232 502.444 40.9587 493.195 C43.9339 474.025 54.2727 468 78 468 L114.41 468 C117.103 468 118.935 465.952 120.176 468.343 C121.086 470.099 125.333 478 128 478 L128 497.5 C128 508.105 138.363 518.713 127.9 516.983 L127.9 516.983 Z M129.968 560.592 C135.44 610 153.2 626 194 626 C269 626 291 596 291 495 C291 417.6 266.7 381.51 189.669 353.925 C173.927 348.288 161.947 332.717 163.579 316.076 C169.215 258.637 188 190 188 190 C188 190 190.767 190 198 190 C203.443 190 207.079 184.712 208.013 190.074 C208.288 191.657 212.9 218.279 217.239 252.022 C218.568 262.354 228.369 277.839 238.104 281.547 C348.705 323.67 383 379.15 383 496 C383 631 347 671 225 671 C100.75 671 52.2969 642.672 42.125 551.85 C39.1485 525.273 57.3671 510.579 84 513 L86.1725 513.197 C106.408 515.037 127.731 540.397 129.968 560.592 L129.968 560.592 Z " />
<glyph glyph-name="A" unicode="A" horiz-adv-x="598" d="M114.309 25.6973 L109.25 34 C105.122 40.7745 103.165 60.2132 105.802 67.6951 C118.21 102.896 135.451 153.377 159.77 220.822 C160.024 221.528 162 223.751 162 223 C162 220.792 163.792 219.004 166 219.009 L360.627 219.434 C376.259 219.468 396.624 204.261 402.101 189.621 C417.513 148.423 433.175 107.488 447.943 66.815 C450.85 58.8086 448.173 41.1214 443.5 34 L437.938 25.5244 C436.443 23.2457 433 11.7256 433 9 C433 4.03227 437.032 0 442 0 L567 0 L573.5 0 C577.088 0 580 2.91219 580 6.5 L580 8 C580 11.2247 576.513 19.2623 574.158 21.4653 L559.187 35.4705 C556.742 37.7574 545.732 53.3843 544.519 56.5045 C483.656 213.12 323 639 323 639 L318 652 C315.424 658.697 306.247 665 299.072 665 L289.5 665 C277.382 665 261.94 654.367 257.618 643.046 L245 610 C130.05 307.9 66.5425 142.078 36.4726 61.9474 C35.0977 58.2834 23.5206 42.4628 20.5957 39.8628 L2.72668 23.9793 C-0.0483929 21.5125 -4 12.7129 -4 9 C-4 4.03227 0.03227 0 5 0 L108.986 0 C113.954 0 118.224 4.03992 118.5 9 C118.656 11.8164 115.777 23.2886 114.309 25.6973 L114.309 25.6973 Z M281.785 274 L215.336 274 C195.996 274 183.346 288.4 190.108 306.519 C208.889 356.837 230.471 414.126 255.163 479.001 C262.23 497.569 287.043 498.421 293.931 479.786 L339.414 356.742 C355.249 313.904 327.457 274 281.785 274 L281.785 274 Z " />
<glyph glyph-name="B" unicode="B" horiz-adv-x="532" d="M184 429.44 L184 591 C184 598.735 189.84 605.003 197.574 604.996 C220.923 604.974 242.161 604.839 243 604 C346 604 365 575 365 479 C365 406.4 334.372 378.041 247.286 370.338 C210.529 367.087 184 392.539 184 429.44 L184 429.44 Z M406.698 371.541 C443.707 399.019 458 441.3 458 504 C458 624 428 660 265 660 L74.5 660 C69.2563 660 65 655.744 65 650.5 C65 647.21 68.896 636.164 70.9596 633.602 L80.4066 621.875 C85.1136 616.031 94 590.835 94 583.331 L94 76.6686 C94 69.1655 85.1136 43.9686 80.4066 38.1255 L70.9596 26.3982 C68.896 23.8364 65 12.7895 65 9.5 C65 4.25628 69.2563 0 74.5 0 L252 0 C429 0 482 48 482 209 C482 282.5 467.453 325.375 408.213 347.674 C399.767 350.853 399.452 366.161 406.698 371.541 L406.698 371.541 Z M184 89 L184 275.5 C184 296.199 200.801 313 221.5 313 L259 313 C368 313 388 287 388 201 C388 89 357 55 252 55 L218 55 C199.233 55 184 70.233 184 89 L184 89 Z " />
<glyph glyph-name="C" unicode="C" horiz-adv-x="677" d="M568.332 128.332 L525 85 L519.26 79.834 C518.775 79.3973 512.129 74.269 511.568 73.9355 C467.188 47.5556 431.6 39 377 39 C212 39 163 108 163 340 C163 555 215 619 389 619 C433.65 619 462.958 611.78 495.785 590.481 C496.435 590.059 503.939 584.05 504.485 583.5 C523.368 564.45 537.716 548.613 555.406 529.93 C557.765 527.439 567.069 523 570.5 523 C575.192 523 578.962 526.808 578.915 531.5 L578.273 595.665 C578.119 611.08 568.636 631.236 555.461 639.24 C518.793 661.513 473.975 669 389 669 C143 669 70 586 70 309 C70 63 141 -11 377 -11 C468.8 -11 517.25 -3.0525 562.882 22.6685 C577.114 30.6902 587.452 52.3273 587.968 68.6558 L589.747 124.988 C589.887 129.408 586.414 133.224 582 133.5 C578.689 133.707 570.678 130.678 568.332 128.332 L568.332 128.332 Z " />
<glyph glyph-name="D" unicode="D" horiz-adv-x="684" d="M293 0 C540 9 614 65 614 360 C614 614 537 660 278 660 L74.5 660 C69.2563 660 65 655.744 65 650.5 C65 647.21 68.896 636.164 70.9596 633.602 L80.4066 621.875 C85.1136 616.031 94 590.835 94 583.331 L94 76.6686 C94 69.1655 85.1136 43.9686 80.4066 38.1255 L70.9596 26.3982 C68.896 23.8364 65 12.7895 65 9.5 C65 4.25628 69.2563 0 74.5 0 L293 0 L293 0 Z M184 108.5 L184 589 C184 597.824 190.954 604.997 199.779 605.004 C227.001 605.026 252.838 605.162 252 606 C459 606 521 563 521 325 C521 103 468 61 291 55 L237.5 55 C207.97 55 184 78.9696 184 108.5 L184 108.5 Z " />
<glyph glyph-name="E" unicode="E" horiz-adv-x="559" d="M487 55 C487 67.75 487 79.7775 486.386 94.1531 C486.183 98.8967 482.248 102 477.5 102 C474.553 102 464.678 98.5123 462.385 96.6618 L428.886 69.6275 C423.033 64.9036 397.823 56 390.301 56 L245.44 56 C211.527 56 184 83.527 184 117.44 L184 252.56 C184 286.473 211.527 314 245.44 314 L294.849 314 C300.855 314 324.817 306.531 329.759 303.119 L346.537 291.534 C349.505 289.485 363.893 285 367.5 285 C373.848 285 379 290.152 379 296.5 L379 386.5 C379 392.848 373.848 398 367.5 398 C363.893 398 349.505 393.515 346.537 391.466 L329.759 379.881 C324.817 376.469 300.855 369 294.849 369 L245.44 369 C211.527 369 184 396.527 184 430.44 L184 544.56 C184 578.473 211.527 606 245.44 606 L366.809 606 C373.42 606 397.933 597.944 403.255 594.023 L437.157 569.042 C439.398 567.391 449.717 564 452.5 564 L452.984 564 C457.385 564 461.207 567.298 461.495 571.69 C462.306 584.028 463 594.167 463 605 L463.5 632.5 C463.776 647.677 451.675 660 436.495 660 L74.5 660 C69.2563 660 65 655.744 65 650.5 C65 647.21 68.896 636.164 70.9596 633.602 L80.4066 621.875 C85.1136 616.031 94 590.835 94 583.331 L94 76.6686 C94 69.1655 85.1136 43.9686 80.4066 38.1255 L70.9596 26.3982 C68.896 23.8364 65 12.7895 65 9.5 C65 4.25628 69.2563 0 74.5 0 L461.495 0 C476.675 0 488.776 12.3233 488.5 27.5 L488 55 L487 55 Z " />
<glyph glyph-name="F" unicode="F" horiz-adv-x="494" d="M329.973 301.971 L346.537 290.534 C349.505 288.485 363.893 284 367.5 284 C373.848 284 379 289.152 379 295.5 L379 385.5 C379 391.848 373.848 397 367.5 397 C363.893 397 349.505 392.515 346.537 390.466 L329.759 378.881 C324.817 375.469 300.855 368 294.849 368 L245.44 368 C211.527 368 184 395.527 184 429.44 L184 543.56 C184 577.473 211.527 605 245.44 605 L356.809 605 C363.42 605 387.933 596.944 393.255 593.023 L427.157 568.042 C429.398 566.391 439.717 563 442.5 563 L442.984 563 C447.385 563 451.207 566.298 451.495 570.69 C452.306 583.028 453 593.167 453 604 L453.5 631.5 C453.776 646.677 441.675 659 426.495 659 L74.5 659 C69.2563 659 65 654.744 65 649.5 C65 646.21 68.896 635.164 70.9596 632.602 L80.4066 620.875 C85.1136 615.031 94 589.835 94 582.331 L94 75.6686 C94 68.1655 85.1136 42.9686 80.4066 37.1255 L70.9596 25.3982 C68.896 22.8364 65 11.7895 65 8.5 C65 3.25628 69.2563 -1 74.5 -1 L209.5 -1 C214.744 -1 219 3.25628 219 8.5 C219 12.1553 214.926 22.1906 212.378 24.8115 L201.388 36.1154 C194.698 42.9968 184 69.3463 184 78.9439 L184 251.031 C184 284.683 211.316 312.21 244.967 312.469 L294.59 312.851 C300.745 312.898 324.908 305.469 329.973 301.971 L329.973 301.971 Z " />
<glyph glyph-name="G" unicode="G" horiz-adv-x="659" d="M568.905 533.513 L568.273 596.665 C568.117 612.306 558.689 632.228 545.256 640.24 C507.909 662.513 460.575 670 369 670 C116 670 40 587 40 310 C40 64 111 -10 350 -10 C463.4 -10 518.48 5.39 567.728 55.853 C574.463 62.7538 584 86.5492 584 96.1917 L584 213.919 C584 221.063 592.556 246.001 596.942 251.64 L606.168 263.501 C608.144 266.042 612 277.281 612 280.5 C612 285.744 607.744 290 602.5 290 L472.5 290 C467.256 290 463 285.744 463 280.5 C463 277.078 466.966 266.394 469.199 263.801 L479.117 252.283 C484.478 246.058 494 220.407 494 212.192 L494 75.5399 C494 68.0798 489.931 61.0867 482.799 58.8982 C459.96 51.89 427.15 49 377 49 C189 49 133 116 133 341 C133 556 187 620 369 620 C418.4 620 449.75 613.683 482.77 593.331 C483.55 592.85 491.799 586.201 492.447 585.553 L498 580 C515.576 561.545 526.973 549.269 543.051 532.312 C545.547 529.68 555.878 524.691 559.5 524.5 C564.733 524.225 568.957 528.272 568.905 533.513 L568.905 533.513 Z " />
<glyph glyph-name="H" unicode="H" horiz-adv-x="669" d="M604 9.5 C604 12.7895 600.104 23.8364 598.04 26.3982 L588.593 38.1255 C583.886 43.9686 575 69.1655 575 76.6686 L575 583.331 C575 590.835 583.886 616.031 588.593 621.875 L598.04 633.602 C600.104 636.164 604 647.21 604 650.5 C604 655.744 599.744 660 594.5 660 L465.5 660 C460.256 660 456 655.744 456 650.5 C456 647.21 459.896 636.164 461.96 633.602 L471.407 621.875 C476.114 616.031 485 590.835 485 583.331 L485 429.44 C485 395.527 457.473 368 423.56 368 L245.44 368 C211.527 368 184 395.527 184 429.44 L184 583.331 C184 590.835 192.886 616.031 197.593 621.875 L207.04 633.602 C209.104 636.164 213 647.21 213 650.5 C213 655.744 208.744 660 203.5 660 L74.5 660 C69.2563 660 65 655.744 65 650.5 C65 647.21 68.896 636.164 70.9596 633.602 L80.4066 621.875 C85.1136 616.031 94 590.835 94 583.331 L94 76.6686 C94 69.1655 85.1136 43.9686 80.4066 38.1255 L70.9596 26.3982 C68.896 23.8364 65 12.7895 65 9.5 C65 4.25628 69.2563 0 74.5 0 L203.5 0 C208.744 0 213 4.25628 213 9.5 C213 12.7895 209.104 23.8364 207.04 26.3982 L197.593 38.1255 C192.886 43.9686 184 69.1655 184 76.6686 L184 251.56 C184 285.473 211.527 313 245.44 313 L423.56 313 C457.473 313 485 285.473 485 251.56 L485 76.6686 C485 69.1655 476.114 43.9686 471.407 38.1255 L461.96 26.3982 C459.896 23.8364 456 12.7895 456 9.5 C456 4.25628 460.256 0 465.5 0 L594.5 0 C599.744 0 604 4.25628 604 9.5 L604 9.5 Z " />
<glyph glyph-name="I" unicode="I" horiz-adv-x="288" d="M218 9.5 C218 12.7895 214.104 23.8364 212.04 26.3982 L202.593 38.1255 C197.886 43.9686 189 69.1655 189 76.6686 L189 583.331 C189 590.835 197.886 616.031 202.593 621.875 L212.04 633.602 C214.104 636.164 218 647.21 218 650.5 C218 655.744 213.744 660 208.5 660 L79.5 660 C74.2563 660 70 655.744 70 650.5 C70 647.21 73.896 636.164 75.9596 633.602 L85.4066 621.875 C90.1136 616.031 99 590.835 99 583.331 L99 76.6686 C99 69.1655 90.1136 43.9686 85.4066 38.1255 L75.9596 26.3982 C73.896 23.8364 70 12.7895 70 9.5 C70 4.25628 74.2563 0 79.5 0 L208.5 0 C213.744 0 218 4.25628 218 9.5 L218 9.5 Z " />
<glyph glyph-name="J" unicode="J" horiz-adv-x="288" d="M99 583.331 L99 50 C99 -65 86 -100 43 -100 C43 -100 19.7538 -98.1403 -5.21921 -91.731 C-5.59989 -91.6333 -10.607 -91 -11 -91 C-12.6265 -91 -13.7116 -89.4987 -14.0184 -91.0959 C-14.4938 -93.57 -24 -143.1 -24 -147 C-24 -167 -16 -173 9 -173 C148 -173 189 -77 189 243 L189 583.331 C189 590.835 197.886 616.031 202.593 621.875 L212.04 633.602 C214.104 636.164 218 647.21 218 650.5 C218 655.744 213.744 660 208.5 660 L79.5 660 C74.2563 660 70 655.744 70 650.5 C70 647.21 73.896 636.164 75.9596 633.602 L85.4066 621.875 C90.1136 616.031 99 590.835 99 583.331 L99 583.331 Z " />
<glyph glyph-name="K" unicode="K" horiz-adv-x="641" d="M545.982 660 L426 660 C421.032 660 417 655.968 417 651 L417 642 L417.5 626 C417.686 620.062 411.467 602.341 407.612 597.821 L220.343 378.264 C201.596 356.285 201.772 319.867 220.732 298.071 L461.631 21.1176 C469.281 12.3228 496.332 0 507.989 0 L594 0 C597.864 0 601 3.13621 601 7 C601 10.1888 597.855 16.1521 595.223 17.9528 L569 35.8949 C568.227 36.4237 558.752 44.6974 558.124 45.3919 L308.492 321.435 C287.366 344.797 285.985 380.558 307.782 403.294 C376.947 475.438 445.615 548.077 515 620 C515.544 620.564 519.874 623.249 520.526 623.684 L548.161 642.107 C550.963 643.975 553.74 649.641 553.5 653 C553.225 656.854 549.846 660 545.982 660 L545.982 660 Z M215 9.5 C215 12.7895 211.104 23.8364 209.04 26.3982 L199.593 38.1255 C194.886 43.9686 186 69.1655 186 76.6686 L186 583.331 C186 590.835 194.886 616.031 199.593 621.875 L209.04 633.602 C211.104 636.164 215 647.21 215 650.5 C215 655.744 210.744 660 205.5 660 L76.5 660 C71.2563 660 67 655.744 67 650.5 C67 647.21 70.896 636.164 72.9596 633.602 L82.4066 621.875 C87.1136 616.031 96 590.835 96 583.331 L96 76.6686 C96 69.1655 87.1136 43.9686 82.4066 38.1255 L72.9596 26.3982 C70.896 23.8364 67 12.7895 67 9.5 C67 4.25628 71.2563 0 76.5 0 L205.5 0 C210.744 0 215 4.25628 215 9.5 L215 9.5 Z " />
<glyph glyph-name="L" unicode="L" horiz-adv-x="539" d="M467 55 C466.111 72.7778 465.222 88.1852 464.333 108.246 C464.114 113.19 459.95 116 455 116 C451.458 116 442.172 112.109 439.689 109.584 L404.055 73.3559 C396.95 66.1326 370.385 55 360.253 55 L244.44 55 C210.527 55 183 82.527 183 116.44 L183 582.192 C183 590.407 192.522 616.058 197.883 622.283 L207.801 633.801 C210.034 636.394 214 647.078 214 650.5 C214 655.744 209.744 660 204.5 660 L73.5 660 C68.2563 660 64 655.744 64 650.5 C64 647.21 67.896 636.164 69.9596 633.602 L79.4066 621.875 C84.1136 616.031 93 590.835 93 583.331 L93 76.6686 C93 69.1655 84.1136 43.9686 79.4066 38.1255 L69.9596 26.3982 C67.896 23.8364 64 12.7895 64 9.5 C64 4.25628 68.2563 0 73.5 0 L440.499 0 C455.678 0 467.888 12.3215 467.75 27.5 L467.5 55 L467 55 Z " />
<glyph glyph-name="M" unicode="M" horiz-adv-x="827" d="M83.2075 633.791 L92.5 623 C98.2918 616.274 107.513 590.13 107.223 581.259 L90.7089 76.6596 C90.4634 69.1589 80.756 44.2651 75.8591 38.5783 L65.199 26.1988 C62.9663 23.606 59 12.9216 59 9.5 C59 4.25628 63.2563 0 68.5 0 L169.5 0 C174.744 0 179 4.25628 179 9.5 C179 12.8569 175.067 23.7192 172.918 26.2981 L163.803 37.2369 C158.416 43.7012 149.37 69.7031 149.582 78.115 L155 293.5 C156.318 345.876 230.756 359.379 250.385 310.802 L369.57 15.8611 C373.884 5.18513 388.985 -5 400.5 -5 C412.027 -5 427.085 5.18461 431.377 15.8826 L548.261 307.269 C567.994 356.464 642.976 343.466 645 290.5 L653.168 76.7764 C653.457 69.2025 645.472 43.6297 640.925 37.5661 L632.7 26.6 C630.812 24.083 627 12.6462 627 9.5 C627 4.25628 631.256 0 636.5 0 L756.5 0 C761.744 0 766 4.25628 766 9.5 C766 12.6462 762.188 24.083 760.3 26.6 L750.511 39.6517 C746.896 44.4725 738.498 68.1498 738.268 74.1715 L718.894 581.586 C718.564 590.233 727.461 616.353 733 623 L741.918 633.702 C744.067 636.281 748 647.143 748 650.5 C748 655.744 743.744 660 738.5 660 L673.029 660 C651.408 660 623.603 640.98 615.767 620.829 L477.326 264.837 C456.065 210.168 384.926 209.77 363.054 264.197 L219.484 621.469 C211.553 641.203 183.742 660 162.475 660 L85.5131 660 C80.2694 660 76.2244 655.736 76.5 650.5 C76.6688 647.292 81.1113 636.226 83.2075 633.791 L83.2075 633.791 Z " />
<glyph glyph-name="N" unicode="N" horiz-adv-x="664" d="M69.8324 633.501 L79.0578 621.64 C83.4436 616.001 92 591.063 92 583.919 L92 76.6686 C92 69.1655 83.1136 43.9686 78.4066 38.1255 L68.9596 26.3982 C66.896 23.8364 63 12.7895 63 9.5 C63 4.25628 67.2563 0 72.5 0 L189.5 0 C194.744 0 199 4.25628 199 9.5 C199 13.2583 194.885 23.004 192.191 25.6249 L180.5 37 C173.181 44.121 162 70.6004 162 80.8118 L162 317.726 C162 378.961 236.664 403.457 272.939 354.123 L525.745 10.3074 C530.75 3.50026 547.551 -5 556 -5 C566.487 -5 575 3.51257 575 14 L575 583.919 C575 591.063 583.556 616.001 587.942 621.64 L597.168 633.501 C599.144 636.042 603 647.281 603 650.5 C603 655.744 598.744 660 593.5 660 L477.5 660 C472.256 660 468 655.744 468 650.5 C468 646.742 472.115 636.996 474.809 634.375 L486.5 623 C493.819 615.879 505 589.4 505 579.188 L505 379.089 C505 317.803 430.146 293.351 393.967 342.82 L180.409 634.829 C172.207 646.044 144.71 660 130.816 660 L73.5 660 C68.2563 660 64 655.744 64 650.5 C64 647.281 67.856 636.042 69.8324 633.501 L69.8324 633.501 Z " />
<glyph glyph-name="O" unicode="O" horiz-adv-x="767" d="M166 363 C166 562 212 621 366 621 C547 621 601 546 601 293 C601 98 556 40 404 40 C221 40 166 114 166 363 L166 363 Z M70 328 C70 68 142 -10 384 -10 C625 -10 697 68 697 328 C697 591 625 670 384 670 C142 670 70 591 70 328 L70 328 Z " />
<glyph glyph-name="P" unicode="P" horiz-adv-x="532" d="M219 9.5 C219 13.1553 214.926 23.1906 212.378 25.8115 L201.388 37.1154 C194.698 43.9968 184 70.3463 184 79.9439 L184 261 C184 277.007 196.993 290 213 290 L242 290 C411 290 462 333 462 479 C462 618 417 660 267 660 L74.5 660 C69.2563 660 65 655.744 65 650.5 C65 647.21 68.896 636.164 70.9596 633.602 L80.4066 621.875 C85.1136 616.031 94 590.835 94 583.331 L94 76.6686 C94 69.1655 85.1136 43.9686 80.4066 38.1255 L70.9596 26.3982 C68.896 23.8364 65 12.7895 65 9.5 C65 4.25628 69.2563 0 74.5 0 L209.5 0 C214.744 0 219 4.25628 219 9.5 L219 9.5 Z M184 384 L184 591 C184 598.735 189.909 605.003 197.644 604.996 C221.22 604.974 243.161 604.839 244 604 C338 604 366 573 366 471 C366 374 342 345 262 345 L223 345 C201.473 345 184 362.473 184 384 L184 384 Z " />
<glyph glyph-name="Q" unicode="Q" horiz-adv-x="767" d="M766 -113.5 L766 -112.946 C766 -109.901 762.763 -107.844 759.949 -109.009 C748.886 -113.593 734.032 -115 703 -115 C646.05 -115 598.493 -54.31 544.974 -15.8369 C535.816 -9.25311 543.487 9.05842 554.088 12.91 C660.36 51.52 696 144.4 696 328 C696 591 624 670 383 670 C141 670 69 591 69 328 C69 63.775 146.951 -13.1769 391.832 -10.3713 C397.994 -10.3007 423.262 -17.5998 428.345 -21.0841 C498.868 -69.4269 560.45 -149 640 -149 C697 -149 726.474 -143.134 760.144 -124.542 C763.404 -122.742 766 -117.224 766 -113.5 L766 -113.5 Z M165 362 C165 561 211 620 365 620 C546 620 600 545 600 292 C600 97 555 39 403 39 C220 39 165 113 165 362 L165 362 Z " />
<glyph glyph-name="R" unicode="R" horiz-adv-x="555" d="M544 9 C544 12.8889 539.999 21.1804 536.955 23.6002 L512.775 42.8196 C511.423 43.8945 500.513 55.8693 499.568 57.3156 L368.097 258.58 C357.155 275.331 366.55 301.652 384.898 309.632 C442.581 334.718 463 385.6 463 478 C463 617 418 659 267 659 L74.5 659 C69.2563 659 65 654.744 65 649.5 C65 646.21 68.896 635.164 70.9596 632.602 L80.4066 620.875 C85.1136 615.031 94 589.835 94 582.331 L94 75.6686 C94 68.1655 85.1136 42.9686 80.4066 37.1255 L70.9596 25.3982 C68.896 22.8364 65 11.7895 65 8.5 C65 3.25628 69.2563 -1 74.5 -1 L202.5 -1 C207.744 -1 212 3.25628 212 8.5 C212 11.7193 208.144 22.9577 206.168 25.4988 L196.942 37.36 C192.556 42.9989 184 67.9368 184 75.0805 L184 260 C184 276.007 196.993 289 213 289 C226.432 289 250.469 275.937 257.775 264.666 L411.646 27.312 C420.195 14.125 448.024 -0.841891 463.739 -0.70404 L535 -0.0789443 C539.968 -0.0353711 544 4.03246 544 9 L544 9 Z M184 383 L184 590 C184 597.734 189.55 604.003 197.284 603.996 C221.243 603.976 244.156 603.844 245 603 C337 603 365 572 365 470 C365 373 341 344 262 344 L223 344 C201.473 344 184 361.473 184 383 L184 383 Z " />
<glyph glyph-name="S" unicode="S" horiz-adv-x="487" d="M325 597 C333 590 339 583 348 570 C357.565 555.217 364.862 544.972 373.835 531.373 C376.377 527.521 383.51 525 388.124 525 L388.5 525 C394.293 525 398.862 529.705 398.691 535.495 L396.686 603.676 C396.325 615.962 388.385 634.934 378.531 642.282 C350.483 663.194 317.875 670 256 670 C124 670 85 628 85 489 C85 392 105 373 217 311 C326 250 346 233 346 163 C346 66 325 37 253 37 C212 37 182 47 136 79 C130.75 82.5 127.797 85.2344 125.131 90.5527 C125.101 90.613 122.697 95.2338 122.663 95.292 C110.796 115.651 103.187 128.914 91.9068 148.295 C89.3843 152.629 82.5147 155 77.5 155 C71.7061 155 67.1176 150.295 67.2624 144.503 L69.2777 63.8917 C69.6722 48.1106 80.4476 26.7064 94.088 18.7603 C132.323 -3.51312 174.625 -11 253 -11 C391 -11 432 34 432 185 C432 289 410 310 288 378 C191 432 174 447 174 520 C174 598 191 621 248 621 C279 621 300.5 615.5 325.5 596.5 L325 597 Z " />
<glyph glyph-name="T" unicode="T" horiz-adv-x="613" d="M32.5 633 C32.5 605.444 32.1049 587.37 32.7195 561.922 C32.8403 556.917 36.9933 552 42 552 C45.2582 552 55.3343 555.766 57.7938 557.903 L94.666 589.939 C100.941 595.392 126.65 605 134.963 605 L200.56 605 C234.473 605 262 577.473 262 543.56 L262 80.8118 C262 70.6004 250.819 44.121 243.5 37 L231.809 25.6249 C229.115 23.004 225 13.2583 225 9.5 C225 4.25628 229.256 0 234.5 0 L379.5 0 C384.744 0 389 4.25628 389 9.5 C389 13.2583 384.885 23.004 382.191 25.6249 L370.5 37 C363.181 44.121 352 70.6004 352 80.8118 L352 543.56 C352 577.473 379.527 605 413.44 605 L473.037 605 C481.35 605 507.059 595.392 513.334 589.939 L550.206 557.903 C552.666 555.766 562.742 552 566 552 C570.964 552 575.152 556.033 575.339 560.994 L577 605 L578 632.5 C578.552 647.669 566.661 660 551.482 660 L46.5 660 C39.0484 660 33 653.952 33 646.5 L33 633 L32.5 633 Z " />
<glyph glyph-name="U" unicode="U" horiz-adv-x="669" d="M94 583.331 L94 234 C94 46 149 -10 335 -10 C520 -10 575 46 575 234 L575 583.331 C575 590.835 583.886 616.031 588.593 621.875 L598.04 633.602 C600.104 636.164 604 647.21 604 650.5 C604 655.744 599.744 660 594.5 660 L477.5 660 C472.256 660 468 655.744 468 650.5 C468 646.742 472.115 636.996 474.809 634.375 L486.5 623 C493.819 615.879 505 589.4 505 579.188 L505 213 C505 86 472 48 362 48 C225 48 184 94 184 250 L184 583.331 C184 590.835 192.886 616.031 197.593 621.875 L207.04 633.602 C209.104 636.164 213 647.21 213 650.5 C213 655.744 208.744 660 203.5 660 L74.5 660 C69.2563 660 65 655.744 65 650.5 C65 647.21 68.896 636.164 70.9596 633.602 L80.4066 621.875 C85.1136 616.031 94 590.835 94 583.331 L94 583.331 Z " />
<glyph glyph-name="V" unicode="V" horiz-adv-x="641" d="M175 660 L46 660 C41.0323 660 37 655.968 37 651 C37 647.487 40.8801 638.12 43.364 635.636 L59.3082 619.692 C61.5847 617.415 73.4559 597.652 74.5482 594.623 C144.802 399.827 214.222 204.197 285.379 10.3037 C289.309 -0.404887 301.593 -5 313 -5 C324.32 -5 338.865 4.95586 342.961 15.509 L573.09 608.35 C574.231 611.291 585.507 628.219 587.781 630.405 L598.954 641.148 C600.962 643.079 604 650.215 604 653 C604 656.864 600.864 660 597 660 L498.5 660 C493.256 660 489 655.744 489 650.5 C489 648.37 491.993 634.265 492.858 632.319 L497 623 C500.096 616.034 500.76 593.694 498.084 586.556 L387.616 291.977 C366.559 235.823 291.83 236.687 272.077 293.313 L169.864 586.324 C166.983 594.581 169.094 616.446 173.5 624 L179.465 634.226 C180.726 636.388 184 648.497 184 651 C184 655.968 179.968 660 175 660 L175 660 Z " />
<glyph glyph-name="W" unicode="W" horiz-adv-x="869" d="M157.945 660 L28 660 C23.0323 660 19 655.968 19 651 C19 647.664 22.8035 637.803 25.0437 635.331 L38.2295 620.781 C40.6431 618.118 51.3141 598.089 52.2787 594.627 C106.52 399.923 162.431 206.053 214.868 10.4463 C217.419 0.929405 227.647 -5 237.5 -5 C247.12 -5 257.219 -1.54532 260.429 7.52316 C307.707 141.084 356.218 274.037 404.424 407.406 C414.57 435.474 455.524 435.751 464.87 407.406 C508.845 274.037 552.709 141.084 595.948 7.52316 C598.858 -1.46642 608.551 -5 618 -5 C627.522 -5 638.05 1.87623 640.769 11.0019 C701.179 213.717 761.59 417.333 822 620 C823.342 624.504 830.841 628.209 834.284 631.407 L844.87 641.237 C846.945 643.163 850 650.169 850 653 C850 656.864 846.864 660 843 660 L738.5 660 C733.256 660 729 655.744 729 650.5 C729 647.766 732.528 635.227 733.954 632.894 L740 623 C744.444 615.728 747.615 592.892 745.321 584.684 L651.626 249.517 C644.426 223.758 607.852 227.161 599.574 252.594 C556.168 385.963 512.457 518.916 469.979 652.477 C467.031 661.744 457.225 665 447.5 665 C437.867 665 427.814 661.695 424.582 652.619 C377.539 520.502 332.96 386.544 287.773 253.307 C279.155 227.893 242.595 224.942 235.809 250.905 L148.615 584.518 C146.224 593.666 150.464 616.335 156 624 L163.698 634.659 C165.663 637.38 168.371 647.664 168 651 C167.451 655.937 162.912 660 157.945 660 L157.945 660 Z " />
<glyph glyph-name="X" unicode="X" horiz-adv-x="656" d="M188.5 660 L55 660 C50.0323 660 46 655.968 46 651 C46 647.287 49.9516 638.487 52.7267 636.021 L76.2176 615.14 C77.0088 614.437 85.7355 604.465 86.3277 603.587 L251.162 359.324 C263.486 341.062 263.053 307.238 250.266 289.297 L84.0247 56.05 C83.2583 54.9747 73.2565 44.4346 72.2228 43.613 L47.0454 23.6002 C44.0011 21.1804 40 12.8889 40 9 C40 4.03227 44.0323 0 49 0 L145.5 0 C150.744 0 155 4.25628 155 9.5 L155 10.6252 C155 11.8624 153.09 25.8772 152.759 27.0693 L150 37 C147.873 44.657 151.14 63.805 155.686 70.3234 L252.795 209.574 C279.168 247.393 328.298 247.026 354.105 208.819 L447.89 69.9679 C451.387 64.791 457.019 43.2256 456.5 37 L455 19 L455 9.5 C455 4.25628 459.256 0 464.5 0 L606 0 C610.416 0 614 3.58424 614 8 C614 11.4002 610.458 18.9347 607.84 21.1041 L585.514 39.6023 C584.543 40.4076 574.905 50.9195 574.187 51.9574 L392.404 314.724 C379.811 332.927 379.105 365.76 391.801 383.891 C445.657 460.804 498.949 538.282 553 615 C553.682 615.969 558.396 619.471 559.308 620.227 L581.84 638.896 C584.458 641.065 588 648.6 588 652 C588 656.416 584.416 660 580 660 L490.5 660 C485.256 660 481 655.744 481 650.5 L481 646.085 C481 645.624 481.76 636.439 481.836 635.984 L484 623 C485.149 616.105 480.626 595.72 476.668 589.959 L390.471 464.475 C364.437 426.574 315.451 426.497 289.296 464.315 L202.38 589.991 C198.391 595.76 193.847 616.082 195 623 L197.164 635.984 C197.24 636.439 198 645.624 198 646.085 L198 650.5 C198 655.744 193.744 660 188.5 660 L188.5 660 Z " />
<glyph glyph-name="Y" unicode="Y" horiz-adv-x="631" d="M155.5 660 L37 660 C32.0323 660 28 655.968 28 651 C28 647.243 31.9653 638.571 34.8073 636.113 L59.0886 615.113 C59.9055 614.406 68.8292 604.459 69.4432 603.57 L262.106 324.765 C265.524 319.818 273 295.85 273 289.837 L273 78.8992 C273 69.9853 262.874 43.9536 256.851 37.3826 L246.419 26.003 C244.025 23.391 240 13.0433 240 9.5 C240 4.25628 244.256 0 249.5 0 L386.5 0 C391.744 0 396 4.25628 396 9.5 C396 13.0433 391.975 23.391 389.581 26.003 L379.149 37.3826 C373.126 43.9536 363 69.9853 363 78.8992 L363 294.081 C363 299.398 369.775 322.626 372.633 327.11 L554.592 612.518 C555.544 614.011 566.452 626.203 567.83 627.315 L585.551 641.606 C587.892 643.494 591 649.992 591 653 C591 656.864 587.864 660 584 660 L485.5 660 C480.256 660 476 655.744 476 650.5 L476 646.918 C476 646.294 477.011 635.803 477.13 635.191 L479.5 623 C480.827 616.174 476.902 595.388 473.176 589.516 L357.939 407.883 C344.694 387.007 316.831 388.393 302.524 408.556 C258.924 470.005 215.039 531.844 172.265 593.143 C168.875 598 164.336 617.08 164.5 623 L165 641 L165 650.5 C165 655.744 160.744 660 155.5 660 L155.5 660 Z " />
<glyph glyph-name="Z" unicode="Z" horiz-adv-x="606" d="M102.5 633 C102.5 608.394 102.114 591.511 102.699 568.777 C102.828 563.762 106.984 559 112 559 C114.991 559 125.798 562.618 128.186 564.419 L165.577 592.615 C171.035 596.731 195.733 605 202.569 605 L294.503 605 C344.098 605 373.538 562.063 350.604 518.089 C267.452 358.654 184.573 198.742 99.7194 39.4768 C98.1962 36.6179 92 15.7394 92 12.5 C92 5.60037 97.6004 0 104.5 0 L488.49 0 C503.669 0 515.664 12.3265 515.25 27.5 L514.5 55 C514.5 68.8182 513.381 81.1446 512.432 97.1326 C512.141 102.037 507.913 105 503 105 C499.851 105 489.475 101.291 487.039 99.2946 L449.986 68.9228 C444.042 64.0511 418.722 55 411.037 55 L299.497 55 C249.816 55 220.409 97.8083 243.507 141.793 C327.024 300.826 410.915 459.485 493.496 619.454 C495.008 622.382 501 643.704 501 647 C501 654.176 495.176 660 488 660 L116.5 660 C109.048 660 103 653.952 103 646.5 L103 633 L102.5 633 Z " />
<glyph glyph-name="bracketleft" unicode="&#x5b;" horiz-adv-x="247" d="M185.5 717 L230.5 717 C236.848 717 242 722.152 242 728.5 C242 734.848 236.848 740 230.5 740 L128.44 740 C94.527 740 67 712.473 67 678.56 L67 -88.56 C67 -122.473 94.527 -150 128.44 -150 L230.5 -150 C236.848 -150 242 -144.848 242 -138.5 C242 -132.152 236.848 -127 230.5 -127 L185.5 -127 C154.314 -127 129 -101.686 129 -70.5 L129 660.5 C129 691.686 154.314 717 185.5 717 L185.5 717 Z " />
<glyph glyph-name="backslash" unicode="&#x5c;" horiz-adv-x="250" d="M225 -120 C238.448 -120 247.412 -108.742 244.399 -95.6355 L55.601 725.636 C52.588 738.742 38.4485 750 25 750 C11.5515 750 2.58802 738.742 5.60103 725.636 L194.399 -95.6355 C197.412 -108.742 211.552 -120 225 -120 L225 -120 Z " />
<glyph glyph-name="bracketright" unicode="&#x5d;" horiz-adv-x="241" d="M114 662.5 L114 -72.5 C114 -102.582 89.5824 -127 59.5 -127 L16.5 -127 C10.1523 -127 5 -132.152 5 -138.5 C5 -144.848 10.1523 -150 16.5 -150 L114.56 -150 C148.473 -150 176 -122.473 176 -88.56 L176 678.56 C176 712.473 148.473 740 114.56 740 L16.5 740 C10.1523 740 5 734.848 5 728.5 C5 722.152 10.1523 717 16.5 717 L59.5 717 C89.5824 717 114 692.582 114 662.5 L114 662.5 Z " />
<glyph glyph-name="asciicircum" unicode="&#x5e;" horiz-adv-x="290" d="M281.513 534.882 L168.719 692.794 C164.803 698.276 151.737 705 145 705 C138.172 705 125.379 698.261 121.517 692.629 L13.3932 534.948 C11.8485 532.696 13.2686 530 16 530 C17.9594 530 25.2575 532.391 26.8372 533.55 L110.08 594.64 C128.926 608.47 163.216 608.664 182.217 595.049 L268.123 533.495 C269.691 532.371 277.071 530 279 530 C281.695 530 283.079 532.689 281.513 534.882 L281.513 534.882 Z " />
<glyph glyph-name="underscore" unicode="&#x5f;" horiz-adv-x="460" d="M25 -115 C25 -128.799 36.2007 -140 50 -140 L410 -140 C423.799 -140 435 -128.799 435 -115 C435 -101.201 423.799 -90 410 -90 L50 -90 C36.2007 -90 25 -101.201 25 -115 L25 -115 Z " />
<glyph glyph-name="grave" unicode="&#x60;" horiz-adv-x="290" d="M148.793 535.58 L95.7106 669.803 C88.1598 688.896 61.5315 707 41 707 L19.8282 707 C9.56376 707 -0.955701 716.993 1.0155 706.92 C1.38934 705.009 8.59459 669.351 30 646 L134.891 534.373 C136.544 532.614 142.587 530 145 530 C148.08 530 149.926 532.716 148.793 535.58 L148.793 535.58 Z " />
<glyph glyph-name="a" unicode="a" horiz-adv-x="449" d="M142 337 C142 393 155 414 189 414 C251 414 262 394 262 329 L262 292.5 C262 273.774 241.752 250.043 223.917 244.337 C77.0913 197.358 48 161.075 48 88 C48 12 69 -11 141 -11 C194.375 -11 224.016 -4.10938 252.029 28.4297 C256.334 33.4297 266.418 31.0866 268.884 24.9671 C279.411 -1.15188 303.975 -10 351 -10 C399.75 -10 420.932 1.4075 440.498 40.906 C441.166 42.2556 441.174 45.6529 440.5 47 L439 50 C439 51 430 51 399 51 C355 51 342 55 342 67 L342 350 C342 435 323 460 215 460 C101 460 59 426 59 332 C59 309 64 303 80 304 L133.464 304 C134.844 304 138.524 305.524 139.5 306.5 C140.476 307.476 142 311.156 142 312.536 L142 337 L142 337 Z M262 159.896 L262 84.6726 C262 77.7653 258.11 69.1208 252.282 65.413 C236.49 55.3662 215.641 52 182 52 C139 52 126 65 126 108 C126 149.6 139.76 173.6 204.144 199.456 C235.455 212.03 262 193.638 262 159.896 L262 159.896 Z " />
<glyph glyph-name="b" unicode="b" horiz-adv-x="483" d="M65 -10 C65.8651 -10 67.3708 -10.3814 68.1107 -9.93312 C69.2827 -9.22313 79.6068 -2.91313 91.9147 6.43687 C95.302 9.01003 104.439 8.4242 108.234 6.50391 C131.313 -5.17188 165.875 -9 228 -9 C386 -9 433 51 433 253 C433 413 397 461 276 461 C222.375 461 188.488 452.832 159.74 428.075 C153.273 422.505 142 427.009 142 435.544 L142 743 C142 747.416 138.416 751 134 751 C132.289 751 120.203 748.563 118.625 747.899 L40.7655 715.163 C39.3583 714.571 38 712.526 38 711 C38 710.385 38.8858 705.786 39.1142 705.215 L42 698 C57 652 62 639 62 638 L62 -7 C62 -8.65591 63.3441 -10 65 -10 L65 -10 Z M142 102.26 L142 336.67 C142 344.316 147.169 362.401 152.006 368.323 C167.974 387.874 186 394 219 394 C322 394 353 357 353 232 C353 83 330 39 254 39 C206.15 39 180.08 45.8062 156.698 66.1569 C148.607 73.1998 142 91.5328 142 102.26 L142 102.26 Z " />
<glyph glyph-name="c" unicode="c" horiz-adv-x="437" d="M385.589 102.643 C341.743 72.5556 317.1 64 282 64 C164 64 129 107 129 250 C129 376 152 414 229 414 C267 414 285 403 307 368 L331.158 328.976 C332.022 327.579 334.857 326 336.5 326 C337.598 326 341.977 327.365 342.88 327.989 L379.102 352.999 C379.977 353.603 384.331 357.231 385.029 358.034 C397.41 372.282 393.172 394.241 382 411 C359 449 330 460 257 460 C98 460 50 401 50 205 C50 39 93 -10 239 -10 C316.025 -10 354.074 12.815 390.223 89.0314 C390.961 90.5879 392.338 98.3107 392 100 C391.496 102.52 387.708 104.097 385.589 102.643 L385.589 102.643 Z " />
<glyph glyph-name="d" unicode="d" horiz-adv-x="489" d="M442 9 C442 12.1326 438.3 22.5538 436.325 24.985 L429 34 C424.475 39.5691 416 63.4399 416 70.6155 L416 746 C416 750.416 412.416 754 408 754 C406.661 754 393.652 751.98 392.377 751.574 L312 726 L312 721 L316 711 C331 670 336 658 336 658 C336 658 336 669.439 336 651.5 L336 464.794 C336 459.212 331.783 455.031 326.299 456.07 C307.87 459.56 287.455 461 262 461 C97 461 48 400 48 195 C48 38 83 -9 201 -9 C263.9 -9 296.853 2.97875 327.56 41.9739 C329.89 44.9323 335.677 45.6613 336.238 41.9377 C339.195 22.3182 345 2 345 2 C345 2 348.673 1.92426 359.557 1.69985 L433.002 0.185528 C437.968 0.0831437 442 4.03333 442 9 L442 9 Z M335 330.008 L335 102.213 C335 94.7803 330.842 82.7041 325.27 77.7852 C309.387 63.7644 290 59 257 59 C156 59 126 96 126 221 C126 362.55 151.27 409.337 234.39 413.662 C238.109 413.856 244.743 415.711 248.04 413.979 C248.892 413.532 263.568 405.804 304.356 383.117 C319.586 374.645 335 347.436 335 330.008 L335 330.008 Z " />
<glyph glyph-name="e" unicode="e" horiz-adv-x="443" d="M135.576 338.456 C146.68 395.8 173.4 415 227 415 C279 415 305.4 395.16 316.44 338.072 C322.13 308.651 303.901 288 273.935 288 L178.564 288 C148.264 288 129.816 308.709 135.576 338.456 L135.576 338.456 Z M394 100 C393.496 102.518 391.704 104.094 389.585 102.643 C345.644 72.5556 319.1 64 284 64 C188.3 64 147.05 91.9056 134.982 178.6 C129.661 216.82 154.301 242 192.89 242 L354.754 242 C355.076 242 362.887 242.54 363.206 242.584 L377 244.5 C387.11 245.904 394.973 260.542 394.731 270.746 C391.29 415.777 354.05 460 241 460 C95 460 52 401 52 205 C52 39 95 -10 241 -10 C318.025 -10 356.074 12.815 392.222 89.0314 C392.961 90.5879 394.338 98.3107 394 100 L394 100 Z " />
<glyph glyph-name="f" unicode="f" horiz-adv-x="321" d="M204 9 C204 11.9806 200.388 22.8155 198.6 25.2 L192 34 C188.026 39.2989 180 63.3764 180 70 L180 350 C180 379.254 203.746 403 233 403 L262.5 403 C275.471 403 286 413.529 286 426.5 C286 439.471 275.471 450 262.5 450 L233 450 C203.746 450 180 473.746 180 503 L180 587 C180 636 195 667 247 667 C267 667 277 665 294 657 C312 649 321 646 321 646 C321 646 312.595 646 324.5 646 C326.283 646 328.66 647.585 329.346 649.231 L348 694 C356.71 714.323 354.181 726.216 326.819 738.745 C326.745 738.779 323.909 740.05 323.837 740.089 C322.019 741.08 305.333 750 294 750 C174 750 99 650 99 490 L99 470 C99 458.961 90.0394 450 79 450 L62.5 450 C49.5287 450 39 439.471 39 426.5 C39 413.529 49.5287 403 62.5 403 L69 403 C85.5591 403 99 389.559 99 373 L99 70 C99 63.3764 90.9742 39.2989 87 34 L80.4 25.2 C78.6116 22.8155 75 11.9806 75 9 C75 4.03227 79.0323 0 84 0 L195 0 C199.968 0 204 4.03227 204 9 L204 9 Z " />
<glyph glyph-name="g" unicode="g" horiz-adv-x="506" d="M318.09 451.77 C296.625 457.703 270.375 460 238 460 C104 460 80 423 80 300 C80 237.3 88.8481 197.061 112.721 171.982 C117.9 166.542 118.06 153.359 111.399 149.888 C80.115 133.582 70 111.1 70 72 C70 30.75 78.8481 7.87688 104.406 -3.35756 C108.679 -5.236 107.846 -15.6936 103.953 -18.2689 C71.8375 -39.5125 61 -80.95 61 -126 C61 -215 97 -242 218 -242 C384 -242 433 -202 433 -68 C433 29 424 58 313 58 L191 58 C153 58 141 69 141 104 C141 127.333 143.778 137.472 152.227 142.519 C155.32 144.366 161.894 143.901 165.397 143.06 C185.021 138.353 208.657 136 237 136 C372 136 396 174 396 300 C396 339.1 392.387 369.53 383.32 392.518 C381.221 397.839 385.863 402.992 391.537 402.265 L429.219 397.433 C443.881 395.554 456 406.218 456 421 C456 435.903 443.903 448.094 429.001 448.209 L337.135 448.921 C335.978 448.93 319.205 451.461 318.09 451.77 L318.09 451.77 Z M161 301 C161 392 172 419 231 419 C296 419 315 391 315 297 C315 204 305 176 250 176 C181 176 161 205 161 301 L161 301 Z M165 -12 L273 -12 C353 -12 360 -30 360 -89 C360 -185 330 -214 228 -214 C154 -214 132 -191 132 -115 C132 -45 140 -12 165 -12 L165 -12 Z " />
<glyph glyph-name="h" unicode="h" horiz-adv-x="467" d="M428 9 C428 11.9806 424.388 22.8155 422.6 25.2 L416 34 C412.026 39.2989 404 63.3764 404 70 L404 343 C404 433 377 460 285 460 C228.075 460 205.181 447.749 174.767 410.893 C167.347 401.902 154 408.444 154 420.101 L154 742 C154 746.416 150.416 750 146 750 C144.289 750 132.203 747.563 130.625 746.899 L52.7655 714.163 C51.3583 713.571 50 711.526 50 710 C50 709.385 50.8858 704.786 51.1142 704.215 L54 697 C69 651 74 638 74 637 L74 70 C74 63.3764 65.9742 39.2989 62 34 L55.4 25.2 C53.6116 22.8155 50 11.9806 50 9 C50 4.03227 54.0323 0 59 0 L169 0 C173.968 0 178 4.03227 178 9 C178 11.9806 174.388 22.8155 172.6 25.2 L166 34 C162.026 39.2989 154 63.3764 154 70 L154 336.897 C154 344.479 159.402 361.077 164.628 366.569 C181.094 383.874 198.275 390 242 390 C306 390 325 369 325 297 L325 70 C325 63.3764 316.974 39.2989 313 34 L306.4 25.2 C304.612 22.8155 301 11.9806 301 9 C301 4.03227 305.032 0 310 0 L419 0 C423.968 0 428 4.03227 428 9 L428 9 Z " />
<glyph glyph-name="i" unicode="i" horiz-adv-x="234" d="M114 610 C160 610 174 624 174 670 C174 716 160 730 114 730 C68 730 54 716 54 670 C54 624 68 610 114 610 L114 610 Z M184 9 C184 12.1326 180.3 22.5538 178.325 24.985 L171 34 C166.475 39.5691 158 63.4399 158 70.6155 L158 452 C158 456.416 154.416 460 150 460 C148.289 460 136.203 457.563 134.625 456.899 L56.7655 424.163 C55.3583 423.571 54 421.526 54 420 C54 419.385 54.8858 414.786 55.1142 414.215 L58 407 C73 361 78 348 78 347 L78 70 C78 63.3764 69.9742 39.2989 66 34 L59.4 25.2 C57.6116 22.8155 54 11.9806 54 9 C54 4.03227 58.0323 0 63 0 L175 0 C179.968 0 184 4.03227 184 9 L184 9 Z " />
<glyph glyph-name="j" unicode="j" horiz-adv-x="234" d="M118 610 C164 610 178 624 178 670 C178 716 164 730 118 730 C72 730 58 716 58 670 C58 624 72 610 118 610 L118 610 Z M15 -225 C15 -229.227 24.1038 -228.271 27.6693 -226 C187.469 -124.239 158 -108.225 158 0 L158 452 C158 456.416 154.416 460 150 460 C148.289 460 136.203 457.563 134.625 456.899 L56.7655 424.163 C55.3583 423.571 54 421.526 54 420 C54 419.385 54.8858 414.786 55.1142 414.215 L58 407 C73 361 78 348 78 347 L78 -12 C78 -135.825 104.617 -157.933 21.6042 -211.792 C18.1736 -214.018 15 -220.911 15 -225 L15 -225 Z " />
<glyph glyph-name="k" unicode="k" horiz-adv-x="454" d="M411.101 23.78 L386.421 44.4583 C385.741 45.0279 377.285 53.9453 376.753 54.6544 L246.344 228.276 C227.436 253.449 231.392 290.868 255.146 311.531 L355.385 398.726 C355.548 398.867 360.677 402.844 360.854 402.966 L400.238 430.097 C400.974 430.604 404.1 434.2 404.5 435 C404.603 435.205 407.733 440.6 407.861 440.791 L410 444 C411.837 446.756 410.101 450 406.789 450 L319.5 450 C313.704 450 309 445.296 309 439.5 C309 436.042 304.798 423.349 302.735 420.574 L280 390 C258.4 361.2 256 355.44 274.848 372.72 C274.857 372.729 274.493 372.026 274.484 372.017 L223.5 322.5 C195.981 295.773 154 313.522 154 351.884 L154 752 C154 756.416 150.416 760 146 760 C144.289 760 132.203 757.563 130.625 756.899 L52.7655 724.163 C51.3583 723.571 50 721.526 50 720 C50 719.385 50.8858 714.786 51.1142 714.215 L54 707 C69 661 74 648 74 647 L74 70 C74 63.3764 65.9742 39.2989 62 34 L55.4 25.2 C53.6116 22.8155 50 11.9806 50 9 C50 4.03227 54.0323 0 59 0 L171 0 C175.968 0 180 4.03227 180 9 C180 12.1326 176.3 22.5538 174.325 24.985 L167 34 C162.475 39.5691 154 63.4399 154 70.6155 L154 145 C154 174.087 190.562 185.157 206.697 160.955 L295.761 27.3592 C304.137 14.794 331.78 0 346.882 0 L409 0 C413.968 0 418 4.03227 418 9 C418 12.8079 414.02 21.3345 411.101 23.78 L411.101 23.78 Z " />
<glyph glyph-name="l" unicode="l" horiz-adv-x="215" d="M172 9 C172 11.9806 168.388 22.8155 166.6 25.2 L160 34 C156.026 39.2989 148 63.3764 148 70 L148 752 C148 756.416 144.416 760 140 760 C138.289 760 126.203 757.563 124.625 756.899 L46.7655 724.163 C45.3583 723.571 44 721.526 44 720 C44 719.385 44.8858 714.786 45.1142 714.215 L48 707 C63 661 68 648 68 647 L68 70 C68 63.3764 59.9742 39.2989 56 34 L49.4 25.2 C47.6116 22.8155 44 11.9806 44 9 C44 4.03227 48.0323 0 53 0 L163 0 C167.968 0 172 4.03227 172 9 L172 9 Z " />
<glyph glyph-name="m" unicode="m" horiz-adv-x="700" d="M661 9 C661 11.9806 657.388 22.8155 655.6 25.2 L649 34 C645.026 39.2989 637 63.3764 637 70 L637 343 C637 433 611 460 522 460 C464.2 460 441.08 446.272 407.195 402.85 C400.74 394.579 385.321 396.266 382.089 406.248 C369.091 446.387 337.7 460 275 460 C215.8 460 194.675 444.599 157.016 395.593 C153.582 391.125 147.2 392.775 147.023 398.407 C146.084 428.21 145 460 145 460 C145 460 141.569 460 137 460 C135.22 460 123.308 457.493 121.679 456.775 L47.7455 424.209 C46.3586 423.598 45 421.515 45 420 C45 419.385 45.8858 414.786 46.1142 414.215 L49 407 C64 361 69 348 69 347 L69 70 C69 63.3764 60.9742 39.2989 57 34 L50.4 25.2 C48.6116 22.8155 45 11.9806 45 9 C45 4.03227 49.0323 0 54 0 L164 0 C168.968 0 173 4.03227 173 9 C173 11.9806 169.388 22.8155 167.6 25.2 L161 34 C157.026 39.2989 149 63.3764 149 70 L149 336.897 C149 344.268 154.5 361.173 159.52 366.569 C175.622 383.874 191.4 390 231 390 C291 390 309 369 309 297 L309 70.6155 C309 63.4399 300.525 39.5691 296 34 L288.675 24.985 C286.7 22.5538 283 12.1326 283 9 C283 4.03227 287.032 0 292 0 L406 0 C410.968 0 415 4.03227 415 9 C415 12.1326 411.3 22.5538 409.325 24.985 L402 34 C397.475 39.5691 389 63.4399 389 70.6155 L389 343 L389 346 C389 347.035 390.143 350.472 390.782 351.286 C413.723 380.494 428.275 390 478 390 C539 390 557 369 557 297 L557 70.6155 C557 63.4399 548.525 39.5691 544 34 L536.675 24.985 C534.7 22.5538 531 12.1326 531 9 C531 4.03227 535.032 0 540 0 L652 0 C656.968 0 661 4.03227 661 9 L661 9 Z " />
<glyph glyph-name="n" unicode="n" horiz-adv-x="467" d="M428 9 C428 11.9806 424.388 22.8155 422.6 25.2 L416 34 C412.026 39.2989 404 63.3764 404 70 L404 343 C404 433 377 460 285 460 C221.175 460 199.703 444.599 162.018 395.593 C158.583 391.127 152.2 392.776 152.023 398.407 C151.084 428.21 150 460 150 460 C150 460 146.569 460 142 460 C140.22 460 128.308 457.493 126.679 456.775 L52.7455 424.209 C51.3586 423.598 50 421.515 50 420 C50 419.385 50.8858 414.786 51.1142 414.215 L54 407 C69 361 74 348 74 347 L74 70 C74 63.3764 65.9742 39.2989 62 34 L55.4 25.2 C53.6116 22.8155 50 11.9806 50 9 C50 4.03227 54.0323 0 59 0 L171 0 C175.968 0 180 4.03227 180 9 C180 12.1326 176.3 22.5538 174.325 24.985 L167 34 C162.475 39.5691 154 63.4399 154 70.6155 L154 336.897 C154 344.479 159.402 361.077 164.628 366.569 C181.094 383.874 198.275 390 242 390 C306 390 325 369 325 297 L325 70.6155 C325 63.4399 316.525 39.5691 312 34 L304.675 24.985 C302.7 22.5538 299 12.1326 299 9 C299 4.03227 303.032 0 308 0 L419 0 C423.968 0 428 4.03227 428 9 L428 9 Z " />
<glyph glyph-name="o" unicode="o" horiz-adv-x="498" d="M142 225 C142 374 156 418 235 418 C328 418 356 374 356 225 C356 76 342 32 263 32 C170 32 142 76 142 225 L142 225 Z M50 225 C50 44 96 -10 249 -10 C418 -10 448 44 448 225 C448 406 402 460 249 460 C80 460 50 406 50 225 L50 225 Z " />
<glyph glyph-name="p" unicode="p" horiz-adv-x="491" d="M150 427.5 L149.246 452.004 C149.11 456.415 145.414 460 141 460 C139.22 460 127.308 457.493 125.679 456.775 L51.7455 424.209 C50.3586 423.598 49 421.515 49 420 C49 419.385 49.8858 414.786 50.1142 414.215 L53 407 C68 361 73 348 73 347 L73 -160 C73 -166.624 64.9742 -190.701 61 -196 L54.4 -204.8 C52.6116 -207.185 49 -218.019 49 -221 C49 -225.968 53.0323 -230 58 -230 L170 -230 C174.968 -230 179 -225.968 179 -221 C179 -217.867 175.3 -207.446 173.325 -205.015 L166 -196 C161.475 -190.431 153 -166.56 153 -159.384 L153 -15.1241 C153 -10.3662 158.085 -6.82332 162.811 -7.37157 C179.552 -9.31347 201 -10 230 -10 C392 -10 440 50 440 250 C440 412 406 460 292 460 C240.025 460 207.788 449.791 173.39 418.142 C164.76 410.201 150.361 415.778 150 427.5 L150 427.5 Z M154 105.224 L154 350.151 C154 358.006 158.86 370.039 165.127 374.776 C182.932 388.236 203 393 236 393 C335 393 364 352 364 214 C364 78 339 38 257 38 C223.175 38 201.601 44.8062 173.187 65.1569 C163.191 72.3161 154 92.9289 154 105.224 L154 105.224 Z " />
<glyph glyph-name="q" unicode="q" horiz-adv-x="481" d="M442 -221 C442 -218.019 438.388 -207.185 436.6 -204.8 L430 -196 C426.026 -190.701 418 -166.624 418 -160 L418 457 C418 458.656 416.656 460 415 460 C414.312 460 409.898 459.039 409.272 458.753 L389.202 449.578 C385.145 447.723 369.851 447.344 365.66 448.873 C343.092 457.11 313.3 460 264 460 C99 460 50 399 50 194 C50 37 85 -10 203 -10 C236.825 -10 264.524 0.209375 307.997 32.42 C321.41 42.3578 338 32.5527 338 15.8596 L338 -160.384 C338 -167.56 329.525 -191.431 325 -197 L317.675 -206.015 C315.7 -208.446 312 -218.867 312 -222 C312 -226.968 316.032 -230.969 321 -230.931 L433 -230.069 C437.968 -230.031 442 -225.968 442 -221 L442 -221 Z M338 341.685 L338 112.006 C338 101.669 330.279 84.8156 321.768 78.9502 C297.816 62.445 280.45 57 259 57 C158 57 128 94 128 219 C128 368 156 412 250 412 C270.625 412 289.208 404.853 318.103 383.822 C328.196 376.475 338 354.169 338 341.685 L338 341.685 Z " />
<glyph glyph-name="r" unicode="r" horiz-adv-x="310" d="M236 460 C207.725 460 192.759 440.037 156.807 376.012 C156.294 375.099 153.672 372.966 153.5 374 C153.463 374.22 152.93 379.284 152.923 379.508 C151.901 412.518 150 461 150 461 C150 461 146.592 461 142 461 C140.22 461 128.308 458.493 126.679 457.775 L52.7455 425.209 C51.3586 424.598 50 422.515 50 421 C50 420.385 50.8858 415.786 51.1142 415.215 L54 408 C69 362 74 349 74 348 L74 71 C74 64.3764 65.9742 40.2989 62 35 L55.4 26.2 C53.6116 23.8155 50 12.9806 50 10 C50 5.03227 54.0323 1 59 1 L171 1 C175.968 1 180 5.03227 180 10 C180 13.1326 176.3 23.5538 174.325 25.985 L167 35 C162.475 40.5691 154 64.4399 154 71.6155 L154 320.998 C154 325.501 160.065 347.802 162.307 351.707 C175.258 374.262 181.129 382 187 382 C206 382 218 379 240 370 C254 363 278 354 278 354 C278 354 270.846 354 281.5 354 C283.249 354 285.805 355.695 286.553 357.276 C304.329 394.83 310 409.306 310 420 C310 431 304 438 283 450 C267 460 251 461 236 461 L236 460 Z " />
<glyph glyph-name="s" unicode="s" horiz-adv-x="387" d="M282 362 C286.286 362 290.571 361.265 295.487 361.055 C297.213 360.982 298.033 362.272 298.077 363.999 L299 400 L299.5 412.5 C299.752 418.807 295.296 427.719 289.764 430.759 C249.016 453.155 223.925 460 186 460 C100 460 74 431 74 332 C74 245 87 232 159 202 C233 171 246 160 246 96 C246 43.35 231.741 26.8238 185.612 26.0303 C185.335 26.0256 178.893 26.3452 178.618 26.3758 L173 27 C141 31 122 43 88 80 L75 93 C71 93 67 94 62 94 L61 70 L60.5 45 C60.228 31.4015 71.9273 14.4232 84.5457 9.34677 C120.793 -5.23562 147.75 -10 189 -10 C288 -10 317 20 317 122 C317 216 303 229 223 263 C158 291 146 301 146 362 C146 407 157 421 192 421 C203.455 421 215.82 417.355 235.185 408.327 C235.963 407.964 241.405 404.561 242.082 404.034 C254.003 394.749 270.393 377.179 282 362 L282 362 Z " />
<glyph glyph-name="t" unicode="t" horiz-adv-x="314" d="M282.5 58 L281 63 C279 60 267 59 225 59 C180 59 166 70 166 107 L166 350 C166 379.254 189.746 403 219 403 L248.5 403 C261.471 403 272 413.529 272 426.5 C272 439.471 261.471 450 248.5 450 L219 450 C189.746 450 166 473.746 166 503 L166 557 C166 558.656 164.656 560 163 560 C161.626 560 159.092 558.651 158.325 557.511 L93.5974 461.294 C91.8263 458.661 77.061 444.61 74.3437 442.972 L20.5691 410.549 C19.3547 409.817 18 407.418 18 406 C18 404.344 19.3441 403 21 403 L52 403 C70.767 403 86 387.767 86 369 L86 90 C86 13 108 -10 181 -10 C235.6 -10 258.829 3.30875 282.201 49.3903 C283.119 51.1986 283.083 56.0579 282.5 58 L282.5 58 Z " />
<glyph glyph-name="u" unicode="u" horiz-adv-x="429" d="M300 379.384 L300 122.638 C300 111.604 292.471 92.739 283.795 85.92 C259.829 67.0837 241.7 63 212 63 C149 63 130 84 130 155 L130 398 C130 426.702 106.702 450 78 450 L35 450 C30.0323 450 26 445.968 26 441 C26 438.019 29.6116 427.185 31.4 424.8 L38 416 C41.9742 410.701 50 386.624 50 380 L50 107 C50 17 77 -10 166 -10 C201.875 -10 226.266 -0.8125 276.688 45.6992 C286.378 54.6378 300 47.1832 300 34 C300 15.233 315.233 0 334 0 L397 0 C401.968 0 406 4.03227 406 9 C406 12.1326 402.3 22.5538 400.325 24.985 L393 34 C388.475 39.5691 380 63.4399 380 70.6155 L380 397 C380 426.254 356.254 450 327 450 L283 450 C278.032 450 274 445.968 274 441 C274 437.867 277.7 427.446 279.675 425.015 L287 416 C291.525 410.431 300 386.56 300 379.384 L300 379.384 Z " />
<glyph glyph-name="v" unicode="v" horiz-adv-x="458" d="M318.27 421.958 L322.5 413 C325.83 405.949 326.872 383.617 324.214 376.286 L249.125 169.223 C242.784 151.738 219.033 153.693 211.974 170.901 C182.324 243.176 152.389 315.736 123.565 387.185 C120.505 394.77 123.325 409.968 127.5 417 L132.405 425.261 C133.7 427.442 137 439.464 137 442 C137 446.968 132.968 451 128 451 L7 451 C2.03227 451 -2 446.968 -2 442 C-2 438.434 1.90083 429.217 4.4611 426.735 L21.8598 409.863 C23.8647 407.919 34.0578 393.606 35.125 391.025 C87.3744 264.674 139.601 138.301 190.948 11.0481 C193.15 5.59188 200.616 1 206.5 1 C212.378 1 219.824 5.4591 222.048 10.9 C273.302 136.299 323.698 261.676 374.952 386.173 C375.945 388.586 385.835 402.835 387.68 404.68 L408.282 425.282 C410.904 427.904 415 437.792 415 441.5 C415 446.744 410.744 451 405.5 451 L324 451 C318.48 451 314 446.52 314 441 C314 438.643 317.264 424.089 318.27 421.958 L318.27 421.958 Z " />
<glyph glyph-name="w" unicode="w" horiz-adv-x="716" d="M590.062 422.398 L594.5 413 C597.855 405.895 598.806 383.704 596.071 376.339 L522.592 178.455 C514.804 157.483 486.548 159.616 477.845 180.225 C441.02 267.425 404.084 354.625 366.523 441.825 C364.517 446.483 358.072 450 353 450 L349.325 450 C346.013 450 342.047 447.142 341 444 L339 438 L265.249 256.767 C245.638 208.575 180.973 210.983 165 260.5 L126.14 380.966 C123.372 389.546 126.591 408.788 132 416 L138.6 424.8 C140.388 427.185 144 438.019 144 441 C144 445.968 139.968 450 135 450 L15 450 C10.0323 450 6 445.968 6 441 C6 437.602 9.83169 427.913 12.1555 425.434 L26.743 409.874 C28.8944 407.579 38.396 392.754 39.3827 389.767 C82.2058 260.129 124.128 129.59 167 0 C169.14 -6.46774 173.188 0 180 0 C186.596 0 195.52 5.8867 198.116 11.9508 L307.233 266.822 C316.181 287.722 344.499 284.886 353.257 263.906 C388.894 178.537 425.252 93.5842 459.769 8.02316 C461.873 2.80888 468.377 0 474 0 C479.608 0 487.068 4.98025 489.218 10.1592 L644.156 383.333 C645.211 385.874 656.082 401.891 658.054 403.809 L679.191 424.375 C681.885 426.996 686 436.742 686 440.5 C686 445.744 681.744 450 676.5 450 L594.513 450 C589.269 450 585.224 445.736 585.5 440.5 C585.605 438.513 589.213 424.197 590.062 422.398 L590.062 422.398 Z " />
<glyph glyph-name="x" unicode="x" horiz-adv-x="438" d="M150 450 L45 450 C40.0323 450 36 445.968 36 441 C36 437.487 39.8801 428.12 42.364 425.636 L62.1418 405.858 C62.7342 405.266 70.2182 395.897 70.6651 395.189 L159.65 254.095 C168.735 239.691 167.732 208.875 158.651 194.469 C129.257 147.838 100.168 100.791 69.8463 54.3518 C69.3899 53.6528 62.7104 45.8404 62.1111 45.2592 L40.4611 24.2653 C37.9008 21.7826 34 12.5663 34 9 C34 4.03227 38.0323 0 43 0 L114 0 C118.968 0 123 4.03227 123 9 C123 10.6149 120.599 24.984 120.074 26.5112 L117.5 34 C115.219 40.6364 116.912 58.5968 120.394 64.6897 L181.616 171.828 C188.625 184.093 204.782 183.126 212.351 171.199 C235.013 135.487 257.925 99.5253 279.943 64.457 C282.823 59.8705 288.005 39.392 287.5 34 L286.268 20.8612 C286.254 20.7137 286 15.2744 286 15.1263 L286 9 C286 4.03227 290.032 0 295 0 L401 0 C405.968 0 410 4.03227 410 9 C410 12.5127 406.12 21.8801 403.636 24.364 L382.625 45.3753 C382.087 45.9127 374.865 54.8561 374.453 55.4946 L267.354 221.376 C255.938 239.059 256.526 272.547 268.556 289.818 L342.331 395.732 C342.749 396.333 350.145 404.894 350.679 405.396 L379 432 C379 436 380 450 380 450 C380 450 376.589 450 372.982 450 L306 450 C301.032 450 297 445.968 297 441 L297 435.825 C297 435.563 297.442 428.464 297.474 428.204 L299 416 C299.69 410.484 295.475 390.994 292.569 386.256 L264.5 340.5 C246.326 310.874 208.961 310.424 190.079 339.605 L159.96 386.153 C156.346 391.738 153.387 409.547 155 416 L157.166 424.662 C157.411 425.645 159 438.551 159 439.564 L159 441 C159 445.968 154.968 450 150 450 L150 450 Z " />
<glyph glyph-name="y" unicode="y" horiz-adv-x="417" d="M331.057 422.41 L335.5 413 C338.851 405.903 339.815 383.692 337.09 376.332 L173 -67 C144 -149 138 -156 93 -156 L50.8284 -156 C49.7245 -156 46.7806 -157.219 46 -158 C45.2194 -158.781 44 -161.724 44 -162.828 L44 -211 C44 -238 47 -240 78 -240 C149 -240 159 -228 211 -80 C270 78 328 237 387 395 C388.002 397.683 393.996 402.196 395.993 404.25 L415.378 424.189 C417.926 426.809 422 436.845 422 440.5 C422 445.744 417.744 450 412.5 450 L336.5 450 C331.256 450 327 445.744 327 440.5 C327 438.261 330.1 424.434 331.057 422.41 L331.057 422.41 Z M136 450 L14 450 C9.03227 450 5 445.968 5 441 C5 437.382 8.91954 428.311 11.5538 425.832 L29.4172 409.019 C31.5837 406.98 42.9068 390.595 44.0481 387.847 L178.484 64.2058 C186.96 43.8008 213.783 44.296 221.5 65 L233.506 97.2102 C236.71 105.808 236.769 132.478 233.225 140.941 C199.105 222.437 165.043 304.585 131.707 386.043 C128.6 393.635 131.312 408.946 135.5 416 L140.405 424.261 C141.7 426.442 145 438.464 145 441 C145 445.968 140.968 450 136 450 L136 450 Z " />
<glyph glyph-name="z" unicode="z" horiz-adv-x="424" d="M69.9068 448.813 C69.6364 441.388 68.8182 435.364 68 428 C67.1 428 63.77 384.26 62.384 371.138 C62.2189 369.575 63.4699 368 65.0414 368 L70.5 368 C73.8627 368 82.5825 371.682 84.9275 374.092 L97 386.5 C104.121 393.819 130.6 405 140.812 405 L175 405 C205.16 405 220.996 374.407 208.393 347.007 C159.526 240.774 110.285 134.915 62.3537 27.7463 C61.5238 25.8907 58 11.0327 58 9 C58 4.03227 62.0323 0 67 0 L305 0 C328.183 0 347 18.8173 347 42 L347 75.5 C347 80.1917 343.192 84 338.5 84 C334.918 84 326.823 80.2454 324.509 77.5112 L313.5 64.5 C306.547 56.2834 282.219 45 271.456 45 L227 45 C191.916 45 170.516 74.4714 185.09 106.385 C238.043 222.333 290.469 338.282 343.694 454.231 C343.983 454.859 339 446.309 339 447 C339 448.656 337.656 450 336 450 L121.064 450 C120.896 450 115.118 450.288 114.951 450.305 L81.0492 453.695 C80.8817 453.712 75.1039 454 74.9356 454 L74 454 C71.8725 454 69.9843 450.939 69.9068 448.813 L69.9068 448.813 Z " />
<glyph glyph-name="braceleft" unicode="&#x7b;" horiz-adv-x="230" d="M128.511 308.546 C156.791 330.102 167 368.3 167 431 C167 512 122 560 122 641 C122 726 140 730 199 728 L213.508 727.442 C219.847 727.198 225 732.157 225 738.5 L225 740.5 C225 745.744 220.744 750 215.5 750 L206 750 C89 750 54 753 54 609 C54 533 107 487 107 411 C107 331 89 309 25 309 L15 309 C9.4803 309 5 304.52 5 299 L5 295 C5 289.48 9.4803 285 15 285 L25 285 C89 285 107 263 107 182 C107 106 54 61 54 -15 C54 -166 89 -156 206 -156 L215.5 -156 C220.744 -156 225 -151.744 225 -146.5 L225 -144.5 C225 -138.17 219.844 -133.382 213.531 -133.85 L198 -135 C139 -139 122 -136 122 -47 C122 33 167 81 167 161 C167 224.525 156.791 263.548 128.511 285.367 C123.159 289.496 123.135 304.449 128.511 308.546 L128.511 308.546 Z " />
<glyph glyph-name="bar" unicode="&#x7c;" horiz-adv-x="225" d="M100 -260 C113.799 -260 125 -248.799 125 -235 L125 735 C125 748.799 113.799 760 100 760 C86.2007 760 75 748.799 75 735 L75 -235 C75 -248.799 86.2007 -260 100 -260 L100 -260 Z " />
<glyph glyph-name="braceright" unicode="&#x7d;" horiz-adv-x="240" d="M235 295 L235 299 C235 304.52 230.52 309 225 309 L215 309 C151 309 133 331 133 411 C133 487 186 533 186 609 C186 753 151 750 34 750 L24.5 750 C19.2563 750 15 745.744 15 740.5 L15 738.5 C15 732.157 20.1532 727.198 26.4915 727.442 L41 728 C100 730 118 726 118 641 C118 560 73 512 73 431 C73 368.3 83.2094 330.103 111.489 308.546 C116.865 304.449 116.841 289.496 111.489 285.367 C83.2094 263.547 73 224.525 73 161 C73 81 118 33 118 -47 C118 -136 101 -139 42 -135 L26.4686 -133.85 C20.1556 -133.382 15 -138.17 15 -144.5 L15 -146.5 C15 -151.744 19.2563 -156 24.5 -156 L34 -156 C151 -156 186 -166 186 -15 C186 61 133 106 133 182 C133 263 151 285 215 285 L225 285 C230.52 285 235 289.48 235 295 L235 295 Z " />
<glyph glyph-name="asciitilde" unicode="&#x7e;" horiz-adv-x="290" d="M25.2931 232.24 C39.175 276.463 41.55 290 71 290 C119 290 147 225 195 225 C244.725 225 248.82 252.568 277.726 342.925 C278.765 346.17 276.907 350 273.5 350 C270.064 350 265.614 345.747 264.564 342.475 C249.828 296.537 247.5 283 219 283 C171 283 143 348 95 348 C44.3 348 41.1313 321.382 12.2719 232 C11.2262 228.762 13.0969 225 16.5 225 C19.943 225 24.2619 228.955 25.2931 232.24 L25.2931 232.24 Z " />
<glyph glyph-name="exclamdown" unicode="&#xa1;" horiz-adv-x="245" d="M125 460 C79 460 65 446 65 400 C65 354 79 340 125 340 C171 340 185 354 185 400 C185 446 171 460 125 460 L125 460 Z M125 -210 C155.22 -210 177.638 -185.333 174.758 -155.25 L135.953 250.046 C135.429 255.515 130.495 260 125 260 C119.505 260 114.571 255.515 114.047 250.046 L75.242 -155.25 C72.3617 -185.333 94.7798 -210 125 -210 L125 -210 Z " />
<glyph glyph-name="cent" unicode="&#xa2;" horiz-adv-x="437" d="M392 100 C391.496 102.519 388.752 103.438 386.632 101.988 C340.637 70.5395 313.362 60.5625 268.967 62.8415 C248.756 63.879 237 79.5636 237 99.8009 L237 396.47 C237 406.803 242.84 413.077 252.957 410.978 C276.042 406.188 290.5 393.4 307 367 L331.158 327.976 C332.022 326.579 334.857 325 336.5 325 C337.598 325 341.977 326.365 342.88 326.989 L379.102 351.999 C379.977 352.603 384.331 356.231 385.029 357.034 C397.41 371.282 393.172 393.241 382 410 C360.125 445.875 326.766 458.016 265.174 458.48 C249.345 458.6 237 472.171 237 488 L237 497.5 C237 508.815 227.815 518 216.5 518 C205.185 518 196 508.815 196 497.5 L196 486 C196 471.061 179.334 451.615 164.939 447.62 C78.35 423.59 50 354.2 50 203 C50 73.5 76.0313 15.2031 157.57 -4.04688 C173.855 -7.89149 196 -29.2673 196 -46 L196 -61.5 C196 -72.8154 205.185 -82 216.5 -82 C227.815 -82 237 -72.8154 237 -61.5 L237 -47 C237 -29.9587 253.767 -12.217 270.689 -10.2079 C327.651 -3.44494 359.635 23.4985 390.222 88.0295 C390.96 89.5852 392.338 98.3119 392 100 L392 100 Z M172.696 90.3162 C140.571 117.32 129 166.325 129 248 C129 335.45 139.89 380.701 172.339 400.038 C187.436 409.034 196 400.489 196 382.914 L196 103.313 C196 87.1458 185.072 79.9134 172.696 90.3162 L172.696 90.3162 Z " />
<glyph glyph-name="guillemotleft" unicode="&#xab;" horiz-adv-x="378" d="M344.536 421.394 L218.761 290.44 C196.283 267.036 196.23 228.912 218.642 205.446 L344.547 73.6159 C345.925 72.1725 351.004 70 353 70 C355.457 70 356.843 72.264 355.724 74.4519 L281.338 219.954 C274.912 232.523 274.948 263.459 281.402 276.014 L355.714 420.553 C356.836 422.736 355.454 425 353 425 C351.01 425 345.915 422.829 344.536 421.394 L344.536 421.394 Z M184.536 421.394 L58.7615 290.44 C36.2833 267.036 36.2297 228.912 58.6419 205.446 L184.547 73.6159 C185.925 72.1725 191.004 70 193 70 C195.457 70 196.843 72.264 195.724 74.4519 L121.338 219.954 C114.912 232.523 114.948 263.459 121.402 276.014 L195.714 420.553 C196.836 422.736 195.454 425 193 425 C191.01 425 185.915 422.829 184.536 421.394 L184.536 421.394 Z " />
<glyph glyph-name="acute" unicode="&#xb4;" horiz-adv-x="290" d="M151 530 C153.413 530 159.456 532.614 161.109 534.373 L266 646 C288 670 295 707 295 707 C295 707 284.783 707 276.172 707 L255 707 C234.469 707 207.84 688.896 200.289 669.803 L147.207 535.58 C146.074 532.716 147.92 530 151 530 L151 530 Z " />
<glyph glyph-name="periodcentered" unicode="&#xb7;" horiz-adv-x="250" d="M125 210 C171 210 185 224 185 270 C185 316 171 330 125 330 C79 330 65 316 65 270 C65 224 79 210 125 210 L125 210 Z " />
<glyph glyph-name="guillemotright" unicode="&#xbb;" horiz-adv-x="366" d="M171.226 420.523 L243.439 275.276 C249.397 263.293 249.431 232.69 243.5 220.694 L171.216 74.4822 C170.119 72.2644 171.526 70 174 70 C176.013 70 181.044 72.1786 182.421 73.6464 L306.449 205.843 C328.239 229.069 328.186 266.881 306.33 290.045 L182.431 421.363 C181.054 422.823 176.007 425 174 425 C171.529 425 170.126 422.736 171.226 420.523 L171.226 420.523 Z M22.2259 420.523 L94.4393 275.276 C100.397 263.293 100.431 232.69 94.5005 220.694 L22.2159 74.4822 C21.1195 72.2644 22.526 70 25 70 C27.0127 70 32.0439 72.1786 33.4211 73.6464 L157.449 205.843 C179.239 229.069 179.186 266.881 157.33 290.045 L33.4313 421.363 C32.0537 422.823 27.0074 425 25 425 C22.5287 425 21.1258 422.736 22.2259 420.523 L22.2259 420.523 Z " />
<glyph glyph-name="questiondown" unicode="&#xbf;" horiz-adv-x="438" d="M240 455 C194 455 180 441 180 395 C180 349 194 335 240 335 C286 335 300 349 300 395 C300 441 286 455 240 455 L240 455 Z M310.1 -66.9834 C312.289 -66.6214 349.973 -60.4401 381.6 -58.5467 C390.943 -57.9874 398.477 -52.4439 397.041 -43.1946 C394.066 -24.0248 383.727 -18 360 -18 L323.59 -18 C320.897 -18 319.065 -15.9519 317.824 -18.3429 C316.914 -20.0988 312.667 -28 310 -28 L310 -47.5 C310 -58.1053 299.637 -68.7133 310.1 -66.9834 L310.1 -66.9834 Z M308.032 -110.592 C302.56 -160 284.8 -176 244 -176 C169 -176 147 -146 147 -45 C147 32.4 171.3 68.49 248.331 96.075 C264.073 101.712 276.053 117.283 274.42 133.924 C268.785 191.362 250 260 250 260 C250 260 247.233 260 240 260 C234.557 260 230.921 265.288 229.987 259.926 C229.712 258.343 225.1 231.721 220.761 197.978 C219.432 187.646 209.631 172.161 199.896 168.453 C89.295 126.33 55 70.85 55 -46 C55 -181 91 -221 213 -221 C337.25 -221 385.703 -192.672 395.875 -101.85 C398.852 -75.2731 380.633 -60.5788 354 -63 L351.828 -63.1975 C331.592 -65.0371 310.269 -90.3969 308.032 -110.592 L308.032 -110.592 Z " />
<glyph glyph-name="Agrave" unicode="&#xc0;" horiz-adv-x="651" d="M322.582 710.491 L271.117 827.391 C262.975 845.885 235.207 864 215 864 L191.867 864 C182.704 864 173.05 872.864 175.018 863.915 C175.425 862.068 182.647 830.353 204 809 L308.659 709.142 C310.313 707.564 316.714 705 319 705 C322.031 705 323.804 707.717 322.582 710.491 L322.582 710.491 Z M147.309 25.6973 L142.25 34 C138.122 40.7745 136.165 60.2132 138.802 67.6951 C151.21 102.896 168.451 153.377 192.77 220.822 C193.024 221.528 195 223.751 195 223 C195 220.792 196.792 219.004 199 219.009 L393.627 219.434 C409.259 219.468 429.624 204.261 435.101 189.621 C450.513 148.423 466.175 107.488 480.943 66.815 C483.85 58.8086 481.173 41.1214 476.5 34 L470.938 25.5244 C469.443 23.2457 466 11.7256 466 9 C466 4.03227 470.032 0 475 0 L600 0 L606.5 0 C610.088 0 613 2.91219 613 6.5 L613 8 C613 11.2247 609.513 19.2623 607.158 21.4653 L592.187 35.4705 C589.742 37.7574 578.732 53.3843 577.519 56.5045 C516.656 213.12 356 639 356 639 L351 652 C348.424 658.697 339.247 665 332.072 665 L322.5 665 C310.382 665 294.94 654.367 290.618 643.046 L278 610 C163.05 307.9 99.5425 142.078 69.4726 61.9474 C68.0977 58.2834 56.5206 42.4628 53.5957 39.8628 L35.7267 23.9793 C32.9516 21.5125 29 12.7129 29 9 C29 4.03227 33.0323 0 38 0 L141.986 0 C146.954 0 151.224 4.03992 151.5 9 C151.656 11.8164 148.777 23.2886 147.309 25.6973 L147.309 25.6973 Z M314.785 274 L248.336 274 C228.996 274 216.346 288.4 223.108 306.519 C241.889 356.837 263.471 414.126 288.163 479.001 C295.23 497.569 320.043 498.421 326.931 479.786 L372.414 356.742 C388.249 313.904 360.457 274 314.785 274 L314.785 274 Z " />
<glyph glyph-name="Aacute" unicode="&#xc1;" horiz-adv-x="651" d="M325 705 C327.286 705 333.687 707.564 335.341 709.142 L440 809 C462 831 469 864 469 864 C469 864 459.675 864 452.133 864 L429 864 C408.793 864 381.025 845.885 372.883 827.391 L321.418 710.491 C320.196 707.717 321.969 705 325 705 L325 705 Z M147.309 25.6973 L142.25 34 C138.122 40.7745 136.165 60.2132 138.802 67.6951 C151.21 102.896 168.451 153.377 192.77 220.822 C193.024 221.528 195 223.751 195 223 C195 220.792 196.792 219.004 199 219.009 L393.627 219.434 C409.259 219.468 429.624 204.261 435.101 189.621 C450.513 148.423 466.175 107.488 480.943 66.815 C483.85 58.8086 481.173 41.1214 476.5 34 L470.938 25.5244 C469.443 23.2457 466 11.7256 466 9 C466 4.03227 470.032 0 475 0 L600 0 L606.5 0 C610.088 0 613 2.91219 613 6.5 L613 8 C613 11.2247 609.513 19.2623 607.158 21.4653 L592.187 35.4705 C589.742 37.7574 578.732 53.3843 577.519 56.5045 C516.656 213.12 356 639 356 639 L351 652 C348.424 658.697 339.247 665 332.072 665 L322.5 665 C310.382 665 294.94 654.367 290.618 643.046 L278 610 C163.05 307.9 99.5425 142.078 69.4726 61.9474 C68.0977 58.2834 56.5206 42.4628 53.5957 39.8628 L35.7267 23.9793 C32.9516 21.5125 29 12.7129 29 9 C29 4.03227 33.0323 0 38 0 L141.986 0 C146.954 0 151.224 4.03992 151.5 9 C151.656 11.8164 148.777 23.2886 147.309 25.6973 L147.309 25.6973 Z M314.785 274 L248.336 274 C228.996 274 216.346 288.4 223.108 306.519 C241.889 356.837 263.471 414.126 288.163 479.001 C295.23 497.569 320.043 498.421 326.931 479.786 L372.414 356.742 C388.249 313.904 360.457 274 314.785 274 L314.785 274 Z " />
<glyph glyph-name="Acircumflex" unicode="&#xc2;" horiz-adv-x="651" d="M464 705 L463 706 L464 706 L464 705 L464 705 Z M147.309 25.6973 L142.25 34 C138.122 40.7745 136.165 60.2132 138.802 67.6951 C151.21 102.896 168.451 153.377 192.77 220.822 C193.024 221.528 195 223.751 195 223 C195 220.792 196.792 219.004 199 219.009 L393.627 219.434 C409.259 219.468 429.624 204.261 435.101 189.621 C450.513 148.423 466.175 107.488 480.943 66.815 C483.85 58.8086 481.173 41.1214 476.5 34 L470.938 25.5244 C469.443 23.2457 466 11.7256 466 9 C466 4.03227 470.032 0 475 0 L600 0 L606.5 0 C610.088 0 613 2.91219 613 6.5 L613 8 C613 11.2247 609.513 19.2623 607.158 21.4653 L592.187 35.4705 C589.742 37.7574 578.732 53.3843 577.519 56.5045 C516.656 213.12 356 639 356 639 L351 652 C348.424 658.697 339.247 665 332.072 665 L322.5 665 C310.382 665 294.94 654.367 290.618 643.046 L278 610 C163.05 307.9 99.5425 142.078 69.4726 61.9474 C68.0977 58.2834 56.5206 42.4628 53.5957 39.8628 L35.7267 23.9793 C32.9516 21.5125 29 12.7129 29 9 C29 4.03227 33.0323 0 38 0 L141.986 0 C146.954 0 151.224 4.03992 151.5 9 C151.656 11.8164 148.777 23.2886 147.309 25.6973 L147.309 25.6973 Z M323 863 C316.422 863 302.886 856.309 298.891 851.082 L191.644 710.767 C190.046 708.676 191.369 706 194 706 C195.821 706 203.49 708.298 205.011 709.3 L289.872 765.184 C306.537 776.158 339.657 776.459 356.518 765.789 L446.352 708.941 C447.724 708.073 454.877 706 456.5 706 C458.882 706 460.068 708.447 458.591 710.316 L347.297 851.229 C343.27 856.328 329.497 863 323 863 L323 863 Z M314.785 274 L248.336 274 C228.996 274 216.346 288.4 223.108 306.519 C241.889 356.837 263.471 414.126 288.163 479.001 C295.23 497.569 320.043 498.421 326.931 479.786 L372.414 356.742 C388.249 313.904 360.457 274 314.785 274 L314.785 274 Z " />
<glyph glyph-name="Atilde" unicode="&#xc3;" horiz-adv-x="651" d="M208.293 734.52 C222.175 774.365 224.55 787 254 787 C302 787 331 729 379 729 C428.725 729 432.82 753.716 461.726 834.662 C462.859 837.834 460.868 841 457.5 841 C454.099 841 449.703 837.407 448.564 834.202 C433.827 792.732 431.5 781 403 781 C355 781 326 840 278 840 C227.3 840 224.131 816.234 195.272 736.263 C194.099 733.012 196.054 729.765 199.5 729.5 C202.992 729.231 207.141 731.213 208.293 734.52 L208.293 734.52 Z M147.309 25.6973 L142.25 34 C138.122 40.7745 136.165 60.2132 138.802 67.6951 C151.21 102.896 168.451 153.377 192.77 220.822 C193.024 221.528 195 223.751 195 223 C195 220.792 196.792 219.004 199 219.009 L393.627 219.434 C409.259 219.468 429.624 204.261 435.101 189.621 C450.513 148.423 466.175 107.488 480.943 66.815 C483.85 58.8086 481.173 41.1214 476.5 34 L470.938 25.5244 C469.443 23.2457 466 11.7256 466 9 C466 4.03227 470.032 0 475 0 L600 0 L606.5 0 C610.088 0 613 2.91219 613 6.5 L613 8 C613 11.2247 609.513 19.2623 607.158 21.4653 L592.187 35.4705 C589.742 37.7574 578.732 53.3843 577.519 56.5045 C516.656 213.12 356 639 356 639 L351 652 C348.424 658.697 339.247 665 332.072 665 L322.5 665 C310.382 665 294.94 654.367 290.618 643.046 L278 610 C163.05 307.9 99.5425 142.078 69.4726 61.9474 C68.0977 58.2834 56.5206 42.4628 53.5957 39.8628 L35.7267 23.9793 C32.9516 21.5125 29 12.7129 29 9 C29 4.03227 33.0323 0 38 0 L141.986 0 C146.954 0 151.224 4.03992 151.5 9 C151.656 11.8164 148.777 23.2886 147.309 25.6973 L147.309 25.6973 Z M314.785 274 L248.336 274 C228.996 274 216.346 288.4 223.108 306.519 C241.889 356.837 263.471 414.126 288.163 479.001 C295.23 497.569 320.043 498.421 326.931 479.786 L372.414 356.742 C388.249 313.904 360.457 274 314.785 274 L314.785 274 Z " />
<glyph glyph-name="Adieresis" unicode="&#xc4;" horiz-adv-x="651" d="M414 735 C453 735 464 747 464 785 C464 824 453 835 414 835 C376 835 364 824 364 785 C364 747 376 735 414 735 L414 735 Z M234 735 C273 735 284 747 284 785 C284 824 273 835 234 835 C196 835 184 824 184 785 C184 747 196 735 234 735 L234 735 Z M147.309 25.6973 L142.25 34 C138.122 40.7745 136.165 60.2132 138.802 67.6951 C151.21 102.896 168.451 153.377 192.77 220.822 C193.024 221.528 195 223.751 195 223 C195 220.792 196.792 219.004 199 219.009 L393.627 219.434 C409.259 219.468 429.624 204.261 435.101 189.621 C450.513 148.423 466.175 107.488 480.943 66.815 C483.85 58.8086 481.173 41.1214 476.5 34 L470.938 25.5244 C469.443 23.2457 466 11.7256 466 9 C466 4.03227 470.032 0 475 0 L600 0 L606.5 0 C610.088 0 613 2.91219 613 6.5 L613 8 C613 11.2247 609.513 19.2623 607.158 21.4653 L592.187 35.4705 C589.742 37.7574 578.732 53.3843 577.519 56.5045 C516.656 213.12 356 639 356 639 L351 652 C348.424 658.697 339.247 665 332.072 665 L322.5 665 C310.382 665 294.94 654.367 290.618 643.046 L278 610 C163.05 307.9 99.5425 142.078 69.4726 61.9474 C68.0977 58.2834 56.5206 42.4628 53.5957 39.8628 L35.7267 23.9793 C32.9516 21.5125 29 12.7129 29 9 C29 4.03227 33.0323 0 38 0 L141.986 0 C146.954 0 151.224 4.03992 151.5 9 C151.656 11.8164 148.777 23.2886 147.309 25.6973 L147.309 25.6973 Z M314.785 274 L248.336 274 C228.996 274 216.346 288.4 223.108 306.519 C241.889 356.837 263.471 414.126 288.163 479.001 C295.23 497.569 320.043 498.421 326.931 479.786 L372.414 356.742 C388.249 313.904 360.457 274 314.785 274 L314.785 274 Z " />
<glyph glyph-name="Aring" unicode="&#xc5;" horiz-adv-x="651" d="M288 800 C288 840 296 852 321 852 C351 852 360 837 360 786 C360 750 350 734 328 734 C300 734 288 754 288 800 L288 800 Z M238 793 C238 735 264 710 324 710 C383 710 409 736 409 795 C409 857 389 876 324 876 C258 876 238 857 238 793 L238 793 Z M147.309 25.6973 L142.25 34 C138.122 40.7745 136.165 60.2132 138.802 67.6951 C151.21 102.896 168.451 153.377 192.77 220.822 C193.024 221.528 195 223.751 195 223 C195 220.792 196.792 219.004 199 219.009 L393.627 219.434 C409.259 219.468 429.624 204.261 435.101 189.621 C450.513 148.423 466.175 107.488 480.943 66.815 C483.85 58.8086 481.173 41.1214 476.5 34 L470.938 25.5244 C469.443 23.2457 466 11.7256 466 9 C466 4.03227 470.032 0 475 0 L600 0 L606.5 0 C610.088 0 613 2.91219 613 6.5 L613 8 C613 11.2247 609.513 19.2623 607.158 21.4653 L592.187 35.4705 C589.742 37.7574 578.732 53.3843 577.519 56.5045 C516.656 213.12 356 639 356 639 L351 652 C348.424 658.697 339.247 665 332.072 665 L322.5 665 C310.382 665 294.94 654.367 290.618 643.046 L278 610 C163.05 307.9 99.5425 142.078 69.4726 61.9474 C68.0977 58.2834 56.5206 42.4628 53.5957 39.8628 L35.7267 23.9793 C32.9516 21.5125 29 12.7129 29 9 C29 4.03227 33.0323 0 38 0 L141.986 0 C146.954 0 151.224 4.03992 151.5 9 C151.656 11.8164 148.777 23.2886 147.309 25.6973 L147.309 25.6973 Z M314.785 274 L248.336 274 C228.996 274 216.346 288.4 223.108 306.519 C241.889 356.837 263.471 414.126 288.163 479.001 C295.23 497.569 320.043 498.421 326.931 479.786 L372.414 356.742 C388.249 313.904 360.457 274 314.785 274 L314.785 274 Z " />
<glyph glyph-name="Ccedilla" unicode="&#xc7;" horiz-adv-x="677" d="M568.332 128.332 L525 85 L519.26 79.834 C518.775 79.3973 512.129 74.269 511.568 73.9355 C467.188 47.5556 431.6 39 377 39 C212 39 163 108 163 340 C163 555 215 619 389 619 C433.65 619 462.958 611.78 495.785 590.481 C496.435 590.059 503.939 584.05 504.485 583.5 C523.368 564.45 537.716 548.613 555.406 529.93 C557.765 527.439 567.069 523 570.5 523 C575.192 523 578.962 526.808 578.915 531.5 L578.273 595.665 C578.119 611.08 568.636 631.236 555.461 639.24 C518.793 661.513 473.975 669 389 669 C143 669 70 586 70 309 C70 67 139 -8 367 -10 C369.761 -10.0242 366.081 -12.2991 365.066 -14.8672 C359.991 -27.7172 348.676 -56.8872 328.049 -112.617 C324.984 -120.9 328.708 -131.46 337 -134.5 L348.653 -138.773 C348.796 -138.825 354.561 -140.641 354.708 -140.68 C377.582 -146.686 385 -155.852 385 -178 C385 -204 379 -212 361 -212 C331.3 -212 317.8 -208.76 305.92 -199.364 C304.231 -198.028 302 -199.346 302 -201.5 C302 -203.788 304.354 -209.254 306.034 -210.807 C329.825 -232.82 346.579 -240 375 -240 C429 -240 445 -222 445 -162 C445 -121.2 432.718 -99.185 396.484 -84.2866 C386.491 -80.1777 379.003 -66.0552 382.775 -55.9305 C391.169 -33.4032 396.54 -19.7722 399.505 -12.5698 C400.242 -10.7782 405.803 -8.88579 407.74 -8.83105 C478.725 -6.82455 521.087 1.78995 560.936 23.6685 C575.423 31.622 587.442 53.9831 587.963 70.5012 L589.747 126.988 C589.886 131.391 586.396 134.775 582 134.5 C579.078 134.317 570.402 130.402 568.332 128.332 L568.332 128.332 Z " />
<glyph glyph-name="Egrave" unicode="&#xc8;" horiz-adv-x="559" d="M267.582 710.491 L216.117 827.391 C207.975 845.885 180.207 864 160 864 L136.867 864 C127.704 864 118.05 872.864 120.018 863.915 C120.425 862.068 127.647 830.353 149 809 L253.659 709.142 C255.313 707.564 261.714 705 264 705 C267.031 705 268.804 707.717 267.582 710.491 L267.582 710.491 Z M487 55 C487 67.75 487 79.7775 486.386 94.1531 C486.183 98.8967 482.248 102 477.5 102 C474.553 102 464.678 98.5123 462.385 96.6618 L428.886 69.6275 C423.033 64.9036 397.823 56 390.301 56 L245.44 56 C211.527 56 184 83.527 184 117.44 L184 252.56 C184 286.473 211.527 314 245.44 314 L294.849 314 C300.855 314 324.817 306.531 329.759 303.119 L346.537 291.534 C349.505 289.485 363.893 285 367.5 285 C373.848 285 379 290.152 379 296.5 L379 386.5 C379 392.848 373.848 398 367.5 398 C363.893 398 349.505 393.515 346.537 391.466 L329.759 379.881 C324.817 376.469 300.855 369 294.849 369 L245.44 369 C211.527 369 184 396.527 184 430.44 L184 544.56 C184 578.473 211.527 606 245.44 606 L366.809 606 C373.42 606 397.933 597.944 403.255 594.023 L437.157 569.042 C439.398 567.391 449.717 564 452.5 564 L452.984 564 C457.385 564 461.207 567.298 461.495 571.69 C462.306 584.028 463 594.167 463 605 L463.5 632.5 C463.776 647.677 451.675 660 436.495 660 L74.5 660 C69.2563 660 65 655.744 65 650.5 C65 647.21 68.896 636.164 70.9596 633.602 L80.4066 621.875 C85.1136 616.031 94 590.835 94 583.331 L94 76.6686 C94 69.1655 85.1136 43.9686 80.4066 38.1255 L70.9596 26.3982 C68.896 23.8364 65 12.7895 65 9.5 C65 4.25628 69.2563 0 74.5 0 L461.495 0 C476.675 0 488.776 12.3233 488.5 27.5 L488 55 L487 55 Z " />
<glyph glyph-name="Eacute" unicode="&#xc9;" horiz-adv-x="559" d="M270 705 C272.286 705 278.687 707.564 280.341 709.142 L385 809 C407 831 414 864 414 864 C414 864 404.675 864 397.133 864 L374 864 C353.793 864 326.025 845.885 317.883 827.391 L266.418 710.491 C265.196 707.717 266.969 705 270 705 L270 705 Z M487 55 C487 67.75 487 79.7775 486.386 94.1531 C486.183 98.8967 482.248 102 477.5 102 C474.553 102 464.678 98.5123 462.385 96.6618 L428.886 69.6275 C423.033 64.9036 397.823 56 390.301 56 L245.44 56 C211.527 56 184 83.527 184 117.44 L184 252.56 C184 286.473 211.527 314 245.44 314 L294.849 314 C300.855 314 324.817 306.531 329.759 303.119 L346.537 291.534 C349.505 289.485 363.893 285 367.5 285 C373.848 285 379 290.152 379 296.5 L379 386.5 C379 392.848 373.848 398 367.5 398 C363.893 398 349.505 393.515 346.537 391.466 L329.759 379.881 C324.817 376.469 300.855 369 294.849 369 L245.44 369 C211.527 369 184 396.527 184 430.44 L184 544.56 C184 578.473 211.527 606 245.44 606 L366.809 606 C373.42 606 397.933 597.944 403.255 594.023 L437.157 569.042 C439.398 567.391 449.717 564 452.5 564 L452.984 564 C457.385 564 461.207 567.298 461.495 571.69 C462.306 584.028 463 594.167 463 605 L463.5 632.5 C463.776 647.677 451.675 660 436.495 660 L74.5 660 C69.2563 660 65 655.744 65 650.5 C65 647.21 68.896 636.164 70.9596 633.602 L80.4066 621.875 C85.1136 616.031 94 590.835 94 583.331 L94 76.6686 C94 69.1655 85.1136 43.9686 80.4066 38.1255 L70.9596 26.3982 C68.896 23.8364 65 12.7895 65 9.5 C65 4.25628 69.2563 0 74.5 0 L461.495 0 C476.675 0 488.776 12.3233 488.5 27.5 L488 55 L487 55 Z " />
<glyph glyph-name="Ecircumflex" unicode="&#xca;" horiz-adv-x="559" d="M404 705 L403 706 L404 706 L404 705 L404 705 Z M264 863 C257.422 863 243.886 856.309 239.891 851.082 L132.644 710.767 C131.046 708.676 132.369 706 135 706 C136.827 706 144.481 708.302 146.005 709.31 L231.512 765.855 C248.441 777.049 281.678 777.231 298.728 766.223 L387.379 708.983 C388.763 708.09 395.853 706 397.5 706 C399.882 706 401.068 708.447 399.591 710.316 L288.297 851.229 C284.27 856.328 270.497 863 264 863 L264 863 Z M487 55 C487 67.75 487 79.7775 486.386 94.1531 C486.183 98.8967 482.248 102 477.5 102 C474.553 102 464.678 98.5123 462.385 96.6618 L428.886 69.6275 C423.033 64.9036 397.823 56 390.301 56 L245.44 56 C211.527 56 184 83.527 184 117.44 L184 252.56 C184 286.473 211.527 314 245.44 314 L294.849 314 C300.855 314 324.817 306.531 329.759 303.119 L346.537 291.534 C349.505 289.485 363.893 285 367.5 285 C373.848 285 379 290.152 379 296.5 L379 386.5 C379 392.848 373.848 398 367.5 398 C363.893 398 349.505 393.515 346.537 391.466 L329.759 379.881 C324.817 376.469 300.855 369 294.849 369 L245.44 369 C211.527 369 184 396.527 184 430.44 L184 544.56 C184 578.473 211.527 606 245.44 606 L366.809 606 C373.42 606 397.933 597.944 403.255 594.023 L437.157 569.042 C439.398 567.391 449.717 564 452.5 564 L452.984 564 C457.385 564 461.207 567.298 461.495 571.69 C462.306 584.028 463 594.167 463 605 L463.5 632.5 C463.776 647.677 451.675 660 436.495 660 L74.5 660 C69.2563 660 65 655.744 65 650.5 C65 647.21 68.896 636.164 70.9596 633.602 L80.4066 621.875 C85.1136 616.031 94 590.835 94 583.331 L94 76.6686 C94 69.1655 85.1136 43.9686 80.4066 38.1255 L70.9596 26.3982 C68.896 23.8364 65 12.7895 65 9.5 C65 4.25628 69.2563 0 74.5 0 L461.495 0 C476.675 0 488.776 12.3233 488.5 27.5 L488 55 L487 55 Z " />
<glyph glyph-name="Edieresis" unicode="&#xcb;" horiz-adv-x="559" d="M354 735 C393 735 404 747 404 785 C404 824 393 835 354 835 C316 835 304 824 304 785 C304 747 316 735 354 735 L354 735 Z M174 735 C213 735 224 747 224 785 C224 824 213 835 174 835 C136 835 124 824 124 785 C124 747 136 735 174 735 L174 735 Z M487 55 C487 67.75 487 79.7775 486.386 94.1531 C486.183 98.8967 482.248 102 477.5 102 C474.553 102 464.678 98.5123 462.385 96.6618 L428.886 69.6275 C423.033 64.9036 397.823 56 390.301 56 L245.44 56 C211.527 56 184 83.527 184 117.44 L184 252.56 C184 286.473 211.527 314 245.44 314 L294.849 314 C300.855 314 324.817 306.531 329.759 303.119 L346.537 291.534 C349.505 289.485 363.893 285 367.5 285 C373.848 285 379 290.152 379 296.5 L379 386.5 C379 392.848 373.848 398 367.5 398 C363.893 398 349.505 393.515 346.537 391.466 L329.759 379.881 C324.817 376.469 300.855 369 294.849 369 L245.44 369 C211.527 369 184 396.527 184 430.44 L184 544.56 C184 578.473 211.527 606 245.44 606 L366.809 606 C373.42 606 397.933 597.944 403.255 594.023 L437.157 569.042 C439.398 567.391 449.717 564 452.5 564 L452.984 564 C457.385 564 461.207 567.298 461.495 571.69 C462.306 584.028 463 594.167 463 605 L463.5 632.5 C463.776 647.677 451.675 660 436.495 660 L74.5 660 C69.2563 660 65 655.744 65 650.5 C65 647.21 68.896 636.164 70.9596 633.602 L80.4066 621.875 C85.1136 616.031 94 590.835 94 583.331 L94 76.6686 C94 69.1655 85.1136 43.9686 80.4066 38.1255 L70.9596 26.3982 C68.896 23.8364 65 12.7895 65 9.5 C65 4.25628 69.2563 0 74.5 0 L461.495 0 C476.675 0 488.776 12.3233 488.5 27.5 L488 55 L487 55 Z " />
<glyph glyph-name="Igrave" unicode="&#xcc;" horiz-adv-x="288" d="M147.582 710.491 L96.1173 827.391 C87.9751 845.885 60.2072 864 40 864 L16.8671 864 C7.70413 864 -1.95041 872.864 0.0183696 863.915 C0.42474 862.068 7.64706 830.353 29 809 L133.659 709.142 C135.313 707.564 141.714 705 144 705 C147.031 705 148.804 707.717 147.582 710.491 L147.582 710.491 Z M218 9.5 C218 12.7895 214.104 23.8364 212.04 26.3982 L202.593 38.1255 C197.886 43.9686 189 69.1655 189 76.6686 L189 583.331 C189 590.835 197.886 616.031 202.593 621.875 L212.04 633.602 C214.104 636.164 218 647.21 218 650.5 C218 655.744 213.744 660 208.5 660 L79.5 660 C74.2563 660 70 655.744 70 650.5 C70 647.21 73.896 636.164 75.9596 633.602 L85.4066 621.875 C90.1136 616.031 99 590.835 99 583.331 L99 76.6686 C99 69.1655 90.1136 43.9686 85.4066 38.1255 L75.9596 26.3982 C73.896 23.8364 70 12.7895 70 9.5 C70 4.25628 74.2563 0 79.5 0 L208.5 0 C213.744 0 218 4.25628 218 9.5 L218 9.5 Z " />
<glyph glyph-name="Iacute" unicode="&#xcd;" horiz-adv-x="288" d="M150 705 C152.286 705 158.687 707.564 160.341 709.142 L265 809 C287 831 294 864 294 864 C294 864 284.675 864 277.133 864 L254 864 C233.793 864 206.025 845.885 197.883 827.391 L146.418 710.491 C145.196 707.717 146.969 705 150 705 L150 705 Z M218 9.5 C218 12.7895 214.104 23.8364 212.04 26.3982 L202.593 38.1255 C197.886 43.9686 189 69.1655 189 76.6686 L189 583.331 C189 590.835 197.886 616.031 202.593 621.875 L212.04 633.602 C214.104 636.164 218 647.21 218 650.5 C218 655.744 213.744 660 208.5 660 L79.5 660 C74.2563 660 70 655.744 70 650.5 C70 647.21 73.896 636.164 75.9596 633.602 L85.4066 621.875 C90.1136 616.031 99 590.835 99 583.331 L99 76.6686 C99 69.1655 90.1136 43.9686 85.4066 38.1255 L75.9596 26.3982 C73.896 23.8364 70 12.7895 70 9.5 C70 4.25628 74.2563 0 79.5 0 L208.5 0 C213.744 0 218 4.25628 218 9.5 L218 9.5 Z " />
<glyph glyph-name="Icircumflex" unicode="&#xce;" horiz-adv-x="288" d="M284 705 L283 706 L284 706 L284 705 L284 705 Z M144 863 C137.422 863 123.886 856.309 119.891 851.082 L12.6436 710.767 C11.0457 708.676 12.3688 706 15 706 C16.8268 706 24.4809 708.302 26.0047 709.31 L111.512 765.855 C128.441 777.049 161.678 777.231 178.728 766.223 L267.379 708.983 C268.763 708.09 275.853 706 277.5 706 C279.882 706 281.068 708.447 279.591 710.316 L168.297 851.229 C164.27 856.328 150.497 863 144 863 L144 863 Z M218 9.5 C218 12.7895 214.104 23.8364 212.04 26.3982 L202.593 38.1255 C197.886 43.9686 189 69.1655 189 76.6686 L189 583.331 C189 590.835 197.886 616.031 202.593 621.875 L212.04 633.602 C214.104 636.164 218 647.21 218 650.5 C218 655.744 213.744 660 208.5 660 L79.5 660 C74.2563 660 70 655.744 70 650.5 C70 647.21 73.896 636.164 75.9596 633.602 L85.4066 621.875 C90.1136 616.031 99 590.835 99 583.331 L99 76.6686 C99 69.1655 90.1136 43.9686 85.4066 38.1255 L75.9596 26.3982 C73.896 23.8364 70 12.7895 70 9.5 C70 4.25628 74.2563 0 79.5 0 L208.5 0 C213.744 0 218 4.25628 218 9.5 L218 9.5 Z " />
<glyph glyph-name="Idieresis" unicode="&#xcf;" horiz-adv-x="288" d="M234 735 C273 735 284 747 284 785 C284 824 273 835 234 835 C196 835 184 824 184 785 C184 747 196 735 234 735 L234 735 Z M54 735 C93 735 104 747 104 785 C104 824 93 835 54 835 C16 835 4 824 4 785 C4 747 16 735 54 735 L54 735 Z M218 9.5 C218 12.7895 214.104 23.8364 212.04 26.3982 L202.593 38.1255 C197.886 43.9686 189 69.1655 189 76.6686 L189 583.331 C189 590.835 197.886 616.031 202.593 621.875 L212.04 633.602 C214.104 636.164 218 647.21 218 650.5 C218 655.744 213.744 660 208.5 660 L79.5 660 C74.2563 660 70 655.744 70 650.5 C70 647.21 73.896 636.164 75.9596 633.602 L85.4066 621.875 C90.1136 616.031 99 590.835 99 583.331 L99 76.6686 C99 69.1655 90.1136 43.9686 85.4066 38.1255 L75.9596 26.3982 C73.896 23.8364 70 12.7895 70 9.5 C70 4.25628 74.2563 0 79.5 0 L208.5 0 C213.744 0 218 4.25628 218 9.5 L218 9.5 Z " />
<glyph glyph-name="Ntilde" unicode="&#xd1;" horiz-adv-x="664" d="M228.293 734.52 C242.175 774.365 244.55 787 274 787 C322 787 351 729 399 729 C448.725 729 452.82 753.716 481.726 834.662 C482.859 837.834 480.868 841 477.5 841 C474.099 841 469.703 837.407 468.564 834.202 C453.827 792.732 451.5 781 423 781 C375 781 346 840 298 840 C247.3 840 244.131 816.234 215.272 736.263 C214.099 733.012 216.054 729.765 219.5 729.5 C222.992 729.231 227.141 731.213 228.293 734.52 L228.293 734.52 Z M69.8324 633.501 L79.0578 621.64 C83.4436 616.001 92 591.063 92 583.919 L92 76.6686 C92 69.1655 83.1136 43.9686 78.4066 38.1255 L68.9596 26.3982 C66.896 23.8364 63 12.7895 63 9.5 C63 4.25628 67.2563 0 72.5 0 L189.5 0 C194.744 0 199 4.25628 199 9.5 C199 13.2583 194.885 23.004 192.191 25.6249 L180.5 37 C173.181 44.121 162 70.6004 162 80.8118 L162 317.726 C162 378.961 236.664 403.457 272.939 354.123 L525.745 10.3074 C530.75 3.50026 547.551 -5 556 -5 C566.487 -5 575 3.51257 575 14 L575 583.919 C575 591.063 583.556 616.001 587.942 621.64 L597.168 633.501 C599.144 636.042 603 647.281 603 650.5 C603 655.744 598.744 660 593.5 660 L477.5 660 C472.256 660 468 655.744 468 650.5 C468 646.742 472.115 636.996 474.809 634.375 L486.5 623 C493.819 615.879 505 589.4 505 579.188 L505 379.089 C505 317.803 430.146 293.351 393.967 342.82 L180.409 634.829 C172.207 646.044 144.71 660 130.816 660 L73.5 660 C68.2563 660 64 655.744 64 650.5 C64 647.281 67.856 636.042 69.8324 633.501 L69.8324 633.501 Z " />
<glyph glyph-name="Ograve" unicode="&#xd2;" horiz-adv-x="767" d="M372.582 710.491 L321.117 827.391 C312.975 845.885 285.207 864 265 864 L241.867 864 C232.704 864 223.05 872.864 225.018 863.915 C225.425 862.068 232.647 830.353 254 809 L358.659 709.142 C360.313 707.564 366.714 705 369 705 C372.031 705 373.804 707.717 372.582 710.491 L372.582 710.491 Z M166 363 C166 562 212 621 366 621 C547 621 601 546 601 293 C601 98 556 40 404 40 C221 40 166 114 166 363 L166 363 Z M70 328 C70 68 142 -10 384 -10 C625 -10 697 68 697 328 C697 591 625 670 384 670 C142 670 70 591 70 328 L70 328 Z " />
<glyph glyph-name="Oacute" unicode="&#xd3;" horiz-adv-x="767" d="M375 705 C377.286 705 383.687 707.564 385.341 709.142 L490 809 C512 831 519 864 519 864 C519 864 509.675 864 502.133 864 L479 864 C458.793 864 431.025 845.885 422.883 827.391 L371.418 710.491 C370.196 707.717 371.969 705 375 705 L375 705 Z M166 363 C166 562 212 621 366 621 C547 621 601 546 601 293 C601 98 556 40 404 40 C221 40 166 114 166 363 L166 363 Z M70 328 C70 68 142 -10 384 -10 C625 -10 697 68 697 328 C697 591 625 670 384 670 C142 670 70 591 70 328 L70 328 Z " />
<glyph glyph-name="Ocircumflex" unicode="&#xd4;" horiz-adv-x="767" d="M509 705 L508 706 L509 706 L509 705 L509 705 Z M166 363 C166 562 212 621 366 621 C547 621 601 546 601 293 C601 98 556 40 404 40 C221 40 166 114 166 363 L166 363 Z M70 328 C70 68 142 -10 384 -10 C625 -10 697 68 697 328 C697 591 625 670 384 670 C142 670 70 591 70 328 L70 328 Z M369 863 C362.422 863 348.886 856.309 344.891 851.082 L237.644 710.767 C236.046 708.676 237.369 706 240 706 C241.821 706 249.49 708.298 251.011 709.3 L335.872 765.184 C352.537 776.158 385.657 776.459 402.518 765.789 L492.352 708.941 C493.724 708.073 500.877 706 502.5 706 C504.882 706 506.068 708.447 504.591 710.316 L393.297 851.229 C389.27 856.328 375.497 863 369 863 L369 863 Z " />
<glyph glyph-name="Otilde" unicode="&#xd5;" horiz-adv-x="767" d="M248.293 734.52 C262.175 774.365 264.55 787 294 787 C342 787 371 729 419 729 C468.725 729 472.82 753.716 501.726 834.662 C502.859 837.834 500.868 841 497.5 841 C494.099 841 489.703 837.407 488.564 834.202 C473.827 792.732 471.5 781 443 781 C395 781 366 840 318 840 C267.3 840 264.131 816.234 235.272 736.263 C234.099 733.012 236.054 729.765 239.5 729.5 C242.992 729.231 247.141 731.213 248.293 734.52 L248.293 734.52 Z M166 363 C166 562 212 621 366 621 C547 621 601 546 601 293 C601 98 556 40 404 40 C221 40 166 114 166 363 L166 363 Z M70 328 C70 68 142 -10 384 -10 C625 -10 697 68 697 328 C697 591 625 670 384 670 C142 670 70 591 70 328 L70 328 Z " />
<glyph glyph-name="Odieresis" unicode="&#xd6;" horiz-adv-x="767" d="M459 735 C498 735 509 746 509 785 C509 824 498 835 459 835 C421 835 409 824 409 785 C409 747 421 735 459 735 L459 735 Z M279 735 C318 735 329 747 329 785 C329 824 318 835 279 835 C241 835 229 824 229 785 C229 747 241 735 279 735 L279 735 Z M166 363 C166 562 212 621 366 621 C547 621 601 546 601 293 C601 98 556 40 404 40 C221 40 166 114 166 363 L166 363 Z M70 328 C70 68 142 -10 384 -10 C625 -10 697 68 697 328 C697 591 625 670 384 670 C142 670 70 591 70 328 L70 328 Z " />
<glyph glyph-name="Oslash" unicode="&#xd8;" horiz-adv-x="767" d="M70 328 C70 220.9 82.2825 144.868 113.603 92.533 C121.255 79.7471 119.684 51.9032 110.265 40.3571 L91.8084 17.7328 C82.4809 6.29915 89.7443 -9 104.5 -9 L112.368 -9 C123.684 -9 148.777 2.78989 156 11.5 C163.933 21.0663 184.667 24.8595 195.97 19.6947 C241.985 -1.33 303.1 -10 383 -10 C624 -10 696 68 696 328 C696 436.8 683.717 514.532 651.783 567.953 C643.973 581.018 645.679 609.296 655.394 621.014 L673.982 643.439 C683.339 654.726 676.161 670 661.5 670 L654.019 670 C642.427 670 617.293 658.009 610 649 C602.038 639.165 581.542 635.045 570.033 640.305 C524.038 661.33 463.05 670 384 670 C142 670 70 591 70 328 L70 328 Z M523.498 542.642 L213.312 164.126 C204.269 153.091 191.341 153.359 186.964 166.938 C171.503 214.908 165 278.7 165 362 C165 561 211 620 365 620 C433.475 620 483.573 609.45 519.786 582.736 C534.773 571.68 535.301 557.046 523.498 542.642 L523.498 542.642 Z M579.975 490.609 C595.22 441.77 601 377 601 292 C601 97 556 39 404 39 C334.7 39 283.777 49.89 247.3 76.7236 C232.282 87.7713 231.702 102.924 243.552 117.317 L553.347 493.561 C562.552 504.74 575.661 504.432 579.975 490.609 L579.975 490.609 Z " />
<glyph glyph-name="Ugrave" unicode="&#xd9;" horiz-adv-x="669" d="M348.582 710.491 L297.117 827.391 C288.975 845.885 261.207 864 241 864 L217.867 864 C208.704 864 199.05 872.864 201.018 863.915 C201.425 862.068 208.647 830.353 230 809 L334.659 709.142 C336.313 707.564 342.714 705 345 705 C348.031 705 349.804 707.717 348.582 710.491 L348.582 710.491 Z M94 583.331 L94 234 C94 46 149 -10 335 -10 C520 -10 575 46 575 234 L575 583.331 C575 590.835 583.886 616.031 588.593 621.875 L598.04 633.602 C600.104 636.164 604 647.21 604 650.5 C604 655.744 599.744 660 594.5 660 L477.5 660 C472.256 660 468 655.744 468 650.5 C468 646.742 472.115 636.996 474.809 634.375 L486.5 623 C493.819 615.879 505 589.4 505 579.188 L505 213 C505 86 472 48 362 48 C225 48 184 94 184 250 L184 583.331 C184 590.835 192.886 616.031 197.593 621.875 L207.04 633.602 C209.104 636.164 213 647.21 213 650.5 C213 655.744 208.744 660 203.5 660 L74.5 660 C69.2563 660 65 655.744 65 650.5 C65 647.21 68.896 636.164 70.9596 633.602 L80.4066 621.875 C85.1136 616.031 94 590.835 94 583.331 L94 583.331 Z " />
<glyph glyph-name="Uacute" unicode="&#xda;" horiz-adv-x="669" d="M341 705 C343.286 705 349.687 707.564 351.341 709.142 L456 809 C478 831 485 864 485 864 C485 864 475.675 864 468.133 864 L445 864 C424.793 864 397.025 845.885 388.883 827.391 L337.418 710.491 C336.196 707.717 337.969 705 341 705 L341 705 Z M94 583.331 L94 234 C94 46 149 -10 335 -10 C520 -10 575 46 575 234 L575 583.331 C575 590.835 583.886 616.031 588.593 621.875 L598.04 633.602 C600.104 636.164 604 647.21 604 650.5 C604 655.744 599.744 660 594.5 660 L477.5 660 C472.256 660 468 655.744 468 650.5 C468 646.742 472.115 636.996 474.809 634.375 L486.5 623 C493.819 615.879 505 589.4 505 579.188 L505 213 C505 86 472 48 362 48 C225 48 184 94 184 250 L184 583.331 C184 590.835 192.886 616.031 197.593 621.875 L207.04 633.602 C209.104 636.164 213 647.21 213 650.5 C213 655.744 208.744 660 203.5 660 L74.5 660 C69.2563 660 65 655.744 65 650.5 C65 647.21 68.896 636.164 70.9596 633.602 L80.4066 621.875 C85.1136 616.031 94 590.835 94 583.331 L94 583.331 Z " />
<glyph glyph-name="Ucircumflex" unicode="&#xdb;" horiz-adv-x="669" d="M485 705 L484 706 L485 706 L485 705 L485 705 Z M345 863 C338.422 863 324.886 856.309 320.891 851.082 L213.644 710.767 C212.046 708.676 213.369 706 216 706 C217.821 706 225.49 708.298 227.011 709.3 L311.872 765.184 C328.537 776.158 361.657 776.459 378.518 765.789 L468.352 708.941 C469.724 708.073 476.877 706 478.5 706 C480.882 706 482.068 708.447 480.591 710.316 L369.297 851.229 C365.27 856.328 351.497 863 345 863 L345 863 Z M94 583.331 L94 234 C94 46 149 -10 335 -10 C520 -10 575 46 575 234 L575 583.331 C575 590.835 583.886 616.031 588.593 621.875 L598.04 633.602 C600.104 636.164 604 647.21 604 650.5 C604 655.744 599.744 660 594.5 660 L477.5 660 C472.256 660 468 655.744 468 650.5 C468 646.742 472.115 636.996 474.809 634.375 L486.5 623 C493.819 615.879 505 589.4 505 579.188 L505 213 C505 86 472 48 362 48 C225 48 184 94 184 250 L184 583.331 C184 590.835 192.886 616.031 197.593 621.875 L207.04 633.602 C209.104 636.164 213 647.21 213 650.5 C213 655.744 208.744 660 203.5 660 L74.5 660 C69.2563 660 65 655.744 65 650.5 C65 647.21 68.896 636.164 70.9596 633.602 L80.4066 621.875 C85.1136 616.031 94 590.835 94 583.331 L94 583.331 Z " />
<glyph glyph-name="Udieresis" unicode="&#xdc;" horiz-adv-x="669" d="M435 735 C474 735 485 746 485 785 C485 824 474 835 435 835 C397 835 385 824 385 785 C385 747 397 735 435 735 L435 735 Z M255 735 C294 735 305 747 305 785 C305 824 294 835 255 835 C217 835 205 824 205 785 C205 747 217 735 255 735 L255 735 Z M94 583.331 L94 234 C94 46 149 -10 335 -10 C520 -10 575 46 575 234 L575 583.331 C575 590.835 583.886 616.031 588.593 621.875 L598.04 633.602 C600.104 636.164 604 647.21 604 650.5 C604 655.744 599.744 660 594.5 660 L477.5 660 C472.256 660 468 655.744 468 650.5 C468 646.742 472.115 636.996 474.809 634.375 L486.5 623 C493.819 615.879 505 589.4 505 579.188 L505 213 C505 86 472 48 362 48 C225 48 184 94 184 250 L184 583.331 C184 590.835 192.886 616.031 197.593 621.875 L207.04 633.602 C209.104 636.164 213 647.21 213 650.5 C213 655.744 208.744 660 203.5 660 L74.5 660 C69.2563 660 65 655.744 65 650.5 C65 647.21 68.896 636.164 70.9596 633.602 L80.4066 621.875 C85.1136 616.031 94 590.835 94 583.331 L94 583.331 Z " />
<glyph glyph-name="Yacute" unicode="&#xdd;" horiz-adv-x="643" d="M326 705 C328.286 705 334.687 707.564 336.341 709.142 L441 809 C463 831 470 864 470 864 C470 864 460.675 864 453.133 864 L430 864 C409.793 864 382.025 845.885 373.883 827.391 L322.418 710.491 C321.196 707.717 322.969 705 326 705 L326 705 Z M167.5 660 L49 660 C44.0323 660 40 655.968 40 651 C40 647.243 43.9653 638.571 46.8073 636.113 L71.0886 615.113 C71.9055 614.406 80.8292 604.459 81.4432 603.57 L274.106 324.765 C277.524 319.818 285 295.85 285 289.837 L285 78.8992 C285 69.9853 274.874 43.9536 268.851 37.3826 L258.419 26.003 C256.025 23.391 252 13.0433 252 9.5 C252 4.25628 256.256 0 261.5 0 L398.5 0 C403.744 0 408 4.25628 408 9.5 C408 13.0433 403.975 23.391 401.581 26.003 L391.149 37.3826 C385.126 43.9536 375 69.9853 375 78.8992 L375 294.081 C375 299.398 381.775 322.626 384.633 327.11 L566.592 612.518 C567.544 614.011 578.452 626.203 579.83 627.315 L597.551 641.606 C599.892 643.494 603 649.992 603 653 C603 656.864 599.864 660 596 660 L497.5 660 C492.256 660 488 655.744 488 650.5 L488 646.918 C488 646.294 489.011 635.803 489.13 635.191 L491.5 623 C492.827 616.174 488.902 595.388 485.176 589.516 L369.939 407.883 C356.694 387.007 328.831 388.393 314.524 408.556 C270.924 470.005 227.039 531.844 184.265 593.143 C180.875 598 176.336 617.08 176.5 623 L177 641 L177 650.5 C177 655.744 172.744 660 167.5 660 L167.5 660 Z " />
<glyph glyph-name="agrave" unicode="&#xe0;" horiz-adv-x="449" d="M218.793 535.58 L165.711 669.803 C158.16 688.896 131.531 707 111 707 L89.8282 707 C79.5638 707 69.0443 716.993 71.0155 706.92 C71.3893 705.009 78.5946 669.351 100 646 L204.891 534.373 C206.544 532.614 212.587 530 215 530 C218.08 530 219.926 532.716 218.793 535.58 L218.793 535.58 Z M142 337 C142 393 155 414 189 414 C251 414 262 394 262 329 L262 292.5 C262 273.774 241.752 250.043 223.917 244.337 C77.0913 197.358 48 161.075 48 88 C48 12 69 -11 141 -11 C194.375 -11 224.016 -4.10938 252.029 28.4297 C256.334 33.4297 266.418 31.0866 268.884 24.9671 C279.411 -1.15188 303.975 -10 351 -10 C399.75 -10 420.932 1.4075 440.498 40.906 C441.166 42.2556 441.174 45.6529 440.5 47 L439 50 C439 51 430 51 399 51 C355 51 342 55 342 67 L342 350 C342 435 323 460 215 460 C101 460 59 426 59 332 C59 309 64 303 80 304 L133.464 304 C134.844 304 138.524 305.524 139.5 306.5 C140.476 307.476 142 311.156 142 312.536 L142 337 L142 337 Z M262 159.896 L262 84.6726 C262 77.7653 258.11 69.1208 252.282 65.413 C236.49 55.3662 215.641 52 182 52 C139 52 126 65 126 108 C126 149.6 139.76 173.6 204.144 199.456 C235.455 212.03 262 193.638 262 159.896 L262 159.896 Z " />
<glyph glyph-name="aacute" unicode="&#xe1;" horiz-adv-x="449" d="M221 530 C223.413 530 229.456 532.614 231.109 534.373 L336 646 C358 670 365 707 365 707 C365 707 354.783 707 346.172 707 L325 707 C304.469 707 277.84 688.896 270.289 669.803 L217.207 535.58 C216.074 532.716 217.92 530 221 530 L221 530 Z M142 337 C142 393 155 414 189 414 C251 414 262 394 262 329 L262 292.5 C262 273.774 241.752 250.043 223.917 244.337 C77.0913 197.358 48 161.075 48 88 C48 12 69 -11 141 -11 C194.375 -11 224.016 -4.10938 252.029 28.4297 C256.334 33.4297 266.418 31.0866 268.884 24.9671 C279.411 -1.15188 303.975 -10 351 -10 C399.75 -10 420.932 1.4075 440.498 40.906 C441.166 42.2556 441.174 45.6529 440.5 47 L439 50 C439 51 430 51 399 51 C355 51 342 55 342 67 L342 350 C342 435 323 460 215 460 C101 460 59 426 59 332 C59 309 64 303 80 304 L133.464 304 C134.844 304 138.524 305.524 139.5 306.5 C140.476 307.476 142 311.156 142 312.536 L142 337 L142 337 Z M262 159.896 L262 84.6726 C262 77.7653 258.11 69.1208 252.282 65.413 C236.49 55.3662 215.641 52 182 52 C139 52 126 65 126 108 C126 149.6 139.76 173.6 204.144 199.456 C235.455 212.03 262 193.638 262 159.896 L262 159.896 Z " />
<glyph glyph-name="acircumflex" unicode="&#xe2;" horiz-adv-x="449" d="M351.513 534.882 L238.719 692.794 C234.803 698.276 221.737 705 215 705 C208.172 705 195.379 698.261 191.517 692.629 L83.3932 534.948 C81.8485 532.696 83.2686 530 86 530 C87.9594 530 95.2575 532.391 96.8372 533.55 L180.08 594.64 C198.926 608.47 233.216 608.664 252.217 595.049 L338.123 533.495 C339.691 532.371 347.071 530 349 530 C351.695 530 353.079 532.689 351.513 534.882 L351.513 534.882 Z M142 337 C142 393 155 414 189 414 C251 414 262 394 262 329 L262 292.5 C262 273.774 241.752 250.043 223.917 244.337 C77.0913 197.358 48 161.075 48 88 C48 12 69 -11 141 -11 C194.375 -11 224.016 -4.10938 252.029 28.4297 C256.334 33.4297 266.418 31.0866 268.884 24.9671 C279.411 -1.15188 303.975 -10 351 -10 C399.75 -10 420.932 1.4075 440.498 40.906 C441.166 42.2556 441.174 45.6529 440.5 47 L439 50 C439 51 430 51 399 51 C355 51 342 55 342 67 L342 350 C342 435 323 460 215 460 C101 460 59 426 59 332 C59 309 64 303 80 304 L133.464 304 C134.844 304 138.524 305.524 139.5 306.5 C140.476 307.476 142 311.156 142 312.536 L142 337 L142 337 Z M262 159.896 L262 84.6726 C262 77.7653 258.11 69.1208 252.282 65.413 C236.49 55.3662 215.641 52 182 52 C139 52 126 65 126 108 C126 149.6 139.76 173.6 204.144 199.456 C235.455 212.03 262 193.638 262 159.896 L262 159.896 Z " />
<glyph glyph-name="atilde" unicode="&#xe3;" horiz-adv-x="449" d="M80.2931 562.24 C94.175 606.462 96.55 620 126 620 C174 620 202 555 250 555 C299.725 555 303.82 582.568 332.726 672.925 C333.765 676.17 331.907 680 328.5 680 C325.064 680 320.614 675.747 319.564 672.475 C304.827 626.538 302.5 613 274 613 C226 613 198 678 150 678 C99.3 678 96.1312 651.383 67.2719 562 C66.2262 558.762 68.0969 555 71.5 555 C74.943 555 79.2619 558.955 80.2931 562.24 L80.2931 562.24 Z M142 337 C142 393 155 414 189 414 C251 414 262 394 262 329 L262 292.5 C262 273.774 241.752 250.043 223.917 244.337 C77.0913 197.358 48 161.075 48 88 C48 12 69 -11 141 -11 C194.375 -11 224.016 -4.10938 252.029 28.4297 C256.334 33.4297 266.418 31.0866 268.884 24.9671 C279.411 -1.15188 303.975 -10 351 -10 C399.75 -10 420.932 1.4075 440.498 40.906 C441.166 42.2556 441.174 45.6529 440.5 47 L439 50 C439 51 430 51 399 51 C355 51 342 55 342 67 L342 350 C342 435 323 460 215 460 C101 460 59 426 59 332 C59 309 64 303 80 304 L133.464 304 C134.844 304 138.524 305.524 139.5 306.5 C140.476 307.476 142 311.156 142 312.536 L142 337 L142 337 Z M262 159.896 L262 84.6726 C262 77.7653 258.11 69.1208 252.282 65.413 C236.49 55.3662 215.641 52 182 52 C139 52 126 65 126 108 C126 149.6 139.76 173.6 204.144 199.456 C235.455 212.03 262 193.638 262 159.896 L262 159.896 Z " />
<glyph glyph-name="adieresis" unicode="&#xe4;" horiz-adv-x="449" d="M290 570 C329 570 340 582 340 620 C340 659 329 670 290 670 C252 670 240 659 240 620 C240 582 252 570 290 570 L290 570 Z M110 570 C149 570 160 582 160 620 C160 659 149 670 110 670 C72 670 60 659 60 620 C60 582 72 570 110 570 L110 570 Z M142 337 C142 393 155 414 189 414 C251 414 262 394 262 329 L262 292.5 C262 273.774 241.752 250.043 223.917 244.337 C77.0913 197.358 48 161.075 48 88 C48 12 69 -11 141 -11 C194.375 -11 224.016 -4.10938 252.029 28.4297 C256.334 33.4297 266.418 31.0866 268.884 24.9671 C279.411 -1.15188 303.975 -10 351 -10 C399.75 -10 420.932 1.4075 440.498 40.906 C441.166 42.2556 441.174 45.6529 440.5 47 L439 50 C439 51 430 51 399 51 C355 51 342 55 342 67 L342 350 C342 435 323 460 215 460 C101 460 59 426 59 332 C59 309 64 303 80 304 L133.464 304 C134.844 304 138.524 305.524 139.5 306.5 C140.476 307.476 142 311.156 142 312.536 L142 337 L142 337 Z M262 159.896 L262 84.6726 C262 77.7653 258.11 69.1208 252.282 65.413 C236.49 55.3662 215.641 52 182 52 C139 52 126 65 126 108 C126 149.6 139.76 173.6 204.144 199.456 C235.455 212.03 262 193.638 262 159.896 L262 159.896 Z " />
<glyph glyph-name="aring" unicode="&#xe5;" horiz-adv-x="449" d="M169 625 C169 665 177 677 203 677 C232 677 241 662 241 611 C241 575 231 559 209 559 C181 559 169 579 169 625 L169 625 Z M120 618 C120 560 146 535 205 535 C264 535 290 561 290 620 C290 682 270 701 205 701 C140 701 120 682 120 618 L120 618 Z M142 337 C142 393 155 414 189 414 C251 414 262 394 262 329 L262 292.5 C262 273.774 241.752 250.043 223.917 244.337 C77.0913 197.358 48 161.075 48 88 C48 12 69 -11 141 -11 C194.375 -11 224.016 -4.10938 252.029 28.4297 C256.334 33.4297 266.418 31.0866 268.884 24.9671 C279.411 -1.15188 303.975 -10 351 -10 C399.75 -10 420.932 1.4075 440.498 40.906 C441.166 42.2556 441.174 45.6529 440.5 47 L439 50 C439 51 430 51 399 51 C355 51 342 55 342 67 L342 350 C342 435 323 460 215 460 C101 460 59 426 59 332 C59 309 64 303 80 304 L133.464 304 C134.844 304 138.524 305.524 139.5 306.5 C140.476 307.476 142 311.156 142 312.536 L142 337 L142 337 Z M262 159.896 L262 84.6726 C262 77.7653 258.11 69.1208 252.282 65.413 C236.49 55.3662 215.641 52 182 52 C139 52 126 65 126 108 C126 149.6 139.76 173.6 204.144 199.456 C235.455 212.03 262 193.638 262 159.896 L262 159.896 Z " />
<glyph glyph-name="ccedilla" unicode="&#xe7;" horiz-adv-x="437" d="M385.589 102.643 C341.743 72.5556 317.1 64 282 64 C164 64 129 107 129 250 C129 376 152 414 229 414 C267 414 285 403 307 368 L331.158 328.976 C332.022 327.579 334.857 326 336.5 326 C337.598 326 341.977 327.365 342.88 327.989 L379.102 352.999 C379.977 353.603 384.331 357.231 385.029 358.034 C397.41 372.282 393.172 394.241 382 411 C359 449 330 460 257 460 C98 460 50 401 50 205 C50 47.05 88.9756 -5.38062 218.831 -9.75716 C221.56 -9.84913 228.069 -12.3277 227.066 -14.8672 C221.991 -27.7172 210.676 -56.8872 190.049 -112.617 C186.984 -120.9 190.708 -131.46 199 -134.5 L210.653 -138.773 C210.796 -138.825 216.561 -140.641 216.708 -140.68 C239.582 -146.686 247 -155.852 247 -178 C247 -204 241 -212 223 -212 C193.3 -212 179.8 -208.76 167.92 -199.364 C166.231 -198.028 164 -199.346 164 -201.5 C164 -203.788 166.354 -209.254 168.034 -210.807 C191.825 -232.82 208.579 -240 237 -240 C291 -240 307 -222 307 -162 C307 -121.2 294.718 -99.185 258.484 -84.2866 C248.222 -80.0671 241.063 -66.3288 245.046 -55.9728 C254.047 -32.5727 259.561 -18.6957 262.549 -11.4589 C263.25 -9.76209 266.772 -7.76724 268.598 -7.58155 C326.184 -1.72658 359.109 25.3597 390.523 91.6822 C391.205 93.1234 392.346 99.9433 392 101.5 C391.491 103.788 387.522 103.969 385.589 102.643 L385.589 102.643 Z " />
<glyph glyph-name="egrave" unicode="&#xe8;" horiz-adv-x="443" d="M235.793 535.58 L182.711 669.803 C175.16 688.896 148.531 707 128 707 L106.828 707 C96.5638 707 86.0443 716.993 88.0155 706.92 C88.3893 705.009 95.5946 669.351 117 646 L221.891 534.373 C223.544 532.614 229.587 530 232 530 C235.08 530 236.926 532.716 235.793 535.58 L235.793 535.58 Z M135.576 338.456 C146.68 395.8 173.4 415 227 415 C279 415 305.4 395.16 316.44 338.072 C322.13 308.651 303.901 288 273.935 288 L178.564 288 C148.264 288 129.816 308.709 135.576 338.456 L135.576 338.456 Z M394 100 C393.496 102.518 391.704 104.094 389.585 102.643 C345.644 72.5556 319.1 64 284 64 C188.3 64 147.05 91.9056 134.982 178.6 C129.661 216.82 154.301 242 192.89 242 L354.754 242 C355.076 242 362.887 242.54 363.206 242.584 L377 244.5 C387.11 245.904 394.973 260.542 394.731 270.746 C391.29 415.777 354.05 460 241 460 C95 460 52 401 52 205 C52 39 95 -10 241 -10 C318.025 -10 356.074 12.815 392.222 89.0314 C392.961 90.5879 394.338 98.3107 394 100 L394 100 Z " />
<glyph glyph-name="eacute" unicode="&#xe9;" horiz-adv-x="443" d="M238 530 C240.413 530 246.456 532.614 248.109 534.373 L353 646 C375 670 382 707 382 707 C382 707 371.783 707 363.172 707 L342 707 C321.469 707 294.84 688.896 287.289 669.803 L234.207 535.58 C233.074 532.716 234.92 530 238 530 L238 530 Z M135.576 338.456 C146.68 395.8 173.4 415 227 415 C279 415 305.4 395.16 316.44 338.072 C322.13 308.651 303.901 288 273.935 288 L178.564 288 C148.264 288 129.816 308.709 135.576 338.456 L135.576 338.456 Z M394 100 C393.496 102.518 391.704 104.094 389.585 102.643 C345.644 72.5556 319.1 64 284 64 C188.3 64 147.05 91.9056 134.982 178.6 C129.661 216.82 154.301 242 192.89 242 L354.754 242 C355.076 242 362.887 242.54 363.206 242.584 L377 244.5 C387.11 245.904 394.973 260.542 394.731 270.746 C391.29 415.777 354.05 460 241 460 C95 460 52 401 52 205 C52 39 95 -10 241 -10 C318.025 -10 356.074 12.815 392.222 89.0314 C392.961 90.5879 394.338 98.3107 394 100 L394 100 Z " />
<glyph glyph-name="ecircumflex" unicode="&#xea;" horiz-adv-x="443" d="M368.513 534.882 L255.719 692.794 C251.803 698.276 238.737 705 232 705 C225.172 705 212.379 698.261 208.517 692.629 L100.393 534.948 C98.8485 532.696 100.269 530 103 530 C104.97 530 112.24 532.397 113.823 533.569 L196.177 594.497 C214.972 608.402 249.263 608.727 268.319 595.18 L355.11 533.477 C356.674 532.365 364.081 530 366 530 C368.695 530 370.079 532.689 368.513 534.882 L368.513 534.882 Z M135.576 338.456 C146.68 395.8 173.4 415 227 415 C279 415 305.4 395.16 316.44 338.072 C322.13 308.651 303.901 288 273.935 288 L178.564 288 C148.264 288 129.816 308.709 135.576 338.456 L135.576 338.456 Z M394 100 C393.496 102.518 391.704 104.094 389.585 102.643 C345.644 72.5556 319.1 64 284 64 C188.3 64 147.05 91.9056 134.982 178.6 C129.661 216.82 154.301 242 192.89 242 L354.754 242 C355.076 242 362.887 242.54 363.206 242.584 L377 244.5 C387.11 245.904 394.973 260.542 394.731 270.746 C391.29 415.777 354.05 460 241 460 C95 460 52 401 52 205 C52 39 95 -10 241 -10 C318.025 -10 356.074 12.815 392.222 89.0314 C392.961 90.5879 394.338 98.3107 394 100 L394 100 Z " />
<glyph glyph-name="edieresis" unicode="&#xeb;" horiz-adv-x="443" d="M322 570 C361 570 372 582 372 620 C372 659 361 670 322 670 C284 670 272 659 272 620 C272 582 284 570 322 570 L322 570 Z M142 570 C181 570 192 582 192 620 C192 659 181 670 142 670 C104 670 92 659 92 620 C92 582 104 570 142 570 L142 570 Z M135.576 338.456 C146.68 395.8 173.4 415 227 415 C279 415 305.4 395.16 316.44 338.072 C322.13 308.651 303.901 288 273.935 288 L178.564 288 C148.264 288 129.816 308.709 135.576 338.456 L135.576 338.456 Z M394 100 C393.496 102.518 391.704 104.094 389.585 102.643 C345.644 72.5556 319.1 64 284 64 C188.3 64 147.05 91.9056 134.982 178.6 C129.661 216.82 154.301 242 192.89 242 L354.754 242 C355.076 242 362.887 242.54 363.206 242.584 L377 244.5 C387.11 245.904 394.973 260.542 394.731 270.746 C391.29 415.777 354.05 460 241 460 C95 460 52 401 52 205 C52 39 95 -10 241 -10 C318.025 -10 356.074 12.815 392.222 89.0314 C392.961 90.5879 394.338 98.3107 394 100 L394 100 Z " />
<glyph glyph-name="igrave" unicode="&#xec;" horiz-adv-x="234" d="M116.793 535.58 L63.7106 669.803 C56.1598 688.896 29.5315 707 9 707 L-12.1718 707 C-22.4362 707 -32.9557 716.993 -30.9845 706.92 C-30.6107 705.009 -23.4054 669.351 -2 646 L102.891 534.373 C104.544 532.614 110.587 530 113 530 C116.08 530 117.926 532.716 116.793 535.58 L116.793 535.58 Z M182 9 C182 11.9806 178.388 22.8155 176.6 25.2 L170 34 C166.026 39.2989 158 63.3764 158 70 L158 452 C158 456.416 154.416 460 150 460 C148.289 460 136.203 457.563 134.625 456.899 L56.7655 424.163 C55.3583 423.571 54 421.526 54 420 C54 419.385 54.8858 414.786 55.1142 414.215 L58 407 C73 361 78 348 78 347 L78 70 C78 63.3764 69.9742 39.2989 66 34 L59.4 25.2 C57.6116 22.8155 54 11.9806 54 9 C54 4.03227 58.0323 0 63 0 L173 0 C177.968 0 182 4.03227 182 9 L182 9 Z " />
<glyph glyph-name="iacute" unicode="&#xed;" horiz-adv-x="234" d="M119 530 C121.413 530 127.456 532.614 129.109 534.373 L234 646 C256 670 263 707 263 707 C263 707 252.783 707 244.172 707 L223 707 C202.469 707 175.84 688.896 168.289 669.803 L115.207 535.58 C114.074 532.716 115.92 530 119 530 L119 530 Z M182 9 C182 11.9806 178.388 22.8155 176.6 25.2 L170 34 C166.026 39.2989 158 63.3764 158 70 L158 452 C158 456.416 154.416 460 150 460 C148.289 460 136.203 457.563 134.625 456.899 L56.7655 424.163 C55.3583 423.571 54 421.526 54 420 C54 419.385 54.8858 414.786 55.1142 414.215 L58 407 C73 361 78 348 78 347 L78 70 C78 63.3764 69.9742 39.2989 66 34 L59.4 25.2 C57.6116 22.8155 54 11.9806 54 9 C54 4.03227 58.0323 0 63 0 L173 0 C177.968 0 182 4.03227 182 9 L182 9 Z " />
<glyph glyph-name="icircumflex" unicode="&#xee;" horiz-adv-x="234" d="M249.513 534.882 L136.719 692.794 C132.803 698.276 119.737 705 113 705 C106.172 705 93.3787 698.261 89.5171 692.629 L-18.6068 534.948 C-20.1515 532.696 -18.7314 530 -16 530 C-14.0406 530 -6.74249 532.391 -5.16281 533.55 L78.0804 594.64 C96.9255 608.47 131.216 608.664 150.217 595.049 L236.123 533.495 C237.691 532.371 245.071 530 247 530 C249.695 530 251.079 532.689 249.513 534.882 L249.513 534.882 Z M182 9 C182 11.9806 178.388 22.8155 176.6 25.2 L170 34 C166.026 39.2989 158 63.3764 158 70 L158 452 C158 456.416 154.416 460 150 460 C148.289 460 136.203 457.563 134.625 456.899 L56.7655 424.163 C55.3583 423.571 54 421.526 54 420 C54 419.385 54.8858 414.786 55.1142 414.215 L58 407 C73 361 78 348 78 347 L78 70 C78 63.3764 69.9742 39.2989 66 34 L59.4 25.2 C57.6116 22.8155 54 11.9806 54 9 C54 4.03227 58.0323 0 63 0 L173 0 C177.968 0 182 4.03227 182 9 L182 9 Z " />
<glyph glyph-name="idieresis" unicode="&#xef;" horiz-adv-x="234" d="M203 570 C242 570 253 582 253 620 C253 659 242 670 203 670 C165 670 153 659 153 620 C153 582 165 570 203 570 L203 570 Z M23 570 C61 570 73 582 73 620 C73 659 61 670 23 670 C-15 670 -27 659 -27 620 C-27 582 -15 570 23 570 L23 570 Z M182 9 C182 11.9806 178.388 22.8155 176.6 25.2 L170 34 C166.026 39.2989 158 63.3764 158 70 L158 452 C158 456.416 154.416 460 150 460 C148.289 460 136.203 457.563 134.625 456.899 L56.7655 424.163 C55.3583 423.571 54 421.526 54 420 C54 419.385 54.8858 414.786 55.1142 414.215 L58 407 C73 361 78 348 78 347 L78 70 C78 63.3764 69.9742 39.2989 66 34 L59.4 25.2 C57.6116 22.8155 54 11.9806 54 9 C54 4.03227 58.0323 0 63 0 L173 0 C177.968 0 182 4.03227 182 9 L182 9 Z " />
<glyph glyph-name="ntilde" unicode="&#xf1;" horiz-adv-x="467" d="M119.293 562.24 C133.175 606.462 135.55 620 165 620 C213 620 241 555 289 555 C338.725 555 342.82 582.568 371.726 672.925 C372.765 676.17 370.907 680 367.5 680 C364.064 680 359.614 675.747 358.564 672.475 C343.827 626.538 341.5 613 313 613 C265 613 237 678 189 678 C138.3 678 135.131 651.383 106.272 562 C105.226 558.762 107.097 555 110.5 555 C113.943 555 118.262 558.955 119.293 562.24 L119.293 562.24 Z M428 9 C428 11.9806 424.388 22.8155 422.6 25.2 L416 34 C412.026 39.2989 404 63.3764 404 70 L404 343 C404 433 377 460 285 460 C221.175 460 199.703 444.599 162.018 395.593 C158.583 391.127 152.2 392.776 152.023 398.407 C151.084 428.21 150 460 150 460 C150 460 146.569 460 142 460 C140.22 460 128.308 457.493 126.679 456.775 L52.7455 424.209 C51.3586 423.598 50 421.515 50 420 C50 419.385 50.8858 414.786 51.1142 414.215 L54 407 C69 361 74 348 74 347 L74 70 C74 63.3764 65.9742 39.2989 62 34 L55.4 25.2 C53.6116 22.8155 50 11.9806 50 9 C50 4.03227 54.0323 0 59 0 L171 0 C175.968 0 180 4.03227 180 9 C180 12.1326 176.3 22.5538 174.325 24.985 L167 34 C162.475 39.5691 154 63.4399 154 70.6155 L154 336.897 C154 344.479 159.402 361.077 164.628 366.569 C181.094 383.874 198.275 390 242 390 C306 390 325 369 325 297 L325 70.6155 C325 63.4399 316.525 39.5691 312 34 L304.675 24.985 C302.7 22.5538 299 12.1326 299 9 C299 4.03227 303.032 0 308 0 L419 0 C423.968 0 428 4.03227 428 9 L428 9 Z " />
<glyph glyph-name="ograve" unicode="&#xf2;" horiz-adv-x="498" d="M252.793 535.58 L199.711 669.803 C192.16 688.896 165.531 707 145 707 L123.828 707 C113.564 707 103.044 716.993 105.015 706.92 C105.389 705.009 112.595 669.351 134 646 L238.891 534.373 C240.544 532.614 246.587 530 249 530 C252.08 530 253.926 532.716 252.793 535.58 L252.793 535.58 Z M142 225 C142 374 156 418 235 418 C328 418 356 374 356 225 C356 76 342 32 263 32 C170 32 142 76 142 225 L142 225 Z M50 225 C50 44 96 -10 249 -10 C418 -10 448 44 448 225 C448 406 402 460 249 460 C80 460 50 406 50 225 L50 225 Z " />
<glyph glyph-name="oacute" unicode="&#xf3;" horiz-adv-x="498" d="M255 530 C257.413 530 263.456 532.614 265.109 534.373 L370 646 C392 670 399 707 399 707 C399 707 388.783 707 380.172 707 L359 707 C338.469 707 311.84 688.896 304.289 669.803 L251.207 535.58 C250.074 532.716 251.92 530 255 530 L255 530 Z M142 225 C142 374 156 418 235 418 C328 418 356 374 356 225 C356 76 342 32 263 32 C170 32 142 76 142 225 L142 225 Z M50 225 C50 44 96 -10 249 -10 C418 -10 448 44 448 225 C448 406 402 460 249 460 C80 460 50 406 50 225 L50 225 Z " />
<glyph glyph-name="ocircumflex" unicode="&#xf4;" horiz-adv-x="498" d="M385.513 534.882 L272.719 692.794 C268.803 698.276 255.737 705 249 705 C242.172 705 229.379 698.261 225.517 692.629 L117.393 534.948 C115.849 532.696 117.269 530 120 530 C121.959 530 129.258 532.391 130.837 533.55 L214.08 594.64 C232.926 608.47 267.216 608.664 286.217 595.049 L372.123 533.495 C373.691 532.371 381.071 530 383 530 C385.695 530 387.079 532.689 385.513 534.882 L385.513 534.882 Z M142 225 C142 374 156 418 235 418 C328 418 356 374 356 225 C356 76 342 32 263 32 C170 32 142 76 142 225 L142 225 Z M50 225 C50 44 96 -10 249 -10 C418 -10 448 44 448 225 C448 406 402 460 249 460 C80 460 50 406 50 225 L50 225 Z " />
<glyph glyph-name="otilde" unicode="&#xf5;" horiz-adv-x="498" d="M129.293 562.24 C143.175 606.462 145.55 620 175 620 C223 620 251 555 299 555 C348.725 555 352.82 582.568 381.726 672.925 C382.765 676.17 380.907 680 377.5 680 C374.064 680 369.614 675.747 368.564 672.475 C353.828 626.538 351.5 613 323 613 C275 613 247 678 199 678 C148.3 678 145.131 651.383 116.272 562 C115.226 558.762 117.097 555 120.5 555 C123.943 555 128.262 558.955 129.293 562.24 L129.293 562.24 Z M142 225 C142 374 156 418 235 418 C328 418 356 374 356 225 C356 76 342 32 263 32 C170 32 142 76 142 225 L142 225 Z M50 225 C50 44 96 -10 249 -10 C418 -10 448 44 448 225 C448 406 402 460 249 460 C80 460 50 406 50 225 L50 225 Z " />
<glyph glyph-name="odieresis" unicode="&#xf6;" horiz-adv-x="498" d="M339 570 C378 570 389 582 389 620 C389 659 378 670 339 670 C301 670 289 659 289 620 C289 582 301 570 339 570 L339 570 Z M159 570 C198 570 209 582 209 620 C209 659 198 670 159 670 C121 670 109 659 109 620 C109 582 121 570 159 570 L159 570 Z M142 225 C142 374 156 418 235 418 C328 418 356 374 356 225 C356 76 342 32 263 32 C170 32 142 76 142 225 L142 225 Z M50 225 C50 44 96 -10 249 -10 C418 -10 448 44 448 225 C448 406 402 460 249 460 C80 460 50 406 50 225 L50 225 Z " />
<glyph glyph-name="oslash" unicode="&#xf8;" horiz-adv-x="498" d="M50 225 C50 151.05 57.9475 98.0525 77.5272 61.7086 C81.9878 53.4291 81.289 33.0423 75.8767 25.3511 L69.9913 16.9876 C61.4185 4.80528 69.1036 -10 84 -10 L104.793 -10 C110.313 -10 120.835 -4.52191 124 0 C127.436 4.90788 136.749 7.25773 142.346 5.12109 C169.922 -5.40625 205.25 -10 249 -10 C418 -10 448 44 448 225 C448 298.95 440.053 351.947 420.473 388.291 C416.012 396.571 416.711 416.958 422.123 424.649 L428.009 433.012 C436.581 445.195 428.896 460 414 460 L393.207 460 C387.687 460 377.165 454.522 374 450 C370.564 445.092 361.251 442.742 355.654 444.879 C328.078 455.406 292.75 460 249 460 C80 460 50 406 50 225 L50 225 Z M317.7 368.856 L155.597 139.737 C152.647 135.567 146.955 136.038 146.335 141.108 C143.445 164.758 142 192.85 142 226 C142 375 156 419 235 419 C271.3 419 297.391 411.853 316.079 394.753 C324.058 387.452 323.947 377.684 317.7 368.856 L317.7 368.856 Z M351.665 309.892 C354.555 286.243 356 258.15 356 225 C356 76 342 32 263 32 C226.7 32 200.609 38.8062 181.921 55.7878 C173.886 63.0884 174.022 72.2875 180.275 81.1614 L342.423 311.249 C345.36 315.416 351.047 314.952 351.665 309.892 L351.665 309.892 Z " />
<glyph glyph-name="ugrave" unicode="&#xf9;" horiz-adv-x="429" d="M213.793 535.58 L160.711 669.803 C153.16 688.896 126.531 707 106 707 L84.8282 707 C74.5638 707 64.0443 716.993 66.0155 706.92 C66.3893 705.009 73.5946 669.351 95 646 L199.891 534.373 C201.544 532.614 207.587 530 210 530 C213.08 530 214.926 532.716 213.793 535.58 L213.793 535.58 Z M300 379.384 L300 122.638 C300 111.604 292.471 92.739 283.795 85.92 C259.829 67.0837 241.7 63 212 63 C149 63 130 84 130 155 L130 398 C130 426.702 106.702 450 78 450 L35 450 C30.0323 450 26 445.968 26 441 C26 438.019 29.6116 427.185 31.4 424.8 L38 416 C41.9742 410.701 50 386.624 50 380 L50 107 C50 17 77 -10 166 -10 C201.875 -10 226.266 -0.8125 276.688 45.6992 C286.378 54.6378 300 47.1832 300 34 C300 15.233 315.233 0 334 0 L397 0 C401.968 0 406 4.03227 406 9 C406 12.1326 402.3 22.5538 400.325 24.985 L393 34 C388.475 39.5691 380 63.4399 380 70.6155 L380 397 C380 426.254 356.254 450 327 450 L283 450 C278.032 450 274 445.968 274 441 C274 437.867 277.7 427.446 279.675 425.015 L287 416 C291.525 410.431 300 386.56 300 379.384 L300 379.384 Z " />
<glyph glyph-name="uacute" unicode="&#xfa;" horiz-adv-x="429" d="M216 530 C218.413 530 224.456 532.614 226.109 534.373 L331 646 C353 670 360 707 360 707 C360 707 349.783 707 341.172 707 L320 707 C299.469 707 272.84 688.896 265.289 669.803 L212.207 535.58 C211.074 532.716 212.92 530 216 530 L216 530 Z M300 379.384 L300 122.638 C300 111.604 292.471 92.739 283.795 85.92 C259.829 67.0837 241.7 63 212 63 C149 63 130 84 130 155 L130 398 C130 426.702 106.702 450 78 450 L35 450 C30.0323 450 26 445.968 26 441 C26 438.019 29.6116 427.185 31.4 424.8 L38 416 C41.9742 410.701 50 386.624 50 380 L50 107 C50 17 77 -10 166 -10 C201.875 -10 226.266 -0.8125 276.688 45.6992 C286.378 54.6378 300 47.1832 300 34 C300 15.233 315.233 0 334 0 L397 0 C401.968 0 406 4.03227 406 9 C406 12.1326 402.3 22.5538 400.325 24.985 L393 34 C388.475 39.5691 380 63.4399 380 70.6155 L380 397 C380 426.254 356.254 450 327 450 L283 450 C278.032 450 274 445.968 274 441 C274 437.867 277.7 427.446 279.675 425.015 L287 416 C291.525 410.431 300 386.56 300 379.384 L300 379.384 Z " />
<glyph glyph-name="ucircumflex" unicode="&#xfb;" horiz-adv-x="429" d="M346.513 534.882 L233.719 692.794 C229.803 698.276 216.737 705 210 705 C203.172 705 190.379 698.261 186.517 692.629 L78.3932 534.948 C76.8485 532.696 78.2686 530 81 530 C82.9594 530 90.2575 532.391 91.8372 533.55 L175.08 594.64 C193.926 608.47 228.216 608.664 247.217 595.049 L333.123 533.495 C334.691 532.371 342.071 530 344 530 C346.695 530 348.079 532.689 346.513 534.882 L346.513 534.882 Z M300 379.384 L300 122.638 C300 111.604 292.471 92.739 283.795 85.92 C259.829 67.0837 241.7 63 212 63 C149 63 130 84 130 155 L130 398 C130 426.702 106.702 450 78 450 L35 450 C30.0323 450 26 445.968 26 441 C26 438.019 29.6116 427.185 31.4 424.8 L38 416 C41.9742 410.701 50 386.624 50 380 L50 107 C50 17 77 -10 166 -10 C201.875 -10 226.266 -0.8125 276.688 45.6992 C286.378 54.6378 300 47.1832 300 34 C300 15.233 315.233 0 334 0 L397 0 C401.968 0 406 4.03227 406 9 C406 12.1326 402.3 22.5538 400.325 24.985 L393 34 C388.475 39.5691 380 63.4399 380 70.6155 L380 397 C380 426.254 356.254 450 327 450 L283 450 C278.032 450 274 445.968 274 441 C274 437.867 277.7 427.446 279.675 425.015 L287 416 C291.525 410.431 300 386.56 300 379.384 L300 379.384 Z " />
<glyph glyph-name="udieresis" unicode="&#xfc;" horiz-adv-x="429" d="M300 570 C339 570 350 582 350 620 C350 659 339 670 300 670 C262 670 250 659 250 620 C250 582 262 570 300 570 L300 570 Z M120 570 C159 570 170 582 170 620 C170 659 159 670 120 670 C82 670 70 659 70 620 C70 582 82 570 120 570 L120 570 Z M300 379.384 L300 122.638 C300 111.604 292.471 92.739 283.795 85.92 C259.829 67.0837 241.7 63 212 63 C149 63 130 84 130 155 L130 398 C130 426.702 106.702 450 78 450 L35 450 C30.0323 450 26 445.968 26 441 C26 438.019 29.6116 427.185 31.4 424.8 L38 416 C41.9742 410.701 50 386.624 50 380 L50 107 C50 17 77 -10 166 -10 C201.875 -10 226.266 -0.8125 276.688 45.6992 C286.378 54.6378 300 47.1832 300 34 C300 15.233 315.233 0 334 0 L397 0 C401.968 0 406 4.03227 406 9 C406 12.1326 402.3 22.5538 400.325 24.985 L393 34 C388.475 39.5691 380 63.4399 380 70.6155 L380 397 C380 426.254 356.254 450 327 450 L283 450 C278.032 450 274 445.968 274 441 C274 437.867 277.7 427.446 279.675 425.015 L287 416 C291.525 410.431 300 386.56 300 379.384 L300 379.384 Z " />
<glyph glyph-name="yacute" unicode="&#xfd;" horiz-adv-x="378" d="M223 530 C225.413 530 231.456 532.614 233.109 534.373 L338 646 C360 670 367 707 367 707 C367 707 356.783 707 348.172 707 L327 707 C306.469 707 279.84 688.896 272.289 669.803 L219.207 535.58 C218.074 532.716 219.92 530 223 530 L223 530 Z M307.057 422.41 L311.5 413 C314.851 405.903 315.815 383.692 313.09 376.332 L149 -67 C120 -149 114 -156 69 -156 L26.8284 -156 C25.7245 -156 22.7806 -157.219 22 -158 C21.2194 -158.781 20 -161.724 20 -162.828 L20 -211 C20 -238 23 -240 54 -240 C125 -240 135 -228 187 -80 C246 78 304 237 363 395 C364.002 397.683 369.996 402.196 371.993 404.25 L391.378 424.189 C393.926 426.809 398 436.845 398 440.5 C398 445.744 393.744 450 388.5 450 L312.5 450 C307.256 450 303 445.744 303 440.5 C303 438.261 306.1 424.434 307.057 422.41 L307.057 422.41 Z M112 450 L-10 450 C-14.9677 450 -19 445.968 -19 441 C-19 437.382 -15.0805 428.311 -12.4462 425.832 L5.41724 409.019 C7.58367 406.98 18.9068 390.595 20.0481 387.847 L154.484 64.2058 C162.96 43.8008 189.783 44.296 197.5 65 L209.506 97.2102 C212.71 105.808 212.769 132.478 209.225 140.941 C175.105 222.437 141.043 304.585 107.707 386.043 C104.6 393.635 107.312 408.946 111.5 416 L116.405 424.261 C117.7 426.442 121 438.464 121 441 C121 445.968 116.968 450 112 450 L112 450 Z " />
<glyph glyph-name="ydieresis" unicode="&#xff;" horiz-adv-x="378" d="M307 570 C346 570 357 582 357 620 C357 659 346 670 307 670 C269 670 257 659 257 620 C257 582 269 570 307 570 L307 570 Z M127 570 C166 570 177 582 177 620 C177 659 166 670 127 670 C89 670 77 659 77 620 C77 582 89 570 127 570 L127 570 Z M307.057 422.41 L311.5 413 C314.851 405.903 315.815 383.692 313.09 376.332 L149 -67 C120 -149 114 -156 69 -156 L26.8284 -156 C25.7245 -156 22.7806 -157.219 22 -158 C21.2194 -158.781 20 -161.724 20 -162.828 L20 -211 C20 -238 23 -240 54 -240 C125 -240 135 -228 187 -80 C246 78 304 237 363 395 C364.002 397.683 369.996 402.196 371.993 404.25 L391.378 424.189 C393.926 426.809 398 436.845 398 440.5 C398 445.744 393.744 450 388.5 450 L312.5 450 C307.256 450 303 445.744 303 440.5 C303 438.261 306.1 424.434 307.057 422.41 L307.057 422.41 Z M112 450 L-10 450 C-14.9677 450 -19 445.968 -19 441 C-19 437.382 -15.0805 428.311 -12.4462 425.832 L5.41724 409.019 C7.58367 406.98 18.9068 390.595 20.0481 387.847 L154.484 64.2058 C162.96 43.8008 189.783 44.296 197.5 65 L209.506 97.2102 C212.71 105.808 212.769 132.478 209.225 140.941 C175.105 222.437 141.043 304.585 107.707 386.043 C104.6 393.635 107.312 408.946 111.5 416 L116.405 424.261 C117.7 426.442 121 438.464 121 441 C121 445.968 116.968 450 112 450 L112 450 Z " />
<glyph glyph-name="Amacron" unicode="&#x100;" horiz-adv-x="651" d="M236 765 L412 765 C425.799 765 437 776.201 437 790 C437 803.799 425.799 815 412 815 L236 815 C222.201 815 211 803.799 211 790 C211 776.201 222.201 765 236 765 L236 765 Z M147.309 25.6973 L142.25 34 C138.122 40.7745 136.165 60.2132 138.802 67.6951 C151.21 102.896 168.451 153.377 192.77 220.822 C193.024 221.528 195 223.751 195 223 C195 220.792 196.792 219.004 199 219.009 L393.627 219.434 C409.259 219.468 429.624 204.261 435.101 189.621 C450.513 148.423 466.175 107.488 480.943 66.815 C483.85 58.8086 481.173 41.1214 476.5 34 L470.938 25.5244 C469.443 23.2457 466 11.7256 466 9 C466 4.03227 470.032 0 475 0 L600 0 L606.5 0 C610.088 0 613 2.91219 613 6.5 L613 8 C613 11.2247 609.513 19.2623 607.158 21.4653 L592.187 35.4705 C589.742 37.7574 578.732 53.3843 577.519 56.5045 C516.656 213.12 356 639 356 639 L351 652 C348.424 658.697 339.247 665 332.072 665 L322.5 665 C310.382 665 294.94 654.367 290.618 643.046 L278 610 C163.05 307.9 99.5425 142.078 69.4726 61.9474 C68.0977 58.2834 56.5206 42.4628 53.5957 39.8628 L35.7267 23.9793 C32.9516 21.5125 29 12.7129 29 9 C29 4.03227 33.0323 0 38 0 L141.986 0 C146.954 0 151.224 4.03992 151.5 9 C151.656 11.8164 148.777 23.2886 147.309 25.6973 L147.309 25.6973 Z M314.785 274 L248.336 274 C228.996 274 216.346 288.4 223.108 306.519 C241.889 356.837 263.471 414.126 288.163 479.001 C295.23 497.569 320.043 498.421 326.931 479.786 L372.414 356.742 C388.249 313.904 360.457 274 314.785 274 L314.785 274 Z " />
<glyph glyph-name="amacron" unicode="&#x101;" horiz-adv-x="449" d="M117 595 L293 595 C306.799 595 318 606.201 318 620 C318 633.799 306.799 645 293 645 L117 645 C103.201 645 92 633.799 92 620 C92 606.201 103.201 595 117 595 L117 595 Z M142 337 C142 393 155 414 189 414 C251 414 262 394 262 329 L262 292.5 C262 273.774 241.752 250.043 223.917 244.337 C77.0913 197.358 48 161.075 48 88 C48 12 69 -11 141 -11 C194.375 -11 224.016 -4.10938 252.029 28.4297 C256.334 33.4297 266.418 31.0866 268.884 24.9671 C279.411 -1.15188 303.975 -10 351 -10 C399.75 -10 420.932 1.4075 440.498 40.906 C441.166 42.2556 441.174 45.6529 440.5 47 L439 50 C439 51 430 51 399 51 C355 51 342 55 342 67 L342 350 C342 435 323 460 215 460 C101 460 59 426 59 332 C59 309 64 303 80 304 L133.464 304 C134.844 304 138.524 305.524 139.5 306.5 C140.476 307.476 142 311.156 142 312.536 L142 337 L142 337 Z M262 159.896 L262 84.6726 C262 77.7653 258.11 69.1208 252.282 65.413 C236.49 55.3662 215.641 52 182 52 C139 52 126 65 126 108 C126 149.6 139.76 173.6 204.144 199.456 C235.455 212.03 262 193.638 262 159.896 L262 159.896 Z " />
<glyph glyph-name="Abreve" unicode="&#x102;" horiz-adv-x="651" d="M206 864 C202.283 864 200.901 857.452 201.943 853.884 C239.492 725.408 249.9 714 324 714 C397.125 714 407.509 725.408 445.057 854.811 C446.093 858.383 444.719 865 441 865 C437.311 865 433.279 862.525 432.229 858.99 C409.556 782.654 400.05 776 324 776 C246.975 776 237.444 781.704 214.771 858.918 C213.731 862.46 209.691 864 206 864 L206 864 Z M147.309 25.6973 L142.25 34 C138.122 40.7745 136.165 60.2132 138.802 67.6951 C151.21 102.896 168.451 153.377 192.77 220.822 C193.024 221.528 195 223.751 195 223 C195 220.792 196.792 219.004 199 219.009 L393.627 219.434 C409.259 219.468 429.624 204.261 435.101 189.621 C450.513 148.423 466.175 107.488 480.943 66.815 C483.85 58.8086 481.173 41.1214 476.5 34 L470.938 25.5244 C469.443 23.2457 466 11.7256 466 9 C466 4.03227 470.032 0 475 0 L600 0 L606.5 0 C610.088 0 613 2.91219 613 6.5 L613 8 C613 11.2247 609.513 19.2623 607.158 21.4653 L592.187 35.4705 C589.742 37.7574 578.732 53.3843 577.519 56.5045 C516.656 213.12 356 639 356 639 L351 652 C348.424 658.697 339.247 665 332.072 665 L322.5 665 C310.382 665 294.94 654.367 290.618 643.046 L278 610 C163.05 307.9 99.5425 142.078 69.4726 61.9474 C68.0977 58.2834 56.5206 42.4628 53.5957 39.8628 L35.7267 23.9793 C32.9516 21.5125 29 12.7129 29 9 C29 4.03227 33.0323 0 38 0 L141.986 0 C146.954 0 151.224 4.03992 151.5 9 C151.656 11.8164 148.777 23.2886 147.309 25.6973 L147.309 25.6973 Z M314.785 274 L248.336 274 C228.996 274 216.346 288.4 223.108 306.519 C241.889 356.837 263.471 414.126 288.163 479.001 C295.23 497.569 320.043 498.421 326.931 479.786 L372.414 356.742 C388.249 313.904 360.457 274 314.785 274 L314.785 274 Z " />
<glyph glyph-name="abreve" unicode="&#x103;" horiz-adv-x="449" d="M88 707 C84.2544 707 82.9943 699.336 83.9434 695.712 C121.491 552.358 131.875 540 205 540 C278.125 540 288.509 552.358 326.057 695.712 C327.006 699.336 325.746 707 322 707 C318.279 707 314.181 703.854 313.229 700.256 C290.556 614.605 281.05 607 205 607 C128.95 607 119.444 614.605 96.7713 700.256 C95.8191 703.854 91.7213 707 88 707 L88 707 Z M142 337 C142 393 155 414 189 414 C251 414 262 394 262 329 L262 292.5 C262 273.774 241.752 250.043 223.917 244.337 C77.0913 197.358 48 161.075 48 88 C48 12 69 -11 141 -11 C194.375 -11 224.016 -4.10938 252.029 28.4297 C256.334 33.4297 266.418 31.0866 268.884 24.9671 C279.411 -1.15188 303.975 -10 351 -10 C399.75 -10 420.932 1.4075 440.498 40.906 C441.166 42.2556 441.174 45.6529 440.5 47 L439 50 C439 51 430 51 399 51 C355 51 342 55 342 67 L342 350 C342 435 323 460 215 460 C101 460 59 426 59 332 C59 309 64 303 80 304 L133.464 304 C134.844 304 138.524 305.524 139.5 306.5 C140.476 307.476 142 311.156 142 312.536 L142 337 L142 337 Z M262 159.896 L262 84.6726 C262 77.7653 258.11 69.1208 252.282 65.413 C236.49 55.3662 215.641 52 182 52 C139 52 126 65 126 108 C126 149.6 139.76 173.6 204.144 199.456 C235.455 212.03 262 193.638 262 159.896 L262 159.896 Z " />
<glyph glyph-name="Cacute" unicode="&#x106;" horiz-adv-x="677" d="M353 705 C355.286 705 361.687 707.564 363.341 709.142 L468 809 C490 831 497 864 497 864 C497 864 487.675 864 480.133 864 L457 864 C436.793 864 409.025 845.885 400.883 827.391 L349.418 710.491 C348.196 707.717 349.969 705 353 705 L353 705 Z M568.332 128.332 L525 85 L519.26 79.834 C518.775 79.3973 512.129 74.269 511.568 73.9355 C467.188 47.5556 431.6 39 377 39 C212 39 163 108 163 340 C163 555 215 619 389 619 C433.65 619 462.958 611.78 495.785 590.481 C496.435 590.059 503.939 584.05 504.485 583.5 C523.368 564.45 537.716 548.613 555.406 529.93 C557.765 527.439 567.069 523 570.5 523 C575.192 523 578.962 526.808 578.915 531.5 L578.273 595.665 C578.119 611.08 568.636 631.236 555.461 639.24 C518.793 661.513 473.975 669 389 669 C143 669 70 586 70 309 C70 63 141 -11 377 -11 C468.8 -11 517.25 -3.0525 562.882 22.6685 C577.114 30.6902 587.452 52.3273 587.968 68.6558 L589.747 124.988 C589.887 129.408 586.414 133.224 582 133.5 C578.689 133.707 570.678 130.678 568.332 128.332 L568.332 128.332 Z " />
<glyph glyph-name="cacute" unicode="&#x107;" horiz-adv-x="437" d="M247 530 C249.413 530 255.456 532.614 257.109 534.373 L362 646 C384 670 391 707 391 707 C391 707 380.783 707 372.172 707 L351 707 C330.469 707 303.84 688.896 296.289 669.803 L243.207 535.58 C242.074 532.716 243.92 530 247 530 L247 530 Z M385.589 102.643 C341.743 72.5556 317.1 64 282 64 C164 64 129 107 129 250 C129 376 152 414 229 414 C267 414 285 403 307 368 L331.158 328.976 C332.022 327.579 334.857 326 336.5 326 C337.598 326 341.977 327.365 342.88 327.989 L379.102 352.999 C379.977 353.603 384.331 357.231 385.029 358.034 C397.41 372.282 393.172 394.241 382 411 C359 449 330 460 257 460 C98 460 50 401 50 205 C50 39 93 -10 239 -10 C316.025 -10 354.074 12.815 390.223 89.0314 C390.961 90.5879 392.338 98.3107 392 100 C391.496 102.52 387.708 104.097 385.589 102.643 L385.589 102.643 Z " />
<glyph glyph-name="Ccaron" unicode="&#x10c;" horiz-adv-x="677" d="M507 867 L506 867 L507 868 L507 867 L507 867 Z M367 710.5 C373.263 710.5 386.628 716.946 390.527 721.847 L502.576 862.696 C504.055 864.555 502.876 867 500.5 867 C498.877 867 491.724 864.927 490.352 864.059 L400.518 807.211 C383.657 796.541 350.537 796.842 333.872 807.816 L249.011 863.7 C247.49 864.702 239.821 867 238 867 C235.369 867 234.046 864.324 235.644 862.233 L343.195 721.52 C347.056 716.468 360.641 710.5 367 710.5 L367 710.5 Z M568.332 128.332 L525 85 L519.26 79.834 C518.775 79.3973 512.129 74.269 511.568 73.9355 C467.188 47.5556 431.6 39 377 39 C212 39 163 108 163 340 C163 555 215 619 389 619 C433.65 619 462.958 611.78 495.785 590.481 C496.435 590.059 503.939 584.05 504.485 583.5 C523.368 564.45 537.716 548.613 555.406 529.93 C557.765 527.439 567.069 523 570.5 523 C575.192 523 578.962 526.808 578.915 531.5 L578.273 595.665 C578.119 611.08 568.636 631.236 555.461 639.24 C518.793 661.513 473.975 669 389 669 C143 669 70 586 70 309 C70 63 141 -11 377 -11 C468.8 -11 517.25 -3.0525 562.882 22.6685 C577.114 30.6902 587.452 52.3273 587.968 68.6558 L589.747 124.988 C589.887 129.408 586.414 133.224 582 133.5 C578.689 133.707 570.678 130.678 568.332 128.332 L568.332 128.332 Z " />
<glyph glyph-name="ccaron" unicode="&#x10d;" horiz-adv-x="437" d="M264.719 547.206 L377.513 705.118 C379.079 707.311 377.695 710 375 710 C373.071 710 365.691 707.629 364.123 706.505 L278.217 644.951 C259.216 631.336 224.926 631.53 206.08 645.36 L122.837 706.45 C121.258 707.609 113.959 710 112 710 C109.269 710 107.849 707.304 109.393 705.052 L217.517 547.371 C221.379 541.739 234.172 535 241 535 C247.737 535 260.803 541.724 264.719 547.206 L264.719 547.206 Z M385.589 102.643 C341.743 72.5556 317.1 64 282 64 C164 64 129 107 129 250 C129 376 152 414 229 414 C267 414 285 403 307 368 L331.158 328.976 C332.022 327.579 334.857 326 336.5 326 C337.598 326 341.977 327.365 342.88 327.989 L379.102 352.999 C379.977 353.603 384.331 357.231 385.029 358.034 C397.41 372.282 393.172 394.241 382 411 C359 449 330 460 257 460 C98 460 50 401 50 205 C50 39 93 -10 239 -10 C316.025 -10 354.074 12.815 390.223 89.0314 C390.961 90.5879 392.338 98.3107 392 100 C391.496 102.52 387.708 104.097 385.589 102.643 L385.589 102.643 Z " />
<glyph glyph-name="Dcaron" unicode="&#x10e;" horiz-adv-x="684" d="M504 867 L503 867 L504 868 L504 867 L504 867 Z M364 710.5 C370.263 710.5 383.628 716.946 387.527 721.847 L499.576 862.696 C501.055 864.555 499.876 867 497.5 867 C495.853 867 488.763 864.91 487.379 864.017 L398.728 806.777 C381.678 795.769 348.441 795.951 331.512 807.145 L246.005 863.69 C244.481 864.698 236.827 867 235 867 C232.369 867 231.046 864.324 232.644 862.233 L340.195 721.52 C344.056 716.468 357.641 710.5 364 710.5 L364 710.5 Z M293 0 C540 9 614 65 614 360 C614 614 537 660 278 660 L74.5 660 C69.2563 660 65 655.744 65 650.5 C65 647.21 68.896 636.164 70.9596 633.602 L80.4066 621.875 C85.1136 616.031 94 590.835 94 583.331 L94 76.6686 C94 69.1655 85.1136 43.9686 80.4066 38.1255 L70.9596 26.3982 C68.896 23.8364 65 12.7895 65 9.5 C65 4.25628 69.2563 0 74.5 0 L293 0 L293 0 Z M184 108.5 L184 589 C184 597.824 190.954 604.997 199.779 605.004 C227.001 605.026 252.838 605.162 252 606 C459 606 521 563 521 325 C521 103 468 61 291 55 L237.5 55 C207.97 55 184 78.9696 184 108.5 L184 108.5 Z " />
<glyph glyph-name="dcaron" unicode="&#x10f;" horiz-adv-x="489" d="M587 750 L549.5 750 C528.919 750 510.201 733.177 508.012 712.713 L492.638 568.966 C492.288 565.692 494.707 563 498 563 C500.969 563 505.344 565.717 506.66 568.378 L595 747 C594 747 594 750 587 750 L587 750 Z M595 747 L597 752 C596 749 596 748 596 748 L595 747 L595 747 Z M600.443 757.398 L600.557 757.602 C600.615 757.707 600.804 757.608 600.75 757.5 C600.696 757.392 600.385 757.293 600.443 757.398 L600.443 757.398 Z M444 10 C444 13.1326 440.3 23.5538 438.325 25.985 L431 35 C426.475 40.5691 418 64.4399 418 71.6155 L418 747 C418 751.416 414.416 755 410 755 C408.661 755 395.652 752.98 394.377 752.574 L314 727 L314 722 L318 712 C333 671 338 659 338 659 C338 659 338 670.439 338 652.5 L338 465.794 C338 460.212 333.783 456.031 328.299 457.07 C309.87 460.56 289.455 462 264 462 C99 462 50 401 50 196 C50 39 85 -8 203 -8 C265.9 -8 298.853 3.97875 329.56 42.9739 C331.89 45.9323 337.677 46.6613 338.238 42.9377 C341.195 23.3182 347 3 347 3 C347 3 350.673 2.92426 361.557 2.69985 L435.002 1.18553 C439.968 1.08314 444 5.03333 444 10 L444 10 Z M337 331.008 L337 103.213 C337 95.7803 332.842 83.7041 327.27 78.7852 C311.387 64.7644 292 60 259 60 C158 60 128 97 128 222 C128 363.55 153.27 410.337 236.39 414.662 C240.109 414.856 246.743 416.711 250.04 414.979 C250.892 414.532 265.568 406.804 306.356 384.117 C321.586 375.645 337 348.436 337 331.008 L337 331.008 Z " />
<glyph glyph-name="Emacron" unicode="&#x112;" horiz-adv-x="559" d="M176 765 L352 765 C365.799 765 377 776.201 377 790 C377 803.799 365.799 815 352 815 L176 815 C162.201 815 151 803.799 151 790 C151 776.201 162.201 765 176 765 L176 765 Z M487 55 C487 67.75 487 79.7775 486.386 94.1531 C486.183 98.8967 482.248 102 477.5 102 C474.553 102 464.678 98.5123 462.385 96.6618 L428.886 69.6275 C423.033 64.9036 397.823 56 390.301 56 L245.44 56 C211.527 56 184 83.527 184 117.44 L184 252.56 C184 286.473 211.527 314 245.44 314 L294.849 314 C300.855 314 324.817 306.531 329.759 303.119 L346.537 291.534 C349.505 289.485 363.893 285 367.5 285 C373.848 285 379 290.152 379 296.5 L379 386.5 C379 392.848 373.848 398 367.5 398 C363.893 398 349.505 393.515 346.537 391.466 L329.759 379.881 C324.817 376.469 300.855 369 294.849 369 L245.44 369 C211.527 369 184 396.527 184 430.44 L184 544.56 C184 578.473 211.527 606 245.44 606 L366.809 606 C373.42 606 397.933 597.944 403.255 594.023 L437.157 569.042 C439.398 567.391 449.717 564 452.5 564 L452.984 564 C457.385 564 461.207 567.298 461.495 571.69 C462.306 584.028 463 594.167 463 605 L463.5 632.5 C463.776 647.677 451.675 660 436.495 660 L74.5 660 C69.2563 660 65 655.744 65 650.5 C65 647.21 68.896 636.164 70.9596 633.602 L80.4066 621.875 C85.1136 616.031 94 590.835 94 583.331 L94 76.6686 C94 69.1655 85.1136 43.9686 80.4066 38.1255 L70.9596 26.3982 C68.896 23.8364 65 12.7895 65 9.5 C65 4.25628 69.2563 0 74.5 0 L461.495 0 C476.675 0 488.776 12.3233 488.5 27.5 L488 55 L487 55 Z " />
<glyph glyph-name="emacron" unicode="&#x113;" horiz-adv-x="443" d="M149 595 L325 595 C338.799 595 350 606.201 350 620 C350 633.799 338.799 645 325 645 L149 645 C135.201 645 124 633.799 124 620 C124 606.201 135.201 595 149 595 L149 595 Z M135.576 338.456 C146.68 395.8 173.4 415 227 415 C279 415 305.4 395.16 316.44 338.072 C322.13 308.651 303.901 288 273.935 288 L178.564 288 C148.264 288 129.816 308.709 135.576 338.456 L135.576 338.456 Z M394 100 C393.496 102.518 391.704 104.094 389.585 102.643 C345.644 72.5556 319.1 64 284 64 C188.3 64 147.05 91.9056 134.982 178.6 C129.661 216.82 154.301 242 192.89 242 L354.754 242 C355.076 242 362.887 242.54 363.206 242.584 L377 244.5 C387.11 245.904 394.973 260.542 394.731 270.746 C391.29 415.777 354.05 460 241 460 C95 460 52 401 52 205 C52 39 95 -10 241 -10 C318.025 -10 356.074 12.815 392.222 89.0314 C392.961 90.5879 394.338 98.3107 394 100 L394 100 Z " />
<glyph glyph-name="Edot" unicode="&#x116;" horiz-adv-x="559" d="M269 725 C315 725 329 739 329 785 C329 831 315 845 269 845 C223 845 209 831 209 785 C209 739 223 725 269 725 L269 725 Z M487 55 C487 67.75 487 79.7775 486.386 94.1531 C486.183 98.8967 482.248 102 477.5 102 C474.553 102 464.678 98.5123 462.385 96.6618 L428.886 69.6275 C423.033 64.9036 397.823 56 390.301 56 L245.44 56 C211.527 56 184 83.527 184 117.44 L184 252.56 C184 286.473 211.527 314 245.44 314 L294.849 314 C300.855 314 324.817 306.531 329.759 303.119 L346.537 291.534 C349.505 289.485 363.893 285 367.5 285 C373.848 285 379 290.152 379 296.5 L379 386.5 C379 392.848 373.848 398 367.5 398 C363.893 398 349.505 393.515 346.537 391.466 L329.759 379.881 C324.817 376.469 300.855 369 294.849 369 L245.44 369 C211.527 369 184 396.527 184 430.44 L184 544.56 C184 578.473 211.527 606 245.44 606 L366.809 606 C373.42 606 397.933 597.944 403.255 594.023 L437.157 569.042 C439.398 567.391 449.717 564 452.5 564 L452.984 564 C457.385 564 461.207 567.298 461.495 571.69 C462.306 584.028 463 594.167 463 605 L463.5 632.5 C463.776 647.677 451.675 660 436.495 660 L74.5 660 C69.2563 660 65 655.744 65 650.5 C65 647.21 68.896 636.164 70.9596 633.602 L80.4066 621.875 C85.1136 616.031 94 590.835 94 583.331 L94 76.6686 C94 69.1655 85.1136 43.9686 80.4066 38.1255 L70.9596 26.3982 C68.896 23.8364 65 12.7895 65 9.5 C65 4.25628 69.2563 0 74.5 0 L461.495 0 C476.675 0 488.776 12.3233 488.5 27.5 L488 55 L487 55 Z " />
<glyph glyph-name="edot" unicode="&#x117;" horiz-adv-x="443" d="M242 583 C288 583 302 597 302 643 C302 689 288 703 242 703 C196 703 182 689 182 643 C182 597 196 583 242 583 L242 583 Z M135.576 338.456 C146.68 395.8 173.4 415 227 415 C279 415 305.4 395.16 316.44 338.072 C322.13 308.651 303.901 288 273.935 288 L178.564 288 C148.264 288 129.816 308.709 135.576 338.456 L135.576 338.456 Z M394 100 C393.496 102.518 391.704 104.094 389.585 102.643 C345.644 72.5556 319.1 64 284 64 C188.3 64 147.05 91.9056 134.982 178.6 C129.661 216.82 154.301 242 192.89 242 L354.754 242 C355.076 242 362.887 242.54 363.206 242.584 L377 244.5 C387.11 245.904 394.973 260.542 394.731 270.746 C391.29 415.777 354.05 460 241 460 C95 460 52 401 52 205 C52 39 95 -10 241 -10 C318.025 -10 356.074 12.815 392.222 89.0314 C392.961 90.5879 394.338 98.3107 394 100 L394 100 Z " />
<glyph glyph-name="Ecaron" unicode="&#x11a;" horiz-adv-x="559" d="M404 867 L403 867 L404 868 L404 867 L404 867 Z M264 710.5 C270.263 710.5 283.628 716.946 287.527 721.847 L399.576 862.696 C401.055 864.555 399.876 867 397.5 867 C395.853 867 388.763 864.91 387.379 864.017 L298.728 806.777 C281.678 795.769 248.441 795.951 231.512 807.145 L146.005 863.69 C144.481 864.698 136.827 867 135 867 C132.369 867 131.046 864.324 132.644 862.233 L240.195 721.52 C244.056 716.468 257.641 710.5 264 710.5 L264 710.5 Z M487 55 C487 67.75 487 79.7775 486.386 94.1531 C486.183 98.8967 482.248 102 477.5 102 C474.553 102 464.678 98.5123 462.385 96.6618 L428.886 69.6275 C423.033 64.9036 397.823 56 390.301 56 L245.44 56 C211.527 56 184 83.527 184 117.44 L184 252.56 C184 286.473 211.527 314 245.44 314 L294.849 314 C300.855 314 324.817 306.531 329.759 303.119 L346.537 291.534 C349.505 289.485 363.893 285 367.5 285 C373.848 285 379 290.152 379 296.5 L379 386.5 C379 392.848 373.848 398 367.5 398 C363.893 398 349.505 393.515 346.537 391.466 L329.759 379.881 C324.817 376.469 300.855 369 294.849 369 L245.44 369 C211.527 369 184 396.527 184 430.44 L184 544.56 C184 578.473 211.527 606 245.44 606 L366.809 606 C373.42 606 397.933 597.944 403.255 594.023 L437.157 569.042 C439.398 567.391 449.717 564 452.5 564 L452.984 564 C457.385 564 461.207 567.298 461.495 571.69 C462.306 584.028 463 594.167 463 605 L463.5 632.5 C463.776 647.677 451.675 660 436.495 660 L74.5 660 C69.2563 660 65 655.744 65 650.5 C65 647.21 68.896 636.164 70.9596 633.602 L80.4066 621.875 C85.1136 616.031 94 590.835 94 583.331 L94 76.6686 C94 69.1655 85.1136 43.9686 80.4066 38.1255 L70.9596 26.3982 C68.896 23.8364 65 12.7895 65 9.5 C65 4.25628 69.2563 0 74.5 0 L461.495 0 C476.675 0 488.776 12.3233 488.5 27.5 L488 55 L487 55 Z " />
<glyph glyph-name="ecaron" unicode="&#x11b;" horiz-adv-x="443" d="M255.719 547.206 L368.513 705.118 C370.079 707.311 368.695 710 366 710 C364.081 710 356.674 707.635 355.11 706.523 L268.319 644.82 C249.263 631.273 214.972 631.598 196.177 645.503 L113.823 706.431 C112.24 707.603 104.97 710 103 710 C100.269 710 98.8485 707.304 100.393 705.052 L208.517 547.371 C212.379 541.739 225.172 535 232 535 C238.737 535 251.803 541.724 255.719 547.206 L255.719 547.206 Z M135.576 338.456 C146.68 395.8 173.4 415 227 415 C279 415 305.4 395.16 316.44 338.072 C322.13 308.651 303.901 288 273.935 288 L178.564 288 C148.264 288 129.816 308.709 135.576 338.456 L135.576 338.456 Z M394 100 C393.496 102.518 391.704 104.094 389.585 102.643 C345.644 72.5556 319.1 64 284 64 C188.3 64 147.05 91.9056 134.982 178.6 C129.661 216.82 154.301 242 192.89 242 L354.754 242 C355.076 242 362.887 242.54 363.206 242.584 L377 244.5 C387.11 245.904 394.973 260.542 394.731 270.746 C391.29 415.777 354.05 460 241 460 C95 460 52 401 52 205 C52 39 95 -10 241 -10 C318.025 -10 356.074 12.815 392.222 89.0314 C392.961 90.5879 394.338 98.3107 394 100 L394 100 Z " />
<glyph glyph-name="Gbreve" unicode="&#x11e;" horiz-adv-x="689" d="M259 864 C255.283 864 253.901 857.452 254.943 853.884 C292.492 725.408 302.9 714 377 714 C450.125 714 460.509 725.408 498.057 854.811 C499.093 858.383 497.719 865 494 865 C490.311 865 486.279 862.525 485.229 858.99 C462.556 782.654 453.05 776 377 776 C299.975 776 290.444 781.704 267.771 858.918 C266.731 862.46 262.691 864 259 864 L259 864 Z M598.905 533.513 L598.273 596.665 C598.117 612.306 588.689 632.228 575.256 640.24 C537.909 662.513 490.575 670 399 670 C146 670 70 587 70 310 C70 64 141 -10 380 -10 C493.4 -10 548.48 5.39 597.728 55.853 C604.463 62.7538 614 86.5492 614 96.1917 L614 213.919 C614 221.063 622.556 246.001 626.942 251.64 L636.168 263.501 C638.144 266.042 642 277.281 642 280.5 C642 285.744 637.744 290 632.5 290 L502.5 290 C497.256 290 493 285.744 493 280.5 C493 277.078 496.966 266.394 499.199 263.801 L509.117 252.283 C514.478 246.058 524 220.407 524 212.192 L524 75.5399 C524 68.0798 519.931 61.0867 512.799 58.8982 C489.96 51.89 457.15 49 407 49 C219 49 163 116 163 341 C163 556 217 620 399 620 C448.4 620 479.75 613.683 512.77 593.331 C513.55 592.85 521.799 586.201 522.447 585.553 L528 580 C545.576 561.545 556.973 549.269 573.051 532.312 C575.547 529.68 585.878 524.691 589.5 524.5 C594.733 524.225 598.957 528.272 598.905 533.513 L598.905 533.513 Z " />
<glyph glyph-name="gbreve" unicode="&#x11f;" horiz-adv-x="506" d="M126 707 C122.254 707 120.994 699.336 121.943 695.712 C159.491 552.358 169.875 540 243 540 C316.125 540 326.509 552.358 364.057 695.712 C365.006 699.336 363.746 707 360 707 C356.279 707 352.181 703.854 351.229 700.256 C328.556 614.605 319.05 607 243 607 C166.95 607 157.444 614.605 134.771 700.256 C133.819 703.854 129.721 707 126 707 L126 707 Z M318.09 451.77 C296.625 457.703 270.375 460 238 460 C104 460 80 423 80 300 C80 237.3 88.8481 197.061 112.721 171.982 C117.9 166.542 118.06 153.359 111.399 149.888 C80.115 133.582 70 111.1 70 72 C70 30.75 78.8481 7.87688 104.406 -3.35756 C108.679 -5.236 107.846 -15.6936 103.953 -18.2689 C71.8375 -39.5125 61 -80.95 61 -126 C61 -215 97 -242 218 -242 C384 -242 433 -202 433 -68 C433 29 424 58 313 58 L191 58 C153 58 141 69 141 104 C141 127.333 143.778 137.472 152.227 142.519 C155.32 144.366 161.894 143.901 165.397 143.06 C185.021 138.353 208.657 136 237 136 C372 136 396 174 396 300 C396 339.1 392.387 369.53 383.32 392.518 C381.221 397.839 385.863 402.992 391.537 402.265 L429.219 397.433 C443.881 395.554 456 406.218 456 421 C456 435.903 443.903 448.094 429.001 448.209 L337.135 448.921 C335.978 448.93 319.205 451.461 318.09 451.77 L318.09 451.77 Z M161 301 C161 392 172 419 231 419 C296 419 315 391 315 297 C315 204 305 176 250 176 C181 176 161 205 161 301 L161 301 Z M165 -12 L273 -12 C353 -12 360 -30 360 -89 C360 -185 330 -214 228 -214 C154 -214 132 -191 132 -115 C132 -45 140 -12 165 -12 L165 -12 Z " />
<glyph glyph-name="Itilde" unicode="&#x128;" horiz-adv-x="288" d="M24.2931 712.24 C38.175 756.462 40.55 770 70 770 C118 770 146 705 194 705 C243.725 705 247.82 732.568 276.726 822.925 C277.765 826.17 275.907 830 272.5 830 C269.064 830 264.614 825.747 263.564 822.475 C248.827 776.537 246.5 763 218 763 C170 763 142 828 94 828 C43.3 828 40.1313 801.383 11.2719 712 C10.2262 708.762 12.0969 705 15.5 705 C18.943 705 23.2619 708.955 24.2931 712.24 L24.2931 712.24 Z M218 9.5 C218 12.7895 214.104 23.8364 212.04 26.3982 L202.593 38.1255 C197.886 43.9686 189 69.1655 189 76.6686 L189 583.331 C189 590.835 197.886 616.031 202.593 621.875 L212.04 633.602 C214.104 636.164 218 647.21 218 650.5 C218 655.744 213.744 660 208.5 660 L79.5 660 C74.2563 660 70 655.744 70 650.5 C70 647.21 73.896 636.164 75.9596 633.602 L85.4066 621.875 C90.1136 616.031 99 590.835 99 583.331 L99 76.6686 C99 69.1655 90.1136 43.9686 85.4066 38.1255 L75.9596 26.3982 C73.896 23.8364 70 12.7895 70 9.5 C70 4.25628 74.2563 0 79.5 0 L208.5 0 C213.744 0 218 4.25628 218 9.5 L218 9.5 Z " />
<glyph glyph-name="itilde" unicode="&#x129;" horiz-adv-x="234" d="M-1.70687 537.24 C12.175 581.462 14.55 595 44 595 C92 595 120 530 168 530 C217.725 530 221.82 557.568 250.726 647.925 C251.765 651.17 249.907 655 246.5 655 C243.064 655 238.614 650.747 237.564 647.475 C222.827 601.538 220.5 588 192 588 C144 588 116 653 68 653 C17.3 653 14.1313 626.383 -14.7281 537 C-15.7738 533.762 -13.9031 530 -10.5 530 C-7.05696 530 -2.73807 533.955 -1.70687 537.24 L-1.70687 537.24 Z M182 9 C182 11.9806 178.388 22.8155 176.6 25.2 L170 34 C166.026 39.2989 158 63.3764 158 70 L158 452 C158 456.416 154.416 460 150 460 C148.289 460 136.203 457.563 134.625 456.899 L56.7655 424.163 C55.3583 423.571 54 421.526 54 420 C54 419.385 54.8858 414.786 55.1142 414.215 L58 407 C73 361 78 348 78 347 L78 70 C78 63.3764 69.9742 39.2989 66 34 L59.4 25.2 C57.6116 22.8155 54 11.9806 54 9 C54 4.03227 58.0323 0 63 0 L173 0 C177.968 0 182 4.03227 182 9 L182 9 Z " />
<glyph glyph-name="Imacron" unicode="&#x12a;" horiz-adv-x="288" d="M56 765 L232 765 C245.799 765 257 776.201 257 790 C257 803.799 245.799 815 232 815 L56 815 C42.2007 815 31 803.799 31 790 C31 776.201 42.2007 765 56 765 L56 765 Z M218 9.5 C218 12.7895 214.104 23.8364 212.04 26.3982 L202.593 38.1255 C197.886 43.9686 189 69.1655 189 76.6686 L189 583.331 C189 590.835 197.886 616.031 202.593 621.875 L212.04 633.602 C214.104 636.164 218 647.21 218 650.5 C218 655.744 213.744 660 208.5 660 L79.5 660 C74.2563 660 70 655.744 70 650.5 C70 647.21 73.896 636.164 75.9596 633.602 L85.4066 621.875 C90.1136 616.031 99 590.835 99 583.331 L99 76.6686 C99 69.1655 90.1136 43.9686 85.4066 38.1255 L75.9596 26.3982 C73.896 23.8364 70 12.7895 70 9.5 C70 4.25628 74.2563 0 79.5 0 L208.5 0 C213.744 0 218 4.25628 218 9.5 L218 9.5 Z " />
<glyph glyph-name="imacron" unicode="&#x12b;" horiz-adv-x="234" d="M25 595 L201 595 C214.799 595 226 606.201 226 620 C226 633.799 214.799 645 201 645 L25 645 C11.2007 645 0 633.799 0 620 C0 606.201 11.2007 595 25 595 L25 595 Z M182 9 C182 11.9806 178.388 22.8155 176.6 25.2 L170 34 C166.026 39.2989 158 63.3764 158 70 L158 452 C158 456.416 154.416 460 150 460 C148.289 460 136.203 457.563 134.625 456.899 L56.7655 424.163 C55.3583 423.571 54 421.526 54 420 C54 419.385 54.8858 414.786 55.1142 414.215 L58 407 C73 361 78 348 78 347 L78 70 C78 63.3764 69.9742 39.2989 66 34 L59.4 25.2 C57.6116 22.8155 54 11.9806 54 9 C54 4.03227 58.0323 0 63 0 L173 0 C177.968 0 182 4.03227 182 9 L182 9 Z " />
<glyph glyph-name="Idot" unicode="&#x130;" horiz-adv-x="288" d="M144 725 C190 725 204 739 204 785 C204 831 190 845 144 845 C98 845 84 831 84 785 C84 739 98 725 144 725 L144 725 Z M218 9.5 C218 12.7895 214.104 23.8364 212.04 26.3982 L202.593 38.1255 C197.886 43.9686 189 69.1655 189 76.6686 L189 583.331 C189 590.835 197.886 616.031 202.593 621.875 L212.04 633.602 C214.104 636.164 218 647.21 218 650.5 C218 655.744 213.744 660 208.5 660 L79.5 660 C74.2563 660 70 655.744 70 650.5 C70 647.21 73.896 636.164 75.9596 633.602 L85.4066 621.875 C90.1136 616.031 99 590.835 99 583.331 L99 76.6686 C99 69.1655 90.1136 43.9686 85.4066 38.1255 L75.9596 26.3982 C73.896 23.8364 70 12.7895 70 9.5 C70 4.25628 74.2563 0 79.5 0 L208.5 0 C213.744 0 218 4.25628 218 9.5 L218 9.5 Z " />
<glyph glyph-name="dotlessi" unicode="&#x131;" horiz-adv-x="234" d="M182 9 C182 11.9806 178.388 22.8155 176.6 25.2 L170 34 C166.026 39.2989 158 63.3764 158 70 L158 452 C158 456.416 154.416 460 150 460 C148.289 460 136.203 457.563 134.625 456.899 L56.7655 424.163 C55.3583 423.571 54 421.526 54 420 C54 419.385 54.8858 414.786 55.1142 414.215 L58 407 C73 361 78 348 78 347 L78 70 C78 63.3764 69.9742 39.2989 66 34 L59.4 25.2 C57.6116 22.8155 54 11.9806 54 9 C54 4.03227 58.0323 0 63 0 L173 0 C177.968 0 182 4.03227 182 9 L182 9 Z " />
<glyph glyph-name="Lacute" unicode="&#x139;" horiz-adv-x="539" d="M130 705 C132.286 705 138.687 707.564 140.341 709.142 L245 809 C267 831 274 864 274 864 C274 864 264.675 864 257.133 864 L234 864 C213.793 864 186.025 845.885 177.883 827.391 L126.418 710.491 C125.196 707.717 126.969 705 130 705 L130 705 Z M467 55 C466.111 72.7778 465.222 88.1852 464.333 108.246 C464.114 113.19 459.95 116 455 116 C451.458 116 442.172 112.109 439.689 109.584 L404.055 73.3559 C396.95 66.1326 370.385 55 360.253 55 L244.44 55 C210.527 55 183 82.527 183 116.44 L183 582.192 C183 590.407 192.522 616.058 197.883 622.283 L207.801 633.801 C210.034 636.394 214 647.078 214 650.5 C214 655.744 209.744 660 204.5 660 L73.5 660 C68.2563 660 64 655.744 64 650.5 C64 647.21 67.896 636.164 69.9596 633.602 L79.4066 621.875 C84.1136 616.031 93 590.835 93 583.331 L93 76.6686 C93 69.1655 84.1136 43.9686 79.4066 38.1255 L69.9596 26.3982 C67.896 23.8364 64 12.7895 64 9.5 C64 4.25628 68.2563 0 73.5 0 L440.499 0 C455.678 0 467.888 12.3215 467.75 27.5 L467.5 55 L467 55 Z " />
<glyph glyph-name="lacute" unicode="&#x13a;" horiz-adv-x="215" d="M98.5 765 C100.918 765 108.016 767.751 109.802 769.381 L219 869 C242 891 249 924 249 924 C249 924 239.675 924 232.133 924 L204.398 924 C184.635 924 156.807 906.156 148.561 888.196 L94.7121 770.907 C93.3516 767.944 95.2394 765 98.5 765 L98.5 765 Z M172 9 C172 11.9806 168.388 22.8155 166.6 25.2 L160 34 C156.026 39.2989 148 63.3764 148 70 L148 752 C148 756.416 144.416 760 140 760 C138.289 760 126.203 757.563 124.625 756.899 L46.7655 724.163 C45.3583 723.571 44 721.526 44 720 C44 719.385 44.8858 714.786 45.1142 714.215 L48 707 C63 661 68 648 68 647 L68 70 C68 63.3764 59.9742 39.2989 56 34 L49.4 25.2 C47.6116 22.8155 44 11.9806 44 9 C44 4.03227 48.0323 0 53 0 L163 0 C167.968 0 172 4.03227 172 9 L172 9 Z " />
<glyph glyph-name="Lcaron" unicode="&#x13d;" horiz-adv-x="539" d="M425 660 L387.5 660 C366.919 660 348.201 643.177 346.012 622.713 L330.638 478.966 C330.288 475.692 332.707 473 336 473 C338.969 473 343.344 475.717 344.66 478.378 L433 657 C432 657 432 660 425 660 L425 660 Z M433 657 L435 662 C434 659 434 658 434 658 L433 657 L433 657 Z M438.443 667.398 L438.557 667.602 C438.615 667.707 438.804 667.608 438.75 667.5 C438.696 667.392 438.385 667.293 438.443 667.398 L438.443 667.398 Z M469 56 C468.111 73.7778 467.222 89.1852 466.333 109.246 C466.114 114.19 461.95 117 457 117 C453.458 117 444.172 113.109 441.689 110.584 L406.055 74.3559 C398.95 67.1326 372.385 56 362.253 56 L246.44 56 C212.527 56 185 83.527 185 117.44 L185 583.192 C185 591.407 194.522 617.058 199.883 623.283 L209.801 634.801 C212.034 637.394 216 648.078 216 651.5 C216 656.744 211.744 661 206.5 661 L75.5 661 C70.2563 661 66 656.744 66 651.5 C66 648.21 69.896 637.164 71.9596 634.602 L81.4066 622.875 C86.1136 617.031 95 591.835 95 584.331 L95 77.6686 C95 70.1655 86.1136 44.9686 81.4066 39.1255 L71.9596 27.3982 C69.896 24.8364 66 13.7895 66 10.5 C66 5.25628 70.2563 1 75.5 1 L442.499 1 C457.678 1 469.888 13.3215 469.75 28.5 L469.5 56 L469 56 Z " />
<glyph glyph-name="lcaron" unicode="&#x13e;" horiz-adv-x="215" d="M319 750 L281.5 750 C260.919 750 242.201 733.177 240.012 712.713 L224.638 568.966 C224.288 565.692 226.707 563 230 563 C232.969 563 237.344 565.717 238.66 568.378 L327 747 C326 747 326 750 319 750 L319 750 Z M327 747 L329 752 C328 749 328 748 328 748 L327 747 L327 747 Z M332.443 757.398 L332.557 757.602 C332.615 757.707 332.804 757.608 332.75 757.5 C332.696 757.392 332.385 757.293 332.443 757.398 L332.443 757.398 Z M174 10 C174 12.9806 170.388 23.8155 168.6 26.2 L162 35 C158.026 40.2989 150 64.3764 150 71 L150 753 C150 757.416 146.416 761 142 761 C140.289 761 128.203 758.563 126.625 757.899 L48.7655 725.163 C47.3583 724.571 46 722.526 46 721 C46 720.385 46.8858 715.786 47.1142 715.215 L50 708 C65 662 70 649 70 648 L70 71 C70 64.3764 61.9742 40.2989 58 35 L51.4 26.2 C49.6116 23.8155 46 12.9806 46 10 C46 5.03227 50.0323 1 55 1 L165 1 C169.968 1 174 5.03227 174 10 L174 10 Z " />
<glyph glyph-name="Nacute" unicode="&#x143;" horiz-adv-x="664" d="M350 705 C352.286 705 358.687 707.564 360.341 709.142 L465 809 C487 831 494 864 494 864 C494 864 484.675 864 477.133 864 L454 864 C433.793 864 406.025 845.885 397.883 827.391 L346.418 710.491 C345.196 707.717 346.969 705 350 705 L350 705 Z M69.8324 633.501 L79.0578 621.64 C83.4436 616.001 92 591.063 92 583.919 L92 76.6686 C92 69.1655 83.1136 43.9686 78.4066 38.1255 L68.9596 26.3982 C66.896 23.8364 63 12.7895 63 9.5 C63 4.25628 67.2563 0 72.5 0 L189.5 0 C194.744 0 199 4.25628 199 9.5 C199 13.2583 194.885 23.004 192.191 25.6249 L180.5 37 C173.181 44.121 162 70.6004 162 80.8118 L162 317.726 C162 378.961 236.664 403.457 272.939 354.123 L525.745 10.3074 C530.75 3.50026 547.551 -5 556 -5 C566.487 -5 575 3.51257 575 14 L575 583.919 C575 591.063 583.556 616.001 587.942 621.64 L597.168 633.501 C599.144 636.042 603 647.281 603 650.5 C603 655.744 598.744 660 593.5 660 L477.5 660 C472.256 660 468 655.744 468 650.5 C468 646.742 472.115 636.996 474.809 634.375 L486.5 623 C493.819 615.879 505 589.4 505 579.188 L505 379.089 C505 317.803 430.146 293.351 393.967 342.82 L180.409 634.829 C172.207 646.044 144.71 660 130.816 660 L73.5 660 C68.2563 660 64 655.744 64 650.5 C64 647.281 67.856 636.042 69.8324 633.501 L69.8324 633.501 Z " />
<glyph glyph-name="nacute" unicode="&#x144;" horiz-adv-x="467" d="M245 530 C247.413 530 253.456 532.614 255.109 534.373 L360 646 C382 670 389 707 389 707 C389 707 378.783 707 370.172 707 L349 707 C328.469 707 301.84 688.896 294.289 669.803 L241.207 535.58 C240.074 532.716 241.92 530 245 530 L245 530 Z M428 9 C428 11.9806 424.388 22.8155 422.6 25.2 L416 34 C412.026 39.2989 404 63.3764 404 70 L404 343 C404 433 377 460 285 460 C221.175 460 199.703 444.599 162.018 395.593 C158.583 391.127 152.2 392.776 152.023 398.407 C151.084 428.21 150 460 150 460 C150 460 146.569 460 142 460 C140.22 460 128.308 457.493 126.679 456.775 L52.7455 424.209 C51.3586 423.598 50 421.515 50 420 C50 419.385 50.8858 414.786 51.1142 414.215 L54 407 C69 361 74 348 74 347 L74 70 C74 63.3764 65.9742 39.2989 62 34 L55.4 25.2 C53.6116 22.8155 50 11.9806 50 9 C50 4.03227 54.0323 0 59 0 L171 0 C175.968 0 180 4.03227 180 9 C180 12.1326 176.3 22.5538 174.325 24.985 L167 34 C162.475 39.5691 154 63.4399 154 70.6155 L154 336.897 C154 344.479 159.402 361.077 164.628 366.569 C181.094 383.874 198.275 390 242 390 C306 390 325 369 325 297 L325 70.6155 C325 63.4399 316.525 39.5691 312 34 L304.675 24.985 C302.7 22.5538 299 12.1326 299 9 C299 4.03227 303.032 0 308 0 L419 0 C423.968 0 428 4.03227 428 9 L428 9 Z " />
<glyph glyph-name="Ncaron" unicode="&#x147;" horiz-adv-x="664" d="M484 867 L483 867 L484 868 L484 867 L484 867 Z M344 710.5 C350.263 710.5 363.628 716.946 367.527 721.847 L479.576 862.696 C481.055 864.555 479.876 867 477.5 867 C475.877 867 468.724 864.927 467.352 864.059 L377.518 807.211 C360.657 796.541 327.537 796.842 310.872 807.816 L226.011 863.7 C224.49 864.702 216.821 867 215 867 C212.369 867 211.046 864.324 212.644 862.233 L320.195 721.52 C324.056 716.468 337.641 710.5 344 710.5 L344 710.5 Z M69.8324 633.501 L79.0578 621.64 C83.4436 616.001 92 591.063 92 583.919 L92 76.6686 C92 69.1655 83.1136 43.9686 78.4066 38.1255 L68.9596 26.3982 C66.896 23.8364 63 12.7895 63 9.5 C63 4.25628 67.2563 0 72.5 0 L189.5 0 C194.744 0 199 4.25628 199 9.5 C199 13.2583 194.885 23.004 192.191 25.6249 L180.5 37 C173.181 44.121 162 70.6004 162 80.8118 L162 317.726 C162 378.961 236.664 403.457 272.939 354.123 L525.745 10.3074 C530.75 3.50026 547.551 -5 556 -5 C566.487 -5 575 3.51257 575 14 L575 583.919 C575 591.063 583.556 616.001 587.942 621.64 L597.168 633.501 C599.144 636.042 603 647.281 603 650.5 C603 655.744 598.744 660 593.5 660 L477.5 660 C472.256 660 468 655.744 468 650.5 C468 646.742 472.115 636.996 474.809 634.375 L486.5 623 C493.819 615.879 505 589.4 505 579.188 L505 379.089 C505 317.803 430.146 293.351 393.967 342.82 L180.409 634.829 C172.207 646.044 144.71 660 130.816 660 L73.5 660 C68.2563 660 64 655.744 64 650.5 C64 647.281 67.856 636.042 69.8324 633.501 L69.8324 633.501 Z " />
<glyph glyph-name="ncaron" unicode="&#x148;" horiz-adv-x="467" d="M262.719 547.206 L375.513 705.118 C377.079 707.311 375.695 710 373 710 C371.071 710 363.691 707.629 362.123 706.505 L276.217 644.951 C257.216 631.336 222.926 631.53 204.08 645.36 L120.837 706.45 C119.258 707.609 111.959 710 110 710 C107.269 710 105.849 707.304 107.393 705.052 L215.517 547.371 C219.379 541.739 232.172 535 239 535 C245.737 535 258.803 541.724 262.719 547.206 L262.719 547.206 Z M428 9 C428 11.9806 424.388 22.8155 422.6 25.2 L416 34 C412.026 39.2989 404 63.3764 404 70 L404 343 C404 433 377 460 285 460 C221.175 460 199.703 444.599 162.018 395.593 C158.583 391.127 152.2 392.776 152.023 398.407 C151.084 428.21 150 460 150 460 C150 460 146.569 460 142 460 C140.22 460 128.308 457.493 126.679 456.775 L52.7455 424.209 C51.3586 423.598 50 421.515 50 420 C50 419.385 50.8858 414.786 51.1142 414.215 L54 407 C69 361 74 348 74 347 L74 70 C74 63.3764 65.9742 39.2989 62 34 L55.4 25.2 C53.6116 22.8155 50 11.9806 50 9 C50 4.03227 54.0323 0 59 0 L171 0 C175.968 0 180 4.03227 180 9 C180 12.1326 176.3 22.5538 174.325 24.985 L167 34 C162.475 39.5691 154 63.4399 154 70.6155 L154 336.897 C154 344.479 159.402 361.077 164.628 366.569 C181.094 383.874 198.275 390 242 390 C306 390 325 369 325 297 L325 70.6155 C325 63.4399 316.525 39.5691 312 34 L304.675 24.985 C302.7 22.5538 299 12.1326 299 9 C299 4.03227 303.032 0 308 0 L419 0 C423.968 0 428 4.03227 428 9 L428 9 Z " />
<glyph glyph-name="Omacron" unicode="&#x14c;" horiz-adv-x="767" d="M281 765 L457 765 C470.799 765 482 776.201 482 790 C482 803.799 470.799 815 457 815 L281 815 C267.201 815 256 803.799 256 790 C256 776.201 267.201 765 281 765 L281 765 Z M166 363 C166 562 212 621 366 621 C547 621 601 546 601 293 C601 98 556 40 404 40 C221 40 166 114 166 363 L166 363 Z M70 328 C70 68 142 -10 384 -10 C625 -10 697 68 697 328 C697 591 625 670 384 670 C142 670 70 591 70 328 L70 328 Z " />
<glyph glyph-name="omacron" unicode="&#x14d;" horiz-adv-x="498" d="M161 595 L337 595 C350.799 595 362 606.201 362 620 C362 633.799 350.799 645 337 645 L161 645 C147.201 645 136 633.799 136 620 C136 606.201 147.201 595 161 595 L161 595 Z M142 225 C142 374 156 418 235 418 C328 418 356 374 356 225 C356 76 342 32 263 32 C170 32 142 76 142 225 L142 225 Z M50 225 C50 44 96 -10 249 -10 C418 -10 448 44 448 225 C448 406 402 460 249 460 C80 460 50 406 50 225 L50 225 Z " />
<glyph glyph-name="Racute" unicode="&#x154;" horiz-adv-x="555" d="M241 705 C243.286 705 249.687 707.564 251.341 709.142 L356 809 C378 831 385 864 385 864 C385 864 375.675 864 368.133 864 L345 864 C324.793 864 297.025 845.885 288.883 827.391 L237.418 710.491 C236.196 707.717 237.969 705 241 705 L241 705 Z M544 9 C544 12.8889 539.999 21.1804 536.955 23.6002 L512.775 42.8196 C511.423 43.8945 500.513 55.8693 499.568 57.3156 L368.097 258.58 C357.155 275.331 366.55 301.652 384.898 309.632 C442.581 334.718 463 385.6 463 478 C463 617 418 659 267 659 L74.5 659 C69.2563 659 65 654.744 65 649.5 C65 646.21 68.896 635.164 70.9596 632.602 L80.4066 620.875 C85.1136 615.031 94 589.835 94 582.331 L94 75.6686 C94 68.1655 85.1136 42.9686 80.4066 37.1255 L70.9596 25.3982 C68.896 22.8364 65 11.7895 65 8.5 C65 3.25628 69.2563 -1 74.5 -1 L202.5 -1 C207.744 -1 212 3.25628 212 8.5 C212 11.7193 208.144 22.9577 206.168 25.4988 L196.942 37.36 C192.556 42.9989 184 67.9368 184 75.0805 L184 260 C184 276.007 196.993 289 213 289 C226.432 289 250.469 275.937 257.775 264.666 L411.646 27.312 C420.195 14.125 448.024 -0.841891 463.739 -0.70404 L535 -0.0789443 C539.968 -0.0353711 544 4.03246 544 9 L544 9 Z M184 383 L184 590 C184 597.734 189.55 604.003 197.284 603.996 C221.243 603.976 244.156 603.844 245 603 C337 603 365 572 365 470 C365 373 341 344 262 344 L223 344 C201.473 344 184 361.473 184 383 L184 383 Z " />
<glyph glyph-name="racute" unicode="&#x155;" horiz-adv-x="310" d="M193 530 C195.413 530 201.456 532.614 203.109 534.373 L308 646 C330 670 337 707 337 707 C337 707 326.783 707 318.172 707 L297 707 C276.469 707 249.84 688.896 242.289 669.803 L189.207 535.58 C188.074 532.716 189.92 530 193 530 L193 530 Z M236 460 C207.725 460 192.759 440.037 156.807 376.012 C156.294 375.099 153.672 372.966 153.5 374 C153.463 374.22 152.93 379.284 152.923 379.508 C151.901 412.518 150 461 150 461 C150 461 146.592 461 142 461 C140.22 461 128.308 458.493 126.679 457.775 L52.7455 425.209 C51.3586 424.598 50 422.515 50 421 C50 420.385 50.8858 415.786 51.1142 415.215 L54 408 C69 362 74 349 74 348 L74 71 C74 64.3764 65.9742 40.2989 62 35 L55.4 26.2 C53.6116 23.8155 50 12.9806 50 10 C50 5.03227 54.0323 1 59 1 L171 1 C175.968 1 180 5.03227 180 10 C180 13.1326 176.3 23.5538 174.325 25.985 L167 35 C162.475 40.5691 154 64.4399 154 71.6155 L154 320.998 C154 325.501 160.065 347.802 162.307 351.707 C175.258 374.262 181.129 382 187 382 C206 382 218 379 240 370 C254 363 278 354 278 354 C278 354 270.846 354 281.5 354 C283.249 354 285.805 355.695 286.553 357.276 C304.329 394.83 310 409.306 310 420 C310 431 304 438 283 450 C267 460 251 461 236 461 L236 460 Z " />
<glyph glyph-name="Rcaron" unicode="&#x158;" horiz-adv-x="555" d="M385 867 L384 867 L385 868 L385 867 L385 867 Z M245 710.5 C251.263 710.5 264.628 716.946 268.527 721.847 L380.576 862.696 C382.055 864.555 380.876 867 378.5 867 C376.877 867 369.724 864.927 368.352 864.059 L278.518 807.211 C261.657 796.541 228.537 796.842 211.872 807.816 L127.011 863.7 C125.49 864.702 117.821 867 116 867 C113.369 867 112.046 864.324 113.644 862.233 L221.195 721.52 C225.056 716.468 238.641 710.5 245 710.5 L245 710.5 Z M544 9 C544 12.8889 539.999 21.1804 536.955 23.6002 L512.775 42.8196 C511.423 43.8945 500.513 55.8693 499.568 57.3156 L368.097 258.58 C357.155 275.331 366.55 301.652 384.898 309.632 C442.581 334.718 463 385.6 463 478 C463 617 418 659 267 659 L74.5 659 C69.2563 659 65 654.744 65 649.5 C65 646.21 68.896 635.164 70.9596 632.602 L80.4066 620.875 C85.1136 615.031 94 589.835 94 582.331 L94 75.6686 C94 68.1655 85.1136 42.9686 80.4066 37.1255 L70.9596 25.3982 C68.896 22.8364 65 11.7895 65 8.5 C65 3.25628 69.2563 -1 74.5 -1 L202.5 -1 C207.744 -1 212 3.25628 212 8.5 C212 11.7193 208.144 22.9577 206.168 25.4988 L196.942 37.36 C192.556 42.9989 184 67.9368 184 75.0805 L184 260 C184 276.007 196.993 289 213 289 C226.432 289 250.469 275.937 257.775 264.666 L411.646 27.312 C420.195 14.125 448.024 -0.841891 463.739 -0.70404 L535 -0.0789443 C539.968 -0.0353711 544 4.03246 544 9 L544 9 Z M184 383 L184 590 C184 597.734 189.55 604.003 197.284 603.996 C221.243 603.976 244.156 603.844 245 603 C337 603 365 572 365 470 C365 373 341 344 262 344 L223 344 C201.473 344 184 361.473 184 383 L184 383 Z " />
<glyph glyph-name="rcaron" unicode="&#x159;" horiz-adv-x="310" d="M210.719 547.206 L323.513 705.118 C325.079 707.311 323.695 710 321 710 C319.071 710 311.691 707.629 310.123 706.505 L224.217 644.951 C205.216 631.336 170.926 631.53 152.08 645.36 L68.8372 706.45 C67.2575 707.609 59.9594 710 58 710 C55.2686 710 53.8485 707.304 55.3932 705.052 L163.517 547.371 C167.379 541.739 180.172 535 187 535 C193.737 535 206.803 541.724 210.719 547.206 L210.719 547.206 Z M236 460 C207.725 460 192.759 440.037 156.807 376.012 C156.294 375.099 153.672 372.966 153.5 374 C153.463 374.22 152.93 379.284 152.923 379.508 C151.901 412.518 150 461 150 461 C150 461 146.592 461 142 461 C140.22 461 128.308 458.493 126.679 457.775 L52.7455 425.209 C51.3586 424.598 50 422.515 50 421 C50 420.385 50.8858 415.786 51.1142 415.215 L54 408 C69 362 74 349 74 348 L74 71 C74 64.3764 65.9742 40.2989 62 35 L55.4 26.2 C53.6116 23.8155 50 12.9806 50 10 C50 5.03227 54.0323 1 59 1 L171 1 C175.968 1 180 5.03227 180 10 C180 13.1326 176.3 23.5538 174.325 25.985 L167 35 C162.475 40.5691 154 64.4399 154 71.6155 L154 320.998 C154 325.501 160.065 347.802 162.307 351.707 C175.258 374.262 181.129 382 187 382 C206 382 218 379 240 370 C254 363 278 354 278 354 C278 354 270.846 354 281.5 354 C283.249 354 285.805 355.695 286.553 357.276 C304.329 394.83 310 409.306 310 420 C310 431 304 438 283 450 C267 460 251 461 236 461 L236 460 Z " />
<glyph glyph-name="Sacute" unicode="&#x15a;" horiz-adv-x="487" d="M219 705 C221.286 705 227.687 707.564 229.341 709.142 L334 809 C356 831 363 864 363 864 C363 864 353.675 864 346.133 864 L323 864 C302.793 864 275.025 845.885 266.883 827.391 L215.418 710.491 C214.196 707.717 215.969 705 219 705 L219 705 Z M325 597 C333 590 339 583 348 570 C357.565 555.217 364.862 544.972 373.835 531.373 C376.377 527.521 383.51 525 388.124 525 L388.5 525 C394.293 525 398.862 529.705 398.691 535.495 L396.686 603.676 C396.325 615.962 388.385 634.934 378.531 642.282 C350.483 663.194 317.875 670 256 670 C124 670 85 628 85 489 C85 392 105 373 217 311 C326 250 346 233 346 163 C346 66 325 37 253 37 C212 37 182 47 136 79 C130.75 82.5 127.797 85.2344 125.131 90.5527 C125.101 90.613 122.697 95.2338 122.663 95.292 C110.796 115.651 103.187 128.914 91.9068 148.295 C89.3843 152.629 82.5147 155 77.5 155 C71.7061 155 67.1176 150.295 67.2624 144.503 L69.2777 63.8917 C69.6722 48.1106 80.4476 26.7064 94.088 18.7603 C132.323 -3.51312 174.625 -11 253 -11 C391 -11 432 34 432 185 C432 289 410 310 288 378 C191 432 174 447 174 520 C174 598 191 621 248 621 C279 621 300.5 615.5 325.5 596.5 L325 597 Z " />
<glyph glyph-name="sacute" unicode="&#x15b;" horiz-adv-x="387" d="M193 530 C195.413 530 201.456 532.614 203.109 534.373 L308 646 C330 670 337 707 337 707 C337 707 326.783 707 318.172 707 L297 707 C276.469 707 249.84 688.896 242.289 669.803 L189.207 535.58 C188.074 532.716 189.92 530 193 530 L193 530 Z M282 362 C286.286 362 290.571 361.265 295.487 361.055 C297.213 360.982 298.033 362.272 298.077 363.999 L299 400 L299.5 412.5 C299.752 418.807 295.296 427.719 289.764 430.759 C249.016 453.155 223.925 460 186 460 C100 460 74 431 74 332 C74 245 87 232 159 202 C233 171 246 160 246 96 C246 43.35 231.741 26.8238 185.612 26.0303 C185.335 26.0256 178.893 26.3452 178.618 26.3758 L173 27 C141 31 122 43 88 80 L75 93 C71 93 67 94 62 94 L61 70 L60.5 45 C60.228 31.4015 71.9273 14.4232 84.5457 9.34677 C120.793 -5.23562 147.75 -10 189 -10 C288 -10 317 20 317 122 C317 216 303 229 223 263 C158 291 146 301 146 362 C146 407 157 421 192 421 C203.455 421 215.82 417.355 235.185 408.327 C235.963 407.964 241.405 404.561 242.082 404.034 C254.003 394.749 270.393 377.179 282 362 L282 362 Z " />
<glyph glyph-name="Scedilla" unicode="&#x15e;" horiz-adv-x="487" d="M259.242 -56.9305 C268.08 -34.4032 273.525 -20.7722 276.502 -13.5698 C277.218 -11.8397 284.829 -9.66135 286.697 -9.54358 C397.777 -2.54125 432 46.55 432 185 C432 289 410 310 288 378 C191 432 174 447 174 520 C174 598 191 621 248 621 C279 621 301 615 326 596 C334 589 340 582 349 569 C358.565 554.217 365.862 543.972 374.835 530.373 C377.377 526.521 384.51 524 389.124 524 L389.5 524 C395.293 524 399.862 528.705 399.691 534.495 L397.686 602.676 C397.325 614.962 389.385 633.934 379.531 641.282 C351.483 662.194 318.875 669 257 669 C125 669 86 627 86 488 C86 391 106 372 218 310 C327 249 347 232 347 162 C347 65 326 36 254 36 C213 36 183 46 137 78 C131.75 81.5 128.797 84.2344 126.131 89.5527 C126.101 89.613 123.697 94.2338 123.663 94.292 C111.796 114.651 104.187 127.914 92.9068 147.295 C90.3843 151.629 83.5147 154 78.5 154 C72.7061 154 68.1176 149.295 68.2624 143.503 L70.3051 61.7942 C70.6834 46.6658 81.072 25.9059 94.0923 18.1935 C129.677 -2.88505 168.942 -10.6995 237.487 -11.906 C240.239 -11.9545 243.077 -14.3076 242.066 -16.8672 C236.991 -29.7172 225.676 -58.8872 205.049 -114.617 C201.984 -122.9 205.708 -133.46 214 -136.5 L225.653 -140.773 C225.796 -140.825 231.561 -142.641 231.708 -142.68 C254.582 -148.686 262 -157.852 262 -180 C262 -206 256 -214 238 -214 C208.3 -214 194.8 -210.76 182.92 -201.364 C181.231 -200.028 179 -201.346 179 -203.5 C179 -205.788 181.354 -211.254 183.034 -212.807 C206.825 -234.82 223.579 -242 252 -242 C306 -242 322 -224 322 -164 C322 -123.2 309.356 -100.824 273.015 -85.817 C263 -81.6817 255.285 -67.0166 259.242 -56.9305 L259.242 -56.9305 Z " />
<glyph glyph-name="scedilla" unicode="&#x15f;" horiz-adv-x="387" d="M195.046 -56.9728 C204.047 -33.5727 209.561 -19.6957 212.549 -12.4589 C213.256 -10.7462 217.976 -8.72742 219.822 -8.572 C294.185 -2.3125 317 31.325 317 122 C317 216 303 229 223 263 C158 291 146 301 146 362 C146 407 157 421 192 421 C203.455 421 215.82 417.355 235.185 408.327 C235.963 407.964 241.405 404.561 242.082 404.034 C254.003 394.749 270.393 377.179 282 362 C286.286 362 290.571 361.265 295.487 361.055 C297.213 360.982 298.033 362.272 298.077 363.999 L299 400 L299.5 412.5 C299.752 418.807 295.296 427.719 289.764 430.759 C249.016 453.155 223.925 460 186 460 C100 460 74 431 74 332 C74 245 87 232 159 202 C233 171 246 160 246 96 C246 43.35 231.741 26.8238 185.612 26.0303 C185.335 26.0256 178.893 26.3452 178.618 26.3758 L173 27 C141 31 122 43 88 80 L75 93 C71 93 67 94 62 94 L61 70 L60.5 45 C60.2309 31.5447 70.219 15.2242 82.6785 10.1372 C114.253 -2.75394 138.59 -8.46762 171.516 -9.79675 C174.255 -9.90733 177.073 -12.3173 176.066 -14.8672 C170.991 -27.7172 159.676 -56.8872 139.049 -112.617 C135.984 -120.9 139.708 -131.46 148 -134.5 L159.653 -138.773 C159.796 -138.825 165.561 -140.641 165.708 -140.68 C188.582 -146.686 196 -155.852 196 -178 C196 -204 190 -212 172 -212 C142.3 -212 128.8 -208.76 116.92 -199.364 C115.231 -198.028 113 -199.346 113 -201.5 C113 -203.788 115.354 -209.254 117.034 -210.807 C140.825 -232.82 157.579 -240 186 -240 C240 -240 256 -222 256 -162 C256 -121.2 244.079 -99.5463 207.954 -84.7562 C197.67 -80.5458 191.057 -67.3448 195.046 -56.9728 L195.046 -56.9728 Z " />
<glyph glyph-name="Scaron" unicode="&#x160;" horiz-adv-x="487" d="M368 867 L367 867 L368 868 L368 867 L368 867 Z M228 710.5 C234.263 710.5 247.628 716.946 251.527 721.847 L363.576 862.696 C365.055 864.555 363.876 867 361.5 867 C359.853 867 352.763 864.91 351.379 864.017 L262.728 806.777 C245.678 795.769 212.441 795.951 195.512 807.145 L110.005 863.69 C108.481 864.698 100.827 867 99 867 C96.3688 867 95.0457 864.324 96.6436 862.233 L204.195 721.52 C208.056 716.468 221.641 710.5 228 710.5 L228 710.5 Z M325 597 C333 590 339 583 348 570 C357.565 555.217 364.862 544.972 373.835 531.373 C376.377 527.521 383.51 525 388.124 525 L388.5 525 C394.293 525 398.862 529.705 398.691 535.495 L396.686 603.676 C396.325 615.962 388.385 634.934 378.531 642.282 C350.483 663.194 317.875 670 256 670 C124 670 85 628 85 489 C85 392 105 373 217 311 C326 250 346 233 346 163 C346 66 325 37 253 37 C212 37 182 47 136 79 C130.75 82.5 127.797 85.2344 125.131 90.5527 C125.101 90.613 122.697 95.2338 122.663 95.292 C110.796 115.651 103.187 128.914 91.9068 148.295 C89.3843 152.629 82.5147 155 77.5 155 C71.7061 155 67.1176 150.295 67.2624 144.503 L69.2777 63.8917 C69.6722 48.1106 80.4476 26.7064 94.088 18.7603 C132.323 -3.51312 174.625 -11 253 -11 C391 -11 432 34 432 185 C432 289 410 310 288 378 C191 432 174 447 174 520 C174 598 191 621 248 621 C279 621 300.5 615.5 325.5 596.5 L325 597 Z " />
<glyph glyph-name="scaron" unicode="&#x161;" horiz-adv-x="387" d="M210.719 547.206 L323.513 705.118 C325.079 707.311 323.695 710 321 710 C319.071 710 311.691 707.629 310.123 706.505 L224.217 644.951 C205.216 631.336 170.926 631.53 152.08 645.36 L68.8372 706.45 C67.2575 707.609 59.9594 710 58 710 C55.2686 710 53.8485 707.304 55.3932 705.052 L163.517 547.371 C167.379 541.739 180.172 535 187 535 C193.737 535 206.803 541.724 210.719 547.206 L210.719 547.206 Z M282 362 C286.286 362 290.571 361.265 295.487 361.055 C297.213 360.982 298.033 362.272 298.077 363.999 L299 400 L299.5 412.5 C299.752 418.807 295.296 427.719 289.764 430.759 C249.016 453.155 223.925 460 186 460 C100 460 74 431 74 332 C74 245 87 232 159 202 C233 171 246 160 246 96 C246 43.35 231.741 26.8238 185.612 26.0303 C185.335 26.0256 178.893 26.3452 178.618 26.3758 L173 27 C141 31 122 43 88 80 L75 93 C71 93 67 94 62 94 L61 70 L60.5 45 C60.228 31.4015 71.9273 14.4232 84.5457 9.34677 C120.793 -5.23562 147.75 -10 189 -10 C288 -10 317 20 317 122 C317 216 303 229 223 263 C158 291 146 301 146 362 C146 407 157 421 192 421 C203.455 421 215.82 417.355 235.185 408.327 C235.963 407.964 241.405 404.561 242.082 404.034 C254.003 394.749 270.393 377.179 282 362 L282 362 Z " />
<glyph glyph-name="Tcaron" unicode="&#x164;" horiz-adv-x="635" d="M456 867 L455 867 L456 868 L456 867 L456 867 Z M316 710.5 C322.263 710.5 335.628 716.946 339.527 721.847 L451.576 862.696 C453.055 864.555 451.876 867 449.5 867 C447.877 867 440.724 864.927 439.352 864.059 L349.518 807.211 C332.657 796.541 299.537 796.842 282.872 807.816 L198.011 863.7 C196.49 864.702 188.821 867 187 867 C184.369 867 183.046 864.324 184.644 862.233 L292.195 721.52 C296.056 716.468 309.641 710.5 316 710.5 L316 710.5 Z M43.5 633 C43.5 605.444 43.1049 587.37 43.7195 561.922 C43.8403 556.917 47.9933 552 53 552 C56.2582 552 66.3343 555.766 68.7938 557.903 L105.666 589.939 C111.941 595.392 137.65 605 145.963 605 L211.56 605 C245.473 605 273 577.473 273 543.56 L273 80.8118 C273 70.6004 261.819 44.121 254.5 37 L242.809 25.6249 C240.115 23.004 236 13.2583 236 9.5 C236 4.25628 240.256 0 245.5 0 L390.5 0 C395.744 0 400 4.25628 400 9.5 C400 13.2583 395.885 23.004 393.191 25.6249 L381.5 37 C374.181 44.121 363 70.6004 363 80.8118 L363 543.56 C363 577.473 390.527 605 424.44 605 L484.037 605 C492.35 605 518.059 595.392 524.334 589.939 L561.206 557.903 C563.666 555.766 573.742 552 577 552 C581.964 552 586.152 556.033 586.339 560.994 L588 605 L589 632.5 C589.552 647.669 577.661 660 562.482 660 L57.5 660 C50.0484 660 44 653.952 44 646.5 L44 633 L43.5 633 Z " />
<glyph glyph-name="tcaron" unicode="&#x165;" horiz-adv-x="314" d="M337 750 L299.5 750 C278.919 750 260.201 733.177 258.012 712.713 L242.638 568.966 C242.288 565.692 244.707 563 248 563 C250.969 563 255.344 565.717 256.66 568.378 L345 747 C344 747 344 750 337 750 L337 750 Z M282.5 58 L281 63 C279 60 267 59 225 59 C180 59 166 70 166 107 L166 350 C166 379.254 189.746 403 219 403 L248.5 403 C261.471 403 272 413.529 272 426.5 C272 439.471 261.471 450 248.5 450 L219 450 C189.746 450 166 473.746 166 503 L166 557 C166 558.656 164.656 560 163 560 C161.626 560 159.092 558.651 158.325 557.511 L93.5974 461.294 C91.8263 458.661 77.061 444.61 74.3437 442.972 L20.5691 410.549 C19.3547 409.817 18 407.418 18 406 C18 404.344 19.3441 403 21 403 L52 403 C70.767 403 86 387.767 86 369 L86 90 C86 13 108 -10 181 -10 C235.6 -10 258.829 3.30875 282.201 49.3903 C283.119 51.1986 283.083 56.0579 282.5 58 L282.5 58 Z M345 747 L347 752 C346 749 346 748 346 748 L345 747 L345 747 Z M350.443 757.398 L350.557 757.602 C350.615 757.707 350.804 757.608 350.75 757.5 C350.696 757.392 350.385 757.293 350.443 757.398 L350.443 757.398 Z " />
<glyph glyph-name="Utilde" unicode="&#x168;" horiz-adv-x="669" d="M214.293 712.24 C228.175 756.462 230.55 770 260 770 C308 770 337 705 385 705 C434.725 705 438.82 732.568 467.726 822.925 C468.765 826.17 466.907 830 463.5 830 C460.064 830 455.614 825.747 454.564 822.475 C439.827 776.537 437.5 763 409 763 C361 763 332 828 284 828 C233.3 828 230.131 801.383 201.272 712 C200.226 708.762 202.097 705 205.5 705 C208.943 705 213.262 708.955 214.293 712.24 L214.293 712.24 Z M94 583.331 L94 234 C94 46 149 -10 335 -10 C520 -10 575 46 575 234 L575 583.331 C575 590.835 583.886 616.031 588.593 621.875 L598.04 633.602 C600.104 636.164 604 647.21 604 650.5 C604 655.744 599.744 660 594.5 660 L477.5 660 C472.256 660 468 655.744 468 650.5 C468 646.742 472.115 636.996 474.809 634.375 L486.5 623 C493.819 615.879 505 589.4 505 579.188 L505 213 C505 86 472 48 362 48 C225 48 184 94 184 250 L184 583.331 C184 590.835 192.886 616.031 197.593 621.875 L207.04 633.602 C209.104 636.164 213 647.21 213 650.5 C213 655.744 208.744 660 203.5 660 L74.5 660 C69.2563 660 65 655.744 65 650.5 C65 647.21 68.896 636.164 70.9596 633.602 L80.4066 621.875 C85.1136 616.031 94 590.835 94 583.331 L94 583.331 Z " />
</font>
</svg>
