<?xml version="1.0" encoding="UTF-8"?>
<svg xmlns="http://www.w3.org/2000/svg" xmlns:xlink="http://www.w3.org/1999/xlink" version="1.2" >
<font id="Jaavon Regular">
<font-face  font-family="Jaavon" units-per-em="1024" ascent="975" descent="-300" font-style="normal" font-weight="400" font-stretch="normal" cap-height="750" x-height="500" underline-position="-125" underline-thickness="50" />
<missing-glyph  horiz-adv-x="650" d="" />
<glyph glyph-name="NULL" d="" />
<glyph glyph-name="CR" unicode="&#xd;" horiz-adv-x="256" d="" />
<glyph glyph-name="space" unicode="&#x20;" horiz-adv-x="238" d="" />
<glyph glyph-name="exclam" unicode="&#x21;" horiz-adv-x="201" d="M101 -5 C120 -5 136 11 136 30 C136 50 120 66 101 66 C81 66 65 50 65 30 C65 11 81 -5 101 -5 L101 -5 Z M101 755 C75 755 67 717 70 671 L96 210 L105 210 L131 671 C134 717 126 755 101 755 L101 755 Z " />
<glyph glyph-name="quotedbl" unicode="&#x22;" horiz-adv-x="315" d="M744 750 C730 750 726 730 729 705 L747 560 L753 560 L771 705 C774 730 770 750 756 750 L744 750 L744 750 Z " />
<glyph glyph-name="numbersign" unicode="&#x23;" horiz-adv-x="514" d="M382 681 L353 479 L204 479 L233 681 L230 681 L201 479 L64 479 L59 441 L196 441 L164 219 L25 219 L19 181 L159 181 L133 0 L136 0 L162 181 L311 181 L285 0 L288 0 L314 181 L444 181 L449 219 L319 219 L351 441 L489 441 L494 479 L356 479 L385 681 L382 681 L382 681 Z M199 441 L348 441 L316 219 L167 219 L199 441 L199 441 Z " />
<glyph glyph-name="dollar" unicode="&#x24;" horiz-adv-x="535" d="M301 825 L301 752 C282 757 262 760 243 760 C241 760 239 760 237 760 L237 825 L220 825 L220 758 C137 746 72 668 72 576 C72 514 130 435 220 377 L220 9 C193 21 166 38 142 59 L143 59 C143 59 96 145 64 205 C59 214 55 222 55 222 L54 222 L52 222 L52 147 L52 127 L52 32 L54 32 L55 32 C55 32 59 45 64 61 C69 76 91 86 108 72 C140 41 180 16 221 2 L221 -77 L238 -77 L238 -3 C258 -9 278 -12 297 -12 C299 -12 301 -12 303 -12 L303 -77 L320 -77 L320 -11 C419 0 498 82 498 179 C498 253 427 348 320 400 L320 740 C329 736 338 732 347 727 L341 730 C358 721 414 636 443 583 C448 574 452 566 452 566 L453 566 L455 566 L455 641 L455 649 L455 732 L453 732 L452 732 C452 732 448 722 443 709 C438 697 423 686 412 695 L412 695 C387 717 355 735 321 746 L321 824 L301 825 L301 825 Z M241 367 C254 359 268 352 282 345 C290 341 297 337 304 333 L304 -9 C302 -9 300 -9 298 -9 C279 -9 259 -5 239 2 L241 367 L241 367 Z M319 324 C400 276 452 211 452 163 C452 77 393 5 319 -7 L319 324 L319 324 Z M239 444 L239 756 C241 756 243 756 245 756 C264 756 284 752 303 745 L303 407 C280 418 259 430 240 443 L239 444 L239 444 Z M223 455 C158 502 119 555 119 595 C119 673 164 739 223 753 L223 455 L223 455 Z " />
<glyph glyph-name="ampersand" unicode="&#x26;" horiz-adv-x="317" d="M311 471 L316 466 C399 491 468 558 468 613 C468 693 398 760 315 760 C227 760 153 689 153 603 C153 568 215 491 289 404 L499 158 C423 82 342 35 273 35 C179 35 100 117 100 215 C100 311 170 411 255 437 L246 440 C138 407 48 298 48 200 C48 85 137 -11 244 -11 C325 -11 421 49 509 144 L548 98 C599 39 667 -11 698 -11 C758 -11 818 61 829 147 L820 150 C812 84 766 30 719 30 C694 30 636 73 592 124 L542 182 C614 269 679 379 722 498 L710 498 C668 382 604 275 532 193 L331 428 C257 515 195 592 195 628 C195 692 249 746 313 746 C374 746 425 686 425 614 C425 554 372 489 309 469 L311 471 L311 471 Z " />
<glyph glyph-name="quotesingle" unicode="&#x27;" horiz-adv-x="199" d="" />
<glyph glyph-name="parenleft" unicode="&#x28;" horiz-adv-x="413" d="M320 760 C190 673 82 451 82 273 C82 102 187 -119 313 -214 L316 -209 C208 -127 118 92 118 273 C118 460 211 679 323 754 L320 760 L320 760 Z " />
<glyph glyph-name="parenright" unicode="&#x29;" horiz-adv-x="413" d="M27 754 C139 682 232 463 232 273 C232 81 142 -138 34 -209 L37 -214 C163 -132 268 89 268 273 C268 454 160 676 30 760 L27 754 L27 754 Z " />
<glyph glyph-name="asterisk" unicode="&#x2a;" horiz-adv-x="268" d="M150 630 L165 750 C167 760 160 769 150 769 C140 769 133 760 135 750 L150 630 L150 630 Z M150 630 L246 557 C255 550 266 552 271 560 C275 569 271 579 262 583 L150 630 L150 630 Z M150 630 L54 703 C45 710 34 708 29 700 C25 691 29 681 38 677 L150 630 L150 630 Z M150 630 L262 677 C271 681 275 691 271 700 C266 708 255 710 246 703 L150 630 L150 630 Z M150 630 L38 583 C29 579 25 569 29 560 C34 552 45 550 54 557 L150 630 L150 630 Z M150 630 L135 510 C133 500 140 491 150 491 C160 491 167 500 165 510 L150 630 L150 630 Z " />
<glyph glyph-name="plus" unicode="&#x2b;" horiz-adv-x="610" d="M286 455 L286 268 L100 268 L100 232 L286 232 L286 45 L325 45 L325 232 L511 232 L511 268 L325 268 L325 455 L286 455 L286 455 Z " />
<glyph glyph-name="comma" unicode="&#x2c;" horiz-adv-x="257" d="M174 46 C178 33 180 19 180 4 C180 -58 127 -109 64 -109 L64 -110 C131 -110 187 -56 187 9 C187 40 179 68 166 87 C157 103 142 114 125 114 C92 114 65 87 65 54 C65 21 92 -6 125 -6 C149 -6 170 16 174 45 L174 46 L174 46 Z " />
<glyph glyph-name="hyphen" unicode="&#x2d;" horiz-adv-x="420" d="M80 249 L341 249 L341 288 L80 288 L80 249 L80 249 Z " />
<glyph glyph-name="period" unicode="&#x2e;" horiz-adv-x="195" d="M125 -5 C144 -5 160 11 160 30 C160 50 144 66 125 66 C106 66 90 50 90 30 C90 11 106 -5 125 -5 L125 -5 Z " />
<glyph glyph-name="slash" unicode="&#x2f;" horiz-adv-x="378" d="M319 770 L37 -80 L67 -80 L349 770 L319 770 L319 770 Z " />
<glyph glyph-name="zero" unicode="0" horiz-adv-x="605" d="M305 11 C191 11 73 120 73 250 C73 367 179 489 305 489 C419 489 537 380 537 250 C537 133 431 11 305 11 L305 11 Z M49 250 C49 108 179 -10 305 -10 C445 -10 561 122 561 250 C561 392 431 510 305 510 C165 510 49 378 49 250 L49 250 Z " />
<glyph glyph-name="one" unicode="1" horiz-adv-x="288" d="M169 23 L169 477 C169 482 189 485 213 488 L249 492 L249 496 L249 500 L144 500 L40 500 L40 496 L40 492 L75 488 C99 485 119 482 119 477 L119 23 C119 18 99 15 75 12 L40 8 L40 4 L40 0 L144 0 L249 0 L249 4 L249 8 L213 12 C189 15 169 18 169 23 L169 23 Z " />
<glyph glyph-name="two" unicode="2" horiz-adv-x="518" d="M56 291 C75 390 154 472 229 472 C305 472 368 408 368 331 C368 230 196 97 30 9 L30 0 L334 0 L388 0 L416 0 L439 37 C441 40 443 43 445 45 C452 58 465 78 473 91 L471 93 L468 96 L439 56 C435 49 413 44 356 44 L109 44 C271 140 418 259 418 343 C418 434 344 510 255 510 C163 510 68 412 45 294 L56 291 L56 291 Z " />
<glyph glyph-name="three" unicode="3" horiz-adv-x="399" d="M18 -222 L20 -232 C205 -212 360 -108 360 -2 C360 83 265 167 152 183 L140 178 C265 239 363 318 363 384 C363 453 293 510 209 510 C127 510 42 438 22 351 L33 348 C49 417 120 475 189 475 C255 475 310 426 310 367 C310 296 211 216 93 166 L93 156 C210 140 307 61 307 -17 C307 -112 176 -206 18 -222 L18 -222 Z " />
<glyph glyph-name="four" unicode="4" horiz-adv-x="602" d="M578 4 C579 11 580 18 581 24 C584 42 588 72 590 91 L586 91 L582 91 L572 51 C571 44 552 39 494 39 L406 39 L406 442 L406 531 L399 531 L15 10 L15 1 L32 1 L356 1 L356 -219 L406 -219 L406 1 L524 1 C555 1 565 -1 565 -3 L563 -43 L567 -43 L571 -43 C573 -31 575 -14 577 1 L578 1 L578 4 L578 4 Z M60 39 L358 446 L356 442 L356 39 L60 39 L60 39 Z " />
<glyph glyph-name="five" unicode="5" horiz-adv-x="418" d="M60 -232 C239 -210 389 -83 389 47 C389 168 254 268 93 268 L83 268 L119 455 L331 457 L332 461 C333 468 335 477 336 485 L339 501 L338 501 C341 513 344 531 346 541 L342 541 L338 541 L327 501 L257 501 L109 501 L57 224 L66 216 L88 216 C228 216 345 132 345 31 C345 -88 215 -203 59 -222 L60 -232 L60 -232 Z " />
<glyph glyph-name="six" unicode="6" horiz-adv-x="549" d="M532 750 C269 694 50 483 50 287 C50 125 155 -10 281 -10 C399 -10 497 103 497 239 C497 360 393 461 269 461 C205 461 148 424 117 370 C170 543 339 700 535 742 L532 750 L532 750 Z M101 259 C101 367 177 457 269 457 C367 457 448 359 448 241 C448 105 372 -9 281 -9 C183 -9 101 113 101 259 L101 259 Z " />
<glyph glyph-name="seven" unicode="7" horiz-adv-x="428" d="M84 500 L97 536 L93 536 L89 536 C81 518 68 489 60 472 C53 454 40 425 32 408 L36 408 L40 408 L62 448 C65 454 75 459 99 459 L405 459 L418 477 L114 -220 L153 -220 L423 485 L423 500 L422 500 L123 500 L84 500 L84 500 Z " />
<glyph glyph-name="eight" unicode="8" horiz-adv-x="533" d="M228 386 C236 382 244 378 252 375 C363 329 455 261 455 165 C455 71 371 -8 270 -8 C172 -8 91 75 91 174 C91 256 151 348 228 386 L228 386 Z M225 387 C126 342 47 249 47 173 C47 73 148 -11 270 -11 C391 -11 493 79 493 187 C493 286 407 358 299 408 C391 450 465 532 465 596 C465 685 375 759 267 759 C160 759 71 679 71 582 C71 509 138 431 224 386 L225 387 L225 387 Z M296 409 C288 413 279 417 270 421 C184 456 111 532 111 601 C111 686 182 757 267 757 C352 757 423 682 423 592 C423 524 367 446 296 411 L296 409 L296 409 Z " />
<glyph glyph-name="nine" unicode="9" horiz-adv-x="549" d="M17 -250 C280 -194 499 17 499 213 C499 375 394 510 268 510 C150 510 52 397 52 261 C52 140 156 39 280 39 C344 39 401 76 432 130 C379 -43 210 -200 14 -242 L17 -250 L17 -250 Z M448 241 C448 133 372 43 280 43 C182 43 101 141 101 259 C101 395 177 509 268 509 C366 509 448 387 448 241 L448 241 Z " />
<glyph glyph-name="colon" unicode="&#x3a;" horiz-adv-x="135" d="M125 385 C144 385 160 401 160 420 C160 440 144 456 125 456 C106 456 90 440 90 420 C90 401 106 385 125 385 L125 385 Z M125 -5 C144 -5 160 11 160 30 C160 50 144 66 125 66 C106 66 90 50 90 30 C90 11 106 -5 125 -5 L125 -5 Z " />
<glyph glyph-name="semicolon" unicode="&#x3b;" horiz-adv-x="257" d="M125 385 C144 385 160 401 160 420 C160 440 144 456 125 456 C106 456 90 440 90 420 C90 401 106 385 125 385 L125 385 Z M174 46 C178 33 180 19 180 4 C180 -58 127 -109 64 -109 L64 -110 C131 -110 187 -56 187 9 C187 40 179 68 166 87 C157 103 142 114 125 114 C92 114 65 87 65 54 C65 21 92 -6 125 -6 C149 -6 170 16 174 45 L174 46 L174 46 Z " />
<glyph glyph-name="equal" unicode="&#x3d;" horiz-adv-x="518" d="M78 211 L78 189 L449 189 L449 211 L78 211 L78 211 Z M78 311 L78 289 L449 289 L449 311 L78 311 L78 311 Z " />
<glyph glyph-name="question" unicode="&#x3f;" horiz-adv-x="304" d="M125 -5 C144 -5 160 11 160 30 C160 50 144 66 125 66 C106 66 90 50 90 30 C90 11 106 -5 125 -5 L125 -5 Z M121 175 L125 360 C202 360 247 402 281 452 C296 476 309 521 309 553 C309 666 234 760 145 760 C119 760 98 743 98 723 C98 709 110 698 125 698 C136 698 152 707 163 707 C235 707 295 634 295 547 C295 528 284 496 270 477 C245 440 204 410 108 410 L113 175 L121 175 L121 175 Z " />
<glyph glyph-name="at" unicode="&#x40;" horiz-adv-x="1125" d="M1030 0 C970 -130 760 -239 571 -239 C311 -239 94 -12 94 259 C94 530 307 757 563 757 C819 757 1032 569 1032 343 C1032 158 945 4 840 4 C732 4 664 93 691 200 L761 480 L714 480 L690 385 C678 444 627 490 568 490 C419 490 294 357 294 197 C294 97 371 13 463 13 C531 13 604 69 639 143 C646 54 723 -13 832 -13 C963 -13 1072 149 1072 343 C1072 576 841 770 564 770 C287 770 56 537 56 259 C56 -19 291 -252 572 -252 C767 -252 984 -137 1048 0 L1030 0 L1030 0 Z M684 356 L645 200 C623 113 552 41 489 41 C413 41 350 116 350 207 C350 353 449 476 568 476 C631 476 684 422 685 356 L684 356 L684 356 Z " />
<glyph glyph-name="A" unicode="A" horiz-adv-x="691" d="M582 95 L582 95 L393 732 L382 770 L376 770 C359 750 342 733 337 732 L340 722 L157 116 L157 116 C134 39 105 14 79 12 L18 8 L18 4 L18 0 L122 0 L125 0 L137 0 L255 0 L255 4 L255 8 L189 12 C156 14 136 40 160 116 L160 116 L209 279 L470 279 L524 95 L524 95 C542 34 529 14 505 12 L445 8 L445 4 L445 0 L552 0 L565 0 L611 0 L684 0 L684 4 L684 8 L627 12 C616 13 601 33 583 95 L582 95 L582 95 Z M210 281 L341 720 L469 281 L210 281 L210 281 Z " />
<glyph glyph-name="B" unicode="B" horiz-adv-x="595" d="M198 748 L276 748 C434 748 491 664 491 563 C491 467 403 386 298 386 L198 386 L198 693 L198 748 L198 748 Z M335 386 C453 399 546 477 546 569 C546 668 476 750 280 750 L198 750 L129 750 L59 750 L59 746 L59 742 L96 738 C122 735 143 723 143 693 L143 57 C143 27 122 15 96 12 L59 8 L59 4 L59 0 L129 0 L198 0 L318 0 C448 0 556 51 556 193 C556 298 459 386 343 386 L335 386 L335 386 Z M299 384 L338 384 C423 384 494 297 494 193 C494 52 413 2 316 2 L266 2 C229 2 198 25 198 52 L198 57 L198 384 L299 384 L299 384 Z " />
<glyph glyph-name="C" unicode="C" horiz-adv-x="691" d="M546 54 L546 54 C493 17 432 -8 368 -8 C234 -8 123 166 123 375 C123 584 239 758 378 758 C436 758 487 739 532 709 L530 710 C551 696 607 614 633 566 C638 557 642 549 642 549 L643 549 L645 549 L645 628 L645 634 L645 719 L643 719 L642 719 C642 719 638 709 633 696 C627 683 603 678 581 691 C528 732 462 760 377 760 C205 760 62 585 62 375 C62 165 201 -10 367 -10 C446 -10 517 17 573 57 L574 57 C596 73 624 65 632 51 C638 39 644 28 644 28 L644 114 L644 122 L644 201 L642 201 L641 201 C641 201 637 193 632 184 C607 139 560 64 545 54 L546 54 L546 54 Z " />
<glyph glyph-name="D" unicode="D" horiz-adv-x="772" d="M132 693 L132 57 C132 27 111 15 86 12 L49 8 L49 4 L49 0 L119 0 L132 0 L188 0 L265 0 C511 0 717 150 717 375 C717 579 551 750 303 750 L188 750 L132 750 L119 750 L49 750 L49 746 L49 742 L86 738 C111 735 132 723 132 693 L132 693 Z M188 748 L296 748 C512 748 656 578 656 375 C656 151 477 2 262 2 C202 2 188 25 188 52 L188 57 L188 693 L188 748 L188 748 Z " />
<glyph glyph-name="E" unicode="E" horiz-adv-x="590" d="M443 0 L524 0 C526 14 529 37 531 50 C533 64 536 87 538 101 L534 101 L530 101 L521 61 C513 29 491 2 443 2 L250 2 C208 2 198 25 198 52 L198 57 L198 363 L358 363 C405 363 423 330 427 292 L431 252 L435 252 L439 252 L439 363 L439 364 L439 365 L439 476 L435 476 L431 476 L427 436 C423 397 405 365 358 365 L198 365 L198 693 L198 748 L418 748 C476 748 486 721 491 689 L498 649 L502 649 L506 649 C505 663 504 686 503 700 C502 713 500 736 499 750 L418 750 L198 750 L143 750 L129 750 L59 750 L59 746 L59 742 L96 738 C122 735 143 723 143 693 L143 57 C143 27 122 15 96 12 L59 8 L59 4 L59 0 L129 0 L143 0 L198 0 L443 0 L443 0 Z " />
<glyph glyph-name="F" unicode="F" horiz-adv-x="565" d="M368 361 C402 354 415 328 418 298 L424 248 L426 248 L428 248 L428 361 L428 362 L428 363 L428 476 L426 476 L424 476 L418 425 C414 391 396 363 347 363 L197 363 L197 693 L197 749 L361 749 C452 749 485 722 491 689 L499 649 C499 649 501 650 503 650 C505 651 507 651 507 651 C506 665 504 687 503 701 C501 714 499 736 498 750 L417 750 L197 750 L142 750 L128 750 L58 750 L58 746 L58 742 L95 738 C121 735 142 723 142 693 L142 57 C142 27 121 15 95 12 L58 8 L58 4 L58 0 L142 0 L170 0 L197 0 L281 0 L281 4 L281 8 L244 12 C218 15 197 27 197 57 L197 361 L368 361 L368 361 Z " />
<glyph glyph-name="G" unicode="G" horiz-adv-x="755" d="M571 271 L572 77 C568 46 517 20 448 9 L533 16 C486 8 434 4 378 4 C239 4 124 173 124 375 C124 584 240 758 379 758 C437 758 488 739 533 709 L531 710 C552 696 608 614 634 566 C639 557 643 549 643 549 L644 549 L646 549 L646 628 L646 634 L646 719 L644 719 L643 719 C643 719 639 709 634 696 C628 683 604 678 582 691 C529 732 463 760 378 760 C206 760 63 585 63 375 C63 165 204 -10 373 -10 C456 -10 538 5 609 27 L629 31 L629 33 C656 42 681 52 704 63 L703 64 C682 54 657 45 629 37 L629 271 C629 299 645 310 665 313 L696 317 L696 321 L696 325 L595 325 L494 325 L494 321 L494 317 L529 313 C553 310 573 299 573 271 L571 271 L571 271 Z M450 9 C428 5 404 3 379 3 L450 9 L450 9 Z " />
<glyph glyph-name="H" unicode="H" horiz-adv-x="779" d="M648 54 L648 696 C648 724 669 735 694 738 L731 742 L731 746 L731 750 L620 750 L508 750 L508 746 L508 742 L545 738 C571 735 592 724 592 696 L592 384 L234 384 L234 696 C234 724 255 735 281 738 L318 742 L318 746 L318 750 L207 750 L95 750 L95 746 L95 742 L132 738 C158 735 179 724 179 696 L179 54 C179 26 158 15 132 12 L95 8 L95 4 L95 0 L207 0 L318 0 L318 4 L318 8 L281 12 C255 15 234 26 234 54 L234 382 L592 382 L592 54 C592 26 571 15 545 12 L508 8 L508 4 L508 0 L620 0 L731 0 L731 4 L731 8 L694 12 C669 15 648 26 648 54 L648 54 Z " />
<glyph glyph-name="I" unicode="I" horiz-adv-x="336" d="M204 54 L204 696 C204 724 225 735 251 738 L288 742 L288 746 L288 750 L177 750 L65 750 L65 746 L65 742 L102 738 C128 735 149 724 149 696 L149 54 C149 26 128 15 102 12 L65 8 L65 4 L65 0 L177 0 L288 0 L288 4 L288 8 L251 12 C225 15 204 26 204 54 L204 54 Z " />
<glyph glyph-name="J" unicode="J" horiz-adv-x="336" d="M149 696 L148 -31 C148 -173 74 -217 28 -217 C2 -217 9 -170 -16 -170 C-31 -170 -43 -182 -43 -196 C-43 -209 -12 -220 26 -220 C94 -220 205 -150 205 75 L204 696 C204 724 225 735 251 738 L288 742 L288 746 L288 750 L177 750 L65 750 L65 746 L65 742 L102 738 C128 735 149 724 149 696 L149 696 Z " />
<glyph glyph-name="K" unicode="K" horiz-adv-x="674" d="M553 57 L553 57 L242 411 L462 675 L463 675 C500 722 523 737 536 738 L594 742 L594 746 L594 750 L525 750 L503 750 L493 750 L392 750 L392 746 L392 742 L451 738 C472 736 476 717 431 661 L199 375 L199 708 C199 726 220 735 246 738 L283 742 L283 746 L283 750 L199 750 L172 750 L144 750 L60 750 L60 746 L60 742 L97 738 C123 735 144 726 144 708 L144 42 C144 24 123 15 97 12 L60 8 L60 4 L60 0 L144 0 L172 0 L199 0 L283 0 L283 4 L283 8 L246 12 C220 15 199 24 199 42 L199 375 L481 57 L481 57 C524 9 532 0 532 0 L598 0 L604 0 L664 0 L664 4 L664 8 L599 12 C596 13 572 37 554 57 L553 57 L553 57 Z " />
<glyph glyph-name="L" unicode="L" horiz-adv-x="589" d="M528 1 C533 19 540 48 545 66 C550 83 558 112 562 130 C562 130 561 130 559 131 C557 132 555 132 555 132 L540 92 C521 43 481 1 401 1 L256 1 C214 1 204 24 204 52 L204 57 L204 693 C204 723 225 735 251 738 L288 742 L288 746 L288 750 L204 750 L177 750 L149 750 L65 750 L65 746 L65 742 L102 738 C128 735 149 723 149 693 L149 57 C149 27 128 15 102 12 L65 8 L65 4 L65 0 L135 0 L149 0 L204 0 L528 0 L528 1 L528 1 Z " />
<glyph glyph-name="M" unicode="M" horiz-adv-x="821" d="M736 57 L735 57 L718 635 L719 634 C717 712 728 737 742 738 L799 742 L799 746 L799 750 L730 750 L715 750 L682 750 L662 750 L436 74 L189 750 L157 750 L143 750 L122 750 L115 750 L42 750 L42 746 L42 742 L99 738 C113 737 129 727 142 699 L125 93 C122 34 104 14 83 12 L24 8 L24 4 L24 0 L123 0 L133 0 L142 0 L241 0 L241 4 L241 8 L182 12 C160 14 143 33 143 92 L155 664 L383 73 L411 0 L425 0 L663 696 L680 57 L680 57 C681 27 659 15 633 12 L597 8 L597 4 L597 0 L682 0 L708 0 L737 0 L819 0 L819 4 L819 8 L783 12 C758 15 737 27 736 57 L736 57 Z " />
<glyph glyph-name="N" unicode="N" horiz-adv-x="726" d="M144 95 L144 95 L142 664 L527 79 L580 0 L591 0 L595 668 L595 668 C595 717 621 735 652 738 L694 742 L694 746 L694 750 L595 750 L587 750 L578 750 L479 750 L479 746 L479 742 L521 738 C549 735 573 720 578 680 L580 102 L574 110 L155 750 L142 750 L128 750 L97 750 L86 750 L40 750 L40 746 L40 742 L93 739 L103 723 C105 720 107 717 110 713 L110 713 L128 686 L127 102 L127 102 C127 36 109 14 88 12 L28 8 L28 4 L28 0 L127 0 L136 0 L144 0 L243 0 L243 4 L243 8 L184 12 C162 14 144 34 144 95 L144 95 Z " />
<glyph glyph-name="O" unicode="O" horiz-adv-x="836" d="M402 -8 C246 -8 116 166 116 375 C116 584 250 758 411 758 C579 758 718 584 718 375 C718 166 574 -8 402 -8 L402 -8 Z M52 375 C52 165 211 -10 402 -10 C609 -10 782 165 782 375 C782 585 614 760 412 760 C216 760 52 585 52 375 L52 375 Z " />
<glyph glyph-name="P" unicode="P" horiz-adv-x="546" d="M184 0 L212 0 L296 0 L296 4 L296 8 L259 12 C233 15 212 27 212 57 L212 353 L260 353 C405 353 526 423 526 541 C526 655 427 750 308 750 L212 750 L157 750 L143 750 L73 750 L73 746 L73 742 L110 738 C136 735 157 723 157 693 L157 57 C157 27 136 15 110 12 L73 8 L73 4 L73 0 L157 0 L184 0 L184 0 Z M212 365 L212 693 L212 740 L294 740 C392 740 474 654 474 550 C474 434 377 365 260 365 L212 365 L212 365 Z " />
<glyph glyph-name="Q" unicode="Q" horiz-adv-x="840" d="M1129 -54 L1129 -53 C1102 -76 968 -94 834 -94 C677 -94 482 -56 395 -9 C401 -10 406 -10 411 -10 C618 -10 791 165 791 375 C791 585 623 760 421 760 C225 760 61 585 61 375 C61 202 234 53 348 6 L346 7 C468 -66 687 -128 828 -128 C944 -128 1081 -94 1129 -53 L1129 -54 L1129 -54 Z M411 -7 C404 -7 396 -5 387 -2 L387 -2 L385 -1 C294 30 127 189 127 376 C127 585 261 759 423 759 C590 759 729 585 729 376 C729 167 585 -7 413 -7 L411 -7 L411 -7 Z " />
<glyph glyph-name="R" unicode="R" horiz-adv-x="677" d="M667 0 L667 7 C592 7 576 15 545 72 C470 213 405 334 385 372 C475 389 542 449 542 541 C542 656 447 751 332 751 L199 751 L130 751 L60 751 L60 747 L60 743 L97 739 C123 736 144 724 144 694 L144 58 C144 28 123 16 97 13 L60 9 L60 5 L60 1 L172 1 L283 1 L283 5 L283 9 L246 13 C220 16 199 28 199 58 L199 367 L329 367 C343 335 407 211 481 74 C515 11 539 2 668 2 L667 0 L667 0 Z M199 741 L316 741 C405 741 480 656 480 553 C480 446 413 382 332 382 L199 382 L199 695 L199 741 L199 741 Z " />
<glyph glyph-name="S" unicode="S" horiz-adv-x="535" d="M410 696 L410 696 C366 734 302 760 243 760 C150 760 73 677 73 577 C73 503 156 404 279 346 C382 298 451 220 451 165 C451 71 380 -7 296 -7 C247 -7 190 20 143 61 L144 61 C144 61 97 147 65 207 C60 216 56 224 56 224 L55 224 L53 224 L53 149 L53 129 L53 34 L55 34 L56 34 C56 34 60 47 65 63 C70 78 92 88 109 74 C161 25 233 -9 296 -9 C405 -9 496 78 496 182 C496 257 423 354 313 405 C195 460 117 543 117 599 C117 686 174 759 243 759 C276 759 312 748 344 730 L338 733 C355 724 411 639 440 586 C445 577 449 569 449 569 L450 569 L452 569 L452 644 L452 652 L452 735 L450 735 L449 735 C449 735 445 725 440 712 C435 700 420 689 409 698 L410 696 L410 696 Z " />
<glyph glyph-name="T" unicode="T" horiz-adv-x="765" d="M693 750 L624 750 L411 750 L355 750 L142 750 L72 750 L83 790 L79 790 C76 789 74 789 74 789 C71 779 66 764 61 750 L56 750 L56 736 L56 736 C54 731 52 726 50 722 C43 703 32 673 25 654 L29 654 C31 653 33 653 33 653 L52 693 C63 716 87 736 137 736 L355 736 L355 54 C355 26 334 15 308 12 L272 8 L272 4 L272 0 L383 0 L494 0 L494 4 L494 8 L458 12 C432 15 411 26 411 54 L411 736 L629 736 C679 736 703 716 714 693 L733 653 C733 653 735 653 737 654 L741 654 C734 673 723 703 716 722 C714 726 712 731 710 736 L710 736 L710 750 L705 750 C700 764 695 779 691 789 C691 789 690 789 687 790 L683 790 L693 750 L693 750 Z " />
<glyph glyph-name="U" unicode="U" horiz-adv-x="741" d="M640 693 L640 750 L570 750 L501 750 L501 746 L501 742 L537 738 C563 735 584 723 584 693 L584 173 C547 93 408 26 278 26 C210 26 153 113 153 218 L153 693 L153 750 L84 750 L14 750 L14 746 L14 742 L51 738 C76 735 97 723 97 693 L97 218 C97 94 169 -10 256 -10 C394 -10 544 62 584 148 L584 102 L584 0 L593 0 L722 65 L722 69 C660 82 640 89 640 102 L640 693 L640 693 Z " />
<glyph glyph-name="V" unicode="V" horiz-adv-x="716" d="M74 739 L304 77 L334 -10 L345 -10 L590 655 L595 669 C614 720 629 737 640 738 L696 742 L696 746 L696 750 L624 750 L602 750 L584 750 L471 750 L471 746 L471 742 L537 738 C569 736 589 715 568 655 L568 655 L364 77 L162 669 C149 718 169 736 199 738 L265 742 L265 746 L265 750 L143 750 L134 750 L69 750 L21 750 L21 746 L21 742 L74 739 L74 739 Z " />
<glyph glyph-name="W" unicode="W" horiz-adv-x="1015" d="M461 710 L526 500 L526 500 L346 71 L163 655 L163 655 C143 716 159 736 186 738 L248 742 L248 746 L248 750 L135 750 L133 750 L71 750 L22 750 L22 746 L22 742 L75 739 L95 676 C97 670 99 663 101 656 L101 656 L287 72 L312 -9 L327 -9 L535 474 L656 82 L684 -9 L699 -9 L905 688 C918 725 930 738 940 739 L996 743 L996 747 L996 751 L924 751 L901 751 L883 751 L770 751 L770 747 L770 743 L836 739 C869 737 891 716 873 656 L874 656 L710 82 L533 683 C523 723 540 737 566 739 L628 743 L628 747 L628 751 L513 751 L502 751 L449 751 L376 751 L376 747 L376 743 L433 739 C444 738 455 731 461 711 L461 710 L461 710 Z " />
<glyph glyph-name="X" unicode="X" horiz-adv-x="707" d="M189 102 L188 101 L351 351 L507 95 L507 95 C544 34 541 14 523 12 L466 8 L466 4 L466 0 L565 0 L580 0 L632 0 L694 0 L694 4 L694 8 L636 12 C630 13 616 27 590 68 L385 404 L602 712 C617 730 627 737 633 738 L690 742 L690 746 L690 750 L629 750 L604 750 L594 750 L497 750 L497 746 L497 742 L556 738 C577 736 581 714 538 648 L538 648 L383 407 L232 655 L232 655 C195 716 198 736 216 738 L273 742 L273 746 L273 750 L174 750 L164 750 L108 750 L54 750 L54 746 L54 742 L113 738 C115 737 124 724 147 687 L344 363 L156 82 L156 82 C121 30 97 13 81 12 L23 8 L23 4 L23 0 L101 0 L123 0 L146 0 L270 0 L270 4 L270 8 L200 12 C163 14 146 36 190 102 L189 102 L189 102 Z " />
<glyph glyph-name="Y" unicode="Y" horiz-adv-x="651" d="M184 655 L184 655 C149 717 148 737 160 738 L214 742 L214 746 L214 750 L131 750 L116 750 L65 750 L18 750 L18 746 L18 742 L71 739 L303 329 L303 54 C303 26 282 15 256 12 L220 8 L220 4 L220 0 L331 0 L442 0 L442 4 L442 8 L406 12 C380 15 359 26 359 54 L359 339 L529 662 C559 718 574 736 580 737 L638 741 L638 745 L638 749 L575 749 L570 749 L562 749 L487 749 L487 745 L487 741 L542 737 C552 736 555 723 540 689 L359 340 L184 655 L184 655 Z " />
<glyph glyph-name="Z" unicode="Z" horiz-adv-x="636" d="M492 17 L492 17 L95 13 L601 738 L601 750 L546 750 L186 750 L70 750 C67 730 62 696 60 676 C57 656 52 622 49 602 C49 602 52 602 54 601 C57 601 60 600 60 600 L72 642 C86 691 117 732 176 735 L537 738 L25 12 L25 0 L86 0 L488 0 L597 0 C602 19 609 50 614 68 C619 87 626 118 631 137 C631 137 629 138 627 138 C625 139 624 139 623 139 L604 93 C587 52 553 17 492 17 L492 17 Z " />
<glyph glyph-name="bracketleft" unicode="&#x5b;" horiz-adv-x="285" d="M125 735 L335 735 L335 750 L125 750 L108 750 L108 -195 L125 -195 L335 -195 L335 -180 L125 -180 L125 735 L125 735 Z " />
<glyph glyph-name="backslash" unicode="&#x5c;" horiz-adv-x="336" d="M37 770 L297 -80 L327 -80 L67 770 L37 770 L37 770 Z " />
<glyph glyph-name="bracketright" unicode="&#x5d;" horiz-adv-x="288" d="M161 735 L161 -180 L-49 -180 L-49 -195 L161 -195 L178 -195 L178 750 L161 750 L-49 750 L-49 735 L161 735 L161 735 Z " />
<glyph glyph-name="underscore" unicode="&#x5f;" horiz-adv-x="434" d="M5 -50 L5 -78 L429 -78 L429 -50 L5 -50 L5 -50 Z " />
<glyph glyph-name="a" unicode="a" horiz-adv-x="494" d="M505 77 L494 83 C489 54 464 31 439 31 C408 31 382 54 382 81 L382 358 C382 453 321 510 249 510 C149 510 65 409 65 360 C65 341 77 325 90 325 C108 325 123 340 123 350 C123 364 103 381 103 392 C103 430 168 508 246 508 C293 508 332 459 332 377 L332 250 C131 159 45 113 45 81 C45 32 96 -9 156 -9 C197 -9 265 24 332 88 L332 82 C332 35 371 -4 418 -4 C457 -4 497 33 505 78 L505 77 L505 77 Z M332 249 L332 90 C281 42 222 17 183 17 C135 17 95 48 95 86 C95 130 166 173 332 249 L332 249 Z " />
<glyph glyph-name="b" unicode="b" horiz-adv-x="626" d="M150 0 L153 0 L168 65 C203 24 290 -10 360 -10 C481 -10 582 109 582 251 C582 390 476 505 349 505 C301 505 236 466 200 416 L200 685 L200 750 L191 750 L83 719 L83 715 L83 711 L114 716 C134 719 150 710 150 674 L150 195 L150 0 L150 0 Z M200 409 C233 454 292 490 334 490 C438 490 525 379 525 246 C525 110 451 -4 361 -4 C307 -4 234 30 200 70 L200 195 L200 409 L200 409 Z " />
<glyph glyph-name="c" unicode="c" horiz-adv-x="500" d="M470 128 L463 131 C430 57 344 -5 274 -5 C176 -5 94 118 94 264 C94 397 188 508 300 508 C347 508 403 461 423 405 C429 391 440 380 448 380 C467 380 479 391 473 405 C452 462 374 510 301 510 C161 510 44 386 44 239 C44 103 147 -10 271 -10 C346 -10 437 53 470 128 L470 128 Z " />
<glyph glyph-name="d" unicode="d" horiz-adv-x="571" d="M455 90 C425 49 357 16 305 16 C197 16 106 130 106 267 C106 391 190 495 316 495 C363 495 428 442 455 389 L455 102 L455 90 L455 90 Z M455 73 L455 -10 L463 -10 L572 17 L572 21 L572 25 L540 22 C521 19 505 40 505 113 L505 683 L505 750 L496 750 L387 719 L387 715 L387 711 L419 716 C438 719 455 709 455 671 L455 441 C418 479 359 510 309 510 C156 510 54 393 54 254 C54 113 158 -5 283 -5 C346 -5 423 30 454 73 L455 73 L455 73 Z " />
<glyph glyph-name="e" unicode="e" horiz-adv-x="514" d="M102 320 L429 320 L471 320 L485 320 C470 444 383 510 289 510 C154 510 42 385 42 235 C42 101 145 -10 269 -10 C352 -10 445 55 473 133 L467 136 C439 59 350 -5 271 -5 C175 -5 95 113 95 255 C95 277 97 299 101 320 L102 320 L102 320 Z M428 322 L101 322 C124 428 200 508 288 508 C352 508 414 444 428 322 L428 322 Z " />
<glyph glyph-name="f" unicode="f" horiz-adv-x="311" d="M156 474 L302 474 L302 500 L156 500 C156 631 201 740 267 740 C336 740 312 635 369 635 C394 635 414 655 414 680 C414 721 355 755 285 755 C178 755 106 639 106 500 L-8 479 L-8 474 L106 474 L106 23 C106 18 90 15 71 12 L39 8 L39 4 L39 0 L131 0 L224 0 L224 4 L224 8 L192 12 C173 15 156 18 156 23 L156 474 L156 474 Z " />
<glyph glyph-name="g" unicode="g" horiz-adv-x="510" d="M125 350 C125 431 180 498 246 498 C312 498 367 431 367 350 C367 268 312 200 246 200 C180 200 125 268 125 350 L125 350 Z M166 18 C171 18 176 18 181 18 L291 18 C386 18 436 -31 436 -89 C436 -160 360 -218 268 -218 C174 -218 95 -155 95 -80 C95 -40 126 2 167 18 L166 18 L166 18 Z M156 19 C99 1 54 -47 54 -93 C54 -168 150 -230 265 -230 C381 -230 477 -161 477 -79 C477 1 415 67 297 67 L184 67 C130 67 85 92 85 122 C85 158 159 188 247 188 C340 188 418 262 418 350 C418 363 416 376 413 388 C430 436 466 474 495 474 C510 474 523 456 523 434 C523 424 534 416 547 416 C558 416 567 427 567 440 C567 470 544 495 516 495 C475 495 428 452 408 399 C385 463 320 510 245 510 C152 510 74 437 74 350 C74 278 126 215 196 194 C116 184 55 148 55 106 C55 63 98 26 154 17 L156 19 L156 19 Z " />
<glyph glyph-name="h" unicode="h" horiz-adv-x="630" d="M474 23 C474 18 458 15 438 12 L407 8 L407 4 L407 0 L499 0 L592 0 L592 4 L592 8 L560 12 C540 15 524 18 524 23 L524 335 C524 430 459 510 361 510 C303 510 213 452 162 381 L162 685 L162 750 L153 750 L45 719 L45 715 L45 711 L76 716 C96 719 112 710 112 674 L112 23 C112 18 96 15 76 12 L45 8 L45 4 L45 0 L137 0 L229 0 L229 4 L229 8 L198 12 C178 15 162 18 162 23 L162 373 C207 436 290 487 347 487 C423 487 474 418 474 335 L474 23 L474 23 Z " />
<glyph glyph-name="i" unicode="i" horiz-adv-x="266" d="M145 615 C162 615 177 630 177 647 C177 665 162 680 145 680 C128 680 113 665 113 647 C113 630 128 615 145 615 L145 615 Z M170 23 L170 435 L170 500 L161 500 L53 469 L53 465 L53 461 L84 466 C104 469 120 460 120 424 L120 23 C120 18 106 15 90 12 L61 8 L61 4 L61 0 L145 0 L230 0 L230 4 L230 8 L201 12 C184 15 170 18 170 23 L170 23 Z " />
<glyph glyph-name="j" unicode="j" horiz-adv-x="250" d="M135 615 C152 615 167 630 167 647 C167 665 152 680 135 680 C118 680 103 665 103 647 C103 630 118 615 135 615 L135 615 Z M110 424 L110 29 C110 -40 90 -110 65 -123 C34 -123 -13 -100 -45 -100 C-70 -100 -90 -118 -90 -140 C-90 -167 -63 -187 -30 -185 C-24 -184 24 -159 75 -130 C121 -103 160 -31 160 29 L160 435 L160 500 L151 500 L43 469 L43 465 L43 461 L74 466 C94 469 110 460 110 424 L110 424 Z " />
<glyph glyph-name="k" unicode="k" horiz-adv-x="498" d="M399 0 L446 0 L484 0 L484 4 L484 8 L438 10 L431 20 C431 21 430 22 429 23 L429 23 L216 303 L405 476 L406 477 C407 478 408 479 409 480 L418 489 L472 492 L472 496 L472 500 L430 500 L410 500 L368 500 L263 500 L263 496 L263 492 L332 488 C364 486 366 461 289 389 L169 279 L169 684 L169 749 L160 749 L52 718 L52 714 L52 710 L83 715 C103 718 119 709 119 673 L119 22 C119 17 105 14 89 11 L60 7 L60 3 L60 -1 L144 -1 L229 -1 L229 3 L229 7 L200 11 C183 14 169 17 169 22 L169 279 L367 17 C369 13 368 12 365 11 L314 7 L314 3 L314 -1 L381 -1 L399 0 L399 0 Z " />
<glyph glyph-name="l" unicode="l" horiz-adv-x="256" d="M160 23 L160 685 L160 750 L151 750 L43 719 L43 715 L43 711 L74 716 C94 719 110 710 110 674 L110 23 C110 18 95 15 77 12 L47 8 L47 4 L47 0 L135 0 L223 0 L223 4 L223 8 L193 12 C175 15 160 18 160 23 L160 23 Z " />
<glyph glyph-name="m" unicode="m" horiz-adv-x="937" d="M495 378 L495 370 C538 434 618 487 671 487 C743 487 791 418 791 335 L791 37 C791 22 777 15 760 12 L731 8 L731 4 L731 0 L820 0 L908 0 L908 4 L908 8 L877 12 C857 15 841 22 841 37 L841 335 C841 430 779 510 685 510 C629 510 543 450 495 378 L495 378 Z M447 37 C447 22 433 15 417 12 L388 8 L388 4 L388 0 L468 0 L549 0 L549 4 L549 8 L520 12 C507 14 497 21 497 37 L497 335 C497 430 435 510 343 510 C288 510 203 452 155 381 L155 435 L155 500 L146 500 L38 460 L38 456 L38 452 L69 460 C89 464 105 457 105 420 L105 37 C105 22 89 15 69 12 L38 8 L38 4 L38 0 L124 0 L211 0 L211 4 L211 8 L182 12 C167 14 155 21 155 37 L155 373 C198 436 277 487 330 487 C401 487 448 418 448 335 L447 37 L447 37 Z " />
<glyph glyph-name="n" unicode="n" horiz-adv-x="613" d="M467 23 C467 18 452 15 434 12 L404 8 L404 4 L404 0 L492 0 L581 0 L581 4 L581 8 L551 12 C532 15 517 18 517 23 L517 335 C517 430 452 510 354 510 C296 510 206 452 155 381 L155 435 L155 500 L146 500 L38 460 L38 456 L38 452 L69 460 C89 464 105 457 105 420 L105 23 C105 18 90 15 72 12 L42 8 L42 4 L42 0 L130 0 L218 0 L218 4 L218 8 L188 12 C170 15 155 18 155 23 L155 373 C200 436 283 487 340 487 C416 487 467 418 467 335 L467 23 L467 23 Z " />
<glyph glyph-name="o" unicode="o" horiz-adv-x="568" d="M283 -8 C182 -8 98 109 98 250 C98 391 182 508 283 508 C384 508 469 391 469 250 C469 109 384 -8 283 -8 L283 -8 Z M42 250 C42 108 152 -10 283 -10 C414 -10 524 108 524 250 C524 392 414 510 283 510 C152 510 42 392 42 250 L42 250 Z " />
<glyph glyph-name="p" unicode="p" horiz-adv-x="581" d="M98 -175 C98 -196 82 -205 63 -208 L31 -212 L31 -216 L31 -220 L123 -220 L216 -220 L216 -216 L216 -212 L184 -208 C165 -205 148 -196 148 -175 L148 103 C182 43 243 -5 289 -5 C424 -5 537 127 537 254 C537 393 442 510 328 510 C258 510 179 475 148 432 L148 434 L148 499 L140 499 L31 459 L31 455 L31 451 L63 459 C82 463 98 456 98 419 L98 -175 L98 -175 Z M148 109 L148 411 C178 454 246 488 305 488 C402 488 482 374 482 237 C482 119 394 -4 288 -4 C242 -4 180 46 147 108 L148 109 L148 109 Z " />
<glyph glyph-name="q" unicode="q" horiz-adv-x="595" d="M478 -197 L478 411 L478 440 L478 500 L475 500 L458 440 C422 478 346 510 293 510 C144 510 44 393 44 254 C44 113 147 -5 270 -5 C319 -5 388 27 427 68 L427 -197 C427 -202 411 -205 391 -208 L359 -212 L359 -216 L359 -220 L452 -220 L544 -220 L544 -216 L544 -212 L513 -208 C493 -205 477 -202 477 -197 L478 -197 L478 -197 Z M427 411 L427 87 C389 48 329 17 290 17 C184 17 95 131 95 268 C95 395 173 500 289 500 C339 500 401 460 427 412 L427 411 L427 411 Z " />
<glyph glyph-name="r" unicode="r" horiz-adv-x="368" d="M160 388 L160 435 L160 500 L151 500 L43 460 L43 456 L43 452 L74 460 C94 464 110 457 110 420 L110 23 C110 18 96 15 80 12 L51 8 L51 4 L51 0 L139 0 L227 0 L227 4 L227 8 L196 12 C176 15 160 18 160 23 L160 383 C178 441 228 487 275 487 C288 487 299 471 299 452 C299 436 313 422 329 422 C345 422 358 436 358 452 C358 483 331 510 298 510 C241 510 180 455 160 387 L160 388 L160 388 Z " />
<glyph glyph-name="s" unicode="s" horiz-adv-x="426" d="M301 478 L298 479 C270 498 235 510 203 510 C134 510 77 455 77 389 C77 332 136 263 224 231 C292 206 338 152 338 107 C338 44 291 -8 235 -8 C214 -8 191 0 169 14 C140 34 99 102 87 140 C85 147 83 153 83 153 L79 153 L75 153 L75 96 L75 91 L75 28 L79 28 L83 28 C83 28 85 36 87 45 C88 50 112 42 139 24 L139 24 C169 4 204 -9 235 -9 C312 -9 377 51 377 122 C377 177 325 241 246 270 C166 299 113 359 113 407 C113 463 154 509 203 509 C214 509 225 507 236 503 L229 506 C232 505 235 504 238 503 C242 502 246 500 250 498 L238 503 C277 485 324 421 336 381 C338 374 340 368 340 368 L344 368 L348 368 L348 426 L348 439 L348 511 L344 511 L340 511 C340 511 338 501 336 488 C334 476 317 467 301 479 L301 478 L301 478 Z M238 503 L236 504 L236 504 L236 504 L238 503 L238 503 Z " />
<glyph glyph-name="t" unicode="t" horiz-adv-x="333" d="M293 500 L144 500 L144 620 L140 620 L29 500 L29 490 L94 490 L94 129 C94 38 146 -10 209 -10 C244 -10 297 25 323 68 L318 71 C298 40 256 14 224 14 C179 14 142 50 143 118 L144 474 L293 474 L293 500 L293 500 Z " />
<glyph glyph-name="u" unicode="u" horiz-adv-x="543" d="M402 82 L402 -10 L411 -10 L519 17 L519 21 L519 25 L488 22 C468 19 452 35 452 93 L452 477 L452 500 L400 500 L349 500 L349 496 L349 492 L378 488 C391 486 402 482 402 477 L402 134 C355 74 283 25 242 25 C180 25 129 86 129 159 L129 477 L129 500 L78 500 L27 500 L27 496 L27 492 L56 488 C68 486 79 482 79 477 L79 159 C79 67 142 -10 218 -10 C261 -10 343 54 403 131 L402 82 L402 82 Z " />
<glyph glyph-name="v" unicode="v" horiz-adv-x="475" d="M72 469 L214 -10 L228 -10 L387 464 C394 481 401 486 407 487 L464 491 L464 495 L464 499 L399 499 L382 499 L376 499 L301 499 L301 495 L301 491 L355 487 C362 486 368 482 367 473 L213 -10 L234 57 L120 487 C120 488 120 488 120 488 L175 492 L175 496 L175 500 L116 500 L91 500 L61 500 L8 500 L8 496 L8 492 L64 488 L66 480 C67 477 68 473 70 468 L72 469 L72 469 Z " />
<glyph glyph-name="w" unicode="w" horiz-adv-x="740" d="M334 474 L369 350 L369 350 L275 58 L169 489 L218 492 L218 496 L218 500 L166 500 L139 500 L110 500 L60 500 L60 496 L60 492 L113 489 L116 479 C116 478 116 477 116 475 L116 475 L252 -9 L267 -9 L377 319 L469 -9 L483 -9 L648 457 L648 457 C656 481 664 488 671 489 L728 493 L728 497 L728 501 L663 501 L646 501 L640 501 L564 501 L564 497 L564 493 L619 489 C628 488 634 483 629 470 L629 470 L469 -9 L491 58 L388 475 L389 475 C388 477 387 479 386 481 L384 490 L433 493 L433 497 L433 501 L381 501 L354 501 L325 501 L275 501 L275 497 L275 493 L328 490 L331 478 C331 477 331 476 331 475 L334 474 L334 474 Z " />
<glyph glyph-name="x" unicode="x" horiz-adv-x="502" d="M120 43 L120 43 L232 225 L354 26 C359 16 360 12 359 11 L307 7 L307 3 L307 -1 L370 -1 L392 -1 L431 -1 L478 -1 L478 3 L478 7 L424 10 L412 29 C410 32 408 35 406 39 L406 39 L265 269 L370 455 L370 455 C371 457 372 458 373 459 L379 470 C385 481 389 485 390 486 L449 490 L449 494 L449 498 L394 498 L374 498 L371 498 L299 498 L299 494 L299 490 L352 486 C359 485 361 478 349 457 L350 457 L258 281 L151 455 L152 455 C137 478 135 485 137 486 L189 490 L189 494 L189 498 L125 498 L107 498 L64 498 L26 498 L26 494 L26 490 L70 488 L227 234 L100 42 L100 42 C86 19 79 12 78 11 L18 7 L18 3 L18 -1 L72 -1 L95 -1 L96 -1 L175 -1 L175 3 L175 7 L121 11 C111 12 107 20 122 42 L120 43 L120 43 Z " />
<glyph glyph-name="y" unicode="y" horiz-adv-x="495" d="M67 488 L227 -10 L184 -140 C180 -154 166 -165 154 -165 C143 -165 137 -147 126 -147 C110 -147 97 -158 97 -172 C97 -189 110 -203 127 -203 C154 -203 184 -181 193 -154 L242 -10 L404 456 L404 456 C412 480 420 487 427 488 L484 492 L484 496 L484 500 L419 500 L402 500 L396 500 L321 500 L321 496 L321 492 L375 488 C384 487 390 481 385 467 L385 467 L250 58 L122 487 L122 487 L177 491 L177 495 L177 499 L118 499 L94 499 L63 499 L10 499 L10 495 L10 491 L67 488 L67 488 Z " />
<glyph glyph-name="z" unicode="z" horiz-adv-x="465" d="M433 89 L416 55 C407 36 383 20 332 17 L102 13 L426 488 L426 500 L375 500 L109 500 L101 500 L107 532 L103 532 L98 532 C96 523 93 512 90 501 L83 501 L83 483 L85 483 C84 478 83 473 82 469 C78 452 70 423 65 406 L66 406 L88 446 C100 465 121 481 160 484 L368 488 L42 13 L42 1 L95 1 L377 1 L423 1 C425 14 428 36 429 49 C431 59 433 77 435 90 L433 89 L433 89 Z M435 90 C435 92 435 94 435 96 L436 96 L437 96 L435 90 L435 90 Z " />
<glyph glyph-name="bar" unicode="&#x7c;" horiz-adv-x="158" d="M60 800 L60 -250 L99 -250 L99 800 L60 800 L60 800 Z " />
<glyph glyph-name="exclamdown" unicode="&#xa1;" horiz-adv-x="201" d="M101 505 C81 505 65 489 65 470 C65 450 81 434 101 434 C120 434 136 450 136 470 C136 489 120 505 101 505 L101 505 Z M101 -255 C126 -255 134 -217 131 -171 L105 290 L96 290 L70 -171 C67 -217 76 -255 101 -255 L101 -255 Z " />
<glyph glyph-name="cent" unicode="&#xa2;" horiz-adv-x="500" d="M277 575 L277 509 C148 496 44 378 44 239 C44 103 147 -10 271 -10 C273 -10 275 -10 277 -10 L277 -75 L294 -75 L294 -8 C364 3 441 61 471 128 L464 131 C434 64 361 7 295 -3 L295 508 C297 508 299 508 301 508 C348 508 404 461 424 405 C430 391 441 380 449 380 C468 380 480 391 474 405 C453 462 375 510 302 510 C300 510 298 510 296 510 L296 575 L277 575 L277 575 Z M279 -5 C278 -5 277 -5 276 -5 C178 -5 96 118 96 264 C96 388 177 493 279 507 L279 -5 L279 -5 Z " />
<glyph glyph-name="questiondown" unicode="&#xbf;" horiz-adv-x="304" d="M180 505 C161 505 144 489 144 470 C144 450 161 434 180 434 C199 434 215 450 215 470 C215 489 199 505 180 505 L180 505 Z M183 325 L180 140 C103 140 57 98 24 48 C8 24 -5 -21 -5 -53 C-5 -166 70 -260 160 -260 C185 -260 207 -243 207 -223 C207 -209 194 -198 180 -198 C169 -198 152 -207 141 -207 C70 -207 10 -134 10 -47 C10 -28 21 4 35 23 C59 60 101 90 197 90 L192 325 L183 325 L183 325 Z " />
<glyph glyph-name="Agrave" unicode="&#xc0;" horiz-adv-x="691" d="M582 95 L582 95 L393 732 L382 770 L376 770 C359 750 342 733 337 732 L340 722 L157 116 L157 116 C134 39 105 14 79 12 L18 8 L18 4 L18 0 L122 0 L125 0 L137 0 L255 0 L255 4 L255 8 L189 12 C156 14 136 40 160 116 L160 116 L209 279 L470 279 L524 95 L524 95 C542 34 529 14 505 12 L445 8 L445 4 L445 0 L552 0 L565 0 L611 0 L684 0 L684 4 L684 8 L627 12 C616 13 601 33 583 95 L582 95 L582 95 Z M253 959 C220 997 190 1029 185 1029 C173 1029 160 1017 160 1005 C160 1000 192 969 230 936 L369 813 L375 820 L253 959 L253 959 Z M210 281 L341 720 L469 281 L210 281 L210 281 Z " />
<glyph glyph-name="Aacute" unicode="&#xc1;" horiz-adv-x="691" d="M371 813 L510 936 C549 970 581 1001 581 1005 C581 1017 568 1029 556 1029 C553 1029 522 997 488 959 L365 820 L371 813 L371 813 Z M582 95 L582 95 L393 732 L382 770 L376 770 C359 750 342 733 337 732 L340 722 L157 116 L157 116 C134 39 105 14 79 12 L18 8 L18 4 L18 0 L122 0 L125 0 L137 0 L255 0 L255 4 L255 8 L189 12 C156 14 136 40 160 116 L160 116 L209 279 L470 279 L524 95 L524 95 C542 34 529 14 505 12 L445 8 L445 4 L445 0 L552 0 L565 0 L611 0 L684 0 L684 4 L684 8 L627 12 C616 13 601 33 583 95 L582 95 L582 95 Z M210 281 L341 720 L469 281 L210 281 L210 281 Z " />
<glyph glyph-name="Acircumflex" unicode="&#xc2;" horiz-adv-x="691" d="M582 95 L582 95 L393 732 L382 770 L376 770 C359 750 342 733 337 732 L340 722 L157 116 L157 116 C134 39 105 14 79 12 L18 8 L18 4 L18 0 L122 0 L125 0 L137 0 L255 0 L255 4 L255 8 L189 12 C156 14 136 40 160 116 L160 116 L209 279 L470 279 L524 95 L524 95 C542 34 529 14 505 12 L445 8 L445 4 L445 0 L552 0 L565 0 L611 0 L684 0 L684 4 L684 8 L627 12 C616 13 601 33 583 95 L582 95 L582 95 Z M366 977 L509 808 L516 813 L384 1015 C381 1020 372 1033 367 1033 C362 1033 352 1020 349 1015 L218 813 L224 808 L366 977 L366 977 Z M211 281 L342 720 L470 281 L211 281 L211 281 Z " />
<glyph glyph-name="Atilde" unicode="&#xc3;" horiz-adv-x="691" d="M228 870 C228 906 248 936 272 936 C325 936 390 871 443 871 C476 871 503 914 503 966 L502 966 C502 934 480 906 455 906 C401 906 337 971 283 971 C252 971 226 925 226 870 L228 870 L228 870 Z M582 95 L582 95 L393 732 L382 770 L376 770 C359 750 342 733 337 732 L340 722 L157 116 L157 116 C134 39 105 14 79 12 L18 8 L18 4 L18 0 L122 0 L125 0 L137 0 L255 0 L255 4 L255 8 L189 12 C156 14 136 40 160 116 L160 116 L209 279 L470 279 L524 95 L524 95 C542 34 529 14 505 12 L445 8 L445 4 L445 0 L552 0 L565 0 L611 0 L684 0 L684 4 L684 8 L627 12 C616 13 601 33 583 95 L582 95 L582 95 Z M210 281 L341 720 L469 281 L210 281 L210 281 Z " />
<glyph glyph-name="Adieresis" unicode="&#xc4;" horiz-adv-x="691" d="M433 865 C451 865 466 880 466 897 C466 915 451 930 433 930 C416 930 401 915 401 897 C401 880 416 865 433 865 L433 865 Z M296 865 C314 865 329 880 329 897 C329 915 314 930 296 930 C279 930 264 915 264 897 C264 880 279 865 296 865 L296 865 Z M582 95 L582 95 L393 732 L382 770 L376 770 C359 750 342 733 337 732 L340 722 L157 116 L157 116 C134 39 105 14 79 12 L18 8 L18 4 L18 0 L122 0 L125 0 L137 0 L255 0 L255 4 L255 8 L189 12 C156 14 136 40 160 116 L160 116 L209 279 L470 279 L524 95 L524 95 C542 34 529 14 505 12 L445 8 L445 4 L445 0 L552 0 L565 0 L611 0 L684 0 L684 4 L684 8 L627 12 C616 13 601 33 583 95 L582 95 L582 95 Z M210 281 L341 720 L469 281 L210 281 L210 281 Z " />
<glyph glyph-name="Aring" unicode="&#xc5;" horiz-adv-x="691" d="M365 822 C325 822 283 864 283 905 C283 950 320 988 365 988 C410 988 447 950 447 905 C447 864 405 822 365 822 L365 822 Z M268 905 C268 858 317 810 365 810 C412 810 461 858 461 905 C461 957 417 1000 365 1000 C312 1000 268 957 268 905 L268 905 Z M582 95 L582 95 L393 732 L382 770 L376 770 C359 750 342 733 337 732 L340 722 L157 116 L157 116 C134 39 105 14 79 12 L18 8 L18 4 L18 0 L122 0 L125 0 L137 0 L255 0 L255 4 L255 8 L189 12 C156 14 136 40 160 116 L160 116 L209 279 L470 279 L524 95 L524 95 C542 34 529 14 505 12 L445 8 L445 4 L445 0 L552 0 L565 0 L611 0 L684 0 L684 4 L684 8 L627 12 C616 13 601 33 583 95 L582 95 L582 95 Z M210 281 L341 720 L469 281 L210 281 L210 281 Z " />
<glyph glyph-name="Ccedilla" unicode="&#xc7;" horiz-adv-x="691" d="M546 54 L546 54 C493 17 432 -8 368 -8 C234 -8 123 166 123 375 C123 584 239 758 378 758 C436 758 487 739 532 709 L530 710 C551 696 607 614 633 566 C638 557 642 549 642 549 L643 549 L645 549 L645 628 L645 634 L645 719 L643 719 L642 719 C642 719 638 709 633 696 C627 683 603 678 581 691 C528 732 462 760 377 760 C205 760 62 585 62 375 C62 165 201 -10 367 -10 L321 -102 L322 -103 C338 -95 366 -88 382 -88 C415 -88 443 -112 443 -141 C443 -183 415 -218 381 -218 C354 -218 317 -207 299 -194 L299 -195 C317 -209 355 -220 382 -220 C431 -220 472 -183 472 -139 C472 -110 432 -86 384 -86 C361 -86 336 -89 328 -92 L369 -10 C448 -10 519 17 575 56 L576 56 C598 72 626 64 634 50 C640 38 646 27 646 27 L646 113 L646 121 L646 200 L644 200 L643 200 C643 200 639 192 634 183 C609 138 562 63 547 53 L546 54 L546 54 Z " />
<glyph glyph-name="Egrave" unicode="&#xc8;" horiz-adv-x="590" d="M208 959 C175 997 145 1029 140 1029 C128 1029 115 1017 115 1005 C115 1000 147 969 185 936 L324 813 L331 820 L208 959 L208 959 Z M443 0 L524 0 C526 14 529 37 531 50 C533 64 536 87 538 101 L534 101 L530 101 L521 61 C513 29 491 2 443 2 L250 2 C208 2 198 25 198 52 L198 57 L198 363 L358 363 C405 363 423 330 427 292 L431 252 L435 252 L439 252 L439 363 L439 364 L439 365 L439 476 L435 476 L431 476 L427 436 C423 397 405 365 358 365 L198 365 L198 693 L198 748 L418 748 C476 748 486 721 491 689 L498 649 L502 649 L506 649 C505 663 504 686 503 700 C502 713 500 736 499 750 L418 750 L198 750 L143 750 L129 750 L59 750 L59 746 L59 742 L96 738 C122 735 143 723 143 693 L143 57 C143 27 122 15 96 12 L59 8 L59 4 L59 0 L129 0 L143 0 L198 0 L443 0 L443 0 Z " />
<glyph glyph-name="Eacute" unicode="&#xc9;" horiz-adv-x="590" d="M327 813 L467 936 C505 970 537 1001 537 1005 C537 1017 524 1029 512 1029 C509 1029 478 997 444 959 L321 820 L327 813 L327 813 Z M443 0 L524 0 C526 14 529 37 531 50 C533 64 536 87 538 101 L534 101 L530 101 L521 61 C513 29 491 2 443 2 L250 2 C208 2 198 25 198 52 L198 57 L198 363 L358 363 C405 363 423 330 427 292 L431 252 L435 252 L439 252 L439 363 L439 364 L439 365 L439 476 L435 476 L431 476 L427 436 C423 397 405 365 358 365 L198 365 L198 693 L198 748 L418 748 C476 748 486 721 491 689 L498 649 L502 649 L506 649 C505 663 504 686 503 700 C502 713 500 736 499 750 L418 750 L198 750 L143 750 L129 750 L59 750 L59 746 L59 742 L96 738 C122 735 143 723 143 693 L143 57 C143 27 122 15 96 12 L59 8 L59 4 L59 0 L129 0 L143 0 L198 0 L443 0 L443 0 Z " />
<glyph glyph-name="Ecircumflex" unicode="&#xca;" horiz-adv-x="590" d="M321 977 L463 808 L470 813 L339 1015 C335 1020 326 1033 321 1033 C316 1033 307 1020 303 1015 L172 813 L179 808 L321 977 L321 977 Z M443 0 L524 0 C526 14 529 37 531 50 C533 64 536 87 538 101 L534 101 L530 101 L521 61 C513 29 491 2 443 2 L250 2 C208 2 198 25 198 52 L198 57 L198 363 L358 363 C405 363 423 330 427 292 L431 252 L435 252 L439 252 L439 363 L439 364 L439 365 L439 476 L435 476 L431 476 L427 436 C423 397 405 365 358 365 L198 365 L198 693 L198 748 L418 748 C476 748 486 721 491 689 L498 649 L502 649 L506 649 C505 663 504 686 503 700 C502 713 500 736 499 750 L418 750 L198 750 L143 750 L129 750 L59 750 L59 746 L59 742 L96 738 C122 735 143 723 143 693 L143 57 C143 27 122 15 96 12 L59 8 L59 4 L59 0 L129 0 L143 0 L198 0 L443 0 L443 0 Z " />
<glyph glyph-name="Edieresis" unicode="&#xcb;" horiz-adv-x="590" d="M389 865 C407 865 422 880 422 897 C422 915 407 930 389 930 C372 930 357 915 357 897 C357 880 372 865 389 865 L389 865 Z M252 865 C270 865 285 880 285 897 C285 915 270 930 252 930 C235 930 220 915 220 897 C220 880 235 865 252 865 L252 865 Z M443 0 L524 0 C526 14 529 37 531 50 C533 64 536 87 538 101 L534 101 L530 101 L521 61 C513 29 491 2 443 2 L250 2 C208 2 198 25 198 52 L198 57 L198 363 L358 363 C405 363 423 330 427 292 L431 252 L435 252 L439 252 L439 363 L439 364 L439 365 L439 476 L435 476 L431 476 L427 436 C423 397 405 365 358 365 L198 365 L198 693 L198 748 L418 748 C476 748 486 721 491 689 L498 649 L502 649 L506 649 C505 663 504 686 503 700 C502 713 500 736 499 750 L418 750 L198 750 L143 750 L129 750 L59 750 L59 746 L59 742 L96 738 C122 735 143 723 143 693 L143 57 C143 27 122 15 96 12 L59 8 L59 4 L59 0 L129 0 L143 0 L198 0 L443 0 L443 0 Z " />
<glyph glyph-name="Igrave" unicode="&#xcc;" horiz-adv-x="336" d="M64 959 C31 997 0 1029 -4 1029 C-16 1029 -29 1017 -29 1005 C-29 1000 3 969 41 936 L180 813 L186 820 L64 959 L64 959 Z M204 54 L204 696 C204 724 225 735 251 738 L288 742 L288 746 L288 750 L177 750 L65 750 L65 746 L65 742 L102 738 C128 735 149 724 149 696 L149 54 C149 26 128 15 102 12 L65 8 L65 4 L65 0 L177 0 L288 0 L288 4 L288 8 L251 12 C225 15 204 26 204 54 L204 54 Z " />
<glyph glyph-name="Iacute" unicode="&#xcd;" horiz-adv-x="336" d="M183 813 L322 936 C360 970 392 1001 392 1005 C392 1017 379 1029 367 1029 C364 1029 334 997 299 959 L177 820 L183 813 L183 813 Z M204 54 L204 696 C204 724 225 735 251 738 L288 742 L288 746 L288 750 L177 750 L65 750 L65 746 L65 742 L102 738 C128 735 149 724 149 696 L149 54 C149 26 128 15 102 12 L65 8 L65 4 L65 0 L177 0 L288 0 L288 4 L288 8 L251 12 C225 15 204 26 204 54 L204 54 Z " />
<glyph glyph-name="Icircumflex" unicode="&#xce;" horiz-adv-x="336" d="M177 977 L320 808 L327 813 L195 1015 C192 1020 183 1033 178 1033 C172 1033 163 1020 160 1015 L28 813 L35 808 L177 977 L177 977 Z M205 54 L205 696 C205 724 226 735 252 738 L289 742 L289 746 L289 750 L178 750 L66 750 L66 746 L66 742 L103 738 C129 735 150 724 150 696 L150 54 C150 26 129 15 103 12 L66 8 L66 4 L66 0 L178 0 L289 0 L289 4 L289 8 L252 12 C226 15 205 26 205 54 L205 54 Z " />
<glyph glyph-name="Idieresis" unicode="&#xcf;" horiz-adv-x="336" d="M245 865 C262 865 277 880 277 897 C277 915 262 930 245 930 C228 930 213 915 213 897 C213 880 228 865 245 865 L245 865 Z M108 865 C125 865 140 880 140 897 C140 915 125 930 108 930 C91 930 76 915 76 897 C76 880 91 865 108 865 L108 865 Z M204 54 L204 696 C204 724 225 735 251 738 L288 742 L288 746 L288 750 L177 750 L65 750 L65 746 L65 742 L102 738 C128 735 149 724 149 696 L149 54 C149 26 128 15 102 12 L65 8 L65 4 L65 0 L177 0 L288 0 L288 4 L288 8 L251 12 C225 15 204 26 204 54 L204 54 Z " />
<glyph glyph-name="Ntilde" unicode="&#xd1;" horiz-adv-x="726" d="M224 870 C224 906 244 936 269 936 C322 936 386 871 440 871 C473 871 500 914 500 966 L499 966 C499 934 477 906 451 906 C398 906 333 971 280 971 C249 971 223 925 223 870 L224 870 L224 870 Z M144 95 L144 95 L142 664 L527 79 L580 0 L591 0 L595 668 L595 668 C595 717 621 735 652 738 L694 742 L694 746 L694 750 L595 750 L587 750 L578 750 L479 750 L479 746 L479 742 L521 738 C549 735 573 720 578 680 L580 102 L574 110 L155 750 L142 750 L128 750 L97 750 L86 750 L40 750 L40 746 L40 742 L93 739 L103 723 C105 720 107 717 110 713 L110 713 L128 686 L127 102 L127 102 C127 36 109 14 88 12 L28 8 L28 4 L28 0 L127 0 L136 0 L144 0 L243 0 L243 4 L243 8 L184 12 C162 14 144 34 144 95 L144 95 Z " />
<glyph glyph-name="Ograve" unicode="&#xd2;" horiz-adv-x="836" d="M402 -8 C246 -8 116 166 116 375 C116 584 250 758 411 758 C579 758 718 584 718 375 C718 166 574 -8 402 -8 L402 -8 Z M52 375 C52 165 211 -10 402 -10 C609 -10 782 165 782 375 C782 585 614 760 412 760 C216 760 52 585 52 375 L52 375 Z M299 959 C266 997 236 1029 231 1029 C219 1029 206 1017 206 1005 C206 1000 238 969 276 936 L415 813 L422 820 L299 959 L299 959 Z " />
<glyph glyph-name="Oacute" unicode="&#xd3;" horiz-adv-x="836" d="M418 813 L558 936 C596 970 628 1001 628 1005 C628 1017 615 1029 603 1029 C600 1029 569 997 535 959 L412 820 L418 813 L418 813 Z M402 -8 C246 -8 116 166 116 375 C116 584 250 758 411 758 C579 758 718 584 718 375 C718 166 574 -8 402 -8 L402 -8 Z M52 375 C52 165 211 -10 402 -10 C609 -10 782 165 782 375 C782 585 614 760 412 760 C216 760 52 585 52 375 L52 375 Z " />
<glyph glyph-name="Ocircumflex" unicode="&#xd4;" horiz-adv-x="836" d="M402 -8 C246 -8 116 166 116 375 C116 584 250 758 411 758 C579 758 718 584 718 375 C718 166 574 -8 402 -8 L402 -8 Z M52 375 C52 165 211 -10 402 -10 C609 -10 782 165 782 375 C782 585 614 760 412 760 C216 760 52 585 52 375 L52 375 Z M412 977 L554 808 L561 813 L430 1015 C426 1020 417 1033 412 1033 C407 1033 397 1020 394 1015 L263 813 L270 808 L412 977 L412 977 Z " />
<glyph glyph-name="Otilde" unicode="&#xd5;" horiz-adv-x="836" d="M275 870 C275 906 295 936 319 936 C372 936 437 871 490 871 C523 871 550 914 550 966 L549 966 C549 934 527 906 502 906 C448 906 384 971 331 971 C299 971 273 925 273 870 L275 870 L275 870 Z M402 -8 C246 -8 116 166 116 375 C116 584 250 758 411 758 C579 758 718 584 718 375 C718 166 574 -8 402 -8 L402 -8 Z M52 375 C52 165 211 -10 402 -10 C609 -10 782 165 782 375 C782 585 614 760 412 760 C216 760 52 585 52 375 L52 375 Z " />
<glyph glyph-name="Odieresis" unicode="&#xd6;" horiz-adv-x="836" d="M480 865 C498 865 513 880 513 897 C513 915 498 930 480 930 C463 930 448 915 448 897 C448 880 463 865 480 865 L480 865 Z M343 865 C361 865 376 880 376 897 C376 915 361 930 343 930 C326 930 311 915 311 897 C311 880 326 865 343 865 L343 865 Z M402 -8 C246 -8 116 166 116 375 C116 584 250 758 411 758 C579 758 718 584 718 375 C718 166 574 -8 402 -8 L402 -8 Z M52 375 C52 165 211 -10 402 -10 C609 -10 782 165 782 375 C782 585 614 760 412 760 C216 760 52 585 52 375 L52 375 Z " />
<glyph glyph-name="Oslash" unicode="&#xd8;" horiz-adv-x="836" d="M53 -11 L159 100 C222 32 308 -10 402 -10 C609 -10 782 165 782 375 C782 479 741 575 675 645 L784 760 L781 762 L673 648 C606 718 514 761 413 761 C217 761 53 586 53 376 C53 270 93 173 157 103 L51 -8 L53 -11 L53 -11 Z M402 -7 C316 -7 238 46 185 129 L648 618 C692 552 718 468 718 377 C718 168 574 -6 402 -6 L402 -7 L402 -7 Z M183 133 C141 200 116 285 116 377 C116 586 250 760 411 760 C505 760 590 706 647 622 L183 133 L183 133 Z " />
<glyph glyph-name="Ugrave" unicode="&#xd9;" horiz-adv-x="741" d="M256 959 C223 997 192 1029 188 1029 C176 1029 163 1017 163 1005 C163 1000 195 969 233 936 L372 813 L378 820 L256 959 L256 959 Z M640 693 L640 750 L570 750 L501 750 L501 746 L501 742 L537 738 C563 735 584 723 584 693 L584 173 C547 93 408 26 278 26 C210 26 153 113 153 218 L153 693 L153 750 L84 750 L14 750 L14 746 L14 742 L51 738 C76 735 97 723 97 693 L97 218 C97 94 169 -10 256 -10 C394 -10 544 62 584 148 L584 102 L584 0 L593 0 L722 65 L722 69 C660 82 640 89 640 102 L640 693 L640 693 Z " />
<glyph glyph-name="Uacute" unicode="&#xda;" horiz-adv-x="741" d="M375 813 L514 936 C553 970 585 1001 585 1005 C585 1017 572 1029 560 1029 C556 1029 526 997 491 959 L369 820 L375 813 L375 813 Z M640 693 L640 750 L570 750 L501 750 L501 746 L501 742 L537 738 C563 735 584 723 584 693 L584 173 C547 93 408 26 278 26 C210 26 153 113 153 218 L153 693 L153 750 L84 750 L14 750 L14 746 L14 742 L51 738 C76 735 97 723 97 693 L97 218 C97 94 169 -10 256 -10 C394 -10 544 62 584 148 L584 102 L584 0 L593 0 L722 65 L722 69 C660 82 640 89 640 102 L640 693 L640 693 Z " />
<glyph glyph-name="Ucircumflex" unicode="&#xdb;" horiz-adv-x="741" d="M369 977 L512 808 L519 813 L387 1015 C384 1020 375 1033 370 1033 C365 1033 355 1020 352 1015 L221 813 L227 808 L369 977 L369 977 Z M641 693 L641 750 L571 750 L502 750 L502 746 L502 742 L538 738 C564 735 585 723 585 693 L585 173 C548 93 409 26 279 26 C211 26 154 113 154 218 L154 693 L154 750 L85 750 L15 750 L15 746 L15 742 L52 738 C77 735 98 723 98 693 L98 218 C98 94 170 -10 257 -10 C395 -10 545 62 585 148 L585 102 L585 0 L594 0 L723 65 L723 69 C661 82 641 89 641 102 L641 693 L641 693 Z " />
<glyph glyph-name="Udieresis" unicode="&#xdc;" horiz-adv-x="741" d="M437 865 C454 865 469 880 469 897 C469 915 454 930 437 930 C420 930 405 915 405 897 C405 880 420 865 437 865 L437 865 Z M300 865 C318 865 333 880 333 897 C333 915 318 930 300 930 C283 930 268 915 268 897 C268 880 283 865 300 865 L300 865 Z M640 693 L640 750 L570 750 L501 750 L501 746 L501 742 L537 738 C563 735 584 723 584 693 L584 173 C547 93 408 26 278 26 C210 26 153 113 153 218 L153 693 L153 750 L84 750 L14 750 L14 746 L14 742 L51 738 C76 735 97 723 97 693 L97 218 C97 94 169 -10 256 -10 C394 -10 544 62 584 148 L584 102 L584 0 L593 0 L722 65 L722 69 C660 82 640 89 640 102 L640 693 L640 693 Z " />
<glyph glyph-name="Yacute" unicode="&#xdd;" horiz-adv-x="651" d="M338 813 L477 936 C515 970 547 1001 547 1005 C547 1017 534 1029 522 1029 C519 1029 488 997 454 959 L331 820 L338 813 L338 813 Z M184 655 L184 655 C149 717 148 737 160 738 L214 742 L214 746 L214 750 L131 750 L116 750 L65 750 L18 750 L18 746 L18 742 L71 739 L303 329 L303 54 C303 26 282 15 256 12 L220 8 L220 4 L220 0 L331 0 L442 0 L442 4 L442 8 L406 12 C380 15 359 26 359 54 L359 339 L529 662 C559 718 574 736 580 737 L638 741 L638 745 L638 749 L575 749 L570 749 L562 749 L487 749 L487 745 L487 741 L542 737 C552 736 555 723 540 689 L359 340 L184 655 L184 655 Z " />
<glyph glyph-name="agrave" unicode="&#xe0;" horiz-adv-x="494" d="M505 77 L494 83 C489 54 464 31 439 31 C408 31 382 54 382 81 L382 358 C382 453 321 510 249 510 C149 510 65 409 65 360 C65 341 77 325 90 325 C108 325 123 340 123 350 C123 364 103 381 103 392 C103 430 168 508 246 508 C293 508 332 459 332 377 L332 250 C131 159 45 113 45 81 C45 32 96 -9 156 -9 C197 -9 265 24 332 88 L332 82 C332 35 371 -4 418 -4 C457 -4 497 33 505 78 L505 77 L505 77 Z M136 710 C103 748 73 780 68 780 C56 780 43 768 43 756 C43 751 75 720 113 687 L252 564 L259 571 L136 710 L136 710 Z M332 249 L332 90 C281 42 222 17 183 17 C135 17 95 48 95 86 C95 130 166 173 332 249 L332 249 Z " />
<glyph glyph-name="aacute" unicode="&#xe1;" horiz-adv-x="494" d="M255 563 L395 686 C433 720 465 751 465 755 C465 767 452 779 440 779 C437 779 406 747 372 709 L249 570 L255 563 L255 563 Z M505 77 L494 83 C489 54 464 31 439 31 C408 31 382 54 382 81 L382 358 C382 453 321 510 249 510 C149 510 65 409 65 360 C65 341 77 325 90 325 C108 325 123 340 123 350 C123 364 103 381 103 392 C103 430 168 508 246 508 C293 508 332 459 332 377 L332 250 C131 159 45 113 45 81 C45 32 96 -9 156 -9 C197 -9 265 24 332 88 L332 82 C332 35 371 -4 418 -4 C457 -4 497 33 505 78 L505 77 L505 77 Z M332 249 L332 90 C281 42 222 17 183 17 C135 17 95 48 95 86 C95 130 166 173 332 249 L332 249 Z " />
<glyph glyph-name="acircumflex" unicode="&#xe2;" horiz-adv-x="494" d="M505 77 L494 83 C489 54 464 31 439 31 C408 31 382 54 382 81 L382 358 C382 453 321 510 249 510 C149 510 65 409 65 360 C65 341 77 325 90 325 C108 325 123 340 123 350 C123 364 103 381 103 392 C103 430 168 508 246 508 C293 508 332 459 332 377 L332 250 C131 159 45 113 45 81 C45 32 96 -9 156 -9 C197 -9 265 24 332 88 L332 82 C332 35 371 -4 418 -4 C457 -4 497 33 505 78 L505 77 L505 77 Z M249 728 L391 559 L398 564 L267 766 C263 771 254 784 249 784 C244 784 234 771 231 766 L100 564 L107 559 L249 728 L249 728 Z M332 249 L332 90 C281 42 222 17 183 17 C135 17 95 48 95 86 C95 130 166 173 332 249 L332 249 Z " />
<glyph glyph-name="atilde" unicode="&#xe3;" horiz-adv-x="494" d="M112 620 C112 656 132 686 156 686 C209 686 274 621 327 621 C360 621 387 664 387 716 L386 716 C386 684 364 656 339 656 C285 656 221 721 168 721 C136 721 110 675 110 620 L112 620 L112 620 Z M505 77 L494 83 C489 54 464 31 439 31 C408 31 382 54 382 81 L382 358 C382 453 321 510 249 510 C149 510 65 409 65 360 C65 341 77 325 90 325 C108 325 123 340 123 350 C123 364 103 381 103 392 C103 430 168 508 246 508 C293 508 332 459 332 377 L332 250 C131 159 45 113 45 81 C45 32 96 -9 156 -9 C197 -9 265 24 332 88 L332 82 C332 35 371 -4 418 -4 C457 -4 497 33 505 78 L505 77 L505 77 Z M332 249 L332 90 C281 42 222 17 183 17 C135 17 95 48 95 86 C95 130 166 173 332 249 L332 249 Z " />
<glyph glyph-name="adieresis" unicode="&#xe4;" horiz-adv-x="494" d="M317 615 C335 615 350 630 350 647 C350 665 335 680 317 680 C300 680 285 665 285 647 C285 630 300 615 317 615 L317 615 Z M180 615 C198 615 213 630 213 647 C213 665 198 680 180 680 C163 680 148 665 148 647 C148 630 163 615 180 615 L180 615 Z M505 77 L494 83 C489 54 464 31 439 31 C408 31 382 54 382 81 L382 358 C382 453 321 510 249 510 C149 510 65 409 65 360 C65 341 77 325 90 325 C108 325 123 340 123 350 C123 364 103 381 103 392 C103 430 168 508 246 508 C293 508 332 459 332 377 L332 250 C131 159 45 113 45 81 C45 32 96 -9 156 -9 C197 -9 265 24 332 88 L332 82 C332 35 371 -4 418 -4 C457 -4 497 33 505 78 L505 77 L505 77 Z M332 249 L332 90 C281 42 222 17 183 17 C135 17 95 48 95 86 C95 130 166 173 332 249 L332 249 Z " />
<glyph glyph-name="aring" unicode="&#xe5;" horiz-adv-x="494" d="M249 572 C209 572 167 614 167 655 C167 700 204 738 249 738 C294 738 331 700 331 655 C331 614 289 572 249 572 L249 572 Z M152 655 C152 608 201 560 249 560 C296 560 345 608 345 655 C345 707 301 750 249 750 C196 750 152 707 152 655 L152 655 Z M505 77 L494 83 C489 54 464 31 439 31 C408 31 382 54 382 81 L382 358 C382 453 321 510 249 510 C149 510 65 409 65 360 C65 341 77 325 90 325 C108 325 123 340 123 350 C123 364 103 381 103 392 C103 430 168 508 246 508 C293 508 332 459 332 377 L332 250 C131 159 45 113 45 81 C45 32 96 -9 156 -9 C197 -9 265 24 332 88 L332 82 C332 35 371 -4 418 -4 C457 -4 497 33 505 78 L505 77 L505 77 Z M332 249 L332 90 C281 42 222 17 183 17 C135 17 95 48 95 86 C95 130 166 173 332 249 L332 249 Z " />
<glyph glyph-name="ccedilla" unicode="&#xe7;" horiz-adv-x="500" d="M232 -92 L273 -10 C348 -9 438 54 471 128 L464 131 C431 57 345 -5 275 -5 C177 -5 95 118 95 264 C95 397 189 508 301 508 C348 508 404 461 424 405 C430 391 441 380 449 380 C468 380 480 391 474 405 C453 462 375 510 302 510 C162 510 45 386 45 239 C45 103 148 -10 272 -10 L226 -102 L227 -103 C243 -95 271 -88 287 -88 C320 -88 348 -112 348 -141 C348 -183 320 -218 286 -218 C259 -218 222 -207 204 -194 L204 -195 C222 -209 260 -220 287 -220 C336 -220 377 -183 377 -139 C377 -110 337 -86 289 -86 C266 -86 241 -89 233 -92 L232 -92 L232 -92 Z " />
<glyph glyph-name="egrave" unicode="&#xe8;" horiz-adv-x="514" d="M176 709 C143 747 113 779 108 779 C96 779 83 767 83 755 C83 750 115 719 153 686 L292 563 L299 570 L176 709 L176 709 Z M102 320 L429 320 L471 320 L485 320 C470 444 383 510 289 510 C154 510 42 385 42 235 C42 101 145 -10 269 -10 C352 -10 445 55 473 133 L467 136 C439 59 350 -5 271 -5 C175 -5 95 113 95 255 C95 277 97 299 101 320 L102 320 L102 320 Z M428 322 L101 322 C124 428 200 508 288 508 C352 508 414 444 428 322 L428 322 Z " />
<glyph glyph-name="eacute" unicode="&#xe9;" horiz-adv-x="514" d="M296 563 L435 686 C473 720 505 751 505 755 C505 767 492 779 480 779 C477 779 446 747 412 709 L289 570 L296 563 L296 563 Z M102 320 L429 320 L471 320 L485 320 C470 444 383 510 289 510 C154 510 42 385 42 235 C42 101 145 -10 269 -10 C352 -10 445 55 473 133 L467 136 C439 59 350 -5 271 -5 C175 -5 95 113 95 255 C95 277 97 299 101 320 L102 320 L102 320 Z M428 322 L101 322 C124 428 200 508 288 508 C352 508 414 444 428 322 L428 322 Z " />
<glyph glyph-name="ecircumflex" unicode="&#xea;" horiz-adv-x="514" d="M289 727 L431 558 L438 563 L307 765 C304 770 294 783 289 783 C284 783 275 770 271 765 L140 563 L147 558 L289 727 L289 727 Z M102 320 L429 320 L471 320 L485 320 C470 444 383 510 289 510 C154 510 42 385 42 235 C42 101 145 -10 269 -10 C352 -10 445 55 473 133 L467 136 C439 59 350 -5 271 -5 C175 -5 95 113 95 255 C95 277 97 299 101 320 L102 320 L102 320 Z M428 322 L101 322 C124 428 200 508 288 508 C352 508 414 444 428 322 L428 322 Z " />
<glyph glyph-name="edieresis" unicode="&#xeb;" horiz-adv-x="514" d="M357 615 C375 615 390 630 390 647 C390 665 375 680 357 680 C340 680 325 665 325 647 C325 630 340 615 357 615 L357 615 Z M221 615 C238 615 253 630 253 647 C253 665 238 680 221 680 C203 680 188 665 188 647 C188 630 203 615 221 615 L221 615 Z M102 320 L429 320 L471 320 L485 320 C470 444 383 510 289 510 C154 510 42 385 42 235 C42 101 145 -10 269 -10 C352 -10 445 55 473 133 L467 136 C439 59 350 -5 271 -5 C175 -5 95 113 95 255 C95 277 97 299 101 320 L102 320 L102 320 Z M428 322 L101 322 C124 428 200 508 288 508 C352 508 414 444 428 322 L428 322 Z " />
<glyph glyph-name="igrave" unicode="&#xec;" horiz-adv-x="270" d="M36 709 C3 747 -28 779 -32 779 C-44 779 -57 767 -57 755 C-57 750 -25 719 13 686 L152 563 L158 570 L36 709 L36 709 Z M174 23 L174 406 L174 500 L165 500 L59 443 L59 439 C108 429 123 422 123 406 L123 23 C123 18 108 15 90 12 L60 8 L60 4 L60 0 L150 0 L239 0 L239 4 L239 8 L208 12 C190 15 174 18 174 23 L174 23 Z " />
<glyph glyph-name="iacute" unicode="&#xed;" horiz-adv-x="270" d="M36 709 C3 747 -28 779 -32 779 C-44 779 -57 767 -57 755 C-57 750 -25 719 13 686 L152 563 L158 570 L36 709 L36 709 Z M174 23 L174 406 L174 500 L165 500 L59 443 L59 439 C108 429 123 422 123 406 L123 23 C123 18 108 15 90 12 L60 8 L60 4 L60 0 L150 0 L239 0 L239 4 L239 8 L208 12 C190 15 174 18 174 23 L174 23 Z " />
<glyph glyph-name="icircumflex" unicode="&#xee;" horiz-adv-x="270" d="M149 727 L292 558 L299 563 L167 765 C164 770 155 783 150 783 C144 783 135 770 132 765 L0 563 L7 558 L149 727 L149 727 Z M175 23 L175 406 L175 500 L166 500 L60 443 L60 439 C109 429 124 422 124 406 L124 23 C124 18 109 15 91 12 L61 8 L61 4 L61 0 L151 0 L240 0 L240 4 L240 8 L209 12 C191 15 175 18 175 23 L175 23 Z " />
<glyph glyph-name="idieresis" unicode="&#xef;" horiz-adv-x="270" d="M217 615 C234 615 249 630 249 647 C249 665 234 680 217 680 C200 680 185 665 185 647 C185 630 200 615 217 615 L217 615 Z M80 615 C97 615 112 630 112 647 C112 665 97 680 80 680 C63 680 48 665 48 647 C48 630 63 615 80 615 L80 615 Z M174 23 L174 406 L174 500 L165 500 L59 443 L59 439 C108 429 123 422 123 406 L123 23 C123 18 108 15 90 12 L60 8 L60 4 L60 0 L150 0 L239 0 L239 4 L239 8 L208 12 C190 15 174 18 174 23 L174 23 Z " />
<glyph glyph-name="ntilde" unicode="&#xf1;" horiz-adv-x="613" d="M173 620 C173 656 193 686 218 686 C271 686 336 621 389 621 C422 621 449 664 449 716 L448 716 C448 684 426 656 401 656 C347 656 283 721 229 721 C198 721 172 675 172 620 L173 620 L173 620 Z M467 23 C467 18 452 15 434 12 L404 8 L404 4 L404 0 L492 0 L581 0 L581 4 L581 8 L551 12 C532 15 517 18 517 23 L517 335 C517 430 452 510 354 510 C296 510 206 452 155 381 L155 435 L155 500 L146 500 L38 460 L38 456 L38 452 L69 460 C89 464 105 457 105 420 L105 23 C105 18 90 15 72 12 L42 8 L42 4 L42 0 L130 0 L218 0 L218 4 L218 8 L188 12 C170 15 155 18 155 23 L155 373 C200 436 283 487 340 487 C416 487 467 418 467 335 L467 23 L467 23 Z " />
<glyph glyph-name="ograve" unicode="&#xf2;" horiz-adv-x="568" d="M283 -8 C182 -8 98 109 98 250 C98 391 182 508 283 508 C384 508 469 391 469 250 C469 109 384 -8 283 -8 L283 -8 Z M42 250 C42 108 152 -10 283 -10 C414 -10 524 108 524 250 C524 392 414 510 283 510 C152 510 42 392 42 250 L42 250 Z M170 709 C137 747 107 779 102 779 C90 779 77 767 77 755 C77 750 109 719 147 686 L287 563 L293 570 L170 709 L170 709 Z " />
<glyph glyph-name="oacute" unicode="&#xf3;" horiz-adv-x="568" d="M290 563 L429 686 C467 720 499 751 499 755 C499 767 486 779 474 779 C471 779 440 747 406 709 L283 570 L290 563 L290 563 Z M283 -8 C182 -8 98 109 98 250 C98 391 182 508 283 508 C384 508 469 391 469 250 C469 109 384 -8 283 -8 L283 -8 Z M42 250 C42 108 152 -10 283 -10 C414 -10 524 108 524 250 C524 392 414 510 283 510 C152 510 42 392 42 250 L42 250 Z " />
<glyph glyph-name="ocircumflex" unicode="&#xf4;" horiz-adv-x="568" d="M283 -8 C182 -8 98 109 98 250 C98 391 182 508 283 508 C384 508 469 391 469 250 C469 109 384 -8 283 -8 L283 -8 Z M42 250 C42 108 152 -10 283 -10 C414 -10 524 108 524 250 C524 392 414 510 283 510 C152 510 42 392 42 250 L42 250 Z M283 727 L425 558 L432 563 L301 765 C298 770 288 783 283 783 C278 783 269 770 266 765 L134 563 L141 558 L283 727 L283 727 Z " />
<glyph glyph-name="otilde" unicode="&#xf5;" horiz-adv-x="568" d="M146 620 C146 656 166 686 190 686 C244 686 308 621 362 621 C395 621 422 664 422 716 L420 716 C420 684 399 656 373 656 C320 656 255 721 202 721 C171 721 145 675 145 620 L146 620 L146 620 Z M283 -8 C182 -8 98 109 98 250 C98 391 182 508 283 508 C384 508 469 391 469 250 C469 109 384 -8 283 -8 L283 -8 Z M42 250 C42 108 152 -10 283 -10 C414 -10 524 108 524 250 C524 392 414 510 283 510 C152 510 42 392 42 250 L42 250 Z " />
<glyph glyph-name="odieresis" unicode="&#xf6;" horiz-adv-x="568" d="M352 615 C369 615 384 630 384 647 C384 665 369 680 352 680 C334 680 319 665 319 647 C319 630 334 615 352 615 L352 615 Z M215 615 C232 615 247 630 247 647 C247 665 232 680 215 680 C197 680 182 665 182 647 C182 630 197 615 215 615 L215 615 Z M283 -8 C182 -8 98 109 98 250 C98 391 182 508 283 508 C384 508 469 391 469 250 C469 109 384 -8 283 -8 L283 -8 Z M42 250 C42 108 152 -10 283 -10 C414 -10 524 108 524 250 C524 392 414 510 283 510 C152 510 42 392 42 250 L42 250 Z " />
<glyph glyph-name="oslash" unicode="&#xf8;" horiz-adv-x="568" d="M43 -11 L114 66 C158 19 218 -10 283 -10 C414 -10 524 108 524 250 C524 320 497 385 454 432 L525 509 L523 511 L452 434 C408 481 348 510 283 510 C152 510 42 392 42 250 C42 180 69 115 112 68 L41 -9 L43 -11 L43 -11 Z M283 -8 C225 -8 172 31 138 91 L430 406 C454 362 469 308 469 249 C469 108 384 -9 283 -9 L283 -8 L283 -8 Z M136 93 C112 137 98 191 98 249 C98 390 182 507 283 507 C341 507 394 468 428 408 L136 93 L136 93 Z " />
<glyph glyph-name="ugrave" unicode="&#xf9;" horiz-adv-x="543" d="M153 709 C120 747 89 779 85 779 C73 779 60 767 60 755 C60 750 92 719 130 686 L269 563 L275 570 L153 709 L153 709 Z M402 82 L402 -10 L411 -10 L519 17 L519 21 L519 25 L488 22 C468 19 452 35 452 93 L452 477 L452 500 L400 500 L349 500 L349 496 L349 492 L378 488 C391 486 402 482 402 477 L402 134 C355 74 283 25 242 25 C180 25 129 86 129 159 L129 477 L129 500 L78 500 L27 500 L27 496 L27 492 L56 488 C68 486 79 482 79 477 L79 159 C79 67 142 -10 218 -10 C261 -10 343 54 403 131 L402 82 L402 82 Z " />
<glyph glyph-name="uacute" unicode="&#xfa;" horiz-adv-x="543" d="M272 563 L411 686 C449 720 481 751 481 755 C481 767 468 779 456 779 C453 779 423 747 388 709 L266 570 L272 563 L272 563 Z M402 82 L402 -10 L411 -10 L519 17 L519 21 L519 25 L488 22 C468 19 452 35 452 93 L452 477 L452 500 L400 500 L349 500 L349 496 L349 492 L378 488 C391 486 402 482 402 477 L402 134 C355 74 283 25 242 25 C180 25 129 86 129 159 L129 477 L129 500 L78 500 L27 500 L27 496 L27 492 L56 488 C68 486 79 482 79 477 L79 159 C79 67 142 -10 218 -10 C261 -10 343 54 403 131 L402 82 L402 82 Z " />
<glyph glyph-name="ucircumflex" unicode="&#xfb;" horiz-adv-x="543" d="M266 727 L409 558 L416 563 L284 765 C281 770 272 783 267 783 C261 783 252 770 249 765 L117 563 L124 558 L266 727 L266 727 Z M403 82 L403 -10 L412 -10 L520 17 L520 21 L520 25 L489 22 C469 19 453 35 453 93 L453 477 L453 500 L401 500 L350 500 L350 496 L350 492 L379 488 C392 486 403 482 403 477 L403 134 C356 74 284 25 243 25 C181 25 130 86 130 159 L130 477 L130 500 L79 500 L28 500 L28 496 L28 492 L57 488 C69 486 80 482 80 477 L80 159 C80 67 143 -10 219 -10 C262 -10 344 54 404 131 L403 82 L403 82 Z " />
<glyph glyph-name="udieresis" unicode="&#xfc;" horiz-adv-x="543" d="M334 615 C351 615 366 630 366 647 C366 665 351 680 334 680 C317 680 302 665 302 647 C302 630 317 615 334 615 L334 615 Z M197 615 C214 615 229 630 229 647 C229 665 214 680 197 680 C180 680 165 665 165 647 C165 630 180 615 197 615 L197 615 Z M402 82 L402 -10 L411 -10 L519 17 L519 21 L519 25 L488 22 C468 19 452 35 452 93 L452 477 L452 500 L400 500 L349 500 L349 496 L349 492 L378 488 C391 486 402 482 402 477 L402 134 C355 74 283 25 242 25 C180 25 129 86 129 159 L129 477 L129 500 L78 500 L27 500 L27 496 L27 492 L56 488 C68 486 79 482 79 477 L79 159 C79 67 142 -10 218 -10 C261 -10 343 54 403 131 L402 82 L402 82 Z " />
<glyph glyph-name="ydieresis" unicode="&#xff;" horiz-adv-x="495" d="M325 615 C343 615 358 630 358 647 C358 665 343 680 325 680 C308 680 293 665 293 647 C293 630 308 615 325 615 L325 615 Z M189 615 C206 615 221 630 221 647 C221 665 206 680 189 680 C171 680 156 665 156 647 C156 630 171 615 189 615 L189 615 Z M67 488 L227 -10 L184 -140 C180 -154 166 -165 154 -165 C143 -165 137 -147 126 -147 C110 -147 97 -158 97 -172 C97 -189 110 -203 127 -203 C154 -203 184 -181 193 -154 L242 -10 L404 456 L404 456 C412 480 420 487 427 488 L484 492 L484 496 L484 500 L419 500 L402 500 L396 500 L321 500 L321 496 L321 492 L375 488 C384 487 390 481 385 467 L385 467 L250 58 L122 487 L122 487 L177 491 L177 495 L177 499 L118 499 L94 499 L63 499 L10 499 L10 495 L10 491 L67 488 L67 488 Z " />
<glyph glyph-name="Amacron" unicode="&#x100;" horiz-adv-x="691" d="M222 901 L508 901 L508 936 L222 936 L222 901 L222 901 Z M582 95 L582 95 L393 732 L382 770 L376 770 C359 750 342 733 337 732 L340 722 L157 116 L157 116 C134 39 105 14 79 12 L18 8 L18 4 L18 0 L122 0 L125 0 L137 0 L255 0 L255 4 L255 8 L189 12 C156 14 136 40 160 116 L160 116 L209 279 L470 279 L524 95 L524 95 C542 34 529 14 505 12 L445 8 L445 4 L445 0 L552 0 L565 0 L611 0 L684 0 L684 4 L684 8 L627 12 C616 13 601 33 583 95 L582 95 L582 95 Z M210 281 L341 720 L469 281 L210 281 L210 281 Z " />
<glyph glyph-name="amacron" unicode="&#x101;" horiz-adv-x="494" d="M106 651 L392 651 L392 686 L106 686 L106 651 L106 651 Z M505 77 L494 83 C489 54 464 31 439 31 C408 31 382 54 382 81 L382 358 C382 453 321 510 249 510 C149 510 65 409 65 360 C65 341 77 325 90 325 C108 325 123 340 123 350 C123 364 103 381 103 392 C103 430 168 508 246 508 C293 508 332 459 332 377 L332 250 C131 159 45 113 45 81 C45 32 96 -9 156 -9 C197 -9 265 24 332 88 L332 82 C332 35 371 -4 418 -4 C457 -4 497 33 505 78 L505 77 L505 77 Z M332 249 L332 90 C281 42 222 17 183 17 C135 17 95 48 95 86 C95 130 166 173 332 249 L332 249 Z " />
<glyph glyph-name="Abreve" unicode="&#x102;" horiz-adv-x="691" d="M245 995 C248 937 303 889 365 889 C427 889 481 937 484 994 L474 995 C472 956 422 924 365 924 C308 924 258 957 256 996 L245 995 L245 995 Z M582 95 L582 95 L393 732 L382 770 L376 770 C359 750 342 733 337 732 L340 722 L157 116 L157 116 C134 39 105 14 79 12 L18 8 L18 4 L18 0 L122 0 L125 0 L137 0 L255 0 L255 4 L255 8 L189 12 C156 14 136 40 160 116 L160 116 L209 279 L470 279 L524 95 L524 95 C542 34 529 14 505 12 L445 8 L445 4 L445 0 L552 0 L565 0 L611 0 L684 0 L684 4 L684 8 L627 12 C616 13 601 33 583 95 L582 95 L582 95 Z M210 281 L341 720 L469 281 L210 281 L210 281 Z " />
<glyph glyph-name="abreve" unicode="&#x103;" horiz-adv-x="494" d="M129 745 C132 687 187 639 249 639 C311 639 365 687 368 744 L358 745 C356 706 306 674 249 674 C192 674 142 707 140 746 L129 745 L129 745 Z M505 77 L494 83 C489 54 464 31 439 31 C408 31 382 54 382 81 L382 358 C382 453 321 510 249 510 C149 510 65 409 65 360 C65 341 77 325 90 325 C108 325 123 340 123 350 C123 364 103 381 103 392 C103 430 168 508 246 508 C293 508 332 459 332 377 L332 250 C131 159 45 113 45 81 C45 32 96 -9 156 -9 C197 -9 265 24 332 88 L332 82 C332 35 371 -4 418 -4 C457 -4 497 33 505 78 L505 77 L505 77 Z M332 249 L332 90 C281 42 222 17 183 17 C135 17 95 48 95 86 C95 130 166 173 332 249 L332 249 Z " />
<glyph glyph-name="Cacute" unicode="&#x106;" horiz-adv-x="691" d="M384 813 L523 936 C561 970 593 1001 593 1005 C593 1017 580 1029 568 1029 C565 1029 534 997 500 959 L378 820 L384 813 L384 813 Z M546 54 L546 54 C493 17 432 -8 368 -8 C234 -8 123 166 123 375 C123 584 239 758 378 758 C436 758 487 739 532 709 L530 710 C551 696 607 614 633 566 C638 557 642 549 642 549 L643 549 L645 549 L645 628 L645 634 L645 719 L643 719 L642 719 C642 719 638 709 633 696 C627 683 603 678 581 691 C528 732 462 760 377 760 C205 760 62 585 62 375 C62 165 201 -10 367 -10 C446 -10 517 17 573 57 L574 57 C596 73 624 65 632 51 C638 39 644 28 644 28 L644 114 L644 122 L644 201 L642 201 L641 201 C641 201 637 193 632 184 C607 139 560 64 545 54 L546 54 L546 54 Z " />
<glyph glyph-name="Ccircumflex" unicode="&#x108;" horiz-adv-x="691" d="M546 54 L546 54 C493 17 432 -8 368 -8 C234 -8 123 166 123 375 C123 584 239 758 378 758 C436 758 487 739 532 709 L530 710 C551 696 607 614 633 566 C638 557 642 549 642 549 L643 549 L645 549 L645 628 L645 634 L645 719 L643 719 L642 719 C642 719 638 709 633 696 C627 683 603 678 581 691 C528 732 462 760 377 760 C205 760 62 585 62 375 C62 165 201 -10 367 -10 C446 -10 517 17 573 57 L574 57 C596 73 624 65 632 51 C638 39 644 28 644 28 L644 114 L644 122 L644 201 L642 201 L641 201 C641 201 637 193 632 184 C607 139 560 64 545 54 L546 54 L546 54 Z M377 977 L520 808 L526 813 L395 1015 C392 1020 382 1033 377 1033 C372 1033 363 1020 360 1015 L228 813 L235 808 L377 977 L377 977 Z " />
<glyph glyph-name="Cdot" unicode="&#x10a;" horiz-adv-x="691" d="M377 865 C395 865 410 880 410 897 C410 915 395 930 377 930 C360 930 345 915 345 897 C345 880 360 865 377 865 L377 865 Z M546 54 L546 54 C493 17 432 -8 368 -8 C234 -8 123 166 123 375 C123 584 239 758 378 758 C436 758 487 739 532 709 L530 710 C551 696 607 614 633 566 C638 557 642 549 642 549 L643 549 L645 549 L645 628 L645 634 L645 719 L643 719 L642 719 C642 719 638 709 633 696 C627 683 603 678 581 691 C528 732 462 760 377 760 C205 760 62 585 62 375 C62 165 201 -10 367 -10 C446 -10 517 17 573 57 L574 57 C596 73 624 65 632 51 C638 39 644 28 644 28 L644 114 L644 122 L644 201 L642 201 L641 201 C641 201 637 193 632 184 C607 139 560 64 545 54 L546 54 L546 54 Z " />
<glyph glyph-name="cdot" unicode="&#x10b;" horiz-adv-x="500" d="M301 615 C318 615 333 630 333 647 C333 665 318 680 301 680 C283 680 268 665 268 647 C268 630 283 615 301 615 L301 615 Z M470 128 L463 131 C430 57 344 -5 274 -5 C176 -5 94 118 94 264 C94 397 188 508 300 508 C347 508 403 461 423 405 C429 391 440 380 448 380 C467 380 479 391 473 405 C452 462 374 510 301 510 C161 510 44 386 44 239 C44 103 147 -10 271 -10 C346 -10 437 53 470 128 L470 128 Z " />
<glyph glyph-name="Ccaron" unicode="&#x10c;" horiz-adv-x="691" d="M546 54 L546 54 C493 17 432 -8 368 -8 C234 -8 123 166 123 375 C123 584 239 758 378 758 C436 758 487 739 532 709 L530 710 C551 696 607 614 633 566 C638 557 642 549 642 549 L643 549 L645 549 L645 628 L645 634 L645 719 L643 719 L642 719 C642 719 638 709 633 696 C627 683 603 678 581 691 C528 732 462 760 377 760 C205 760 62 585 62 375 C62 165 201 -10 367 -10 C446 -10 517 17 573 57 L574 57 C596 73 624 65 632 51 C638 39 644 28 644 28 L644 114 L644 122 L644 201 L642 201 L641 201 C641 201 637 193 632 184 C607 139 560 64 545 54 L546 54 L546 54 Z M377 873 L520 1042 L526 1037 L395 835 C392 830 382 817 377 817 C372 817 363 830 360 835 L228 1037 L235 1042 L377 873 L377 873 Z " />
<glyph glyph-name="ccaron" unicode="&#x10d;" horiz-adv-x="500" d="M470 128 L463 131 C430 57 344 -5 274 -5 C176 -5 94 118 94 264 C94 397 188 508 300 508 C347 508 403 461 423 405 C429 391 440 380 448 380 C467 380 479 391 473 405 C452 462 374 510 301 510 C161 510 44 386 44 239 C44 103 147 -10 271 -10 C346 -10 437 53 470 128 L470 128 Z M301 623 L444 792 L451 787 L319 585 C316 580 307 567 302 567 C297 567 287 580 284 585 L153 787 L159 792 L301 623 L301 623 Z " />
<glyph glyph-name="Dcaron" unicode="&#x10e;" horiz-adv-x="772" d="M394 873 L536 1042 L543 1037 L412 835 C408 830 399 817 394 817 C389 817 380 830 376 835 L245 1037 L252 1042 L394 873 L394 873 Z M132 693 L132 57 C132 27 111 15 86 12 L49 8 L49 4 L49 0 L119 0 L132 0 L188 0 L265 0 C511 0 717 150 717 375 C717 579 551 750 303 750 L188 750 L132 750 L119 750 L49 750 L49 746 L49 742 L86 738 C111 735 132 723 132 693 L132 693 Z M188 748 L296 748 C512 748 656 578 656 375 C656 151 477 2 262 2 C202 2 188 25 188 52 L188 57 L188 693 L188 748 L188 748 Z " />
<glyph glyph-name="dcaron" unicode="&#x10f;" horiz-adv-x="571" d="M591 647 C602 687 611 734 611 751 C611 756 601 759 589 759 C579 759 569 693 565 652 L552 541 L561 540 L591 647 L591 647 Z M455 90 C425 49 357 16 305 16 C197 16 106 130 106 267 C106 391 190 495 316 495 C363 495 428 442 455 389 L455 102 L455 90 L455 90 Z M455 73 L455 -10 L463 -10 L572 17 L572 21 L572 25 L540 22 C521 19 505 40 505 113 L505 683 L505 750 L496 750 L387 719 L387 715 L387 711 L419 716 C438 719 455 709 455 671 L455 441 C418 479 359 510 309 510 C156 510 54 393 54 254 C54 113 158 -5 283 -5 C346 -5 423 30 454 73 L455 73 L455 73 Z " />
<glyph glyph-name="Emacron" unicode="&#x112;" horiz-adv-x="590" d="M178 901 L464 901 L464 936 L178 936 L178 901 L178 901 Z M443 0 L524 0 C526 14 529 37 531 50 C533 64 536 87 538 101 L534 101 L530 101 L521 61 C513 29 491 2 443 2 L250 2 C208 2 198 25 198 52 L198 57 L198 363 L358 363 C405 363 423 330 427 292 L431 252 L435 252 L439 252 L439 363 L439 364 L439 365 L439 476 L435 476 L431 476 L427 436 C423 397 405 365 358 365 L198 365 L198 693 L198 748 L418 748 C476 748 486 721 491 689 L498 649 L502 649 L506 649 C505 663 504 686 503 700 C502 713 500 736 499 750 L418 750 L198 750 L143 750 L129 750 L59 750 L59 746 L59 742 L96 738 C122 735 143 723 143 693 L143 57 C143 27 122 15 96 12 L59 8 L59 4 L59 0 L129 0 L143 0 L198 0 L443 0 L443 0 Z " />
<glyph glyph-name="emacron" unicode="&#x113;" horiz-adv-x="514" d="M146 651 L432 651 L432 686 L146 686 L146 651 L146 651 Z M102 320 L429 320 L471 320 L485 320 C470 444 383 510 289 510 C154 510 42 385 42 235 C42 101 145 -10 269 -10 C352 -10 445 55 473 133 L467 136 C439 59 350 -5 271 -5 C175 -5 95 113 95 255 C95 277 97 299 101 320 L102 320 L102 320 Z M428 322 L101 322 C124 428 200 508 288 508 C352 508 414 444 428 322 L428 322 Z " />
<glyph glyph-name="Ebreve" unicode="&#x114;" horiz-adv-x="590" d="M202 995 C205 937 259 889 321 889 C383 889 437 937 440 994 L430 995 C428 956 378 924 321 924 C264 924 214 957 212 996 L202 995 L202 995 Z M443 0 L524 0 C526 14 529 37 531 50 C533 64 536 87 538 101 L534 101 L530 101 L521 61 C513 29 491 2 443 2 L250 2 C208 2 198 25 198 52 L198 57 L198 363 L358 363 C405 363 423 330 427 292 L431 252 L435 252 L439 252 L439 363 L439 364 L439 365 L439 476 L435 476 L431 476 L427 436 C423 397 405 365 358 365 L198 365 L198 693 L198 748 L418 748 C476 748 486 721 491 689 L498 649 L502 649 L506 649 C505 663 504 686 503 700 C502 713 500 736 499 750 L418 750 L198 750 L143 750 L129 750 L59 750 L59 746 L59 742 L96 738 C122 735 143 723 143 693 L143 57 C143 27 122 15 96 12 L59 8 L59 4 L59 0 L129 0 L143 0 L198 0 L443 0 L443 0 Z " />
<glyph glyph-name="ebreve" unicode="&#x115;" horiz-adv-x="514" d="M170 745 C173 687 227 639 289 639 C351 639 405 687 408 744 L398 745 C396 706 346 674 289 674 C232 674 182 707 180 746 L170 745 L170 745 Z M102 320 L429 320 L471 320 L485 320 C470 444 383 510 289 510 C154 510 42 385 42 235 C42 101 145 -10 269 -10 C352 -10 445 55 473 133 L467 136 C439 59 350 -5 271 -5 C175 -5 95 113 95 255 C95 277 97 299 101 320 L102 320 L102 320 Z M428 322 L101 322 C124 428 200 508 288 508 C352 508 414 444 428 322 L428 322 Z " />
<glyph glyph-name="Edot" unicode="&#x116;" horiz-adv-x="590" d="M321 865 C338 865 353 880 353 897 C353 915 338 930 321 930 C304 930 289 915 289 897 C289 880 304 865 321 865 L321 865 Z M443 0 L524 0 C526 14 529 37 531 50 C533 64 536 87 538 101 L534 101 L530 101 L521 61 C513 29 491 2 443 2 L250 2 C208 2 198 25 198 52 L198 57 L198 363 L358 363 C405 363 423 330 427 292 L431 252 L435 252 L439 252 L439 363 L439 364 L439 365 L439 476 L435 476 L431 476 L427 436 C423 397 405 365 358 365 L198 365 L198 693 L198 748 L418 748 C476 748 486 721 491 689 L498 649 L502 649 L506 649 C505 663 504 686 503 700 C502 713 500 736 499 750 L418 750 L198 750 L143 750 L129 750 L59 750 L59 746 L59 742 L96 738 C122 735 143 723 143 693 L143 57 C143 27 122 15 96 12 L59 8 L59 4 L59 0 L129 0 L143 0 L198 0 L443 0 L443 0 Z " />
<glyph glyph-name="edot" unicode="&#x117;" horiz-adv-x="514" d="M289 615 C306 615 321 630 321 647 C321 665 306 680 289 680 C272 680 257 665 257 647 C257 630 272 615 289 615 L289 615 Z M102 320 L429 320 L471 320 L485 320 C470 444 383 510 289 510 C154 510 42 385 42 235 C42 101 145 -10 269 -10 C352 -10 445 55 473 133 L467 136 C439 59 350 -5 271 -5 C175 -5 95 113 95 255 C95 277 97 299 101 320 L102 320 L102 320 Z M428 322 L101 322 C124 428 200 508 288 508 C352 508 414 444 428 322 L428 322 Z " />
<glyph glyph-name="Ecaron" unicode="&#x11a;" horiz-adv-x="590" d="M321 873 L463 1042 L470 1037 L339 835 C335 830 326 817 321 817 C316 817 307 830 303 835 L172 1037 L179 1042 L321 873 L321 873 Z M443 0 L524 0 C526 14 529 37 531 50 C533 64 536 87 538 101 L534 101 L530 101 L521 61 C513 29 491 2 443 2 L250 2 C208 2 198 25 198 52 L198 57 L198 363 L358 363 C405 363 423 330 427 292 L431 252 L435 252 L439 252 L439 363 L439 364 L439 365 L439 476 L435 476 L431 476 L427 436 C423 397 405 365 358 365 L198 365 L198 693 L198 748 L418 748 C476 748 486 721 491 689 L498 649 L502 649 L506 649 C505 663 504 686 503 700 C502 713 500 736 499 750 L418 750 L198 750 L143 750 L129 750 L59 750 L59 746 L59 742 L96 738 C122 735 143 723 143 693 L143 57 C143 27 122 15 96 12 L59 8 L59 4 L59 0 L129 0 L143 0 L198 0 L443 0 L443 0 Z " />
<glyph glyph-name="ecaron" unicode="&#x11b;" horiz-adv-x="514" d="M289 623 L431 792 L438 787 L307 585 C304 580 294 567 289 567 C284 567 275 580 271 585 L140 787 L147 792 L289 623 L289 623 Z M102 320 L429 320 L471 320 L485 320 C470 444 383 510 289 510 C154 510 42 385 42 235 C42 101 145 -10 269 -10 C352 -10 445 55 473 133 L467 136 C439 59 350 -5 271 -5 C175 -5 95 113 95 255 C95 277 97 299 101 320 L102 320 L102 320 Z M428 322 L101 322 C124 428 200 508 288 508 C352 508 414 444 428 322 L428 322 Z " />
<glyph glyph-name="Gcircumflex" unicode="&#x11c;" horiz-adv-x="755" d="M378 977 L521 808 L527 813 L396 1015 C393 1020 383 1033 378 1033 C373 1033 364 1020 361 1015 L229 813 L236 808 L378 977 L378 977 Z M572 271 L573 77 C569 46 518 20 449 9 L534 16 C487 8 435 4 379 4 C240 4 125 173 125 375 C125 584 241 758 380 758 C438 758 489 739 534 709 L532 710 C553 696 609 614 635 566 C640 557 644 549 644 549 L645 549 L647 549 L647 628 L647 634 L647 719 L645 719 L644 719 C644 719 640 709 635 696 C629 683 605 678 583 691 C530 732 464 760 379 760 C207 760 64 585 64 375 C64 165 205 -10 374 -10 C457 -10 539 5 610 27 L630 31 L630 33 C657 42 682 52 705 63 L704 64 C683 54 658 45 630 37 L630 271 C630 299 646 310 666 313 L697 317 L697 321 L697 325 L596 325 L495 325 L495 321 L495 317 L530 313 C554 310 574 299 574 271 L572 271 L572 271 Z M451 9 C429 5 405 3 380 3 L451 9 L451 9 Z " />
<glyph glyph-name="Gbreve" unicode="&#x11e;" horiz-adv-x="755" d="M258 995 C261 937 315 889 377 889 C439 889 494 937 497 994 L486 995 C484 956 435 924 377 924 C320 924 270 957 268 996 L258 995 L258 995 Z M571 271 L572 77 C568 46 517 20 448 9 L533 16 C486 8 434 4 378 4 C239 4 124 173 124 375 C124 584 240 758 379 758 C437 758 488 739 533 709 L531 710 C552 696 608 614 634 566 C639 557 643 549 643 549 L644 549 L646 549 L646 628 L646 634 L646 719 L644 719 L643 719 C643 719 639 709 634 696 C628 683 604 678 582 691 C529 732 463 760 378 760 C206 760 63 585 63 375 C63 165 204 -10 373 -10 C456 -10 538 5 609 27 L629 31 L629 33 C656 42 681 52 704 63 L703 64 C682 54 657 45 629 37 L629 271 C629 299 645 310 665 313 L696 317 L696 321 L696 325 L595 325 L494 325 L494 321 L494 317 L529 313 C553 310 573 299 573 271 L571 271 L571 271 Z M450 9 C428 5 404 3 379 3 L450 9 L450 9 Z " />
<glyph glyph-name="gbreve" unicode="&#x11f;" horiz-adv-x="510" d="M127 745 C130 687 184 639 246 639 C308 639 362 687 365 744 L355 745 C353 706 303 674 246 674 C189 674 139 707 137 746 L127 745 L127 745 Z M125 350 C125 431 180 498 246 498 C312 498 367 431 367 350 C367 268 312 200 246 200 C180 200 125 268 125 350 L125 350 Z M166 18 C171 18 176 18 181 18 L291 18 C386 18 436 -31 436 -89 C436 -160 360 -218 268 -218 C174 -218 95 -155 95 -80 C95 -40 126 2 167 18 L166 18 L166 18 Z M156 19 C99 1 54 -47 54 -93 C54 -168 150 -230 265 -230 C381 -230 477 -161 477 -79 C477 1 415 67 297 67 L184 67 C130 67 85 92 85 122 C85 158 159 188 247 188 C340 188 418 262 418 350 C418 363 416 376 413 388 C430 436 466 474 495 474 C510 474 523 456 523 434 C523 424 534 416 547 416 C558 416 567 427 567 440 C567 470 544 495 516 495 C475 495 428 452 408 399 C385 463 320 510 245 510 C152 510 74 437 74 350 C74 278 126 215 196 194 C116 184 55 148 55 106 C55 63 98 26 154 17 L156 19 L156 19 Z " />
<glyph glyph-name="Gdot" unicode="&#x120;" horiz-adv-x="755" d="M377 865 C395 865 410 880 410 897 C410 915 395 930 377 930 C360 930 345 915 345 897 C345 880 360 865 377 865 L377 865 Z M571 271 L572 77 C568 46 517 20 448 9 L533 16 C486 8 434 4 378 4 C239 4 124 173 124 375 C124 584 240 758 379 758 C437 758 488 739 533 709 L531 710 C552 696 608 614 634 566 C639 557 643 549 643 549 L644 549 L646 549 L646 628 L646 634 L646 719 L644 719 L643 719 C643 719 639 709 634 696 C628 683 604 678 582 691 C529 732 463 760 378 760 C206 760 63 585 63 375 C63 165 204 -10 373 -10 C456 -10 538 5 609 27 L629 31 L629 33 C656 42 681 52 704 63 L703 64 C682 54 657 45 629 37 L629 271 C629 299 645 310 665 313 L696 317 L696 321 L696 325 L595 325 L494 325 L494 321 L494 317 L529 313 C553 310 573 299 573 271 L571 271 L571 271 Z M450 9 C428 5 404 3 379 3 L450 9 L450 9 Z " />
<glyph glyph-name="gdot" unicode="&#x121;" horiz-adv-x="510" d="M246 615 C263 615 278 630 278 647 C278 665 263 680 246 680 C229 680 214 665 214 647 C214 630 229 615 246 615 L246 615 Z M125 350 C125 431 180 498 246 498 C312 498 367 431 367 350 C367 268 312 200 246 200 C180 200 125 268 125 350 L125 350 Z M166 18 C171 18 176 18 181 18 L291 18 C386 18 436 -31 436 -89 C436 -160 360 -218 268 -218 C174 -218 95 -155 95 -80 C95 -40 126 2 167 18 L166 18 L166 18 Z M156 19 C99 1 54 -47 54 -93 C54 -168 150 -230 265 -230 C381 -230 477 -161 477 -79 C477 1 415 67 297 67 L184 67 C130 67 85 92 85 122 C85 158 159 188 247 188 C340 188 418 262 418 350 C418 363 416 376 413 388 C430 436 466 474 495 474 C510 474 523 456 523 434 C523 424 534 416 547 416 C558 416 567 427 567 440 C567 470 544 495 516 495 C475 495 428 452 408 399 C385 463 320 510 245 510 C152 510 74 437 74 350 C74 278 126 215 196 194 C116 184 55 148 55 106 C55 63 98 26 154 17 L156 19 L156 19 Z " />
<glyph glyph-name="Hcircumflex" unicode="&#x124;" horiz-adv-x="779" d="M413 977 L555 808 L562 813 L431 1015 C428 1020 418 1033 413 1033 C408 1033 399 1020 396 1015 L264 813 L271 808 L413 977 L413 977 Z M648 54 L648 696 C648 724 669 735 694 738 L731 742 L731 746 L731 750 L620 750 L508 750 L508 746 L508 742 L545 738 C571 735 592 724 592 696 L592 384 L234 384 L234 696 C234 724 255 735 281 738 L318 742 L318 746 L318 750 L207 750 L95 750 L95 746 L95 742 L132 738 C158 735 179 724 179 696 L179 54 C179 26 158 15 132 12 L95 8 L95 4 L95 0 L207 0 L318 0 L318 4 L318 8 L281 12 C255 15 234 26 234 54 L234 382 L592 382 L592 54 C592 26 571 15 545 12 L508 8 L508 4 L508 0 L620 0 L731 0 L731 4 L731 8 L694 12 C669 15 648 26 648 54 L648 54 Z " />
<glyph glyph-name="Itilde" unicode="&#x128;" horiz-adv-x="336" d="M39 870 C39 906 59 936 84 936 C137 936 202 871 255 871 C288 871 315 914 315 966 L314 966 C314 934 292 906 266 906 C213 906 149 971 95 971 C64 971 38 925 38 870 L39 870 L39 870 Z M204 54 L204 696 C204 724 225 735 251 738 L288 742 L288 746 L288 750 L177 750 L65 750 L65 746 L65 742 L102 738 C128 735 149 724 149 696 L149 54 C149 26 128 15 102 12 L65 8 L65 4 L65 0 L177 0 L288 0 L288 4 L288 8 L251 12 C225 15 204 26 204 54 L204 54 Z " />
<glyph glyph-name="itilde" unicode="&#x129;" horiz-adv-x="270" d="M11 620 C11 656 31 686 56 686 C109 686 174 621 227 621 C260 621 287 664 287 716 L286 716 C286 684 264 656 238 656 C185 656 121 721 67 721 C36 721 10 675 10 620 L11 620 L11 620 Z M174 23 L174 406 L174 500 L165 500 L59 443 L59 439 C108 429 123 422 123 406 L123 23 C123 18 108 15 90 12 L60 8 L60 4 L60 0 L150 0 L239 0 L239 4 L239 8 L208 12 C190 15 174 18 174 23 L174 23 Z " />
<glyph glyph-name="Imacron" unicode="&#x12a;" horiz-adv-x="336" d="M33 901 L320 901 L320 936 L33 936 L33 901 L33 901 Z M204 54 L204 696 C204 724 225 735 251 738 L288 742 L288 746 L288 750 L177 750 L65 750 L65 746 L65 742 L102 738 C128 735 149 724 149 696 L149 54 C149 26 128 15 102 12 L65 8 L65 4 L65 0 L177 0 L288 0 L288 4 L288 8 L251 12 C225 15 204 26 204 54 L204 54 Z " />
<glyph glyph-name="imacron" unicode="&#x12b;" horiz-adv-x="270" d="M5 651 L292 651 L292 686 L5 686 L5 651 L5 651 Z M174 23 L174 406 L174 500 L165 500 L59 443 L59 439 C108 429 123 422 123 406 L123 23 C123 18 108 15 90 12 L60 8 L60 4 L60 0 L150 0 L239 0 L239 4 L239 8 L208 12 C190 15 174 18 174 23 L174 23 Z " />
<glyph glyph-name="Ibreve" unicode="&#x12c;" horiz-adv-x="336" d="M57 995 C60 937 115 889 177 889 C238 889 293 937 296 994 L285 995 C284 956 234 924 177 924 C119 924 69 957 68 996 L57 995 L57 995 Z M204 54 L204 696 C204 724 225 735 251 738 L288 742 L288 746 L288 750 L177 750 L65 750 L65 746 L65 742 L102 738 C128 735 149 724 149 696 L149 54 C149 26 128 15 102 12 L65 8 L65 4 L65 0 L177 0 L288 0 L288 4 L288 8 L251 12 C225 15 204 26 204 54 L204 54 Z " />
<glyph glyph-name="ibreve" unicode="&#x12d;" horiz-adv-x="270" d="M29 745 C32 687 87 639 149 639 C210 639 265 687 268 744 L257 745 C256 706 206 674 149 674 C91 674 41 707 40 746 L29 745 L29 745 Z M174 23 L174 406 L174 500 L165 500 L59 443 L59 439 C108 429 123 422 123 406 L123 23 C123 18 108 15 90 12 L60 8 L60 4 L60 0 L150 0 L239 0 L239 4 L239 8 L208 12 C190 15 174 18 174 23 L174 23 Z " />
<glyph glyph-name="Idot" unicode="&#x130;" horiz-adv-x="336" d="M177 865 C194 865 209 880 209 897 C209 915 194 930 177 930 C159 930 144 915 144 897 C144 880 159 865 177 865 L177 865 Z M204 54 L204 696 C204 724 225 735 251 738 L288 742 L288 746 L288 750 L177 750 L65 750 L65 746 L65 742 L102 738 C128 735 149 724 149 696 L149 54 C149 26 128 15 102 12 L65 8 L65 4 L65 0 L177 0 L288 0 L288 4 L288 8 L251 12 C225 15 204 26 204 54 L204 54 Z " />
<glyph glyph-name="dotlessi" unicode="&#x131;" horiz-adv-x="270" d="M174 23 L174 406 L174 500 L165 500 L59 443 L59 439 C108 429 123 422 123 406 L123 23 C123 18 108 15 90 12 L60 8 L60 4 L60 0 L150 0 L239 0 L239 4 L239 8 L208 12 C190 15 174 18 174 23 L174 23 Z " />
<glyph glyph-name="Jcircumflex" unicode="&#x134;" horiz-adv-x="336" d="M177 977 L320 808 L327 813 L195 1015 C192 1020 183 1033 178 1033 C172 1033 163 1020 160 1015 L28 813 L35 808 L177 977 L177 977 Z M150 696 L149 -31 C149 -173 75 -217 29 -217 C3 -217 10 -170 -15 -170 C-30 -170 -42 -182 -42 -196 C-42 -209 -11 -220 27 -220 C95 -220 206 -150 206 75 L205 696 C205 724 226 735 252 738 L289 742 L289 746 L289 750 L178 750 L66 750 L66 746 L66 742 L103 738 C129 735 150 724 150 696 L150 696 Z " />
<glyph glyph-name="Lacute" unicode="&#x139;" horiz-adv-x="589" d="M183 813 L322 936 C360 970 392 1001 392 1005 C392 1017 379 1029 367 1029 C364 1029 334 997 299 959 L177 820 L183 813 L183 813 Z M528 1 C533 19 540 48 545 66 C550 83 558 112 562 130 C562 130 561 130 559 131 C557 132 555 132 555 132 L540 92 C521 43 481 1 401 1 L256 1 C214 1 204 24 204 52 L204 57 L204 693 C204 723 225 735 251 738 L288 742 L288 746 L288 750 L204 750 L177 750 L149 750 L65 750 L65 746 L65 742 L102 738 C128 735 149 723 149 693 L149 57 C149 27 128 15 102 12 L65 8 L65 4 L65 0 L135 0 L149 0 L204 0 L528 0 L528 1 L528 1 Z " />
<glyph glyph-name="Lcaron" unicode="&#x13d;" horiz-adv-x="589" d="M377 697 C388 737 398 784 398 801 C398 806 388 809 375 809 C366 809 355 743 351 702 L339 591 L348 590 L377 697 L377 697 Z M528 1 C533 19 540 48 545 66 C550 83 558 112 562 130 C562 130 561 130 559 131 C557 132 555 132 555 132 L540 92 C521 43 481 1 401 1 L256 1 C214 1 204 24 204 52 L204 57 L204 693 C204 723 225 735 251 738 L288 742 L288 746 L288 750 L204 750 L177 750 L149 750 L65 750 L65 746 L65 742 L102 738 C128 735 149 723 149 693 L149 57 C149 27 128 15 102 12 L65 8 L65 4 L65 0 L135 0 L149 0 L204 0 L528 0 L528 1 L528 1 Z " />
<glyph glyph-name="lcaron" unicode="&#x13e;" horiz-adv-x="256" d="M246 647 C257 687 267 734 267 751 C267 756 257 759 244 759 C235 759 224 693 220 652 L208 541 L217 540 L246 647 L246 647 Z M160 23 L160 685 L160 750 L151 750 L43 719 L43 715 L43 711 L74 716 C94 719 110 710 110 674 L110 23 C110 18 95 15 77 12 L47 8 L47 4 L47 0 L135 0 L223 0 L223 4 L223 8 L193 12 C175 15 160 18 160 23 L160 23 Z " />
<glyph glyph-name="Nacute" unicode="&#x143;" horiz-adv-x="726" d="M268 813 L407 936 C445 970 477 1001 477 1005 C477 1017 464 1029 452 1029 C449 1029 418 997 384 959 L262 820 L268 813 L268 813 Z M144 95 L144 95 L142 664 L527 79 L580 0 L591 0 L595 668 L595 668 C595 717 621 735 652 738 L694 742 L694 746 L694 750 L595 750 L587 750 L578 750 L479 750 L479 746 L479 742 L521 738 C549 735 573 720 578 680 L580 102 L574 110 L155 750 L142 750 L128 750 L97 750 L86 750 L40 750 L40 746 L40 742 L93 739 L103 723 C105 720 107 717 110 713 L110 713 L128 686 L127 102 L127 102 C127 36 109 14 88 12 L28 8 L28 4 L28 0 L127 0 L136 0 L144 0 L243 0 L243 4 L243 8 L184 12 C162 14 144 34 144 95 L144 95 Z " />
<glyph glyph-name="Ncaron" unicode="&#x147;" horiz-adv-x="726" d="M144 95 L144 95 L142 664 L527 79 L580 0 L591 0 L595 668 L595 668 C595 717 621 735 652 738 L694 742 L694 746 L694 750 L595 750 L587 750 L578 750 L479 750 L479 746 L479 742 L521 738 C549 735 573 720 578 680 L580 102 L574 110 L155 750 L142 750 L128 750 L97 750 L86 750 L40 750 L40 746 L40 742 L93 739 L103 723 C105 720 107 717 110 713 L110 713 L128 686 L127 102 L127 102 C127 36 109 14 88 12 L28 8 L28 4 L28 0 L127 0 L136 0 L144 0 L243 0 L243 4 L243 8 L184 12 C162 14 144 34 144 95 L144 95 Z M362 873 L505 1042 L511 1037 L380 835 C377 830 367 817 362 817 C357 817 348 830 345 835 L213 1037 L220 1042 L362 873 L362 873 Z " />
<glyph glyph-name="ncaron" unicode="&#x148;" horiz-adv-x="613" d="M311 623 L454 792 L461 787 L329 585 C326 580 317 567 312 567 C307 567 297 580 294 585 L163 787 L169 792 L311 623 L311 623 Z M468 23 C468 18 453 15 435 12 L405 8 L405 4 L405 0 L493 0 L582 0 L582 4 L582 8 L552 12 C533 15 518 18 518 23 L518 335 C518 430 453 510 355 510 C297 510 207 452 156 381 L156 435 L156 500 L147 500 L39 460 L39 456 L39 452 L70 460 C90 464 106 457 106 420 L106 23 C106 18 91 15 73 12 L43 8 L43 4 L43 0 L131 0 L219 0 L219 4 L219 8 L189 12 C171 15 156 18 156 23 L156 373 C201 436 284 487 341 487 C417 487 468 418 468 335 L468 23 L468 23 Z " />
<glyph glyph-name="Omacron" unicode="&#x14c;" horiz-adv-x="836" d="M269 901 L555 901 L555 936 L269 936 L269 901 L269 901 Z M402 -8 C246 -8 116 166 116 375 C116 584 250 758 411 758 C579 758 718 584 718 375 C718 166 574 -8 402 -8 L402 -8 Z M52 375 C52 165 211 -10 402 -10 C609 -10 782 165 782 375 C782 585 614 760 412 760 C216 760 52 585 52 375 L52 375 Z " />
<glyph glyph-name="omacron" unicode="&#x14d;" horiz-adv-x="568" d="M140 651 L426 651 L426 686 L140 686 L140 651 L140 651 Z M283 -8 C182 -8 98 109 98 250 C98 391 182 508 283 508 C384 508 469 391 469 250 C469 109 384 -8 283 -8 L283 -8 Z M42 250 C42 108 152 -10 283 -10 C414 -10 524 108 524 250 C524 392 414 510 283 510 C152 510 42 392 42 250 L42 250 Z " />
<glyph glyph-name="Obreve" unicode="&#x14e;" horiz-adv-x="836" d="M293 995 C296 937 350 889 412 889 C474 889 528 937 531 994 L521 995 C519 956 469 924 412 924 C355 924 305 957 303 996 L293 995 L293 995 Z M402 -8 C246 -8 116 166 116 375 C116 584 250 758 411 758 C579 758 718 584 718 375 C718 166 574 -8 402 -8 L402 -8 Z M52 375 C52 165 211 -10 402 -10 C609 -10 782 165 782 375 C782 585 614 760 412 760 C216 760 52 585 52 375 L52 375 Z " />
<glyph glyph-name="obreve" unicode="&#x14f;" horiz-adv-x="568" d="M164 745 C167 687 221 639 283 639 C345 639 400 687 403 744 L392 745 C390 706 340 674 283 674 C226 674 176 707 174 746 L164 745 L164 745 Z M283 -8 C182 -8 98 109 98 250 C98 391 182 508 283 508 C384 508 469 391 469 250 C469 109 384 -8 283 -8 L283 -8 Z M42 250 C42 108 152 -10 283 -10 C414 -10 524 108 524 250 C524 392 414 510 283 510 C152 510 42 392 42 250 L42 250 Z " />
<glyph glyph-name="Racute" unicode="&#x154;" horiz-adv-x="677" d="M317 813 L456 936 C495 970 527 1001 527 1005 C527 1017 514 1029 502 1029 C499 1029 468 997 434 959 L311 820 L317 813 L317 813 Z M667 0 L667 7 C592 7 576 15 545 72 C470 213 405 334 385 372 C475 389 542 449 542 541 C542 656 447 751 332 751 L199 751 L130 751 L60 751 L60 747 L60 743 L97 739 C123 736 144 724 144 694 L144 58 C144 28 123 16 97 13 L60 9 L60 5 L60 1 L172 1 L283 1 L283 5 L283 9 L246 13 C220 16 199 28 199 58 L199 367 L329 367 C343 335 407 211 481 74 C515 11 539 2 668 2 L667 0 L667 0 Z M199 741 L316 741 C405 741 480 656 480 553 C480 446 413 382 332 382 L199 382 L199 695 L199 741 L199 741 Z " />
<glyph glyph-name="Rcaron" unicode="&#x158;" horiz-adv-x="677" d="M667 0 L667 7 C592 7 576 15 545 72 C470 213 405 334 385 372 C475 389 542 449 542 541 C542 656 447 751 332 751 L199 751 L130 751 L60 751 L60 747 L60 743 L97 739 C123 736 144 724 144 694 L144 58 C144 28 123 16 97 13 L60 9 L60 5 L60 1 L172 1 L283 1 L283 5 L283 9 L246 13 C220 16 199 28 199 58 L199 367 L329 367 C343 335 407 211 481 74 C515 11 539 2 668 2 L667 0 L667 0 Z M312 875 L455 1044 L462 1039 L330 837 C327 832 318 819 313 819 C308 819 298 832 295 837 L164 1039 L170 1044 L312 875 L312 875 Z M200 741 L317 741 C406 741 481 656 481 553 C481 446 414 382 333 382 L200 382 L200 695 L200 741 L200 741 Z " />
<glyph glyph-name="rcaron" unicode="&#x159;" horiz-adv-x="368" d="M230 623 L373 792 L380 787 L248 585 C245 580 236 567 231 567 C226 567 216 580 213 585 L82 787 L88 792 L230 623 L230 623 Z M161 388 L161 435 L161 500 L152 500 L44 460 L44 456 L44 452 L75 460 C95 464 111 457 111 420 L111 23 C111 18 97 15 81 12 L52 8 L52 4 L52 0 L140 0 L228 0 L228 4 L228 8 L197 12 C177 15 161 18 161 23 L161 383 C179 441 229 487 276 487 C289 487 300 471 300 452 C300 436 314 422 330 422 C346 422 359 436 359 452 C359 483 332 510 299 510 C242 510 181 455 161 387 L161 388 L161 388 Z " />
<glyph glyph-name="Sacute" unicode="&#x15a;" horiz-adv-x="535" d="M276 813 L415 936 C453 970 485 1001 485 1005 C485 1017 472 1029 460 1029 C457 1029 426 997 392 959 L270 820 L276 813 L276 813 Z M410 696 L410 696 C366 734 302 760 243 760 C150 760 73 677 73 577 C73 503 156 404 279 346 C382 298 451 220 451 165 C451 71 380 -7 296 -7 C247 -7 190 20 143 61 L144 61 C144 61 97 147 65 207 C60 216 56 224 56 224 L55 224 L53 224 L53 149 L53 129 L53 34 L55 34 L56 34 C56 34 60 47 65 63 C70 78 92 88 109 74 C161 25 233 -9 296 -9 C405 -9 496 78 496 182 C496 257 423 354 313 405 C195 460 117 543 117 599 C117 686 174 759 243 759 C276 759 312 748 344 730 L338 733 C355 724 411 639 440 586 C445 577 449 569 449 569 L450 569 L452 569 L452 644 L452 652 L452 735 L450 735 L449 735 C449 735 445 725 440 712 C435 700 420 689 409 698 L410 696 L410 696 Z " />
<glyph glyph-name="Scircumflex" unicode="&#x15c;" horiz-adv-x="535" d="M410 696 L410 696 C366 734 302 760 243 760 C150 760 73 677 73 577 C73 503 156 404 279 346 C382 298 451 220 451 165 C451 71 380 -7 296 -7 C247 -7 190 20 143 61 L144 61 C144 61 97 147 65 207 C60 216 56 224 56 224 L55 224 L53 224 L53 149 L53 129 L53 34 L55 34 L56 34 C56 34 60 47 65 63 C70 78 92 88 109 74 C161 25 233 -9 296 -9 C405 -9 496 78 496 182 C496 257 423 354 313 405 C195 460 117 543 117 599 C117 686 174 759 243 759 C276 759 312 748 344 730 L338 733 C355 724 411 639 440 586 C445 577 449 569 449 569 L450 569 L452 569 L452 644 L452 652 L452 735 L450 735 L449 735 C449 735 445 725 440 712 C435 700 420 689 409 698 L410 696 L410 696 Z M269 979 L412 810 L418 815 L287 1017 C284 1022 274 1035 269 1035 C264 1035 255 1022 252 1017 L120 815 L127 810 L269 979 L269 979 Z " />
<glyph glyph-name="Scaron" unicode="&#x160;" horiz-adv-x="535" d="M410 696 L410 696 C366 734 302 760 243 760 C150 760 73 677 73 577 C73 503 156 404 279 346 C382 298 451 220 451 165 C451 71 380 -7 296 -7 C247 -7 190 20 143 61 L144 61 C144 61 97 147 65 207 C60 216 56 224 56 224 L55 224 L53 224 L53 149 L53 129 L53 34 L55 34 L56 34 C56 34 60 47 65 63 C70 78 92 88 109 74 C161 25 233 -9 296 -9 C405 -9 496 78 496 182 C496 257 423 354 313 405 C195 460 117 543 117 599 C117 686 174 759 243 759 C276 759 312 748 344 730 L338 733 C355 724 411 639 440 586 C445 577 449 569 449 569 L450 569 L452 569 L452 644 L452 652 L452 735 L450 735 L449 735 C449 735 445 725 440 712 C435 700 420 689 409 698 L410 696 L410 696 Z M269 875 L412 1044 L418 1039 L287 837 C284 832 274 819 269 819 C264 819 255 832 252 837 L120 1039 L127 1044 L269 875 L269 875 Z " />
<glyph glyph-name="scaron" unicode="&#x161;" horiz-adv-x="426" d="M301 478 L298 479 C270 498 235 510 203 510 C134 510 77 455 77 389 C77 332 136 263 224 231 C292 206 338 152 338 107 C338 44 291 -8 235 -8 C214 -8 191 0 169 14 C140 34 99 102 87 140 C85 147 83 153 83 153 L79 153 L75 153 L75 96 L75 91 L75 28 L79 28 L83 28 C83 28 85 36 87 45 C88 50 112 42 139 24 L139 24 C169 4 204 -9 235 -9 C312 -9 377 51 377 122 C377 177 325 241 246 270 C166 299 113 359 113 407 C113 463 154 509 203 509 C214 509 225 507 236 503 L229 506 C232 505 235 504 238 503 C242 502 246 500 250 498 L238 503 C277 485 324 421 336 381 C338 374 340 368 340 368 L344 368 L348 368 L348 426 L348 439 L348 511 L344 511 L340 511 C340 511 338 501 336 488 C334 476 317 467 301 479 L301 478 L301 478 Z M234 624 L376 793 L383 788 L252 586 C249 581 239 568 234 568 C229 568 220 581 216 586 L85 788 L92 793 L234 624 L234 624 Z M238 503 L236 504 L236 504 L236 504 L238 503 L238 503 Z " />
<glyph glyph-name="Tcaron" unicode="&#x164;" horiz-adv-x="765" d="M383 873 L525 1042 L532 1037 L401 835 C397 830 388 817 383 817 C378 817 369 830 365 835 L234 1037 L241 1042 L383 873 L383 873 Z M693 750 L624 750 L411 750 L355 750 L142 750 L72 750 L83 790 L79 790 C76 789 74 789 74 789 C71 779 66 764 61 750 L56 750 L56 736 L56 736 C54 731 52 726 50 722 C43 703 32 673 25 654 L29 654 C31 653 33 653 33 653 L52 693 C63 716 87 736 137 736 L355 736 L355 54 C355 26 334 15 308 12 L272 8 L272 4 L272 0 L383 0 L494 0 L494 4 L494 8 L458 12 C432 15 411 26 411 54 L411 736 L629 736 C679 736 703 716 714 693 L733 653 C733 653 735 653 737 654 L741 654 C734 673 723 703 716 722 C714 726 712 731 710 736 L710 736 L710 750 L705 750 C700 764 695 779 691 789 C691 789 690 789 687 790 L683 790 L693 750 L693 750 Z " />
<glyph glyph-name="tcaron" unicode="&#x165;" horiz-adv-x="333" d="M293 500 L144 500 L144 620 L140 620 L29 500 L29 490 L94 490 L94 129 C94 38 146 -10 209 -10 C244 -10 297 25 323 68 L318 71 C298 40 256 14 224 14 C179 14 142 50 143 118 L144 474 L293 474 L293 500 L293 500 Z M379 647 C391 687 400 734 400 751 C400 756 390 759 378 759 C368 759 358 693 354 652 L341 541 L350 540 L379 647 L379 647 Z " />
<glyph glyph-name="Utilde" unicode="&#x168;" horiz-adv-x="741" d="M231 870 C231 906 251 936 276 936 C329 936 394 871 447 871 C480 871 507 914 507 966 L506 966 C506 934 484 906 459 906 C405 906 341 971 287 971 C256 971 230 925 230 870 L231 870 L231 870 Z M640 693 L640 750 L570 750 L501 750 L501 746 L501 742 L537 738 C563 735 584 723 584 693 L584 173 C547 93 408 26 278 26 C210 26 153 113 153 218 L153 693 L153 750 L84 750 L14 750 L14 746 L14 742 L51 738 C76 735 97 723 97 693 L97 218 C97 94 169 -10 256 -10 C394 -10 544 62 584 148 L584 102 L584 0 L593 0 L722 65 L722 69 C660 82 640 89 640 102 L640 693 L640 693 Z " />
<glyph glyph-name="utilde" unicode="&#x169;" horiz-adv-x="543" d="M128 620 C128 656 148 686 173 686 C226 686 291 621 344 621 C377 621 404 664 404 716 L403 716 C403 684 381 656 355 656 C302 656 238 721 184 721 C153 721 127 675 127 620 L128 620 L128 620 Z M402 82 L402 -10 L411 -10 L519 17 L519 21 L519 25 L488 22 C468 19 452 35 452 93 L452 477 L452 500 L400 500 L349 500 L349 496 L349 492 L378 488 C391 486 402 482 402 477 L402 134 C355 74 283 25 242 25 C180 25 129 86 129 159 L129 477 L129 500 L78 500 L27 500 L27 496 L27 492 L56 488 C68 486 79 482 79 477 L79 159 C79 67 142 -10 218 -10 C261 -10 343 54 403 131 L402 82 L402 82 Z " />
<glyph glyph-name="Umacron" unicode="&#x16a;" horiz-adv-x="741" d="M226 901 L512 901 L512 936 L226 936 L226 901 L226 901 Z M640 693 L640 750 L570 750 L501 750 L501 746 L501 742 L537 738 C563 735 584 723 584 693 L584 173 C547 93 408 26 278 26 C210 26 153 113 153 218 L153 693 L153 750 L84 750 L14 750 L14 746 L14 742 L51 738 C76 735 97 723 97 693 L97 218 C97 94 169 -10 256 -10 C394 -10 544 62 584 148 L584 102 L584 0 L593 0 L722 65 L722 69 C660 82 640 89 640 102 L640 693 L640 693 Z " />
<glyph glyph-name="umacron" unicode="&#x16b;" horiz-adv-x="543" d="M122 651 L409 651 L409 686 L122 686 L122 651 L122 651 Z M402 82 L402 -10 L411 -10 L519 17 L519 21 L519 25 L488 22 C468 19 452 35 452 93 L452 477 L452 500 L400 500 L349 500 L349 496 L349 492 L378 488 C391 486 402 482 402 477 L402 134 C355 74 283 25 242 25 C180 25 129 86 129 159 L129 477 L129 500 L78 500 L27 500 L27 496 L27 492 L56 488 C68 486 79 482 79 477 L79 159 C79 67 142 -10 218 -10 C261 -10 343 54 403 131 L402 82 L402 82 Z " />
<glyph glyph-name="Ubreve" unicode="&#x16c;" horiz-adv-x="741" d="M249 995 C252 937 307 889 369 889 C431 889 485 937 488 994 L477 995 C476 956 426 924 369 924 C312 924 262 957 260 996 L249 995 L249 995 Z M640 693 L640 750 L570 750 L501 750 L501 746 L501 742 L537 738 C563 735 584 723 584 693 L584 173 C547 93 408 26 278 26 C210 26 153 113 153 218 L153 693 L153 750 L84 750 L14 750 L14 746 L14 742 L51 738 C76 735 97 723 97 693 L97 218 C97 94 169 -10 256 -10 C394 -10 544 62 584 148 L584 102 L584 0 L593 0 L722 65 L722 69 C660 82 640 89 640 102 L640 693 L640 693 Z " />
<glyph glyph-name="ubreve" unicode="&#x16d;" horiz-adv-x="543" d="M146 745 C149 687 204 639 266 639 C327 639 382 687 385 744 L374 745 C373 706 323 674 266 674 C208 674 158 707 157 746 L146 745 L146 745 Z M402 82 L402 -10 L411 -10 L519 17 L519 21 L519 25 L488 22 C468 19 452 35 452 93 L452 477 L452 500 L400 500 L349 500 L349 496 L349 492 L378 488 C391 486 402 482 402 477 L402 134 C355 74 283 25 242 25 C180 25 129 86 129 159 L129 477 L129 500 L78 500 L27 500 L27 496 L27 492 L56 488 C68 486 79 482 79 477 L79 159 C79 67 142 -10 218 -10 C261 -10 343 54 403 131 L402 82 L402 82 Z " />
<glyph glyph-name="Uring" unicode="&#x16e;" horiz-adv-x="741" d="M369 822 C329 822 287 864 287 905 C287 950 324 988 369 988 C413 988 450 950 450 905 C450 864 409 822 369 822 L369 822 Z M272 905 C272 858 321 810 369 810 C416 810 465 858 465 905 C465 957 421 1000 369 1000 C316 1000 272 957 272 905 L272 905 Z M640 693 L640 750 L570 750 L501 750 L501 746 L501 742 L537 738 C563 735 584 723 584 693 L584 173 C547 93 408 26 278 26 C210 26 153 113 153 218 L153 693 L153 750 L84 750 L14 750 L14 746 L14 742 L51 738 C76 735 97 723 97 693 L97 218 C97 94 169 -10 256 -10 C394 -10 544 62 584 148 L584 102 L584 0 L593 0 L722 65 L722 69 C660 82 640 89 640 102 L640 693 L640 693 Z " />
<glyph glyph-name="uring" unicode="&#x16f;" horiz-adv-x="543" d="M266 572 C226 572 184 614 184 655 C184 700 221 738 266 738 C310 738 347 700 347 655 C347 614 306 572 266 572 L266 572 Z M169 655 C169 608 218 560 266 560 C313 560 362 608 362 655 C362 707 318 750 266 750 C213 750 169 707 169 655 L169 655 Z M402 82 L402 -10 L411 -10 L519 17 L519 21 L519 25 L488 22 C468 19 452 35 452 93 L452 477 L452 500 L400 500 L349 500 L349 496 L349 492 L378 488 C391 486 402 482 402 477 L402 134 C355 74 283 25 242 25 C180 25 129 86 129 159 L129 477 L129 500 L78 500 L27 500 L27 496 L27 492 L56 488 C68 486 79 482 79 477 L79 159 C79 67 142 -10 218 -10 C261 -10 343 54 403 131 L402 82 L402 82 Z " />
<glyph glyph-name="Wcircumflex" unicode="&#x174;" horiz-adv-x="1015" d="M498 977 L641 808 L647 813 L516 1015 C513 1020 503 1033 498 1033 C493 1033 484 1020 481 1015 L349 813 L356 808 L498 977 L498 977 Z M462 710 L527 500 L527 500 L347 71 L164 655 L164 655 C144 716 160 736 187 738 L249 742 L249 746 L249 750 L136 750 L134 750 L72 750 L23 750 L23 746 L23 742 L76 739 L96 676 C98 670 100 663 102 656 L102 656 L288 72 L313 -9 L328 -9 L536 474 L657 82 L685 -9 L700 -9 L906 688 C919 725 931 738 941 739 L997 743 L997 747 L997 751 L925 751 L902 751 L884 751 L771 751 L771 747 L771 743 L837 739 C870 737 892 716 874 656 L875 656 L711 82 L534 683 C524 723 541 737 567 739 L629 743 L629 747 L629 751 L514 751 L503 751 L450 751 L377 751 L377 747 L377 743 L434 739 C445 738 456 731 462 711 L462 710 L462 710 Z " />
<glyph glyph-name="Ycircumflex" unicode="&#x176;" horiz-adv-x="651" d="M331 977 L473 808 L480 813 L349 1015 C346 1020 336 1033 331 1033 C326 1033 317 1020 313 1015 L182 813 L189 808 L331 977 L331 977 Z M184 655 L184 655 C149 717 148 737 160 738 L214 742 L214 746 L214 750 L131 750 L116 750 L65 750 L18 750 L18 746 L18 742 L71 739 L303 329 L303 54 C303 26 282 15 256 12 L220 8 L220 4 L220 0 L331 0 L442 0 L442 4 L442 8 L406 12 C380 15 359 26 359 54 L359 339 L529 662 C559 718 574 736 580 737 L638 741 L638 745 L638 749 L575 749 L570 749 L562 749 L487 749 L487 745 L487 741 L542 737 C552 736 555 723 540 689 L359 340 L184 655 L184 655 Z " />
<glyph glyph-name="Ydieresis" unicode="&#x178;" horiz-adv-x="651" d="M399 865 C417 865 432 880 432 897 C432 915 417 930 399 930 C382 930 367 915 367 897 C367 880 382 865 399 865 L399 865 Z M263 865 C280 865 295 880 295 897 C295 915 280 930 263 930 C245 930 230 915 230 897 C230 880 245 865 263 865 L263 865 Z M184 655 L184 655 C149 717 148 737 160 738 L214 742 L214 746 L214 750 L131 750 L116 750 L65 750 L18 750 L18 746 L18 742 L71 739 L303 329 L303 54 C303 26 282 15 256 12 L220 8 L220 4 L220 0 L331 0 L442 0 L442 4 L442 8 L406 12 C380 15 359 26 359 54 L359 339 L529 662 C559 718 574 736 580 737 L638 741 L638 745 L638 749 L575 749 L570 749 L562 749 L487 749 L487 745 L487 741 L542 737 C552 736 555 723 540 689 L359 340 L184 655 L184 655 Z " />
<glyph glyph-name="Zacute" unicode="&#x179;" horiz-adv-x="636" d="M342 813 L481 936 C519 970 551 1001 551 1005 C551 1017 538 1029 526 1029 C523 1029 492 997 458 959 L336 820 L342 813 L342 813 Z M492 17 L492 17 L95 13 L601 738 L601 750 L546 750 L186 750 L70 750 C67 730 62 696 60 676 C57 656 52 622 49 602 C49 602 52 602 54 601 C57 601 60 600 60 600 L72 642 C86 691 117 732 176 735 L537 738 L25 12 L25 0 L86 0 L488 0 L597 0 C602 19 609 50 614 68 C619 87 626 118 631 137 C631 137 629 138 627 138 C625 139 624 139 623 139 L604 93 C587 52 553 17 492 17 L492 17 Z " />
<glyph glyph-name="Zdot" unicode="&#x17b;" horiz-adv-x="636" d="M335 865 C353 865 368 880 368 897 C368 915 353 930 335 930 C318 930 303 915 303 897 C303 880 318 865 335 865 L335 865 Z M492 17 L492 17 L95 13 L601 738 L601 750 L546 750 L186 750 L70 750 C67 730 62 696 60 676 C57 656 52 622 49 602 C49 602 52 602 54 601 C57 601 60 600 60 600 L72 642 C86 691 117 732 176 735 L537 738 L25 12 L25 0 L86 0 L488 0 L597 0 C602 19 609 50 614 68 C619 87 626 118 631 137 C631 137 629 138 627 138 C625 139 624 139 623 139 L604 93 C587 52 553 17 492 17 L492 17 Z " />
<glyph glyph-name="zdot" unicode="&#x17c;" horiz-adv-x="465" d="M254 615 C272 615 287 630 287 647 C287 665 272 680 254 680 C237 680 222 665 222 647 C222 630 237 615 254 615 L254 615 Z M433 89 L416 55 C407 36 383 20 332 17 L102 13 L426 488 L426 500 L375 500 L109 500 L101 500 L107 532 L103 532 L98 532 C96 523 93 512 90 501 L83 501 L83 483 L85 483 C84 478 83 473 82 469 C78 452 70 423 65 406 L66 406 L88 446 C100 465 121 481 160 484 L368 488 L42 13 L42 1 L95 1 L377 1 L423 1 C425 14 428 36 429 49 C431 59 433 77 435 90 L433 89 L433 89 Z M435 90 C435 92 435 94 435 96 L436 96 L437 96 L435 90 L435 90 Z " />
<glyph glyph-name="Zcaron" unicode="&#x17d;" horiz-adv-x="636" d="M492 17 L492 17 L95 13 L601 738 L601 750 L546 750 L186 750 L70 750 C67 730 62 696 60 676 C57 656 52 622 49 602 C49 602 52 602 54 601 C57 601 60 600 60 600 L72 642 C86 691 117 732 176 735 L537 738 L25 12 L25 0 L86 0 L488 0 L597 0 C602 19 609 50 614 68 C619 87 626 118 631 137 C631 137 629 138 627 138 C625 139 624 139 623 139 L604 93 C587 52 553 17 492 17 L492 17 Z M336 873 L479 1042 L485 1037 L354 835 C351 830 341 817 336 817 C331 817 322 830 319 835 L187 1037 L194 1042 L336 873 L336 873 Z " />
<glyph glyph-name="zcaron" unicode="&#x17e;" horiz-adv-x="465" d="M255 623 L398 792 L404 787 L273 585 C270 580 260 567 255 567 C250 567 241 580 238 585 L106 787 L113 792 L255 623 L255 623 Z M434 89 L417 55 C408 36 384 20 333 17 L103 13 L427 488 L427 500 L376 500 L110 500 L102 500 L108 532 L104 532 L99 532 C97 523 94 512 91 501 L84 501 L84 483 L86 483 C85 478 84 473 83 469 C79 452 71 423 66 406 L67 406 L89 446 C101 465 122 481 161 484 L369 488 L43 13 L43 1 L96 1 L378 1 L424 1 C426 14 429 36 430 49 C432 59 434 77 436 90 L434 89 L434 89 Z M436 90 C436 92 436 94 436 96 L437 96 L438 96 L436 90 L436 90 Z " />
<glyph glyph-name="oogonek" unicode="&#x1eb;" horiz-adv-x="783" d="M1001 -54 L1000 -54 C974 -76 858 -94 746 -94 C626 -94 456 -55 366 -8 C372 -9 378 -10 383 -10 C574 -10 734 127 734 292 C734 456 579 593 393 593 C213 593 63 456 63 292 C63 158 217 42 321 3 L320 3 C445 -68 636 -127 740 -127 C835 -127 954 -94 1001 -55 L1001 -54 L1001 -54 Z M383 -9 C312 -9 120 127 120 291 C120 454 244 590 393 590 C547 590 676 454 676 291 C676 127 543 -9 383 -9 L383 -9 Z " />
<glyph glyph-name="Adotabove" unicode="&#x226;" horiz-adv-x="691" d="M365 865 C382 865 397 880 397 897 C397 915 382 930 365 930 C347 930 332 915 332 897 C332 880 347 865 365 865 L365 865 Z M582 95 L582 95 L393 732 L382 770 L376 770 C359 750 342 733 337 732 L340 722 L157 116 L157 116 C134 39 105 14 79 12 L18 8 L18 4 L18 0 L122 0 L125 0 L137 0 L255 0 L255 4 L255 8 L189 12 C156 14 136 40 160 116 L160 116 L209 279 L470 279 L524 95 L524 95 C542 34 529 14 505 12 L445 8 L445 4 L445 0 L552 0 L565 0 L611 0 L684 0 L684 4 L684 8 L627 12 C616 13 601 33 583 95 L582 95 L582 95 Z M210 281 L341 720 L469 281 L210 281 L210 281 Z " />
<glyph glyph-name="G_sc" unicode="&#x262;" horiz-adv-x="678" d="M500 199 L501 67 C497 40 455 17 398 7 L447 11 C413 6 377 3 341 3 C220 3 119 135 119 293 C119 456 219 592 338 592 C383 592 422 581 456 563 C479 550 532 475 557 429 C562 420 566 412 566 412 L568 412 L570 412 L570 490 L570 496 L570 581 L568 581 L566 581 C566 581 562 571 557 558 C551 545 527 536 506 547 C464 575 410 594 338 594 C189 594 64 457 64 293 C64 128 188 -9 337 -9 C388 -9 443 1 497 16 L502 16 L551 28 L551 33 C578 42 604 53 628 64 L627 65 C605 55 580 45 552 36 L552 200 C552 228 568 239 588 241 L620 246 L620 250 L620 254 L521 254 L423 254 L423 250 L423 246 L458 241 C482 238 502 227 502 200 L500 199 L500 199 Z M400 8 C382 5 363 3 343 3 L400 8 L400 8 Z " />
<glyph glyph-name="I_sc" unicode="&#x26a;" horiz-adv-x="333" d="M202 54 L202 529 C202 557 223 568 248 571 L285 575 L285 579 L285 583 L177 583 L68 583 L68 579 L68 575 L105 571 C130 568 151 557 151 529 L151 54 C151 26 130 15 105 12 L68 8 L68 4 L68 0 L177 0 L285 0 L285 4 L285 8 L248 12 C223 15 202 26 202 54 L202 54 Z " />
<glyph glyph-name="N_sc" unicode="&#x274;" horiz-adv-x="652" d="M143 95 L143 95 L142 511 L469 55 L508 -1 L518 -1 L521 501 L522 501 C521 549 547 567 579 570 L621 574 L621 578 L621 582 L522 582 L514 582 L507 582 L408 582 L408 578 L408 574 L450 570 C481 567 507 549 507 501 L507 501 L508 66 L501 77 L154 582 L142 582 L129 582 L100 582 L91 582 L46 582 L46 578 L46 574 L99 571 L129 529 L129 101 C129 35 111 13 89 11 L30 7 L30 3 L30 -1 L129 -1 L136 -1 L144 -1 L243 -1 L243 3 L243 7 L184 11 C161 13 143 33 144 94 L143 95 L143 95 Z " />
<glyph glyph-name="R_sc" unicode="&#x280;" horiz-adv-x="578" d="M568 0 L568 6 C503 6 490 12 464 56 C399 163 343 256 324 287 C404 301 464 348 464 420 C464 509 378 583 275 583 L193 583 L126 583 L60 583 L60 579 L60 575 L96 571 C122 568 143 557 143 526 L143 57 C143 27 122 15 96 12 L60 8 L60 4 L60 0 L168 0 L277 0 L277 4 L277 8 L240 12 C214 15 193 27 193 57 L193 283 L272 283 C284 257 340 161 404 55 C434 6 455 -1 567 -1 L568 0 L568 0 Z M193 572 L260 572 C341 572 408 507 408 429 C408 345 347 295 275 295 L193 295 L193 525 L193 572 L193 572 Z " />
<glyph glyph-name="Y_sc" unicode="&#x28f;" horiz-adv-x="574" d="M176 499 C145 552 144 570 154 571 L208 575 L208 579 L208 583 L125 583 L114 583 L66 583 L19 583 L19 579 L19 575 L73 572 L266 255 L266 54 C266 26 245 15 219 12 L183 8 L183 4 L183 0 L291 0 L400 0 L400 4 L400 8 L363 12 C338 15 317 26 317 54 L317 263 L463 522 C485 558 497 570 503 571 L561 575 L561 579 L561 583 L498 583 L494 583 L486 583 L411 583 L411 579 L411 575 L465 571 C476 570 477 555 454 511 L317 266 L176 499 L176 499 Z " />
<glyph glyph-name="B_sc" unicode="&#x299;" horiz-adv-x="512" d="M194 582 L248 582 C366 582 409 516 409 437 C409 363 357 300 294 300 L194 300 L194 526 L194 582 L194 582 Z M314 300 C394 308 459 369 459 442 C459 518 404 582 251 582 L194 582 L127 582 L61 582 L61 578 L61 574 L97 570 C123 567 144 556 144 525 L144 56 C144 26 123 14 97 11 L61 7 L61 3 L61 -1 L127 -1 L194 -1 L314 -1 C401 -1 473 39 473 149 C473 231 412 299 339 299 L314 300 L314 300 Z M295 298 L334 298 C380 298 418 230 418 149 C418 39 370 0 312 0 L262 0 C225 0 194 23 194 51 L194 56 L194 298 L295 298 L295 298 Z " />
<glyph glyph-name="H_sc" unicode="&#x29c;" horiz-adv-x="706" d="M575 54 L575 529 C575 557 596 568 622 571 L658 575 L658 579 L658 583 L550 583 L441 583 L441 579 L441 575 L478 571 C503 568 524 557 524 529 L524 299 L230 299 L230 529 C230 557 251 568 277 571 L314 575 L314 579 L314 583 L205 583 L97 583 L97 579 L97 575 L133 571 C159 568 180 557 180 529 L180 54 C180 26 159 15 133 12 L97 8 L97 4 L97 0 L205 0 L314 0 L314 4 L314 8 L277 12 C251 15 230 26 230 54 L230 297 L524 297 L524 54 C524 26 503 15 478 12 L441 8 L441 4 L441 0 L550 0 L658 0 L658 4 L658 8 L622 12 C596 15 575 26 575 54 L575 54 Z " />
<glyph glyph-name="L_sc" unicode="&#x29f;" horiz-adv-x="515" d="M454 1 C458 19 466 48 471 65 C476 83 483 112 488 129 L484 131 C482 131 480 132 480 132 L466 92 C447 42 407 1 327 1 L254 1 C211 1 202 24 202 52 L202 57 L202 526 C202 557 223 568 248 571 L285 575 L285 579 L285 583 L202 583 L177 583 L151 583 L68 583 L68 579 L68 575 L105 571 C130 568 151 557 151 526 L151 57 C151 27 130 15 105 12 L68 8 L68 4 L68 0 L135 0 L151 0 L202 0 L454 0 L454 1 L454 1 Z " />
<glyph glyph-name="A_sc" unicode="&#x1d00;" horiz-adv-x="620" d="M163 116 L162 116 L195 217 L417 217 L459 84 C473 31 460 13 438 11 L378 7 L378 3 L378 -1 L485 -1 L494 -1 L538 -1 L611 -1 L611 3 L611 7 L554 11 C544 12 530 29 513 78 L353 570 L342 602 L337 602 C323 585 307 571 303 570 L306 560 L306 560 L193 218 L193 218 L193 217 L159 115 L159 115 C134 38 104 13 78 11 L17 7 L17 3 L17 -1 L121 -1 L123 -1 L136 -1 L254 -1 L254 3 L254 7 L188 11 C156 13 137 39 162 115 L163 116 L163 116 Z M195 218 L307 559 L416 218 L195 218 L195 218 Z " />
<glyph glyph-name="C_sc" unicode="&#x1d04;" horiz-adv-x="615" d="M470 32 L470 32 C429 8 381 -8 329 -8 C215 -8 119 128 119 292 C119 455 219 591 338 591 C383 591 422 580 456 562 C479 549 532 474 557 428 C562 419 566 411 566 411 L568 411 L570 411 L570 489 L570 495 L570 580 L568 580 L566 580 C566 580 562 570 557 557 C551 544 527 535 506 546 C464 574 410 593 338 593 C189 593 64 456 64 292 C64 127 185 -10 330 -10 C398 -10 456 9 502 37 C523 47 550 37 557 23 C564 10 569 -1 569 -1 L569 85 L569 93 L569 93 L568 94 L568 170 L567 170 L565 170 C565 170 561 162 556 153 C533 110 486 39 470 30 L470 32 L470 32 Z " />
<glyph glyph-name="D_sc" unicode="&#x1d05;" horiz-adv-x="693" d="M183 583 L132 583 L116 583 L49 583 L49 579 L49 575 L85 571 C111 568 132 557 132 526 L132 57 C132 27 111 15 85 12 L49 8 L49 4 L49 0 L116 0 L132 0 L183 0 L236 0 L183 583 L183 583 Z M183 582 L257 582 C452 582 583 450 583 292 C583 118 424 2 234 2 C192 2 183 25 183 52 L183 57 L183 526 L183 582 L183 582 Z " />
<glyph glyph-name="E_sc" unicode="&#x1d07;" horiz-adv-x="528" d="M381 0 L463 0 C465 14 468 37 470 50 C472 64 475 87 477 101 L473 101 L469 101 L459 61 C452 29 430 2 382 2 L246 2 C204 2 194 25 194 52 L194 57 L194 282 L296 282 C343 282 361 250 366 211 L370 171 L374 171 L378 171 L378 282 L378 283 L378 284 L378 395 L374 395 L370 395 L366 355 C361 316 343 284 296 284 L194 284 L194 526 L194 582 L356 582 C415 582 425 555 430 523 L437 483 L441 483 L445 483 C444 496 442 519 441 533 C440 547 439 570 438 583 L356 583 L194 583 L144 583 L127 583 L61 583 L61 579 L61 575 L97 571 C123 568 144 557 144 526 L144 57 C144 27 123 15 97 12 L61 8 L61 4 L61 0 L127 0 L144 0 L194 0 L381 0 L381 0 Z " />
<glyph glyph-name="J_sc" unicode="&#x1d0a;" horiz-adv-x="333" d="M151 529 L151 -26 C151 -172 84 -217 43 -217 C20 -217 27 -175 3 -175 C-9 -175 -20 -186 -20 -199 C-20 -210 8 -220 41 -220 C103 -220 202 -151 202 70 L202 529 C202 557 223 568 248 571 L285 575 L285 579 L285 583 L177 583 L68 583 L68 579 L68 575 L105 571 C130 568 151 557 151 529 L151 529 Z " />
<glyph glyph-name="K_sc" unicode="&#x1d0b;" horiz-adv-x="592" d="M461 0 L521 0 L581 0 L581 4 L581 8 L516 12 C513 13 493 33 475 52 L232 326 L384 510 L385 510 C422 556 444 571 457 572 L515 576 L515 580 L515 584 L446 584 L428 584 L416 584 L317 584 L317 580 L317 576 L377 572 C396 570 400 553 363 503 L194 293 L194 543 C194 561 215 569 241 572 L278 576 L278 580 L278 584 L194 584 L169 584 L144 584 L61 584 L61 580 L61 576 L97 572 C123 569 144 561 144 543 L144 43 C144 25 123 16 97 13 L61 9 L61 5 L61 1 L144 1 L169 1 L194 1 L278 1 L278 5 L278 9 L241 13 C215 16 194 25 194 43 L194 293 L461 0 L461 0 Z " />
<glyph glyph-name="M_sc" unicode="&#x1d0d;" horiz-adv-x="745" d="M659 57 L659 57 L643 483 C643 548 653 570 665 571 L722 575 L722 579 L722 583 L657 583 L639 583 L609 583 L591 583 L401 70 L183 583 L156 583 L143 583 L122 583 L112 583 L42 583 L42 579 L42 575 L100 571 C113 570 128 561 142 537 L126 85 C122 32 104 14 84 12 L24 8 L24 4 L24 0 L123 0 L132 0 L141 0 L240 0 L240 4 L240 8 L181 12 C161 14 145 30 143 76 L155 510 L346 70 L376 1 L389 1 L593 540 L609 58 L609 58 C611 28 589 16 563 13 L526 9 L526 5 L526 1 L611 1 L634 1 L662 1 L743 1 L743 5 L743 9 L706 13 C682 16 661 28 660 58 L659 57 L659 57 Z " />
<glyph glyph-name="O_sc" unicode="&#x1d0f;" horiz-adv-x="778" d="M373 -8 C230 -8 110 128 110 292 C110 455 234 591 382 591 C537 591 666 455 666 292 C666 128 533 -8 373 -8 L373 -8 Z M52 292 C52 127 198 -10 373 -10 C564 -10 723 127 723 292 C723 456 568 593 383 593 C202 593 52 456 52 292 L52 292 Z " />
<glyph glyph-name="P_sc" unicode="&#x1d18;" horiz-adv-x="449" d="M182 0 L207 0 L290 0 L290 4 L290 8 L254 12 C228 15 207 27 207 57 L207 273 L240 273 C343 273 429 328 429 420 C429 509 358 583 274 583 L207 583 L157 583 L140 583 L73 583 L73 579 L73 575 L110 571 C136 568 157 557 157 526 L157 57 C157 27 136 15 110 12 L73 8 L73 4 L73 0 L157 0 L182 0 L182 0 Z M207 284 L207 526 L207 575 L261 575 C327 575 382 508 382 429 C382 338 318 284 240 284 L207 284 L207 284 Z " />
<glyph glyph-name="T_sc" unicode="&#x1d1b;" horiz-adv-x="708" d="M637 583 L567 583 L379 583 L329 583 L141 583 L72 583 L82 623 L78 623 L74 623 C70 612 65 597 60 583 L56 583 L56 571 L56 571 C54 566 52 561 51 557 C44 539 33 509 26 490 C26 490 28 490 30 489 C32 489 34 488 34 488 L53 528 C64 552 88 572 138 572 L330 572 L330 55 C330 27 309 16 283 13 L247 9 L247 5 L247 1 L355 1 L464 1 L464 5 L464 9 L427 13 C401 16 380 27 380 55 L380 572 L573 572 C623 572 647 552 658 528 L677 488 C677 488 678 489 680 489 C683 490 684 490 684 490 C678 509 667 539 660 557 C659 561 657 566 655 571 L655 571 L655 583 L651 583 C646 597 641 612 637 623 L632 623 L628 623 L637 583 L637 583 Z " />
<glyph glyph-name="U_sc" unicode="&#x1d1c;" horiz-adv-x="680" d="M579 526 L579 583 L512 583 L445 583 L445 579 L445 575 L481 571 C507 568 528 557 528 526 L528 154 C495 82 360 22 231 22 C186 22 148 103 148 201 L148 526 L148 583 L81 583 L14 583 L14 579 L14 575 L50 571 C76 568 97 557 97 526 L97 201 C97 86 149 -10 211 -10 C348 -10 492 54 528 131 L528 102 L528 0 L536 0 L661 65 L661 69 C598 82 579 89 579 102 L579 526 L579 526 Z " />
<glyph glyph-name="V_sc" unicode="&#x1d20;" horiz-adv-x="638" d="M87 543 L265 77 L298 -10 L309 -10 L509 488 L509 488 C533 550 550 570 562 571 L619 575 L619 579 L619 583 L547 583 L527 583 L508 583 L396 583 L396 579 L396 575 L462 571 C494 569 514 548 490 488 L490 488 L331 78 L167 489 L167 489 C144 549 163 570 194 572 L260 576 L260 580 L260 584 L141 584 L129 584 L71 584 L23 584 L23 580 L23 576 L75 573 L84 551 C85 549 86 547 87 545 L87 543 L87 543 Z " />
<glyph glyph-name="W_sc" unicode="&#x1d21;" horiz-adv-x="894" d="M404 551 L459 388 L313 63 L313 64 L162 488 L162 488 C141 549 155 569 181 571 L243 575 L243 579 L243 583 L134 583 L128 583 L73 583 L24 583 L24 579 L24 575 L77 572 L102 501 C103 497 104 493 106 489 L106 489 L254 65 L280 -9 L293 -9 L466 368 L565 74 L593 -9 L606 -9 L780 515 C796 556 809 570 819 571 L875 575 L875 579 L875 583 L803 583 L782 583 L763 583 L651 583 L651 579 L651 575 L717 571 C748 569 768 550 754 497 L618 69 L618 72 L472 517 C462 555 478 568 503 570 L565 574 L565 578 L565 582 L450 582 L442 582 L391 582 L319 582 L319 578 L319 574 L376 570 C385 569 394 564 401 550 L404 551 L404 551 Z " />
<glyph glyph-name="Z_sc" unicode="&#x1d22;" horiz-adv-x="579" d="M434 15 L434 15 L89 12 L544 573 L544 583 L494 583 L186 583 L70 583 C67 564 63 530 60 510 C57 491 52 457 49 437 C49 437 52 437 55 436 C58 435 60 435 60 435 L72 477 C87 527 119 568 180 570 L486 573 L26 11 L26 0 L81 0 L431 0 L541 0 C545 19 553 49 557 68 C562 86 570 117 574 135 C574 135 573 136 570 136 C568 137 567 138 567 138 L547 92 C530 50 497 15 435 15 L434 15 L434 15 Z " />
<glyph glyph-name="Wgrave" unicode="&#x1e80;" horiz-adv-x="1015" d="M385 959 C352 997 321 1029 316 1029 C304 1029 291 1017 291 1005 C291 1000 323 969 362 936 L501 813 L507 820 L385 959 L385 959 Z M461 710 L526 500 L526 500 L346 71 L163 655 L163 655 C143 716 159 736 186 738 L248 742 L248 746 L248 750 L135 750 L133 750 L71 750 L22 750 L22 746 L22 742 L75 739 L95 676 C97 670 99 663 101 656 L101 656 L287 72 L312 -9 L327 -9 L535 474 L656 82 L684 -9 L699 -9 L905 688 C918 725 930 738 940 739 L996 743 L996 747 L996 751 L924 751 L901 751 L883 751 L770 751 L770 747 L770 743 L836 739 C869 737 891 716 873 656 L874 656 L710 82 L533 683 C523 723 540 737 566 739 L628 743 L628 747 L628 751 L513 751 L502 751 L449 751 L376 751 L376 747 L376 743 L433 739 C444 738 455 731 461 711 L461 710 L461 710 Z " />
<glyph glyph-name="Wacute" unicode="&#x1e82;" horiz-adv-x="1015" d="M504 813 L643 936 C681 970 713 1001 713 1005 C713 1017 700 1029 688 1029 C685 1029 654 997 620 959 L498 820 L504 813 L504 813 Z M461 710 L526 500 L526 500 L346 71 L163 655 L163 655 C143 716 159 736 186 738 L248 742 L248 746 L248 750 L135 750 L133 750 L71 750 L22 750 L22 746 L22 742 L75 739 L95 676 C97 670 99 663 101 656 L101 656 L287 72 L312 -9 L327 -9 L535 474 L656 82 L684 -9 L699 -9 L905 688 C918 725 930 738 940 739 L996 743 L996 747 L996 751 L924 751 L901 751 L883 751 L770 751 L770 747 L770 743 L836 739 C869 737 891 716 873 656 L874 656 L710 82 L533 683 C523 723 540 737 566 739 L628 743 L628 747 L628 751 L513 751 L502 751 L449 751 L376 751 L376 747 L376 743 L433 739 C444 738 455 731 461 711 L461 710 L461 710 Z " />
<glyph glyph-name="Wdieresis" unicode="&#x1e84;" horiz-adv-x="1015" d="M566 865 C583 865 598 880 598 897 C598 915 583 930 566 930 C548 930 533 915 533 897 C533 880 548 865 566 865 L566 865 Z M429 865 C446 865 461 880 461 897 C461 915 446 930 429 930 C412 930 397 915 397 897 C397 880 412 865 429 865 L429 865 Z M461 710 L526 500 L526 500 L346 71 L163 655 L163 655 C143 716 159 736 186 738 L248 742 L248 746 L248 750 L135 750 L133 750 L71 750 L22 750 L22 746 L22 742 L75 739 L95 676 C97 670 99 663 101 656 L101 656 L287 72 L312 -9 L327 -9 L535 474 L656 82 L684 -9 L699 -9 L905 688 C918 725 930 738 940 739 L996 743 L996 747 L996 751 L924 751 L901 751 L883 751 L770 751 L770 747 L770 743 L836 739 C869 737 891 716 873 656 L874 656 L710 82 L533 683 C523 723 540 737 566 739 L628 743 L628 747 L628 751 L513 751 L502 751 L449 751 L376 751 L376 747 L376 743 L433 739 C444 738 455 731 461 711 L461 710 L461 710 Z " />
<glyph glyph-name="Etilde" unicode="&#x1ebc;" horiz-adv-x="590" d="M184 870 C184 906 204 936 228 936 C281 936 346 871 399 871 C432 871 459 914 459 966 L458 966 C458 934 437 906 411 906 C357 906 293 971 240 971 C208 971 182 925 182 870 L184 870 L184 870 Z M443 0 L524 0 C526 14 529 37 531 50 C533 64 536 87 538 101 L534 101 L530 101 L521 61 C513 29 491 2 443 2 L250 2 C208 2 198 25 198 52 L198 57 L198 363 L358 363 C405 363 423 330 427 292 L431 252 L435 252 L439 252 L439 363 L439 364 L439 365 L439 476 L435 476 L431 476 L427 436 C423 397 405 365 358 365 L198 365 L198 693 L198 748 L418 748 C476 748 486 721 491 689 L498 649 L502 649 L506 649 C505 663 504 686 503 700 C502 713 500 736 499 750 L418 750 L198 750 L143 750 L129 750 L59 750 L59 746 L59 742 L96 738 C122 735 143 723 143 693 L143 57 C143 27 122 15 96 12 L59 8 L59 4 L59 0 L129 0 L143 0 L198 0 L443 0 L443 0 Z " />
<glyph glyph-name="Ygrave" unicode="&#x1ef2;" horiz-adv-x="651" d="M218 959 C185 997 155 1029 150 1029 C138 1029 125 1017 125 1005 C125 1000 157 969 195 936 L334 813 L341 820 L218 959 L218 959 Z M184 655 L184 655 C149 717 148 737 160 738 L214 742 L214 746 L214 750 L131 750 L116 750 L65 750 L18 750 L18 746 L18 742 L71 739 L303 329 L303 54 C303 26 282 15 256 12 L220 8 L220 4 L220 0 L331 0 L442 0 L442 4 L442 8 L406 12 C380 15 359 26 359 54 L359 339 L529 662 C559 718 574 736 580 737 L638 741 L638 745 L638 749 L575 749 L570 749 L562 749 L487 749 L487 745 L487 741 L542 737 C552 736 555 723 540 689 L359 340 L184 655 L184 655 Z " />
<glyph glyph-name="quoteleft" unicode="&#x2018;" horiz-adv-x="481" d="" />
<glyph glyph-name="quoteright" unicode="&#x2019;" horiz-adv-x="42" d="" />
<glyph glyph-name="quotedblleft" unicode="&#x201c;" horiz-adv-x="481" d="M151 640 C146 640 141 637 137 633 C137 634 137 635 137 636 C137 673 161 724 191 749 L181 760 C149 733 122 672 122 627 C122 608 135 593 151 593 C164 593 175 604 175 616 C175 629 164 640 151 640 L151 640 Z " />
<glyph glyph-name="quotedblright" unicode="&#x201d;" horiz-adv-x="481" d="M165 721 C165 672 150 619 132 604 L143 593 C164 610 181 673 181 731 C181 747 167 760 151 760 C139 760 128 749 128 736 C128 724 139 713 151 713 C156 713 161 716 165 721 L165 721 Z " />
<glyph glyph-name="Euro" unicode="&#x20ac;" horiz-adv-x="741" d="M596 54 L596 54 C543 17 482 -8 418 -8 C297 -8 195 133 176 314 L476 314 L481 350 L174 350 C174 358 174 366 174 374 C174 382 174 390 174 398 L481 398 L486 434 L176 434 C196 615 303 756 428 756 C486 756 537 737 582 707 L580 708 C601 694 657 612 683 564 C688 555 692 547 692 547 L693 547 L695 547 L695 626 L695 632 L695 717 L693 717 L692 717 C692 717 688 707 683 694 C677 681 653 676 631 689 C578 730 512 758 427 758 C272 758 141 616 117 434 L61 434 L56 398 L114 398 C114 390 114 382 114 374 C114 366 114 358 114 350 L56 350 L51 314 L117 314 C141 132 269 -10 419 -10 C498 -10 569 17 625 57 L626 57 C648 73 676 65 684 51 C690 39 696 28 696 28 L696 114 L696 122 L696 201 L694 201 L693 201 C693 201 689 193 684 184 C659 139 612 64 597 54 L596 54 L596 54 Z " />
<glyph glyph-name="F_sc" unicode="&#xa730;" horiz-adv-x="503" d="M307 280 C341 273 355 248 358 218 L364 168 L366 168 L368 168 L368 281 L368 282 L368 283 L368 396 L366 396 L364 396 L358 346 C354 312 336 283 286 283 L194 283 L194 527 L194 583 L301 583 C392 583 425 556 431 524 L438 484 C439 484 440 484 442 485 C445 486 446 486 446 486 C445 500 443 522 442 535 C441 549 439 571 438 584 L356 584 L194 584 L144 584 L127 584 L61 584 L61 580 L61 576 L97 572 C123 569 144 558 144 527 L144 58 C144 28 123 16 97 13 L61 9 L61 5 L61 1 L144 1 L169 1 L194 1 L278 1 L278 5 L278 9 L241 13 C215 16 194 28 194 58 L194 281 L307 280 L307 280 Z " />
<glyph glyph-name="S_sc" unicode="&#xa731;" horiz-adv-x="477" d="M350 550 L348 551 C312 576 263 593 217 593 C139 593 73 528 73 450 C73 394 143 314 248 266 C337 224 397 164 397 125 C397 52 336 -8 263 -8 C224 -8 181 8 144 34 L145 34 C140 37 94 118 65 172 C60 181 56 189 56 189 L54 189 L52 189 L52 115 L52 95 L52 0 L54 0 L56 0 C56 0 60 13 65 29 C70 45 91 58 109 47 C152 13 210 -10 262 -10 C357 -10 436 58 436 139 C436 196 372 274 277 318 C178 364 112 429 112 469 C112 535 159 591 216 591 C236 591 257 587 277 579 C300 567 354 490 380 441 C385 432 389 424 389 424 L391 424 L393 424 L393 498 L393 507 L393 590 L391 590 L389 590 C389 590 385 579 380 567 C375 554 358 541 348 549 L350 550 L350 550 Z M275 579 L274 579 L274 579 L275 579 L275 579 Z " />
<glyph glyph-name="X_sc" unicode="&#xf078;" horiz-adv-x="629" d="M491 95 L491 95 L346 316 L463 468 L463 468 C464 469 465 470 466 471 L526 549 C540 564 549 570 554 570 L612 574 L612 578 L612 582 L551 582 L528 582 L517 582 L421 582 L421 578 L421 574 L480 570 C501 568 504 546 457 480 L457 480 L344 317 L232 487 L233 487 C192 549 195 569 212 570 L269 574 L269 578 L269 582 L170 582 L163 582 L111 582 L57 582 L57 578 L57 574 L116 570 C118 570 132 550 173 487 L173 487 L308 281 L148 65 C116 25 94 11 80 10 L22 6 L22 2 L22 -2 L99 -2 L120 -2 L144 -2 L266 -2 L266 2 L266 6 L197 10 C160 12 144 34 193 100 L192 100 L313 270 L429 93 L428 93 C468 32 466 12 449 10 L391 6 L391 2 L391 -2 L491 -2 L502 -2 L550 -2 L612 -2 L612 2 L612 6 L555 10 C548 11 529 31 488 93 L491 95 L491 95 Z " />
</font>
</svg>
