<?xml version="1.0" encoding="UTF-8"?>
<svg xmlns="http://www.w3.org/2000/svg" xmlns:xlink="http://www.w3.org/1999/xlink" version="1.2" >
<font id="Jadrien Light">
<font-face  font-family="Jadrien" units-per-em="1024" ascent="975" descent="-300" font-style="normal" font-weight="300" font-stretch="normal" cap-height="750" x-height="520" underline-position="-125" underline-thickness="50" />
<missing-glyph  horiz-adv-x="650" d="" />
<glyph glyph-name="NULL" d="" />
<glyph glyph-name="CR" unicode="&#xd;" horiz-adv-x="256" d="" />
<glyph glyph-name="space" unicode="&#x20;" horiz-adv-x="215" d="" />
<glyph glyph-name="exclam" unicode="&#x21;" horiz-adv-x="148" d="M44 0 L104 0 L104 60 L44 60 L44 0 L44 0 Z M45 750 L45 440 L67 193 L82 193 L104 440 L104 750 L45 750 L45 750 Z " />
<glyph glyph-name="quotedbl" unicode="&#x22;" horiz-adv-x="270" d="M167 750 L167 695 L183 650 L207 650 L223 695 L223 750 L167 750 L167 750 Z M77 750 L77 695 L93 650 L117 650 L133 695 L133 750 L77 750 L77 750 Z " />
<glyph glyph-name="numbersign" unicode="&#x23;" horiz-adv-x="638" d="M457 750 L430 540 L266 540 L293 750 L245 750 L218 540 L69 540 L63 500 L213 500 L181 250 L25 250 L19 210 L176 210 L149 0 L197 0 L224 210 L388 210 L361 0 L409 0 L436 210 L569 210 L575 250 L441 250 L473 500 L614 500 L619 540 L478 540 L505 750 L457 750 L457 750 Z M262 500 L426 500 L394 250 L230 250 L262 500 L262 500 Z " />
<glyph glyph-name="dollar" unicode="&#x24;" horiz-adv-x="523" d="M298 825 L298 752 C278 757 257 760 237 760 C226 760 215 759 205 757 L205 826 L173 826 L173 747 C105 716 56 637 56 548 C56 485 101 426 173 389 L173 73 C129 102 100 149 100 206 L52 173 L52 96 L73 96 C94 60 130 31 174 13 L174 -74 L206 -74 L206 2 C232 -5 260 -9 289 -9 C292 -9 295 -9 298 -9 L298 -74 L330 -74 L330 -5 C426 16 488 106 488 210 C488 288 426 360 330 398 L330 684 C367 661 398 625 411 581 L431 599 L451 617 L451 694 L416 694 L402 694 C382 714 357 730 330 741 L330 825 L298 825 L298 825 Z M298 407 C290 409 281 411 272 413 C247 418 224 426 204 436 L204 703 C214 707 225 709 236 709 C256 709 277 705 297 697 L298 407 L298 407 Z M172 454 C134 481 112 516 112 553 C112 608 136 658 172 686 L172 454 L172 454 Z M204 373 C220 367 237 362 255 358 C269 355 283 351 296 346 L296 39 C293 39 290 39 287 39 C257 39 229 45 204 55 L204 373 L204 373 Z M329 333 C392 303 431 257 431 208 C431 133 391 67 329 46 L329 333 L329 333 Z " />
<glyph glyph-name="percent" unicode="&#x25;" horiz-adv-x="681" d="M599 140 C599 73 568 16 523 16 C478 16 447 73 447 140 C447 207 478 264 523 264 C568 264 599 207 599 140 L599 140 Z M523 -10 C585 -10 628 59 628 140 C628 221 585 290 523 290 C461 290 419 221 419 140 C419 59 461 -10 523 -10 L523 -10 Z M82 610 C82 677 113 734 159 734 C204 734 235 677 235 610 C235 543 204 486 159 486 C113 486 82 543 82 610 L82 610 Z M159 760 C96 760 54 691 54 610 C54 529 96 460 159 460 C221 460 263 529 263 610 C263 691 221 760 159 760 L159 760 Z M147 0 L165 0 L534 750 L517 750 L147 0 L147 0 Z " />
<glyph glyph-name="ampersand" unicode="&#x26;" horiz-adv-x="670" d="M611 2 L604 44 C593 39 574 35 563 35 C537 35 505 62 472 101 C515 167 541 254 539 348 L494 359 C495 276 475 199 442 140 C438 145 434 150 430 156 C364 245 304 326 275 366 C372 435 454 510 454 531 C454 619 389 695 312 695 C229 695 159 619 159 529 C159 472 182 402 209 370 C124 310 51 223 51 181 C51 72 156 -21 279 -21 C340 -21 397 10 442 61 C482 18 522 -11 558 -11 C570 -11 594 -5 610 1 L611 2 L611 2 Z M252 394 C226 420 205 482 205 532 C205 597 254 653 311 653 C364 653 410 595 410 527 C410 515 337 454 252 394 L252 394 Z M230 341 C256 305 310 230 372 145 C385 127 398 110 411 94 C376 52 332 27 285 27 C186 27 102 101 102 187 C102 221 159 291 226 338 L230 341 L230 341 Z " />
<glyph glyph-name="quotesingle" unicode="&#x27;" horiz-adv-x="180" d="M77 750 L77 695 L93 650 L117 650 L133 695 L133 750 L77 750 L77 750 Z " />
<glyph glyph-name="parenleft" unicode="&#x28;" horiz-adv-x="341" d="M304 795 C189 699 111 512 111 335 C111 164 189 -19 304 -115 L321 -96 C215 -7 143 168 143 335 C143 508 215 687 321 776 L304 795 L304 795 Z " />
<glyph glyph-name="parenright" unicode="&#x29;" horiz-adv-x="323" d="M37 -115 C152 -19 230 168 230 345 C230 516 152 699 37 795 L20 776 C126 687 198 512 198 345 C198 172 126 -7 20 -96 L37 -115 L37 -115 Z " />
<glyph glyph-name="asterisk" unicode="&#x2a;" horiz-adv-x="351" d="M322 669 L189 618 L197 760 L155 760 L163 617 L30 669 L17 630 L155 593 L65 483 L99 458 L176 578 L253 458 L287 483 L196 594 L334 630 L322 669 L322 669 Z " />
<glyph glyph-name="plus" unicode="&#x2b;" horiz-adv-x="590" d="M279 245 L279 0 L311 0 L311 245 L565 245 L565 275 L311 275 L311 520 L279 520 L279 275 L25 275 L25 245 L279 245 L279 245 Z " />
<glyph glyph-name="comma" unicode="&#x2c;" horiz-adv-x="160" d="M50 60 L50 0 L77 0 C77 -39 67 -60 50 -60 L50 -86 C89 -86 110 -56 110 0 L110 60 L50 60 L50 60 Z " />
<glyph glyph-name="hyphen" unicode="&#x2d;" horiz-adv-x="337" d="M50 242 L287 242 L287 284 L50 284 L50 242 L50 242 Z " />
<glyph glyph-name="period" unicode="&#x2e;" horiz-adv-x="160" d="M50 0 L110 0 L110 60 L50 60 L50 0 L50 0 Z " />
<glyph glyph-name="slash" unicode="&#x2f;" horiz-adv-x="263" d="M0 0 L22 0 L263 750 L242 750 L0 0 L0 0 Z " />
<glyph glyph-name="zero" unicode="0" horiz-adv-x="672" d="M344 35 C216 35 128 173 128 375 C128 568 221 715 344 715 C466 715 559 568 559 375 C559 173 472 35 344 35 L344 35 Z M71 375 C71 146 182 -10 344 -10 C506 -10 617 146 617 375 C617 593 499 760 344 760 C189 760 71 593 71 375 L71 375 Z " />
<glyph glyph-name="one" unicode="1" horiz-adv-x="361" d="M234 0 L262 0 L339 0 L339 24 L339 70 L262 100 L262 676 L262 750 L218 750 L50 556 L50 488 L206 670 L206 100 L129 70 L129 24 L129 0 L206 0 L234 0 L234 0 Z " />
<glyph glyph-name="two" unicode="2" horiz-adv-x="551" d="M64 0 L124 0 L517 0 L517 27 L517 54 L517 131 L493 131 L447 131 L417 54 L129 54 C148 144 215 218 322 296 C419 367 502 471 502 521 C502 650 406 760 294 760 C182 760 86 657 86 535 C86 489 106 424 129 394 L178 419 C157 445 139 499 139 535 C139 632 210 715 294 715 C376 715 446 628 446 525 C446 481 360 381 258 307 C132 214 64 124 64 0 L64 0 Z " />
<glyph glyph-name="three" unicode="3" horiz-adv-x="570" d="M65 245 C65 107 171 -10 295 -10 C420 -10 526 91 526 209 C526 295 446 381 347 408 C429 427 496 496 496 564 C496 670 407 760 303 760 C198 760 109 659 109 540 L164 540 C164 635 227 715 301 715 C379 715 445 644 445 560 C445 488 373 427 289 427 L209 427 L209 414 L209 405 L209 384 L269 384 C375 384 465 305 465 212 C465 119 386 40 294 40 C201 40 121 134 121 245 L65 245 L65 245 Z " />
<glyph glyph-name="four" unicode="4" horiz-adv-x="567" d="M25 315 L25 272 L72 272 L386 272 L386 100 L309 70 L309 24 L309 0 L386 0 L414 0 L441 0 L518 0 C519 0 519 11 518 24 C519 49 519 70 518 70 L441 100 L441 272 L547 272 L547 322 L441 322 L441 553 L441 738 L441 750 L398 750 L25 315 L25 315 Z M83 322 L394 683 L386 553 L386 322 L83 322 L83 322 Z " />
<glyph glyph-name="five" unicode="5" horiz-adv-x="566" d="M110 346 L164 334 C209 385 282 428 322 428 C400 428 467 339 467 235 C467 130 388 40 296 40 C203 40 123 134 123 245 L66 245 C66 107 172 -10 296 -10 C421 -10 527 103 527 235 C527 364 438 473 333 473 C287 473 212 434 165 386 L171 699 L408 698 L408 697 L433 620 L478 620 L502 620 C503 640 505 671 507 697 L507 697 L508 709 C508 714 508 719 508 723 L510 750 L116 750 L110 346 L110 346 Z " />
<glyph glyph-name="six" unicode="6" horiz-adv-x="581" d="M532 626 C490 698 395 760 326 760 C177 760 75 582 75 372 C75 145 176 -10 323 -10 C447 -10 552 107 552 245 C552 374 454 483 340 483 C281 483 156 392 133 343 C133 343 171 381 176 390 L180 347 C235 407 311 438 329 438 C417 438 492 349 492 245 C492 132 414 35 323 35 C228 35 159 133 139 286 L139 286 L139 286 C135 316 133 348 133 382 C133 562 212 716 327 716 C379 716 455 662 492 598 L532 626 L532 626 Z M189 255 C184 260 142 283 139 285 L139 285 C150 308 165 328 181 346 L189 255 L189 255 Z M189 255 L189 254 C190 254 190 254 189 255 L189 255 Z " />
<glyph glyph-name="seven" unicode="7" horiz-adv-x="462" d="M30 750 L30 723 L30 696 L30 619 L54 619 L100 619 L130 696 L407 696 C250 425 165 180 165 0 L227 0 C227 199 306 444 452 696 L452 750 L30 750 L30 750 Z " />
<glyph glyph-name="eight" unicode="8" horiz-adv-x="600" d="M311 425 C214 425 155 486 155 559 C155 652 227 715 311 715 C403 715 466 643 466 559 C466 476 395 425 311 425 L311 425 Z M103 563 C103 489 155 423 243 401 C148 378 76 308 76 205 C76 89 165 -9 311 -9 C438 -9 546 72 546 205 C546 297 484 378 379 402 C458 423 517 481 517 564 C517 670 433 761 311 761 C199 761 103 681 103 564 L103 563 L103 563 Z M311 36 C202 36 136 116 136 209 C136 313 217 376 311 376 C420 376 486 300 486 210 C486 102 406 36 311 36 L311 36 Z " />
<glyph glyph-name="nine" unicode="9" horiz-adv-x="581" d="M70 124 C112 52 206 -10 275 -10 C425 -10 527 168 527 378 C527 605 426 760 279 760 C155 760 50 643 50 505 C50 376 147 267 262 267 C321 267 445 358 468 407 C468 407 430 369 425 360 L422 403 C367 343 291 312 273 312 C185 312 111 401 111 505 C111 618 188 715 280 715 C374 715 443 617 463 464 L463 464 L463 464 C467 434 469 402 469 368 C469 188 391 34 275 34 C223 34 147 88 111 152 L70 124 L70 124 Z M414 495 C420 489 460 467 463 465 L463 465 C452 442 437 422 421 404 L414 495 L414 495 Z M414 495 L414 496 C413 496 413 496 414 495 L414 495 Z " />
<glyph glyph-name="colon" unicode="&#x3a;" horiz-adv-x="160" d="M50 460 L110 460 L110 520 L50 520 L50 460 L50 460 Z M50 0 L110 0 L110 60 L50 60 L50 0 L50 0 Z " />
<glyph glyph-name="semicolon" unicode="&#x3b;" horiz-adv-x="160" d="M50 460 L110 460 L110 520 L50 520 L50 460 L50 460 Z M50 60 L50 0 L77 0 C77 -39 67 -60 50 -60 L50 -86 C89 -86 110 -56 110 0 L110 60 L50 60 L50 60 Z " />
<glyph glyph-name="less" unicode="&#x3c;" horiz-adv-x="492" d="M432 480 L45 278 L45 242 L432 40 L432 81 L80 260 L432 439 L432 480 L432 480 Z " />
<glyph glyph-name="equal" unicode="&#x3d;" horiz-adv-x="576" d="M39 180 L39 150 L526 150 L526 180 L39 180 L39 180 Z M39 380 L39 350 L526 350 L526 380 L39 380 L39 380 Z " />
<glyph glyph-name="greater" unicode="&#x3e;" horiz-adv-x="492" d="M412 260 L60 81 L60 40 L447 242 L447 278 L60 480 L60 439 L412 260 L412 260 Z " />
<glyph glyph-name="question" unicode="&#x3f;" horiz-adv-x="536" d="M243 0 L303 0 L303 60 L243 60 L243 0 L243 0 Z M31 557 L79 549 C87 642 178 721 277 721 C362 721 434 645 434 555 C434 482 408 431 361 409 C276 370 249 317 249 193 L297 193 C297 297 321 341 395 376 C454 403 486 466 486 555 C486 666 390 760 277 760 C154 760 41 667 31 557 L31 557 Z " />
<glyph glyph-name="at" unicode="&#x40;" horiz-adv-x="1143" d="M961 -119 C873 -181 697 -234 580 -234 C318 -234 94 -3 94 269 C94 541 318 772 582 772 C835 772 1051 581 1051 357 C1051 176 975 22 885 22 C796 22 730 108 743 208 L778 499 L732 499 L715 355 C697 456 642 510 573 510 C458 510 347 399 331 269 C314 129 401 9 521 9 C594 9 666 65 700 140 C717 56 785 -7 870 -7 C988 -7 1088 160 1088 357 C1088 598 855 804 582 804 C298 804 57 558 57 269 C57 -20 298 -266 580 -266 C701 -266 884 -210 979 -144 L961 -119 L961 -119 Z M697 208 C687 124 607 52 525 52 C433 52 366 152 380 269 C393 375 479 466 567 466 C654 466 717 375 697 208 L697 208 Z " />
<glyph glyph-name="A" unicode="A" horiz-adv-x="773" d="M686 100 L685 100 L428 750 L423 750 L395 750 L370 750 L367 750 L290 750 L290 726 L290 681 L327 650 L327 650 L108 100 L19 70 L19 28 L19 0 L68 0 L97 0 L127 0 L204 0 L204 24 L204 70 L166 100 L213 220 L205 200 L586 200 L625 101 L588 71 L588 25 L588 1 L664 1 L694 1 L723 1 L773 1 L773 29 L773 71 L686 100 L686 100 Z M221 243 L395 684 L569 243 L221 243 L221 243 Z " />
<glyph glyph-name="B" unicode="B" horiz-adv-x="705" d="M473 390 C563 414 630 478 630 550 C630 679 538 749 369 749 L199 749 L171 749 L144 749 L67 749 L67 725 L67 680 L144 649 L144 99 L67 69 L67 23 L67 -1 L144 -1 L171 -1 L199 -1 L410 -1 C579 -1 671 79 671 227 C671 308 583 377 473 389 L473 390 L473 390 Z M199 401 L199 706 L371 706 C501 706 572 650 572 546 C572 468 479 401 370 401 L199 401 L199 401 Z M199 42 L199 360 L403 360 C515 360 611 302 611 234 C611 109 535 42 394 42 L199 42 L199 42 Z " />
<glyph glyph-name="C" unicode="C" horiz-adv-x="692" d="M631 199 C631 110 516 35 381 35 C246 35 131 210 131 375 C131 540 246 715 381 715 C509 715 624 640 631 551 L652 569 L652 569 L672 587 L672 664 L637 664 L636 664 C619 683 597 700 571 714 L571 714 L571 714 C519 743 451 761 380 761 C213 761 70 563 70 376 C70 189 213 -9 380 -9 C537 -9 671 71 671 165 L631 199 L631 199 Z " />
<glyph glyph-name="D" unicode="D" horiz-adv-x="774" d="M171 0 L199 0 L374 0 C585 0 720 146 720 375 C720 598 567 750 344 750 L199 750 L171 750 L144 750 L67 750 L67 726 L67 681 L144 650 L144 100 L67 70 L67 24 L67 0 L144 0 L171 0 L171 0 Z M199 43 L199 707 L346 707 C532 707 660 572 660 375 C660 172 547 43 370 43 L199 43 L199 43 Z " />
<glyph glyph-name="E" unicode="E" horiz-adv-x="596" d="M546 23 L546 45 L546 122 C546 123 535 123 522 122 C498 123 477 123 477 122 L446 45 L199 45 L199 338 L411 338 L442 261 L487 261 L511 261 L511 338 L511 360 L511 381 L511 458 L487 458 L442 458 L411 381 L199 381 L199 705 L431 705 L462 628 L507 628 L531 628 L531 705 L531 727 L531 750 L199 750 L198 750 L171 750 L144 750 L67 750 L67 726 L67 681 L144 650 L144 100 L67 70 L67 24 L67 0 L144 0 L171 0 L198 0 L199 0 L546 0 L546 23 L546 23 Z " />
<glyph glyph-name="F" unicode="F" horiz-adv-x="561" d="M401 338 L432 261 L477 261 L501 261 L501 338 L501 360 L501 381 L501 458 L477 458 L432 458 L401 381 L199 381 L199 705 L431 705 L462 628 L507 628 L531 628 L531 705 L531 727 L531 750 L199 750 L198 750 L171 750 L144 750 L67 750 L67 726 L67 681 L144 650 L144 100 L67 70 L67 24 L67 0 L144 0 L171 0 L199 0 L276 0 L276 24 L276 70 L199 100 L199 338 L401 338 L401 338 Z " />
<glyph glyph-name="G" unicode="G" horiz-adv-x="745" d="M431 350 L647 350 L647 126 C589 77 488 35 413 35 C261 35 131 191 131 375 C131 559 261 715 413 715 C530 715 636 640 644 551 L664 568 L664 568 L685 586 L685 663 L651 663 C603 720 512 760 414 760 C229 760 72 583 72 375 C72 167 229 -10 414 -10 C507 -10 631 40 701 99 L701 395 L432 395 L431 350 L431 350 Z " />
<glyph glyph-name="H" unicode="H" horiz-adv-x="748" d="M597 0 L625 0 L702 0 L702 24 L702 70 L625 100 L625 650 L702 681 L702 726 L702 750 L625 750 L597 750 L569 750 L492 750 L492 726 L492 681 L569 650 L569 386 L199 386 L199 650 L276 681 L276 726 L276 750 L199 750 L171 750 L144 750 L67 750 L67 726 L67 681 L144 650 L144 100 L67 70 L67 24 L67 0 L144 0 L171 0 L199 0 L276 0 L276 24 L276 70 L199 100 L199 340 L569 340 L569 100 L492 70 L492 24 L492 0 L569 0 L597 0 L597 0 Z " />
<glyph glyph-name="I" unicode="I" horiz-adv-x="303" d="M153 0 L180 0 L257 0 L257 24 L257 70 L180 100 L180 650 L257 681 L257 726 L257 750 L180 750 L153 750 L125 750 L48 750 L48 726 L48 681 L125 650 L125 100 L48 70 L48 24 L48 0 L125 0 L153 0 L153 0 Z " />
<glyph glyph-name="J" unicode="J" horiz-adv-x="464" d="M67 283 L67 221 C67 78 126 -10 223 -10 C316 -10 380 96 380 220 L380 650 L457 681 L457 726 L457 750 L380 750 L352 750 L324 750 L247 750 L247 726 L247 681 L324 650 L324 220 C324 124 283 42 223 42 C161 42 123 116 123 237 L123 292 L67 283 L67 283 Z " />
<glyph glyph-name="K" unicode="K" horiz-adv-x="579" d="M537 0 L569 0 L608 0 L608 29 L608 70 L514 100 L312 470 L276 422 L450 100 L427 70 L427 24 L427 0 L504 0 L537 0 L537 0 Z M449 650 L449 650 L549 681 L549 719 L549 750 L525 750 L491 750 L458 750 L381 750 L381 726 L381 681 L384 650 L161 350 L161 650 L238 681 L238 726 L238 750 L161 750 L133 750 L105 750 L28 750 L28 726 L28 681 L105 650 L105 100 L28 70 L28 24 L28 0 L105 0 L133 0 L161 0 L238 0 L238 24 L238 70 L161 100 L161 272 L449 650 L449 650 Z " />
<glyph glyph-name="L" unicode="L" horiz-adv-x="545" d="M477 23 L477 45 L477 122 C477 123 466 123 453 122 C429 123 408 123 408 122 L377 45 L180 45 L180 650 L257 681 L257 726 L257 750 L180 750 L153 750 L125 750 L48 750 L48 726 L48 681 L125 650 L125 100 L48 70 L48 24 L48 0 L125 0 L153 0 L180 0 L477 0 L477 23 L477 23 Z " />
<glyph glyph-name="M" unicode="M" horiz-adv-x="882" d="M732 0 L759 0 L836 0 L836 24 L836 70 L759 100 L759 650 L836 681 L836 726 L836 750 L759 750 L732 750 L724 750 L705 750 L672 750 L451 75 L229 750 L198 750 L177 750 L171 750 L144 750 L67 750 L67 726 L67 681 L144 650 L144 100 L67 70 L67 24 L67 0 L144 0 L171 0 L198 0 L275 0 L275 24 L275 70 L198 100 L198 687 L427 0 L476 0 L705 693 L705 100 L629 70 L629 24 L629 0 L705 0 L732 0 L732 0 Z " />
<glyph glyph-name="N" unicode="N" horiz-adv-x="712" d="M534 650 L534 79 L203 750 L199 750 L171 750 L144 750 L67 750 L67 726 L67 681 L144 650 L144 100 L67 70 L67 24 L67 0 L144 0 L171 0 L199 0 L276 0 L276 24 L276 70 L199 100 L199 639 L514 0 L534 0 L573 0 L589 0 L589 650 L666 681 L666 726 L666 750 L589 750 L561 750 L534 750 L457 750 L457 726 L457 681 L534 650 L534 650 Z " />
<glyph glyph-name="O" unicode="O" horiz-adv-x="786" d="M404 35 C259 35 136 191 136 375 C136 549 266 715 404 715 C541 715 671 549 671 375 C671 191 548 35 404 35 L404 35 Z M76 375 C76 167 227 -10 404 -10 C580 -10 731 167 731 375 C731 573 572 760 404 760 C235 760 76 573 76 375 L76 375 Z " />
<glyph glyph-name="P" unicode="P" horiz-adv-x="634" d="M171 0 L199 0 L276 0 L276 24 L276 70 L199 100 L199 294 L409 294 C522 294 599 388 599 525 C599 659 522 750 409 750 L199 750 L171 750 L157 750 L144 750 L67 750 L67 726 L67 681 L144 650 L144 100 L67 70 L67 24 L67 0 L144 0 L171 0 L171 0 Z M199 337 L199 707 L406 707 C488 707 544 633 544 525 C544 413 490 337 411 337 L199 337 L199 337 Z " />
<glyph glyph-name="Q" unicode="Q" horiz-adv-x="786" d="M76 375 C76 167 227 -10 404 -10 C443 -10 481 -1 516 15 L666 -90 L698 -57 L560 39 C661 106 731 233 731 375 C731 573 572 760 404 760 C235 760 76 573 76 375 L76 375 Z M471 46 C450 39 428 35 405 35 C260 35 137 191 137 375 C137 549 267 715 405 715 C542 715 672 549 672 375 C672 242 608 124 518 68 L452 114 L421 81 L471 46 L471 46 Z " />
<glyph glyph-name="R" unicode="R" horiz-adv-x="672" d="M560 100 L560 100 L447 317 C539 335 599 415 599 526 C599 660 522 751 409 751 L199 751 L171 751 L157 751 L144 751 L67 751 L67 727 L67 682 L144 651 L144 101 L67 71 L67 25 L67 1 L144 1 L171 1 L199 1 L276 1 L276 25 L276 71 L199 101 L199 314 L385 314 L548 1 L580 1 L612 1 L653 1 L653 30 L653 71 L560 100 L560 100 Z M199 357 L199 708 L406 708 C488 708 544 634 544 526 C544 426 490 357 410 357 L199 357 L199 357 Z " />
<glyph glyph-name="S" unicode="S" horiz-adv-x="523" d="M73 95 C110 30 194 -10 289 -10 C408 -10 489 91 489 209 C489 302 401 386 273 414 C179 435 114 491 114 554 C114 638 171 710 238 710 C311 710 389 658 412 581 L432 599 L452 617 L452 694 L417 694 L403 694 C360 735 298 760 237 760 C139 760 56 662 56 547 C56 462 138 385 257 358 C361 335 432 274 432 208 C432 117 373 39 288 39 C186 39 100 106 100 205 L52 172 L52 95 L73 95 L73 95 Z " />
<glyph glyph-name="T" unicode="T" horiz-adv-x="567" d="M284 0 L311 0 L388 0 C389 0 389 11 388 24 C389 49 389 70 388 70 L311 100 L311 705 L457 705 L488 628 L533 628 L557 628 L557 705 L557 727 L557 750 L311 750 L256 750 L10 750 L10 727 L10 705 L10 628 L34 628 L80 628 L110 705 L256 705 L256 100 L179 70 L179 24 L179 0 L256 0 L283 0 L284 0 L284 0 Z " />
<glyph glyph-name="U" unicode="U" horiz-adv-x="707" d="M533 650 L533 650 L534 302 C534 148 465 42 363 42 C261 42 192 148 192 302 L192 650 L269 681 L269 726 L269 750 L192 750 L164 750 L137 750 L60 750 L60 726 L60 681 L137 650 L137 293 C137 113 229 -10 363 -10 C497 -10 589 113 589 293 L589 650 L666 681 L666 726 L666 750 L589 750 L561 750 L533 750 L457 750 L457 726 L457 681 L533 650 L533 650 Z " />
<glyph glyph-name="V" unicode="V" horiz-adv-x="680" d="M506 650 L506 650 L351 90 L195 650 L195 650 L244 681 L244 726 L244 750 L167 750 L137 750 L107 750 L50 750 L50 723 L50 681 L136 650 L324 0 L326 0 L376 0 L378 0 L564 650 L650 681 L650 723 L650 750 L593 750 L563 750 L533 750 L456 750 L456 726 L456 681 L506 650 L506 650 Z " />
<glyph glyph-name="W" unicode="W" horiz-adv-x="870" d="M705 650 L705 650 L606 123 L473 751 L419 751 L287 126 L187 651 L245 682 L245 727 L245 751 L168 751 L138 751 L108 751 L45 751 L45 725 L45 682 L128 651 L257 1 L261 1 L311 1 L446 625 L579 1 L583 1 L632 1 L764 651 L764 651 L847 682 L847 725 L847 751 L784 751 L754 751 L724 751 L647 751 L647 727 L647 682 L705 650 L705 650 Z " />
<glyph glyph-name="X" unicode="X" horiz-adv-x="693" d="M486 650 L486 650 L362 446 L252 651 L275 681 L275 726 L275 750 L199 750 L170 750 L142 750 L102 750 L102 721 L102 681 L195 650 L196 650 L332 396 L152 100 L56 70 L56 30 L56 0 L91 0 L121 0 L151 0 L228 0 L228 24 L228 70 L212 100 L212 100 L360 344 L491 100 L491 100 L468 70 L468 24 L468 0 L545 0 L573 0 L602 0 L641 0 L641 29 L641 70 L548 100 L390 393 L546 650 L642 681 L642 720 L642 750 L607 750 L577 750 L547 750 L470 750 L470 726 L470 681 L486 650 L486 650 Z " />
<glyph glyph-name="Y" unicode="Y" horiz-adv-x="691" d="M496 650 L496 650 L341 377 L186 650 L186 650 L206 681 L206 726 L206 750 L129 750 L101 750 L72 750 L35 750 L35 720 L35 681 L129 650 L129 650 L313 330 L313 100 L236 70 L236 24 L236 0 L313 0 L340 0 L368 0 L445 0 C446 0 446 11 445 24 C446 49 446 70 445 70 L368 100 L368 330 L552 650 L646 681 L646 720 L646 750 L609 750 L580 750 L552 750 L475 750 L475 726 L475 681 L496 650 L496 650 Z " />
<glyph glyph-name="Z" unicode="Z" horiz-adv-x="627" d="M582 23 L582 45 L582 122 C582 123 571 123 558 122 C534 123 513 123 513 122 L482 45 L109 45 L582 705 L582 750 L60 750 L60 727 L60 705 L60 628 L84 628 L130 628 L160 705 L518 705 L45 45 L45 0 L582 0 L582 23 L582 23 Z " />
<glyph glyph-name="bracketleft" unicode="&#x5b;" horiz-adv-x="310" d="M168 722 L280 722 L280 750 L168 750 L136 750 L136 -115 L168 -115 L280 -115 L280 -87 L168 -87 L168 722 L168 722 Z " />
<glyph glyph-name="backslash" unicode="&#x5c;" horiz-adv-x="311" d="M290 0 L312 0 L22 750 L0 750 L290 0 L290 0 Z " />
<glyph glyph-name="bracketright" unicode="&#x5d;" horiz-adv-x="299" d="M142 722 L142 -87 L30 -87 L30 -115 L142 -115 L174 -115 L174 750 L142 750 L30 750 L30 722 L142 722 L142 722 Z " />
<glyph glyph-name="underscore" unicode="&#x5f;" horiz-adv-x="652" d="M50 -115 L602 -115 L602 -85 L50 -85 L50 -115 L50 -115 Z " />
<glyph glyph-name="a" unicode="a" horiz-adv-x="522" d="M70 386 L115 371 C115 435 181 489 258 489 C333 489 397 451 397 381 L397 354 C397 288 317 250 224 239 C134 227 57 165 57 104 C57 42 118 -10 230 -10 C303 -10 368 20 397 88 L397 46 C397 6 410 0 492 0 L492 37 C453 37 447 38 447 46 L447 360 C447 470 360 530 258 530 C157 530 70 464 70 386 L70 386 Z M397 272 L397 174 C397 69 327 25 245 25 C155 25 106 62 106 106 C106 151 174 197 254 207 C314 214 368 235 398 272 L397 272 L397 272 Z " />
<glyph glyph-name="b" unicode="b" horiz-adv-x="570" d="M301 31 C212 31 137 118 137 260 C137 402 212 489 301 489 C390 489 466 384 466 260 C466 136 390 31 301 31 L301 31 Z M112 0 L137 0 L137 130 C171 41 240 -10 317 -10 C427 -10 520 114 520 260 C520 406 427 530 317 530 C240 530 171 479 137 390 L137 740 L137 750 L112 750 L87 750 L10 750 L10 726 L10 681 L87 650 L87 100 L10 70 L10 24 L10 0 L87 0 L112 0 L112 0 Z " />
<glyph glyph-name="c" unicode="c" horiz-adv-x="528" d="M454 151 C454 86 378 31 288 31 C198 31 122 118 122 260 C122 403 198 491 288 491 C395 491 454 427 455 352 L498 373 L498 450 L474 450 C442 497 379 530 288 530 C169 530 67 428 67 260 C67 92 169 -10 288 -10 C402 -10 499 54 499 130 L454 151 L454 151 Z " />
<glyph glyph-name="d" unicode="d" horiz-adv-x="546" d="M67 260 C67 114 155 -10 258 -10 C329 -10 393 50 425 136 L425 9 L425 -1 L450 -1 L475 -1 L552 -1 L552 23 L552 69 L475 99 L475 739 L475 749 L450 749 L425 749 L348 749 L348 725 L348 680 L425 649 L425 382 C393 468 329 528 258 528 C155 528 67 404 67 258 L67 260 L67 260 Z M426 258 C426 134 356 29 274 29 C192 29 122 134 122 258 C122 382 192 487 274 487 C356 487 426 382 426 258 L426 258 Z " />
<glyph glyph-name="e" unicode="e" horiz-adv-x="535" d="M458 148 C458 85 379 31 286 31 C204 31 132 107 123 232 L462 232 L512 232 C512 393 434 530 290 530 C169 530 67 428 67 260 C67 92 168 -10 286 -10 C404 -10 505 55 505 131 L458 148 L458 148 Z M461 267 L122 267 C124 406 200 491 290 491 C392 491 452 391 461 267 L461 267 Z " />
<glyph glyph-name="f" unicode="f" horiz-adv-x="429" d="M140 0 L165 0 L242 0 L242 24 L242 70 L165 100 L165 481 L360 481 L360 520 L165 520 L165 670 C165 695 177 709 199 709 L260 709 L290 632 L336 632 L360 632 L360 709 L360 729 L360 750 L185 750 C140 750 115 722 115 670 L115 520 L30 520 L30 481 L115 481 L115 100 L38 70 L38 24 L38 0 L115 0 L140 0 L140 0 Z " />
<glyph glyph-name="g" unicode="g" horiz-adv-x="536" d="M67 -74 C67 -140 159 -176 267 -176 C396 -176 466 -85 466 21 L466 420 L543 451 L543 496 L543 520 L466 520 L441 520 L416 520 L416 385 C384 470 322 530 253 530 C152 530 67 435 67 260 C67 92 152 0 253 0 C322 0 384 58 416 140 L416 0 C416 -72 362 -134 263 -134 C187 -134 122 -113 122 -74 L67 -74 L67 -74 Z M269 489 C348 489 416 384 416 260 C416 142 348 41 269 41 C190 41 122 118 122 260 C122 408 190 489 269 489 L269 489 Z " />
<glyph glyph-name="h" unicode="h" horiz-adv-x="548" d="M416 0 L441 0 L517 0 L517 24 L517 70 L441 100 L441 315 C441 440 382 525 314 525 C255 525 202 484 176 426 L176 739 L176 749 L151 749 L138 749 L126 749 L49 749 L49 725 L49 680 L126 649 L126 99 L49 69 L49 23 L49 -1 L126 -1 L151 -1 L176 -1 L253 -1 L253 23 L253 69 L176 99 L176 347 C176 418 231 479 295 479 C348 479 392 412 392 314 L392 99 L315 69 L315 23 L315 -1 L392 -1 L416 -1 L416 0 L416 0 Z " />
<glyph glyph-name="i" unicode="i" horiz-adv-x="298" d="M135 600 L195 600 L195 660 L135 660 L135 600 L135 600 Z M165 0 L190 0 L267 0 L267 24 L267 70 L190 100 L190 510 L190 520 L165 520 L140 520 L64 520 L64 496 L64 451 L140 420 L140 100 L64 70 L64 24 L64 0 L140 0 L165 0 L165 0 Z " />
<glyph glyph-name="j" unicode="j" horiz-adv-x="239" d="M114 600 L174 600 L174 660 L114 660 L114 600 L114 600 Z M46 -75 L46 -116 L83 -116 C143 -116 169 -81 169 0 L169 510 L169 520 L144 520 L119 520 L43 520 L43 496 L43 451 L119 420 L119 0 C119 -53 104 -75 69 -75 L46 -75 L46 -75 Z " />
<glyph glyph-name="k" unicode="k" horiz-adv-x="488" d="M418 100 L417 100 L272 340 L348 420 L454 451 L454 487 L454 520 L443 520 L414 520 L385 520 L308 520 L308 496 L308 451 L290 420 L290 420 L290 420 L275 394 C282 407 288 418 289 420 L136 259 L136 740 L136 750 L111 750 L98 750 L86 750 L9 750 L9 726 L9 681 L86 650 L86 100 L9 70 L9 24 L9 0 L86 0 L111 0 L136 0 L212 0 L212 24 L212 70 L136 100 L136 198 L233 300 L418 0 L448 0 L477 0 L512 0 L512 30 L512 70 L418 100 L418 100 Z M289 420 L289 420 L289 420 L289 420 L289 420 Z " />
<glyph glyph-name="l" unicode="l" horiz-adv-x="375" d="M204 0 L229 0 L306 0 L306 24 L306 70 L229 100 L229 740 L229 750 L204 750 L179 750 L102 750 L102 726 L102 681 L179 650 L179 100 L102 70 L102 24 L102 0 L179 0 L204 0 L204 0 Z " />
<glyph glyph-name="m" unicode="m" horiz-adv-x="771" d="M644 0 L669 0 L745 0 L745 24 L745 70 L669 100 L669 315 C669 440 613 525 548 525 C484 525 427 472 407 401 C389 477 347 524 300 524 C247 524 199 485 175 429 L175 509 L175 519 L150 519 L137 519 L125 519 L48 519 L48 495 L48 450 L125 419 L125 99 L48 69 L48 23 L48 -1 L125 -1 L150 -1 L175 -1 L252 -1 L252 23 L252 69 L175 99 L175 347 C175 418 224 479 282 479 C328 479 368 412 368 314 L368 99 L291 69 L291 23 L291 -1 L368 -1 L393 -1 L418 -1 L495 -1 L495 23 L495 69 L418 99 L418 314 C418 325 418 336 417 347 L418 347 C418 418 469 479 529 479 C578 479 619 412 619 314 L619 99 L542 69 L542 23 L542 -1 L619 -1 L644 0 L644 0 Z " />
<glyph glyph-name="n" unicode="n" horiz-adv-x="543" d="M416 0 L441 0 L517 0 L517 24 L517 70 L441 100 L441 315 C441 440 382 525 314 525 C255 525 202 484 176 426 L176 509 L176 519 L151 519 L138 519 L126 519 L49 519 L49 495 L49 450 L126 419 L126 99 L49 69 L49 23 L49 -1 L126 -1 L151 -1 L176 -1 L253 -1 L253 23 L253 69 L176 99 L176 347 C176 418 231 479 295 479 C348 479 392 412 392 314 L392 99 L315 69 L315 23 L315 -1 L392 -1 L416 -1 L416 0 L416 0 Z " />
<glyph glyph-name="o" unicode="o" horiz-adv-x="562" d="M290 27 C186 27 122 134 122 260 C122 405 199 493 290 493 C394 493 458 386 458 260 C458 115 381 27 290 27 L290 27 Z M67 260 C67 114 151 -10 290 -10 C410 -10 512 92 512 260 C512 406 428 530 290 530 C169 530 67 428 67 260 L67 260 Z " />
<glyph glyph-name="p" unicode="p" horiz-adv-x="608" d="M339 31 C250 31 175 118 175 260 C175 402 250 489 339 489 C428 489 504 384 504 260 C504 136 428 31 339 31 L339 31 Z M150 -155 L175 -155 L252 -155 L252 -131 L252 -85 L175 -55 L175 133 C208 42 278 -10 356 -10 C465 -10 559 114 559 260 C559 406 465 530 356 530 C278 530 208 478 175 387 L175 510 L175 520 L150 520 L137 520 L125 520 L48 520 L48 496 L48 451 L125 420 L125 -55 L48 -85 L48 -131 L48 -155 L125 -155 L150 -155 L150 -155 Z " />
<glyph glyph-name="q" unicode="q" horiz-adv-x="584" d="M67 260 C67 114 155 -10 258 -10 C329 -10 393 50 425 136 L425 -56 L348 -86 L348 -132 L348 -156 L425 -156 L450 -156 L475 -156 L552 -156 L552 -132 L552 -86 L475 -56 L475 419 L552 450 L552 495 L552 519 L475 519 L450 519 L425 519 L425 382 C393 468 329 528 258 528 C155 528 67 404 67 258 L67 260 L67 260 Z M426 258 C426 134 356 29 274 29 C192 29 122 134 122 258 C122 382 192 487 274 487 C356 487 426 382 426 258 L426 258 Z " />
<glyph glyph-name="r" unicode="r" horiz-adv-x="340" d="M321 466 L321 520 L312 520 C245 520 199 466 176 387 L176 510 L176 520 L151 520 L138 520 L126 520 L49 520 L49 496 L49 451 L126 420 L126 100 L49 70 L49 24 L49 0 L126 0 L151 0 L176 0 L253 0 L253 24 L253 70 L176 100 L176 258 C176 370 223 466 308 466 L321 466 L321 466 Z " />
<glyph glyph-name="s" unicode="s" horiz-adv-x="472" d="M142 17 L142 17 L142 17 C174 4 211 -4 250 -4 C354 -4 442 63 442 142 C442 206 367 269 257 283 C177 293 122 339 122 384 C122 441 182 489 252 489 C326 489 389 432 389 364 L409 373 L409 373 L430 383 L430 460 L401 460 C383 481 359 499 330 511 L330 511 L330 511 C306 521 279 526 251 526 C155 526 73 459 73 380 C73 315 142 251 244 239 C331 228 391 182 391 138 C391 82 326 35 249 35 C161 35 86 90 86 154 L41 137 L41 60 L75 60 L76 60 C93 43 115 28 140 17 L142 17 L142 17 Z " />
<glyph glyph-name="t" unicode="t" horiz-adv-x="317" d="M287 520 L160 520 L160 697 L110 655 L110 520 L10 520 L10 481 L110 481 L110 137 C110 44 122 0 198 0 L287 0 L287 41 L220 41 C168 41 160 72 160 137 L160 481 L287 481 L287 520 L287 520 Z " />
<glyph glyph-name="u" unicode="u" horiz-adv-x="566" d="M458 100 L458 520 L433 520 L408 520 L332 520 L332 496 L332 451 L408 420 L408 144 C408 85 354 35 291 35 C206 35 170 91 170 172 L170 520 L145 520 L120 520 L43 520 L43 496 L43 451 L120 420 L120 172 C120 64 166 -10 276 -10 C333 -10 384 27 408 79 L408 9 L408 -1 L433 -1 L458 -1 L535 -1 L535 23 L535 69 L458 100 L458 100 Z " />
<glyph glyph-name="v" unicode="v" horiz-adv-x="588" d="M454 420 L455 420 L543 451 L543 492 L543 520 L490 520 L462 520 L434 520 L357 520 L357 496 L357 451 L401 420 L278 50 L156 420 L156 420 L200 451 L200 496 L200 520 L123 520 L95 520 L66 520 L14 520 L14 492 L14 451 L101 420 L250 0 L261 0 L294 0 L304 0 L454 420 L454 420 Z " />
<glyph glyph-name="w" unicode="w" horiz-adv-x="794" d="M114 420 L114 420 L237 0 L248 0 L277 0 L287 0 L416 444 L544 0 L555 0 L583 0 L594 0 L717 420 L717 420 L803 451 L803 493 L803 520 L746 520 L720 520 L693 520 L616 520 C617 520 617 509 616 496 C617 471 617 450 616 450 L666 419 L568 50 L437 519 L393 519 L262 52 L164 419 L164 419 L214 450 L214 495 L214 519 L137 519 L111 519 L84 519 L28 519 L28 492 L28 450 L114 420 L114 420 Z M615 450 L615 450 L615 450 Z " />
<glyph glyph-name="x" unicode="x" horiz-adv-x="566" d="M329 420 L329 420 L259 316 L188 421 L198 451 L198 496 L198 520 L121 520 L91 520 L60 520 L30 520 C31 520 31 506 30 489 C31 469 31 452 30 452 L128 421 L229 272 L113 101 L15 71 L15 32 L15 1 L45 1 L75 1 L106 1 L183 1 L183 25 L183 71 L173 101 L259 228 L345 101 L335 72 L335 26 L335 2 L412 2 L442 2 L473 2 L502 2 L502 33 L502 72 L405 102 L289 274 L389 423 L390 423 L487 454 L487 492 L487 523 L457 523 L427 523 L397 523 L320 523 L320 499 L320 454 L329 420 L329 420 Z M30 454 L30 454 L30 454 Z " />
<glyph glyph-name="y" unicode="y" horiz-adv-x="579" d="M400 420 L400 420 L282 71 L159 420 L201 451 C202 450 202 471 201 496 C202 509 202 520 201 520 L124 520 L96 520 L68 520 L16 520 L16 492 L16 451 L104 420 L104 420 L257 -3 L254 -11 C218 -113 187 -157 153 -157 L103 -157 L103 -200 L153 -200 C209 -200 251 -149 293 -30 L455 420 L543 451 L543 492 L543 520 L491 520 L463 520 L434 520 L358 520 L358 496 L358 451 L400 420 L400 420 Z " />
<glyph glyph-name="z" unicode="z" horiz-adv-x="432" d="M45 520 L45 500 L45 481 L45 404 L69 404 L115 404 L145 481 L334 481 L30 30 L30 0 L84 0 L412 0 L412 20 L412 39 L412 116 L388 116 L343 116 L312 39 L90 39 L396 490 L396 520 L343 520 L45 520 L45 520 Z " />
<glyph glyph-name="braceleft" unicode="&#x7b;" horiz-adv-x="302" d="M272 750 L212 750 C171 750 136 711 136 664 L136 388 C136 356 103 329 64 329 L55 329 L55 306 L64 306 C103 306 136 279 136 247 L136 -29 C136 -76 171 -115 212 -115 L272 -115 L272 -87 L212 -87 C188 -87 168 -60 168 -29 L168 241 C168 272 135 306 96 318 C135 330 168 364 168 395 L168 665 C168 696 188 723 212 723 L272 723 L272 750 L272 750 Z " />
<glyph glyph-name="bar" unicode="&#x7c;" horiz-adv-x="122" d="M45 800 L45 -250 L78 -250 L78 800 L45 800 L45 800 Z " />
<glyph glyph-name="braceright" unicode="&#x7d;" horiz-adv-x="302" d="M30 750 L90 750 C131 750 166 711 166 664 L166 388 C166 356 199 329 239 329 L247 329 L247 306 L239 306 C199 306 166 279 166 247 L166 -29 C166 -76 131 -115 90 -115 L30 -115 L30 -87 L90 -87 C114 -87 134 -60 134 -29 L134 241 C134 272 167 306 206 318 C167 330 134 364 134 395 L134 665 C134 696 114 723 90 723 L30 723 L30 750 L30 750 Z " />
<glyph glyph-name="nbspace" unicode="&#xa0;" horiz-adv-x="189" d="" />
<glyph glyph-name="exclamdown" unicode="&#xa1;" horiz-adv-x="148" d="M104 520 L44 520 L44 460 L104 460 L104 520 L104 520 Z M104 -230 L104 80 L82 327 L67 327 L45 80 L45 -230 L104 -230 L104 -230 Z " />
<glyph glyph-name="cent" unicode="&#xa2;" horiz-adv-x="524" d="M269 595 L269 529 C158 520 67 420 67 260 C67 100 158 0 269 -9 L269 -75 L302 -75 L302 -10 C408 -4 495 57 495 129 L450 150 C450 89 383 37 302 31 L302 489 C361 482 409 438 436 382 C430 375 426 365 426 354 C426 334 440 317 457 317 C483 317 501 338 494 362 C471 447 400 521 302 528 L302 594 L269 595 L269 595 Z M269 31 C188 41 122 126 122 259 C122 393 188 479 269 489 L269 31 L269 31 Z " />
<glyph glyph-name="guillemotleft" unicode="&#xab;" horiz-adv-x="443" d="M344 470 L224 260 L344 50 L388 50 L268 260 L388 470 L344 470 L344 470 Z M205 470 L84 260 L205 50 L248 50 L128 260 L248 470 L205 470 L205 470 Z " />
<glyph glyph-name="logicalnot" unicode="&#xac;" horiz-adv-x="422" d="M372 92 L372 242 L372 284 L322 284 L50 284 L50 242 L322 242 L322 92 L372 92 L372 92 Z " />
<glyph glyph-name="periodcentered" unicode="&#xb7;" horiz-adv-x="160" d="M50 230 L110 230 L110 290 L50 290 L50 230 L50 230 Z " />
<glyph glyph-name="guillemotright" unicode="&#xbb;" horiz-adv-x="425" d="M234 470 L355 260 L234 50 L278 50 L398 260 L278 470 L234 470 L234 470 Z M94 470 L215 260 L94 50 L138 50 L258 260 L138 470 L94 470 L94 470 Z " />
<glyph glyph-name="questiondown" unicode="&#xbf;" horiz-adv-x="521" d="M278 520 L218 520 L218 460 L278 460 L278 520 L278 520 Z M490 -37 L442 -29 C434 -122 343 -201 244 -201 C159 -201 87 -125 87 -35 C87 38 113 89 161 111 C245 150 272 203 272 327 L224 327 C224 223 200 179 126 144 C67 117 35 54 35 -35 C35 -146 131 -240 244 -240 C367 -240 480 -147 490 -37 L490 -37 Z " />
<glyph glyph-name="Agrave" unicode="&#xc0;" horiz-adv-x="773" d="M376 830 L422 830 L367 980 L302 980 L376 830 L376 830 Z M686 100 L685 100 L428 750 L423 750 L395 750 L370 750 L367 750 L290 750 L290 726 L290 681 L327 650 L327 650 L108 100 L19 70 L19 28 L19 0 L68 0 L97 0 L127 0 L204 0 L204 24 L204 70 L166 100 L213 220 L205 200 L586 200 L625 101 L588 71 L588 25 L588 1 L664 1 L694 1 L723 1 L773 1 L773 29 L773 71 L686 100 L686 100 Z M221 243 L395 684 L569 243 L221 243 L221 243 Z " />
<glyph glyph-name="Aacute" unicode="&#xc1;" horiz-adv-x="773" d="M376 830 L422 830 L496 980 L431 980 L376 830 L376 830 Z M686 100 L685 100 L428 750 L423 750 L395 750 L370 750 L367 750 L290 750 L290 726 L290 681 L327 650 L327 650 L108 100 L19 70 L19 28 L19 0 L68 0 L97 0 L127 0 L204 0 L204 24 L204 70 L166 100 L213 220 L205 200 L586 200 L625 101 L588 71 L588 25 L588 1 L664 1 L694 1 L723 1 L773 1 L773 29 L773 71 L686 100 L686 100 Z M221 243 L395 684 L569 243 L221 243 L221 243 Z " />
<glyph glyph-name="Acircumflex" unicode="&#xc2;" horiz-adv-x="773" d="M399 941 L514 830 L560 830 L424 980 L374 980 L238 830 L284 830 L399 941 L399 941 Z M686 100 L685 100 L428 750 L423 750 L395 750 L370 750 L367 750 L290 750 L290 726 L290 681 L327 650 L327 650 L108 100 L19 70 L19 28 L19 0 L68 0 L97 0 L127 0 L204 0 L204 24 L204 70 L166 100 L213 220 L205 200 L586 200 L625 101 L588 71 L588 25 L588 1 L664 1 L694 1 L723 1 L773 1 L773 29 L773 71 L686 100 L686 100 Z M221 243 L395 684 L569 243 L221 243 L221 243 Z " />
<glyph glyph-name="Atilde" unicode="&#xc3;" horiz-adv-x="773" d="M330 830 C330 865 343 894 359 894 C396 894 397 820 442 820 C476 820 505 868 505 923 L468 923 C468 889 454 859 438 859 C402 859 400 933 356 933 C322 933 293 886 293 830 L330 830 L330 830 Z M686 100 L685 100 L428 750 L423 750 L395 750 L370 750 L367 750 L290 750 L290 726 L290 681 L327 650 L327 650 L108 100 L19 70 L19 28 L19 0 L68 0 L97 0 L127 0 L204 0 L204 24 L204 70 L166 100 L213 220 L205 200 L586 200 L625 101 L588 71 L588 25 L588 1 L664 1 L694 1 L723 1 L773 1 L773 29 L773 71 L686 100 L686 100 Z M221 243 L395 684 L569 243 L221 243 L221 243 Z " />
<glyph glyph-name="Adieresis" unicode="&#xc4;" horiz-adv-x="773" d="M436 830 L496 830 L496 890 L436 890 L436 830 L436 830 Z M301 830 L361 830 L361 890 L301 890 L301 830 L301 830 Z M686 100 L685 100 L428 750 L423 750 L395 750 L370 750 L367 750 L290 750 L290 726 L290 681 L327 650 L327 650 L108 100 L19 70 L19 28 L19 0 L68 0 L97 0 L127 0 L204 0 L204 24 L204 70 L166 100 L213 220 L205 200 L586 200 L625 101 L588 71 L588 25 L588 1 L664 1 L694 1 L723 1 L773 1 L773 29 L773 71 L686 100 L686 100 Z M221 243 L395 684 L569 243 L221 243 L221 243 Z " />
<glyph glyph-name="Aring" unicode="&#xc5;" horiz-adv-x="773" d="M399 853 C366 853 343 878 343 915 C343 950 367 977 399 977 C431 977 455 950 455 915 C455 878 432 853 399 853 L399 853 Z M318 915 C318 865 351 830 399 830 C447 830 480 865 480 915 C480 963 445 1000 399 1000 C353 1000 318 963 318 915 L318 915 Z M686 100 L685 100 L428 750 L423 750 L395 750 L370 750 L367 750 L290 750 L290 726 L290 681 L327 650 L327 650 L108 100 L19 70 L19 28 L19 0 L68 0 L97 0 L127 0 L204 0 L204 24 L204 70 L166 100 L213 220 L205 200 L586 200 L625 101 L588 71 L588 25 L588 1 L664 1 L694 1 L723 1 L773 1 L773 29 L773 71 L686 100 L686 100 Z M221 243 L395 684 L569 243 L221 243 L221 243 Z " />
<glyph glyph-name="Ccedilla" unicode="&#xc7;" horiz-adv-x="692" d="M631 199 C631 110 516 35 381 35 C246 35 131 210 131 375 C131 540 246 715 381 715 C509 715 624 640 631 551 L652 569 L652 569 L672 587 L672 664 L637 664 L636 664 C619 683 597 700 571 714 L571 714 L571 714 C519 743 451 761 380 761 C213 761 70 563 70 376 C70 198 200 10 357 -7 L329 -101 L344 -110 C347 -101 363 -94 379 -94 C399 -94 416 -117 416 -145 C416 -173 399 -196 378 -196 C360 -196 342 -181 339 -163 L320 -178 C323 -201 351 -220 379 -220 C414 -220 444 -185 444 -145 C444 -104 416 -70 384 -70 C371 -70 358 -76 351 -84 L373 -9 C375 -9 377 -9 379 -9 C536 -9 670 71 670 165 L631 199 L631 199 Z " />
<glyph glyph-name="Egrave" unicode="&#xc8;" horiz-adv-x="596" d="M315 830 L360 830 L306 980 L240 980 L315 830 L315 830 Z M546 23 L546 45 L546 122 C546 123 535 123 522 122 C498 123 477 123 477 122 L446 45 L199 45 L199 338 L411 338 L442 261 L487 261 L511 261 L511 338 L511 360 L511 381 L511 458 L487 458 L442 458 L411 381 L199 381 L199 705 L431 705 L462 628 L507 628 L531 628 L531 705 L531 727 L531 750 L199 750 L198 750 L171 750 L144 750 L67 750 L67 726 L67 681 L144 650 L144 100 L67 70 L67 24 L67 0 L144 0 L171 0 L198 0 L199 0 L546 0 L546 23 L546 23 Z " />
<glyph glyph-name="Eacute" unicode="&#xc9;" horiz-adv-x="596" d="M315 830 L360 830 L435 980 L369 980 L315 830 L315 830 Z M546 23 L546 45 L546 122 C546 123 535 123 522 122 C498 123 477 123 477 122 L446 45 L199 45 L199 338 L411 338 L442 261 L487 261 L511 261 L511 338 L511 360 L511 381 L511 458 L487 458 L442 458 L411 381 L199 381 L199 705 L431 705 L462 628 L507 628 L531 628 L531 705 L531 727 L531 750 L199 750 L198 750 L171 750 L144 750 L67 750 L67 726 L67 681 L144 650 L144 100 L67 70 L67 24 L67 0 L144 0 L171 0 L198 0 L199 0 L546 0 L546 23 L546 23 Z " />
<glyph glyph-name="Ecircumflex" unicode="&#xca;" horiz-adv-x="596" d="M337 941 L453 830 L498 830 L363 980 L312 980 L177 830 L222 830 L337 941 L337 941 Z M546 23 L546 45 L546 122 C546 123 535 123 522 122 C498 123 477 123 477 122 L446 45 L199 45 L199 338 L411 338 L442 261 L487 261 L511 261 L511 338 L511 360 L511 381 L511 458 L487 458 L442 458 L411 381 L199 381 L199 705 L431 705 L462 628 L507 628 L531 628 L531 705 L531 727 L531 750 L199 750 L198 750 L171 750 L144 750 L67 750 L67 726 L67 681 L144 650 L144 100 L67 70 L67 24 L67 0 L144 0 L171 0 L198 0 L199 0 L546 0 L546 23 L546 23 Z " />
<glyph glyph-name="Edieresis" unicode="&#xcb;" horiz-adv-x="596" d="M375 830 L435 830 L435 890 L375 890 L375 830 L375 830 Z M240 830 L300 830 L300 890 L240 890 L240 830 L240 830 Z M546 23 L546 45 L546 122 C546 123 535 123 522 122 C498 123 477 123 477 122 L446 45 L199 45 L199 338 L411 338 L442 261 L487 261 L511 261 L511 338 L511 360 L511 381 L511 458 L487 458 L442 458 L411 381 L199 381 L199 705 L431 705 L462 628 L507 628 L531 628 L531 705 L531 727 L531 750 L199 750 L198 750 L171 750 L144 750 L67 750 L67 726 L67 681 L144 650 L144 100 L67 70 L67 24 L67 0 L144 0 L171 0 L198 0 L199 0 L546 0 L546 23 L546 23 Z " />
<glyph glyph-name="Igrave" unicode="&#xcc;" horiz-adv-x="303" d="M130 830 L175 830 L121 980 L55 980 L130 830 L130 830 Z M153 0 L180 0 L257 0 L257 24 L257 70 L180 100 L180 650 L257 681 L257 726 L257 750 L180 750 L153 750 L125 750 L48 750 L48 726 L48 681 L125 650 L125 100 L48 70 L48 24 L48 0 L125 0 L153 0 L153 0 Z " />
<glyph glyph-name="Iacute" unicode="&#xcd;" horiz-adv-x="303" d="M130 830 L175 830 L250 980 L184 980 L130 830 L130 830 Z M153 0 L180 0 L257 0 L257 24 L257 70 L180 100 L180 650 L257 681 L257 726 L257 750 L180 750 L153 750 L125 750 L48 750 L48 726 L48 681 L125 650 L125 100 L48 70 L48 24 L48 0 L125 0 L153 0 L153 0 Z " />
<glyph glyph-name="Icircumflex" unicode="&#xce;" horiz-adv-x="303" d="M153 941 L268 830 L314 830 L178 980 L127 980 L-8 830 L37 830 L153 941 L153 941 Z M153 0 L180 0 L257 0 L257 24 L257 70 L180 100 L180 650 L257 681 L257 726 L257 750 L180 750 L153 750 L125 750 L48 750 L48 726 L48 681 L125 650 L125 100 L48 70 L48 24 L48 0 L125 0 L153 0 L153 0 Z " />
<glyph glyph-name="Idieresis" unicode="&#xcf;" horiz-adv-x="303" d="M190 830 L250 830 L250 890 L190 890 L190 830 L190 830 Z M55 830 L115 830 L115 890 L55 890 L55 830 L55 830 Z M153 0 L180 0 L257 0 L257 24 L257 70 L180 100 L180 650 L257 681 L257 726 L257 750 L180 750 L153 750 L125 750 L48 750 L48 726 L48 681 L125 650 L125 100 L48 70 L48 24 L48 0 L125 0 L153 0 L153 0 Z " />
<glyph glyph-name="Ntilde" unicode="&#xd1;" horiz-adv-x="712" d="M298 830 C298 865 311 894 327 894 C363 894 365 820 410 820 C443 820 472 868 472 923 L435 923 C435 889 422 859 406 859 C370 859 368 933 323 933 C290 933 261 886 261 830 L298 830 L298 830 Z M534 650 L534 79 L203 750 L199 750 L171 750 L144 750 L67 750 L67 726 L67 681 L144 650 L144 100 L67 70 L67 24 L67 0 L144 0 L171 0 L199 0 L276 0 L276 24 L276 70 L199 100 L199 639 L514 0 L534 0 L573 0 L589 0 L589 650 L666 681 L666 726 L666 750 L589 750 L561 750 L534 750 L457 750 L457 726 L457 681 L534 650 L534 650 Z " />
<glyph glyph-name="Ograve" unicode="&#xd2;" horiz-adv-x="786" d="M381 830 L426 830 L372 980 L306 980 L381 830 L381 830 Z M404 35 C259 35 136 191 136 375 C136 549 266 715 404 715 C541 715 671 549 671 375 C671 191 548 35 404 35 L404 35 Z M76 375 C76 167 227 -10 404 -10 C580 -10 731 167 731 375 C731 573 572 760 404 760 C235 760 76 573 76 375 L76 375 Z " />
<glyph glyph-name="Oacute" unicode="&#xd3;" horiz-adv-x="786" d="M381 830 L426 830 L501 980 L435 980 L381 830 L381 830 Z M404 35 C259 35 136 191 136 375 C136 549 266 715 404 715 C541 715 671 549 671 375 C671 191 548 35 404 35 L404 35 Z M76 375 C76 167 227 -10 404 -10 C580 -10 731 167 731 375 C731 573 572 760 404 760 C235 760 76 573 76 375 L76 375 Z " />
<glyph glyph-name="Ocircumflex" unicode="&#xd4;" horiz-adv-x="786" d="M404 941 L519 830 L564 830 L429 980 L378 980 L243 830 L288 830 L404 941 L404 941 Z M404 35 C259 35 136 191 136 375 C136 549 266 715 404 715 C541 715 671 549 671 375 C671 191 548 35 404 35 L404 35 Z M76 375 C76 167 227 -10 404 -10 C580 -10 731 167 731 375 C731 573 572 760 404 760 C235 760 76 573 76 375 L76 375 Z " />
<glyph glyph-name="Otilde" unicode="&#xd5;" horiz-adv-x="786" d="M335 830 C335 865 348 894 364 894 C400 894 402 820 447 820 C480 820 509 868 509 923 L472 923 C472 889 459 859 443 859 C407 859 405 933 360 933 C327 933 298 886 298 830 L335 830 L335 830 Z M404 35 C259 35 136 191 136 375 C136 549 266 715 404 715 C541 715 671 549 671 375 C671 191 548 35 404 35 L404 35 Z M76 375 C76 167 227 -10 404 -10 C580 -10 731 167 731 375 C731 573 572 760 404 760 C235 760 76 573 76 375 L76 375 Z " />
<glyph glyph-name="Odieresis" unicode="&#xd6;" horiz-adv-x="786" d="M441 830 L501 830 L501 890 L441 890 L441 830 L441 830 Z M306 830 L366 830 L366 890 L306 890 L306 830 L306 830 Z M404 35 C259 35 136 191 136 375 C136 549 266 715 404 715 C541 715 671 549 671 375 C671 191 548 35 404 35 L404 35 Z M76 375 C76 167 227 -10 404 -10 C580 -10 731 167 731 375 C731 573 572 760 404 760 C235 760 76 573 76 375 L76 375 Z " />
<glyph glyph-name="Oslash" unicode="&#xd8;" horiz-adv-x="786" d="M404 35 C334 35 269 71 221 130 L599 597 C643 535 671 456 671 375 C671 191 548 35 404 35 L404 35 Z M76 375 C76 272 113 177 171 107 L76 -10 L107 -10 L187 89 C245 28 321 -10 403 -10 C579 -10 730 167 730 375 C730 473 691 568 632 639 L730 760 L699 760 L616 657 C557 720 481 760 403 760 C234 760 75 573 75 375 L76 375 L76 375 Z M204 150 C161 211 134 290 134 375 C134 549 264 715 402 715 C468 715 533 676 582 616 L204 150 L204 150 Z " />
<glyph glyph-name="Ugrave" unicode="&#xd9;" horiz-adv-x="707" d="M340 820 L386 820 L331 970 L266 970 L340 820 L340 820 Z M533 650 L533 650 L534 302 C534 148 465 42 363 42 C261 42 192 148 192 302 L192 650 L269 681 L269 726 L269 750 L192 750 L164 750 L137 750 L60 750 L60 726 L60 681 L137 650 L137 293 C137 113 229 -10 363 -10 C497 -10 589 113 589 293 L589 650 L666 681 L666 726 L666 750 L589 750 L561 750 L533 750 L457 750 L457 726 L457 681 L533 650 L533 650 Z " />
<glyph glyph-name="Uacute" unicode="&#xda;" horiz-adv-x="707" d="M340 820 L386 820 L460 970 L395 970 L340 820 L340 820 Z M533 650 L533 650 L534 302 C534 148 465 42 363 42 C261 42 192 148 192 302 L192 650 L269 681 L269 726 L269 750 L192 750 L164 750 L137 750 L60 750 L60 726 L60 681 L137 650 L137 293 C137 113 229 -10 363 -10 C497 -10 589 113 589 293 L589 650 L666 681 L666 726 L666 750 L589 750 L561 750 L533 750 L457 750 L457 726 L457 681 L533 650 L533 650 Z " />
<glyph glyph-name="Ucircumflex" unicode="&#xdb;" horiz-adv-x="707" d="M363 931 L478 820 L524 820 L388 970 L338 970 L202 820 L248 820 L363 931 L363 931 Z M533 650 L533 650 L534 302 C534 148 465 42 363 42 C261 42 192 148 192 302 L192 650 L269 681 L269 726 L269 750 L192 750 L164 750 L137 750 L60 750 L60 726 L60 681 L137 650 L137 293 C137 113 229 -10 363 -10 C497 -10 589 113 589 293 L589 650 L666 681 L666 726 L666 750 L589 750 L561 750 L533 750 L457 750 L457 726 L457 681 L533 650 L533 650 Z " />
<glyph glyph-name="Udieresis" unicode="&#xdc;" horiz-adv-x="707" d="M400 820 L460 820 L460 880 L400 880 L400 820 L400 820 Z M265 820 L325 820 L325 880 L265 880 L265 820 L265 820 Z M533 650 L533 650 L534 302 C534 148 465 42 363 42 C261 42 192 148 192 302 L192 650 L269 681 L269 726 L269 750 L192 750 L164 750 L137 750 L60 750 L60 726 L60 681 L137 650 L137 293 C137 113 229 -10 363 -10 C497 -10 589 113 589 293 L589 650 L666 681 L666 726 L666 750 L589 750 L561 750 L533 750 L457 750 L457 726 L457 681 L533 650 L533 650 Z " />
<glyph glyph-name="Yacute" unicode="&#xdd;" horiz-adv-x="658" d="M319 830 L364 830 L439 980 L373 980 L319 830 L319 830 Z M496 650 L496 650 L341 377 L186 650 L186 650 L206 681 L206 726 L206 750 L129 750 L101 750 L72 750 L35 750 L35 720 L35 681 L129 650 L129 650 L313 330 L313 100 L236 70 L236 24 L236 0 L313 0 L340 0 L368 0 L445 0 C446 0 446 11 445 24 C446 49 446 70 445 70 L368 100 L368 330 L552 650 L646 681 L646 720 L646 750 L609 750 L580 750 L552 750 L475 750 L475 726 L475 681 L496 650 L496 650 Z " />
<glyph glyph-name="Thorn" unicode="&#xde;" horiz-adv-x="634" d="M171 0 L199 0 L276 0 L276 24 L276 70 L199 100 L199 150 L409 150 C522 150 599 241 599 375 C599 509 522 600 409 600 L199 600 L199 650 L276 681 L276 726 L276 750 L199 750 L171 750 L144 750 L67 750 L67 726 L67 681 L144 650 L144 100 L67 70 L67 24 L67 0 L144 0 L171 0 L171 0 Z M199 193 L199 557 L406 557 C488 557 544 483 544 375 C544 267 490 193 411 193 L199 193 L199 193 Z " />
<glyph glyph-name="agrave" unicode="&#xe0;" horiz-adv-x="522" d="M235 600 L281 600 L226 750 L161 750 L235 600 L235 600 Z M70 386 L115 371 C115 435 181 489 258 489 C333 489 397 451 397 381 L397 354 C397 288 317 250 224 239 C134 227 57 165 57 104 C57 42 118 -10 230 -10 C303 -10 368 20 397 88 L397 46 C397 6 410 0 492 0 L492 37 C453 37 447 38 447 46 L447 360 C447 470 360 530 258 530 C157 530 70 464 70 386 L70 386 Z M397 272 L397 174 C397 69 327 25 245 25 C155 25 106 62 106 106 C106 151 174 197 254 207 C314 214 368 235 398 272 L397 272 L397 272 Z " />
<glyph glyph-name="aacute" unicode="&#xe1;" horiz-adv-x="522" d="M235 600 L281 600 L355 750 L290 750 L235 600 L235 600 Z M70 386 L115 371 C115 435 181 489 258 489 C333 489 397 451 397 381 L397 354 C397 288 317 250 224 239 C134 227 57 165 57 104 C57 42 118 -10 230 -10 C303 -10 368 20 397 88 L397 46 C397 6 410 0 492 0 L492 37 C453 37 447 38 447 46 L447 360 C447 470 360 530 258 530 C157 530 70 464 70 386 L70 386 Z M397 272 L397 174 C397 69 327 25 245 25 C155 25 106 62 106 106 C106 151 174 197 254 207 C314 214 368 235 398 272 L397 272 L397 272 Z " />
<glyph glyph-name="acircumflex" unicode="&#xe2;" horiz-adv-x="522" d="M258 711 L374 600 L419 600 L284 750 L233 750 L97 600 L143 600 L258 711 L258 711 Z M70 386 L115 371 C115 435 181 489 258 489 C333 489 397 451 397 381 L397 354 C397 288 317 250 224 239 C134 227 57 165 57 104 C57 42 118 -10 230 -10 C303 -10 368 20 397 88 L397 46 C397 6 410 0 492 0 L492 37 C453 37 447 38 447 46 L447 360 C447 470 360 530 258 530 C157 530 70 464 70 386 L70 386 Z M397 272 L397 174 C397 69 327 25 245 25 C155 25 106 62 106 106 C106 151 174 197 254 207 C314 214 368 235 398 272 L397 272 L397 272 Z " />
<glyph glyph-name="atilde" unicode="&#xe3;" horiz-adv-x="522" d="M190 600 C190 635 203 664 219 664 C255 664 257 590 301 590 C335 590 364 638 364 693 L327 693 C327 659 314 629 298 629 C262 629 260 703 215 703 C182 703 153 656 153 600 L190 600 L190 600 Z M70 386 L115 371 C115 435 181 489 258 489 C333 489 397 451 397 381 L397 354 C397 288 317 250 224 239 C134 227 57 165 57 104 C57 42 118 -10 230 -10 C303 -10 368 20 397 88 L397 46 C397 6 410 0 492 0 L492 37 C453 37 447 38 447 46 L447 360 C447 470 360 530 258 530 C157 530 70 464 70 386 L70 386 Z M397 272 L397 174 C397 69 327 25 245 25 C155 25 106 62 106 106 C106 151 174 197 254 207 C314 214 368 235 398 272 L397 272 L397 272 Z " />
<glyph glyph-name="adieresis" unicode="&#xe4;" horiz-adv-x="522" d="M306 600 L366 600 L366 660 L306 660 L306 600 L306 600 Z M151 600 L211 600 L211 660 L151 660 L151 600 L151 600 Z M70 386 L115 371 C115 435 181 489 258 489 C333 489 397 451 397 381 L397 354 C397 288 317 250 224 239 C134 227 57 165 57 104 C57 42 118 -10 230 -10 C303 -10 368 20 397 88 L397 46 C397 6 410 0 492 0 L492 37 C453 37 447 38 447 46 L447 360 C447 470 360 530 258 530 C157 530 70 464 70 386 L70 386 Z M397 272 L397 174 C397 69 327 25 245 25 C155 25 106 62 106 106 C106 151 174 197 254 207 C314 214 368 235 398 272 L397 272 L397 272 Z " />
<glyph glyph-name="aring" unicode="&#xe5;" horiz-adv-x="522" d="M258 623 C225 623 202 648 202 685 C202 720 226 747 258 747 C290 747 314 720 314 685 C314 648 291 623 258 623 L258 623 Z M177 685 C177 635 210 600 258 600 C306 600 339 635 339 685 C339 733 304 770 258 770 C212 770 177 733 177 685 L177 685 Z M70 386 L115 371 C115 435 181 489 258 489 C333 489 397 451 397 381 L397 354 C397 288 317 250 224 239 C134 227 57 165 57 104 C57 42 118 -10 230 -10 C303 -10 368 20 397 88 L397 46 C397 6 410 0 492 0 L492 37 C453 37 447 38 447 46 L447 360 C447 470 360 530 258 530 C157 530 70 464 70 386 L70 386 Z M397 272 L397 174 C397 69 327 25 245 25 C155 25 106 62 106 106 C106 151 174 197 254 207 C314 214 368 235 398 272 L397 272 L397 272 Z " />
<glyph glyph-name="ccedilla" unicode="&#xe7;" horiz-adv-x="528" d="M454 151 C454 86 378 31 288 31 C198 31 122 118 122 260 C122 403 198 491 288 491 C395 491 454 427 455 352 L498 373 C497 458 423 530 288 530 C169 530 67 428 67 260 C67 101 159 1 270 -9 L243 -103 L258 -112 L258 -111 C261 -103 276 -97 292 -97 C312 -97 329 -120 329 -148 C329 -176 311 -199 290 -199 C272 -199 254 -184 252 -166 L232 -181 C235 -204 263 -223 292 -223 C327 -223 357 -188 357 -148 C357 -107 329 -73 296 -73 C284 -73 272 -78 265 -85 L287 -10 L287 -10 C401 -10 498 54 498 130 L454 151 L454 151 Z " />
<glyph glyph-name="egrave" unicode="&#xe8;" horiz-adv-x="535" d="M267 600 L313 600 L258 750 L193 750 L267 600 L267 600 Z M458 148 C458 85 379 31 286 31 C204 31 132 107 123 232 L462 232 L512 232 C512 393 434 530 290 530 C169 530 67 428 67 260 C67 92 168 -10 286 -10 C404 -10 505 55 505 131 L458 148 L458 148 Z M461 267 L122 267 C124 406 200 491 290 491 C392 491 452 391 461 267 L461 267 Z " />
<glyph glyph-name="eacute" unicode="&#xe9;" horiz-adv-x="535" d="M267 600 L313 600 L387 750 L322 750 L267 600 L267 600 Z M458 148 C458 85 379 31 286 31 C204 31 132 107 123 232 L462 232 L512 232 C512 393 434 530 290 530 C169 530 67 428 67 260 C67 92 168 -10 286 -10 C404 -10 505 55 505 131 L458 148 L458 148 Z M461 267 L122 267 C124 406 200 491 290 491 C392 491 452 391 461 267 L461 267 Z " />
<glyph glyph-name="ecircumflex" unicode="&#xea;" horiz-adv-x="535" d="M290 711 L405 600 L451 600 L315 750 L265 750 L129 600 L175 600 L290 711 L290 711 Z M458 148 C458 85 379 31 286 31 C204 31 132 107 123 232 L462 232 L512 232 C512 393 434 530 290 530 C169 530 67 428 67 260 C67 92 168 -10 286 -10 C404 -10 505 55 505 131 L458 148 L458 148 Z M461 267 L122 267 C124 406 200 491 290 491 C392 491 452 391 461 267 L461 267 Z " />
<glyph glyph-name="edieresis" unicode="&#xeb;" horiz-adv-x="535" d="M327 600 L387 600 L387 660 L327 660 L327 600 L327 600 Z M192 600 L252 600 L252 660 L192 660 L192 600 L192 600 Z M458 148 C458 85 379 31 286 31 C204 31 132 107 123 232 L462 232 L512 232 C512 393 434 530 290 530 C169 530 67 428 67 260 C67 92 168 -10 286 -10 C404 -10 505 55 505 131 L458 148 L458 148 Z M461 267 L122 267 C124 406 200 491 290 491 C392 491 452 391 461 267 L461 267 Z " />
<glyph glyph-name="igrave" unicode="&#xec;" horiz-adv-x="241" d="M86 600 L131 600 L77 750 L11 750 L86 600 L86 600 Z M108 0 L133 0 L210 0 L210 24 L210 70 L133 100 L133 520 L108 520 L83 520 L7 520 L7 496 L7 451 L83 420 L83 100 L7 70 L7 24 L7 0 L83 0 L108 0 L108 0 Z " />
<glyph glyph-name="iacute" unicode="&#xed;" horiz-adv-x="241" d="M86 600 L131 600 L206 750 L140 750 L86 600 L86 600 Z M108 0 L133 0 L210 0 L210 24 L210 70 L133 100 L133 520 L108 520 L83 520 L7 520 L7 496 L7 451 L83 420 L83 100 L7 70 L7 24 L7 0 L83 0 L108 0 L108 0 Z " />
<glyph glyph-name="icircumflex" unicode="&#xee;" horiz-adv-x="241" d="M108 711 L224 600 L269 600 L134 750 L83 750 L-52 600 L-7 600 L108 711 L108 711 Z M108 0 L133 0 L210 0 L210 24 L210 70 L133 100 L133 520 L108 520 L83 520 L7 520 L7 496 L7 451 L83 420 L83 100 L7 70 L7 24 L7 0 L83 0 L108 0 L108 0 Z " />
<glyph glyph-name="idieresis" unicode="&#xef;" horiz-adv-x="241" d="M156 600 L216 600 L216 660 L156 660 L156 600 L156 600 Z M1 600 L61 600 L61 660 L1 660 L1 600 L1 600 Z M108 0 L133 0 L210 0 L210 24 L210 70 L133 100 L133 520 L108 520 L83 520 L7 520 L7 496 L7 451 L83 420 L83 100 L7 70 L7 24 L7 0 L83 0 L108 0 L108 0 Z " />
<glyph glyph-name="ntilde" unicode="&#xf1;" horiz-adv-x="543" d="M214 600 C214 635 227 664 243 664 C279 664 281 590 326 590 C359 590 388 638 388 693 L352 693 C352 659 338 629 322 629 C286 629 284 703 240 703 C206 703 177 656 177 600 L214 600 L214 600 Z M416 0 L441 0 L517 0 L517 24 L517 70 L441 100 L441 315 C441 440 382 525 314 525 C255 525 202 484 176 426 L176 509 L176 519 L151 519 L138 519 L126 519 L49 519 L49 495 L49 450 L126 419 L126 99 L49 69 L49 23 L49 -1 L126 -1 L151 -1 L176 -1 L253 -1 L253 23 L253 69 L176 99 L176 347 C176 418 231 479 295 479 C348 479 392 412 392 314 L392 99 L315 69 L315 23 L315 -1 L392 -1 L416 -1 L416 0 L416 0 Z " />
<glyph glyph-name="ograve" unicode="&#xf2;" horiz-adv-x="562" d="M267 600 L313 600 L258 750 L193 750 L267 600 L267 600 Z M290 27 C186 27 122 134 122 260 C122 405 199 493 290 493 C394 493 458 386 458 260 C458 115 381 27 290 27 L290 27 Z M67 260 C67 114 151 -10 290 -10 C410 -10 512 92 512 260 C512 406 428 530 290 530 C169 530 67 428 67 260 L67 260 Z " />
<glyph glyph-name="oacute" unicode="&#xf3;" horiz-adv-x="562" d="M267 600 L313 600 L387 750 L322 750 L267 600 L267 600 Z M290 27 C186 27 122 134 122 260 C122 405 199 493 290 493 C394 493 458 386 458 260 C458 115 381 27 290 27 L290 27 Z M67 260 C67 114 151 -10 290 -10 C410 -10 512 92 512 260 C512 406 428 530 290 530 C169 530 67 428 67 260 L67 260 Z " />
<glyph glyph-name="ocircumflex" unicode="&#xf4;" horiz-adv-x="562" d="M290 711 L405 600 L451 600 L315 750 L264 750 L129 600 L174 600 L290 711 L290 711 Z M290 27 C186 27 122 134 122 260 C122 405 199 493 290 493 C394 493 458 386 458 260 C458 115 381 27 290 27 L290 27 Z M67 260 C67 114 151 -10 290 -10 C410 -10 512 92 512 260 C512 406 428 530 290 530 C169 530 67 428 67 260 L67 260 Z " />
<glyph glyph-name="otilde" unicode="&#xf5;" horiz-adv-x="562" d="M221 600 C221 635 234 664 250 664 C286 664 288 590 333 590 C366 590 395 638 395 693 L359 693 C359 659 345 629 329 629 C293 629 291 703 247 703 C213 703 184 656 184 600 L221 600 L221 600 Z M290 27 C186 27 122 134 122 260 C122 405 199 493 290 493 C394 493 458 386 458 260 C458 115 381 27 290 27 L290 27 Z M67 260 C67 114 151 -10 290 -10 C410 -10 512 92 512 260 C512 406 428 530 290 530 C169 530 67 428 67 260 L67 260 Z " />
<glyph glyph-name="odieresis" unicode="&#xf6;" horiz-adv-x="562" d="M327 600 L387 600 L387 660 L327 660 L327 600 L327 600 Z M192 600 L252 600 L252 660 L192 660 L192 600 L192 600 Z M290 27 C186 27 122 134 122 260 C122 405 199 493 290 493 C394 493 458 386 458 260 C458 115 381 27 290 27 L290 27 Z M67 260 C67 114 151 -10 290 -10 C410 -10 512 92 512 260 C512 406 428 530 290 530 C169 530 67 428 67 260 L67 260 Z " />
<glyph glyph-name="oslash" unicode="&#xf8;" horiz-adv-x="562" d="M290 27 C239 27 198 52 169 92 L420 412 C445 371 458 317 458 259 C458 114 381 26 290 26 L290 27 L290 27 Z M67 259 C67 185 89 117 128 68 L67 -10 L89 -10 L140 55 C178 15 229 -10 291 -10 C411 -10 513 92 513 260 C513 334 491 402 452 451 L513 529 L491 529 L440 464 C403 504 352 529 291 529 C170 529 68 427 68 259 L67 259 L67 259 Z M160 107 C136 148 123 201 123 258 C123 403 200 491 291 491 C341 491 382 466 411 426 L160 107 L160 107 Z " />
<glyph glyph-name="ugrave" unicode="&#xf9;" horiz-adv-x="566" d="M266 600 L312 600 L257 750 L192 750 L266 600 L266 600 Z M458 100 L458 520 L433 520 L408 520 L332 520 L332 496 L332 451 L408 420 L408 144 C408 85 354 35 291 35 C206 35 170 91 170 172 L170 520 L145 520 L120 520 L43 520 L43 496 L43 451 L120 420 L120 172 C120 64 166 -10 276 -10 C333 -10 384 27 408 79 L408 9 L408 -1 L433 -1 L458 -1 L535 -1 L535 23 L535 69 L458 100 L458 100 Z " />
<glyph glyph-name="uacute" unicode="&#xfa;" horiz-adv-x="566" d="M266 600 L312 600 L386 750 L321 750 L266 600 L266 600 Z M458 100 L458 520 L433 520 L408 520 L332 520 L332 496 L332 451 L408 420 L408 144 C408 85 354 35 291 35 C206 35 170 91 170 172 L170 520 L145 520 L120 520 L43 520 L43 496 L43 451 L120 420 L120 172 C120 64 166 -10 276 -10 C333 -10 384 27 408 79 L408 9 L408 -1 L433 -1 L458 -1 L535 -1 L535 23 L535 69 L458 100 L458 100 Z " />
<glyph glyph-name="ucircumflex" unicode="&#xfb;" horiz-adv-x="566" d="M289 711 L404 600 L450 600 L314 750 L264 750 L128 600 L174 600 L289 711 L289 711 Z M458 100 L458 520 L433 520 L408 520 L332 520 L332 496 L332 451 L408 420 L408 144 C408 85 354 35 291 35 C206 35 170 91 170 172 L170 520 L145 520 L120 520 L43 520 L43 496 L43 451 L120 420 L120 172 C120 64 166 -10 276 -10 C333 -10 384 27 408 79 L408 9 L408 -1 L433 -1 L458 -1 L535 -1 L535 23 L535 69 L458 100 L458 100 Z " />
<glyph glyph-name="udieresis" unicode="&#xfc;" horiz-adv-x="566" d="M327 600 L387 600 L387 660 L327 660 L327 600 L327 600 Z M192 600 L252 600 L252 660 L192 660 L192 600 L192 600 Z M458 100 L458 520 L433 520 L408 520 L332 520 L332 496 L332 451 L408 420 L408 144 C408 85 354 35 291 35 C206 35 170 91 170 172 L170 520 L145 520 L120 520 L43 520 L43 496 L43 451 L120 420 L120 172 C120 64 166 -10 276 -10 C333 -10 384 27 408 79 L408 9 L408 -1 L433 -1 L458 -1 L535 -1 L535 23 L535 69 L458 100 L458 100 Z " />
<glyph glyph-name="yacute" unicode="&#xfd;" horiz-adv-x="499" d="M217 600 L262 600 L337 750 L271 750 L217 600 L217 600 Z M360 420 L360 420 L242 71 L119 420 L161 451 C162 450 162 471 161 496 C162 509 162 520 161 520 L84 520 L56 520 L28 520 L-24 520 L-24 492 L-24 451 L64 420 L64 420 L217 -3 L214 -11 C178 -113 147 -157 113 -157 L63 -157 L63 -200 L113 -200 C169 -200 211 -149 253 -30 L415 420 L503 451 L503 492 L503 520 L451 520 L423 520 L394 520 L318 520 L318 496 L318 451 L360 420 L360 420 Z " />
<glyph glyph-name="thorn" unicode="&#xfe;" horiz-adv-x="570" d="M301 31 C212 31 137 118 137 260 C137 402 212 489 301 489 C390 489 466 384 466 260 C466 136 390 31 301 31 L301 31 Z M112 -250 L137 -250 L213 -250 L213 -226 L213 -180 L137 -150 L137 130 C171 41 240 -10 317 -10 C427 -10 520 114 520 260 C520 406 427 530 317 530 C240 530 171 479 137 390 L137 750 L112 750 L99 750 L87 750 L10 750 L10 726 L10 681 L87 650 L87 -150 L10 -180 L10 -226 L10 -250 L87 -250 L112 -250 L112 -250 Z " />
<glyph glyph-name="ydieresis" unicode="&#xff;" horiz-adv-x="499" d="M277 600 L337 600 L337 660 L277 660 L277 600 L277 600 Z M142 600 L202 600 L202 660 L142 660 L142 600 L142 600 Z M360 420 L360 420 L242 71 L119 420 L161 451 C162 450 162 471 161 496 C162 509 162 520 161 520 L84 520 L56 520 L28 520 L-24 520 L-24 492 L-24 451 L64 420 L64 420 L217 -3 L214 -11 C178 -113 147 -157 113 -157 L63 -157 L63 -200 L113 -200 C169 -200 211 -149 253 -30 L415 420 L503 451 L503 492 L503 520 L451 520 L423 520 L394 520 L318 520 L318 496 L318 451 L360 420 L360 420 Z " />
<glyph glyph-name="Amacron" unicode="&#x100;" horiz-adv-x="773" d="M278 830 L519 830 L519 865 L278 865 L278 830 L278 830 Z M686 100 L685 100 L428 750 L423 750 L395 750 L370 750 L367 750 L290 750 L290 726 L290 681 L327 650 L327 650 L108 100 L19 70 L19 28 L19 0 L68 0 L97 0 L127 0 L204 0 L204 24 L204 70 L166 100 L213 220 L205 200 L586 200 L625 101 L588 71 L588 25 L588 1 L664 1 L694 1 L723 1 L773 1 L773 29 L773 71 L686 100 L686 100 Z M221 243 L395 684 L569 243 L221 243 L221 243 Z " />
<glyph glyph-name="amacron" unicode="&#x101;" horiz-adv-x="522" d="M138 600 L379 600 L379 635 L138 635 L138 600 L138 600 Z M70 386 L115 371 C115 435 181 489 258 489 C333 489 397 451 397 381 L397 354 C397 288 317 250 224 239 C134 227 57 165 57 104 C57 42 118 -10 230 -10 C303 -10 368 20 397 88 L397 46 C397 6 410 0 492 0 L492 37 C453 37 447 38 447 46 L447 360 C447 470 360 530 258 530 C157 530 70 464 70 386 L70 386 Z M397 272 L397 174 C397 69 327 25 245 25 C155 25 106 62 106 106 C106 151 174 197 254 207 C314 214 368 235 398 272 L397 272 L397 272 Z " />
<glyph glyph-name="Abreve" unicode="&#x102;" horiz-adv-x="773" d="M278 945 C278 878 334 820 399 820 C464 820 520 878 520 945 L483 945 C483 897 444 855 399 855 C354 855 315 897 315 945 L278 945 L278 945 Z M686 100 L685 100 L428 750 L423 750 L395 750 L370 750 L367 750 L290 750 L290 726 L290 681 L327 650 L327 650 L108 100 L19 70 L19 28 L19 0 L68 0 L97 0 L127 0 L204 0 L204 24 L204 70 L166 100 L213 220 L205 200 L586 200 L625 101 L588 71 L588 25 L588 1 L664 1 L694 1 L723 1 L773 1 L773 29 L773 71 L686 100 L686 100 Z M221 243 L395 684 L569 243 L221 243 L221 243 Z " />
<glyph glyph-name="abreve" unicode="&#x103;" horiz-adv-x="522" d="M137 715 C137 648 193 590 258 590 C323 590 379 648 379 715 L342 715 C342 667 304 625 258 625 C213 625 174 667 174 715 L137 715 L137 715 Z M70 386 L115 371 C115 435 181 489 258 489 C333 489 397 451 397 381 L397 354 C397 288 317 250 224 239 C134 227 57 165 57 104 C57 42 118 -10 230 -10 C303 -10 368 20 397 88 L397 46 C397 6 410 0 492 0 L492 37 C453 37 447 38 447 46 L447 360 C447 470 360 530 258 530 C157 530 70 464 70 386 L70 386 Z M397 272 L397 174 C397 69 327 25 245 25 C155 25 106 62 106 106 C106 151 174 197 254 207 C314 214 368 235 398 272 L397 272 L397 272 Z " />
<glyph glyph-name="Aogonek" unicode="&#x104;" horiz-adv-x="773" d="M686 100 L685 100 L428 750 L423 750 L395 750 L370 750 L367 750 L290 750 L290 726 L290 681 L327 650 L327 650 L108 100 L19 70 L19 28 L19 0 L68 0 L97 0 L127 0 L204 0 L204 24 L204 70 L166 100 L213 220 L205 200 L586 200 L625 101 L588 71 L588 25 L588 1 L664 1 L694 1 L697 1 C670 -25 633 -73 633 -103 C633 -159 680 -206 734 -206 C768 -206 805 -197 814 -186 L809 -159 C801 -168 768 -176 737 -176 C695 -176 660 -140 660 -98 C660 -64 706 -10 723 0 L773 0 L773 28 L773 70 L686 100 L686 100 Z M221 242 L395 683 L569 242 L221 242 L221 242 Z " />
<glyph glyph-name="aogonek" unicode="&#x105;" horiz-adv-x="572" d="M67 260 C67 114 170 -10 291 -10 C360 -10 421 49 452 134 L452 0 L477 0 L480 0 C451 -27 412 -75 412 -103 C412 -159 459 -207 514 -207 C547 -207 584 -198 593 -187 L588 -160 C581 -169 547 -177 516 -177 C475 -177 440 -141 440 -98 C440 -65 486 -11 503 -1 L580 -1 L580 23 L580 69 L503 99 L503 419 L580 450 L580 495 L580 519 L503 519 L478 519 L453 519 L453 385 C422 470 361 529 292 529 C171 529 68 405 68 259 L67 260 L67 260 Z M454 259 C454 135 387 30 309 30 C209 30 123 135 123 259 C123 383 209 488 309 488 C387 488 454 383 454 259 L454 259 Z " />
<glyph glyph-name="Cacute" unicode="&#x106;" horiz-adv-x="692" d="M349 830 L394 830 L469 980 L404 980 L349 830 L349 830 Z M631 199 C631 110 516 35 381 35 C246 35 131 210 131 375 C131 540 246 715 381 715 C509 715 624 640 631 551 L652 569 L652 569 L672 587 L672 664 L637 664 L636 664 C619 683 597 700 571 714 L571 714 L571 714 C519 743 451 761 380 761 C213 761 70 563 70 376 C70 189 213 -9 380 -9 C537 -9 671 71 671 165 L631 199 L631 199 Z " />
<glyph glyph-name="cacute" unicode="&#x107;" horiz-adv-x="528" d="M265 600 L311 600 L385 750 L320 750 L265 600 L265 600 Z M454 151 C454 86 378 31 288 31 C198 31 122 118 122 260 C122 403 198 491 288 491 C395 491 454 427 455 352 L498 373 C497 458 423 530 288 530 C169 530 67 428 67 260 C67 92 169 -10 288 -10 C402 -10 499 54 499 130 L454 151 L454 151 Z " />
<glyph glyph-name="Ccircumflex" unicode="&#x108;" horiz-adv-x="692" d="M372 941 L487 830 L533 830 L397 980 L346 980 L211 830 L256 830 L372 941 L372 941 Z M631 199 C631 110 516 35 381 35 C246 35 131 210 131 375 C131 540 246 715 381 715 C509 715 624 640 631 551 L652 569 L652 569 L672 587 L672 664 L637 664 L636 664 C619 683 597 700 571 714 L571 714 L571 714 C519 743 451 761 380 761 C213 761 70 563 70 376 C70 189 213 -9 380 -9 C537 -9 671 71 671 165 L631 199 L631 199 Z " />
<glyph glyph-name="Cdot" unicode="&#x10a;" horiz-adv-x="692" d="M342 830 L402 830 L402 890 L342 890 L342 830 L342 830 Z M631 199 C631 110 516 35 381 35 C246 35 131 210 131 375 C131 540 246 715 381 715 C509 715 624 640 631 551 L652 569 L652 569 L672 587 L672 664 L637 664 L636 664 C619 683 597 700 571 714 L571 714 L571 714 C519 743 451 761 380 761 C213 761 70 563 70 376 C70 189 213 -9 380 -9 C537 -9 671 71 671 165 L631 199 L631 199 Z " />
<glyph glyph-name="cdot" unicode="&#x10b;" horiz-adv-x="528" d="M258 600 L318 600 L318 660 L258 660 L258 600 L258 600 Z M454 151 C454 86 378 31 288 31 C198 31 122 118 122 260 C122 403 198 491 288 491 C395 491 454 427 455 352 L498 373 C497 458 423 530 288 530 C169 530 67 428 67 260 C67 92 169 -10 288 -10 C402 -10 499 54 499 130 L454 151 L454 151 Z " />
<glyph glyph-name="Ccaron" unicode="&#x10c;" horiz-adv-x="692" d="M372 869 L487 980 L533 980 L397 830 L346 830 L211 980 L256 980 L372 869 L372 869 Z M631 199 C631 110 516 35 381 35 C246 35 131 210 131 375 C131 540 246 715 381 715 C509 715 624 640 631 551 L652 569 L652 569 L672 587 L672 664 L637 664 L636 664 C619 683 597 700 571 714 L571 714 L571 714 C519 743 451 761 380 761 C213 761 70 563 70 376 C70 189 213 -9 380 -9 C537 -9 671 71 671 165 L631 199 L631 199 Z " />
<glyph glyph-name="ccaron" unicode="&#x10d;" horiz-adv-x="528" d="M288 639 L403 750 L449 750 L313 600 L263 600 L127 750 L172 750 L288 639 L288 639 Z M454 151 C454 86 378 31 288 31 C198 31 122 118 122 260 C122 403 198 491 288 491 C395 491 454 427 455 352 L498 373 C497 458 423 530 288 530 C169 530 67 428 67 260 C67 92 169 -10 288 -10 C402 -10 499 54 499 130 L454 151 L454 151 Z " />
<glyph glyph-name="Dcaron" unicode="&#x10e;" horiz-adv-x="774" d="M402 869 L517 980 L562 980 L427 830 L376 830 L241 980 L286 980 L402 869 L402 869 Z M171 0 L199 0 L374 0 C585 0 720 146 720 375 C720 598 567 750 344 750 L199 750 L171 750 L144 750 L67 750 L67 726 L67 681 L144 650 L144 100 L67 70 L67 24 L67 0 L144 0 L171 0 L171 0 Z M199 43 L199 707 L346 707 C532 707 660 572 660 375 C660 172 547 43 370 43 L199 43 L199 43 Z " />
<glyph glyph-name="dcaron" unicode="&#x10f;" horiz-adv-x="546" d="M526 760 L518 610 L555 610 L580 760 L526 760 L526 760 Z M67 260 C67 114 155 -10 258 -10 C329 -10 393 50 425 136 L425 9 L425 -1 L450 -1 L475 -1 L552 -1 L552 23 L552 69 L475 99 L475 739 L475 749 L450 749 L425 749 L348 749 L348 725 L348 680 L425 649 L425 382 C393 468 329 528 258 528 C155 528 67 404 67 258 L67 260 L67 260 Z M426 258 C426 134 356 29 274 29 C192 29 122 134 122 258 C122 382 192 487 274 487 C356 487 426 382 426 258 L426 258 Z " />
<glyph glyph-name="Dcroat" unicode="&#x110;" horiz-adv-x="774" d="M64 358 L144 358 L144 100 L67 70 L67 24 L67 0 L144 0 L171 0 L199 0 L374 0 C585 0 720 146 720 375 C720 598 567 750 344 750 L199 750 L171 750 L144 750 L67 750 L67 726 L67 681 L144 650 L144 392 L64 392 L64 358 L64 358 Z M199 43 L199 358 L402 358 L402 392 L199 392 L199 707 L346 707 C532 707 660 572 660 375 C660 172 547 43 370 43 L199 43 L199 43 Z " />
<glyph glyph-name="dcroat" unicode="&#x111;" horiz-adv-x="546" d="M258 623 L426 623 L426 383 C394 469 330 529 259 529 C156 529 68 405 68 259 C68 113 156 -11 259 -11 C330 -11 394 49 426 135 L426 8 L426 -2 L451 -2 L476 -2 L553 -2 L553 22 L553 68 L476 98 L476 621 L553 621 L553 655 L476 655 L476 738 L476 748 L451 748 L426 748 L349 748 L349 724 L349 679 L409 655 L258 655 L258 623 L258 623 Z M426 258 C426 134 356 29 274 29 C192 29 122 134 122 258 C122 382 192 487 274 487 C356 487 426 382 426 258 L426 258 Z " />
<glyph glyph-name="Emacron" unicode="&#x112;" horiz-adv-x="596" d="M217 830 L458 830 L458 865 L217 865 L217 830 L217 830 Z M546 23 L546 45 L546 122 C546 123 535 123 522 122 C498 123 477 123 477 122 L446 45 L199 45 L199 338 L411 338 L442 261 L487 261 L511 261 L511 338 L511 360 L511 381 L511 458 L487 458 L442 458 L411 381 L199 381 L199 705 L431 705 L462 628 L507 628 L531 628 L531 705 L531 727 L531 750 L199 750 L198 750 L171 750 L144 750 L67 750 L67 726 L67 681 L144 650 L144 100 L67 70 L67 24 L67 0 L144 0 L171 0 L198 0 L199 0 L546 0 L546 23 L546 23 Z " />
<glyph glyph-name="emacron" unicode="&#x113;" horiz-adv-x="535" d="M169 600 L410 600 L410 635 L169 635 L169 600 L169 600 Z M458 148 C458 85 379 31 286 31 C204 31 132 107 123 232 L462 232 L512 232 C512 393 434 530 290 530 C169 530 67 428 67 260 C67 92 168 -10 286 -10 C404 -10 505 55 505 131 L458 148 L458 148 Z M461 267 L122 267 C124 406 200 491 290 491 C392 491 452 391 461 267 L461 267 Z " />
<glyph glyph-name="Ebreve" unicode="&#x114;" horiz-adv-x="596" d="M216 945 C216 878 272 820 337 820 C403 820 458 878 458 945 L421 945 C421 897 383 855 337 855 C292 855 253 897 253 945 L216 945 L216 945 Z M546 23 L546 45 L546 122 C546 123 535 123 522 122 C498 123 477 123 477 122 L446 45 L199 45 L199 338 L411 338 L442 261 L487 261 L511 261 L511 338 L511 360 L511 381 L511 458 L487 458 L442 458 L411 381 L199 381 L199 705 L431 705 L462 628 L507 628 L531 628 L531 705 L531 727 L531 750 L199 750 L198 750 L171 750 L144 750 L67 750 L67 726 L67 681 L144 650 L144 100 L67 70 L67 24 L67 0 L144 0 L171 0 L198 0 L199 0 L546 0 L546 23 L546 23 Z " />
<glyph glyph-name="ebreve" unicode="&#x115;" horiz-adv-x="535" d="M169 715 C169 648 225 590 290 590 C355 590 411 648 411 715 L374 715 C374 667 335 625 290 625 C245 625 206 667 206 715 L169 715 L169 715 Z M458 148 C458 85 379 31 286 31 C204 31 132 107 123 232 L462 232 L512 232 C512 393 434 530 290 530 C169 530 67 428 67 260 C67 92 168 -10 286 -10 C404 -10 505 55 505 131 L458 148 L458 148 Z M461 267 L122 267 C124 406 200 491 290 491 C392 491 452 391 461 267 L461 267 Z " />
<glyph glyph-name="Edot" unicode="&#x116;" horiz-adv-x="596" d="M307 830 L367 830 L367 890 L307 890 L307 830 L307 830 Z M546 23 L546 45 L546 122 C546 123 535 123 522 122 C498 123 477 123 477 122 L446 45 L199 45 L199 338 L411 338 L442 261 L487 261 L511 261 L511 338 L511 360 L511 381 L511 458 L487 458 L442 458 L411 381 L199 381 L199 705 L431 705 L462 628 L507 628 L531 628 L531 705 L531 727 L531 750 L199 750 L198 750 L171 750 L144 750 L67 750 L67 726 L67 681 L144 650 L144 100 L67 70 L67 24 L67 0 L144 0 L171 0 L198 0 L199 0 L546 0 L546 23 L546 23 Z " />
<glyph glyph-name="edot" unicode="&#x117;" horiz-adv-x="535" d="M260 600 L320 600 L320 660 L260 660 L260 600 L260 600 Z M458 148 C458 85 379 31 286 31 C204 31 132 107 123 232 L462 232 L512 232 C512 393 434 530 290 530 C169 530 67 428 67 260 C67 92 168 -10 286 -10 C404 -10 505 55 505 131 L458 148 L458 148 Z M461 267 L122 267 C124 406 200 491 290 491 C392 491 452 391 461 267 L461 267 Z " />
<glyph glyph-name="Eogonek" unicode="&#x118;" horiz-adv-x="596" d="M330 0 C301 -27 262 -75 262 -103 C262 -159 309 -207 364 -207 C397 -207 434 -198 443 -187 L438 -160 C431 -169 397 -177 366 -177 C325 -177 290 -141 290 -98 C290 -65 336 -11 353 -1 L547 -1 L547 22 L547 44 L547 121 C547 122 536 122 523 121 C499 122 478 122 478 121 L447 44 L200 44 L200 337 L412 337 L443 260 L488 260 L512 260 L512 337 L512 359 L512 380 L512 457 L488 457 L443 457 L412 380 L200 380 L200 704 L432 704 L463 627 L508 627 L532 627 L532 704 L532 726 L532 749 L200 749 L199 749 L172 749 L145 749 L68 749 L68 725 L68 680 L145 649 L145 99 L68 69 L68 23 L68 -1 L145 -1 L172 -1 L199 -1 L200 -1 L330 0 L330 0 Z " />
<glyph glyph-name="eogonek" unicode="&#x119;" horiz-adv-x="535" d="M458 148 C458 85 379 31 286 31 C204 31 132 107 123 232 L462 232 L512 232 C512 393 434 530 290 530 C169 530 67 428 67 260 C67 92 168 -10 286 -10 C323 -10 359 -3 390 8 C364 -21 337 -62 337 -90 C337 -153 384 -206 439 -206 C472 -206 509 -197 518 -186 L513 -159 C506 -168 472 -176 441 -176 C400 -176 365 -134 365 -85 C365 -46 410 13 428 24 C475 50 506 89 506 131 L458 148 L458 148 Z M462 267 L123 267 C125 406 201 491 291 491 C393 491 453 391 462 267 L462 267 Z " />
<glyph glyph-name="Ecaron" unicode="&#x11a;" horiz-adv-x="596" d="M337 869 L453 980 L498 980 L363 830 L312 830 L177 980 L222 980 L337 869 L337 869 Z M546 23 L546 45 L546 122 C546 123 535 123 522 122 C498 123 477 123 477 122 L446 45 L199 45 L199 338 L411 338 L442 261 L487 261 L511 261 L511 338 L511 360 L511 381 L511 458 L487 458 L442 458 L411 381 L199 381 L199 705 L431 705 L462 628 L507 628 L531 628 L531 705 L531 727 L531 750 L199 750 L198 750 L171 750 L144 750 L67 750 L67 726 L67 681 L144 650 L144 100 L67 70 L67 24 L67 0 L144 0 L171 0 L198 0 L199 0 L546 0 L546 23 L546 23 Z " />
<glyph glyph-name="ecaron" unicode="&#x11b;" horiz-adv-x="535" d="M290 639 L405 750 L451 750 L315 600 L265 600 L129 750 L175 750 L290 639 L290 639 Z M458 148 C458 85 379 31 286 31 C204 31 132 107 123 232 L462 232 L512 232 C512 393 434 530 290 530 C169 530 67 428 67 260 C67 92 168 -10 286 -10 C404 -10 505 55 505 131 L458 148 L458 148 Z M461 267 L122 267 C124 406 200 491 290 491 C392 491 452 391 461 267 L461 267 Z " />
<glyph glyph-name="Gcircumflex" unicode="&#x11c;" horiz-adv-x="745" d="M413 941 L528 830 L574 830 L438 980 L388 980 L252 830 L298 830 L413 941 L413 941 Z M431 350 L647 350 L647 126 C589 77 488 35 413 35 C261 35 131 191 131 375 C131 559 261 715 413 715 C530 715 636 640 644 551 L664 568 L664 568 L685 586 L685 663 L651 663 C603 720 512 760 414 760 C229 760 72 583 72 375 C72 167 229 -10 414 -10 C507 -10 631 40 701 99 L701 395 L432 395 L431 350 L431 350 Z " />
<glyph glyph-name="Gbreve" unicode="&#x11e;" horiz-adv-x="745" d="M292 945 C292 878 348 820 413 820 C478 820 534 878 534 945 L497 945 C497 897 458 855 413 855 C368 855 329 897 329 945 L292 945 L292 945 Z M431 350 L647 350 L647 126 C589 77 488 35 413 35 C261 35 131 191 131 375 C131 559 261 715 413 715 C530 715 636 640 644 551 L664 568 L664 568 L685 586 L685 663 L651 663 C603 720 512 760 414 760 C229 760 72 583 72 375 C72 167 229 -10 414 -10 C507 -10 631 40 701 99 L701 395 L432 395 L431 350 L431 350 Z " />
<glyph glyph-name="gbreve" unicode="&#x11f;" horiz-adv-x="536" d="M146 715 C146 648 202 590 267 590 C332 590 388 648 388 715 L351 715 C351 667 312 625 267 625 C222 625 183 667 183 715 L146 715 L146 715 Z M67 -74 C67 -140 159 -176 267 -176 C396 -176 466 -85 466 21 L466 420 L543 451 L543 496 L543 520 L466 520 L441 520 L416 520 L416 385 C384 470 322 530 253 530 C152 530 67 435 67 260 C67 92 152 0 253 0 C322 0 384 58 416 140 L416 0 C416 -72 362 -134 263 -134 C187 -134 122 -113 122 -74 L67 -74 L67 -74 Z M269 489 C348 489 416 384 416 260 C416 142 348 41 269 41 C190 41 122 118 122 260 C122 408 190 489 269 489 L269 489 Z " />
<glyph glyph-name="Gdot" unicode="&#x120;" horiz-adv-x="745" d="M383 830 L443 830 L443 890 L383 890 L383 830 L383 830 Z M431 350 L647 350 L647 126 C589 77 488 35 413 35 C261 35 131 191 131 375 C131 559 261 715 413 715 C530 715 636 640 644 551 L664 568 L664 568 L685 586 L685 663 L651 663 C603 720 512 760 414 760 C229 760 72 583 72 375 C72 167 229 -10 414 -10 C507 -10 631 40 701 99 L701 395 L432 395 L431 350 L431 350 Z " />
<glyph glyph-name="gdot" unicode="&#x121;" horiz-adv-x="536" d="M237 600 L297 600 L297 660 L237 660 L237 600 L237 600 Z M67 -74 C67 -140 159 -176 267 -176 C396 -176 466 -85 466 21 L466 420 L543 451 L543 496 L543 520 L466 520 L441 520 L416 520 L416 385 C384 470 322 530 253 530 C152 530 67 435 67 260 C67 92 152 0 253 0 C322 0 384 58 416 140 L416 0 C416 -72 362 -134 263 -134 C187 -134 122 -113 122 -74 L67 -74 L67 -74 Z M269 489 C348 489 416 384 416 260 C416 142 348 41 269 41 C190 41 122 118 122 260 C122 408 190 489 269 489 L269 489 Z " />
<glyph glyph-name="Hcircumflex" unicode="&#x124;" horiz-adv-x="748" d="M384 941 L499 830 L545 830 L409 980 L359 980 L223 830 L269 830 L384 941 L384 941 Z M597 0 L625 0 L702 0 L702 24 L702 70 L625 100 L625 650 L702 681 L702 726 L702 750 L625 750 L597 750 L569 750 L492 750 L492 726 L492 681 L569 650 L569 386 L199 386 L199 650 L276 681 L276 726 L276 750 L199 750 L171 750 L144 750 L67 750 L67 726 L67 681 L144 650 L144 100 L67 70 L67 24 L67 0 L144 0 L171 0 L199 0 L276 0 L276 24 L276 70 L199 100 L199 340 L569 340 L569 100 L492 70 L492 24 L492 0 L569 0 L597 0 L597 0 Z " />
<glyph glyph-name="Itilde" unicode="&#x128;" horiz-adv-x="303" d="M84 830 C84 865 97 894 113 894 C149 894 151 820 196 820 C229 820 258 868 258 923 L221 923 C221 889 208 859 192 859 C156 859 154 933 110 933 C76 933 47 886 47 830 L84 830 L84 830 Z M153 0 L180 0 L257 0 L257 24 L257 70 L180 100 L180 650 L257 681 L257 726 L257 750 L180 750 L153 750 L125 750 L48 750 L48 726 L48 681 L125 650 L125 100 L48 70 L48 24 L48 0 L125 0 L153 0 L153 0 Z " />
<glyph glyph-name="itilde" unicode="&#x129;" horiz-adv-x="241" d="M40 600 C40 635 53 664 69 664 C105 664 107 590 152 590 C185 590 214 638 214 693 L177 693 C177 659 164 629 148 629 C112 629 110 703 65 703 C32 703 3 656 3 600 L40 600 L40 600 Z M108 0 L133 0 L210 0 L210 24 L210 70 L133 100 L133 520 L108 520 L83 520 L7 520 L7 496 L7 451 L83 420 L83 100 L7 70 L7 24 L7 0 L83 0 L108 0 L108 0 Z " />
<glyph glyph-name="Imacron" unicode="&#x12a;" horiz-adv-x="303" d="M32 830 L273 830 L273 865 L32 865 L32 830 L32 830 Z M153 0 L180 0 L257 0 L257 24 L257 70 L180 100 L180 650 L257 681 L257 726 L257 750 L180 750 L153 750 L125 750 L48 750 L48 726 L48 681 L125 650 L125 100 L48 70 L48 24 L48 0 L125 0 L153 0 L153 0 Z " />
<glyph glyph-name="imacron" unicode="&#x12b;" horiz-adv-x="241" d="M-12 600 L229 600 L229 635 L-12 635 L-12 600 L-12 600 Z M108 0 L133 0 L210 0 L210 24 L210 70 L133 100 L133 520 L108 520 L83 520 L7 520 L7 496 L7 451 L83 420 L83 100 L7 70 L7 24 L7 0 L83 0 L108 0 L108 0 Z " />
<glyph glyph-name="Ibreve" unicode="&#x12c;" horiz-adv-x="303" d="M32 945 C32 878 87 820 153 820 C218 820 274 878 274 945 L237 945 C237 897 198 855 153 855 C107 855 69 897 69 945 L32 945 L32 945 Z M153 0 L180 0 L257 0 L257 24 L257 70 L180 100 L180 650 L257 681 L257 726 L257 750 L180 750 L153 750 L125 750 L48 750 L48 726 L48 681 L125 650 L125 100 L48 70 L48 24 L48 0 L125 0 L153 0 L153 0 Z " />
<glyph glyph-name="ibreve" unicode="&#x12d;" horiz-adv-x="241" d="M-13 715 C-13 648 43 590 108 590 C174 590 230 648 230 715 L193 715 C193 667 154 625 108 625 C63 625 24 667 24 715 L-13 715 L-13 715 Z M108 0 L133 0 L210 0 L210 24 L210 70 L133 100 L133 520 L108 520 L83 520 L7 520 L7 496 L7 451 L83 420 L83 100 L7 70 L7 24 L7 0 L83 0 L108 0 L108 0 Z " />
<glyph glyph-name="Idot" unicode="&#x130;" horiz-adv-x="303" d="M123 830 L183 830 L183 890 L123 890 L123 830 L123 830 Z M153 0 L180 0 L257 0 L257 24 L257 70 L180 100 L180 650 L257 681 L257 726 L257 750 L180 750 L153 750 L125 750 L48 750 L48 726 L48 681 L125 650 L125 100 L48 70 L48 24 L48 0 L125 0 L153 0 L153 0 Z " />
<glyph glyph-name="dotlessi" unicode="&#x131;" horiz-adv-x="262" d="M142 0 L192 0 L192 520 L142 520 L142 0 L142 0 Z " />
<glyph glyph-name="Jcircumflex" unicode="&#x134;" horiz-adv-x="464" d="M352 941 L467 830 L513 830 L377 980 L327 980 L191 830 L237 830 L352 941 L352 941 Z M67 283 L67 221 C67 78 126 -10 223 -10 C316 -10 380 96 380 220 L380 650 L457 681 L457 726 L457 750 L380 750 L352 750 L324 750 L247 750 L247 726 L247 681 L324 650 L324 220 C324 124 283 42 223 42 C161 42 123 116 123 237 L123 292 L67 283 L67 283 Z " />
<glyph glyph-name="Lacute" unicode="&#x139;" horiz-adv-x="545" d="M130 830 L175 830 L250 980 L184 980 L130 830 L130 830 Z M477 23 L477 45 L477 122 C477 123 466 123 453 122 C429 123 408 123 408 122 L377 45 L180 45 L180 650 L257 681 L257 726 L257 750 L180 750 L153 750 L125 750 L48 750 L48 726 L48 681 L125 650 L125 100 L48 70 L48 24 L48 0 L125 0 L153 0 L180 0 L477 0 L477 23 L477 23 Z " />
<glyph glyph-name="lacute" unicode="&#x13a;" horiz-adv-x="375" d="M169 790 L214 790 L289 940 L223 940 L169 790 L169 790 Z M204 0 L229 0 L306 0 L306 24 L306 70 L229 100 L229 740 L229 750 L204 750 L179 750 L102 750 L102 726 L102 681 L179 650 L179 100 L102 70 L102 24 L102 0 L179 0 L204 0 L204 0 Z " />
<glyph glyph-name="Lcaron" unicode="&#x13d;" horiz-adv-x="545" d="M379 760 L370 610 L407 610 L433 760 L379 760 L379 760 Z M477 23 L477 45 L477 122 C477 123 466 123 453 122 C429 123 408 123 408 122 L377 45 L180 45 L180 650 L257 681 L257 726 L257 750 L180 750 L153 750 L125 750 L48 750 L48 726 L48 681 L125 650 L125 100 L48 70 L48 24 L48 0 L125 0 L153 0 L180 0 L477 0 L477 23 L477 23 Z " />
<glyph glyph-name="lcaron" unicode="&#x13e;" horiz-adv-x="375" d="M279 760 L270 610 L307 610 L333 760 L279 760 L279 760 Z M204 0 L229 0 L306 0 L306 24 L306 70 L229 100 L229 740 L229 750 L204 750 L179 750 L102 750 L102 726 L102 681 L179 650 L179 100 L102 70 L102 24 L102 0 L179 0 L204 0 L204 0 Z " />
<glyph glyph-name="Lslash" unicode="&#x141;" horiz-adv-x="545" d="M45 307 L125 335 L125 100 L48 70 L48 24 L48 0 L125 0 L153 0 L180 0 L477 0 L477 23 L477 45 L477 122 C477 123 466 123 453 122 C429 123 408 123 408 122 L377 45 L180 45 L180 355 L329 407 L329 443 L180 391 L180 650 L257 681 L257 726 L257 750 L180 750 L153 750 L125 750 L48 750 L48 726 L48 681 L125 650 L125 371 L45 343 L45 307 L45 307 Z " />
<glyph glyph-name="lslash" unicode="&#x142;" horiz-adv-x="375" d="M99 307 L179 345 L179 100 L102 70 L102 24 L102 0 L179 0 L204 0 L229 0 L306 0 L306 24 L306 70 L229 100 L229 369 L309 407 L309 443 L229 405 L229 740 L229 750 L204 750 L179 750 L102 750 L102 726 L102 681 L179 650 L179 381 L99 343 L99 307 L99 307 Z " />
<glyph glyph-name="Nacute" unicode="&#x143;" horiz-adv-x="712" d="M244 830 L289 830 L364 980 L298 980 L244 830 L244 830 Z M534 650 L534 79 L203 750 L199 750 L171 750 L144 750 L67 750 L67 726 L67 681 L144 650 L144 100 L67 70 L67 24 L67 0 L144 0 L171 0 L199 0 L276 0 L276 24 L276 70 L199 100 L199 639 L514 0 L534 0 L573 0 L589 0 L589 650 L666 681 L666 726 L666 750 L589 750 L561 750 L534 750 L457 750 L457 726 L457 681 L534 650 L534 650 Z " />
<glyph glyph-name="nacute" unicode="&#x144;" horiz-adv-x="543" d="M260 600 L306 600 L380 750 L315 750 L260 600 L260 600 Z M416 0 L441 0 L517 0 L517 24 L517 70 L441 100 L441 315 C441 440 382 525 314 525 C255 525 202 484 176 426 L176 509 L176 519 L151 519 L138 519 L126 519 L49 519 L49 495 L49 450 L126 419 L126 99 L49 69 L49 23 L49 -1 L126 -1 L151 -1 L176 -1 L253 -1 L253 23 L253 69 L176 99 L176 347 C176 418 231 479 295 479 C348 479 392 412 392 314 L392 99 L315 69 L315 23 L315 -1 L392 -1 L416 -1 L416 0 L416 0 Z " />
<glyph glyph-name="Ncaron" unicode="&#x147;" horiz-adv-x="712" d="M366 869 L482 980 L527 980 L392 830 L341 830 L206 980 L251 980 L366 869 L366 869 Z M534 650 L534 79 L203 750 L199 750 L171 750 L144 750 L67 750 L67 726 L67 681 L144 650 L144 100 L67 70 L67 24 L67 0 L144 0 L171 0 L199 0 L276 0 L276 24 L276 70 L199 100 L199 639 L514 0 L534 0 L573 0 L589 0 L589 650 L666 681 L666 726 L666 750 L589 750 L561 750 L534 750 L457 750 L457 726 L457 681 L534 650 L534 650 Z " />
<glyph glyph-name="ncaron" unicode="&#x148;" horiz-adv-x="543" d="M283 639 L398 750 L444 750 L308 600 L258 600 L122 750 L167 750 L283 639 L283 639 Z M416 0 L441 0 L517 0 L517 24 L517 70 L441 100 L441 315 C441 440 382 525 314 525 C255 525 202 484 176 426 L176 509 L176 519 L151 519 L138 519 L126 519 L49 519 L49 495 L49 450 L126 419 L126 99 L49 69 L49 23 L49 -1 L126 -1 L151 -1 L176 -1 L253 -1 L253 23 L253 69 L176 99 L176 347 C176 418 231 479 295 479 C348 479 392 412 392 314 L392 99 L315 69 L315 23 L315 -1 L392 -1 L416 -1 L416 0 L416 0 Z " />
<glyph glyph-name="Omacron" unicode="&#x14c;" horiz-adv-x="786" d="M283 830 L524 830 L524 865 L283 865 L283 830 L283 830 Z M404 35 C259 35 136 191 136 375 C136 549 266 715 404 715 C541 715 671 549 671 375 C671 191 548 35 404 35 L404 35 Z M76 375 C76 167 227 -10 404 -10 C580 -10 731 167 731 375 C731 573 572 760 404 760 C235 760 76 573 76 375 L76 375 Z " />
<glyph glyph-name="omacron" unicode="&#x14d;" horiz-adv-x="562" d="M169 600 L410 600 L410 635 L169 635 L169 600 L169 600 Z M290 27 C186 27 122 134 122 260 C122 405 199 493 290 493 C394 493 458 386 458 260 C458 115 381 27 290 27 L290 27 Z M67 260 C67 114 151 -10 290 -10 C410 -10 512 92 512 260 C512 406 428 530 290 530 C169 530 67 428 67 260 L67 260 Z " />
<glyph glyph-name="Obreve" unicode="&#x14e;" horiz-adv-x="786" d="M282 945 C282 878 338 820 404 820 C469 820 525 878 525 945 L488 945 C488 897 449 855 404 855 C358 855 319 897 319 945 L282 945 L282 945 Z M404 35 C259 35 136 191 136 375 C136 549 266 715 404 715 C541 715 671 549 671 375 C671 191 548 35 404 35 L404 35 Z M76 375 C76 167 227 -10 404 -10 C580 -10 731 167 731 375 C731 573 572 760 404 760 C235 760 76 573 76 375 L76 375 Z " />
<glyph glyph-name="obreve" unicode="&#x14f;" horiz-adv-x="562" d="M169 715 C169 648 225 590 290 590 C355 590 411 648 411 715 L374 715 C374 667 335 625 290 625 C245 625 206 667 206 715 L169 715 L169 715 Z M290 27 C186 27 122 134 122 260 C122 405 199 493 290 493 C394 493 458 386 458 260 C458 115 381 27 290 27 L290 27 Z M67 260 C67 114 151 -10 290 -10 C410 -10 512 92 512 260 C512 406 428 530 290 530 C169 530 67 428 67 260 L67 260 Z " />
<glyph glyph-name="Racute" unicode="&#x154;" horiz-adv-x="672" d="M349 830 L394 830 L469 980 L403 980 L349 830 L349 830 Z M560 100 L560 100 L447 317 C539 335 599 415 599 526 C599 660 522 751 409 751 L199 751 L171 751 L157 751 L144 751 L67 751 L67 727 L67 682 L144 651 L144 101 L67 71 L67 25 L67 1 L144 1 L171 1 L199 1 L276 1 L276 25 L276 71 L199 101 L199 314 L385 314 L548 1 L580 1 L612 1 L653 1 L653 30 L653 71 L560 100 L560 100 Z M199 357 L199 708 L406 708 C488 708 544 634 544 526 C544 426 490 357 410 357 L199 357 L199 357 Z " />
<glyph glyph-name="racute" unicode="&#x155;" horiz-adv-x="340" d="M200 600 L246 600 L320 750 L255 750 L200 600 L200 600 Z M321 466 L321 520 L312 520 C245 520 199 466 176 387 L176 510 L176 520 L151 520 L138 520 L126 520 L49 520 L49 496 L49 451 L126 420 L126 100 L49 70 L49 24 L49 0 L126 0 L151 0 L176 0 L253 0 L253 24 L253 70 L176 100 L176 258 C176 370 223 466 308 466 L321 466 L321 466 Z " />
<glyph glyph-name="Rcaron" unicode="&#x158;" horiz-adv-x="672" d="M372 869 L487 980 L532 980 L397 830 L346 830 L211 980 L256 980 L372 869 L372 869 Z M560 100 L560 100 L447 317 C539 335 599 415 599 526 C599 660 522 751 409 751 L199 751 L171 751 L157 751 L144 751 L67 751 L67 727 L67 682 L144 651 L144 101 L67 71 L67 25 L67 1 L144 1 L171 1 L199 1 L276 1 L276 25 L276 71 L199 101 L199 314 L385 314 L548 1 L580 1 L612 1 L653 1 L653 30 L653 71 L560 100 L560 100 Z M199 357 L199 708 L406 708 C488 708 544 634 544 526 C544 426 490 357 410 357 L199 357 L199 357 Z " />
<glyph glyph-name="rcaron" unicode="&#x159;" horiz-adv-x="340" d="M223 639 L338 750 L384 750 L248 600 L198 600 L62 750 L108 750 L223 639 L223 639 Z M321 466 L321 520 L312 520 C245 520 199 466 176 387 L176 510 L176 520 L151 520 L138 520 L126 520 L49 520 L49 496 L49 451 L126 420 L126 100 L49 70 L49 24 L49 0 L126 0 L151 0 L176 0 L253 0 L253 24 L253 70 L176 100 L176 258 C176 370 223 466 308 466 L321 466 L321 466 Z " />
<glyph glyph-name="Sacute" unicode="&#x15a;" horiz-adv-x="523" d="M229 830 L274 830 L349 980 L283 980 L229 830 L229 830 Z M73 95 C110 30 194 -10 289 -10 C408 -10 489 91 489 209 C489 302 401 386 273 414 C179 435 114 491 114 554 C114 638 171 710 238 710 C311 710 389 658 412 581 L432 599 L452 617 L452 694 L417 694 L403 694 C360 735 298 760 237 760 C139 760 56 662 56 547 C56 462 138 385 257 358 C361 335 432 274 432 208 C432 117 373 39 288 39 C186 39 100 106 100 205 L52 172 L52 95 L73 95 L73 95 Z " />
<glyph glyph-name="sacute" unicode="&#x15b;" horiz-adv-x="472" d="M229 600 L275 600 L349 750 L284 750 L229 600 L229 600 Z M142 17 L142 17 L142 17 C174 4 211 -4 250 -4 C354 -4 442 63 442 142 C442 206 367 269 257 283 C177 293 122 339 122 384 C122 441 182 489 252 489 C326 489 389 432 389 364 L409 373 L409 373 L430 383 L430 460 L401 460 C383 481 359 499 330 511 L330 511 L330 511 C306 521 279 526 251 526 C155 526 73 459 73 380 C73 315 142 251 244 239 C331 228 391 182 391 138 C391 82 326 35 249 35 C161 35 86 90 86 154 L41 137 L41 60 L75 60 L76 60 C93 43 115 28 140 17 L142 17 L142 17 Z " />
<glyph glyph-name="Scircumflex" unicode="&#x15c;" horiz-adv-x="523" d="M252 941 L367 830 L412 830 L277 980 L226 980 L91 830 L136 830 L252 941 L252 941 Z M73 95 C110 30 194 -10 289 -10 C408 -10 489 91 489 209 C489 302 401 386 273 414 C179 435 114 491 114 554 C114 638 171 710 238 710 C311 710 389 658 412 581 L432 599 L452 617 L452 694 L417 694 L403 694 C360 735 298 760 237 760 C139 760 56 662 56 547 C56 462 138 385 257 358 C361 335 432 274 432 208 C432 117 373 39 288 39 C186 39 100 106 100 205 L52 172 L52 95 L73 95 L73 95 Z " />
<glyph glyph-name="Scedilla" unicode="&#x15e;" horiz-adv-x="523" d="M268 -87 L288 -10 C407 -10 488 91 488 209 C488 302 400 386 272 414 C178 435 113 491 113 554 C113 638 170 710 237 710 C310 710 388 658 411 581 L431 599 L451 617 L451 694 L416 694 L402 694 C359 735 297 760 236 760 C138 760 55 662 55 547 C55 462 137 385 256 358 C360 335 431 274 431 208 C431 117 372 39 287 39 C185 39 99 106 99 205 L51 172 L51 95 L72 95 C107 34 183 -5 271 -9 L246 -102 L261 -111 C264 -102 280 -95 296 -95 C316 -95 333 -118 333 -146 C333 -174 315 -197 295 -197 C277 -197 259 -182 256 -164 L237 -179 C240 -202 267 -221 296 -221 C331 -221 361 -186 361 -146 C361 -105 333 -71 300 -71 C287 -71 274 -77 267 -85 L268 -87 L268 -87 Z " />
<glyph glyph-name="scedilla" unicode="&#x15f;" horiz-adv-x="472" d="M231 -85 L252 -5 C355 -4 441 63 441 141 C441 205 366 268 256 282 C176 292 121 338 121 383 C121 440 181 488 251 488 C325 488 388 431 388 363 L408 372 L408 372 L429 382 L429 459 L400 459 C382 480 358 498 329 510 L329 510 L329 510 C305 520 278 525 250 525 C154 525 72 458 72 379 C72 314 141 250 243 238 C330 227 390 181 390 137 C390 81 325 34 248 34 C160 34 85 89 85 153 L40 136 L40 59 L74 59 L75 59 C92 42 114 27 139 16 L139 16 L139 16 C167 4 199 -4 233 -6 L207 -104 L222 -113 L222 -112 C225 -103 241 -96 258 -96 C277 -96 294 -119 294 -147 C294 -175 277 -198 256 -198 C238 -198 220 -183 217 -165 L198 -180 C201 -203 229 -222 258 -222 C293 -222 323 -187 323 -147 C323 -106 295 -72 262 -72 C250 -72 238 -77 231 -84 L231 -85 L231 -85 Z " />
<glyph glyph-name="Scaron" unicode="&#x160;" horiz-adv-x="523" d="M252 869 L367 980 L412 980 L277 830 L226 830 L91 980 L136 980 L252 869 L252 869 Z M73 95 C110 30 194 -10 289 -10 C408 -10 489 91 489 209 C489 302 401 386 273 414 C179 435 114 491 114 554 C114 638 171 710 238 710 C311 710 389 658 412 581 L432 599 L452 617 L452 694 L417 694 L403 694 C360 735 298 760 237 760 C139 760 56 662 56 547 C56 462 138 385 257 358 C361 335 432 274 432 208 C432 117 373 39 288 39 C186 39 100 106 100 205 L52 172 L52 95 L73 95 L73 95 Z " />
<glyph glyph-name="scaron" unicode="&#x161;" horiz-adv-x="472" d="M252 639 L367 750 L413 750 L277 600 L227 600 L91 750 L137 750 L252 639 L252 639 Z M142 17 L142 17 L142 17 C174 4 211 -4 250 -4 C354 -4 442 63 442 142 C442 206 367 269 257 283 C177 293 122 339 122 384 C122 441 182 489 252 489 C326 489 389 432 389 364 L409 373 L409 373 L430 383 L430 460 L401 460 C383 481 359 499 330 511 L330 511 L330 511 C306 521 279 526 251 526 C155 526 73 459 73 380 C73 315 142 251 244 239 C331 228 391 182 391 138 C391 82 326 35 249 35 C161 35 86 90 86 154 L41 137 L41 60 L75 60 L76 60 C93 43 115 28 140 17 L142 17 L142 17 Z " />
<glyph glyph-name="Tcaron" unicode="&#x164;" horiz-adv-x="567" d="M284 869 L399 980 L444 980 L309 830 L258 830 L123 980 L168 980 L284 869 L284 869 Z M284 0 L311 0 L388 0 C389 0 389 11 388 24 C389 49 389 70 388 70 L311 100 L311 705 L457 705 L488 628 L533 628 L557 628 L557 705 L557 727 L557 750 L311 750 L256 750 L10 750 L10 727 L10 705 L10 628 L34 628 L80 628 L110 705 L256 705 L256 100 L179 70 L179 24 L179 0 L256 0 L283 0 L284 0 L284 0 Z " />
<glyph glyph-name="tcaron" unicode="&#x165;" horiz-adv-x="317" d="M210 760 L201 610 L238 610 L264 760 L210 760 L210 760 Z M287 520 L160 520 L160 697 L110 655 L110 520 L10 520 L10 481 L110 481 L110 137 C110 44 122 0 198 0 L287 0 L287 41 L220 41 C168 41 160 72 160 137 L160 481 L287 481 L287 520 L287 520 Z " />
<glyph glyph-name="Utilde" unicode="&#x168;" horiz-adv-x="707" d="M294 820 C294 855 307 884 323 884 C360 884 361 810 406 810 C440 810 469 858 469 913 L432 913 C432 879 418 849 403 849 C366 849 364 923 320 923 C286 923 257 876 257 820 L294 820 L294 820 Z M533 650 L533 650 L534 302 C534 148 465 42 363 42 C261 42 192 148 192 302 L192 650 L269 681 L269 726 L269 750 L192 750 L164 750 L137 750 L60 750 L60 726 L60 681 L137 650 L137 293 C137 113 229 -10 363 -10 C497 -10 589 113 589 293 L589 650 L666 681 L666 726 L666 750 L589 750 L561 750 L533 750 L457 750 L457 726 L457 681 L533 650 L533 650 Z " />
<glyph glyph-name="utilde" unicode="&#x169;" horiz-adv-x="566" d="M220 600 C220 635 234 664 250 664 C286 664 288 590 332 590 C366 590 395 638 395 693 L358 693 C358 659 345 629 329 629 C292 629 291 703 246 703 C212 703 183 656 183 600 L220 600 L220 600 Z M458 100 L458 520 L433 520 L408 520 L332 520 L332 496 L332 451 L408 420 L408 144 C408 85 354 35 291 35 C206 35 170 91 170 172 L170 520 L145 520 L120 520 L43 520 L43 496 L43 451 L120 420 L120 172 C120 64 166 -10 276 -10 C333 -10 384 27 408 79 L408 9 L408 -1 L433 -1 L458 -1 L535 -1 L535 23 L535 69 L458 100 L458 100 Z " />
<glyph glyph-name="Umacron" unicode="&#x16a;" horiz-adv-x="707" d="M242 820 L483 820 L483 855 L242 855 L242 820 L242 820 Z M533 650 L533 650 L534 302 C534 148 465 42 363 42 C261 42 192 148 192 302 L192 650 L269 681 L269 726 L269 750 L192 750 L164 750 L137 750 L60 750 L60 726 L60 681 L137 650 L137 293 C137 113 229 -10 363 -10 C497 -10 589 113 589 293 L589 650 L666 681 L666 726 L666 750 L589 750 L561 750 L533 750 L457 750 L457 726 L457 681 L533 650 L533 650 Z " />
<glyph glyph-name="umacron" unicode="&#x16b;" horiz-adv-x="566" d="M169 600 L410 600 L410 635 L169 635 L169 600 L169 600 Z M458 100 L458 520 L433 520 L408 520 L332 520 L332 496 L332 451 L408 420 L408 144 C408 85 354 35 291 35 C206 35 170 91 170 172 L170 520 L145 520 L120 520 L43 520 L43 496 L43 451 L120 420 L120 172 C120 64 166 -10 276 -10 C333 -10 384 27 408 79 L408 9 L408 -1 L433 -1 L458 -1 L535 -1 L535 23 L535 69 L458 100 L458 100 Z " />
<glyph glyph-name="Ubreve" unicode="&#x16c;" horiz-adv-x="707" d="M242 935 C242 868 298 810 363 810 C428 810 484 868 484 935 L447 935 C447 887 408 845 363 845 C318 845 279 887 279 935 L242 935 L242 935 Z M533 650 L533 650 L534 302 C534 148 465 42 363 42 C261 42 192 148 192 302 L192 650 L269 681 L269 726 L269 750 L192 750 L164 750 L137 750 L60 750 L60 726 L60 681 L137 650 L137 293 C137 113 229 -10 363 -10 C497 -10 589 113 589 293 L589 650 L666 681 L666 726 L666 750 L589 750 L561 750 L533 750 L457 750 L457 726 L457 681 L533 650 L533 650 Z " />
<glyph glyph-name="ubreve" unicode="&#x16d;" horiz-adv-x="566" d="M168 715 C168 648 224 590 289 590 C354 590 410 648 410 715 L373 715 C373 667 334 625 289 625 C244 625 205 667 205 715 L168 715 L168 715 Z M458 100 L458 520 L433 520 L408 520 L332 520 L332 496 L332 451 L408 420 L408 144 C408 85 354 35 291 35 C206 35 170 91 170 172 L170 520 L145 520 L120 520 L43 520 L43 496 L43 451 L120 420 L120 172 C120 64 166 -10 276 -10 C333 -10 384 27 408 79 L408 9 L408 -1 L433 -1 L458 -1 L535 -1 L535 23 L535 69 L458 100 L458 100 Z " />
<glyph glyph-name="Uring" unicode="&#x16e;" horiz-adv-x="707" d="M363 843 C330 843 307 868 307 905 C307 940 331 967 363 967 C395 967 419 940 419 905 C419 868 396 843 363 843 L363 843 Z M282 905 C282 855 315 820 363 820 C411 820 444 855 444 905 C444 953 409 990 363 990 C317 990 282 953 282 905 L282 905 Z M533 650 L533 650 L534 302 C534 148 465 42 363 42 C261 42 192 148 192 302 L192 650 L269 681 L269 726 L269 750 L192 750 L164 750 L137 750 L60 750 L60 726 L60 681 L137 650 L137 293 C137 113 229 -10 363 -10 C497 -10 589 113 589 293 L589 650 L666 681 L666 726 L666 750 L589 750 L561 750 L533 750 L457 750 L457 726 L457 681 L533 650 L533 650 Z " />
<glyph glyph-name="uring" unicode="&#x16f;" horiz-adv-x="566" d="M289 623 C256 623 233 648 233 685 C233 720 257 747 289 747 C321 747 345 720 345 685 C345 648 322 623 289 623 L289 623 Z M208 685 C208 635 241 600 289 600 C337 600 370 635 370 685 C370 733 335 770 289 770 C243 770 208 733 208 685 L208 685 Z M458 100 L458 520 L433 520 L408 520 L332 520 L332 496 L332 451 L408 420 L408 144 C408 85 354 35 291 35 C206 35 170 91 170 172 L170 520 L145 520 L120 520 L43 520 L43 496 L43 451 L120 420 L120 172 C120 64 166 -10 276 -10 C333 -10 384 27 408 79 L408 9 L408 -1 L433 -1 L458 -1 L535 -1 L535 23 L535 69 L458 100 L458 100 Z " />
<glyph glyph-name="Wcircumflex" unicode="&#x174;" horiz-adv-x="870" d="M446 941 L561 830 L607 830 L471 980 L421 980 L285 830 L331 830 L446 941 L446 941 Z M705 650 L705 650 L606 123 L473 751 L419 751 L287 126 L187 651 L245 682 L245 727 L245 751 L168 751 L138 751 L108 751 L45 751 L45 725 L45 682 L128 651 L257 1 L261 1 L311 1 L446 625 L579 1 L583 1 L632 1 L764 651 L764 651 L847 682 L847 725 L847 751 L784 751 L754 751 L724 751 L647 751 L647 727 L647 682 L705 650 L705 650 Z " />
<glyph glyph-name="Ycircumflex" unicode="&#x176;" horiz-adv-x="658" d="M341 941 L457 830 L502 830 L367 980 L316 980 L181 830 L226 830 L341 941 L341 941 Z M496 650 L496 650 L341 377 L186 650 L186 650 L206 681 L206 726 L206 750 L129 750 L101 750 L72 750 L35 750 L35 720 L35 681 L129 650 L129 650 L313 330 L313 100 L236 70 L236 24 L236 0 L313 0 L340 0 L368 0 L445 0 C446 0 446 11 445 24 C446 49 446 70 445 70 L368 100 L368 330 L552 650 L646 681 L646 720 L646 750 L609 750 L580 750 L552 750 L475 750 L475 726 L475 681 L496 650 L496 650 Z " />
<glyph glyph-name="Ydieresis" unicode="&#x178;" horiz-adv-x="658" d="M379 830 L439 830 L439 890 L379 890 L379 830 L379 830 Z M244 830 L304 830 L304 890 L244 890 L244 830 L244 830 Z M496 650 L496 650 L341 377 L186 650 L186 650 L206 681 L206 726 L206 750 L129 750 L101 750 L72 750 L35 750 L35 720 L35 681 L129 650 L129 650 L313 330 L313 100 L236 70 L236 24 L236 0 L313 0 L340 0 L368 0 L445 0 C446 0 446 11 445 24 C446 49 446 70 445 70 L368 100 L368 330 L552 650 L646 681 L646 720 L646 750 L609 750 L580 750 L552 750 L475 750 L475 726 L475 681 L496 650 L496 650 Z " />
<glyph glyph-name="Zacute" unicode="&#x179;" horiz-adv-x="627" d="M298 830 L344 830 L418 980 L353 980 L298 830 L298 830 Z M582 23 L582 45 L582 122 C582 123 571 123 558 122 C534 123 513 123 513 122 L482 45 L109 45 L582 705 L582 750 L60 750 L60 727 L60 705 L60 628 L84 628 L130 628 L160 705 L518 705 L45 45 L45 0 L582 0 L582 23 L582 23 Z " />
<glyph glyph-name="zacute" unicode="&#x17a;" horiz-adv-x="432" d="M206 600 L251 600 L326 750 L260 750 L206 600 L206 600 Z M45 520 L45 500 L45 481 L45 404 L69 404 L115 404 L145 481 L334 481 L30 30 L30 0 L84 0 L412 0 L412 20 L412 39 L412 116 L388 116 L343 116 L312 39 L90 39 L396 490 L396 520 L343 520 L45 520 L45 520 Z " />
<glyph glyph-name="Zdot" unicode="&#x17b;" horiz-adv-x="627" d="M291 830 L351 830 L351 890 L291 890 L291 830 L291 830 Z M582 23 L582 45 L582 122 C582 123 571 123 558 122 C534 123 513 123 513 122 L482 45 L109 45 L582 705 L582 750 L60 750 L60 727 L60 705 L60 628 L84 628 L130 628 L160 705 L518 705 L45 45 L45 0 L582 0 L582 23 L582 23 Z " />
<glyph glyph-name="zdot" unicode="&#x17c;" horiz-adv-x="432" d="M199 600 L259 600 L259 660 L199 660 L199 600 L199 600 Z M45 520 L45 500 L45 481 L45 404 L69 404 L115 404 L145 481 L334 481 L30 30 L30 0 L84 0 L412 0 L412 20 L412 39 L412 116 L388 116 L343 116 L312 39 L90 39 L396 490 L396 520 L343 520 L45 520 L45 520 Z " />
<glyph glyph-name="Zcaron" unicode="&#x17d;" horiz-adv-x="627" d="M321 869 L436 980 L482 980 L346 830 L296 830 L160 980 L206 980 L321 869 L321 869 Z M582 23 L582 45 L582 122 C582 123 571 123 558 122 C534 123 513 123 513 122 L482 45 L109 45 L582 705 L582 750 L60 750 L60 727 L60 705 L60 628 L84 628 L130 628 L160 705 L518 705 L45 45 L45 0 L582 0 L582 23 L582 23 Z " />
<glyph glyph-name="zcaron" unicode="&#x17e;" horiz-adv-x="432" d="M229 639 L344 750 L389 750 L254 600 L203 600 L68 750 L113 750 L229 639 L229 639 Z M45 520 L45 500 L45 481 L45 404 L69 404 L115 404 L145 481 L334 481 L30 30 L30 0 L84 0 L412 0 L412 20 L412 39 L412 116 L388 116 L343 116 L312 39 L90 39 L396 490 L396 520 L343 520 L45 520 L45 520 Z " />
<glyph glyph-name="oogonek" unicode="&#x1eb;" horiz-adv-x="734" d="M78 298 C78 132 216 -10 378 -10 C415 -10 450 -3 483 10 L620 -90 L651 -63 L524 30 C616 84 680 186 680 299 C680 458 534 608 379 608 C225 608 79 458 79 299 L78 298 L78 298 Z M443 42 C423 36 402 33 380 33 C247 33 133 156 133 300 C133 438 254 568 380 568 C507 568 627 438 627 300 C627 197 569 105 487 61 L427 105 L397 78 L443 42 L443 42 Z " />
<glyph glyph-name="Adotabove" unicode="&#x226;" horiz-adv-x="773" d="M369 830 L429 830 L429 890 L369 890 L369 830 L369 830 Z M686 100 L685 100 L428 750 L423 750 L395 750 L370 750 L367 750 L290 750 L290 726 L290 681 L327 650 L327 650 L108 100 L19 70 L19 28 L19 0 L68 0 L97 0 L127 0 L204 0 L204 24 L204 70 L166 100 L213 220 L205 200 L586 200 L625 101 L588 71 L588 25 L588 1 L664 1 L694 1 L723 1 L773 1 L773 29 L773 71 L686 100 L686 100 Z M221 243 L395 684 L569 243 L221 243 L221 243 Z " />
<glyph glyph-name="G_sc" unicode="&#x262;" horiz-adv-x="693" d="M411 292 L601 292 L601 124 C541 74 447 31 385 31 C245 31 126 154 126 298 C126 443 245 566 385 566 C449 566 510 538 550 497 C557 487 565 476 574 464 C586 444 594 423 596 401 L633 431 L633 508 L602 508 C585 531 561 551 533 567 L533 567 L533 567 C491 591 439 606 385 606 C216 606 73 464 73 297 C73 131 216 -11 385 -11 C464 -11 578 40 649 99 L649 331 L411 331 L411 292 L411 292 Z " />
<glyph glyph-name="I_sc" unicode="&#x26a;" horiz-adv-x="301" d="M153 0 L178 0 L255 0 L255 24 L255 70 L178 100 L178 497 L255 527 L255 573 L255 597 C234 596 203 596 177 596 L177 597 L152 597 L127 597 L127 596 C101 596 70 596 50 597 L50 573 L50 527 L127 497 L127 100 L50 70 L50 24 L50 0 L127 0 L153 0 L153 0 Z " />
<glyph glyph-name="N_sc" unicode="&#x274;" horiz-adv-x="638" d="M465 596 C439 596 408 596 387 597 L387 573 L387 527 L464 497 L464 70 L194 593 L194 597 L192 597 L169 597 L144 597 L144 596 C118 596 87 596 66 597 L66 573 L66 527 L143 497 L143 100 L66 70 L66 24 L66 0 L143 0 L168 0 L193 0 L270 0 L270 24 L270 70 L193 100 L193 500 L451 0 L463 0 L499 0 L513 0 L513 497 L590 527 L590 573 L590 597 C570 596 539 596 513 596 L513 597 L488 597 L463 597 L465 596 L465 596 Z " />
<glyph glyph-name="R_sc" unicode="&#x280;" horiz-adv-x="621" d="M496 100 L496 100 L397 255 C488 268 548 331 548 418 C548 524 473 597 363 597 L195 597 L170 597 L157 597 L145 597 L145 596 C119 596 88 596 67 597 L67 573 L67 527 L144 497 L144 100 L67 70 L67 24 L67 0 L144 0 L169 0 L194 0 L271 0 L271 24 L271 70 L194 100 L194 253 L340 253 L501 0 L530 0 L558 0 L591 0 L591 30 L591 70 L496 100 L496 100 Z M194 292 L194 558 L360 558 C441 558 497 501 497 418 C497 343 443 292 363 292 L194 292 L194 292 Z " />
<glyph glyph-name="Y_sc" unicode="&#x28f;" horiz-adv-x="606" d="M212 490 L211 497 L211 497 L211 497 L207 527 L207 573 L207 597 C186 596 156 596 130 596 L129 597 L101 597 L72 597 L73 596 C65 596 58 596 52 596 L52 564 L52 526 L154 496 L290 329 L290 99 L213 69 L213 23 L213 -1 L290 -1 L315 -1 L340 -1 L417 -1 L417 23 L417 69 L340 99 L340 329 L476 496 L476 496 L577 526 L577 564 L577 596 C571 596 564 596 556 596 L557 597 L529 597 L500 597 L499 596 C473 596 443 596 423 597 C424 596 424 585 423 573 C424 548 424 527 423 527 L419 497 L315 368 L210 498 C210 497 210 494 210 490 L212 490 L212 490 Z M209 497 L209 497 L209 497 L209 497 Z " />
<glyph glyph-name="B_sc" unicode="&#x299;" horiz-adv-x="682" d="M447 315 C523 335 578 383 578 438 C578 541 495 597 343 597 L195 597 L170 597 L145 597 L145 596 C119 596 88 596 67 597 L67 573 L67 527 L144 497 L144 100 L67 70 L67 24 L67 0 L144 0 L169 0 L194 0 L412 0 C564 0 647 61 647 174 C647 249 555 313 446 314 L447 315 L447 315 Z M194 324 L194 557 L344 557 C461 557 525 514 525 434 C525 375 442 324 345 324 L194 324 L194 324 Z M194 38 L194 286 L408 286 C508 286 593 236 593 178 C593 87 524 38 397 38 L194 38 L194 38 Z " />
<glyph glyph-name="H_sc" unicode="&#x29c;" horiz-adv-x="679" d="M531 0 L556 0 L633 0 L633 24 L633 70 L556 100 L556 497 L633 527 L633 573 L633 597 C613 596 582 596 556 596 L556 597 L531 597 L506 597 L506 596 C480 596 449 596 428 597 L428 573 L428 527 L505 497 L505 298 L194 298 L194 497 L271 527 L271 573 L271 597 C251 596 220 596 194 596 L194 597 L169 597 L144 597 L144 596 C118 596 87 596 66 597 L66 573 L66 527 L143 497 L143 100 L66 70 L66 24 L66 0 L143 0 L168 0 L193 0 L270 0 L270 24 L270 70 L193 100 L193 257 L504 257 L504 100 L427 70 L427 24 L427 0 L504 0 L531 0 L531 0 Z " />
<glyph glyph-name="L_sc" unicode="&#x29f;" horiz-adv-x="491" d="M423 20 L423 41 L423 118 L399 118 L354 118 L323 41 L178 41 L178 497 L255 527 L255 573 L255 597 C234 596 203 596 177 596 L177 597 L152 597 L127 597 L127 596 C101 596 70 596 50 597 L50 573 L50 527 L127 497 L127 100 L50 70 L50 24 L50 0 L127 0 L152 0 L177 0 L422 0 L423 20 L423 20 Z " />
<glyph glyph-name="A_sc" unicode="&#x1d00;" horiz-adv-x="722" d="M628 100 L628 100 L399 597 L394 597 L370 597 L348 597 L345 597 L345 596 C319 596 289 596 268 597 L268 573 L268 527 L299 497 L116 100 L116 100 L25 70 L25 29 L25 0 L70 0 L95 0 L121 0 L198 0 L198 24 L198 70 L167 100 L167 100 L371 547 L534 192 L209 192 L192 155 L551 155 L577 99 L547 70 L547 24 L547 0 L623 0 L649 0 L675 0 L720 0 L720 29 L720 70 L628 100 L628 100 Z " />
<glyph glyph-name="C_sc" unicode="&#x1d04;" horiz-adv-x="641" d="M584 196 C584 107 479 31 355 31 C232 31 126 168 126 298 C126 428 232 566 355 566 C471 566 577 490 584 401 L603 416 L603 416 L621 431 L621 508 L588 508 C571 529 548 548 521 564 L521 564 L521 564 C475 591 417 607 356 607 C204 607 74 448 74 298 C74 148 204 -10 356 -10 C500 -10 622 71 622 165 L584 196 L584 196 Z " />
<glyph glyph-name="D_sc" unicode="&#x1d05;" horiz-adv-x="722" d="M170 0 L195 0 L348 0 C543 0 668 116 668 298 C668 476 526 597 318 597 L195 597 L170 597 L145 597 L145 596 C119 596 88 596 67 597 L67 573 L67 527 L144 497 L144 100 L67 70 L67 24 L67 0 L144 0 L170 0 L170 0 Z M194 39 L194 558 L319 558 C493 558 613 453 613 298 C613 140 508 39 343 39 L194 39 L194 39 Z " />
<glyph glyph-name="E_sc" unicode="&#x1d07;" horiz-adv-x="540" d="M491 20 L491 41 L491 118 L466 118 L421 118 L391 41 L195 41 L195 267 L356 267 L386 190 L431 190 L456 190 L456 267 L456 286 L456 306 L456 383 C456 382 445 382 431 383 C407 382 386 382 386 383 L356 306 L195 306 L195 556 L376 556 L406 479 L451 479 L476 479 L476 556 L476 576 L476 597 L195 597 L194 597 L170 597 L145 597 L145 596 C119 596 88 596 67 597 L67 573 L67 527 L144 497 L144 100 L67 70 L67 24 L67 0 L144 0 L169 0 L193 0 L194 0 L490 0 L491 20 L491 20 Z " />
<glyph glyph-name="J_sc" unicode="&#x1d0a;" horiz-adv-x="407" d="M68 283 L68 221 C68 78 116 -10 196 -10 C271 -10 323 75 323 175 L323 497 L400 527 C399 527 399 548 400 573 C399 585 399 596 400 597 C380 596 349 596 323 596 L323 597 L297 597 L272 597 L272 596 C246 596 215 596 194 597 L194 573 L194 527 L271 497 L271 175 C271 100 240 36 195 36 C147 36 118 112 118 236 L118 292 L68 283 L68 283 Z " />
<glyph glyph-name="K_sc" unicode="&#x1d0b;" horiz-adv-x="520" d="M448 100 L448 100 L279 368 L275 363 L383 497 L485 527 L485 565 L485 597 C479 597 471 597 463 597 L464 598 L436 598 L407 598 L407 597 C381 597 351 597 331 598 L331 574 L331 528 L328 498 L328 498 L328 498 L326 472 C327 485 328 495 328 497 L158 284 L158 498 L235 528 C234 528 234 549 235 574 C234 586 234 597 235 598 C214 597 183 597 157 597 L157 598 L132 598 L106 598 L106 597 C80 597 49 597 29 598 L29 574 L29 528 L106 498 L106 101 L29 71 L29 25 L29 1 L106 1 L132 1 L157 1 L234 1 C233 1 233 12 234 25 C233 50 233 71 234 71 L157 101 L157 218 L245 327 L391 101 L378 71 L378 25 L378 1 L455 1 L483 1 L511 1 L544 1 L544 31 L544 71 L448 100 L448 100 Z M327 498 L327 498 L327 498 L327 498 L327 498 Z " />
<glyph glyph-name="M_sc" unicode="&#x1d0d;" horiz-adv-x="825" d="M678 0 L702 0 L779 0 L779 24 L779 70 L702 100 L702 497 L779 527 L779 573 L779 597 C759 596 728 596 702 596 L702 597 L678 597 L670 597 L654 597 L624 597 L423 60 L222 597 L194 597 L175 597 L170 597 L145 597 L145 596 C119 596 88 596 67 597 L67 573 L67 527 L144 497 L144 100 L67 70 L67 24 L67 0 L144 0 L169 0 L193 0 L270 0 L270 24 L270 70 L193 100 L193 547 L400 0 L445 0 L653 554 L653 100 L576 70 L576 24 L576 0 L653 0 L678 0 L678 0 Z " />
<glyph glyph-name="O_sc" unicode="&#x1d0f;" horiz-adv-x="734" d="M378 31 C245 31 131 154 131 298 C131 436 252 566 378 566 C505 566 625 436 625 298 C625 154 512 31 378 31 L378 31 Z M78 298 C78 132 216 -10 378 -10 C541 -10 679 132 679 298 C679 457 533 607 378 607 C224 607 78 457 78 298 L78 298 Z " />
<glyph glyph-name="P_sc" unicode="&#x1d18;" horiz-adv-x="582" d="M170 0 L195 0 L272 0 L272 24 L272 70 L195 100 L195 238 L363 238 C473 238 548 311 548 418 C548 524 473 597 363 597 L195 597 L170 597 L157 597 L145 597 L145 596 C119 596 88 596 67 597 L67 573 L67 527 L144 497 L144 100 L67 70 L67 24 L67 0 L144 0 L170 0 L170 0 Z M194 277 L194 558 L360 558 C441 558 497 501 497 418 C497 334 443 277 364 277 L194 277 L194 277 Z " />
<glyph glyph-name="T_sc" unicode="&#x1d1b;" horiz-adv-x="515" d="M258 0 L283 0 L360 0 L360 24 L360 70 L283 100 L283 556 L405 556 L436 479 L481 479 L505 479 L505 556 L505 576 L505 597 L283 597 L233 597 L10 597 L10 576 L10 556 L10 479 L34 479 L80 479 L110 556 L233 556 L233 100 L156 70 L156 24 L156 0 L233 0 L258 0 L258 0 Z " />
<glyph glyph-name="U_sc" unicode="&#x1d1c;" horiz-adv-x="650" d="M138 596 C112 596 81 596 60 597 L60 573 L60 527 L137 497 L137 232 C137 88 217 -10 334 -10 C451 -10 531 88 531 232 L531 497 L608 527 L608 573 L608 597 C588 596 557 596 531 596 L531 597 L506 597 L481 597 L481 596 C455 596 424 596 403 597 L403 573 L403 527 L480 497 L480 241 C480 119 420 36 333 36 C246 36 186 119 186 241 L186 497 L263 527 L263 573 L263 597 C243 596 212 596 186 596 L186 597 L161 597 L136 597 L138 596 L138 596 Z " />
<glyph glyph-name="V_sc" unicode="&#x1d20;" horiz-adv-x="623" d="M505 497 L505 497 L591 527 L591 569 L591 597 C576 596 555 596 536 596 L536 597 L509 597 L482 597 L482 596 C456 596 426 596 405 597 C406 596 406 585 405 573 C406 548 406 527 405 527 L452 497 L324 74 L194 497 L194 497 L240 527 C241 527 241 548 240 573 C241 585 241 596 240 597 C220 596 190 596 164 596 L164 597 L137 597 L110 597 L110 596 C91 596 70 596 56 597 L56 569 L56 527 L142 497 L301 0 L302 0 L347 0 L349 0 L505 497 L505 497 Z " />
<glyph glyph-name="W_sc" unicode="&#x1d21;" horiz-adv-x="813" d="M703 497 L703 497 L787 527 L787 570 L787 597 C771 596 747 596 726 596 L726 597 L699 597 L672 597 L672 596 C646 596 616 596 595 597 C596 596 596 585 595 573 C596 548 596 527 595 527 L650 497 L564 97 L442 596 L394 596 L273 95 L185 496 L185 496 L240 526 C241 526 241 547 240 572 C241 584 241 595 240 596 C220 595 190 595 164 595 L164 596 L137 596 L110 596 L110 595 C89 595 65 595 49 596 L49 569 L49 526 L133 496 L247 -1 L251 -1 L295 -1 L419 499 L541 -1 L544 -1 L589 -1 L703 497 L703 497 Z " />
<glyph glyph-name="Z_sc" unicode="&#x1d22;" horiz-adv-x="575" d="M530 20 L530 41 L530 118 L506 118 L461 118 L430 41 L100 41 L530 556 L530 597 L60 597 L60 576 L60 556 L60 479 L84 479 L130 479 L160 556 L476 556 L45 41 L45 0 L530 0 L530 20 L530 20 Z " />
<glyph glyph-name="Wgrave" unicode="&#x1e80;" horiz-adv-x="870" d="M423 830 L469 830 L414 980 L349 980 L423 830 L423 830 Z M705 650 L705 650 L606 123 L473 751 L419 751 L287 126 L187 651 L245 682 L245 727 L245 751 L168 751 L138 751 L108 751 L45 751 L45 725 L45 682 L128 651 L257 1 L261 1 L311 1 L446 625 L579 1 L583 1 L632 1 L764 651 L764 651 L847 682 L847 725 L847 751 L784 751 L754 751 L724 751 L647 751 L647 727 L647 682 L705 650 L705 650 Z " />
<glyph glyph-name="Wacute" unicode="&#x1e82;" horiz-adv-x="870" d="M423 830 L469 830 L543 980 L478 980 L423 830 L423 830 Z M705 650 L705 650 L606 123 L473 751 L419 751 L287 126 L187 651 L245 682 L245 727 L245 751 L168 751 L138 751 L108 751 L45 751 L45 725 L45 682 L128 651 L257 1 L261 1 L311 1 L446 625 L579 1 L583 1 L632 1 L764 651 L764 651 L847 682 L847 725 L847 751 L784 751 L754 751 L724 751 L647 751 L647 727 L647 682 L705 650 L705 650 Z " />
<glyph glyph-name="Wdieresis" unicode="&#x1e84;" horiz-adv-x="870" d="M484 830 L544 830 L544 890 L484 890 L484 830 L484 830 Z M348 830 L408 830 L408 890 L348 890 L348 830 L348 830 Z M705 650 L705 650 L606 123 L473 751 L419 751 L287 126 L187 651 L245 682 L245 727 L245 751 L168 751 L138 751 L108 751 L45 751 L45 725 L45 682 L128 651 L257 1 L261 1 L311 1 L446 625 L579 1 L583 1 L632 1 L764 651 L764 651 L847 682 L847 725 L847 751 L784 751 L754 751 L724 751 L647 751 L647 727 L647 682 L705 650 L705 650 Z " />
<glyph glyph-name="Etilde" unicode="&#x1ebc;" horiz-adv-x="596" d="M269 830 C269 865 282 894 298 894 C334 894 336 820 381 820 C414 820 443 868 443 923 L406 923 C406 889 393 859 377 859 C341 859 339 933 294 933 C261 933 232 886 232 830 L269 830 L269 830 Z M546 23 L546 45 L546 122 C546 123 535 123 522 122 C498 123 477 123 477 122 L446 45 L199 45 L199 338 L411 338 L442 261 L487 261 L511 261 L511 338 L511 360 L511 381 L511 458 L487 458 L442 458 L411 381 L199 381 L199 705 L431 705 L462 628 L507 628 L531 628 L531 705 L531 727 L531 750 L199 750 L198 750 L171 750 L144 750 L67 750 L67 726 L67 681 L144 650 L144 100 L67 70 L67 24 L67 0 L144 0 L171 0 L198 0 L199 0 L546 0 L546 23 L546 23 Z " />
<glyph glyph-name="Ygrave" unicode="&#x1ef2;" horiz-adv-x="658" d="M319 830 L364 830 L310 980 L244 980 L319 830 L319 830 Z M496 650 L496 650 L341 377 L186 650 L186 650 L206 681 L206 726 L206 750 L129 750 L101 750 L72 750 L35 750 L35 720 L35 681 L129 650 L129 650 L313 330 L313 100 L236 70 L236 24 L236 0 L313 0 L340 0 L368 0 L445 0 C446 0 446 11 445 24 C446 49 446 70 445 70 L368 100 L368 330 L552 650 L646 681 L646 720 L646 750 L609 750 L580 750 L552 750 L475 750 L475 726 L475 681 L496 650 L496 650 Z " />
<glyph glyph-name="endash" unicode="&#x2013;" horiz-adv-x="382" d="M5 242 L377 242 L377 284 L5 284 L5 242 L5 242 Z " />
<glyph glyph-name="emdash" unicode="&#x2014;" horiz-adv-x="672" d="M50 242 L622 242 L622 284 L50 284 L50 242 L50 242 Z " />
<glyph glyph-name="quoteleft" unicode="&#x2018;" horiz-adv-x="160" d="M110 760 C71 760 50 720 50 674 L50 614 L110 614 L110 674 L83 674 C83 706 93 734 110 734 L110 760 L110 760 Z " />
<glyph glyph-name="quoteright" unicode="&#x2019;" horiz-adv-x="160" d="M80 760 L80 700 L107 700 C107 661 97 640 80 640 L80 614 C119 614 140 644 140 700 L140 760 L80 760 L80 760 Z " />
<glyph glyph-name="quotedblleft" unicode="&#x201c;" horiz-adv-x="280" d="M230 760 C191 760 170 720 170 674 L170 614 L230 614 L230 674 L203 674 C203 706 213 734 230 734 L230 760 L230 760 Z M140 760 C101 760 80 720 80 674 L80 614 L140 614 L140 674 L113 674 C113 706 123 734 140 734 L140 760 L140 760 Z " />
<glyph glyph-name="quotedblright" unicode="&#x201d;" horiz-adv-x="280" d="M170 760 L170 700 L197 700 C197 661 187 640 170 640 L170 614 C209 614 230 644 230 700 L230 760 L170 760 L170 760 Z M80 760 L80 700 L107 700 C107 661 97 640 80 640 L80 614 C119 614 140 644 140 700 L140 760 L80 760 L80 760 Z " />
<glyph glyph-name="dagger" unicode="&#x2020;" horiz-adv-x="510" d="M450 580 L280 580 L280 750 L230 750 L230 580 L60 580 L60 537 L230 537 L230 -50 L280 -50 L280 537 L450 537 L450 580 L450 580 Z " />
<glyph glyph-name="daggerdbl" unicode="&#x2021;" horiz-adv-x="510" d="M60 120 L230 120 L230 -50 L280 -50 L280 120 L450 120 L450 163 L280 163 L280 537 L450 537 L450 580 L280 580 L280 750 L230 750 L230 580 L60 580 L60 537 L230 537 L230 163 L60 163 L60 120 L60 120 Z " />
<glyph glyph-name="bullet" unicode="&#x2022;" horiz-adv-x="160" d="M43 230 L118 230 L118 305 L43 305 L43 230 L43 230 Z " />
<glyph glyph-name="ellipsis" unicode="&#x2026;" horiz-adv-x="430" d="M320 0 L380 0 L380 60 L320 60 L320 0 L320 0 Z M185 0 L245 0 L245 60 L185 60 L185 0 L185 0 Z M50 0 L110 0 L110 60 L50 60 L50 0 L50 0 Z " />
<glyph glyph-name="perthousand" unicode="&#x2030;" horiz-adv-x="681" d="M820 140 C820 73 789 16 743 16 C698 16 667 73 667 140 C667 207 698 264 743 264 C789 264 820 207 820 140 L820 140 Z M743 -10 C806 -10 848 59 848 140 C848 221 806 290 743 290 C681 290 639 221 639 140 C639 59 681 -10 743 -10 L743 -10 Z M599 140 C599 73 568 16 523 16 C478 16 447 73 447 140 C447 207 478 264 523 264 C568 264 599 207 599 140 L599 140 Z M523 -10 C585 -10 628 59 628 140 C628 221 585 290 523 290 C461 290 419 221 419 140 C419 59 461 -10 523 -10 L523 -10 Z M82 610 C82 677 113 734 159 734 C204 734 235 677 235 610 C235 543 204 486 159 486 C113 486 82 543 82 610 L82 610 Z M159 760 C96 760 54 691 54 610 C54 529 96 460 159 460 C221 460 263 529 263 610 C263 691 221 760 159 760 L159 760 Z M147 0 L165 0 L534 750 L517 750 L147 0 L147 0 Z " />
<glyph glyph-name="guilsinglleft" unicode="&#x2039;" horiz-adv-x="245" d="M185 470 L64 260 L185 50 L228 50 L108 260 L228 470 L185 470 L185 470 Z " />
<glyph glyph-name="guilsinglright" unicode="&#x203a;" horiz-adv-x="245" d="M92 470 L213 260 L92 50 L136 50 L256 260 L136 470 L92 470 L92 470 Z " />
<glyph glyph-name="fraction" unicode="&#x2044;" horiz-adv-x="534" d="M60 0 L77 0 L475 750 L457 750 L60 0 L60 0 Z " />
<glyph glyph-name="Euro" unicode="&#x20ac;" horiz-adv-x="692" d="M17 317 L75 317 C100 149 230 -10 380 -10 C537 -10 671 70 671 164 L630 199 C630 110 515 35 380 35 C261 35 157 171 134 317 L425 317 L429 345 L130 345 C129 355 129 365 129 375 C129 385 129 395 130 405 L429 405 L433 433 L134 433 C157 579 261 715 380 715 C508 715 623 640 630 551 L671 586 C664 680 530 760 380 760 C230 760 100 601 75 433 L25 433 L21 405 L72 405 C71 395 71 385 71 375 C71 365 71 355 72 345 L21 345 L17 317 L17 317 Z " />
<glyph glyph-name="minus" unicode="&#x2212;" horiz-adv-x="587" d="M50 248 L537 248 L537 278 L50 278 L50 248 L50 248 Z " />
<glyph glyph-name="divisionslash" unicode="&#x2215;" horiz-adv-x="414" d="M0 0 L17 0 L415 750 L397 750 L0 0 L0 0 Z " />
<glyph glyph-name="bulletoperator" unicode="&#x2219;" horiz-adv-x="160" d="M50 230 L110 230 L110 290 L50 290 L50 230 L50 230 Z " />
<glyph glyph-name="F_sc" unicode="&#xa730;" horiz-adv-x="505" d="M346 267 L376 190 L421 190 L446 190 L446 267 L446 286 L446 306 L446 383 C446 382 435 382 421 383 C397 382 376 382 376 383 L346 306 L195 306 L195 556 L376 556 L406 479 L451 479 L476 479 L476 556 L476 576 L476 597 L195 597 L194 597 L170 597 L145 597 L145 596 C119 596 88 596 67 597 L67 573 L67 527 L144 497 L144 100 L67 70 L67 24 L67 0 L144 0 L169 0 L194 0 L271 0 L271 24 L271 70 L194 100 L194 267 L346 267 L346 267 Z " />
<glyph glyph-name="S_sc" unicode="&#xa731;" horiz-adv-x="465" d="M153 14 L153 14 L153 14 C184 -2 220 -11 258 -11 C361 -11 432 70 432 166 C432 244 356 311 244 331 C164 346 110 390 110 441 C110 506 157 561 212 561 C269 561 334 508 358 430 L376 446 L394 462 L394 539 L359 539 L350 539 C334 557 315 572 294 583 L294 583 L294 583 C268 597 240 605 213 605 C130 605 59 526 59 434 C59 362 129 299 231 280 C321 263 383 216 383 163 C383 92 333 32 259 32 C217 32 178 48 149 75 C138 93 124 115 107 140 C101 158 98 178 98 199 L55 170 L55 93 L73 93 C90 58 119 30 155 12 L153 14 L153 14 Z " />
<glyph glyph-name="X_sc" unicode="&#xf078;" horiz-adv-x="662" d="M450 497 L450 497 L357 360 L276 497 L276 497 L294 527 L294 573 L294 597 C274 596 244 596 218 596 L218 597 L192 597 L166 597 L166 596 C153 596 139 596 129 597 L129 567 L129 527 L224 497 L329 319 L181 100 L180 100 L83 70 L83 31 L83 0 L113 0 L141 0 L169 0 L246 0 L246 24 L246 70 L237 100 L237 100 L355 274 L458 100 L458 100 L440 70 L440 24 L440 0 L517 0 L543 0 L569 0 L605 0 L605 30 L605 70 L510 100 L383 316 L506 497 L507 497 L604 527 L604 566 L604 597 C596 596 585 596 574 596 L575 597 L547 597 L519 597 L519 596 C493 596 463 596 442 597 L442 573 L442 527 L450 497 L450 497 Z " />
</font>
</svg>
