<?xml version="1.0" encoding="UTF-8"?>
<svg xmlns="http://www.w3.org/2000/svg" xmlns:xlink="http://www.w3.org/1999/xlink" version="1.2" >
<font id="Jadrien Regular">
<font-face  font-family="Jadrien" units-per-em="1024" ascent="975" descent="-300" font-style="normal" font-weight="400" font-stretch="normal" cap-height="750" x-height="520" underline-position="-125" underline-thickness="50" />
<missing-glyph  horiz-adv-x="650" d="" />
<glyph glyph-name="NULL" d="" />
<glyph glyph-name="CR" unicode="&#xd;" horiz-adv-x="256" d="" />
<glyph glyph-name="space" unicode="&#x20;" horiz-adv-x="215" d="" />
<glyph glyph-name="exclam" unicode="&#x21;" horiz-adv-x="225" d="M50 0 L175 0 L175 125 L50 125 L50 0 L50 0 Z M45 750 L45 440 L95 210 L130 210 L180 440 L180 750 L45 750 L45 750 Z " />
<glyph glyph-name="quotedbl" unicode="&#x22;" horiz-adv-x="465" d="M268 750 L268 630 L298 520 L353 520 L383 630 L383 750 L268 750 L268 750 Z M80 750 L80 630 L110 520 L165 520 L195 630 L195 750 L80 750 L80 750 Z " />
<glyph glyph-name="numbersign" unicode="&#x23;" horiz-adv-x="673" d="M453 750 L429 567 L300 567 L324 750 L214 750 L190 567 L76 567 L63 473 L177 473 L151 277 L29 277 L15 183 L138 183 L114 0 L224 0 L248 183 L377 183 L353 0 L463 0 L487 183 L593 183 L606 277 L500 277 L526 473 L640 473 L653 567 L539 567 L563 750 L453 750 L453 750 Z M287 473 L416 473 L390 277 L261 277 L287 473 L287 473 Z " />
<glyph glyph-name="dollar" unicode="&#x24;" horiz-adv-x="597" d="M312 825 L312 758 C297 759 282 760 267 760 C265 760 263 760 261 760 L261 825 L186 825 L186 746 C100 715 36 635 36 546 C36 466 94 394 186 351 L186 148 C161 171 145 201 145 236 L90 198 L90 198 L36 160 L36 90 L59 90 C85 54 130 26 186 9 L186 -75 L261 -75 L261 -7 C277 -9 294 -10 311 -10 L311 -75 L386 -75 L386 -2 C492 24 561 111 561 211 C561 303 493 386 386 430 L386 616 C415 599 437 575 445 547 L490 588 L490 588 L536 630 L536 700 L501 700 L481 700 C468 710 453 719 437 727 L437 727 L437 727 C421 734 404 740 386 745 L386 826 L312 825 L312 825 Z M261 467 L261 647 C263 647 265 647 267 647 C282 647 297 646 312 643 L312 452 C294 456 277 461 262 467 L261 467 L261 467 Z M187 516 C175 530 169 545 169 560 C169 578 176 595 187 609 L187 516 L187 516 Z M262 325 C268 324 274 323 280 322 C291 320 302 317 313 314 L313 104 C296 105 279 107 263 111 L262 325 L262 325 Z M388 279 C418 258 435 233 435 207 C435 172 417 140 388 121 L388 279 L388 279 Z " />
<glyph glyph-name="percent" unicode="&#x25;" horiz-adv-x="726" d="M602 140 C602 91 582 50 554 50 C525 50 505 91 505 140 C505 189 525 230 554 230 C582 230 602 189 602 140 L602 140 Z M554 -10 C621 -10 667 59 667 140 C667 221 621 290 554 290 C486 290 440 221 440 140 C440 59 486 -10 554 -10 L554 -10 Z M124 610 C124 659 144 700 173 700 C202 700 222 659 222 610 C222 561 202 520 173 520 C144 520 124 561 124 610 L124 610 Z M173 760 C105 760 59 691 59 610 C59 529 105 460 173 460 C241 460 287 529 287 610 C287 691 241 760 173 760 L173 760 Z M147 0 L187 0 L579 750 L539 750 L147 0 L147 0 Z " />
<glyph glyph-name="ampersand" unicode="&#x26;" horiz-adv-x="668" d="M609 2 L593 99 C588 97 575 95 566 95 C535 95 508 113 484 137 C518 196 538 268 536 344 L431 368 C432 319 424 272 409 231 C371 281 337 326 312 359 C380 408 437 485 437 527 C437 617 368 694 287 694 C201 694 128 617 128 527 C128 467 143 403 162 371 C93 320 35 234 35 181 C35 73 130 -19 241 -19 C306 -19 367 8 417 53 C460 16 507 -9 558 -9 C570 -9 594 -3 610 3 L609 2 L609 2 Z M262 427 C248 447 237 494 237 538 C237 572 261 601 288 601 C316 601 339 566 339 524 C339 501 304 457 263 427 L262 427 L262 427 Z M213 306 C242 267 286 209 334 145 C337 140 341 135 345 130 C319 106 289 92 257 92 C203 92 156 139 156 194 C156 232 178 280 204 299 L213 306 L213 306 Z " />
<glyph glyph-name="quotesingle" unicode="&#x27;" horiz-adv-x="245" d="M80 750 L80 630 L110 520 L165 520 L195 630 L195 750 L80 750 L80 750 Z " />
<glyph glyph-name="parenleft" unicode="&#x28;" horiz-adv-x="353" d="M293 795 C178 699 100 512 100 335 C100 164 178 -19 293 -115 L333 -70 C239 8 175 173 175 335 C175 503 239 672 333 750 L293 795 L293 795 Z " />
<glyph glyph-name="parenright" unicode="&#x29;" horiz-adv-x="313" d="M60 -115 C175 -19 253 168 253 345 C253 516 175 699 60 795 L20 750 C114 672 178 507 178 345 C178 177 114 8 20 -70 L60 -115 L60 -115 Z " />
<glyph glyph-name="asterisk" unicode="&#x2a;" horiz-adv-x="406" d="M340 695 L236 645 L251 760 L155 760 L170 645 L66 695 L36 604 L149 583 L70 499 L148 442 L203 543 L258 442 L336 499 L257 583 L370 604 L340 695 L340 695 Z " />
<glyph glyph-name="plus" unicode="&#x2b;" horiz-adv-x="590" d="M258 225 L258 0 L333 0 L333 225 L565 225 L565 295 L333 295 L333 520 L258 520 L258 295 L25 295 L25 225 L258 225 L258 225 Z " />
<glyph glyph-name="comma" unicode="&#x2c;" horiz-adv-x="225" d="M50 125 L50 0 L100 0 C100 -39 82 -60 50 -60 L50 -120 C131 -120 175 -78 175 0 L175 125 L50 125 L50 125 Z " />
<glyph glyph-name="hyphen" unicode="&#x2d;" horiz-adv-x="337" d="M50 216 L287 216 L287 311 L50 311 L50 216 L50 216 Z " />
<glyph glyph-name="period" unicode="&#x2e;" horiz-adv-x="225" d="M50 0 L175 0 L175 125 L50 125 L50 0 L50 0 Z " />
<glyph glyph-name="slash" unicode="&#x2f;" horiz-adv-x="320" d="M0 0 L50 0 L320 750 L270 750 L0 0 L0 0 Z " />
<glyph glyph-name="zero" unicode="0" horiz-adv-x="672" d="M334 95 C246 95 185 209 185 375 C185 534 250 656 334 656 C419 656 484 534 484 375 C484 209 423 95 334 95 L334 95 Z M52 375 C52 146 167 -10 334 -10 C502 -10 617 146 617 375 C617 593 495 760 334 760 C174 760 52 593 52 375 L52 375 Z " />
<glyph glyph-name="one" unicode="1" horiz-adv-x="416" d="M252 0 L316 0 L386 0 L386 24 L386 70 L316 100 L316 581 L316 750 L216 750 L50 578 L50 421 L188 568 L188 100 L118 70 L118 24 L118 0 L188 0 L252 0 L252 0 Z " />
<glyph glyph-name="two" unicode="2" horiz-adv-x="569" d="M45 0 L182 0 L535 0 L535 62 L535 124 L535 194 L511 194 L465 194 L435 124 L201 124 C226 195 275 245 346 288 C441 345 521 452 521 521 C521 650 413 761 285 761 C158 761 50 658 50 536 C50 486 70 418 94 387 L208 444 C189 468 173 510 173 536 C173 601 225 657 285 657 C343 657 393 598 393 530 C393 474 304 373 200 311 C100 251 46 165 46 1 L45 0 L45 0 Z " />
<glyph glyph-name="three" unicode="3" horiz-adv-x="571" d="M46 245 C46 107 156 -10 286 -10 C416 -10 526 91 526 209 C526 287 470 372 398 407 C452 436 495 503 495 565 C495 670 398 759 284 759 C170 759 73 658 73 539 L201 539 C201 602 238 655 280 655 C333 655 377 609 377 554 C377 497 333 448 281 448 L201 448 L201 418 L201 398 L201 349 L261 349 C330 349 389 286 389 213 C389 153 342 103 286 103 C228 103 179 168 179 244 L46 245 L46 245 Z " />
<glyph glyph-name="four" unicode="4" horiz-adv-x="567" d="M25 315 L25 215 L132 216 L331 216 L331 100 L261 70 L261 24 L261 0 L331 0 L395 0 L460 0 L530 0 L530 24 L530 70 L460 100 L460 216 L547 216 L547 330 L460 330 L460 553 L460 750 L360 750 L25 315 L25 315 Z M154 330 L332 559 L331 553 L331 330 L154 330 L154 330 Z " />
<glyph glyph-name="five" unicode="5" horiz-adv-x="567" d="M74 350 L197 322 C227 355 268 384 285 384 C341 384 389 315 389 235 C389 164 342 104 287 104 C229 104 180 169 180 245 L47 245 C47 107 157 -10 287 -10 C417 -10 527 103 527 235 C527 372 427 488 309 488 C279 488 238 472 206 450 L218 630 L385 627 L385 626 L411 556 L456 556 L480 556 C482 581 485 617 487 648 L494 749 L95 749 L74 350 L74 350 Z " />
<glyph glyph-name="six" unicode="6" horiz-adv-x="576" d="M526 634 C487 702 390 760 315 760 C161 760 56 580 56 369 C56 144 158 -10 308 -10 C440 -10 552 107 552 245 C552 382 447 498 323 498 C277 498 215 449 189 392 L189 392 C189 536 240 659 315 659 C350 659 404 619 432 572 L526 634 L526 634 Z M200 256 C201 330 247 393 299 393 C361 393 414 324 414 244 C414 163 365 94 308 94 C257 94 218 156 200 256 L200 256 Z " />
<glyph glyph-name="seven" unicode="7" horiz-adv-x="462" d="M30 750 L30 688 L30 627 L30 556 L54 556 L100 556 L130 627 L348 627 C190 354 105 133 105 0 L247 0 C247 176 319 397 452 627 L452 750 L30 750 L30 750 Z " />
<glyph glyph-name="eight" unicode="8" horiz-adv-x="600" d="M301 457 C241 457 205 502 205 554 C205 615 249 656 301 656 C359 656 399 609 399 554 C399 494 354 457 301 457 L301 457 Z M86 565 C86 494 127 431 198 400 C116 369 57 299 57 202 C57 87 150 -11 301 -11 C433 -11 546 69 546 201 C546 288 494 366 404 400 C471 429 517 486 517 564 C517 669 429 759 301 759 C185 759 86 680 86 564 L86 565 L86 565 Z M301 94 C235 94 194 148 194 211 C194 292 243 342 301 342 C368 342 409 283 409 213 C409 139 359 94 301 94 L301 94 Z " />
<glyph glyph-name="nine" unicode="9" horiz-adv-x="576" d="M76 116 C115 48 212 -10 288 -10 C441 -10 546 170 546 381 C546 606 444 760 294 760 C162 760 50 643 50 505 C50 368 155 252 279 252 C325 252 387 301 414 358 L414 358 C413 214 362 91 288 91 C252 91 198 131 171 178 L76 116 L76 116 Z M402 496 C402 421 357 357 303 357 C241 357 188 426 188 506 C188 587 237 656 294 657 C345 656 384 594 403 495 L402 496 L402 496 Z " />
<glyph glyph-name="colon" unicode="&#x3a;" horiz-adv-x="225" d="M50 395 L175 395 L175 520 L50 520 L50 395 L50 395 Z M50 0 L175 0 L175 125 L50 125 L50 0 L50 0 Z " />
<glyph glyph-name="semicolon" unicode="&#x3b;" horiz-adv-x="225" d="M50 395 L175 395 L175 520 L50 520 L50 395 L50 395 Z M50 125 L50 0 L100 0 C100 -39 82 -60 50 -60 L50 -120 C131 -120 175 -78 175 0 L175 125 L50 125 L50 125 Z " />
<glyph glyph-name="less" unicode="&#x3c;" horiz-adv-x="492" d="M432 494 L45 303 L45 218 L432 26 L432 121 L136 260 L432 399 L432 494 L432 494 Z " />
<glyph glyph-name="equal" unicode="&#x3d;" horiz-adv-x="576" d="M39 200 L39 130 L526 130 L526 200 L39 200 L39 200 Z M39 400 L39 330 L526 330 L526 400 L39 400 L39 400 Z " />
<glyph glyph-name="greater" unicode="&#x3e;" horiz-adv-x="492" d="M356 260 L60 121 L60 26 L447 218 L447 303 L60 494 L60 399 L356 260 L356 260 Z " />
<glyph glyph-name="question" unicode="&#x3f;" horiz-adv-x="537" d="M190 0 L315 0 L315 125 L190 125 L190 0 L190 0 Z M15 560 L126 540 C132 610 194 670 260 670 C318 670 367 617 367 555 C367 520 339 481 288 445 C219 397 197 339 197 210 L307 210 C307 298 322 337 368 370 C445 424 487 489 487 555 C487 666 383 760 260 760 C138 760 25 668 15 560 L15 560 Z " />
<glyph glyph-name="at" unicode="&#x40;" horiz-adv-x="1222" d="M1006 -116 C923 -174 755 -223 640 -223 C372 -223 144 3 144 269 C144 535 370 761 634 761 C876 761 1082 575 1082 357 C1082 191 1012 50 929 50 C864 50 818 123 828 208 L863 499 L758 499 L747 411 C719 476 670 510 612 510 C480 510 355 399 339 269 C321 121 420 -5 554 -5 C624 -5 692 39 733 103 C758 33 818 -16 892 -16 C1039 -16 1165 156 1165 358 C1165 617 920 837 632 837 C322 837 57 576 57 270 C57 -36 324 -297 638 -297 C761 -297 948 -240 1044 -172 L1006 -116 L1006 -116 Z M721 209 C713 147 642 95 565 95 C493 95 442 176 453 270 C462 346 529 411 599 411 C678 411 737 340 721 209 L721 209 Z " />
<glyph glyph-name="A" unicode="A" horiz-adv-x="767" d="M113 0 L181 0 L251 0 L251 24 L251 70 L216 100 L231 143 L536 143 L551 100 L516 70 L516 24 L516 0 L586 0 L654 0 L722 0 L767 0 L767 28 L767 70 L686 100 L455 750 L445 750 L380 750 L323 750 L316 750 L246 750 L246 726 L246 681 L280 650 L81 100 L81 100 L0 70 L0 28 L0 0 L45 0 L113 0 L113 0 Z M266 242 L384 576 L518 193 L501 241 L266 242 L266 242 Z " />
<glyph glyph-name="B" unicode="B" horiz-adv-x="703" d="M500 392 C574 422 626 483 626 552 C626 680 534 750 365 750 L249 750 L185 750 L121 750 L51 750 L51 726 L51 681 L121 650 L121 100 L51 70 L51 24 L51 0 L121 0 L185 0 L249 0 L406 0 C575 0 667 80 667 226 C667 304 595 371 499 392 L500 392 L500 392 Z M249 424 L249 650 L370 650 C450 650 493 612 493 543 C493 479 424 424 342 424 L249 424 L249 424 Z M249 100 L249 328 L351 328 C447 328 529 288 529 241 C529 150 473 100 370 100 L249 100 L249 100 Z " />
<glyph glyph-name="C" unicode="C" horiz-adv-x="686" d="M572 232 C572 158 484 95 381 95 C277 95 189 239 189 375 C189 512 277 656 381 656 C478 656 566 592 572 518 L619 557 L619 557 L666 597 L666 667 L632 667 C615 686 593 703 567 717 L567 717 L567 717 C516 744 451 761 382 761 C204 761 53 563 53 376 C53 189 204 -9 382 -9 C536 -9 667 66 667 154 L572 232 L572 232 Z " />
<glyph glyph-name="D" unicode="D" horiz-adv-x="772" d="M186 0 L250 0 L371 0 C582 0 717 146 717 375 C717 598 565 750 341 750 L250 750 L186 750 L122 750 L52 750 L52 726 L52 681 L122 650 L122 100 L52 70 L52 24 L52 0 L122 0 L186 0 L186 0 Z M250 100 L250 650 L347 650 C485 650 580 538 580 375 C580 207 495 99 363 99 C332 99 280 100 250 100 L250 100 Z " />
<glyph glyph-name="E" unicode="E" horiz-adv-x="647" d="M597 52 L597 105 L597 175 L573 175 L528 175 L497 105 L250 105 L250 310 L462 310 L493 240 L538 240 L562 240 L562 310 L562 360 L562 409 L562 480 L538 480 L493 480 L462 409 L250 409 L250 646 L482 646 L513 575 L558 575 L582 575 L582 646 L582 698 L582 750 L250 750 L249 750 L186 750 L122 750 L52 750 L52 726 L52 681 L122 650 L122 100 L52 70 L52 24 L52 0 L122 0 L186 0 L249 0 L250 0 L597 0 L597 52 L597 52 Z " />
<glyph glyph-name="F" unicode="F" horiz-adv-x="612" d="M452 310 L483 240 L528 240 L552 240 L552 310 L552 360 L552 409 L552 480 L528 480 L483 480 L452 409 L250 409 L250 646 L482 646 L513 575 L558 575 L582 575 L582 646 L582 698 L582 750 L250 750 L249 750 L186 750 L122 750 L52 750 L52 726 L52 681 L122 650 L122 100 L52 70 L52 24 L52 0 L122 0 L186 0 L250 0 L320 0 L320 24 L320 70 L250 100 L250 310 L452 310 L452 310 Z " />
<glyph glyph-name="G" unicode="G" horiz-adv-x="743" d="M360 306 L576 306 L576 153 C538 122 468 95 413 95 C292 95 189 224 189 375 C189 527 292 656 413 656 C505 656 589 592 596 518 L643 557 L643 557 L690 597 L690 667 L657 667 C609 721 515 760 413 760 C218 760 52 583 52 375 C52 167 218 -10 413 -10 C512 -10 634 36 698 90 L698 410 L360 410 L360 306 L360 306 Z " />
<glyph glyph-name="H" unicode="H" horiz-adv-x="813" d="M630 0 L694 0 L764 0 L764 24 L764 70 L694 100 L694 650 L764 681 L764 726 L764 750 L694 750 L630 750 L566 750 L496 750 L496 726 L496 681 L566 650 L566 415 L250 415 L250 650 L320 681 L320 726 L320 750 L250 750 L186 750 L122 750 L52 750 L52 726 L52 681 L122 650 L122 100 L52 70 L52 24 L52 0 L122 0 L186 0 L250 0 L320 0 L320 24 L320 70 L250 100 L250 311 L566 311 L566 100 L496 70 L496 24 L496 0 L566 0 L630 0 L630 0 Z " />
<glyph glyph-name="I" unicode="I" horiz-adv-x="371" d="M187 0 L251 0 L321 0 L321 24 L321 70 L251 100 L251 650 L321 681 L321 726 L321 750 L251 750 L187 750 L123 750 L53 750 L53 726 L53 681 L123 650 L123 100 L53 70 L53 24 L53 0 L123 0 L187 0 L187 0 Z " />
<glyph glyph-name="J" unicode="J" horiz-adv-x="537" d="M49 279 L49 216 C49 76 125 -10 251 -10 C370 -10 452 96 452 220 L452 650 L522 681 L522 726 L522 750 L452 750 L388 750 L324 750 L254 750 L254 726 L254 681 L324 650 L324 220 C324 160 294 109 251 109 C205 109 177 163 177 252 L177 302 L49 279 L49 279 Z " />
<glyph glyph-name="K" unicode="K" horiz-adv-x="654" d="M594 100 L593 100 L398 484 L310 379 L447 100 L446 100 L425 70 L425 24 L425 0 L496 0 L570 0 L644 0 L679 0 L679 29 L679 70 L594 100 L594 100 Z M538 650 L538 650 L633 681 L633 717 L633 750 L622 750 L545 750 L468 750 L398 750 C399 750 399 739 398 726 C399 701 399 680 398 681 L388 650 L215 435 L215 651 L285 682 L285 727 L285 751 L215 751 L151 751 L87 751 L17 751 L17 727 L17 682 L87 651 L87 101 L17 71 L17 25 L17 1 L87 1 L151 1 L215 1 L285 1 L285 25 L285 71 L215 101 L215 269 L216 269 L538 650 L538 650 Z " />
<glyph glyph-name="L" unicode="L" horiz-adv-x="613" d="M548 52 L548 105 L548 175 L524 175 L479 175 L448 105 L251 105 L251 650 L321 681 L321 726 L321 750 L251 750 L187 750 L123 750 L53 750 L53 726 L53 681 L123 650 L123 100 L53 70 L53 24 L53 0 L123 0 L187 0 L251 0 L548 0 L548 52 L548 52 Z " />
<glyph glyph-name="M" unicode="M" horiz-adv-x="945" d="M764 0 L826 0 L896 0 L896 24 L896 70 L826 100 L826 650 L896 681 L896 726 L896 750 L826 750 L764 750 L744 750 L702 750 L625 750 L473 203 L318 750 L247 750 L199 750 L185 750 L123 750 L53 750 L53 726 L53 681 L123 650 L123 100 L53 70 L53 24 L53 0 L123 0 L185 0 L247 0 L317 0 C316 0 316 11 317 24 C316 49 316 70 317 70 L247 100 L247 585 L417 0 L531 0 L702 602 L702 100 L632 70 L632 24 L632 0 L702 0 L764 0 L764 0 Z " />
<glyph glyph-name="N" unicode="N" horiz-adv-x="781" d="M533 650 L533 189 L262 750 L250 750 L186 750 L122 750 L52 750 L52 726 L52 681 L122 650 L122 100 L52 70 L52 24 L52 0 L122 0 L186 0 L250 0 L320 0 L320 24 L320 70 L250 100 L250 485 L484 0 L533 0 L624 0 L661 0 L661 650 L731 681 L731 726 L731 750 L661 750 L597 750 L533 750 L463 750 L463 726 L463 681 L533 650 L533 650 Z " />
<glyph glyph-name="O" unicode="O" horiz-adv-x="786" d="M394 95 C286 95 194 224 194 375 C194 519 291 656 394 656 C496 656 593 519 593 375 C593 224 501 95 394 95 L394 95 Z M57 375 C57 167 212 -10 394 -10 C576 -10 731 167 731 375 C731 573 567 760 394 760 C221 760 57 573 57 375 L57 375 Z " />
<glyph glyph-name="P" unicode="P" horiz-adv-x="631" d="M186 0 L250 0 L320 0 L320 24 L320 70 L250 100 L250 280 L333 280 C489 280 596 379 596 525 C596 659 489 750 333 750 L250 750 L186 750 L154 750 L122 750 L52 750 L52 726 L52 681 L122 650 L122 100 L52 70 L52 24 L52 0 L122 0 L186 0 L186 0 Z M250 379 L250 650 L328 650 C411 650 468 599 468 525 C468 438 415 379 338 379 L250 379 L250 379 Z " />
<glyph glyph-name="Q" unicode="Q" horiz-adv-x="786" d="M57 375 C57 167 212 -10 394 -10 C436 -10 477 0 515 17 L588 -90 L669 -23 L602 75 C680 146 731 255 731 374 C731 572 567 759 394 759 C221 759 57 572 57 374 L57 375 L57 375 Z M453 107 C434 98 414 93 394 93 C286 93 194 222 194 373 C194 517 291 654 394 654 C496 654 593 517 593 373 C593 297 569 226 532 175 L481 250 L401 183 L453 107 L453 107 Z " />
<glyph glyph-name="R" unicode="R" horiz-adv-x="666" d="M565 100 L564 100 L435 313 C534 344 596 422 596 525 C596 659 489 750 333 750 L250 750 L186 750 L154 750 L122 750 L52 750 L52 726 L52 681 L122 650 L122 100 L52 70 L52 24 L52 0 L122 0 L186 0 L250 0 L320 0 L320 24 L320 70 L250 100 L250 298 L298 298 L478 0 L552 0 L625 0 L653 0 L653 31 L653 70 L565 100 L565 100 Z M250 398 L250 650 L328 650 C411 650 468 599 468 525 C468 450 415 398 337 398 L250 398 L250 398 Z " />
<glyph glyph-name="S" unicode="S" horiz-adv-x="597" d="M60 91 C104 29 206 -10 321 -10 C464 -10 562 91 562 210 C562 322 461 420 313 451 C228 468 169 512 169 559 C169 606 214 646 267 646 C348 646 429 606 447 546 L492 587 L492 587 L538 629 L538 699 L503 699 L483 699 C470 709 455 718 439 726 L439 726 L439 726 C390 748 329 761 268 761 C144 761 38 662 38 547 C38 443 136 352 280 322 C372 303 435 256 435 207 C435 151 389 103 322 103 C227 103 147 158 147 238 L92 200 L92 200 L38 162 L38 92 L60 91 L60 91 Z " />
<glyph glyph-name="T" unicode="T" horiz-adv-x="567" d="M284 0 L348 0 L418 0 C417 0 417 11 418 24 C417 49 417 70 418 70 L348 100 L348 646 L457 646 L488 575 L533 575 L557 575 L557 646 L557 698 L557 750 L348 750 L219 750 L10 750 L10 698 L10 646 L10 575 L34 575 L80 575 L110 646 L219 646 L219 100 L149 70 L149 24 L149 0 L219 0 L284 0 L284 0 Z " />
<glyph glyph-name="U" unicode="U" horiz-adv-x="773" d="M115 650 L115 289 C115 112 225 -10 387 -10 C548 -10 658 112 658 289 L658 650 L728 681 L728 726 L728 750 L658 750 L594 750 L530 750 L460 750 L460 726 L460 681 L530 650 L530 312 C530 191 472 109 387 109 C301 109 243 191 243 312 L243 650 L313 681 L313 726 L313 750 L243 750 L179 750 L115 750 L45 750 L45 726 L45 681 L115 650 L115 650 Z " />
<glyph glyph-name="V" unicode="V" horiz-adv-x="744" d="M499 650 L499 650 L375 203 L247 650 L247 650 L288 681 C289 680 289 701 288 726 C289 739 289 750 288 750 L218 750 L149 750 L81 750 L32 750 L32 723 L32 681 L112 650 L313 0 L318 0 L432 0 L436 0 L634 650 L713 681 L713 723 L713 750 L664 750 L595 750 L526 750 L456 750 L456 726 L456 681 L499 650 L499 650 Z " />
<glyph glyph-name="W" unicode="W" horiz-adv-x="934" d="M101 650 L102 650 L230 0 L239 0 L353 0 L467 484 L578 0 L588 0 L702 0 L835 650 L911 681 L911 724 L911 750 L855 750 L786 750 L717 750 L647 750 L647 726 L647 681 L700 650 L637 284 L530 750 L406 750 L302 284 L237 650 L237 650 L289 681 C290 680 290 701 289 726 C290 739 290 750 289 750 L219 750 L150 750 L82 750 L25 750 L25 724 L25 681 L101 650 L101 650 Z " />
<glyph glyph-name="X" unicode="X" horiz-adv-x="714" d="M123 100 L35 70 L35 30 L35 0 L65 0 L135 0 L206 0 L276 0 L276 24 L276 70 L264 100 L358 262 L445 100 L445 100 L429 70 L429 24 L429 0 L499 0 L564 0 L629 0 L662 0 L662 30 L662 70 L575 100 L425 378 L583 650 L583 650 L670 681 L670 720 L670 750 L641 750 L570 750 L499 750 L429 750 L429 726 L429 681 L441 650 L357 505 L279 650 L279 650 L295 681 C296 680 296 701 295 726 C296 739 296 750 295 750 L225 750 L160 750 L95 750 L62 750 L62 720 L62 681 L149 650 L290 388 L123 100 L123 100 Z " />
<glyph glyph-name="Y" unicode="Y" horiz-adv-x="701" d="M445 650 L445 650 L338 443 L231 650 L231 650 L249 681 L249 726 L249 750 L179 750 L116 750 L52 750 L19 750 L19 720 L19 681 L105 650 L274 330 L274 100 L204 70 L204 24 L204 0 L274 0 L338 0 L402 0 L472 0 L472 24 L472 70 L402 100 L402 330 L571 650 L657 681 L657 720 L657 750 L624 750 L560 750 L497 750 L427 750 C428 750 428 739 427 726 C428 701 428 680 427 681 L445 650 L445 650 Z " />
<glyph glyph-name="Z" unicode="Z" horiz-adv-x="627" d="M582 52 L582 105 L582 175 L558 175 L513 175 L482 105 L200 105 L582 646 L582 750 L60 750 L60 698 L60 646 L60 575 L84 575 L130 575 L160 646 L427 646 L45 105 L45 0 L582 0 L582 52 L582 52 Z " />
<glyph glyph-name="bracketleft" unicode="&#x5b;" horiz-adv-x="342" d="M200 685 L312 685 L312 750 L200 750 L125 750 L125 -115 L200 -115 L312 -115 L312 -50 L200 -50 L200 685 L200 685 Z " />
<glyph glyph-name="backslash" unicode="&#x5c;" horiz-adv-x="340" d="M290 0 L340 0 L50 750 L0 750 L290 0 L290 0 Z " />
<glyph glyph-name="bracketright" unicode="&#x5d;" horiz-adv-x="341" d="M142 685 L142 -50 L30 -50 L30 -115 L142 -115 L217 -115 L217 750 L142 750 L30 750 L30 685 L142 685 L142 685 Z " />
<glyph glyph-name="underscore" unicode="&#x5f;" horiz-adv-x="652" d="M50 -135 L602 -135 L602 -65 L50 -65 L50 -135 L50 -135 Z " />
<glyph glyph-name="a" unicode="a" horiz-adv-x="522" d="M55 390 L159 357 C159 399 201 435 251 435 C295 435 332 417 332 385 L332 357 C332 313 262 282 180 268 C104 255 40 194 40 134 C40 56 91 -10 186 -10 C246 -10 301 14 334 67 C342 10 376 0 491 0 L491 85 C452 85 446 88 446 107 L446 336 C446 462 356 530 250 530 C144 530 54 466 54 390 L55 390 L55 390 Z M331 227 L331 183 C324 104 276 69 220 69 C177 69 154 101 154 138 C154 160 197 186 247 195 C278 200 307 211 331 227 L331 227 Z " />
<glyph glyph-name="b" unicode="b" horiz-adv-x="571" d="M290 85 C233 85 185 151 185 260 C185 369 233 435 290 435 C348 435 397 355 397 260 C397 166 348 85 290 85 L290 85 Z M128 0 L185 0 L185 74 C221 20 273 -10 329 -10 C434 -10 523 114 523 260 C523 406 434 530 329 530 C273 530 221 500 185 446 L185 740 L185 750 L128 750 L70 750 L0 750 L0 726 L0 681 L70 650 L70 100 L0 70 L0 24 L0 0 L70 0 L128 0 L128 0 Z " />
<glyph glyph-name="c" unicode="c" horiz-adv-x="525" d="M392 173 C392 125 342 85 283 85 C225 85 175 151 175 260 C175 372 225 440 283 440 C354 440 394 390 394 331 L495 380 L495 450 L473 450 C456 475 430 496 395 510 L395 510 L395 510 C364 522 327 529 283 529 C157 529 50 427 50 259 C50 91 157 -11 283 -11 C398 -11 496 50 496 121 L392 173 L392 173 Z " />
<glyph glyph-name="d" unicode="d" horiz-adv-x="572" d="M50 260 C50 114 139 -10 244 -10 C300 -10 351 26 387 82 L387 11 L387 1 L445 1 L502 1 L572 1 L572 25 L572 71 L502 101 L502 741 L502 751 L445 751 L387 751 L317 751 L317 727 L317 682 L387 651 L387 440 C351 496 300 532 244 532 C139 532 50 408 50 262 L50 260 L50 260 Z M387 262 C387 168 339 87 282 87 C224 87 175 168 175 262 C175 357 224 437 282 437 C339 437 387 357 387 262 L387 262 Z " />
<glyph glyph-name="e" unicode="e" horiz-adv-x="532" d="M395 166 C395 122 340 85 276 85 C227 85 184 140 177 232 L405 232 L520 232 C520 393 437 530 285 530 C159 530 51 428 51 260 C51 92 155 -10 277 -10 C400 -10 504 52 504 125 L395 166 L395 166 Z M397 312 L180 312 C193 393 236 440 285 440 C343 440 381 386 397 312 L397 312 Z " />
<glyph glyph-name="f" unicode="f" horiz-adv-x="478" d="M157 0 L214 0 L284 0 L284 24 L284 70 L214 100 L214 430 L409 430 L409 520 L214 520 L214 605 C214 638 232 656 265 656 L309 656 L309 655 L339 585 L384 585 L409 585 L409 655 L409 703 L409 750 L234 750 C147 750 99 699 99 605 L99 520 L30 520 L30 430 L99 430 L99 100 L29 70 L29 24 L29 0 L99 0 L157 0 L157 0 Z " />
<glyph glyph-name="g" unicode="g" horiz-adv-x="562" d="M50 -47 C50 -148 153 -202 274 -202 C415 -202 492 -87 492 49 L492 420 L562 451 L562 496 L562 520 L492 520 L435 520 L377 520 L377 441 C342 496 292 531 238 531 C136 531 49 436 49 261 C49 93 136 1 238 1 C292 1 342 35 377 88 L377 2 C377 -56 337 -106 264 -106 C216 -106 175 -85 175 -45 L50 -47 L50 -47 Z M277 437 C331 437 377 357 377 262 C377 173 331 97 277 97 C222 97 175 155 175 262 C175 375 222 437 277 437 L277 437 Z " />
<glyph glyph-name="h" unicode="h" horiz-adv-x="597" d="M435 0 L492 0 L562 0 L562 24 L562 70 L492 100 L492 315 C492 440 428 525 352 525 C299 525 251 494 220 447 L220 740 L220 750 L163 750 L134 750 L105 750 L35 750 L35 726 L35 681 L105 650 L105 100 L35 70 L35 24 L35 0 L105 0 L163 0 L220 0 L290 0 L290 24 L290 70 L220 100 L220 320 C220 375 261 421 308 421 C345 421 377 378 377 315 L377 100 L307 70 L307 24 L307 0 L377 0 L435 0 L435 0 Z " />
<glyph glyph-name="i" unicode="i" horiz-adv-x="324" d="M100 600 L225 600 L225 725 L100 725 L100 600 L100 600 Z M162 0 L220 0 L290 0 L290 24 L290 70 L220 100 L220 510 L220 520 L162 520 L105 520 L34 520 L34 496 L34 451 L105 420 L105 100 L34 70 L34 24 L34 0 L105 0 L162 0 L162 0 Z " />
<glyph glyph-name="j" unicode="j" horiz-adv-x="268" d="M79 600 L204 600 L204 725 L79 725 L79 600 L79 600 Z M10 -75 L10 -170 L64 -170 C159 -170 199 -119 199 0 L199 510 L199 520 L141 520 L84 520 L13 520 L13 496 L13 451 L84 420 L84 0 C84 -53 69 -75 34 -75 L10 -75 L10 -75 Z " />
<glyph glyph-name="k" unicode="k" horiz-adv-x="491" d="M436 100 L436 100 L321 354 L292 321 L378 420 L378 420 L474 451 L474 487 L474 520 L464 520 L398 520 L332 520 L262 520 C263 520 263 509 262 496 C263 471 263 450 262 451 L251 420 L251 420 L251 420 L251 420 L251 420 L185 338 L185 740 L185 750 L128 750 L99 750 L70 750 L0 750 L0 726 L0 681 L70 650 L70 100 L0 70 L0 24 L0 0 L70 0 L128 0 L185 0 L255 0 L255 24 L255 70 L185 100 L185 196 L238 258 L346 0 L413 0 L481 0 L520 0 L520 29 L520 70 L436 100 L436 100 Z M251 420 L251 420 L251 420 L251 420 Z " />
<glyph glyph-name="l" unicode="l" horiz-adv-x="394" d="M69 681 L140 650 L140 100 L69 70 C70 70 70 49 69 24 C70 11 70 0 69 0 L140 0 L197 0 L255 0 L325 0 C324 0 324 11 325 24 C324 49 324 70 325 70 L255 100 L255 740 L255 750 L197 750 L140 750 L69 750 C70 750 70 739 69 726 C70 702 70 681 69 681 L69 681 Z M69 681 L69 681 L69 681 Z " />
<glyph glyph-name="m" unicode="m" horiz-adv-x="852" d="M695 0 L753 0 L823 0 L823 24 L823 70 L753 100 L753 315 C753 440 690 525 615 525 C553 525 498 482 469 420 C445 485 399 525 348 525 C297 525 250 495 219 448 L219 510 L219 520 L162 520 L133 520 L104 520 L34 520 L34 496 L34 451 L104 420 L104 100 L34 70 L34 24 L34 0 L104 0 L162 0 L219 0 L289 0 L289 24 L289 70 L219 100 L219 320 C219 375 258 421 304 421 C340 421 370 378 370 315 L370 100 L300 70 L300 24 L300 0 L370 0 L427 0 L485 0 L555 0 L555 24 L555 70 L485 100 L485 315 C485 317 485 319 485 321 L485 321 C485 376 524 422 570 422 C606 422 637 379 637 316 L637 101 L566 71 L566 25 L566 1 L637 1 L695 0 L695 0 Z " />
<glyph glyph-name="n" unicode="n" horiz-adv-x="592" d="M435 0 L492 0 L562 0 L562 24 L562 70 L492 100 L492 315 C492 440 428 525 352 525 C299 525 251 494 220 447 L220 510 L220 520 L163 520 L134 520 L105 520 L35 520 L35 496 L35 451 L105 420 L105 100 L35 70 L35 24 L35 0 L105 0 L163 0 L220 0 L290 0 L290 24 L290 70 L220 100 L220 320 C220 375 261 421 308 421 C345 421 377 378 377 315 L377 100 L307 70 L307 24 L307 0 L377 0 L435 0 L435 0 Z " />
<glyph glyph-name="o" unicode="o" horiz-adv-x="562" d="M281 75 C215 75 175 160 175 260 C175 375 224 445 281 445 C347 445 387 360 387 260 C387 145 338 75 281 75 L281 75 Z M50 260 C50 114 138 -10 281 -10 C406 -10 512 92 512 260 C512 406 424 530 281 530 C156 530 50 428 50 260 L50 260 Z " />
<glyph glyph-name="p" unicode="p" horiz-adv-x="606" d="M325 85 C268 85 220 151 220 260 C220 369 268 435 325 435 C383 435 432 355 432 260 C432 166 383 85 325 85 L325 85 Z M163 -155 L220 -155 L290 -155 L290 -131 L290 -85 L220 -55 L220 74 C256 20 308 -10 364 -10 C469 -10 558 114 558 260 C558 406 469 530 364 530 C308 530 256 500 220 446 L220 510 L220 520 L163 520 L134 520 L105 520 L35 520 L35 496 L35 451 L105 420 L105 -55 L35 -85 L35 -131 L35 -155 L105 -155 L163 -155 L163 -155 Z " />
<glyph glyph-name="q" unicode="q" horiz-adv-x="607" d="M50 260 C50 114 139 -10 244 -10 C300 -10 351 26 387 82 L387 -54 L317 -84 L317 -130 L317 -154 L387 -154 L445 -154 L502 -154 L572 -154 L572 -130 L572 -84 L502 -54 L502 421 L572 452 L572 497 L572 521 L502 521 L445 521 L387 521 L387 440 C351 496 300 532 244 532 C139 532 50 408 50 262 L50 260 L50 260 Z M387 262 C387 168 339 87 282 87 C224 87 175 168 175 262 C175 357 224 437 282 437 C339 437 387 357 387 262 L387 262 Z " />
<glyph glyph-name="r" unicode="r" horiz-adv-x="382" d="M362 395 L362 520 L354 520 C294 520 249 482 220 422 L220 510 L220 520 L163 520 L134 520 L105 520 L35 520 L35 496 L35 451 L105 420 L105 100 L35 70 L35 24 L35 0 L105 0 L163 0 L220 0 L290 0 L290 24 L290 70 L220 100 L220 230 C220 319 263 395 343 395 L362 395 L362 395 Z " />
<glyph glyph-name="s" unicode="s" horiz-adv-x="473" d="M127 17 L127 17 L127 17 C161 3 201 -5 244 -5 C352 -5 444 63 444 143 C444 213 368 289 257 311 C204 322 168 356 168 387 C168 416 203 440 243 440 C292 440 334 397 334 346 L428 387 L428 458 L401 458 C383 479 358 497 328 509 L328 509 L328 509 C302 519 273 525 243 525 C144 525 59 457 59 378 C59 305 128 230 230 209 C289 196 329 162 329 132 C329 107 290 85 244 85 C183 85 131 124 131 170 L79 150 L27 130 L27 60 L60 60 C77 43 100 28 127 17 L127 17 Z " />
<glyph glyph-name="t" unicode="t" horiz-adv-x="317" d="M287 520 L192 520 L192 751 L77 655 L77 520 L10 520 L10 430 L77 430 L77 145 C77 47 91 0 182 0 L287 0 L287 94 L232 94 C197 94 192 111 192 145 L192 430 L287 430 L287 520 L287 520 Z " />
<glyph glyph-name="u" unicode="u" horiz-adv-x="592" d="M488 100 L488 520 L430 520 L373 520 L302 520 L302 496 L302 451 L373 420 L373 210 C373 147 332 94 283 94 C235 94 215 137 215 200 L215 520 L158 520 L100 520 L30 520 L30 496 L30 451 L100 420 L100 200 C100 75 144 -10 247 -10 C298 -10 344 27 373 83 L373 10 L373 0 L430 0 L488 0 L558 0 L558 24 L558 70 L488 100 L488 100 Z " />
<glyph glyph-name="v" unicode="v" horiz-adv-x="582" d="M456 420 L535 451 L535 493 L535 520 L487 520 L422 520 L357 520 L287 520 L287 496 L287 451 L332 420 L264 152 L199 420 L245 451 L245 496 L245 520 L175 520 L110 520 L45 520 L-5 520 L-5 493 L-5 451 L75 420 L201 0 L226 0 L301 0 L326 0 L456 420 L456 420 Z " />
<glyph glyph-name="w" unicode="w" horiz-adv-x="788" d="M600 420 L600 420 L543 146 L454 520 L354 520 L264 146 L207 421 L256 452 L256 497 L256 521 L186 521 L125 521 L64 521 L12 521 L12 494 L12 452 L90 421 L91 421 L203 1 L228 1 L293 1 L318 1 L403 328 L487 1 L512 1 L577 1 L602 1 L715 421 L793 452 L793 494 L793 521 L742 521 L681 521 L620 521 L550 521 L550 497 L550 452 L600 420 L600 420 Z " />
<glyph glyph-name="x" unicode="x" horiz-adv-x="596" d="M272 420 L272 420 L255 393 L238 420 L238 420 L244 451 C245 450 245 471 244 496 C245 509 245 520 244 520 L174 520 L106 520 L38 520 L12 520 L12 489 L12 451 L102 420 L187 287 L68 100 L-22 70 L-22 31 L-22 0 L4 0 L72 0 L140 0 L210 0 L210 24 L210 70 L204 100 L204 100 L255 180 L306 100 L306 100 L300 70 L300 24 L300 0 L370 0 L438 0 L506 0 L532 0 L532 31 L532 70 L443 100 L442 100 L323 287 L408 420 L498 451 L498 489 L498 520 L472 520 L404 520 L336 520 L266 520 L266 496 L266 451 L272 420 L272 420 Z " />
<glyph glyph-name="y" unicode="y" horiz-adv-x="576" d="M334 420 L334 420 L264 159 L203 421 L250 452 L250 497 L250 521 L180 521 L115 521 L50 521 L1 521 L1 494 L1 452 L81 421 L81 421 L217 -18 L212 -39 C199 -81 176 -99 135 -99 L85 -99 L85 -199 L135 -199 C228 -199 277 -164 302 -83 L460 421 L460 421 L539 452 L539 494 L539 521 L491 521 L426 521 L361 521 L291 521 L291 497 L291 452 L334 420 L334 420 Z " />
<glyph glyph-name="z" unicode="z" horiz-adv-x="432" d="M45 520 L45 475 L45 430 L45 360 L69 360 L115 360 L145 430 L251 430 L30 70 L30 0 L154 0 L412 0 L412 45 L412 90 L412 160 L388 160 L343 160 L312 90 L169 90 L396 450 L396 520 L274 520 L45 520 L45 520 Z " />
<glyph glyph-name="braceleft" unicode="&#x7b;" horiz-adv-x="323" d="M293 750 L233 750 C175 750 125 697 125 635 L125 401 C125 371 97 345 64 345 L55 345 L55 290 L64 290 C97 290 125 264 125 234 L125 0 C125 -62 175 -115 233 -115 L293 -115 L293 -50 L233 -50 C215 -50 200 -27 200 0 L200 219 C200 259 173 302 141 317 C173 332 200 375 200 415 L200 634 C200 661 215 684 233 684 L293 684 L293 750 L293 750 Z " />
<glyph glyph-name="bar" unicode="&#x7c;" horiz-adv-x="165" d="M45 800 L45 -250 L120 -250 L120 800 L45 800 L45 800 Z " />
<glyph glyph-name="braceright" unicode="&#x7d;" horiz-adv-x="323" d="M30 750 L90 750 C149 750 198 697 198 635 L198 401 C198 371 227 345 260 345 L268 345 L268 290 L260 290 C227 290 198 264 198 234 L198 0 C198 -62 149 -115 90 -115 L30 -115 L30 -50 L90 -50 C108 -50 123 -27 123 0 L123 219 C123 259 150 302 183 317 C150 332 123 375 123 415 L123 634 C123 661 108 684 90 684 L30 684 L30 750 L30 750 Z " />
<glyph glyph-name="nbspace" unicode="&#xa0;" horiz-adv-x="189" d="" />
<glyph glyph-name="exclamdown" unicode="&#xa1;" horiz-adv-x="225" d="M175 520 L50 520 L50 395 L175 395 L175 520 L175 520 Z M180 -230 L180 80 L130 310 L95 310 L45 80 L45 -230 L180 -230 L180 -230 Z " />
<glyph glyph-name="cent" unicode="&#xa2;" horiz-adv-x="521" d="M244 595 L244 527 C136 509 50 411 50 260 C50 109 136 11 244 -7 L244 -75 L319 -75 L319 -8 C416 4 492 59 492 122 L388 173 C388 136 359 104 319 91 L319 429 C329 423 339 415 348 405 C339 390 334 371 334 350 C334 305 367 267 405 267 C466 267 506 315 491 370 C471 446 408 512 320 527 L320 595 L244 595 L244 595 Z M245 95 C205 117 176 176 176 260 C176 347 205 407 245 430 L245 95 L245 95 Z " />
<glyph glyph-name="guillemotleft" unicode="&#xab;" horiz-adv-x="525" d="M356 470 L235 260 L356 50 L456 50 L335 260 L456 470 L356 470 L356 470 Z M190 470 L70 260 L190 50 L290 50 L170 260 L290 470 L190 470 L190 470 Z " />
<glyph glyph-name="logicalnot" unicode="&#xac;" horiz-adv-x="487" d="M437 66 L437 216 L437 311 L322 311 L50 311 L50 216 L322 216 L322 66 L437 66 L437 66 Z " />
<glyph glyph-name="periodcentered" unicode="&#xb7;" horiz-adv-x="225" d="M50 198 L175 198 L175 323 L50 323 L50 198 L50 198 Z " />
<glyph glyph-name="guillemotright" unicode="&#xbb;" horiz-adv-x="507" d="M217 470 L338 260 L217 50 L317 50 L438 260 L317 470 L217 470 L217 470 Z M52 470 L172 260 L52 50 L152 50 L272 260 L152 470 L52 470 L52 470 Z " />
<glyph glyph-name="questiondown" unicode="&#xbf;" horiz-adv-x="522" d="M333 520 L208 520 L208 395 L333 395 L333 520 L333 520 Z M507 -40 L397 -20 C391 -90 329 -150 262 -150 C204 -150 155 -97 155 -35 C155 0 183 39 235 75 C303 123 325 181 325 310 L215 310 C215 222 200 183 154 150 C77 96 35 31 35 -35 C35 -146 140 -240 262 -240 C385 -240 498 -148 507 -40 L507 -40 Z " />
<glyph glyph-name="Agrave" unicode="&#xc0;" horiz-adv-x="767" d="M336 830 L441 830 L399 980 L249 980 L336 830 L336 830 Z M113 0 L181 0 L251 0 L251 24 L251 70 L216 100 L231 143 L536 143 L551 100 L516 70 L516 24 L516 0 L586 0 L654 0 L722 0 L767 0 L767 28 L767 70 L686 100 L455 750 L445 750 L380 750 L323 750 L316 750 L246 750 L246 726 L246 681 L280 650 L81 100 L81 100 L0 70 L0 28 L0 0 L45 0 L113 0 L113 0 Z M266 242 L384 576 L518 193 L501 241 L266 242 L266 242 Z " />
<glyph glyph-name="Aacute" unicode="&#xc1;" horiz-adv-x="767" d="M336 830 L441 830 L528 980 L378 980 L336 830 L336 830 Z M113 0 L181 0 L251 0 L251 24 L251 70 L216 100 L231 143 L536 143 L551 100 L516 70 L516 24 L516 0 L586 0 L654 0 L722 0 L767 0 L767 28 L767 70 L686 100 L455 750 L445 750 L380 750 L323 750 L316 750 L246 750 L246 726 L246 681 L280 650 L81 100 L81 100 L0 70 L0 28 L0 0 L45 0 L113 0 L113 0 Z M266 242 L384 576 L518 193 L501 241 L266 242 L266 242 Z " />
<glyph glyph-name="Acircumflex" unicode="&#xc2;" horiz-adv-x="767" d="M389 890 L444 830 L549 830 L447 980 L331 980 L228 830 L333 830 L389 890 L389 890 Z M113 0 L181 0 L251 0 L251 24 L251 70 L216 100 L231 143 L536 143 L551 100 L516 70 L516 24 L516 0 L586 0 L654 0 L722 0 L767 0 L767 28 L767 70 L686 100 L455 750 L445 750 L380 750 L323 750 L316 750 L246 750 L246 726 L246 681 L280 650 L81 100 L81 100 L0 70 L0 28 L0 0 L45 0 L113 0 L113 0 Z M266 242 L384 576 L518 193 L501 241 L266 242 L266 242 Z " />
<glyph glyph-name="Atilde" unicode="&#xc3;" horiz-adv-x="767" d="M320 830 C320 868 329 900 339 900 C380 900 383 820 446 820 C498 820 542 894 542 980 L457 980 C457 942 448 910 438 910 C398 910 394 990 331 990 C279 990 235 916 235 830 L320 830 L320 830 Z M113 0 L181 0 L251 0 L251 24 L251 70 L216 100 L231 143 L536 143 L551 100 L516 70 L516 24 L516 0 L586 0 L654 0 L722 0 L767 0 L767 28 L767 70 L686 100 L455 750 L445 750 L380 750 L323 750 L316 750 L246 750 L246 726 L246 681 L280 650 L81 100 L81 100 L0 70 L0 28 L0 0 L45 0 L113 0 L113 0 Z M266 242 L384 576 L518 193 L501 241 L266 242 L266 242 Z " />
<glyph glyph-name="Adieresis" unicode="&#xc4;" horiz-adv-x="767" d="M404 830 L529 830 L529 955 L404 955 L404 830 L404 830 Z M249 830 L374 830 L374 955 L249 955 L249 830 L249 830 Z M113 0 L181 0 L251 0 L251 24 L251 70 L216 100 L231 143 L536 143 L551 100 L516 70 L516 24 L516 0 L586 0 L654 0 L722 0 L767 0 L767 28 L767 70 L686 100 L455 750 L445 750 L380 750 L323 750 L316 750 L246 750 L246 726 L246 681 L280 650 L81 100 L81 100 L0 70 L0 28 L0 0 L45 0 L113 0 L113 0 Z M266 242 L384 576 L518 193 L501 241 L266 242 L266 242 Z " />
<glyph glyph-name="Aring" unicode="&#xc5;" horiz-adv-x="767" d="M389 883 C372 883 360 896 360 915 C360 933 372 947 389 947 C405 947 418 933 418 915 C418 896 406 883 389 883 L389 883 Z M303 915 C303 865 338 830 389 830 C440 830 475 865 475 915 C475 963 438 1000 389 1000 C340 1000 303 963 303 915 L303 915 Z M113 0 L181 0 L251 0 L251 24 L251 70 L216 100 L231 143 L536 143 L551 100 L516 70 L516 24 L516 0 L586 0 L654 0 L722 0 L767 0 L767 28 L767 70 L686 100 L455 750 L445 750 L380 750 L323 750 L316 750 L246 750 L246 726 L246 681 L280 650 L81 100 L81 100 L0 70 L0 28 L0 0 L45 0 L113 0 L113 0 Z M266 242 L384 576 L518 193 L501 241 L266 242 L266 242 Z " />
<glyph glyph-name="Ccedilla" unicode="&#xc7;" horiz-adv-x="686" d="M572 232 C572 158 484 95 381 95 C277 95 189 239 189 375 C189 512 277 656 381 656 C478 656 566 592 572 518 L619 557 L619 557 L666 597 L666 667 L632 667 C615 686 593 703 567 717 L567 717 L567 717 C516 744 451 761 382 761 C204 761 53 563 53 376 C53 208 176 31 330 -2 L304 -98 L339 -118 L339 -117 C342 -109 351 -103 360 -103 C375 -103 388 -124 388 -148 C388 -173 374 -194 358 -194 C348 -194 333 -175 325 -154 L280 -189 C292 -221 329 -249 360 -249 C410 -249 453 -203 453 -148 C453 -94 415 -48 370 -48 C365 -48 360 -50 355 -53 L367 -9 C371 -9 375 -9 379 -9 C533 -9 664 66 664 154 L572 232 L572 232 Z " />
<glyph glyph-name="Egrave" unicode="&#xc8;" horiz-adv-x="647" d="M300 830 L405 830 L363 980 L213 980 L300 830 L300 830 Z M597 52 L597 105 L597 175 L573 175 L528 175 L497 105 L250 105 L250 310 L462 310 L493 240 L538 240 L562 240 L562 310 L562 360 L562 409 L562 480 L538 480 L493 480 L462 409 L250 409 L250 646 L482 646 L513 575 L558 575 L582 575 L582 646 L582 698 L582 750 L250 750 L249 750 L186 750 L122 750 L52 750 L52 726 L52 681 L122 650 L122 100 L52 70 L52 24 L52 0 L122 0 L186 0 L249 0 L250 0 L597 0 L597 52 L597 52 Z " />
<glyph glyph-name="Eacute" unicode="&#xc9;" horiz-adv-x="647" d="M300 830 L405 830 L492 980 L342 980 L300 830 L300 830 Z M597 52 L597 105 L597 175 L573 175 L528 175 L497 105 L250 105 L250 310 L462 310 L493 240 L538 240 L562 240 L562 310 L562 360 L562 409 L562 480 L538 480 L493 480 L462 409 L250 409 L250 646 L482 646 L513 575 L558 575 L582 575 L582 646 L582 698 L582 750 L250 750 L249 750 L186 750 L122 750 L52 750 L52 726 L52 681 L122 650 L122 100 L52 70 L52 24 L52 0 L122 0 L186 0 L249 0 L250 0 L597 0 L597 52 L597 52 Z " />
<glyph glyph-name="Ecircumflex" unicode="&#xca;" horiz-adv-x="647" d="M352 890 L408 830 L513 830 L410 980 L294 980 L191 830 L296 830 L352 890 L352 890 Z M597 52 L597 105 L597 175 L573 175 L528 175 L497 105 L250 105 L250 310 L462 310 L493 240 L538 240 L562 240 L562 310 L562 360 L562 409 L562 480 L538 480 L493 480 L462 409 L250 409 L250 646 L482 646 L513 575 L558 575 L582 575 L582 646 L582 698 L582 750 L250 750 L249 750 L186 750 L122 750 L52 750 L52 726 L52 681 L122 650 L122 100 L52 70 L52 24 L52 0 L122 0 L186 0 L249 0 L250 0 L597 0 L597 52 L597 52 Z " />
<glyph glyph-name="Edieresis" unicode="&#xcb;" horiz-adv-x="647" d="M367 830 L492 830 L492 955 L367 955 L367 830 L367 830 Z M212 830 L337 830 L337 955 L212 955 L212 830 L212 830 Z M597 52 L597 105 L597 175 L573 175 L528 175 L497 105 L250 105 L250 310 L462 310 L493 240 L538 240 L562 240 L562 310 L562 360 L562 409 L562 480 L538 480 L493 480 L462 409 L250 409 L250 646 L482 646 L513 575 L558 575 L582 575 L582 646 L582 698 L582 750 L250 750 L249 750 L186 750 L122 750 L52 750 L52 726 L52 681 L122 650 L122 100 L52 70 L52 24 L52 0 L122 0 L186 0 L249 0 L250 0 L597 0 L597 52 L597 52 Z " />
<glyph glyph-name="Igrave" unicode="&#xcc;" horiz-adv-x="371" d="M135 830 L240 830 L198 980 L48 980 L135 830 L135 830 Z M187 0 L251 0 L321 0 L321 24 L321 70 L251 100 L251 650 L321 681 L321 726 L321 750 L251 750 L187 750 L123 750 L53 750 L53 726 L53 681 L123 650 L123 100 L53 70 L53 24 L53 0 L123 0 L187 0 L187 0 Z " />
<glyph glyph-name="Iacute" unicode="&#xcd;" horiz-adv-x="371" d="M135 830 L240 830 L327 980 L177 980 L135 830 L135 830 Z M187 0 L251 0 L321 0 L321 24 L321 70 L251 100 L251 650 L321 681 L321 726 L321 750 L251 750 L187 750 L123 750 L53 750 L53 726 L53 681 L123 650 L123 100 L53 70 L53 24 L53 0 L123 0 L187 0 L187 0 Z " />
<glyph glyph-name="Icircumflex" unicode="&#xce;" horiz-adv-x="371" d="M187 890 L243 830 L348 830 L245 980 L129 980 L26 830 L131 830 L187 890 L187 890 Z M187 0 L251 0 L321 0 L321 24 L321 70 L251 100 L251 650 L321 681 L321 726 L321 750 L251 750 L187 750 L123 750 L53 750 L53 726 L53 681 L123 650 L123 100 L53 70 L53 24 L53 0 L123 0 L187 0 L187 0 Z " />
<glyph glyph-name="Idieresis" unicode="&#xcf;" horiz-adv-x="371" d="M202 830 L327 830 L327 955 L202 955 L202 830 L202 830 Z M47 830 L172 830 L172 955 L47 955 L47 830 L47 830 Z M187 0 L251 0 L321 0 L321 24 L321 70 L251 100 L251 650 L321 681 L321 726 L321 750 L251 750 L187 750 L123 750 L53 750 L53 726 L53 681 L123 650 L123 100 L53 70 L53 24 L53 0 L123 0 L187 0 L187 0 Z " />
<glyph glyph-name="Ntilde" unicode="&#xd1;" horiz-adv-x="781" d="M323 830 C323 868 332 900 342 900 C383 900 386 820 449 820 C501 820 545 894 545 980 L460 980 C460 942 451 910 441 910 C401 910 397 990 334 990 C282 990 238 916 238 830 L323 830 L323 830 Z M533 650 L533 189 L262 750 L250 750 L186 750 L122 750 L52 750 L52 726 L52 681 L122 650 L122 100 L52 70 L52 24 L52 0 L122 0 L186 0 L250 0 L320 0 L320 24 L320 70 L250 100 L250 485 L484 0 L533 0 L624 0 L661 0 L661 650 L731 681 L731 726 L731 750 L661 750 L597 750 L533 750 L463 750 L463 726 L463 681 L533 650 L533 650 Z " />
<glyph glyph-name="Ograve" unicode="&#xd2;" horiz-adv-x="786" d="M341 830 L446 830 L404 980 L254 980 L341 830 L341 830 Z M394 95 C286 95 194 224 194 375 C194 519 291 656 394 656 C496 656 593 519 593 375 C593 224 501 95 394 95 L394 95 Z M57 375 C57 167 212 -10 394 -10 C576 -10 731 167 731 375 C731 573 567 760 394 760 C221 760 57 573 57 375 L57 375 Z " />
<glyph glyph-name="Oacute" unicode="&#xd3;" horiz-adv-x="786" d="M341 830 L446 830 L533 980 L383 980 L341 830 L341 830 Z M394 95 C286 95 194 224 194 375 C194 519 291 656 394 656 C496 656 593 519 593 375 C593 224 501 95 394 95 L394 95 Z M57 375 C57 167 212 -10 394 -10 C576 -10 731 167 731 375 C731 573 567 760 394 760 C221 760 57 573 57 375 L57 375 Z " />
<glyph glyph-name="Ocircumflex" unicode="&#xd4;" horiz-adv-x="786" d="M394 890 L450 830 L555 830 L452 980 L336 980 L233 830 L338 830 L394 890 L394 890 Z M394 95 C286 95 194 224 194 375 C194 519 291 656 394 656 C496 656 593 519 593 375 C593 224 501 95 394 95 L394 95 Z M57 375 C57 167 212 -10 394 -10 C576 -10 731 167 731 375 C731 573 567 760 394 760 C221 760 57 573 57 375 L57 375 Z " />
<glyph glyph-name="Otilde" unicode="&#xd5;" horiz-adv-x="786" d="M325 830 C325 868 334 900 344 900 C385 900 388 820 451 820 C504 820 548 894 548 980 L463 980 C463 942 454 910 444 910 C403 910 400 990 336 990 C284 990 240 916 240 830 L325 830 L325 830 Z M394 95 C286 95 194 224 194 375 C194 519 291 656 394 656 C496 656 593 519 593 375 C593 224 501 95 394 95 L394 95 Z M57 375 C57 167 212 -10 394 -10 C576 -10 731 167 731 375 C731 573 567 760 394 760 C221 760 57 573 57 375 L57 375 Z " />
<glyph glyph-name="Odieresis" unicode="&#xd6;" horiz-adv-x="786" d="M409 830 L534 830 L534 955 L409 955 L409 830 L409 830 Z M254 830 L379 830 L379 955 L254 955 L254 830 L254 830 Z M394 95 C286 95 194 224 194 375 C194 519 291 656 394 656 C496 656 593 519 593 375 C593 224 501 95 394 95 L394 95 Z M57 375 C57 167 212 -10 394 -10 C576 -10 731 167 731 375 C731 573 567 760 394 760 C221 760 57 573 57 375 L57 375 Z " />
<glyph glyph-name="Oslash" unicode="&#xd8;" horiz-adv-x="786" d="M394 95 C345 95 299 121 264 164 L553 533 C577 486 592 431 592 374 C592 223 500 94 393 94 L394 95 L394 95 Z M56 374 C56 273 92 179 150 109 L55 -12 L126 -12 L189 69 C246 19 317 -11 392 -11 C574 -11 729 166 729 374 C729 470 691 563 632 634 L730 759 L659 759 L593 675 C535 727 465 759 393 759 C220 759 56 572 56 374 L56 374 Z M231 213 C207 259 193 315 193 374 C193 518 290 655 393 655 C439 655 484 627 520 583 L231 213 L231 213 Z " />
<glyph glyph-name="Ugrave" unicode="&#xd9;" horiz-adv-x="773" d="M334 820 L439 820 L397 970 L247 970 L334 820 L334 820 Z M115 650 L115 289 C115 112 225 -10 387 -10 C548 -10 658 112 658 289 L658 650 L728 681 L728 726 L728 750 L658 750 L594 750 L530 750 L460 750 L460 726 L460 681 L530 650 L530 312 C530 191 472 109 387 109 C301 109 243 191 243 312 L243 650 L313 681 L313 726 L313 750 L243 750 L179 750 L115 750 L45 750 L45 726 L45 681 L115 650 L115 650 Z " />
<glyph glyph-name="Uacute" unicode="&#xda;" horiz-adv-x="773" d="M334 820 L439 820 L526 970 L376 970 L334 820 L334 820 Z M115 650 L115 289 C115 112 225 -10 387 -10 C548 -10 658 112 658 289 L658 650 L728 681 L728 726 L728 750 L658 750 L594 750 L530 750 L460 750 L460 726 L460 681 L530 650 L530 312 C530 191 472 109 387 109 C301 109 243 191 243 312 L243 650 L313 681 L313 726 L313 750 L243 750 L179 750 L115 750 L45 750 L45 726 L45 681 L115 650 L115 650 Z " />
<glyph glyph-name="Ucircumflex" unicode="&#xdb;" horiz-adv-x="773" d="M387 880 L443 820 L548 820 L445 970 L329 970 L226 820 L331 820 L387 880 L387 880 Z M115 650 L115 289 C115 112 225 -10 387 -10 C548 -10 658 112 658 289 L658 650 L728 681 L728 726 L728 750 L658 750 L594 750 L530 750 L460 750 L460 726 L460 681 L530 650 L530 312 C530 191 472 109 387 109 C301 109 243 191 243 312 L243 650 L313 681 L313 726 L313 750 L243 750 L179 750 L115 750 L45 750 L45 726 L45 681 L115 650 L115 650 Z " />
<glyph glyph-name="Udieresis" unicode="&#xdc;" horiz-adv-x="773" d="M402 820 L527 820 L527 945 L402 945 L402 820 L402 820 Z M247 820 L372 820 L372 945 L247 945 L247 820 L247 820 Z M115 650 L115 289 C115 112 225 -10 387 -10 C548 -10 658 112 658 289 L658 650 L728 681 L728 726 L728 750 L658 750 L594 750 L530 750 L460 750 L460 726 L460 681 L530 650 L530 312 C530 191 472 109 387 109 C301 109 243 191 243 312 L243 650 L313 681 L313 726 L313 750 L243 750 L179 750 L115 750 L45 750 L45 726 L45 681 L115 650 L115 650 Z " />
<glyph glyph-name="Yacute" unicode="&#xdd;" horiz-adv-x="668" d="M286 830 L391 830 L478 980 L328 980 L286 830 L286 830 Z M445 650 L445 650 L338 443 L231 650 L231 650 L249 681 L249 726 L249 750 L179 750 L116 750 L52 750 L19 750 L19 720 L19 681 L105 650 L274 330 L274 100 L204 70 L204 24 L204 0 L274 0 L338 0 L402 0 L472 0 L472 24 L472 70 L402 100 L402 330 L571 650 L657 681 L657 720 L657 750 L624 750 L560 750 L497 750 L427 750 C428 750 428 739 427 726 C428 701 428 680 427 681 L445 650 L445 650 Z " />
<glyph glyph-name="Thorn" unicode="&#xde;" horiz-adv-x="631" d="M186 0 L250 0 L320 0 L320 24 L320 70 L250 100 L250 150 L333 150 C489 150 596 241 596 375 C596 509 489 600 333 600 L250 600 L250 650 L320 681 L320 726 L320 750 L250 750 L186 750 L122 750 L52 750 L52 726 L52 681 L122 650 L122 100 L52 70 L52 24 L52 0 L122 0 L186 0 L186 0 Z M250 250 L250 500 L328 500 C411 500 468 449 468 375 C468 301 415 250 338 250 L250 250 L250 250 Z " />
<glyph glyph-name="agrave" unicode="&#xe0;" horiz-adv-x="522" d="M198 600 L303 600 L261 750 L111 750 L198 600 L198 600 Z M55 390 L159 357 C159 399 201 435 251 435 C295 435 332 417 332 385 L332 357 C332 313 262 282 180 268 C104 255 40 194 40 134 C40 56 91 -10 186 -10 C246 -10 301 14 334 67 C342 10 376 0 491 0 L491 85 C452 85 446 88 446 107 L446 336 C446 462 356 530 250 530 C144 530 54 466 54 390 L55 390 L55 390 Z M331 227 L331 183 C324 104 276 69 220 69 C177 69 154 101 154 138 C154 160 197 186 247 195 C278 200 307 211 331 227 L331 227 Z " />
<glyph glyph-name="aacute" unicode="&#xe1;" horiz-adv-x="522" d="M198 600 L303 600 L390 750 L240 750 L198 600 L198 600 Z M55 390 L159 357 C159 399 201 435 251 435 C295 435 332 417 332 385 L332 357 C332 313 262 282 180 268 C104 255 40 194 40 134 C40 56 91 -10 186 -10 C246 -10 301 14 334 67 C342 10 376 0 491 0 L491 85 C452 85 446 88 446 107 L446 336 C446 462 356 530 250 530 C144 530 54 466 54 390 L55 390 L55 390 Z M331 227 L331 183 C324 104 276 69 220 69 C177 69 154 101 154 138 C154 160 197 186 247 195 C278 200 307 211 331 227 L331 227 Z " />
<glyph glyph-name="acircumflex" unicode="&#xe2;" horiz-adv-x="522" d="M251 660 L307 600 L412 600 L309 750 L193 750 L90 600 L195 600 L251 660 L251 660 Z M55 390 L159 357 C159 399 201 435 251 435 C295 435 332 417 332 385 L332 357 C332 313 262 282 180 268 C104 255 40 194 40 134 C40 56 91 -10 186 -10 C246 -10 301 14 334 67 C342 10 376 0 491 0 L491 85 C452 85 446 88 446 107 L446 336 C446 462 356 530 250 530 C144 530 54 466 54 390 L55 390 L55 390 Z M331 227 L331 183 C324 104 276 69 220 69 C177 69 154 101 154 138 C154 160 197 186 247 195 C278 200 307 211 331 227 L331 227 Z " />
<glyph glyph-name="atilde" unicode="&#xe3;" horiz-adv-x="522" d="M182 600 C182 638 191 670 201 670 C242 670 245 590 309 590 C361 590 405 664 405 750 L320 750 C320 712 311 680 301 680 C260 680 257 760 193 760 C141 760 97 686 97 600 L182 600 L182 600 Z M55 390 L159 357 C159 399 201 435 251 435 C295 435 332 417 332 385 L332 357 C332 313 262 282 180 268 C104 255 40 194 40 134 C40 56 91 -10 186 -10 C246 -10 301 14 334 67 C342 10 376 0 491 0 L491 85 C452 85 446 88 446 107 L446 336 C446 462 356 530 250 530 C144 530 54 466 54 390 L55 390 L55 390 Z M331 227 L331 183 C324 104 276 69 220 69 C177 69 154 101 154 138 C154 160 197 186 247 195 C278 200 307 211 331 227 L331 227 Z " />
<glyph glyph-name="adieresis" unicode="&#xe4;" horiz-adv-x="522" d="M298 600 L423 600 L423 725 L298 725 L298 600 L298 600 Z M78 600 L203 600 L203 725 L78 725 L78 600 L78 600 Z M55 390 L159 357 C159 399 201 435 251 435 C295 435 332 417 332 385 L332 357 C332 313 262 282 180 268 C104 255 40 194 40 134 C40 56 91 -10 186 -10 C246 -10 301 14 334 67 C342 10 376 0 491 0 L491 85 C452 85 446 88 446 107 L446 336 C446 462 356 530 250 530 C144 530 54 466 54 390 L55 390 L55 390 Z M331 227 L331 183 C324 104 276 69 220 69 C177 69 154 101 154 138 C154 160 197 186 247 195 C278 200 307 211 331 227 L331 227 Z " />
<glyph glyph-name="aring" unicode="&#xe5;" horiz-adv-x="522" d="M251 653 C234 653 222 666 222 685 C222 703 235 717 251 717 C267 717 280 703 280 685 C280 666 268 653 251 653 L251 653 Z M165 685 C165 635 200 600 251 600 C302 600 337 635 337 685 C337 733 300 770 251 770 C202 770 165 733 165 685 L165 685 Z M55 390 L159 357 C159 399 201 435 251 435 C295 435 332 417 332 385 L332 357 C332 313 262 282 180 268 C104 255 40 194 40 134 C40 56 91 -10 186 -10 C246 -10 301 14 334 67 C342 10 376 0 491 0 L491 85 C452 85 446 88 446 107 L446 336 C446 462 356 530 250 530 C144 530 54 466 54 390 L55 390 L55 390 Z M331 227 L331 183 C324 104 276 69 220 69 C177 69 154 101 154 138 C154 160 197 186 247 195 C278 200 307 211 331 227 L331 227 Z " />
<glyph glyph-name="ccedilla" unicode="&#xe7;" horiz-adv-x="525" d="M392 173 C392 125 342 85 283 85 C225 85 175 151 175 260 C175 372 225 440 283 440 C354 440 394 390 394 331 L495 380 C494 461 419 530 283 530 C157 530 50 428 50 260 C50 110 135 13 243 -6 L217 -99 L251 -119 C254 -110 264 -103 274 -103 C289 -103 302 -124 302 -148 C302 -173 288 -194 271 -194 C262 -194 247 -175 239 -154 L194 -189 C206 -221 243 -249 274 -249 C324 -249 367 -203 367 -148 C367 -94 329 -48 284 -48 C279 -48 274 -50 269 -54 L282 -9 L282 -9 C397 -9 495 52 495 123 L392 173 L392 173 Z " />
<glyph glyph-name="egrave" unicode="&#xe8;" horiz-adv-x="532" d="M232 600 L337 600 L295 750 L145 750 L232 600 L232 600 Z M395 166 C395 122 340 85 276 85 C227 85 184 140 177 232 L405 232 L520 232 C520 393 437 530 285 530 C159 530 51 428 51 260 C51 92 155 -10 277 -10 C400 -10 504 52 504 125 L395 166 L395 166 Z M397 312 L180 312 C193 393 236 440 285 440 C343 440 381 386 397 312 L397 312 Z " />
<glyph glyph-name="eacute" unicode="&#xe9;" horiz-adv-x="532" d="M232 600 L337 600 L424 750 L274 750 L232 600 L232 600 Z M395 166 C395 122 340 85 276 85 C227 85 184 140 177 232 L405 232 L520 232 C520 393 437 530 285 530 C159 530 51 428 51 260 C51 92 155 -10 277 -10 C400 -10 504 52 504 125 L395 166 L395 166 Z M397 312 L180 312 C193 393 236 440 285 440 C343 440 381 386 397 312 L397 312 Z " />
<glyph glyph-name="ecircumflex" unicode="&#xea;" horiz-adv-x="532" d="M284 660 L340 600 L445 600 L342 750 L226 750 L123 600 L228 600 L284 660 L284 660 Z M395 166 C395 122 340 85 276 85 C227 85 184 140 177 232 L405 232 L520 232 C520 393 437 530 285 530 C159 530 51 428 51 260 C51 92 155 -10 277 -10 C400 -10 504 52 504 125 L395 166 L395 166 Z M397 312 L180 312 C193 393 236 440 285 440 C343 440 381 386 397 312 L397 312 Z " />
<glyph glyph-name="edieresis" unicode="&#xeb;" horiz-adv-x="532" d="M299 600 L424 600 L424 725 L299 725 L299 600 L299 600 Z M144 600 L269 600 L269 725 L144 725 L144 600 L144 600 Z M395 166 C395 122 340 85 276 85 C227 85 184 140 177 232 L405 232 L520 232 C520 393 437 530 285 530 C159 530 51 428 51 260 C51 92 155 -10 277 -10 C400 -10 504 52 504 125 L395 166 L395 166 Z M397 312 L180 312 C193 393 236 440 285 440 C343 440 381 386 397 312 L397 312 Z " />
<glyph glyph-name="igrave" unicode="&#xec;" horiz-adv-x="267" d="M53 600 L158 600 L116 750 L-34 750 L53 600 L53 600 Z M105 0 L163 0 L233 0 L233 24 L233 70 L163 100 L163 520 L105 520 L48 520 L-23 520 L-23 496 L-23 451 L48 420 L48 100 L-23 70 L-23 24 L-23 0 L48 0 L105 0 L105 0 Z " />
<glyph glyph-name="iacute" unicode="&#xed;" horiz-adv-x="267" d="M53 600 L158 600 L245 750 L95 750 L53 600 L53 600 Z M105 0 L163 0 L233 0 L233 24 L233 70 L163 100 L163 520 L105 520 L48 520 L-23 520 L-23 496 L-23 451 L48 420 L48 100 L-23 70 L-23 24 L-23 0 L48 0 L105 0 L105 0 Z " />
<glyph glyph-name="icircumflex" unicode="&#xee;" horiz-adv-x="267" d="M105 660 L161 600 L266 600 L163 750 L47 750 L-56 600 L49 600 L105 660 L105 660 Z M105 0 L163 0 L233 0 L233 24 L233 70 L163 100 L163 520 L105 520 L48 520 L-23 520 L-23 496 L-23 451 L48 420 L48 100 L-23 70 L-23 24 L-23 0 L48 0 L105 0 L105 0 Z " />
<glyph glyph-name="idieresis" unicode="&#xef;" horiz-adv-x="267" d="M153 600 L278 600 L278 725 L153 725 L153 600 L153 600 Z M-67 600 L58 600 L58 725 L-67 725 L-67 600 L-67 600 Z M105 0 L163 0 L233 0 L233 24 L233 70 L163 100 L163 520 L105 520 L48 520 L-23 520 L-23 496 L-23 451 L48 420 L48 100 L-23 70 L-23 24 L-23 0 L48 0 L105 0 L105 0 Z " />
<glyph glyph-name="ntilde" unicode="&#xf1;" horiz-adv-x="592" d="M230 600 C230 638 239 670 249 670 C290 670 293 590 356 590 C408 590 452 664 452 750 L367 750 C367 712 358 680 348 680 C308 680 305 760 241 760 C189 760 145 686 145 600 L230 600 L230 600 Z M435 0 L492 0 L562 0 L562 24 L562 70 L492 100 L492 315 C492 440 428 525 352 525 C299 525 251 494 220 447 L220 510 L220 520 L163 520 L134 520 L105 520 L35 520 L35 496 L35 451 L105 420 L105 100 L35 70 L35 24 L35 0 L105 0 L163 0 L220 0 L290 0 L290 24 L290 70 L220 100 L220 320 C220 375 261 421 308 421 C345 421 377 378 377 315 L377 100 L307 70 L307 24 L307 0 L377 0 L435 0 L435 0 Z " />
<glyph glyph-name="ograve" unicode="&#xf2;" horiz-adv-x="562" d="M228 600 L333 600 L291 750 L141 750 L228 600 L228 600 Z M281 75 C215 75 175 160 175 260 C175 375 224 445 281 445 C347 445 387 360 387 260 C387 145 338 75 281 75 L281 75 Z M50 260 C50 114 138 -10 281 -10 C406 -10 512 92 512 260 C512 406 424 530 281 530 C156 530 50 428 50 260 L50 260 Z " />
<glyph glyph-name="oacute" unicode="&#xf3;" horiz-adv-x="562" d="M228 600 L333 600 L420 750 L270 750 L228 600 L228 600 Z M281 75 C215 75 175 160 175 260 C175 375 224 445 281 445 C347 445 387 360 387 260 C387 145 338 75 281 75 L281 75 Z M50 260 C50 114 138 -10 281 -10 C406 -10 512 92 512 260 C512 406 424 530 281 530 C156 530 50 428 50 260 L50 260 Z " />
<glyph glyph-name="ocircumflex" unicode="&#xf4;" horiz-adv-x="562" d="M281 660 L337 600 L442 600 L339 750 L223 750 L120 600 L225 600 L281 660 L281 660 Z M281 75 C215 75 175 160 175 260 C175 375 224 445 281 445 C347 445 387 360 387 260 C387 145 338 75 281 75 L281 75 Z M50 260 C50 114 138 -10 281 -10 C406 -10 512 92 512 260 C512 406 424 530 281 530 C156 530 50 428 50 260 L50 260 Z " />
<glyph glyph-name="otilde" unicode="&#xf5;" horiz-adv-x="562" d="M212 600 C212 638 221 670 231 670 C272 670 275 590 338 590 C391 590 435 664 435 750 L350 750 C350 712 341 680 331 680 C290 680 287 760 223 760 C171 760 127 686 127 600 L212 600 L212 600 Z M281 75 C215 75 175 160 175 260 C175 375 224 445 281 445 C347 445 387 360 387 260 C387 145 338 75 281 75 L281 75 Z M50 260 C50 114 138 -10 281 -10 C406 -10 512 92 512 260 C512 406 424 530 281 530 C156 530 50 428 50 260 L50 260 Z " />
<glyph glyph-name="odieresis" unicode="&#xf6;" horiz-adv-x="562" d="M296 600 L421 600 L421 725 L296 725 L296 600 L296 600 Z M141 600 L266 600 L266 725 L141 725 L141 600 L141 600 Z M281 75 C215 75 175 160 175 260 C175 375 224 445 281 445 C347 445 387 360 387 260 C387 145 338 75 281 75 L281 75 Z M50 260 C50 114 138 -10 281 -10 C406 -10 512 92 512 260 C512 406 424 530 281 530 C156 530 50 428 50 260 L50 260 Z " />
<glyph glyph-name="oslash" unicode="&#xf8;" horiz-adv-x="562" d="M281 75 C249 75 223 95 205 127 L375 350 C383 323 387 292 387 260 C387 145 338 75 281 75 L281 75 Z M50 260 C50 187 72 120 112 71 L50 -10 L100 -10 L139 42 C176 10 224 -9 280 -9 C405 -9 511 93 511 261 C511 334 489 401 449 450 L511 531 L461 531 L422 479 C385 511 337 530 281 530 C156 530 50 428 50 260 L50 260 Z M187 170 C179 197 175 228 175 260 C175 375 224 445 281 445 C313 445 339 425 357 393 L187 170 L187 170 Z " />
<glyph glyph-name="ugrave" unicode="&#xf9;" horiz-adv-x="592" d="M241 600 L346 600 L304 750 L154 750 L241 600 L241 600 Z M488 100 L488 520 L430 520 L373 520 L302 520 L302 496 L302 451 L373 420 L373 210 C373 147 332 94 283 94 C235 94 215 137 215 200 L215 520 L158 520 L100 520 L30 520 L30 496 L30 451 L100 420 L100 200 C100 75 144 -10 247 -10 C298 -10 344 27 373 83 L373 10 L373 0 L430 0 L488 0 L558 0 L558 24 L558 70 L488 100 L488 100 Z " />
<glyph glyph-name="uacute" unicode="&#xfa;" horiz-adv-x="592" d="M241 600 L346 600 L433 750 L283 750 L241 600 L241 600 Z M488 100 L488 520 L430 520 L373 520 L302 520 L302 496 L302 451 L373 420 L373 210 C373 147 332 94 283 94 C235 94 215 137 215 200 L215 520 L158 520 L100 520 L30 520 L30 496 L30 451 L100 420 L100 200 C100 75 144 -10 247 -10 C298 -10 344 27 373 83 L373 10 L373 0 L430 0 L488 0 L558 0 L558 24 L558 70 L488 100 L488 100 Z " />
<glyph glyph-name="ucircumflex" unicode="&#xfb;" horiz-adv-x="592" d="M294 660 L350 600 L455 600 L352 750 L236 750 L133 600 L238 600 L294 660 L294 660 Z M488 100 L488 520 L430 520 L373 520 L302 520 L302 496 L302 451 L373 420 L373 210 C373 147 332 94 283 94 C235 94 215 137 215 200 L215 520 L158 520 L100 520 L30 520 L30 496 L30 451 L100 420 L100 200 C100 75 144 -10 247 -10 C298 -10 344 27 373 83 L373 10 L373 0 L430 0 L488 0 L558 0 L558 24 L558 70 L488 100 L488 100 Z " />
<glyph glyph-name="udieresis" unicode="&#xfc;" horiz-adv-x="592" d="M309 600 L434 600 L434 725 L309 725 L309 600 L309 600 Z M154 600 L279 600 L279 725 L154 725 L154 600 L154 600 Z M488 100 L488 520 L430 520 L373 520 L302 520 L302 496 L302 451 L373 420 L373 210 C373 147 332 94 283 94 C235 94 215 137 215 200 L215 520 L158 520 L100 520 L30 520 L30 496 L30 451 L100 420 L100 200 C100 75 144 -10 247 -10 C298 -10 344 27 373 83 L373 10 L373 0 L430 0 L488 0 L558 0 L558 24 L558 70 L488 100 L488 100 Z " />
<glyph glyph-name="yacute" unicode="&#xfd;" horiz-adv-x="496" d="M178 600 L283 600 L370 750 L220 750 L178 600 L178 600 Z M294 420 L294 420 L224 159 L163 421 L210 452 L210 497 L210 521 L140 521 L75 521 L9 521 L-39 521 L-39 494 L-39 452 L40 421 L177 -19 L172 -40 C159 -82 136 -100 95 -100 L45 -100 L44 -200 L95 -200 C188 -200 237 -165 262 -84 L420 420 L420 420 L499 451 L499 493 L499 520 L451 520 L386 520 L321 520 L251 520 L251 496 L251 451 L294 420 L294 420 Z " />
<glyph glyph-name="thorn" unicode="&#xfe;" horiz-adv-x="571" d="M290 85 C233 85 185 151 185 260 C185 369 233 435 290 435 C348 435 397 355 397 260 C397 166 348 85 290 85 L290 85 Z M128 -250 L185 -250 L255 -250 L255 -226 L255 -180 L185 -150 L185 74 C221 20 273 -10 329 -10 C434 -10 523 114 523 260 C523 406 434 530 329 530 C273 530 221 500 185 446 L185 750 L128 750 L99 750 L70 750 L0 750 L0 726 L0 681 L70 650 L70 -150 L0 -180 L0 -226 L0 -250 L70 -250 L128 -250 L128 -250 Z " />
<glyph glyph-name="ydieresis" unicode="&#xff;" horiz-adv-x="496" d="M245 600 L370 600 L370 725 L245 725 L245 600 L245 600 Z M90 600 L215 600 L215 725 L90 725 L90 600 L90 600 Z M294 420 L294 420 L224 159 L163 421 L210 452 L210 497 L210 521 L140 521 L75 521 L9 521 L-39 521 L-39 494 L-39 452 L40 421 L177 -19 L172 -40 C159 -82 136 -100 95 -100 L45 -100 L44 -200 L95 -200 C188 -200 237 -165 262 -84 L420 420 L420 420 L499 451 L499 493 L499 520 L451 520 L386 520 L321 520 L251 520 L251 496 L251 451 L294 420 L294 420 Z " />
<glyph glyph-name="Amacron" unicode="&#x100;" horiz-adv-x="767" d="M268 830 L509 830 L509 910 L268 910 L268 830 L268 830 Z M113 0 L181 0 L251 0 L251 24 L251 70 L216 100 L231 143 L536 143 L551 100 L516 70 L516 24 L516 0 L586 0 L654 0 L722 0 L767 0 L767 28 L767 70 L686 100 L455 750 L445 750 L380 750 L323 750 L316 750 L246 750 L246 726 L246 681 L280 650 L81 100 L81 100 L0 70 L0 28 L0 0 L45 0 L113 0 L113 0 Z M266 242 L384 576 L518 193 L501 241 L266 242 L266 242 Z " />
<glyph glyph-name="amacron" unicode="&#x101;" horiz-adv-x="522" d="M131 600 L371 600 L371 680 L131 680 L131 600 L131 600 Z M55 390 L159 357 C159 399 201 435 251 435 C295 435 332 417 332 385 L332 357 C332 313 262 282 180 268 C104 255 40 194 40 134 C40 56 91 -10 186 -10 C246 -10 301 14 334 67 C342 10 376 0 491 0 L491 85 C452 85 446 88 446 107 L446 336 C446 462 356 530 250 530 C144 530 54 466 54 390 L55 390 L55 390 Z M331 227 L331 183 C324 104 276 69 220 69 C177 69 154 101 154 138 C154 160 197 186 247 195 C278 200 307 211 331 227 L331 227 Z " />
<glyph glyph-name="Abreve" unicode="&#x102;" horiz-adv-x="767" d="M256 965 C256 887 317 820 389 820 C461 820 522 887 522 965 L437 965 C437 930 415 900 389 900 C363 900 341 930 341 965 L256 965 L256 965 Z M113 0 L181 0 L251 0 L251 24 L251 70 L216 100 L231 143 L536 143 L551 100 L516 70 L516 24 L516 0 L586 0 L654 0 L722 0 L767 0 L767 28 L767 70 L686 100 L455 750 L445 750 L380 750 L323 750 L316 750 L246 750 L246 726 L246 681 L280 650 L81 100 L81 100 L0 70 L0 28 L0 0 L45 0 L113 0 L113 0 Z M266 242 L384 576 L518 193 L501 241 L266 242 L266 242 Z " />
<glyph glyph-name="abreve" unicode="&#x103;" horiz-adv-x="522" d="M118 735 C118 657 179 590 251 590 C323 590 384 657 384 735 L299 735 C299 700 277 670 251 670 C225 670 203 700 203 735 L118 735 L118 735 Z M55 390 L159 357 C159 399 201 435 251 435 C295 435 332 417 332 385 L332 357 C332 313 262 282 180 268 C104 255 40 194 40 134 C40 56 91 -10 186 -10 C246 -10 301 14 334 67 C342 10 376 0 491 0 L491 85 C452 85 446 88 446 107 L446 336 C446 462 356 530 250 530 C144 530 54 466 54 390 L55 390 L55 390 Z M331 227 L331 183 C324 104 276 69 220 69 C177 69 154 101 154 138 C154 160 197 186 247 195 C278 200 307 211 331 227 L331 227 Z " />
<glyph glyph-name="Aogonek" unicode="&#x104;" horiz-adv-x="767" d="M113 0 L181 0 L251 0 L251 24 L251 70 L216 100 L231 143 L536 143 L551 100 L516 70 L516 24 L516 0 L586 0 L654 0 L662 0 C633 -30 603 -71 603 -97 C603 -160 665 -213 738 -213 C775 -213 813 -204 822 -194 L811 -131 C805 -137 775 -143 744 -143 C702 -143 667 -117 667 -86 C667 -56 706 -7 721 1 L766 1 L766 29 L766 71 L685 101 L454 751 L444 751 L379 751 L322 751 L315 751 L245 751 L245 727 L245 682 L279 651 L80 101 L80 101 L-1 71 L-1 29 L-1 1 L44 1 L113 0 L113 0 Z M265 243 L383 577 L517 194 L500 242 L265 243 L265 243 Z " />
<glyph glyph-name="aogonek" unicode="&#x105;" horiz-adv-x="571" d="M50 260 C50 114 148 -10 262 -10 C310 -10 355 22 387 73 L387 0 L444 0 L451 0 C417 -31 382 -72 382 -95 C382 -159 444 -214 517 -214 C554 -214 592 -205 601 -195 L590 -132 C585 -138 554 -144 523 -144 C482 -144 447 -116 447 -84 C447 -55 486 -8 501 0 L571 0 L571 24 L571 70 L501 100 L501 421 L571 452 L571 497 L571 521 L501 521 L443 521 L386 521 L386 448 C354 499 309 531 261 531 C147 531 49 407 49 261 L50 260 L50 260 Z M386 261 C386 167 346 86 300 86 C232 86 174 167 174 261 C174 356 232 436 300 436 C346 436 386 356 386 261 L386 261 Z " />
<glyph glyph-name="Cacute" unicode="&#x106;" horiz-adv-x="686" d="M306 830 L411 830 L498 980 L348 980 L306 830 L306 830 Z M572 232 C572 158 484 95 381 95 C277 95 189 239 189 375 C189 512 277 656 381 656 C478 656 566 592 572 518 L619 557 L619 557 L666 597 L666 667 L632 667 C615 686 593 703 567 717 L567 717 L567 717 C516 744 451 761 382 761 C204 761 53 563 53 376 C53 189 204 -9 382 -9 C536 -9 667 66 667 154 L572 232 L572 232 Z " />
<glyph glyph-name="cacute" unicode="&#x107;" horiz-adv-x="525" d="M231 600 L336 600 L423 750 L273 750 L231 600 L231 600 Z M392 173 C392 125 342 85 283 85 C225 85 175 151 175 260 C175 372 225 440 283 440 C354 440 394 390 394 331 L495 380 C494 461 419 530 283 530 C157 530 50 428 50 260 C50 92 157 -10 283 -10 C398 -10 496 51 496 122 L392 173 L392 173 Z " />
<glyph glyph-name="Ccircumflex" unicode="&#x108;" horiz-adv-x="686" d="M359 890 L415 830 L520 830 L417 980 L301 980 L198 830 L303 830 L359 890 L359 890 Z M572 232 C572 158 484 95 381 95 C277 95 189 239 189 375 C189 512 277 656 381 656 C478 656 566 592 572 518 L619 557 L619 557 L666 597 L666 667 L632 667 C615 686 593 703 567 717 L567 717 L567 717 C516 744 451 761 382 761 C204 761 53 563 53 376 C53 189 204 -9 382 -9 C536 -9 667 66 667 154 L572 232 L572 232 Z " />
<glyph glyph-name="Cdot" unicode="&#x10a;" horiz-adv-x="686" d="M296 830 L421 830 L421 955 L296 955 L296 830 L296 830 Z M572 232 C572 158 484 95 381 95 C277 95 189 239 189 375 C189 512 277 656 381 656 C478 656 566 592 572 518 L619 557 L619 557 L666 597 L666 667 L632 667 C615 686 593 703 567 717 L567 717 L567 717 C516 744 451 761 382 761 C204 761 53 563 53 376 C53 189 204 -9 382 -9 C536 -9 667 66 667 154 L572 232 L572 232 Z " />
<glyph glyph-name="cdot" unicode="&#x10b;" horiz-adv-x="525" d="M221 600 L346 600 L346 725 L221 725 L221 600 L221 600 Z M392 173 C392 125 342 85 283 85 C225 85 175 151 175 260 C175 372 225 440 283 440 C354 440 394 390 394 331 L495 380 C494 461 419 530 283 530 C157 530 50 428 50 260 C50 92 157 -10 283 -10 C398 -10 496 51 496 122 L392 173 L392 173 Z " />
<glyph glyph-name="Ccaron" unicode="&#x10c;" horiz-adv-x="686" d="M359 920 L415 980 L520 980 L417 830 L301 830 L198 980 L303 980 L359 920 L359 920 Z M572 232 C572 158 484 95 381 95 C277 95 189 239 189 375 C189 512 277 656 381 656 C478 656 566 592 572 518 L619 557 L619 557 L666 597 L666 667 L632 667 C615 686 593 703 567 717 L567 717 L567 717 C516 744 451 761 382 761 C204 761 53 563 53 376 C53 189 204 -9 382 -9 C536 -9 667 66 667 154 L572 232 L572 232 Z " />
<glyph glyph-name="ccaron" unicode="&#x10d;" horiz-adv-x="525" d="M283 690 L339 750 L444 750 L341 600 L225 600 L123 750 L228 750 L283 690 L283 690 Z M392 173 C392 125 342 85 283 85 C225 85 175 151 175 260 C175 372 225 440 283 440 C354 440 394 390 394 331 L495 380 C494 461 419 530 283 530 C157 530 50 428 50 260 C50 92 157 -10 283 -10 C398 -10 496 51 496 122 L392 173 L392 173 Z " />
<glyph glyph-name="Dcaron" unicode="&#x10e;" horiz-adv-x="772" d="M351 920 L407 980 L512 980 L409 830 L293 830 L190 980 L295 980 L351 920 L351 920 Z M186 0 L250 0 L371 0 C582 0 717 146 717 375 C717 598 565 750 341 750 L250 750 L186 750 L122 750 L52 750 L52 726 L52 681 L122 650 L122 100 L52 70 L52 24 L52 0 L122 0 L186 0 L186 0 Z M250 100 L250 650 L347 650 C485 650 580 538 580 375 C580 207 495 99 363 99 C332 99 280 100 250 100 L250 100 Z " />
<glyph glyph-name="dcaron" unicode="&#x10f;" horiz-adv-x="572" d="M552 760 L555 610 L640 610 L677 760 L552 760 L552 760 Z M50 260 C50 114 139 -10 244 -10 C300 -10 351 26 387 82 L387 11 L387 1 L445 1 L502 1 L572 1 L572 25 L572 71 L502 101 L502 741 L502 751 L445 751 L387 751 L317 751 L317 727 L317 682 L387 651 L387 440 C351 496 300 532 244 532 C139 532 50 408 50 262 L50 260 L50 260 Z M387 262 C387 168 339 87 282 87 C224 87 175 168 175 262 C175 357 224 437 282 437 C339 437 387 357 387 262 L387 262 Z " />
<glyph glyph-name="Dcroat" unicode="&#x110;" horiz-adv-x="772" d="M42 335 L122 335 L122 100 L52 70 L52 24 L52 0 L122 0 L186 0 L250 0 L371 0 C582 0 717 146 717 375 C717 598 565 750 341 750 L250 750 L186 750 L122 750 L52 750 L52 726 L52 681 L122 650 L122 415 L42 415 L42 335 L42 335 Z M250 100 L250 335 L351 335 L351 415 L250 415 L250 650 L347 650 C485 650 580 538 580 375 C580 207 495 99 363 99 C332 99 280 100 250 100 L250 100 Z " />
<glyph glyph-name="dcroat" unicode="&#x111;" horiz-adv-x="572" d="M244 600 L387 600 L387 439 C351 495 300 531 244 531 C139 531 50 407 50 261 C50 115 139 -9 244 -9 C300 -9 351 27 387 83 L387 12 L387 2 L445 2 L502 2 L572 2 L572 26 L572 72 L502 102 L502 602 L615 602 L615 682 L502 682 L502 742 L502 752 L445 752 L387 752 L317 752 L317 728 L317 683 L319 682 L244 682 L244 600 L244 600 Z M387 262 C387 168 339 87 282 87 C224 87 175 168 175 262 C175 357 224 437 282 437 C339 437 387 357 387 262 L387 262 Z " />
<glyph glyph-name="Emacron" unicode="&#x112;" horiz-adv-x="647" d="M232 830 L472 830 L472 910 L232 910 L232 830 L232 830 Z M597 52 L597 105 L597 175 L573 175 L528 175 L497 105 L250 105 L250 310 L462 310 L493 240 L538 240 L562 240 L562 310 L562 360 L562 409 L562 480 L538 480 L493 480 L462 409 L250 409 L250 646 L482 646 L513 575 L558 575 L582 575 L582 646 L582 698 L582 750 L250 750 L249 750 L186 750 L122 750 L52 750 L52 726 L52 681 L122 650 L122 100 L52 70 L52 24 L52 0 L122 0 L186 0 L249 0 L250 0 L597 0 L597 52 L597 52 Z " />
<glyph glyph-name="emacron" unicode="&#x113;" horiz-adv-x="532" d="M164 600 L405 600 L405 680 L164 680 L164 600 L164 600 Z M395 166 C395 122 340 85 276 85 C227 85 184 140 177 232 L405 232 L520 232 C520 393 437 530 285 530 C159 530 51 428 51 260 C51 92 155 -10 277 -10 C400 -10 504 52 504 125 L395 166 L395 166 Z M397 312 L180 312 C193 393 236 440 285 440 C343 440 381 386 397 312 L397 312 Z " />
<glyph glyph-name="Ebreve" unicode="&#x114;" horiz-adv-x="647" d="M219 965 C219 887 280 820 352 820 C424 820 485 887 485 965 L400 965 C400 930 378 900 352 900 C326 900 304 930 304 965 L219 965 L219 965 Z M597 52 L597 105 L597 175 L573 175 L528 175 L497 105 L250 105 L250 310 L462 310 L493 240 L538 240 L562 240 L562 310 L562 360 L562 409 L562 480 L538 480 L493 480 L462 409 L250 409 L250 646 L482 646 L513 575 L558 575 L582 575 L582 646 L582 698 L582 750 L250 750 L249 750 L186 750 L122 750 L52 750 L52 726 L52 681 L122 650 L122 100 L52 70 L52 24 L52 0 L122 0 L186 0 L249 0 L250 0 L597 0 L597 52 L597 52 Z " />
<glyph glyph-name="ebreve" unicode="&#x115;" horiz-adv-x="532" d="M151 735 C151 657 212 590 284 590 C356 590 417 657 417 735 L332 735 C332 700 310 670 284 670 C258 670 236 700 236 735 L151 735 L151 735 Z M395 166 C395 122 340 85 276 85 C227 85 184 140 177 232 L405 232 L520 232 C520 393 437 530 285 530 C159 530 51 428 51 260 C51 92 155 -10 277 -10 C400 -10 504 52 504 125 L395 166 L395 166 Z M397 312 L180 312 C193 393 236 440 285 440 C343 440 381 386 397 312 L397 312 Z " />
<glyph glyph-name="Edot" unicode="&#x116;" horiz-adv-x="647" d="M290 830 L415 830 L415 955 L290 955 L290 830 L290 830 Z M597 52 L597 105 L597 175 L573 175 L528 175 L497 105 L250 105 L250 310 L462 310 L493 240 L538 240 L562 240 L562 310 L562 360 L562 409 L562 480 L538 480 L493 480 L462 409 L250 409 L250 646 L482 646 L513 575 L558 575 L582 575 L582 646 L582 698 L582 750 L250 750 L249 750 L186 750 L122 750 L52 750 L52 726 L52 681 L122 650 L122 100 L52 70 L52 24 L52 0 L122 0 L186 0 L249 0 L250 0 L597 0 L597 52 L597 52 Z " />
<glyph glyph-name="edot" unicode="&#x117;" horiz-adv-x="532" d="M222 600 L347 600 L347 725 L222 725 L222 600 L222 600 Z M395 166 C395 122 340 85 276 85 C227 85 184 140 177 232 L405 232 L520 232 C520 393 437 530 285 530 C159 530 51 428 51 260 C51 92 155 -10 277 -10 C400 -10 504 52 504 125 L395 166 L395 166 Z M397 312 L180 312 C193 393 236 440 285 440 C343 440 381 386 397 312 L397 312 Z " />
<glyph glyph-name="Eogonek" unicode="&#x118;" horiz-adv-x="647" d="M326 0 C293 -31 259 -72 259 -95 C259 -159 321 -214 393 -214 C430 -214 469 -205 477 -195 L466 -132 C461 -138 430 -144 399 -144 C358 -144 323 -116 323 -84 C323 -55 362 -8 377 0 L598 0 L598 52 L598 105 L598 175 L574 175 L529 175 L498 105 L251 105 L251 310 L463 310 L494 240 L539 240 L563 240 L563 310 L563 360 L563 409 L563 480 L539 480 L494 480 L463 409 L251 409 L251 646 L483 646 L514 575 L559 575 L583 575 L583 646 L583 698 L583 750 L251 750 L250 750 L187 750 L123 750 L53 750 L53 726 L53 681 L123 650 L123 100 L53 70 L53 24 L53 0 L123 0 L187 0 L250 0 L251 0 L326 0 L326 0 Z " />
<glyph glyph-name="eogonek" unicode="&#x119;" horiz-adv-x="532" d="M379 5 L379 5 C452 28 503 74 503 125 L395 166 C395 122 340 85 276 85 C227 85 184 140 177 232 L405 232 L520 232 C520 393 437 530 285 530 C159 530 51 428 51 260 C51 92 155 -10 277 -10 C291 -10 304 -9 317 -8 C288 -38 262 -73 262 -94 C262 -159 324 -215 397 -215 C434 -215 472 -206 481 -196 L470 -133 C464 -139 433 -145 403 -145 C361 -145 326 -116 326 -83 C326 -53 365 -4 380 4 L379 5 L379 5 Z M397 311 L180 311 C193 392 236 439 285 439 C343 439 381 385 397 311 L397 311 Z " />
<glyph glyph-name="Ecaron" unicode="&#x11a;" horiz-adv-x="647" d="M352 920 L408 980 L513 980 L410 830 L294 830 L191 980 L296 980 L352 920 L352 920 Z M597 52 L597 105 L597 175 L573 175 L528 175 L497 105 L250 105 L250 310 L462 310 L493 240 L538 240 L562 240 L562 310 L562 360 L562 409 L562 480 L538 480 L493 480 L462 409 L250 409 L250 646 L482 646 L513 575 L558 575 L582 575 L582 646 L582 698 L582 750 L250 750 L249 750 L186 750 L122 750 L52 750 L52 726 L52 681 L122 650 L122 100 L52 70 L52 24 L52 0 L122 0 L186 0 L249 0 L250 0 L597 0 L597 52 L597 52 Z " />
<glyph glyph-name="ecaron" unicode="&#x11b;" horiz-adv-x="532" d="M284 690 L340 750 L445 750 L342 600 L226 600 L123 750 L228 750 L284 690 L284 690 Z M395 166 C395 122 340 85 276 85 C227 85 184 140 177 232 L405 232 L520 232 C520 393 437 530 285 530 C159 530 51 428 51 260 C51 92 155 -10 277 -10 C400 -10 504 52 504 125 L395 166 L395 166 Z M397 312 L180 312 C193 393 236 440 285 440 C343 440 381 386 397 312 L397 312 Z " />
<glyph glyph-name="Gcircumflex" unicode="&#x11c;" horiz-adv-x="743" d="M413 890 L469 830 L574 830 L471 980 L355 980 L252 830 L357 830 L413 890 L413 890 Z M360 306 L576 306 L576 153 C538 122 468 95 413 95 C292 95 189 224 189 375 C189 527 292 656 413 656 C505 656 589 592 596 518 L643 557 L643 557 L690 597 L690 667 L657 667 C609 721 515 760 413 760 C218 760 52 583 52 375 C52 167 218 -10 413 -10 C512 -10 634 36 698 90 L698 410 L360 410 L360 306 L360 306 Z " />
<glyph glyph-name="Gbreve" unicode="&#x11e;" horiz-adv-x="743" d="M280 965 C280 887 341 820 413 820 C485 820 546 887 546 965 L461 965 C461 930 439 900 413 900 C387 900 365 930 365 965 L280 965 L280 965 Z M360 306 L576 306 L576 153 C538 122 468 95 413 95 C292 95 189 224 189 375 C189 527 292 656 413 656 C505 656 589 592 596 518 L643 557 L643 557 L690 597 L690 667 L657 667 C609 721 515 760 413 760 C218 760 52 583 52 375 C52 167 218 -10 413 -10 C512 -10 634 36 698 90 L698 410 L360 410 L360 306 L360 306 Z " />
<glyph glyph-name="gbreve" unicode="&#x11f;" horiz-adv-x="562" d="M138 735 C138 657 199 590 271 590 C343 590 404 657 404 735 L319 735 C319 700 297 670 271 670 C245 670 223 700 223 735 L138 735 L138 735 Z M50 -47 C50 -148 153 -202 274 -202 C415 -202 492 -87 492 49 L492 420 L562 451 L562 496 L562 520 L492 520 L435 520 L377 520 L377 441 C342 496 292 531 238 531 C136 531 49 436 49 261 C49 93 136 1 238 1 C292 1 342 35 377 88 L377 2 C377 -56 337 -106 264 -106 C216 -106 175 -85 175 -45 L50 -47 L50 -47 Z M277 437 C331 437 377 357 377 262 C377 173 331 97 277 97 C222 97 175 155 175 262 C175 375 222 437 277 437 L277 437 Z " />
<glyph glyph-name="Gdot" unicode="&#x120;" horiz-adv-x="743" d="M350 830 L475 830 L475 955 L350 955 L350 830 L350 830 Z M360 306 L576 306 L576 153 C538 122 468 95 413 95 C292 95 189 224 189 375 C189 527 292 656 413 656 C505 656 589 592 596 518 L643 557 L643 557 L690 597 L690 667 L657 667 C609 721 515 760 413 760 C218 760 52 583 52 375 C52 167 218 -10 413 -10 C512 -10 634 36 698 90 L698 410 L360 410 L360 306 L360 306 Z " />
<glyph glyph-name="gdot" unicode="&#x121;" horiz-adv-x="562" d="M209 600 L334 600 L334 725 L209 725 L209 600 L209 600 Z M50 -47 C50 -148 153 -202 274 -202 C415 -202 492 -87 492 49 L492 420 L562 451 L562 496 L562 520 L492 520 L435 520 L377 520 L377 441 C342 496 292 531 238 531 C136 531 49 436 49 261 C49 93 136 1 238 1 C292 1 342 35 377 88 L377 2 C377 -56 337 -106 264 -106 C216 -106 175 -85 175 -45 L50 -47 L50 -47 Z M277 437 C331 437 377 357 377 262 C377 173 331 97 277 97 C222 97 175 155 175 262 C175 375 222 437 277 437 L277 437 Z " />
<glyph glyph-name="Hcircumflex" unicode="&#x124;" horiz-adv-x="813" d="M408 890 L464 830 L569 830 L466 980 L350 980 L247 830 L352 830 L408 890 L408 890 Z M630 0 L694 0 L764 0 L764 24 L764 70 L694 100 L694 650 L764 681 L764 726 L764 750 L694 750 L630 750 L566 750 L496 750 L496 726 L496 681 L566 650 L566 415 L250 415 L250 650 L320 681 L320 726 L320 750 L250 750 L186 750 L122 750 L52 750 L52 726 L52 681 L122 650 L122 100 L52 70 L52 24 L52 0 L122 0 L186 0 L250 0 L320 0 L320 24 L320 70 L250 100 L250 311 L566 311 L566 100 L496 70 L496 24 L496 0 L566 0 L630 0 L630 0 Z " />
<glyph glyph-name="Itilde" unicode="&#x128;" horiz-adv-x="371" d="M118 830 C118 868 127 900 137 900 C178 900 181 820 245 820 C297 820 341 894 341 980 L256 980 C256 942 247 910 237 910 C196 910 193 990 129 990 C77 990 33 916 33 830 L118 830 L118 830 Z M187 0 L251 0 L321 0 L321 24 L321 70 L251 100 L251 650 L321 681 L321 726 L321 750 L251 750 L187 750 L123 750 L53 750 L53 726 L53 681 L123 650 L123 100 L53 70 L53 24 L53 0 L123 0 L187 0 L187 0 Z " />
<glyph glyph-name="itilde" unicode="&#x129;" horiz-adv-x="267" d="M36 600 C36 638 45 670 55 670 C96 670 99 590 163 590 C215 590 259 664 259 750 L174 750 C174 712 165 680 155 680 C114 680 111 760 47 760 C-5 760 -49 686 -49 600 L36 600 L36 600 Z M105 0 L163 0 L233 0 L233 24 L233 70 L163 100 L163 520 L105 520 L48 520 L-23 520 L-23 496 L-23 451 L48 420 L48 100 L-23 70 L-23 24 L-23 0 L48 0 L105 0 L105 0 Z " />
<glyph glyph-name="Imacron" unicode="&#x12a;" horiz-adv-x="371" d="M67 830 L307 830 L307 910 L67 910 L67 830 L67 830 Z M187 0 L251 0 L321 0 L321 24 L321 70 L251 100 L251 650 L321 681 L321 726 L321 750 L251 750 L187 750 L123 750 L53 750 L53 726 L53 681 L123 650 L123 100 L53 70 L53 24 L53 0 L123 0 L187 0 L187 0 Z " />
<glyph glyph-name="imacron" unicode="&#x12b;" horiz-adv-x="267" d="M-15 600 L225 600 L225 680 L-15 680 L-15 600 L-15 600 Z M105 0 L163 0 L233 0 L233 24 L233 70 L163 100 L163 520 L105 520 L48 520 L-23 520 L-23 496 L-23 451 L48 420 L48 100 L-23 70 L-23 24 L-23 0 L48 0 L105 0 L105 0 Z " />
<glyph glyph-name="Ibreve" unicode="&#x12c;" horiz-adv-x="371" d="M54 965 C54 887 115 820 187 820 C259 820 320 887 320 965 L235 965 C235 930 213 900 187 900 C161 900 139 930 139 965 L54 965 L54 965 Z M187 0 L251 0 L321 0 L321 24 L321 70 L251 100 L251 650 L321 681 L321 726 L321 750 L251 750 L187 750 L123 750 L53 750 L53 726 L53 681 L123 650 L123 100 L53 70 L53 24 L53 0 L123 0 L187 0 L187 0 Z " />
<glyph glyph-name="ibreve" unicode="&#x12d;" horiz-adv-x="267" d="M-28 735 C-28 657 33 590 105 590 C177 590 238 657 238 735 L153 735 C153 700 131 670 105 670 C79 670 57 700 57 735 L-28 735 L-28 735 Z M105 0 L163 0 L233 0 L233 24 L233 70 L163 100 L163 520 L105 520 L48 520 L-23 520 L-23 496 L-23 451 L48 420 L48 100 L-23 70 L-23 24 L-23 0 L48 0 L105 0 L105 0 Z " />
<glyph glyph-name="Idot" unicode="&#x130;" horiz-adv-x="371" d="M125 830 L250 830 L250 955 L125 955 L125 830 L125 830 Z M187 0 L251 0 L321 0 L321 24 L321 70 L251 100 L251 650 L321 681 L321 726 L321 750 L251 750 L187 750 L123 750 L53 750 L53 726 L53 681 L123 650 L123 100 L53 70 L53 24 L53 0 L123 0 L187 0 L187 0 Z " />
<glyph glyph-name="dotlessi" unicode="&#x131;" horiz-adv-x="294" d="M110 0 L225 0 L225 520 L110 520 L110 0 L110 0 Z " />
<glyph glyph-name="Jcircumflex" unicode="&#x134;" horiz-adv-x="537" d="M388 890 L444 830 L549 830 L446 980 L330 980 L227 830 L332 830 L388 890 L388 890 Z M49 279 L49 216 C49 76 125 -10 251 -10 C370 -10 452 96 452 220 L452 650 L522 681 L522 726 L522 750 L452 750 L388 750 L324 750 L254 750 L254 726 L254 681 L324 650 L324 220 C324 160 294 109 251 109 C205 109 177 163 177 252 L177 302 L49 279 L49 279 Z " />
<glyph glyph-name="Lacute" unicode="&#x139;" horiz-adv-x="613" d="M135 830 L240 830 L327 980 L177 980 L135 830 L135 830 Z M548 52 L548 105 L548 175 L524 175 L479 175 L448 105 L251 105 L251 650 L321 681 L321 726 L321 750 L251 750 L187 750 L123 750 L53 750 L53 726 L53 681 L123 650 L123 100 L53 70 L53 24 L53 0 L123 0 L187 0 L251 0 L548 0 L548 52 L548 52 Z " />
<glyph glyph-name="lacute" unicode="&#x13a;" horiz-adv-x="394" d="M116 790 L221 790 L308 940 L158 940 L116 790 L116 790 Z M69 681 L140 650 L140 100 L69 70 C70 70 70 49 69 24 C70 11 70 0 69 0 L140 0 L197 0 L255 0 L325 0 C324 0 324 11 325 24 C324 49 324 70 325 70 L255 100 L255 740 L255 750 L197 750 L140 750 L69 750 C70 750 70 739 69 726 C70 702 70 681 69 681 L69 681 Z M69 681 L69 681 L69 681 Z " />
<glyph glyph-name="Lcaron" unicode="&#x13d;" horiz-adv-x="613" d="M407 760 L410 610 L495 610 L532 760 L407 760 L407 760 Z M548 52 L548 105 L548 175 L524 175 L479 175 L448 105 L251 105 L251 650 L321 681 L321 726 L321 750 L251 750 L187 750 L123 750 L53 750 L53 726 L53 681 L123 650 L123 100 L53 70 L53 24 L53 0 L123 0 L187 0 L251 0 L548 0 L548 52 L548 52 Z " />
<glyph glyph-name="lcaron" unicode="&#x13e;" horiz-adv-x="394" d="M305 760 L307 610 L392 610 L430 760 L305 760 L305 760 Z M69 681 L140 650 L140 100 L69 70 C70 70 70 49 69 24 C70 11 70 0 69 0 L140 0 L197 0 L255 0 L325 0 C324 0 324 11 325 24 C324 49 324 70 325 70 L255 100 L255 740 L255 750 L197 750 L140 750 L69 750 C70 750 70 739 69 726 C70 702 70 681 69 681 L69 681 Z M69 681 L69 681 L69 681 Z " />
<glyph glyph-name="Lslash" unicode="&#x141;" horiz-adv-x="613" d="M43 283 L123 305 L123 100 L53 70 L53 24 L53 0 L123 0 L187 0 L251 0 L548 0 L548 52 L548 105 L548 175 L524 175 L479 175 L448 105 L251 105 L251 341 L400 383 L400 468 L251 426 L251 650 L321 681 L321 726 L321 750 L251 750 L187 750 L123 750 L53 750 L53 726 L53 681 L123 650 L123 390 L43 368 L43 283 L43 283 Z " />
<glyph glyph-name="lslash" unicode="&#x142;" horiz-adv-x="394" d="M60 283 L140 312 L140 100 L69 70 C70 70 70 49 69 24 C70 11 70 0 69 0 L140 0 L197 0 L255 0 L325 0 C324 0 324 11 325 24 C324 49 324 70 325 70 L255 100 L255 354 L335 383 L335 468 L255 439 L255 740 L255 750 L197 750 L140 750 L69 750 C70 750 70 739 69 726 C70 702 70 681 69 681 L140 650 L140 397 L60 368 L60 283 L60 283 Z M69 681 L69 681 L69 681 Z " />
<glyph glyph-name="Nacute" unicode="&#x143;" horiz-adv-x="781" d="M239 830 L344 830 L431 980 L281 980 L239 830 L239 830 Z M533 650 L533 189 L262 750 L250 750 L186 750 L122 750 L52 750 L52 726 L52 681 L122 650 L122 100 L52 70 L52 24 L52 0 L122 0 L186 0 L250 0 L320 0 L320 24 L320 70 L250 100 L250 485 L484 0 L533 0 L624 0 L661 0 L661 650 L731 681 L731 726 L731 750 L661 750 L597 750 L533 750 L463 750 L463 726 L463 681 L533 650 L533 650 Z " />
<glyph glyph-name="nacute" unicode="&#x144;" horiz-adv-x="592" d="M246 600 L351 600 L438 750 L288 750 L246 600 L246 600 Z M435 0 L492 0 L562 0 L562 24 L562 70 L492 100 L492 315 C492 440 428 525 352 525 C299 525 251 494 220 447 L220 510 L220 520 L163 520 L134 520 L105 520 L35 520 L35 496 L35 451 L105 420 L105 100 L35 70 L35 24 L35 0 L105 0 L163 0 L220 0 L290 0 L290 24 L290 70 L220 100 L220 320 C220 375 261 421 308 421 C345 421 377 378 377 315 L377 100 L307 70 L307 24 L307 0 L377 0 L435 0 L435 0 Z " />
<glyph glyph-name="Ncaron" unicode="&#x147;" horiz-adv-x="781" d="M392 920 L447 980 L552 980 L450 830 L334 830 L231 980 L336 980 L392 920 L392 920 Z M533 650 L533 189 L262 750 L250 750 L186 750 L122 750 L52 750 L52 726 L52 681 L122 650 L122 100 L52 70 L52 24 L52 0 L122 0 L186 0 L250 0 L320 0 L320 24 L320 70 L250 100 L250 485 L484 0 L533 0 L624 0 L661 0 L661 650 L731 681 L731 726 L731 750 L661 750 L597 750 L533 750 L463 750 L463 726 L463 681 L533 650 L533 650 Z " />
<glyph glyph-name="ncaron" unicode="&#x148;" horiz-adv-x="592" d="M299 690 L355 750 L460 750 L357 600 L241 600 L138 750 L243 750 L299 690 L299 690 Z M435 0 L492 0 L562 0 L562 24 L562 70 L492 100 L492 315 C492 440 428 525 352 525 C299 525 251 494 220 447 L220 510 L220 520 L163 520 L134 520 L105 520 L35 520 L35 496 L35 451 L105 420 L105 100 L35 70 L35 24 L35 0 L105 0 L163 0 L220 0 L290 0 L290 24 L290 70 L220 100 L220 320 C220 375 261 421 308 421 C345 421 377 378 377 315 L377 100 L307 70 L307 24 L307 0 L377 0 L435 0 L435 0 Z " />
<glyph glyph-name="Omacron" unicode="&#x14c;" horiz-adv-x="786" d="M273 830 L514 830 L514 910 L273 910 L273 830 L273 830 Z M394 95 C286 95 194 224 194 375 C194 519 291 656 394 656 C496 656 593 519 593 375 C593 224 501 95 394 95 L394 95 Z M57 375 C57 167 212 -10 394 -10 C576 -10 731 167 731 375 C731 573 567 760 394 760 C221 760 57 573 57 375 L57 375 Z " />
<glyph glyph-name="omacron" unicode="&#x14d;" horiz-adv-x="562" d="M160 600 L401 600 L401 680 L160 680 L160 600 L160 600 Z M281 75 C215 75 175 160 175 260 C175 375 224 445 281 445 C347 445 387 360 387 260 C387 145 338 75 281 75 L281 75 Z M50 260 C50 114 138 -10 281 -10 C406 -10 512 92 512 260 C512 406 424 530 281 530 C156 530 50 428 50 260 L50 260 Z " />
<glyph glyph-name="Obreve" unicode="&#x14e;" horiz-adv-x="786" d="M261 965 C261 887 322 820 394 820 C466 820 527 887 527 965 L442 965 C442 930 420 900 394 900 C368 900 346 930 346 965 L261 965 L261 965 Z M394 95 C286 95 194 224 194 375 C194 519 291 656 394 656 C496 656 593 519 593 375 C593 224 501 95 394 95 L394 95 Z M57 375 C57 167 212 -10 394 -10 C576 -10 731 167 731 375 C731 573 567 760 394 760 C221 760 57 573 57 375 L57 375 Z " />
<glyph glyph-name="obreve" unicode="&#x14f;" horiz-adv-x="562" d="M148 735 C148 657 209 590 281 590 C353 590 414 657 414 735 L329 735 C329 700 307 670 281 670 C255 670 233 700 233 735 L148 735 L148 735 Z M281 75 C215 75 175 160 175 260 C175 375 224 445 281 445 C347 445 387 360 387 260 C387 145 338 75 281 75 L281 75 Z M50 260 C50 114 138 -10 281 -10 C406 -10 512 92 512 260 C512 406 424 530 281 530 C156 530 50 428 50 260 L50 260 Z " />
<glyph glyph-name="Racute" unicode="&#x154;" horiz-adv-x="666" d="M306 830 L411 830 L498 980 L348 980 L306 830 L306 830 Z M565 100 L564 100 L435 313 C534 344 596 422 596 525 C596 659 489 750 333 750 L250 750 L186 750 L154 750 L122 750 L52 750 L52 726 L52 681 L122 650 L122 100 L52 70 L52 24 L52 0 L122 0 L186 0 L250 0 L320 0 L320 24 L320 70 L250 100 L250 298 L298 298 L478 0 L552 0 L625 0 L653 0 L653 31 L653 70 L565 100 L565 100 Z M250 398 L250 650 L328 650 C411 650 468 599 468 525 C468 450 415 398 337 398 L250 398 L250 398 Z " />
<glyph glyph-name="racute" unicode="&#x155;" horiz-adv-x="382" d="M181 600 L286 600 L373 750 L223 750 L181 600 L181 600 Z M362 395 L362 520 L354 520 C294 520 249 482 220 422 L220 510 L220 520 L163 520 L134 520 L105 520 L35 520 L35 496 L35 451 L105 420 L105 100 L35 70 L35 24 L35 0 L105 0 L163 0 L220 0 L290 0 L290 24 L290 70 L220 100 L220 230 C220 319 263 395 343 395 L362 395 L362 395 Z " />
<glyph glyph-name="Rcaron" unicode="&#x158;" horiz-adv-x="666" d="M359 920 L415 980 L520 980 L417 830 L301 830 L198 980 L303 980 L359 920 L359 920 Z M565 100 L564 100 L435 313 C534 344 596 422 596 525 C596 659 489 750 333 750 L250 750 L186 750 L154 750 L122 750 L52 750 L52 726 L52 681 L122 650 L122 100 L52 70 L52 24 L52 0 L122 0 L186 0 L250 0 L320 0 L320 24 L320 70 L250 100 L250 298 L298 298 L478 0 L552 0 L625 0 L653 0 L653 31 L653 70 L565 100 L565 100 Z M250 398 L250 650 L328 650 C411 650 468 599 468 525 C468 450 415 398 337 398 L250 398 L250 398 Z " />
<glyph glyph-name="rcaron" unicode="&#x159;" horiz-adv-x="382" d="M234 690 L290 750 L395 750 L292 600 L176 600 L73 750 L178 750 L234 690 L234 690 Z M362 395 L362 520 L354 520 C294 520 249 482 220 422 L220 510 L220 520 L163 520 L134 520 L105 520 L35 520 L35 496 L35 451 L105 420 L105 100 L35 70 L35 24 L35 0 L105 0 L163 0 L220 0 L290 0 L290 24 L290 70 L220 100 L220 230 C220 319 263 395 343 395 L362 395 L362 395 Z " />
<glyph glyph-name="Sacute" unicode="&#x15a;" horiz-adv-x="597" d="M235 830 L340 830 L427 980 L277 980 L235 830 L235 830 Z M60 91 C104 29 206 -10 321 -10 C464 -10 562 91 562 210 C562 322 461 420 313 451 C228 468 169 512 169 559 C169 606 214 646 267 646 C348 646 429 606 447 546 L492 587 L492 587 L538 629 L538 699 L503 699 L483 699 C470 709 455 718 439 726 L439 726 L439 726 C390 748 329 761 268 761 C144 761 38 662 38 547 C38 443 136 352 280 322 C372 303 435 256 435 207 C435 151 389 103 322 103 C227 103 147 158 147 238 L92 200 L92 200 L38 162 L38 92 L60 91 L60 91 Z " />
<glyph glyph-name="sacute" unicode="&#x15b;" horiz-adv-x="473" d="M191 600 L296 600 L383 750 L233 750 L191 600 L191 600 Z M127 17 L127 17 L127 17 C161 3 201 -5 244 -5 C352 -5 444 63 444 143 C444 213 368 289 257 311 C204 322 168 356 168 387 C168 416 203 440 243 440 C292 440 334 397 334 346 L428 387 L428 458 L401 458 C383 479 358 497 328 509 L328 509 L328 509 C302 519 273 525 243 525 C144 525 59 457 59 378 C59 305 128 230 230 209 C289 196 329 162 329 132 C329 107 290 85 244 85 C183 85 131 124 131 170 L79 150 L27 130 L27 60 L60 60 C77 43 100 28 127 17 L127 17 Z " />
<glyph glyph-name="Scircumflex" unicode="&#x15c;" horiz-adv-x="597" d="M287 890 L343 830 L448 830 L345 980 L229 980 L126 830 L231 830 L287 890 L287 890 Z M60 91 C104 29 206 -10 321 -10 C464 -10 562 91 562 210 C562 322 461 420 313 451 C228 468 169 512 169 559 C169 606 214 646 267 646 C348 646 429 606 447 546 L492 587 L492 587 L538 629 L538 699 L503 699 L483 699 C470 709 455 718 439 726 L439 726 L439 726 C390 748 329 761 268 761 C144 761 38 662 38 547 C38 443 136 352 280 322 C372 303 435 256 435 207 C435 151 389 103 322 103 C227 103 147 158 147 238 L92 200 L92 200 L38 162 L38 92 L60 91 L60 91 Z " />
<glyph glyph-name="Scedilla" unicode="&#x15e;" horiz-adv-x="597" d="M314 -56 L325 -10 C466 -8 562 92 562 210 C562 322 461 420 313 451 C228 468 169 512 169 559 C169 606 214 646 267 646 C348 646 429 606 447 546 L492 587 L492 587 L538 629 L538 699 L503 699 L483 699 C470 709 455 718 439 726 L439 726 L439 726 C390 748 329 761 268 761 C144 761 38 662 38 547 C38 443 136 352 280 322 C372 303 435 256 435 207 C435 151 389 103 322 103 C227 103 147 158 147 238 L92 200 L92 200 L38 162 L38 92 L61 92 C100 36 186 -1 287 -8 L266 -99 L300 -119 L300 -119 C302 -110 313 -103 323 -103 C338 -103 351 -124 351 -148 C351 -173 337 -194 320 -194 C311 -194 296 -175 288 -154 L243 -189 C255 -221 292 -249 323 -249 C373 -249 416 -203 416 -148 C416 -94 378 -48 333 -48 C327 -48 321 -51 316 -56 L314 -56 L314 -56 Z " />
<glyph glyph-name="scedilla" unicode="&#x15f;" horiz-adv-x="473" d="M238 -56 L251 -5 C356 -2 444 65 444 143 C444 213 368 289 257 311 C204 322 168 356 168 387 C168 416 203 440 243 440 C292 440 334 397 334 346 L428 387 L428 458 L401 458 C383 479 358 497 328 509 L328 509 L328 509 C302 519 273 525 243 525 C144 525 59 457 59 378 C59 305 128 230 230 209 C289 196 329 162 329 132 C329 107 290 85 244 85 C183 85 131 124 131 170 L79 150 L27 130 L27 60 L60 60 C77 43 100 28 127 17 L127 17 L127 17 C152 7 181 0 211 -3 L188 -100 L222 -120 L222 -119 C224 -110 235 -103 245 -103 C260 -103 273 -124 273 -148 C273 -173 259 -194 242 -194 C233 -194 218 -175 210 -154 L165 -189 C177 -221 214 -249 245 -249 C295 -249 338 -203 338 -148 C338 -94 300 -48 255 -48 C249 -48 243 -51 238 -55 L238 -56 L238 -56 Z " />
<glyph glyph-name="Scaron" unicode="&#x160;" horiz-adv-x="597" d="M287 920 L343 980 L448 980 L345 830 L229 830 L126 980 L231 980 L287 920 L287 920 Z M60 91 C104 29 206 -10 321 -10 C464 -10 562 91 562 210 C562 322 461 420 313 451 C228 468 169 512 169 559 C169 606 214 646 267 646 C348 646 429 606 447 546 L492 587 L492 587 L538 629 L538 699 L503 699 L483 699 C470 709 455 718 439 726 L439 726 L439 726 C390 748 329 761 268 761 C144 761 38 662 38 547 C38 443 136 352 280 322 C372 303 435 256 435 207 C435 151 389 103 322 103 C227 103 147 158 147 238 L92 200 L92 200 L38 162 L38 92 L60 91 L60 91 Z " />
<glyph glyph-name="scaron" unicode="&#x161;" horiz-adv-x="473" d="M243 690 L299 750 L404 750 L301 600 L185 600 L83 750 L188 750 L243 690 L243 690 Z M127 17 L127 17 L127 17 C161 3 201 -5 244 -5 C352 -5 444 63 444 143 C444 213 368 289 257 311 C204 322 168 356 168 387 C168 416 203 440 243 440 C292 440 334 397 334 346 L428 387 L428 458 L401 458 C383 479 358 497 328 509 L328 509 L328 509 C302 519 273 525 243 525 C144 525 59 457 59 378 C59 305 128 230 230 209 C289 196 329 162 329 132 C329 107 290 85 244 85 C183 85 131 124 131 170 L79 150 L27 130 L27 60 L60 60 C77 43 100 28 127 17 L127 17 Z " />
<glyph glyph-name="Tcaron" unicode="&#x164;" horiz-adv-x="567" d="M284 920 L339 980 L444 980 L342 830 L226 830 L123 980 L228 980 L284 920 L284 920 Z M284 0 L348 0 L418 0 C417 0 417 11 418 24 C417 49 417 70 418 70 L348 100 L348 646 L457 646 L488 575 L533 575 L557 575 L557 646 L557 698 L557 750 L348 750 L219 750 L10 750 L10 698 L10 646 L10 575 L34 575 L80 575 L110 646 L219 646 L219 100 L149 70 L149 24 L149 0 L219 0 L284 0 L284 0 Z " />
<glyph glyph-name="tcaron" unicode="&#x165;" horiz-adv-x="317" d="M242 760 L245 610 L330 610 L367 760 L242 760 L242 760 Z M287 520 L192 520 L192 751 L77 655 L77 520 L10 520 L10 430 L77 430 L77 145 C77 47 91 0 182 0 L287 0 L287 94 L232 94 C197 94 192 111 192 145 L192 430 L287 430 L287 520 L287 520 Z " />
<glyph glyph-name="Utilde" unicode="&#x168;" horiz-adv-x="773" d="M318 820 C318 858 327 890 337 890 C378 890 381 810 444 810 C496 810 540 884 540 970 L455 970 C455 932 446 900 436 900 C396 900 393 980 329 980 C277 980 233 906 233 820 L318 820 L318 820 Z M115 650 L115 289 C115 112 225 -10 387 -10 C548 -10 658 112 658 289 L658 650 L728 681 L728 726 L728 750 L658 750 L594 750 L530 750 L460 750 L460 726 L460 681 L530 650 L530 312 C530 191 472 109 387 109 C301 109 243 191 243 312 L243 650 L313 681 L313 726 L313 750 L243 750 L179 750 L115 750 L45 750 L45 726 L45 681 L115 650 L115 650 Z " />
<glyph glyph-name="utilde" unicode="&#x169;" horiz-adv-x="592" d="M225 600 C225 638 234 670 244 670 C285 670 288 590 352 590 C404 590 448 664 448 750 L363 750 C363 712 354 680 344 680 C303 680 300 760 236 760 C184 760 140 686 140 600 L225 600 L225 600 Z M488 100 L488 520 L430 520 L373 520 L302 520 L302 496 L302 451 L373 420 L373 210 C373 147 332 94 283 94 C235 94 215 137 215 200 L215 520 L158 520 L100 520 L30 520 L30 496 L30 451 L100 420 L100 200 C100 75 144 -10 247 -10 C298 -10 344 27 373 83 L373 10 L373 0 L430 0 L488 0 L558 0 L558 24 L558 70 L488 100 L488 100 Z " />
<glyph glyph-name="Umacron" unicode="&#x16a;" horiz-adv-x="773" d="M266 820 L507 820 L507 900 L266 900 L266 820 L266 820 Z M115 650 L115 289 C115 112 225 -10 387 -10 C548 -10 658 112 658 289 L658 650 L728 681 L728 726 L728 750 L658 750 L594 750 L530 750 L460 750 L460 726 L460 681 L530 650 L530 312 C530 191 472 109 387 109 C301 109 243 191 243 312 L243 650 L313 681 L313 726 L313 750 L243 750 L179 750 L115 750 L45 750 L45 726 L45 681 L115 650 L115 650 Z " />
<glyph glyph-name="umacron" unicode="&#x16b;" horiz-adv-x="592" d="M173 600 L414 600 L414 680 L173 680 L173 600 L173 600 Z M488 100 L488 520 L430 520 L373 520 L302 520 L302 496 L302 451 L373 420 L373 210 C373 147 332 94 283 94 C235 94 215 137 215 200 L215 520 L158 520 L100 520 L30 520 L30 496 L30 451 L100 420 L100 200 C100 75 144 -10 247 -10 C298 -10 344 27 373 83 L373 10 L373 0 L430 0 L488 0 L558 0 L558 24 L558 70 L488 100 L488 100 Z " />
<glyph glyph-name="Ubreve" unicode="&#x16c;" horiz-adv-x="773" d="M254 955 C254 877 315 810 387 810 C459 810 520 877 520 955 L435 955 C435 920 413 890 387 890 C361 890 339 920 339 955 L254 955 L254 955 Z M115 650 L115 289 C115 112 225 -10 387 -10 C548 -10 658 112 658 289 L658 650 L728 681 L728 726 L728 750 L658 750 L594 750 L530 750 L460 750 L460 726 L460 681 L530 650 L530 312 C530 191 472 109 387 109 C301 109 243 191 243 312 L243 650 L313 681 L313 726 L313 750 L243 750 L179 750 L115 750 L45 750 L45 726 L45 681 L115 650 L115 650 Z " />
<glyph glyph-name="ubreve" unicode="&#x16d;" horiz-adv-x="592" d="M161 735 C161 657 222 590 294 590 C366 590 427 657 427 735 L342 735 C342 700 320 670 294 670 C268 670 246 700 246 735 L161 735 L161 735 Z M488 100 L488 520 L430 520 L373 520 L302 520 L302 496 L302 451 L373 420 L373 210 C373 147 332 94 283 94 C235 94 215 137 215 200 L215 520 L158 520 L100 520 L30 520 L30 496 L30 451 L100 420 L100 200 C100 75 144 -10 247 -10 C298 -10 344 27 373 83 L373 10 L373 0 L430 0 L488 0 L558 0 L558 24 L558 70 L488 100 L488 100 Z " />
<glyph glyph-name="Uring" unicode="&#x16e;" horiz-adv-x="773" d="M387 873 C370 873 358 886 358 905 C358 923 370 937 387 937 C403 937 416 923 416 905 C416 886 404 873 387 873 L387 873 Z M301 905 C301 855 336 820 387 820 C438 820 473 855 473 905 C473 953 436 990 387 990 C338 990 301 953 301 905 L301 905 Z M115 650 L115 289 C115 112 225 -10 387 -10 C548 -10 658 112 658 289 L658 650 L728 681 L728 726 L728 750 L658 750 L594 750 L530 750 L460 750 L460 726 L460 681 L530 650 L530 312 C530 191 472 109 387 109 C301 109 243 191 243 312 L243 650 L313 681 L313 726 L313 750 L243 750 L179 750 L115 750 L45 750 L45 726 L45 681 L115 650 L115 650 Z " />
<glyph glyph-name="uring" unicode="&#x16f;" horiz-adv-x="592" d="M294 653 C277 653 265 666 265 685 C265 703 278 717 294 717 C310 717 323 703 323 685 C323 666 311 653 294 653 L294 653 Z M208 685 C208 635 243 600 294 600 C345 600 380 635 380 685 C380 733 343 770 294 770 C245 770 208 733 208 685 L208 685 Z M488 100 L488 520 L430 520 L373 520 L302 520 L302 496 L302 451 L373 420 L373 210 C373 147 332 94 283 94 C235 94 215 137 215 200 L215 520 L158 520 L100 520 L30 520 L30 496 L30 451 L100 420 L100 200 C100 75 144 -10 247 -10 C298 -10 344 27 373 83 L373 10 L373 0 L430 0 L488 0 L558 0 L558 24 L558 70 L488 100 L488 100 Z " />
<glyph glyph-name="Wcircumflex" unicode="&#x174;" horiz-adv-x="934" d="M468 890 L524 830 L629 830 L526 980 L410 980 L307 830 L412 830 L468 890 L468 890 Z M101 650 L102 650 L230 0 L239 0 L353 0 L467 484 L578 0 L588 0 L702 0 L835 650 L911 681 L911 724 L911 750 L855 750 L786 750 L717 750 L647 750 L647 726 L647 681 L700 650 L637 284 L530 750 L406 750 L302 284 L237 650 L237 650 L289 681 C290 680 290 701 289 726 C290 739 290 750 289 750 L219 750 L150 750 L82 750 L25 750 L25 724 L25 681 L101 650 L101 650 Z " />
<glyph glyph-name="Ycircumflex" unicode="&#x176;" horiz-adv-x="668" d="M338 890 L394 830 L499 830 L396 980 L280 980 L177 830 L282 830 L338 890 L338 890 Z M445 650 L445 650 L338 443 L231 650 L231 650 L249 681 L249 726 L249 750 L179 750 L116 750 L52 750 L19 750 L19 720 L19 681 L105 650 L274 330 L274 100 L204 70 L204 24 L204 0 L274 0 L338 0 L402 0 L472 0 L472 24 L472 70 L402 100 L402 330 L571 650 L657 681 L657 720 L657 750 L624 750 L560 750 L497 750 L427 750 C428 750 428 739 427 726 C428 701 428 680 427 681 L445 650 L445 650 Z " />
<glyph glyph-name="Ydieresis" unicode="&#x178;" horiz-adv-x="668" d="M353 830 L478 830 L478 955 L353 955 L353 830 L353 830 Z M198 830 L323 830 L323 955 L198 955 L198 830 L198 830 Z M445 650 L445 650 L338 443 L231 650 L231 650 L249 681 L249 726 L249 750 L179 750 L116 750 L52 750 L19 750 L19 720 L19 681 L105 650 L274 330 L274 100 L204 70 L204 24 L204 0 L274 0 L338 0 L402 0 L472 0 L472 24 L472 70 L402 100 L402 330 L571 650 L657 681 L657 720 L657 750 L624 750 L560 750 L497 750 L427 750 C428 750 428 739 427 726 C428 701 428 680 427 681 L445 650 L445 650 Z " />
<glyph glyph-name="Zacute" unicode="&#x179;" horiz-adv-x="627" d="M269 830 L374 830 L461 980 L311 980 L269 830 L269 830 Z M582 52 L582 105 L582 175 L558 175 L513 175 L482 105 L200 105 L582 646 L582 750 L60 750 L60 698 L60 646 L60 575 L84 575 L130 575 L160 646 L427 646 L45 105 L45 0 L582 0 L582 52 L582 52 Z " />
<glyph glyph-name="zacute" unicode="&#x17a;" horiz-adv-x="432" d="M176 600 L281 600 L368 750 L218 750 L176 600 L176 600 Z M45 520 L45 475 L45 430 L45 360 L69 360 L115 360 L145 430 L251 430 L30 70 L30 0 L154 0 L412 0 L412 45 L412 90 L412 160 L388 160 L343 160 L312 90 L169 90 L396 450 L396 520 L274 520 L45 520 L45 520 Z " />
<glyph glyph-name="Zdot" unicode="&#x17b;" horiz-adv-x="627" d="M259 830 L384 830 L384 955 L259 955 L259 830 L259 830 Z M582 52 L582 105 L582 175 L558 175 L513 175 L482 105 L200 105 L582 646 L582 750 L60 750 L60 698 L60 646 L60 575 L84 575 L130 575 L160 646 L427 646 L45 105 L45 0 L582 0 L582 52 L582 52 Z " />
<glyph glyph-name="zdot" unicode="&#x17c;" horiz-adv-x="432" d="M166 600 L291 600 L291 725 L166 725 L166 600 L166 600 Z M45 520 L45 475 L45 430 L45 360 L69 360 L115 360 L145 430 L251 430 L30 70 L30 0 L154 0 L412 0 L412 45 L412 90 L412 160 L388 160 L343 160 L312 90 L169 90 L396 450 L396 520 L274 520 L45 520 L45 520 Z " />
<glyph glyph-name="Zcaron" unicode="&#x17d;" horiz-adv-x="627" d="M321 920 L377 980 L482 980 L379 830 L263 830 L160 980 L265 980 L321 920 L321 920 Z M582 52 L582 105 L582 175 L558 175 L513 175 L482 105 L200 105 L582 646 L582 750 L60 750 L60 698 L60 646 L60 575 L84 575 L130 575 L160 646 L427 646 L45 105 L45 0 L582 0 L582 52 L582 52 Z " />
<glyph glyph-name="zcaron" unicode="&#x17e;" horiz-adv-x="432" d="M229 690 L284 750 L389 750 L287 600 L171 600 L68 750 L173 750 L229 690 L229 690 Z M45 520 L45 475 L45 430 L45 360 L69 360 L115 360 L145 430 L251 430 L30 70 L30 0 L154 0 L412 0 L412 45 L412 90 L412 160 L388 160 L343 160 L312 90 L169 90 L396 450 L396 520 L274 520 L45 520 L45 520 Z " />
<glyph glyph-name="oogonek" unicode="&#x1eb;" horiz-adv-x="734" d="M60 298 C60 132 202 -10 370 -10 C409 -10 447 -2 482 12 L550 -90 L628 -36 L563 60 C633 117 679 204 679 298 C679 457 528 607 370 607 C211 607 60 457 60 298 L60 298 Z M426 95 C408 88 389 84 370 84 C269 84 184 183 184 298 C184 408 274 513 370 513 C465 513 555 408 555 298 C555 242 535 189 502 150 L454 221 L377 168 L426 95 L426 95 Z " />
<glyph glyph-name="Adotabove" unicode="&#x226;" horiz-adv-x="767" d="M326 830 L451 830 L451 955 L326 955 L326 830 L326 830 Z M113 0 L181 0 L251 0 L251 24 L251 70 L216 100 L231 143 L536 143 L551 100 L516 70 L516 24 L516 0 L586 0 L654 0 L722 0 L767 0 L767 28 L767 70 L686 100 L455 750 L445 750 L380 750 L323 750 L316 750 L246 750 L246 726 L246 681 L280 650 L81 100 L81 100 L0 70 L0 28 L0 0 L45 0 L113 0 L113 0 Z M266 242 L384 576 L518 193 L501 241 L266 242 L266 242 Z " />
<glyph glyph-name="G_sc" unicode="&#x262;" horiz-adv-x="692" d="M346 252 L537 252 L537 148 C495 114 429 84 385 84 C274 84 179 183 179 298 C179 414 274 513 385 513 C469 513 546 447 553 370 L637 441 L637 511 L608 511 C564 567 477 607 384 607 C206 607 54 465 54 298 C54 132 206 -10 384 -10 C468 -10 581 37 646 92 L646 346 L345 346 L346 252 L346 252 Z " />
<glyph glyph-name="I_sc" unicode="&#x26a;" horiz-adv-x="364" d="M187 0 L245 0 L315 0 L315 24 L315 70 L245 100 L245 497 L315 527 L315 573 L315 597 C296 596 270 596 245 596 L245 597 L187 597 L129 597 L129 596 C104 596 78 596 59 597 L59 573 L59 527 L129 497 L129 100 L59 70 L59 24 L59 0 L129 0 L187 0 L187 0 Z " />
<glyph glyph-name="N_sc" unicode="&#x274;" horiz-adv-x="699" d="M464 596 C439 596 413 596 394 597 L394 573 L394 527 L464 497 L464 163 L245 597 L241 597 L183 597 L125 597 L125 596 C100 596 74 596 55 597 L55 573 L55 527 L125 497 L125 100 L55 70 L55 24 L55 0 L125 0 L183 0 L241 0 L311 0 C310 0 310 11 311 24 C310 49 310 70 311 70 L241 100 L241 367 L426 0 L464 0 L546 0 L579 0 L579 497 L650 527 L650 573 L650 597 C631 596 605 596 579 596 L579 597 L522 597 L464 597 L464 596 L464 596 Z " />
<glyph glyph-name="R_sc" unicode="&#x280;" horiz-adv-x="614" d="M498 100 L498 100 L388 251 C484 275 545 336 545 418 C545 524 443 597 295 597 L242 597 L184 597 L155 597 L126 597 L126 596 C101 596 75 596 56 597 L56 573 L56 527 L126 497 L126 100 L56 70 L56 24 L56 0 L126 0 L184 0 L242 0 L312 0 C311 0 311 11 312 24 C311 49 311 70 312 70 L242 100 L242 240 L264 240 L439 0 L506 0 L572 0 L591 0 L591 32 L591 70 L498 100 L498 100 Z M242 330 L242 507 L290 507 C373 507 430 471 430 418 C430 366 377 330 299 330 L242 330 L242 330 Z " />
<glyph glyph-name="Y_sc" unicode="&#x28f;" horiz-adv-x="616" d="M251 497 L252 497 L252 497 L252 498 L251 497 L251 497 Z M252 498 L247 528 L247 574 L247 598 C229 597 203 597 178 597 L177 598 L116 598 L54 598 L54 597 C48 597 42 597 37 597 L37 565 L37 527 L130 497 L256 330 L256 100 L185 70 L185 24 L185 0 L256 0 L313 0 L371 0 L441 0 L441 24 L441 70 L371 100 L371 330 L497 497 L497 497 L590 527 C589 527 589 544 590 565 C589 582 589 596 590 597 C585 597 579 597 572 597 L572 598 L511 598 L449 598 L448 597 C423 597 398 597 379 598 L379 574 L379 528 L374 498 L313 417 L253 497 C253 494 256 484 258 472 L253 498 L253 498 L252 498 L252 498 Z " />
<glyph glyph-name="B_sc" unicode="&#x299;" horiz-adv-x="680" d="M478 319 C536 344 576 389 576 439 C576 541 493 596 341 596 L242 596 L184 596 L126 596 L126 595 C101 595 75 595 56 596 L56 572 L56 526 L126 496 L126 99 L56 69 L56 23 L56 -1 L126 -1 L184 -1 L242 -1 L411 -1 C564 -1 647 59 647 171 C647 243 573 305 479 318 L478 319 L478 319 Z M242 343 L242 506 L346 506 C418 506 457 479 457 430 C457 383 395 343 323 343 L242 343 L242 343 Z M242 89 L242 257 L365 257 C450 257 522 223 522 184 C522 122 472 89 379 89 L242 89 L242 89 Z " />
<glyph glyph-name="H_sc" unicode="&#x29c;" horiz-adv-x="737" d="M560 0 L618 0 L688 0 L688 24 L688 70 L618 100 L618 497 L688 527 L688 573 L688 597 C669 596 643 596 618 596 L618 597 L560 597 L503 597 L503 596 C477 596 451 596 432 597 L432 573 L432 527 L503 497 L503 325 L241 325 L241 497 L311 527 C310 527 310 548 311 573 C310 585 310 596 311 597 C292 596 266 596 241 596 L241 597 L183 597 L125 597 L125 596 C100 596 74 596 55 597 L55 573 L55 527 L125 497 L125 100 L55 70 L55 24 L55 0 L125 0 L183 0 L241 0 L311 0 C310 0 310 11 311 24 C310 49 310 70 311 70 L241 100 L241 231 L503 231 L503 100 L432 70 L432 24 L432 0 L503 0 L560 0 L560 0 Z " />
<glyph glyph-name="L_sc" unicode="&#x29f;" horiz-adv-x="555" d="M490 47 L490 94 L490 164 L466 164 L421 164 L390 94 L245 94 L245 497 L315 527 L315 573 L315 597 C296 596 270 596 245 596 L245 597 L187 597 L129 597 L129 596 C104 596 78 596 59 597 L59 573 L59 527 L129 497 L129 100 L59 70 L59 24 L59 0 L129 0 L187 0 L245 0 L490 0 L490 47 L490 47 Z " />
<glyph glyph-name="A_sc" unicode="&#x1d00;" horiz-adv-x="715" d="M629 100 L628 100 L422 597 L412 597 L355 597 L306 597 L299 597 L299 596 C274 596 248 596 229 597 L229 573 L229 527 L257 497 L257 497 L91 100 L8 70 L8 29 L8 0 L49 0 L109 0 L168 0 L238 0 L238 24 L238 70 L209 100 L209 100 L216 118 L211 105 L509 105 L511 100 L482 70 L482 24 L482 0 L552 0 L611 0 L670 0 L711 0 L711 29 L711 70 L629 100 L629 100 Z M246 192 L359 468 L473 192 L246 192 L246 192 Z " />
<glyph glyph-name="C_sc" unicode="&#x1d04;" horiz-adv-x="635" d="M531 226 C531 149 450 84 355 84 C260 84 179 194 179 298 C179 403 260 513 355 513 C444 513 525 447 531 370 L616 441 L616 511 L586 511 C569 533 545 552 517 567 C517 568 517 568 517 568 L517 568 C472 593 416 608 357 608 C195 608 57 449 57 299 C57 149 195 -9 357 -9 C498 -9 618 67 618 156 L531 226 L531 226 Z " />
<glyph glyph-name="D_sc" unicode="&#x1d05;" horiz-adv-x="720" d="M183 0 L241 0 L345 0 C541 0 666 116 666 298 C666 476 524 597 315 597 L241 597 L183 597 L125 597 L125 596 C100 596 74 596 55 597 L55 573 L55 527 L125 497 L125 100 L55 70 L55 24 L55 0 L125 0 L183 0 L183 0 Z M241 90 L241 507 L320 507 C452 507 542 422 542 298 C542 171 462 89 338 89 C311 89 267 90 241 90 L241 90 Z " />
<glyph glyph-name="E_sc" unicode="&#x1d07;" horiz-adv-x="585" d="M536 47 L536 94 L536 164 L512 164 L466 164 L436 94 L241 94 L241 241 L401 241 L431 171 L477 171 L501 171 L501 241 L501 286 L501 331 L501 401 L477 401 L431 401 L401 331 L241 331 L241 503 L421 503 L451 433 L497 433 L521 433 L521 503 L521 550 L521 597 L241 597 L240 597 L183 597 L125 597 L125 596 C100 596 74 596 55 597 L55 573 L55 527 L125 497 L125 100 L55 70 L55 24 L55 0 L125 0 L183 0 L240 0 L241 0 L536 0 L536 47 L536 47 Z " />
<glyph glyph-name="J_sc" unicode="&#x1d0a;" horiz-adv-x="472" d="M52 280 L52 217 C52 76 116 -10 220 -10 C320 -10 388 75 388 175 L388 497 L458 527 L458 573 L458 597 C439 596 413 596 388 596 L388 597 L330 597 L272 597 L272 596 C247 596 221 596 202 597 L202 573 L202 527 L272 497 L272 175 C272 133 251 97 220 97 C187 97 167 155 167 250 L168 300 L52 280 L52 280 Z " />
<glyph glyph-name="K_sc" unicode="&#x1d0b;" horiz-adv-x="588" d="M520 100 L520 100 L356 381 L274 289 L389 100 L389 100 L380 70 L380 24 L380 0 L450 0 L514 0 L578 0 L608 0 L608 30 L608 70 L520 100 L520 100 Z M550 597 L550 597 L484 597 L418 597 L417 596 C392 596 367 596 348 597 C349 596 349 585 348 573 C349 548 349 527 348 527 L331 497 L206 354 L206 497 L276 527 C275 527 275 548 276 573 C275 585 275 596 276 597 C257 596 231 596 206 596 L206 597 L148 597 L90 597 L90 596 C65 596 39 596 20 597 L20 573 L20 527 L90 497 L90 100 L20 70 L20 24 L20 0 L90 0 L148 0 L206 0 L276 0 C275 0 275 11 276 24 C275 49 275 70 276 70 L206 100 L206 214 L460 497 L558 527 L558 563 L558 597 C555 597 552 597 549 597 L550 597 L550 597 Z " />
<glyph glyph-name="M_sc" unicode="&#x1d0d;" horiz-adv-x="881" d="M706 0 L762 0 L832 0 C831 0 831 11 832 24 C831 49 831 70 832 70 L762 100 L762 497 L832 527 C831 527 831 548 832 573 C831 585 831 596 832 597 C813 596 787 596 762 596 L762 597 L706 597 L688 597 L650 597 L581 597 L443 160 L302 597 L237 597 L195 597 L182 597 L126 597 L126 596 C101 596 75 596 56 597 L56 573 L56 527 L126 497 L126 100 L56 70 L56 24 L56 0 L126 0 L182 0 L237 0 L307 0 C308 0 308 11 307 24 C308 49 308 70 307 70 L237 100 L237 470 L393 0 L495 0 L650 479 L650 100 L580 70 L580 24 L580 0 L650 0 L706 0 L706 0 Z " />
<glyph glyph-name="O_sc" unicode="&#x1d0f;" horiz-adv-x="734" d="M370 84 C269 84 184 183 184 298 C184 408 274 513 370 513 C465 513 555 408 555 298 C555 183 470 84 370 84 L370 84 Z M60 298 C60 132 202 -10 370 -10 C537 -10 679 132 679 298 C679 457 528 607 370 607 C211 607 60 457 60 298 L60 298 Z " />
<glyph glyph-name="P_sc" unicode="&#x1d18;" horiz-adv-x="579" d="M183 0 L241 0 L311 0 C310 0 310 11 311 24 C310 49 310 70 311 70 L241 100 L241 225 L294 225 C442 225 544 303 544 418 C544 524 442 597 294 597 L241 597 L183 597 L154 597 L125 597 L125 596 C100 596 74 596 55 597 L55 573 L55 527 L125 497 L125 100 L55 70 L55 24 L55 0 L125 0 L183 0 L183 0 Z M241 315 L241 507 L289 507 C372 507 429 471 429 418 C429 357 376 315 299 315 L241 315 L241 315 Z " />
<glyph glyph-name="T_sc" unicode="&#x1d1b;" horiz-adv-x="515" d="M258 0 L315 0 L385 0 C386 0 386 11 385 24 C386 49 386 70 385 70 L315 100 L315 503 L405 503 L436 433 L481 433 L505 433 L505 503 L505 550 L505 597 L315 597 L200 597 L10 597 L10 550 L10 503 L10 433 L34 433 L80 433 L110 503 L200 503 L200 100 L130 70 L130 24 L130 0 L200 0 L258 0 L258 0 Z " />
<glyph glyph-name="U_sc" unicode="&#x1d1c;" horiz-adv-x="708" d="M118 596 C93 596 67 596 48 597 L48 573 L48 527 L118 497 L118 230 C118 87 215 -10 356 -10 C497 -10 594 87 594 230 L594 497 L664 527 L664 573 L664 597 C645 596 619 596 594 596 L594 597 L536 597 L478 597 L478 596 C453 596 427 596 408 597 L408 573 L408 527 L478 497 L478 250 C478 159 428 97 356 97 C284 97 234 159 234 250 L234 497 L304 527 C303 527 303 548 304 573 C303 585 303 596 304 597 C285 596 259 596 234 596 L234 597 L176 597 L118 597 L118 596 L118 596 Z " />
<glyph glyph-name="V_sc" unicode="&#x1d20;" horiz-adv-x="679" d="M119 497 L119 497 L289 0 L293 0 L396 0 L400 0 L566 497 L566 497 L646 527 L646 569 L646 597 C633 597 616 597 599 597 L599 598 L537 598 L475 598 L475 597 C450 597 424 597 405 598 C406 597 406 586 405 574 C406 549 406 528 405 528 L445 498 L344 167 L240 498 L279 528 L279 574 L279 598 C260 597 234 597 209 597 L209 598 L147 598 L85 598 L85 597 C68 597 51 597 38 597 L38 569 L38 527 L119 497 L119 497 Z " />
<glyph glyph-name="W_sc" unicode="&#x1d21;" horiz-adv-x="869" d="M766 497 L766 497 L843 527 L843 570 L843 597 C828 597 808 597 788 597 L788 598 L726 598 L664 598 L664 597 C639 597 613 597 594 598 C595 597 595 586 594 574 C595 549 595 528 594 528 L644 498 L590 224 L492 597 L381 597 L285 223 L229 497 L229 497 L278 527 L278 573 L278 597 C259 596 233 596 208 596 L208 597 L146 597 L84 597 L84 596 C64 596 44 596 29 596 L29 569 L29 526 L106 496 L219 -1 L227 -1 L330 -1 L435 388 L537 -1 L545 -1 L648 -1 L766 497 L766 497 Z " />
<glyph glyph-name="Z_sc" unicode="&#x1d22;" horiz-adv-x="575" d="M530 47 L530 94 L530 164 L506 164 L461 164 L430 94 L182 94 L530 503 L530 597 L60 597 L60 550 L60 503 L60 433 L84 433 L130 433 L160 503 L393 503 L45 94 L45 0 L530 0 L530 47 L530 47 Z " />
<glyph glyph-name="Wgrave" unicode="&#x1e80;" horiz-adv-x="934" d="M416 830 L521 830 L479 980 L329 980 L416 830 L416 830 Z M101 650 L102 650 L230 0 L239 0 L353 0 L467 484 L578 0 L588 0 L702 0 L835 650 L911 681 L911 724 L911 750 L855 750 L786 750 L717 750 L647 750 L647 726 L647 681 L700 650 L637 284 L530 750 L406 750 L302 284 L237 650 L237 650 L289 681 C290 680 290 701 289 726 C290 739 290 750 289 750 L219 750 L150 750 L82 750 L25 750 L25 724 L25 681 L101 650 L101 650 Z " />
<glyph glyph-name="Wacute" unicode="&#x1e82;" horiz-adv-x="934" d="M416 830 L521 830 L608 980 L458 980 L416 830 L416 830 Z M101 650 L102 650 L230 0 L239 0 L353 0 L467 484 L578 0 L588 0 L702 0 L835 650 L911 681 L911 724 L911 750 L855 750 L786 750 L717 750 L647 750 L647 726 L647 681 L700 650 L637 284 L530 750 L406 750 L302 284 L237 650 L237 650 L289 681 C290 680 290 701 289 726 C290 739 290 750 289 750 L219 750 L150 750 L82 750 L25 750 L25 724 L25 681 L101 650 L101 650 Z " />
<glyph glyph-name="Wdieresis" unicode="&#x1e84;" horiz-adv-x="934" d="M483 830 L608 830 L608 955 L483 955 L483 830 L483 830 Z M328 830 L453 830 L453 955 L328 955 L328 830 L328 830 Z M101 650 L102 650 L230 0 L239 0 L353 0 L467 484 L578 0 L588 0 L702 0 L835 650 L911 681 L911 724 L911 750 L855 750 L786 750 L717 750 L647 750 L647 726 L647 681 L700 650 L637 284 L530 750 L406 750 L302 284 L237 650 L237 650 L289 681 C290 680 290 701 289 726 C290 739 290 750 289 750 L219 750 L150 750 L82 750 L25 750 L25 724 L25 681 L101 650 L101 650 Z " />
<glyph glyph-name="Etilde" unicode="&#x1ebc;" horiz-adv-x="647" d="M283 830 C283 868 292 900 302 900 C343 900 346 820 410 820 C462 820 506 894 506 980 L421 980 C421 942 412 910 402 910 C361 910 358 990 294 990 C242 990 198 916 198 830 L283 830 L283 830 Z M597 52 L597 105 L597 175 L573 175 L528 175 L497 105 L250 105 L250 310 L462 310 L493 240 L538 240 L562 240 L562 310 L562 360 L562 409 L562 480 L538 480 L493 480 L462 409 L250 409 L250 646 L482 646 L513 575 L558 575 L582 575 L582 646 L582 698 L582 750 L250 750 L249 750 L186 750 L122 750 L52 750 L52 726 L52 681 L122 650 L122 100 L52 70 L52 24 L52 0 L122 0 L186 0 L249 0 L250 0 L597 0 L597 52 L597 52 Z " />
<glyph glyph-name="Ygrave" unicode="&#x1ef2;" horiz-adv-x="668" d="M286 830 L391 830 L349 980 L199 980 L286 830 L286 830 Z M445 650 L445 650 L338 443 L231 650 L231 650 L249 681 L249 726 L249 750 L179 750 L116 750 L52 750 L19 750 L19 720 L19 681 L105 650 L274 330 L274 100 L204 70 L204 24 L204 0 L274 0 L338 0 L402 0 L472 0 L472 24 L472 70 L402 100 L402 330 L571 650 L657 681 L657 720 L657 750 L624 750 L560 750 L497 750 L427 750 C428 750 428 739 427 726 C428 701 428 680 427 681 L445 650 L445 650 Z " />
<glyph glyph-name="endash" unicode="&#x2013;" horiz-adv-x="382" d="M5 216 L377 216 L377 311 L5 311 L5 216 L5 216 Z " />
<glyph glyph-name="emdash" unicode="&#x2014;" horiz-adv-x="672" d="M50 216 L622 216 L622 311 L50 311 L50 216 L50 216 Z " />
<glyph glyph-name="quoteleft" unicode="&#x2018;" horiz-adv-x="225" d="M175 760 C94 760 50 705 50 640 L50 515 L175 515 L175 640 L125 640 C125 672 143 700 175 700 L175 760 L175 760 Z " />
<glyph glyph-name="quoteright" unicode="&#x2019;" horiz-adv-x="225" d="M113 760 L113 635 L163 635 C163 596 145 575 113 575 L113 515 C194 515 238 557 238 635 L238 760 L113 760 L113 760 Z " />
<glyph glyph-name="quotedblleft" unicode="&#x201c;" horiz-adv-x="475" d="M425 760 C344 760 300 705 300 640 L300 515 L425 515 L425 640 L375 640 C375 672 393 700 425 700 L425 760 L425 760 Z M238 760 C157 760 113 705 113 640 L113 515 L238 515 L238 640 L188 640 C188 672 205 700 238 700 L238 760 L238 760 Z " />
<glyph glyph-name="quotedblright" unicode="&#x201d;" horiz-adv-x="475" d="M300 760 L300 635 L350 635 C350 596 332 575 300 575 L300 515 C381 515 425 557 425 635 L425 760 L300 760 L300 760 Z M113 760 L113 635 L163 635 C163 596 145 575 113 575 L113 515 C194 515 238 557 238 635 L238 760 L113 760 L113 760 Z " />
<glyph glyph-name="dagger" unicode="&#x2020;" horiz-adv-x="575" d="M515 580 L345 580 L345 750 L230 750 L230 580 L60 580 L60 480 L230 480 L230 -50 L345 -50 L345 480 L515 480 L515 580 L515 580 Z " />
<glyph glyph-name="daggerdbl" unicode="&#x2021;" horiz-adv-x="575" d="M60 120 L230 120 L230 -50 L345 -50 L345 120 L515 120 L515 220 L345 220 L345 480 L515 480 L515 580 L345 580 L345 750 L230 750 L230 580 L60 580 L60 480 L230 480 L230 220 L60 220 L60 120 L60 120 Z " />
<glyph glyph-name="bullet" unicode="&#x2022;" horiz-adv-x="225" d="M34 198 L191 198 L191 354 L34 354 L34 198 L34 198 Z " />
<glyph glyph-name="ellipsis" unicode="&#x2026;" horiz-adv-x="625" d="M450 0 L575 0 L575 125 L450 125 L450 0 L450 0 Z M250 0 L375 0 L375 125 L250 125 L250 0 L250 0 Z M50 0 L175 0 L175 125 L50 125 L50 0 L50 0 Z " />
<glyph glyph-name="perthousand" unicode="&#x2030;" horiz-adv-x="726" d="M859 140 C859 91 839 50 811 50 C782 50 762 91 762 140 C762 189 782 230 811 230 C839 230 859 189 859 140 L859 140 Z M811 -10 C878 -10 924 59 924 140 C924 221 878 290 811 290 C743 290 697 221 697 140 C697 59 743 -10 811 -10 L811 -10 Z M602 140 C602 91 582 50 554 50 C525 50 505 91 505 140 C505 189 525 230 554 230 C582 230 602 189 602 140 L602 140 Z M554 -10 C621 -10 667 59 667 140 C667 221 621 290 554 290 C486 290 440 221 440 140 C440 59 486 -10 554 -10 L554 -10 Z M124 610 C124 659 144 700 173 700 C202 700 222 659 222 610 C222 561 202 520 173 520 C144 520 124 561 124 610 L124 610 Z M173 760 C105 760 59 691 59 610 C59 529 105 460 173 460 C241 460 287 529 287 610 C287 691 241 760 173 760 L173 760 Z M147 0 L187 0 L579 750 L539 750 L147 0 L147 0 Z " />
<glyph glyph-name="guilsinglleft" unicode="&#x2039;" horiz-adv-x="245" d="M170 470 L50 260 L170 50 L270 50 L150 260 L270 470 L170 470 L170 470 Z " />
<glyph glyph-name="guilsinglright" unicode="&#x203a;" horiz-adv-x="245" d="M50 470 L170 260 L50 50 L150 50 L270 260 L150 470 L50 470 L50 470 Z " />
<glyph glyph-name="fraction" unicode="&#x2044;" horiz-adv-x="580" d="M60 0 L100 0 L520 750 L480 750 L60 0 L60 0 Z " />
<glyph glyph-name="Euro" unicode="&#x20ac;" horiz-adv-x="686" d="M-7 281 L64 281 C103 127 232 -10 380 -10 C534 -10 665 65 665 153 L571 232 C571 158 483 95 380 95 C300 95 230 180 202 281 L410 281 L419 345 L190 345 C189 355 189 365 189 375 C189 385 189 395 190 405 L419 405 L428 469 L202 469 C230 571 301 656 381 656 C478 656 566 592 572 518 L666 597 C658 685 527 760 381 760 C233 760 104 623 65 469 L12 469 L3 405 L54 405 C53 395 53 385 53 375 C53 365 53 355 54 345 L3 345 L-7 281 L-7 281 Z " />
<glyph glyph-name="minus" unicode="&#x2212;" horiz-adv-x="587" d="M50 228 L537 228 L537 298 L50 298 L50 228 L50 228 Z " />
<glyph glyph-name="divisionslash" unicode="&#x2215;" horiz-adv-x="460" d="M0 0 L40 0 L460 750 L420 750 L0 0 L0 0 Z " />
<glyph glyph-name="bulletoperator" unicode="&#x2219;" horiz-adv-x="225" d="M50 198 L175 198 L175 323 L50 323 L50 198 L50 198 Z " />
<glyph glyph-name="F_sc" unicode="&#xa730;" horiz-adv-x="550" d="M391 241 L421 171 L467 171 L491 171 L491 241 L491 286 L491 331 L491 401 L467 401 L421 401 L391 331 L241 331 L241 503 L421 503 L451 433 L497 433 L521 433 L521 503 L521 550 L521 597 L241 597 L240 597 L183 597 L125 597 L125 596 C100 596 74 596 55 597 L55 573 L55 527 L125 497 L125 100 L55 70 L55 24 L55 0 L125 0 L183 0 L241 0 L311 0 C310 0 310 11 311 24 C310 49 310 70 311 70 L241 100 L241 241 L391 241 L391 241 Z " />
<glyph glyph-name="S_sc" unicode="&#xa731;" horiz-adv-x="532" d="M139 23 C139 22 139 22 139 22 L139 22 C181 1 232 -11 287 -11 C412 -11 498 70 498 166 C498 262 410 343 280 364 C208 377 159 410 159 446 C159 477 196 503 238 503 C302 503 370 460 389 398 L430 435 L471 472 L471 542 L436 542 L423 542 C377 582 307 606 237 606 C130 606 39 527 39 433 C39 344 124 269 248 248 C327 234 381 199 381 162 C381 123 342 90 286 90 C205 90 137 147 137 230 L38 162 L38 92 L58 92 C75 63 103 39 138 22 L139 23 L139 23 Z " />
<glyph glyph-name="X_sc" unicode="&#xf078;" horiz-adv-x="680" d="M407 497 L408 497 L353 411 L302 497 L302 497 L313 527 L313 573 L313 597 C294 596 268 596 243 596 L243 597 L183 597 L123 597 L123 596 C112 596 102 596 94 596 L94 565 L94 526 L182 496 L290 313 L153 99 L153 99 L63 69 L63 30 L63 -1 L89 -1 L155 -1 L222 -1 L292 -1 L292 23 L292 69 L286 99 L354 205 L416 100 L416 100 L405 70 L405 24 L405 0 L475 0 L535 0 L595 0 L624 0 L624 30 L624 70 L536 100 L416 303 L540 497 L540 497 L629 527 L629 566 L629 597 C622 597 613 597 604 597 L604 598 L537 598 L471 598 L471 597 C446 597 421 597 402 598 C401 597 401 586 402 574 C401 549 401 528 402 528 L407 497 L407 497 Z " />
</font>
</svg>
