<?xml version="1.0" encoding="UTF-8"?>
<svg xmlns="http://www.w3.org/2000/svg" xmlns:xlink="http://www.w3.org/1999/xlink" version="1.2" >
<font id="Janecia- Light">
<font-face  font-family="Janecia-" units-per-em="1024" ascent="975" descent="-300" font-style="normal" font-weight="300" font-stretch="normal" cap-height="750" x-height="500" underline-position="-125" underline-thickness="50" />
<missing-glyph  horiz-adv-x="650" d="" />
<glyph glyph-name="NULL" d="" />
<glyph glyph-name="CR" unicode="&#xd;" horiz-adv-x="256" d="" />
<glyph glyph-name="space" unicode="&#x20;" horiz-adv-x="250" d="" />
<glyph glyph-name="exclam" unicode="&#x21;" horiz-adv-x="201" d="M101 -5 C111 -5 136 20 136 30 C136 40 111 66 101 66 C90 66 65 40 65 30 C65 20 90 -5 101 -5 L101 -5 Z M101 755 C87 755 69 695 70 671 L96 210 L105 210 L131 671 C133 695 114 755 101 755 L101 755 Z " />
<glyph glyph-name="quotedbl" unicode="&#x22;" horiz-adv-x="294" d="M201 755 C193 755 178 722 179 709 L199 549 L206 549 L225 709 C227 722 211 755 204 755 L201 755 L201 755 Z M91 755 C83 755 68 722 69 709 L89 549 L96 549 L115 709 C117 722 101 755 94 755 L91 755 L91 755 Z " />
<glyph glyph-name="numbersign" unicode="&#x23;" horiz-adv-x="526" d="M390 681 L361 479 L206 479 L235 681 L232 681 L204 479 L64 479 L59 441 L198 441 L167 219 L25 219 L19 181 L162 181 L136 0 L138 0 L164 181 L319 181 L293 0 L296 0 L322 181 L456 181 L461 219 L327 219 L359 441 L501 441 L506 479 L364 479 L393 681 L390 681 L390 681 Z M201 441 L356 441 L324 219 L169 219 L201 441 L201 441 Z " />
<glyph glyph-name="dollar" unicode="&#x24;" horiz-adv-x="545" d="M305 825 L305 743 C280 753 259 760 246 760 C245 760 244 760 243 760 L243 825 L225 825 L225 754 C169 729 73 623 73 577 C73 548 156 449 225 389 L225 26 C218 30 211 34 204 38 L204 38 C174 57 78 195 72 219 C71 226 67 241 67 241 L59 241 L52 241 L52 148 L52 122 L52 3 L59 3 L67 3 C67 3 71 29 72 39 C74 54 135 72 156 58 L157 58 C179 43 202 29 223 18 L223 -75 L241 -75 L241 9 C266 -3 287 -10 300 -10 C301 -10 302 -10 303 -10 L303 -75 L321 -75 L321 -5 C387 19 503 133 503 181 C503 219 382 369 321 402 L321 714 C372 667 436 592 441 572 C443 565 446 550 446 550 L454 550 L461 550 L461 643 L461 654 L461 758 L454 758 L446 758 C446 758 443 737 441 729 C439 718 395 697 380 706 L379 706 C360 717 340 727 321 736 L321 826 L305 825 L305 825 Z M274 751 C273 752 272 753 271 754 C280 751 290 747 301 742 L274 751 L274 751 Z M276 753 C284 749 294 742 305 732 L305 413 C287 423 265 439 243 458 L243 759 C244 759 245 759 246 759 C252 759 261 757 272 753 L272 753 C273 753 274 752 275 751 L276 753 L276 753 Z M242 374 C258 362 272 352 284 346 C290 343 297 339 304 334 L304 -7 C303 -7 302 -7 301 -7 C289 -7 268 2 243 16 L242 374 L242 374 Z M323 322 C382 276 460 189 460 166 C460 124 376 26 323 0 L323 322 L323 322 Z M225 473 C170 522 117 581 117 598 C117 637 182 724 225 750 L225 473 L225 473 Z " />
<glyph glyph-name="ampersand" unicode="&#x26;" horiz-adv-x="840" d="M311 471 L316 466 C360 479 468 584 468 613 C468 655 359 760 315 760 C269 760 153 648 153 603 C153 585 250 449 289 404 L474 188 C390 103 308 37 274 37 C225 37 101 166 101 217 C101 267 212 425 256 439 L247 442 C190 424 49 253 49 202 C49 142 189 -9 245 -9 C285 -9 384 75 483 178 L550 100 C577 69 684 -9 700 -9 C732 -9 825 104 831 149 L822 152 C818 118 745 32 721 32 C708 32 617 99 594 126 L518 215 C613 319 700 434 725 501 L713 501 C689 436 602 323 510 225 L334 431 C295 476 198 612 198 631 C198 664 282 749 316 749 C348 749 428 654 428 617 C428 586 345 483 312 472 L311 471 L311 471 Z " />
<glyph glyph-name="quotesingle" unicode="&#x27;" horiz-adv-x="184" d="M91 755 C83 755 68 722 69 709 L89 549 L96 549 L115 709 C117 722 101 755 94 755 L91 755 L91 755 Z " />
<glyph glyph-name="parenleft" unicode="&#x28;" horiz-adv-x="317" d="M333 760 C264 705 90 357 90 273 C90 189 264 -159 333 -214 L337 -209 C277 -161 125 184 125 273 C125 362 277 706 337 754 L333 760 L333 760 Z " />
<glyph glyph-name="parenright" unicode="&#x29;" horiz-adv-x="306" d="M-25 755 C34 705 182 361 182 273 C182 182 34 -166 -25 -214 L-20 -220 C48 -164 217 188 217 273 C217 355 48 704 -20 760 L-25 755 L-25 755 Z " />
<glyph glyph-name="asterisk" unicode="&#x2a;" horiz-adv-x="268" d="M150 630 L165 750 C166 755 155 769 150 769 C145 769 134 755 135 750 L150 630 L150 630 Z M150 630 L246 557 C251 553 268 556 271 560 C273 565 267 581 262 583 L150 630 L150 630 Z M150 630 L54 703 C49 707 32 704 29 700 C27 695 33 679 38 677 L150 630 L150 630 Z M150 630 L262 677 C267 679 273 695 271 700 C268 704 251 707 246 703 L150 630 L150 630 Z M150 630 L38 583 C33 581 27 565 29 560 C32 556 49 553 54 557 L150 630 L150 630 Z M150 630 L135 510 C134 505 145 491 150 491 C155 491 166 505 165 510 L150 630 L150 630 Z " />
<glyph glyph-name="plus" unicode="&#x2b;" horiz-adv-x="620" d="M291 460 L291 268 L100 268 L100 232 L291 232 L291 40 L329 40 L329 232 L520 232 L520 268 L329 268 L329 460 L291 460 L291 460 Z " />
<glyph glyph-name="comma" unicode="&#x2c;" horiz-adv-x="225" d="M125 -5 C130 -5 140 2 148 10 C145 -15 103 -80 87 -85 L90 -95 C113 -88 173 -8 173 17 C173 31 139 66 125 66 C115 66 90 40 90 30 C90 20 115 -5 125 -5 L125 -5 Z " />
<glyph glyph-name="hyphen" unicode="&#x2d;" horiz-adv-x="430" d="M80 265 L350 265 L350 305 L80 305 L80 265 L80 265 Z " />
<glyph glyph-name="period" unicode="&#x2e;" horiz-adv-x="225" d="M125 -5 C135 -5 160 20 160 30 C160 40 135 66 125 66 C115 66 90 40 90 30 C90 20 115 -5 125 -5 L125 -5 Z " />
<glyph glyph-name="slash" unicode="&#x2f;" horiz-adv-x="378" d="M319 770 L37 -80 L67 -80 L349 770 L319 770 L319 770 Z " />
<glyph glyph-name="zero" unicode="0" horiz-adv-x="605" d="M305 11 C245 11 73 182 73 250 C73 311 239 489 305 489 C365 489 537 318 537 250 C537 189 371 11 305 11 L305 11 Z M49 250 C49 176 239 -10 305 -10 C378 -10 561 183 561 250 C561 324 371 510 305 510 C232 510 49 317 49 250 L49 250 Z " />
<glyph glyph-name="one" unicode="1" horiz-adv-x="330" d="M190 35 L190 465 C190 471 240 480 260 480 L290 480 L290 490 L290 500 L165 500 L40 500 L40 490 L40 480 L70 480 C90 480 140 471 140 465 L140 35 C140 29 90 20 70 20 L40 20 L40 10 L40 0 L165 0 L290 0 L290 10 L290 20 L260 20 C240 20 190 29 190 35 L190 35 Z " />
<glyph glyph-name="two" unicode="2" horiz-adv-x="527" d="M56 291 C66 343 194 472 234 472 C275 472 377 371 377 331 C377 277 119 54 30 9 L30 0 L317 0 L397 0 L425 0 C428 5 439 22 447 35 L452 44 L452 44 C454 47 455 49 456 50 C461 58 484 95 488 102 C488 102 483 104 480 105 C478 106 472 108 472 108 L453 78 C447 68 365 43 322 43 L104 43 L70 23 C194 102 426 295 426 342 C426 390 307 509 259 509 C210 509 56 354 44 293 L56 291 L56 291 Z " />
<glyph glyph-name="three" unicode="3" horiz-adv-x="408" d="M18 -222 L20 -232 C119 -221 369 -57 369 -2 C369 39 199 167 132 176 L127 173 C219 226 374 351 374 384 C374 420 261 510 215 510 C171 510 34 396 23 351 L34 348 C42 384 157 475 195 475 C231 475 320 398 320 367 C320 331 158 193 94 166 L94 156 C158 147 317 24 317 -17 C317 -66 104 -213 19 -222 L18 -222 L18 -222 Z " />
<glyph glyph-name="four" unicode="4" horiz-adv-x="620" d="M470 38 L415 38 L415 443 L415 530 L409 530 L15 9 L15 0 L32 0 L365 0 L365 -220 L415 -220 L415 0 L515 0 C539 0 572 -18 571 -25 L567 -55 L577 -55 L587 -55 C589 -44 597 13 598 24 C600 35 608 92 610 103 L600 103 L590 103 L585 73 C584 63 514 38 470 38 L470 38 Z M61 38 L365 443 L365 39 L61 39 L61 38 L61 38 Z " />
<glyph glyph-name="five" unicode="5" horiz-adv-x="427" d="M60 -232 C157 -221 398 -21 398 47 C398 110 180 268 93 268 L83 268 L121 455 L340 457 C341 462 347 492 348 498 L355 540 L345 540 L335 540 L333 527 C331 519 268 500 228 500 L112 500 L57 223 L66 215 L88 215 C164 215 354 83 354 30 C354 -32 143 -213 59 -223 L60 -232 L60 -232 Z " />
<glyph glyph-name="six" unicode="6" horiz-adv-x="558" d="M541 750 C401 720 50 389 50 287 C50 202 218 -10 285 -10 C348 -10 506 168 506 239 C506 303 339 461 273 461 C243 461 188 418 146 371 C239 517 447 723 543 744 L541 750 L541 750 Z M100 261 C100 318 223 459 272 459 C324 459 456 305 456 243 C456 172 334 -7 285 -7 C232 -7 100 185 100 261 L100 261 Z " />
<glyph glyph-name="seven" unicode="7" horiz-adv-x="437" d="M145 500 C124 500 100 518 104 525 L110 540 L100 540 L90 540 C86 530 62 478 58 467 C53 457 30 405 25 395 L35 395 L45 395 L54 415 C60 427 104 460 124 460 L414 460 L426 475 L115 -220 L153 -220 L433 485 L433 500 L432 500 L145 500 L145 500 Z " />
<glyph glyph-name="eight" unicode="8" horiz-adv-x="542" d="M237 386 C244 381 251 377 257 375 C316 352 464 216 464 165 C464 116 328 -8 274 -8 C222 -8 91 122 91 174 C91 216 185 349 237 387 L237 386 L237 386 Z M234 389 C168 349 46 213 46 175 C46 123 209 -9 273 -9 C339 -9 502 132 502 189 C502 239 373 366 299 411 C363 449 476 566 476 598 C476 645 330 761 272 761 C215 761 72 635 72 584 C72 548 174 432 235 389 L234 389 L234 389 Z M297 412 C289 417 282 421 276 423 C229 442 112 567 112 603 C112 647 227 759 272 759 C318 759 433 641 433 594 C433 559 347 448 297 412 L297 412 Z " />
<glyph glyph-name="nine" unicode="9" horiz-adv-x="558" d="M17 -250 C157 -220 508 111 508 213 C508 298 340 510 273 510 C210 510 52 332 52 261 C52 197 219 39 285 39 C315 39 370 82 412 129 C319 -17 111 -223 15 -244 L17 -250 L17 -250 Z M458 239 C458 182 335 41 286 41 C234 41 102 195 102 257 C102 328 224 507 273 507 C326 507 458 315 458 239 L458 239 Z " />
<glyph glyph-name="colon" unicode="&#x3a;" horiz-adv-x="225" d="M125 434 C135 434 160 460 160 470 C160 480 135 505 125 505 C115 505 90 480 90 470 C90 460 115 434 125 434 L125 434 Z M125 -5 C135 -5 160 20 160 30 C160 40 135 66 125 66 C115 66 90 40 90 30 C90 20 115 -5 125 -5 L125 -5 Z " />
<glyph glyph-name="semicolon" unicode="&#x3b;" horiz-adv-x="245" d="M125 385 C135 385 160 410 160 420 C160 430 135 456 125 456 C115 456 90 430 90 420 C90 410 115 385 125 385 L125 385 Z M140 -5 C145 -5 155 2 163 10 C160 -15 118 -80 102 -85 L105 -95 C128 -88 188 -8 188 17 C188 31 154 66 140 66 C130 66 105 40 105 30 C105 20 130 -5 140 -5 L140 -5 Z " />
<glyph glyph-name="equal" unicode="&#x3d;" horiz-adv-x="527" d="M78 211 L78 189 L458 189 L458 211 L78 211 L78 211 Z M78 311 L78 289 L458 289 L458 311 L78 311 L78 311 Z " />
<glyph glyph-name="question" unicode="&#x3f;" horiz-adv-x="304" d="M125 -5 C135 -5 160 20 160 30 C160 40 135 66 125 66 C115 66 90 40 90 30 C90 20 115 -5 125 -5 L125 -5 Z M121 175 L125 360 C165 360 263 426 281 453 C289 465 309 536 309 553 C309 612 192 760 145 760 C132 760 98 734 98 723 C98 716 117 698 125 698 C131 698 157 707 163 707 C201 707 295 593 295 547 C295 537 277 487 270 476 C257 458 158 410 108 410 L113 175 L121 175 L121 175 Z " />
<glyph glyph-name="at" unicode="&#x40;" horiz-adv-x="1139" d="M1044 0 C1012 -68 679 -239 577 -239 C440 -239 94 117 94 259 C94 401 434 757 570 757 C706 757 1046 461 1046 343 C1046 246 908 4 852 4 C796 4 688 144 702 200 L772 480 L725 480 L699 377 C680 421 607 491 575 491 C496 491 298 282 298 198 C298 146 421 14 470 14 C508 14 623 112 657 169 C678 99 785 -12 843 -12 C912 -12 1084 243 1084 344 C1084 466 716 771 570 771 C423 771 55 406 55 260 C55 114 429 -251 577 -251 C682 -251 1027 -71 1061 1 L1044 0 L1044 0 Z M694 356 L655 201 C643 156 530 42 496 42 C455 42 352 160 352 208 C352 284 510 477 574 477 C608 477 693 390 693 356 L694 356 L694 356 Z " />
<glyph glyph-name="A" unicode="A" horiz-adv-x="739" d="M240 296 L497 296 L544 140 L544 140 C559 92 505 20 476 20 L451 20 L451 10 L451 0 L586 0 L593 0 L645 0 L734 0 L734 10 L734 20 L704 20 C686 20 625 84 605 132 L423 733 L411 771 L405 771 C398 761 370 734 367 733 L370 723 L197 164 C174 104 78 21 49 21 L19 21 L19 11 L19 1 L147 1 L150 1 L167 1 L315 1 L315 11 L315 21 L291 21 C254 21 188 106 201 166 L240 296 L240 296 Z M242 300 L372 721 L498 300 L242 300 L242 300 Z " />
<glyph glyph-name="B" unicode="B" horiz-adv-x="628" d="M212 748 L294 748 C380 748 517 616 517 563 C517 513 370 386 312 386 L212 386 L212 665 L212 748 L212 748 Z M330 386 C413 403 573 520 573 569 C573 621 403 750 297 750 L212 750 L131 750 L51 750 L51 740 L51 730 L81 730 C102 730 156 691 156 665 L156 85 C156 59 102 20 81 20 L51 20 L51 10 L51 0 L131 0 L212 0 L332 0 C405 0 588 119 588 193 C588 248 423 386 357 386 L330 386 L330 386 Z M312 384 L351 384 C402 384 527 247 527 193 C527 119 386 2 330 2 L280 2 C260 2 212 58 212 80 L212 85 L212 384 L312 384 L312 384 Z " />
<glyph glyph-name="C" unicode="C" horiz-adv-x="703" d="M498 38 L498 38 C448 12 398 -8 373 -8 C302 -8 123 266 123 375 C123 484 310 758 384 758 C404 758 436 746 471 729 L467 730 C508 711 631 576 636 552 C638 546 641 531 641 531 L649 531 L656 531 L656 627 L656 636 L656 742 L649 742 L641 742 C641 742 638 721 636 713 C634 703 568 693 539 703 C481 733 417 759 382 759 C291 759 61 484 61 374 C61 264 283 -11 372 -11 C405 -11 472 15 533 45 L533 45 C558 57 631 44 634 32 C637 23 642 2 642 2 L648 2 L654 2 L654 110 L654 121 L654 217 L647 217 L639 217 C639 217 636 202 634 196 C629 175 529 54 496 37 L498 38 L498 38 Z " />
<glyph glyph-name="D" unicode="D" horiz-adv-x="796" d="M146 665 L146 85 C146 59 92 20 71 20 L41 20 L41 10 L41 0 L121 0 L146 0 L202 0 L282 0 C413 0 742 257 742 375 C742 482 453 750 322 750 L202 750 L146 750 L121 750 L41 750 L41 740 L41 730 L71 730 C92 730 146 691 146 665 L146 665 Z M202 748 L315 748 C430 748 681 481 681 375 C681 258 394 2 279 2 C246 2 202 58 202 80 L202 85 L202 665 L202 748 L202 748 Z " />
<glyph glyph-name="E" unicode="E" horiz-adv-x="663" d="M471 0 L591 0 C592 9 599 54 600 63 C601 72 608 118 609 127 L599 127 L589 127 L585 97 C581 70 511 2 471 2 L292 2 C258 2 212 58 212 80 L212 85 L212 385 L383 385 C423 385 483 306 483 275 L483 245 L493 245 L503 245 L503 385 L503 386 L503 387 L503 527 L493 527 L483 527 L483 497 C483 466 423 387 383 387 L212 387 L212 665 L212 748 L449 748 C497 748 554 672 557 641 L558 623 L568 623 L578 623 C577 632 574 678 573 687 C573 696 570 741 569 750 L449 750 L212 750 L156 750 L131 750 L51 750 L51 740 L51 730 L81 730 C102 730 156 691 156 665 L156 85 C156 59 102 20 81 20 L51 20 L51 10 L51 0 L131 0 L156 0 L212 0 L471 0 L471 0 Z " />
<glyph glyph-name="F" unicode="F" horiz-adv-x="641" d="M395 383 C433 371 484 311 487 286 L491 240 L497 240 L503 240 L503 383 L503 384 L503 385 L503 528 L497 528 L491 528 L487 483 C484 455 421 385 383 385 L212 385 L212 665 L212 749 L369 749 C441 749 555 681 557 654 L560 624 C560 624 567 625 570 625 C573 625 580 626 580 626 C579 635 575 679 574 688 C574 697 570 741 569 750 L449 750 L212 750 L156 750 L131 750 L51 750 L51 740 L51 730 L81 730 C102 730 156 691 156 665 L156 85 C156 59 102 20 81 20 L51 20 L51 10 L51 0 L156 0 L184 0 L212 0 L317 0 L317 10 L317 20 L287 20 C266 20 212 59 212 85 L212 383 L395 383 L395 383 Z " />
<glyph glyph-name="G" unicode="G" horiz-adv-x="780" d="M582 245 L584 32 L584 32 L583 90 C583 69 477 21 411 8 L523 21 C467 11 413 4 383 4 C309 4 124 269 124 375 C124 484 311 758 385 758 C405 758 437 746 472 729 L468 730 C509 711 632 576 637 552 C639 546 642 531 642 531 L650 531 L657 531 L657 627 L657 636 L657 742 L650 742 L642 742 C642 742 639 721 637 713 C635 703 569 693 540 703 C482 733 418 759 383 759 C292 759 62 484 62 374 C62 264 287 -11 377 -11 C443 -11 669 41 713 62 L713 63 C702 58 674 50 638 42 L638 244 C638 268 678 304 693 304 L723 304 L723 314 L723 324 L603 324 L482 324 L482 314 L482 304 L512 304 C532 304 582 268 582 244 L582 245 L582 245 Z M411 6 C400 4 390 3 382 3 L411 6 L411 6 Z " />
<glyph glyph-name="H" unicode="H" horiz-adv-x="814" d="M670 80 L670 670 C670 694 723 730 745 730 L775 730 L775 740 L775 750 L642 750 L509 750 L509 740 L509 730 L539 730 C560 730 614 694 614 670 L614 384 L202 384 L202 670 C202 694 255 730 277 730 L307 730 L307 740 L307 750 L174 750 L41 750 L41 740 L41 730 L71 730 C92 730 146 694 146 670 L146 80 C146 56 92 20 71 20 L41 20 L41 10 L41 0 L174 0 L307 0 L307 10 L307 20 L277 20 C255 20 202 56 202 80 L202 382 L614 382 L614 80 C614 56 560 20 539 20 L509 20 L509 10 L509 0 L642 0 L775 0 L775 10 L775 20 L745 20 C723 20 670 56 670 80 L670 80 Z " />
<glyph glyph-name="I" unicode="I" horiz-adv-x="362" d="M218 80 L218 670 C218 694 272 730 293 730 L323 730 L323 740 L323 750 L190 750 L57 750 L57 740 L57 730 L87 730 C108 730 162 694 162 670 L162 80 C162 56 108 20 87 20 L57 20 L57 10 L57 0 L190 0 L323 0 L323 10 L323 20 L293 20 C272 20 218 56 218 80 L218 80 Z " />
<glyph glyph-name="J" unicode="J" horiz-adv-x="362" d="M162 670 L162 -31 C162 -105 64 -217 39 -217 C26 -217 8 -170 -5 -170 C-12 -170 -31 -189 -31 -196 C-31 -203 18 -220 37 -220 C73 -220 218 -43 218 75 L218 670 C218 694 272 730 293 730 L323 730 L323 740 L323 750 L190 750 L57 750 L57 740 L57 730 L87 730 C108 730 162 694 162 670 L162 670 Z " />
<glyph glyph-name="K" unicode="K" horiz-adv-x="713" d="M551 85 L551 85 L256 410 L459 646 C494 682 579 730 597 730 L627 730 L627 740 L627 750 L549 750 L527 750 L507 750 L387 750 L387 740 L387 730 L409 730 C438 730 449 658 409 610 L410 611 L212 375 L212 690 C212 706 266 730 287 730 L317 730 L317 740 L317 750 L212 750 L184 750 L156 750 L51 750 L51 740 L51 730 L81 730 C102 730 156 706 156 690 L156 60 C156 44 102 20 81 20 L51 20 L51 10 L51 0 L156 0 L184 0 L212 0 L317 0 L317 10 L317 20 L287 20 C266 20 212 44 212 60 L212 375 L478 85 L478 85 C485 77 493 68 501 60 L556 0 L625 0 L628 0 L695 0 L695 10 L695 20 L657 20 C644 20 565 69 551 85 L551 85 Z " />
<glyph glyph-name="L" unicode="L" horiz-adv-x="672" d="M597 1 C600 13 616 71 619 82 C622 94 637 152 640 163 C640 163 634 164 631 165 C628 165 621 166 621 166 L613 136 C603 98 478 1 412 1 L298 1 C264 1 218 57 218 80 L218 85 L218 665 C218 691 272 730 293 730 L323 730 L323 740 L323 750 L218 750 L190 750 L162 750 L57 750 L57 740 L57 730 L87 730 C108 730 162 691 162 665 L162 85 C162 59 108 20 87 20 L57 20 L57 10 L57 0 L138 0 L162 0 L218 0 L597 0 L597 1 L597 1 Z " />
<glyph glyph-name="M" unicode="M" horiz-adv-x="860" d="M760 85 L760 85 L745 580 L745 580 C744 640 795 730 816 730 L845 730 L845 740 L845 750 L766 750 L740 750 L707 750 L687 750 L454 69 L455 73 L202 750 L170 750 L157 750 L135 750 L120 750 L38 750 L38 740 L38 730 L68 730 C85 730 131 706 155 683 L139 150 L139 150 C138 98 68 20 41 20 L11 20 L11 10 L11 0 L135 0 L145 0 L155 0 L280 0 L280 10 L280 20 L250 20 C223 20 156 92 158 140 L158 140 L169 665 L403 72 L432 -1 L446 -1 L689 696 L705 84 L704 84 C705 58 651 19 629 19 L599 19 L599 9 L599 -1 L707 -1 L732 -1 L762 -1 L865 -1 L865 9 L865 19 L835 19 C814 19 761 58 760 84 L760 85 L760 85 Z " />
<glyph glyph-name="N" unicode="N" horiz-adv-x="765" d="M169 750 L155 750 L142 750 L108 750 L99 750 L48 750 L48 740 L48 730 L85 730 C93 730 127 709 136 695 L136 695 L142 686 L141 150 L141 150 C141 98 73 20 46 20 L16 20 L16 10 L16 0 L141 0 L149 0 L158 0 L283 0 L283 10 L283 20 L253 20 C226 20 163 85 157 133 L155 667 L551 80 L605 1 L616 1 L619 636 C625 676 688 731 714 731 L744 731 L744 741 L744 751 L620 751 L612 751 L603 751 L479 751 L479 741 L479 731 L509 731 C535 731 596 677 603 637 L604 101 L597 111 L169 750 L169 750 Z " />
<glyph glyph-name="O" unicode="O" horiz-adv-x="845" d="M407 -8 C324 -8 116 266 116 375 C116 484 331 758 416 758 C505 758 727 484 727 375 C727 266 498 -8 407 -8 L407 -8 Z M52 375 C52 265 305 -10 406 -10 C516 -10 791 265 791 375 C791 485 523 760 416 760 C313 760 52 485 52 375 L52 375 Z " />
<glyph glyph-name="P" unicode="P" horiz-adv-x="630" d="M198 0 L226 0 L331 0 L331 10 L331 20 L301 20 C280 20 226 59 226 85 L226 353 L341 353 C418 353 610 479 610 541 C610 600 428 750 355 750 L226 750 L170 750 L145 750 L65 750 L65 740 L65 730 L95 730 C116 730 170 691 170 665 L170 85 C170 59 116 20 95 20 L65 20 L65 10 L65 0 L170 0 L198 0 L198 0 Z M226 365 L226 665 L226 741 C242 741 324 740 341 740 C403 740 558 604 558 550 C558 489 403 365 341 365 L226 365 L226 365 Z " />
<glyph glyph-name="Q" unicode="Q" horiz-adv-x="850" d="M1150 -54 L1149 -53 C1136 -65 923 -94 852 -94 C773 -94 505 -41 419 -10 C530 -4 799 266 799 375 C799 485 531 760 425 760 C321 760 60 485 60 375 C60 285 262 85 364 15 L362 16 C364 15 366 14 368 13 C389 -1 405 -9 414 -9 C415 -9 416 -9 417 -9 C534 -57 781 -128 845 -128 C907 -128 1125 -74 1150 -53 L1150 -54 L1150 -54 Z M416 -7 C415 -7 414 -7 413 -7 C408 -5 404 -3 401 -1 C333 39 125 276 125 376 C125 485 340 759 425 759 C514 759 736 485 736 376 C736 267 507 -7 416 -7 L416 -7 Z " />
<glyph glyph-name="R" unicode="R" horiz-adv-x="748" d="M738 0 L738 11 C687 11 600 49 579 80 C526 157 403 339 378 376 C467 406 598 493 598 540 C598 600 416 750 343 750 L212 750 L131 750 L51 750 L51 740 L51 730 L81 730 C102 730 156 691 156 665 L156 85 C156 59 102 20 81 20 L51 20 L51 10 L51 0 L184 0 L317 0 L317 10 L317 20 L287 20 C266 20 212 59 212 85 L212 366 L325 366 C348 329 465 152 514 80 C539 44 662 0 739 0 L738 0 L738 0 Z M213 739 L328 739 C388 739 538 605 538 551 C538 495 388 380 328 380 L213 380 L213 665 L213 739 L213 739 Z " />
<glyph glyph-name="S" unicode="S" horiz-adv-x="545" d="M381 705 L380 705 C330 734 271 760 245 760 C196 760 72 629 72 577 C72 539 217 377 284 346 C339 320 459 193 459 165 C459 116 346 -7 300 -7 C282 -7 244 12 204 38 L204 38 C174 57 78 195 72 219 C71 226 67 241 67 241 L59 241 L52 241 L52 148 L52 122 L52 3 L59 3 L67 3 C67 3 71 29 72 39 C74 54 135 72 156 58 L157 58 C213 22 275 -9 301 -9 C359 -9 505 128 505 182 C505 221 377 378 318 405 C255 434 117 571 117 599 C117 645 209 759 246 759 C252 759 261 757 272 753 L272 753 C273 753 274 752 275 751 C274 752 273 753 272 754 C281 751 291 747 302 742 L277 753 C320 732 436 601 443 574 C445 567 448 552 448 552 L456 552 L463 552 L463 645 L463 656 L463 760 L456 760 L448 760 C448 760 445 739 443 731 C441 720 397 699 382 708 L381 705 L381 705 Z " />
<glyph glyph-name="T" unicode="T" horiz-adv-x="775" d="M720 736 L720 750 L715 750 C709 767 703 784 701 790 C701 790 693 790 691 791 L680 791 L685 778 C688 770 635 751 595 751 L415 751 L360 751 L180 751 C140 751 87 770 90 778 L95 791 L84 791 C82 790 74 790 74 790 C72 785 66 768 60 751 L55 751 L55 737 C51 726 48 716 47 712 C43 701 23 645 19 634 C19 634 25 633 28 633 C31 633 38 632 38 632 L49 662 C56 683 136 737 176 737 L361 737 L361 81 C361 57 307 21 286 21 L256 21 L256 11 L256 1 L389 1 L521 1 L521 11 L521 21 L491 21 C470 21 416 57 416 81 L416 737 L601 737 C641 737 721 683 728 662 L739 632 C739 632 746 633 749 633 C752 633 758 634 758 634 C754 645 734 701 730 712 C729 716 726 726 722 737 L720 736 L720 736 Z " />
<glyph glyph-name="U" unicode="U" horiz-adv-x="777" d="M663 665 L663 750 L582 750 L502 750 L502 740 L502 730 L532 730 C553 730 607 691 607 665 L607 175 C587 132 367 26 299 26 C261 26 167 165 167 220 L167 665 L167 750 L86 750 L6 750 L6 740 L6 730 L36 730 C57 730 111 691 111 665 L111 220 C111 154 229 -10 277 -10 C349 -10 585 104 607 150 L607 110 L607 0 L616 0 L767 55 L767 65 C725 63 663 89 663 110 L663 665 L663 665 Z " />
<glyph glyph-name="V" unicode="V" horiz-adv-x="786" d="M105 690 L323 75 L353 -10 L364 -10 L600 617 C622 665 690 730 707 730 L737 730 L737 740 L737 750 L650 750 L628 750 L600 750 L463 750 L463 740 L463 730 L486 730 C524 730 594 658 577 610 L577 610 L384 75 L197 610 L197 610 C180 658 251 730 290 730 L313 730 L313 740 L313 750 L170 750 L148 750 L84 750 L26 750 L26 740 L26 730 L63 730 C71 730 100 706 105 690 L105 690 Z " />
<glyph glyph-name="W" unicode="W" horiz-adv-x="1124" d="M522 690 L582 500 L582 500 L397 71 L222 613 C211 661 267 730 299 730 L323 730 L323 740 L323 750 L191 750 L178 750 L117 750 L58 750 L58 740 L58 730 L95 730 C103 730 146 658 162 610 L162 610 L336 71 L362 -10 L377 -10 L590 474 L715 81 L743 -10 L758 -10 L945 610 L945 610 C959 658 1027 730 1046 730 L1076 730 L1076 740 L1076 750 L987 750 L964 750 L938 750 L799 750 L799 740 L799 730 L824 730 C860 730 930 665 925 617 L769 81 L599 642 C593 678 656 729 688 729 L712 729 L712 739 L712 749 L567 749 L563 749 L502 749 L414 749 L414 739 L414 729 L444 729 C462 729 516 705 521 689 L522 690 L522 690 Z " />
<glyph glyph-name="X" unicode="X" horiz-adv-x="825" d="M600 140 L600 140 L436 403 L578 600 C624 658 709 730 725 730 L756 730 L756 740 L756 750 L686 750 L661 750 L641 750 L526 750 L526 740 L526 730 L549 730 C577 730 596 652 562 600 L562 600 L434 406 L304 615 C278 663 297 731 321 731 L345 731 L345 741 L345 751 L220 751 L218 751 L154 751 L91 751 L91 741 L91 731 L125 731 C136 731 211 659 241 611 L241 611 L395 364 L224 117 C192 77 103 21 83 21 L53 21 L53 11 L53 1 L144 1 L167 1 L202 1 L352 1 L352 11 L352 21 L329 21 C288 21 237 91 261 143 L401 353 L536 137 C562 89 543 21 519 21 L495 21 L495 11 L495 1 L620 1 L627 1 L686 1 L759 1 L759 11 L759 21 L728 21 C713 21 629 93 599 141 L600 140 L600 140 Z " />
<glyph glyph-name="Y" unicode="Y" horiz-adv-x="753" d="M240 610 L240 610 C213 658 221 730 240 730 L265 730 L265 740 L265 750 L160 750 L153 750 L95 750 L41 750 L41 740 L41 730 L78 730 C86 730 142 665 172 617 L338 329 L338 80 C338 56 285 20 263 20 L233 20 L233 10 L233 0 L366 0 L499 0 L499 10 L499 20 L469 20 C448 20 394 56 394 80 L394 339 L545 618 C575 666 645 730 659 730 L690 730 L690 740 L690 750 L616 750 L611 750 L598 750 L506 750 L506 740 L506 730 L532 730 C550 730 565 669 544 625 L393 341 L240 610 L240 610 Z " />
<glyph glyph-name="Z" unicode="Z" horiz-adv-x="700" d="M134 0 L494 0 L654 0 L675 84 L696 168 C696 168 689 169 686 169 C684 170 677 171 677 171 L660 127 C648 96 554 23 505 17 L143 13 L658 738 L658 750 L603 750 L288 750 L118 750 C116 737 107 672 105 659 C103 646 94 581 92 568 C92 568 102 567 105 567 C109 566 118 565 118 565 L124 595 C132 635 233 735 286 735 L286 735 L594 737 L73 11 L73 -1 L134 0 L134 0 Z " />
<glyph glyph-name="bracketleft" unicode="&#x5b;" horiz-adv-x="285" d="M125 735 L335 735 L335 750 L125 750 L108 750 L108 -195 L125 -195 L335 -195 L335 -180 L125 -180 L125 735 L125 735 Z " />
<glyph glyph-name="backslash" unicode="&#x5c;" horiz-adv-x="336" d="M37 770 L297 -80 L327 -80 L67 770 L37 770 L37 770 Z " />
<glyph glyph-name="bracketright" unicode="&#x5d;" horiz-adv-x="288" d="M161 735 L161 -180 L-49 -180 L-49 -195 L161 -195 L178 -195 L178 750 L161 750 L-49 750 L-49 735 L161 735 L161 735 Z " />
<glyph glyph-name="underscore" unicode="&#x5f;" horiz-adv-x="455" d="M5 -50 L5 -78 L450 -78 L450 -50 L5 -50 L5 -50 Z " />
<glyph glyph-name="a" unicode="a" horiz-adv-x="503" d="M514 77 L503 83 C501 68 461 31 448 31 C432 31 391 67 391 81 L391 358 C391 408 293 510 254 510 C200 510 65 386 65 360 C65 350 83 325 90 325 C100 325 123 345 123 350 C123 357 103 386 103 392 C103 412 209 508 251 508 C277 508 341 420 341 377 L341 266 C225 229 45 120 45 80 C45 55 127 -10 159 -10 C181 -10 297 51 342 88 L342 81 C342 57 404 -5 429 -5 C449 -5 511 54 515 77 L514 77 L514 77 Z M342 264 L342 90 C306 62 208 17 187 17 C161 17 96 66 96 86 C96 129 245 232 342 264 L342 264 Z " />
<glyph glyph-name="b" unicode="b" horiz-adv-x="651" d="M164 0 L166 0 L182 66 L182 65 C200 44 341 -10 379 -10 C444 -10 607 177 607 251 C607 324 436 505 367 505 C343 505 244 445 214 414 L214 650 L214 750 L205 750 L79 714 L79 704 L79 694 L109 702 C124 707 164 670 164 638 L164 195 L164 0 L164 0 Z M214 407 C242 436 331 490 352 490 C408 490 550 315 550 246 C550 174 429 -4 381 -4 C351 -4 231 49 214 70 L214 195 L214 407 L214 407 Z " />
<glyph glyph-name="c" unicode="c" horiz-adv-x="509" d="M480 128 L473 131 C455 92 317 -5 279 -5 C226 -5 94 188 94 264 C94 334 245 508 306 508 C331 508 422 434 433 405 C435 398 453 380 458 380 C467 380 485 398 483 405 C472 435 345 510 306 510 C231 510 44 316 44 239 C44 168 210 -10 276 -10 C316 -10 462 89 480 128 L480 128 Z " />
<glyph glyph-name="d" unicode="d" horiz-adv-x="593" d="M464 90 C440 66 337 16 309 16 C251 16 105 196 105 267 C105 332 253 495 321 495 C346 495 441 422 463 390 L463 110 L464 90 L464 90 Z M463 73 L463 -10 L472 -10 L598 21 L598 31 L598 41 L568 34 C552 30 513 80 513 120 L513 665 L513 750 L504 750 L378 714 L378 704 L378 694 L408 702 C423 707 463 679 463 653 L463 431 C419 465 341 510 315 510 C233 510 54 327 54 254 C54 180 222 -5 288 -5 C321 -5 438 48 463 73 L463 73 Z " />
<glyph glyph-name="e" unicode="e" horiz-adv-x="527" d="M127 340 L442 340 L483 340 L497 340 C486 398 344 510 296 510 C224 510 42 313 42 235 C42 165 209 -10 276 -10 C321 -10 471 92 486 133 L480 136 C465 95 321 -5 277 -5 C225 -5 95 181 95 255 C95 276 108 307 127 340 L127 340 Z M442 342 L128 342 C174 420 256 508 296 508 C328 508 429 400 442 342 L442 342 Z " />
<glyph glyph-name="f" unicode="f" horiz-adv-x="332" d="M170 474 L323 474 L323 500 L170 500 C170 568 250 740 287 740 C323 740 365 635 395 635 C408 635 440 667 440 680 C440 701 343 755 305 755 C247 755 120 573 120 500 L5 479 L5 474 L120 474 L120 35 C120 29 81 20 65 20 L35 20 L35 10 L35 0 L145 0 L255 0 L255 10 L255 20 L225 20 C209 20 170 29 170 35 L170 474 L170 474 Z " />
<glyph glyph-name="g" unicode="g" horiz-adv-x="520" d="M125 350 C125 392 215 498 251 498 C286 498 376 392 376 350 C376 307 286 200 251 200 C215 200 125 307 125 350 L125 350 Z M175 18 C178 17 181 17 183 17 L296 17 C346 17 444 -60 444 -90 C444 -127 321 -219 272 -219 C221 -219 94 -120 94 -81 C94 -60 145 -1 175 17 L175 18 L175 18 Z M165 20 C127 4 53 -70 53 -94 C53 -133 207 -231 269 -231 C330 -231 485 -123 485 -80 C485 -38 364 66 301 66 L186 66 C157 66 84 105 84 121 C84 140 203 187 251 187 C301 187 426 303 426 349 C426 356 423 365 418 375 C425 403 487 474 504 474 C512 474 533 445 533 434 C533 429 549 416 556 416 C562 416 576 433 576 440 C576 456 540 495 525 495 C502 495 423 419 415 388 L418 375 C390 428 294 510 252 510 C202 510 76 396 76 350 C76 311 167 221 225 195 C162 182 56 129 56 106 C56 84 124 33 166 19 L165 20 L165 20 Z " />
<glyph glyph-name="h" unicode="h" horiz-adv-x="667" d="M497 35 C497 29 458 20 442 20 L412 20 L412 10 L412 0 L522 0 L632 0 L632 10 L632 20 L602 20 C586 20 547 29 547 35 L547 335 C547 385 432 510 379 510 C349 510 209 420 175 380 L175 650 L175 750 L166 750 L40 714 L40 704 L40 694 L70 702 C85 707 125 670 125 638 L125 35 C125 29 85 20 70 20 L40 20 L40 10 L40 0 L150 0 L260 0 L260 10 L260 20 L230 20 C214 20 175 29 175 35 L175 373 C206 409 336 487 366 487 C407 487 497 378 497 335 L497 35 L497 35 Z " />
<glyph glyph-name="i" unicode="i" horiz-adv-x="293" d="M159 615 C168 615 191 638 191 647 C191 657 168 680 159 680 C149 680 126 657 126 647 C126 638 149 615 159 615 L159 615 Z M184 35 L184 400 L184 500 L175 500 L49 464 L49 454 L49 444 L79 452 C94 457 134 420 134 388 L134 35 C134 29 101 20 89 20 L59 20 L59 10 L59 0 L159 0 L259 0 L259 10 L259 20 L229 20 C216 20 184 29 184 35 L184 35 Z " />
<glyph glyph-name="j" unicode="j" horiz-adv-x="263" d="M149 615 C158 615 181 638 181 647 C181 657 158 680 149 680 C139 680 116 657 116 647 C116 638 139 615 149 615 L149 615 Z M124 388 L124 29 C124 -7 92 -116 79 -123 C62 -123 -15 -100 -31 -100 C-44 -100 -76 -129 -76 -140 C-76 -154 -33 -186 -16 -185 C-14 -185 62 -145 89 -130 C113 -116 174 -2 174 29 L174 400 L174 500 L165 500 L39 464 L39 454 L39 444 L69 452 C84 457 124 420 124 388 L124 388 Z " />
<glyph glyph-name="k" unicode="k" horiz-adv-x="536" d="M416 0 L471 0 L510 0 L510 10 L510 20 L466 20 C463 20 450 28 444 34 L230 303 L416 466 C424 472 452 480 460 480 L497 480 L497 490 L497 500 L455 500 L433 500 L373 500 L248 500 L248 490 L248 480 L269 480 C309 480 308 394 245 334 L183 280 L183 650 L183 750 L174 750 L48 714 L48 704 L48 694 L78 702 C93 707 133 670 133 638 L133 35 C133 29 100 20 88 20 L58 20 L58 10 L58 0 L158 0 L258 0 L258 10 L258 20 L228 20 C215 20 183 29 183 35 L183 280 L377 35 L377 35 C382 29 358 20 345 20 L320 20 L320 10 L320 0 L405 0 L416 0 L416 0 Z " />
<glyph glyph-name="l" unicode="l" horiz-adv-x="283" d="M174 35 L174 650 L174 750 L165 750 L39 714 L39 704 L39 694 L69 702 C84 707 124 670 124 638 L124 35 C124 29 88 20 74 20 L44 20 L44 10 L44 0 L149 0 L254 0 L254 10 L254 20 L224 20 C209 20 174 29 174 35 L174 35 Z " />
<glyph glyph-name="m" unicode="m" horiz-adv-x="982" d="M518 376 L518 369 C540 403 670 487 699 487 C738 487 823 378 823 335 L823 55 C823 41 790 20 778 20 L748 20 L748 10 L748 0 L853 0 L958 0 L958 10 L958 20 L928 20 C912 20 873 41 873 55 L873 335 C873 385 763 510 713 510 C683 510 543 414 518 376 L518 376 Z M470 55 C470 41 438 20 425 20 L395 20 L395 10 L395 0 L490 0 L585 0 L585 10 L585 20 L555 20 C545 20 520 41 520 55 L520 335 C520 385 411 510 361 510 C332 510 200 420 168 380 L168 400 L168 500 L159 500 L33 454 L33 444 L33 434 L63 445 C78 451 118 417 118 385 L118 55 C118 41 78 20 63 20 L33 20 L33 10 L33 0 L135 0 L238 0 L238 10 L238 20 L208 20 C196 20 168 41 168 55 L168 373 C198 409 320 487 349 487 C387 487 471 378 471 335 L470 55 L470 55 Z " />
<glyph glyph-name="n" unicode="n" horiz-adv-x="650" d="M490 35 C490 29 454 20 440 20 L410 20 L410 10 L410 0 L515 0 L620 0 L620 10 L620 20 L590 20 C576 20 540 29 540 35 L540 335 C540 385 425 510 372 510 C342 510 202 420 168 380 L168 400 L168 500 L159 500 L33 454 L33 444 L33 434 L63 445 C78 451 118 417 118 385 L118 35 C118 29 82 20 68 20 L38 20 L38 10 L38 0 L143 0 L248 0 L248 10 L248 20 L218 20 C203 20 168 29 168 35 L168 373 C199 409 329 487 359 487 C400 487 490 378 490 335 L490 35 L490 35 Z " />
<glyph glyph-name="o" unicode="o" horiz-adv-x="578" d="M288 -8 C234 -8 98 176 98 250 C98 324 234 508 288 508 C342 508 478 324 478 250 C478 176 342 -8 288 -8 L288 -8 Z M42 250 C42 176 218 -10 288 -10 C358 -10 533 176 533 250 C533 324 358 510 288 510 C218 510 42 324 42 250 L42 250 Z " />
<glyph glyph-name="p" unicode="p" horiz-adv-x="604" d="M162 411 C190 439 292 489 323 489 C375 489 505 310 505 238 C505 176 361 -3 303 -3 C280 -3 189 71 161 110 L161 400 L162 411 L162 411 Z M161 432 L161 500 L152 500 L26 454 L26 444 L26 434 L56 445 C72 451 111 417 111 385 L111 -150 C111 -170 72 -200 56 -200 L26 -200 L26 -210 L26 -220 L136 -220 L246 -220 L246 -210 L246 -200 L216 -200 C200 -200 161 -170 161 -150 L161 105 C191 65 280 -5 303 -5 C376 -5 559 188 559 254 C559 327 406 510 345 510 C308 510 191 459 161 432 L161 432 Z " />
<glyph glyph-name="q" unicode="q" horiz-adv-x="617" d="M487 -185 L487 411 L487 440 L487 500 L484 500 L468 440 C448 460 327 510 298 510 C219 510 44 327 44 254 C44 180 210 -5 275 -5 C304 -5 407 43 436 69 L436 -185 C436 -191 397 -200 381 -200 L351 -200 L351 -210 L351 -220 L461 -220 L571 -220 L571 -210 L571 -200 L541 -200 C525 -200 486 -191 486 -185 L487 -185 L487 -185 Z M436 411 L436 87 C409 62 320 16 295 16 C238 16 95 196 95 267 C95 333 232 499 294 499 C321 499 423 436 436 411 L436 411 Z " />
<glyph glyph-name="r" unicode="r" horiz-adv-x="392" d="M174 384 L174 400 L174 500 L165 500 L39 454 L39 444 L39 434 L69 445 C84 451 124 417 124 385 L124 35 C124 29 91 20 79 20 L49 20 L49 10 L49 0 L154 0 L259 0 L259 10 L259 20 L229 20 C213 20 174 29 174 35 L174 380 C192 416 271 487 295 487 C303 487 324 462 324 452 C324 443 345 422 353 422 C362 422 383 443 383 452 C383 468 337 510 319 510 C289 510 195 425 175 383 L174 384 L174 384 Z " />
<glyph glyph-name="s" unicode="s" horiz-adv-x="435" d="M225 502 L206 508 C212 508 222 504 234 498 L225 502 L225 502 Z M224 501 C267 478 337 394 337 369 L337 352 L347 352 L357 352 L357 424 L357 431 L357 509 L347 509 L337 509 L337 480 C337 474 292 477 269 485 C243 498 218 508 205 508 C168 508 75 421 75 387 C75 357 180 246 227 229 C265 215 346 128 346 105 C346 72 269 -10 238 -10 C234 -10 228 -8 221 -5 C180 17 93 126 93 149 L93 165 L83 165 L73 165 L73 94 L73 87 L73 9 L83 9 L93 9 L93 30 C93 35 164 19 192 5 L193 5 C212 -5 229 -11 238 -11 C280 -11 384 83 384 120 C384 148 292 253 249 268 C206 284 111 380 111 405 C111 434 178 507 205 507 C210 507 216 505 223 501 L224 501 L224 501 Z " />
<glyph glyph-name="t" unicode="t" horiz-adv-x="339" d="M299 500 L145 500 L145 620 L141 620 L30 500 L30 490 L95 490 L95 129 C95 82 179 -10 212 -10 C231 -10 315 46 329 68 L324 71 C313 55 244 14 227 14 C203 14 143 82 144 118 L145 474 L299 474 L299 500 L299 500 Z " />
<glyph glyph-name="u" unicode="u" horiz-adv-x="579" d="M424 90 L424 -10 L433 -10 L559 21 L559 31 L559 41 L529 34 C514 30 474 68 474 100 L474 465 L474 500 L416 500 L358 500 L358 490 L358 480 L388 480 C398 480 424 471 424 465 L424 135 C390 98 281 25 259 25 C226 25 143 122 143 160 L143 465 L143 500 L85 500 L27 500 L27 490 L27 480 L57 480 C67 480 93 471 93 465 L93 160 C93 112 195 -10 235 -10 C258 -10 384 86 425 132 L424 90 L424 90 Z " />
<glyph glyph-name="v" unicode="v" horiz-adv-x="514" d="M90 456 L232 -10 L246 -10 L401 434 L401 434 C407 452 456 480 471 480 L502 480 L502 490 L502 500 L424 500 L404 500 L401 500 L306 500 L306 490 L306 480 L333 480 C350 480 384 464 385 452 L232 -10 L254 57 L144 454 C142 465 164 480 175 480 L206 480 L206 490 L206 500 L131 500 L109 500 L76 500 L12 500 L12 490 L12 480 L47 480 C56 480 82 467 89 456 L90 456 L90 456 Z " />
<glyph glyph-name="w" unicode="w" horiz-adv-x="784" d="M360 460 L391 349 L270 -10 L285 -10 L399 319 L493 -10 L508 -10 L669 435 C677 453 724 480 740 480 L771 480 L771 490 L771 500 L693 500 L673 500 L670 500 L575 500 L575 490 L575 480 L602 480 C618 480 654 465 654 454 L493 -10 L516 57 L414 461 C414 469 429 480 437 480 L471 480 L471 490 L471 500 L405 500 L380 500 L349 500 L289 500 L289 490 L289 480 L325 480 C334 480 358 468 360 460 L360 460 Z M134 462 L271 -10 L293 57 L189 462 C189 470 203 480 210 480 L244 480 L244 490 L244 500 L178 500 L153 500 L122 500 L62 500 L62 490 L62 480 L99 480 C106 480 127 470 132 462 L134 462 L134 462 Z " />
<glyph glyph-name="x" unicode="x" horiz-adv-x="542" d="M128 64 L127 64 C115 46 68 20 56 20 L22 20 L22 10 L22 0 L84 0 L107 0 L115 0 L207 0 L207 10 L207 20 L182 20 C165 20 138 45 148 63 L253 226 L356 65 L356 65 C368 47 356 21 344 21 L317 21 L317 11 L317 1 L397 1 L414 1 L459 1 L511 1 L511 11 L511 21 L474 21 C466 21 433 43 420 60 L285 270 L382 437 L382 437 C392 455 437 481 449 481 L482 481 L482 491 L482 501 L419 501 L396 501 L394 501 L306 501 L306 491 L306 481 L333 481 C346 481 368 460 365 443 L277 283 L177 438 C167 456 179 481 190 481 L217 481 L217 491 L217 501 L137 501 L125 501 L76 501 L34 501 L34 491 L34 481 L78 481 C81 481 102 460 111 446 L111 446 L245 237 L128 64 L128 64 Z " />
<glyph glyph-name="y" unicode="y" horiz-adv-x="534" d="M91 455 L246 -10 L201 -140 C198 -147 177 -165 171 -165 C165 -165 148 -147 142 -147 C134 -147 114 -165 114 -172 C114 -181 135 -203 143 -203 C157 -203 205 -168 210 -154 L260 -10 L421 436 C430 454 475 480 490 480 L521 480 L521 490 L521 500 L443 500 L423 500 L420 500 L325 500 L325 490 L325 480 L352 480 C369 480 404 463 403 451 L268 57 L144 456 C145 467 164 480 174 480 L205 480 L205 490 L205 500 L130 500 L108 500 L75 500 L12 500 L12 490 L12 480 L47 480 C56 480 83 466 90 455 L91 455 L91 455 Z " />
<glyph glyph-name="z" unicode="z" horiz-adv-x="475" d="M93 0 L384 0 L430 0 C431 8 437 49 438 58 C439 66 445 107 446 115 L441 115 L436 115 L422 85 C414 66 329 21 278 15 L103 12 L436 487 L436 499 L385 499 L136 499 C131 499 115 515 117 522 L122 539 L112 539 L102 539 C99 528 84 472 81 461 L60 384 L66 384 L72 384 L88 414 C98 433 177 477 222 483 L376 486 L41 11 L41 -1 L93 0 L93 0 Z " />
<glyph glyph-name="bar" unicode="&#x7c;" horiz-adv-x="158" d="M60 800 L60 -250 L99 -250 L99 800 L60 800 L60 800 Z " />
<glyph glyph-name="exclamdown" unicode="&#xa1;" horiz-adv-x="201" d="M101 505 C90 505 65 480 65 470 C65 460 90 434 101 434 C111 434 136 460 136 470 C136 480 111 505 101 505 L101 505 Z M101 -255 C114 -255 133 -195 131 -171 L105 290 L96 290 L70 -171 C69 -195 87 -255 101 -255 L101 -255 Z " />
<glyph glyph-name="cent" unicode="&#xa2;" horiz-adv-x="509" d="M282 575 L282 505 C197 474 44 308 44 238 C44 167 210 -11 276 -11 C278 -11 280 -11 282 -11 L282 -77 L300 -77 L300 -6 C356 16 464 93 479 126 L472 129 C456 95 351 18 298 -3 L298 504 C300 504 302 504 304 504 C329 504 420 430 431 401 C433 394 451 376 456 376 C465 376 483 394 481 401 C470 431 343 506 304 506 C302 506 300 506 298 506 L298 571 L282 575 L282 575 Z M280 -9 C279 -9 278 -9 277 -9 C224 -9 92 184 92 260 C92 322 211 466 280 498 L280 -9 L280 -9 Z " />
<glyph glyph-name="questiondown" unicode="&#xbf;" horiz-adv-x="304" d="M180 505 C170 505 144 480 144 470 C144 460 170 434 180 434 C190 434 215 460 215 470 C215 480 190 505 180 505 L180 505 Z M183 325 L180 140 C139 140 41 74 24 47 C16 35 -5 -36 -5 -53 C-5 -112 113 -260 160 -260 C173 -260 207 -234 207 -223 C207 -216 187 -198 180 -198 C174 -198 147 -207 141 -207 C104 -207 10 -93 10 -47 C10 -37 28 13 35 24 C48 42 147 90 197 90 L192 325 L183 325 L183 325 Z " />
<glyph glyph-name="Agrave" unicode="&#xc0;" horiz-adv-x="739" d="M282 959 C264 979 216 1029 214 1029 C207 1029 189 1011 189 1005 C189 1002 239 954 259 936 L398 813 L404 820 L282 959 L282 959 Z M240 296 L497 296 L544 140 L544 140 C559 92 505 20 476 20 L451 20 L451 10 L451 0 L586 0 L593 0 L645 0 L734 0 L734 10 L734 20 L704 20 C686 20 625 84 605 132 L423 733 L411 771 L405 771 C398 761 370 734 367 733 L370 723 L197 164 C174 104 78 21 49 21 L19 21 L19 11 L19 1 L147 1 L150 1 L167 1 L315 1 L315 11 L315 21 L291 21 C254 21 188 106 201 166 L240 296 L240 296 Z M242 300 L372 721 L498 300 L242 300 L242 300 Z " />
<glyph glyph-name="Aacute" unicode="&#xc1;" horiz-adv-x="739" d="M401 813 L540 936 C560 954 611 1003 611 1005 C611 1011 592 1029 586 1029 C584 1029 536 979 517 959 L395 820 L401 813 L401 813 Z M240 296 L497 296 L544 140 L544 140 C559 92 505 20 476 20 L451 20 L451 10 L451 0 L586 0 L593 0 L645 0 L734 0 L734 10 L734 20 L704 20 C686 20 625 84 605 132 L423 733 L411 771 L405 771 C398 761 370 734 367 733 L370 723 L197 164 C174 104 78 21 49 21 L19 21 L19 11 L19 1 L147 1 L150 1 L167 1 L315 1 L315 11 L315 21 L291 21 C254 21 188 106 201 166 L240 296 L240 296 Z M242 300 L372 721 L498 300 L242 300 L242 300 Z " />
<glyph glyph-name="Acircumflex" unicode="&#xc2;" horiz-adv-x="739" d="M395 977 L538 808 L545 813 L413 1015 C412 1018 398 1033 396 1033 C393 1033 380 1018 378 1015 L247 813 L253 808 L395 977 L395 977 Z M241 296 L498 296 L545 140 L545 140 C560 92 506 20 477 20 L452 20 L452 10 L452 0 L587 0 L594 0 L646 0 L735 0 L735 10 L735 20 L705 20 C687 20 626 84 606 132 L424 733 L412 771 L406 771 C399 761 371 734 368 733 L371 723 L198 164 C175 104 79 21 50 21 L20 21 L20 11 L20 1 L148 1 L151 1 L168 1 L316 1 L316 11 L316 21 L292 21 C255 21 189 106 202 166 L241 296 L241 296 Z M243 300 L373 721 L499 300 L243 300 L243 300 Z " />
<glyph glyph-name="Atilde" unicode="&#xc3;" horiz-adv-x="739" d="M251 870 C251 889 284 936 298 936 C327 936 448 871 477 871 C495 871 540 939 540 966 L538 966 C538 949 503 906 489 906 C460 906 338 971 309 971 C292 971 250 899 250 870 L251 870 L251 870 Z M240 296 L497 296 L544 140 L544 140 C559 92 505 20 476 20 L451 20 L451 10 L451 0 L586 0 L593 0 L645 0 L734 0 L734 10 L734 20 L704 20 C686 20 625 84 605 132 L423 733 L411 771 L405 771 C398 761 370 734 367 733 L370 723 L197 164 C174 104 78 21 49 21 L19 21 L19 11 L19 1 L147 1 L150 1 L167 1 L315 1 L315 11 L315 21 L291 21 C254 21 188 106 201 166 L240 296 L240 296 Z M242 300 L372 721 L498 300 L242 300 L242 300 Z " />
<glyph glyph-name="Adieresis" unicode="&#xc4;" horiz-adv-x="739" d="M463 865 C473 865 496 888 496 897 C496 907 473 930 463 930 C454 930 431 907 431 897 C431 888 454 865 463 865 L463 865 Z M326 865 C335 865 358 888 358 897 C358 907 335 930 326 930 C316 930 293 907 293 897 C293 888 316 865 326 865 L326 865 Z M240 296 L497 296 L544 140 L544 140 C559 92 505 20 476 20 L451 20 L451 10 L451 0 L586 0 L593 0 L645 0 L734 0 L734 10 L734 20 L704 20 C686 20 625 84 605 132 L423 733 L411 771 L405 771 C398 761 370 734 367 733 L370 723 L197 164 C174 104 78 21 49 21 L19 21 L19 11 L19 1 L147 1 L150 1 L167 1 L315 1 L315 11 L315 21 L291 21 C254 21 188 106 201 166 L240 296 L240 296 Z M242 300 L372 721 L498 300 L242 300 L242 300 Z " />
<glyph glyph-name="Aring" unicode="&#xc5;" horiz-adv-x="739" d="M395 822 C374 822 313 884 313 905 C313 929 371 988 395 988 C418 988 476 929 476 905 C476 884 416 822 395 822 L395 822 Z M298 905 C298 881 370 810 395 810 C419 810 491 881 491 905 C491 932 422 1000 395 1000 C367 1000 298 932 298 905 L298 905 Z M240 296 L497 296 L544 140 L544 140 C559 92 505 20 476 20 L451 20 L451 10 L451 0 L586 0 L593 0 L645 0 L734 0 L734 10 L734 20 L704 20 C686 20 625 84 605 132 L423 733 L411 771 L405 771 C398 761 370 734 367 733 L370 723 L197 164 C174 104 78 21 49 21 L19 21 L19 11 L19 1 L147 1 L150 1 L167 1 L315 1 L315 11 L315 21 L291 21 C254 21 188 106 201 166 L240 296 L240 296 Z M242 300 L372 721 L498 300 L242 300 L242 300 Z " />
<glyph glyph-name="Ccedilla" unicode="&#xc7;" horiz-adv-x="703" d="M498 38 L498 38 C448 12 398 -8 373 -8 C302 -8 123 266 123 375 C123 484 310 758 384 758 C404 758 436 746 471 729 L467 730 C508 711 631 576 636 552 C638 546 641 531 641 531 L649 531 L656 531 L656 627 L656 636 L656 742 L649 742 L641 742 C641 742 638 721 636 713 C634 703 568 693 539 703 C481 733 417 759 382 759 C291 759 61 484 61 374 C61 265 281 -8 371 -11 L324 -103 L325 -104 C334 -99 380 -89 389 -89 C407 -89 453 -127 453 -142 C453 -164 407 -219 388 -219 C373 -219 312 -202 302 -195 L302 -196 C312 -203 374 -221 389 -221 C415 -221 482 -163 482 -140 C482 -125 417 -87 391 -87 C378 -87 339 -91 332 -93 L375 -11 C409 -11 476 15 537 45 L537 45 C562 57 635 44 638 32 C641 23 646 2 646 2 L652 2 L658 2 L658 110 L658 121 L658 217 L651 217 L643 217 C643 217 640 202 638 196 C633 175 533 54 500 37 L498 38 L498 38 Z " />
<glyph glyph-name="Egrave" unicode="&#xc8;" horiz-adv-x="663" d="M250 959 C232 979 184 1029 182 1029 C175 1029 157 1011 157 1005 C157 1002 207 954 227 936 L366 813 L372 820 L250 959 L250 959 Z M471 0 L591 0 C592 9 599 54 600 63 C601 72 608 118 609 127 L599 127 L589 127 L585 97 C581 70 511 2 471 2 L292 2 C258 2 212 58 212 80 L212 85 L212 385 L383 385 C423 385 483 306 483 275 L483 245 L493 245 L503 245 L503 385 L503 386 L503 387 L503 527 L493 527 L483 527 L483 497 C483 466 423 387 383 387 L212 387 L212 665 L212 748 L449 748 C497 748 554 672 557 641 L558 623 L568 623 L578 623 C577 632 574 678 573 687 C573 696 570 741 569 750 L449 750 L212 750 L156 750 L131 750 L51 750 L51 740 L51 730 L81 730 C102 730 156 691 156 665 L156 85 C156 59 102 20 81 20 L51 20 L51 10 L51 0 L131 0 L156 0 L212 0 L471 0 L471 0 Z " />
<glyph glyph-name="Eacute" unicode="&#xc9;" horiz-adv-x="663" d="M369 813 L508 936 C528 954 578 1003 578 1005 C578 1011 560 1029 553 1029 C552 1029 503 979 485 959 L363 820 L369 813 L369 813 Z M471 0 L591 0 C592 9 599 54 600 63 C601 72 608 118 609 127 L599 127 L589 127 L585 97 C581 70 511 2 471 2 L292 2 C258 2 212 58 212 80 L212 85 L212 385 L383 385 C423 385 483 306 483 275 L483 245 L493 245 L503 245 L503 385 L503 386 L503 387 L503 527 L493 527 L483 527 L483 497 C483 466 423 387 383 387 L212 387 L212 665 L212 748 L449 748 C497 748 554 672 557 641 L558 623 L568 623 L578 623 C577 632 574 678 573 687 C573 696 570 741 569 750 L449 750 L212 750 L156 750 L131 750 L51 750 L51 740 L51 730 L81 730 C102 730 156 691 156 665 L156 85 C156 59 102 20 81 20 L51 20 L51 10 L51 0 L131 0 L156 0 L212 0 L471 0 L471 0 Z " />
<glyph glyph-name="Ecircumflex" unicode="&#xca;" horiz-adv-x="663" d="M363 977 L506 808 L513 813 L381 1015 C380 1018 366 1033 364 1033 C361 1033 348 1018 346 1015 L214 813 L221 808 L363 977 L363 977 Z M472 0 L592 0 C593 9 600 54 601 63 C602 72 609 118 610 127 L600 127 L590 127 L586 97 C582 70 512 2 472 2 L293 2 C259 2 213 58 213 80 L213 85 L213 385 L384 385 C424 385 484 306 484 275 L484 245 L494 245 L504 245 L504 385 L504 386 L504 387 L504 527 L494 527 L484 527 L484 497 C484 466 424 387 384 387 L213 387 L213 665 L213 748 L450 748 C498 748 555 672 558 641 L559 623 L569 623 L579 623 C578 632 575 678 574 687 C574 696 571 741 570 750 L450 750 L213 750 L157 750 L132 750 L52 750 L52 740 L52 730 L82 730 C103 730 157 691 157 665 L157 85 C157 59 103 20 82 20 L52 20 L52 10 L52 0 L132 0 L157 0 L213 0 L472 0 L472 0 Z " />
<glyph glyph-name="Edieresis" unicode="&#xcb;" horiz-adv-x="663" d="M431 865 C441 865 464 888 464 897 C464 907 441 930 431 930 C422 930 399 907 399 897 C399 888 422 865 431 865 L431 865 Z M294 865 C303 865 326 888 326 897 C326 907 303 930 294 930 C284 930 261 907 261 897 C261 888 284 865 294 865 L294 865 Z M471 0 L591 0 C592 9 599 54 600 63 C601 72 608 118 609 127 L599 127 L589 127 L585 97 C581 70 511 2 471 2 L292 2 C258 2 212 58 212 80 L212 85 L212 385 L383 385 C423 385 483 306 483 275 L483 245 L493 245 L503 245 L503 385 L503 386 L503 387 L503 527 L493 527 L483 527 L483 497 C483 466 423 387 383 387 L212 387 L212 665 L212 748 L449 748 C497 748 554 672 557 641 L558 623 L568 623 L578 623 C577 632 574 678 573 687 C573 696 570 741 569 750 L449 750 L212 750 L156 750 L131 750 L51 750 L51 740 L51 730 L81 730 C102 730 156 691 156 665 L156 85 C156 59 102 20 81 20 L51 20 L51 10 L51 0 L131 0 L156 0 L212 0 L471 0 L471 0 Z " />
<glyph glyph-name="Igrave" unicode="&#xcc;" horiz-adv-x="362" d="M77 959 C60 979 12 1029 9 1029 C3 1029 -16 1011 -16 1005 C-16 1002 34 954 54 936 L193 813 L200 820 L77 959 L77 959 Z M218 80 L218 670 C218 694 272 730 293 730 L323 730 L323 740 L323 750 L190 750 L57 750 L57 740 L57 730 L87 730 C108 730 162 694 162 670 L162 80 C162 56 108 20 87 20 L57 20 L57 10 L57 0 L190 0 L323 0 L323 10 L323 20 L293 20 C272 20 218 56 218 80 L218 80 Z " />
<glyph glyph-name="Iacute" unicode="&#xcd;" horiz-adv-x="362" d="M197 813 L336 936 C356 954 406 1003 406 1005 C406 1011 387 1029 381 1029 C379 1029 331 979 313 959 L190 820 L197 813 L197 813 Z M218 80 L218 670 C218 694 272 730 293 730 L323 730 L323 740 L323 750 L190 750 L57 750 L57 740 L57 730 L87 730 C108 730 162 694 162 670 L162 80 C162 56 108 20 87 20 L57 20 L57 10 L57 0 L190 0 L323 0 L323 10 L323 20 L293 20 C272 20 218 56 218 80 L218 80 Z " />
<glyph glyph-name="Icircumflex" unicode="&#xce;" horiz-adv-x="362" d="M190 977 L332 808 L339 813 L208 1015 C206 1018 193 1033 190 1033 C187 1033 174 1018 172 1015 L41 813 L48 808 L190 977 L190 977 Z M218 80 L218 670 C218 694 272 730 293 730 L323 730 L323 740 L323 750 L190 750 L57 750 L57 740 L57 730 L87 730 C108 730 162 694 162 670 L162 80 C162 56 108 20 87 20 L57 20 L57 10 L57 0 L190 0 L323 0 L323 10 L323 20 L293 20 C272 20 218 56 218 80 L218 80 Z " />
<glyph glyph-name="Idieresis" unicode="&#xcf;" horiz-adv-x="362" d="M259 865 C268 865 291 888 291 897 C291 907 268 930 259 930 C249 930 226 907 226 897 C226 888 249 865 259 865 L259 865 Z M121 865 C131 865 154 888 154 897 C154 907 131 930 121 930 C112 930 89 907 89 897 C89 888 112 865 121 865 L121 865 Z M218 80 L218 670 C218 694 272 730 293 730 L323 730 L323 740 L323 750 L190 750 L57 750 L57 740 L57 730 L87 730 C108 730 162 694 162 670 L162 80 C162 56 108 20 87 20 L57 20 L57 10 L57 0 L190 0 L323 0 L323 10 L323 20 L293 20 C272 20 218 56 218 80 L218 80 Z " />
<glyph glyph-name="Ntilde" unicode="&#xd1;" horiz-adv-x="765" d="M237 870 C237 889 270 936 284 936 C313 936 434 871 463 871 C481 871 525 939 525 966 L524 966 C524 949 489 906 474 906 C446 906 324 971 295 971 C278 971 235 899 235 870 L237 870 L237 870 Z M169 750 L155 750 L142 750 L108 750 L99 750 L48 750 L48 740 L48 730 L85 730 C93 730 127 709 136 695 L136 695 L142 686 L141 150 L141 150 C141 98 73 20 46 20 L16 20 L16 10 L16 0 L141 0 L149 0 L158 0 L283 0 L283 10 L283 20 L253 20 C226 20 163 85 157 133 L155 667 L551 80 L605 1 L616 1 L619 636 C625 676 688 731 714 731 L744 731 L744 741 L744 751 L620 751 L612 751 L603 751 L479 751 L479 741 L479 731 L509 731 C535 731 596 677 603 637 L604 101 L597 111 L169 750 L169 750 Z " />
<glyph glyph-name="Ograve" unicode="&#xd2;" horiz-adv-x="845" d="M407 -8 C324 -8 116 266 116 375 C116 484 331 758 416 758 C505 758 727 484 727 375 C727 266 498 -8 407 -8 L407 -8 Z M52 375 C52 265 305 -10 406 -10 C516 -10 791 265 791 375 C791 485 523 760 416 760 C313 760 52 485 52 375 L52 375 Z M304 959 C286 979 238 1029 236 1029 C229 1029 211 1011 211 1005 C211 1002 261 954 281 936 L420 813 L426 820 L304 959 L304 959 Z " />
<glyph glyph-name="Oacute" unicode="&#xd3;" horiz-adv-x="845" d="M423 813 L562 936 C582 954 632 1003 632 1005 C632 1011 614 1029 607 1029 C606 1029 557 979 539 959 L417 820 L423 813 L423 813 Z M407 -8 C324 -8 116 266 116 375 C116 484 331 758 416 758 C505 758 727 484 727 375 C727 266 498 -8 407 -8 L407 -8 Z M52 375 C52 265 305 -10 406 -10 C516 -10 791 265 791 375 C791 485 523 760 416 760 C313 760 52 485 52 375 L52 375 Z " />
<glyph glyph-name="Ocircumflex" unicode="&#xd4;" horiz-adv-x="845" d="M407 -8 C324 -8 116 266 116 375 C116 484 331 758 416 758 C505 758 727 484 727 375 C727 266 498 -8 407 -8 L407 -8 Z M52 375 C52 265 305 -10 406 -10 C516 -10 791 265 791 375 C791 485 523 760 416 760 C313 760 52 485 52 375 L52 375 Z M417 977 L560 808 L567 813 L435 1015 C433 1018 420 1033 417 1033 C415 1033 401 1018 400 1015 L268 813 L275 808 L417 977 L417 977 Z " />
<glyph glyph-name="Otilde" unicode="&#xd5;" horiz-adv-x="845" d="M273 870 C273 889 306 936 320 936 C348 936 470 871 499 871 C517 871 561 939 561 966 L560 966 C560 949 525 906 510 906 C482 906 360 971 331 971 C314 971 271 899 271 870 L273 870 L273 870 Z M407 -8 C324 -8 116 266 116 375 C116 484 331 758 416 758 C505 758 727 484 727 375 C727 266 498 -8 407 -8 L407 -8 Z M52 375 C52 265 305 -10 406 -10 C516 -10 791 265 791 375 C791 485 523 760 416 760 C313 760 52 485 52 375 L52 375 Z " />
<glyph glyph-name="Odieresis" unicode="&#xd6;" horiz-adv-x="845" d="M485 865 C495 865 518 888 518 897 C518 907 495 930 485 930 C476 930 453 907 453 897 C453 888 476 865 485 865 L485 865 Z M348 865 C357 865 380 888 380 897 C380 907 357 930 348 930 C338 930 315 907 315 897 C315 888 338 865 348 865 L348 865 Z M407 -8 C324 -8 116 266 116 375 C116 484 331 758 416 758 C505 758 727 484 727 375 C727 266 498 -8 407 -8 L407 -8 Z M52 375 C52 265 305 -10 406 -10 C516 -10 791 265 791 375 C791 485 523 760 416 760 C313 760 52 485 52 375 L52 375 Z " />
<glyph glyph-name="Oslash" unicode="&#xd8;" horiz-adv-x="845" d="M53 -11 L195 137 C270 56 356 -10 406 -10 C516 -10 791 265 791 375 C791 430 725 525 646 607 L792 759 L790 761 L644 609 C564 692 470 761 416 761 C313 761 52 486 52 376 C52 321 116 224 193 141 L51 -7 L53 -11 L53 -11 Z M407 -6 C363 -6 283 73 218 163 L624 586 C682 510 727 427 727 378 C727 269 498 -5 407 -5 L407 -6 L407 -6 Z M216 166 C160 243 116 328 116 378 C116 487 331 761 416 761 C464 761 552 680 622 589 L216 166 L216 166 Z " />
<glyph glyph-name="Ugrave" unicode="&#xd9;" horiz-adv-x="777" d="M274 959 C257 979 208 1029 206 1029 C199 1029 181 1011 181 1005 C181 1002 231 954 251 936 L390 813 L396 820 L274 959 L274 959 Z M663 665 L663 750 L582 750 L502 750 L502 740 L502 730 L532 730 C553 730 607 691 607 665 L607 175 C587 132 367 26 299 26 C261 26 167 165 167 220 L167 665 L167 750 L86 750 L6 750 L6 740 L6 730 L36 730 C57 730 111 691 111 665 L111 220 C111 154 229 -10 277 -10 C349 -10 585 104 607 150 L607 110 L607 0 L616 0 L767 55 L767 65 C725 63 663 89 663 110 L663 665 L663 665 Z " />
<glyph glyph-name="Uacute" unicode="&#xda;" horiz-adv-x="777" d="M393 813 L532 936 C553 954 603 1003 603 1005 C603 1011 584 1029 578 1029 C576 1029 528 979 510 959 L387 820 L393 813 L393 813 Z M663 665 L663 750 L582 750 L502 750 L502 740 L502 730 L532 730 C553 730 607 691 607 665 L607 175 C587 132 367 26 299 26 C261 26 167 165 167 220 L167 665 L167 750 L86 750 L6 750 L6 740 L6 730 L36 730 C57 730 111 691 111 665 L111 220 C111 154 229 -10 277 -10 C349 -10 585 104 607 150 L607 110 L607 0 L616 0 L767 55 L767 65 C725 63 663 89 663 110 L663 665 L663 665 Z " />
<glyph glyph-name="Ucircumflex" unicode="&#xdb;" horiz-adv-x="777" d="M387 977 L530 808 L537 813 L405 1015 C404 1018 390 1033 388 1033 C385 1033 372 1018 370 1015 L239 813 L245 808 L387 977 L387 977 Z M664 665 L664 750 L583 750 L503 750 L503 740 L503 730 L533 730 C554 730 608 691 608 665 L608 175 C588 132 368 26 300 26 C262 26 168 165 168 220 L168 665 L168 750 L87 750 L7 750 L7 740 L7 730 L37 730 C58 730 112 691 112 665 L112 220 C112 154 230 -10 278 -10 C350 -10 586 104 608 150 L608 110 L608 0 L617 0 L768 55 L768 65 C726 63 664 89 664 110 L664 665 L664 665 Z " />
<glyph glyph-name="Udieresis" unicode="&#xdc;" horiz-adv-x="777" d="M456 865 C465 865 488 888 488 897 C488 907 465 930 456 930 C446 930 423 907 423 897 C423 888 446 865 456 865 L456 865 Z M318 865 C327 865 350 888 350 897 C350 907 327 930 318 930 C309 930 286 907 286 897 C286 888 309 865 318 865 L318 865 Z M663 665 L663 750 L582 750 L502 750 L502 740 L502 730 L532 730 C553 730 607 691 607 665 L607 175 C587 132 367 26 299 26 C261 26 167 165 167 220 L167 665 L167 750 L86 750 L6 750 L6 740 L6 730 L36 730 C57 730 111 691 111 665 L111 220 C111 154 229 -10 277 -10 C349 -10 585 104 607 150 L607 110 L607 0 L616 0 L767 55 L767 65 C725 63 663 89 663 110 L663 665 L663 665 Z " />
<glyph glyph-name="Yacute" unicode="&#xdd;" horiz-adv-x="689" d="M357 813 L496 936 C516 954 566 1003 566 1005 C566 1011 548 1029 541 1029 C539 1029 491 979 473 959 L351 820 L357 813 L357 813 Z M224 610 L224 610 C197 658 205 730 224 730 L249 730 L249 740 L249 750 L144 750 L137 750 L79 750 L25 750 L25 740 L25 730 L62 730 C70 730 126 665 156 617 L322 329 L322 80 C322 56 269 20 247 20 L217 20 L217 10 L217 0 L350 0 L483 0 L483 10 L483 20 L453 20 C432 20 378 56 378 80 L378 339 L529 618 C559 666 629 730 643 730 L674 730 L674 740 L674 750 L600 750 L595 750 L582 750 L490 750 L490 740 L490 730 L516 730 C534 730 549 669 528 625 L377 341 L224 610 L224 610 Z " />
<glyph glyph-name="agrave" unicode="&#xe0;" horiz-adv-x="503" d="M514 77 L503 83 C501 68 461 31 448 31 C432 31 391 67 391 81 L391 358 C391 408 293 510 254 510 C200 510 65 386 65 360 C65 350 83 325 90 325 C100 325 123 345 123 350 C123 357 103 386 103 392 C103 412 209 508 251 508 C277 508 341 420 341 377 L341 266 C225 229 45 120 45 80 C45 55 127 -10 159 -10 C181 -10 297 51 342 88 L342 81 C342 57 404 -5 429 -5 C449 -5 511 54 515 77 L514 77 L514 77 Z M142 709 C125 729 77 779 74 779 C68 779 49 761 49 755 C49 752 99 704 119 686 L259 563 L265 570 L142 709 L142 709 Z M342 264 L342 90 C306 62 208 17 187 17 C161 17 96 66 96 86 C96 129 245 232 342 264 L342 264 Z " />
<glyph glyph-name="aacute" unicode="&#xe1;" horiz-adv-x="503" d="M261 563 L400 686 C420 704 470 753 470 755 C470 761 451 779 445 779 C443 779 395 729 377 709 L254 570 L261 563 L261 563 Z M514 77 L503 83 C501 68 461 31 448 31 C432 31 391 67 391 81 L391 358 C391 408 293 510 254 510 C200 510 65 386 65 360 C65 350 83 325 90 325 C100 325 123 345 123 350 C123 357 103 386 103 392 C103 412 209 508 251 508 C277 508 341 420 341 377 L341 266 C225 229 45 120 45 80 C45 55 127 -10 159 -10 C181 -10 297 51 342 88 L342 81 C342 57 404 -5 429 -5 C449 -5 511 54 515 77 L514 77 L514 77 Z M342 264 L342 90 C306 62 208 17 187 17 C161 17 96 66 96 86 C96 129 245 232 342 264 L342 264 Z " />
<glyph glyph-name="acircumflex" unicode="&#xe2;" horiz-adv-x="503" d="M514 77 L503 83 C501 68 461 31 448 31 C432 31 391 67 391 81 L391 358 C391 408 293 510 254 510 C200 510 65 386 65 360 C65 350 83 325 90 325 C100 325 123 345 123 350 C123 357 103 386 103 392 C103 412 209 508 251 508 C277 508 341 420 341 377 L341 266 C225 229 45 120 45 80 C45 55 127 -10 159 -10 C181 -10 297 51 342 88 L342 81 C342 57 404 -5 429 -5 C449 -5 511 54 515 77 L514 77 L514 77 Z M255 727 L397 558 L404 563 L273 765 C271 768 258 783 255 783 C253 783 239 768 238 765 L106 563 L113 558 L255 727 L255 727 Z M342 264 L342 90 C306 62 208 17 187 17 C161 17 96 66 96 86 C96 129 245 232 342 264 L342 264 Z " />
<glyph glyph-name="atilde" unicode="&#xe3;" horiz-adv-x="503" d="M110 620 C110 639 144 686 157 686 C186 686 308 621 337 621 C354 621 399 689 399 716 L398 716 C398 699 362 656 348 656 C319 656 198 721 169 721 C152 721 109 649 109 620 L110 620 L110 620 Z M514 77 L503 83 C501 68 461 31 448 31 C432 31 391 67 391 81 L391 358 C391 408 293 510 254 510 C200 510 65 386 65 360 C65 350 83 325 90 325 C100 325 123 345 123 350 C123 357 103 386 103 392 C103 412 209 508 251 508 C277 508 341 420 341 377 L341 266 C225 229 45 120 45 80 C45 55 127 -10 159 -10 C181 -10 297 51 342 88 L342 81 C342 57 404 -5 429 -5 C449 -5 511 54 515 77 L514 77 L514 77 Z M342 264 L342 90 C306 62 208 17 187 17 C161 17 96 66 96 86 C96 129 245 232 342 264 L342 264 Z " />
<glyph glyph-name="adieresis" unicode="&#xe4;" horiz-adv-x="503" d="M323 615 C332 615 355 638 355 647 C355 657 332 680 323 680 C314 680 291 657 291 647 C291 638 314 615 323 615 L323 615 Z M185 615 C195 615 218 638 218 647 C218 657 195 680 185 680 C176 680 153 657 153 647 C153 638 176 615 185 615 L185 615 Z M514 77 L503 83 C501 68 461 31 448 31 C432 31 391 67 391 81 L391 358 C391 408 293 510 254 510 C200 510 65 386 65 360 C65 350 83 325 90 325 C100 325 123 345 123 350 C123 357 103 386 103 392 C103 412 209 508 251 508 C277 508 341 420 341 377 L341 266 C225 229 45 120 45 80 C45 55 127 -10 159 -10 C181 -10 297 51 342 88 L342 81 C342 57 404 -5 429 -5 C449 -5 511 54 515 77 L514 77 L514 77 Z M342 264 L342 90 C306 62 208 17 187 17 C161 17 96 66 96 86 C96 129 245 232 342 264 L342 264 Z " />
<glyph glyph-name="aring" unicode="&#xe5;" horiz-adv-x="503" d="M254 572 C233 572 172 634 172 655 C172 679 231 738 254 738 C277 738 336 679 336 655 C336 634 275 572 254 572 L254 572 Z M158 655 C158 631 229 560 254 560 C279 560 351 631 351 655 C351 682 282 750 254 750 C227 750 158 682 158 655 L158 655 Z M514 77 L503 83 C501 68 461 31 448 31 C432 31 391 67 391 81 L391 358 C391 408 293 510 254 510 C200 510 65 386 65 360 C65 350 83 325 90 325 C100 325 123 345 123 350 C123 357 103 386 103 392 C103 412 209 508 251 508 C277 508 341 420 341 377 L341 266 C225 229 45 120 45 80 C45 55 127 -10 159 -10 C181 -10 297 51 342 88 L342 81 C342 57 404 -5 429 -5 C449 -5 511 54 515 77 L514 77 L514 77 Z M342 264 L342 90 C306 62 208 17 187 17 C161 17 96 66 96 86 C96 129 245 232 342 264 L342 264 Z " />
<glyph glyph-name="ccedilla" unicode="&#xe7;" horiz-adv-x="509" d="M228 -103 C237 -98 283 -88 292 -88 C310 -88 356 -126 356 -141 C356 -163 310 -218 292 -218 C277 -218 215 -201 206 -194 L205 -195 C215 -202 277 -220 292 -220 C319 -220 386 -162 386 -139 C386 -124 320 -86 294 -86 C281 -86 237 -90 234 -92 L228 -103 L228 -103 Z M228 -103 L277 -10 C319 -8 462 89 480 128 L473 131 C455 92 317 -5 279 -5 C226 -5 94 188 94 264 C94 334 245 508 306 508 C331 508 422 434 433 405 C435 398 453 380 458 380 C467 380 485 398 483 405 C472 435 345 510 306 510 C231 510 44 316 44 239 C44 169 208 -7 275 -10 L228 -102 L228 -103 L228 -103 Z " />
<glyph glyph-name="egrave" unicode="&#xe8;" horiz-adv-x="527" d="M183 709 C166 729 118 779 115 779 C109 779 90 761 90 755 C90 752 140 704 160 686 L299 563 L306 570 L183 709 L183 709 Z M127 340 L442 340 L483 340 L497 340 C486 398 344 510 296 510 C224 510 42 313 42 235 C42 165 209 -10 276 -10 C321 -10 471 92 486 133 L480 136 C465 95 321 -5 277 -5 C225 -5 95 181 95 255 C95 276 108 307 127 340 L127 340 Z M442 342 L128 342 C174 420 256 508 296 508 C328 508 429 400 442 342 L442 342 Z " />
<glyph glyph-name="eacute" unicode="&#xe9;" horiz-adv-x="527" d="M302 563 L442 686 C462 704 512 753 512 755 C512 761 493 779 487 779 C485 779 437 729 419 709 L296 570 L302 563 L302 563 Z M127 340 L442 340 L483 340 L497 340 C486 398 344 510 296 510 C224 510 42 313 42 235 C42 165 209 -10 276 -10 C321 -10 471 92 486 133 L480 136 C465 95 321 -5 277 -5 C225 -5 95 181 95 255 C95 276 108 307 127 340 L127 340 Z M442 342 L128 342 C174 420 256 508 296 508 C328 508 429 400 442 342 L442 342 Z " />
<glyph glyph-name="ecircumflex" unicode="&#xea;" horiz-adv-x="527" d="M296 727 L438 558 L445 563 L314 765 C312 768 299 783 296 783 C293 783 280 768 278 765 L147 563 L154 558 L296 727 L296 727 Z M127 340 L442 340 L483 340 L497 340 C486 398 344 510 296 510 C224 510 42 313 42 235 C42 165 209 -10 276 -10 C321 -10 471 92 486 133 L480 136 C465 95 321 -5 277 -5 C225 -5 95 181 95 255 C95 276 108 307 127 340 L127 340 Z M442 342 L128 342 C174 420 256 508 296 508 C328 508 429 400 442 342 L442 342 Z " />
<glyph glyph-name="edieresis" unicode="&#xeb;" horiz-adv-x="527" d="M365 615 C374 615 397 638 397 647 C397 657 374 680 365 680 C355 680 332 657 332 647 C332 638 355 615 365 615 L365 615 Z M227 615 C236 615 259 638 259 647 C259 657 236 680 227 680 C218 680 195 657 195 647 C195 638 218 615 227 615 L227 615 Z M127 340 L442 340 L483 340 L497 340 C486 398 344 510 296 510 C224 510 42 313 42 235 C42 165 209 -10 276 -10 C321 -10 471 92 486 133 L480 136 C465 95 321 -5 277 -5 C225 -5 95 181 95 255 C95 276 108 307 127 340 L127 340 Z M442 342 L128 342 C174 420 256 508 296 508 C328 508 429 400 442 342 L442 342 Z " />
<glyph glyph-name="igrave" unicode="&#xec;" horiz-adv-x="283" d="M36 709 C18 729 -30 779 -32 779 C-39 779 -57 761 -57 755 C-57 752 -7 704 13 686 L152 563 L158 570 L36 709 L36 709 Z M174 35 L174 390 L174 500 L165 500 L42 445 L42 435 C75 437 124 410 124 390 L124 35 C124 29 88 20 74 20 L44 20 L44 10 L44 0 L150 0 L257 0 L257 10 L257 20 L227 20 C212 20 174 29 174 35 L174 35 Z " />
<glyph glyph-name="iacute" unicode="&#xed;" horiz-adv-x="283" d="M36 709 C18 729 -30 779 -32 779 C-39 779 -57 761 -57 755 C-57 752 -7 704 13 686 L152 563 L158 570 L36 709 L36 709 Z M174 35 L174 390 L174 500 L165 500 L42 445 L42 435 C75 437 124 410 124 390 L124 35 C124 29 88 20 74 20 L44 20 L44 10 L44 0 L150 0 L257 0 L257 10 L257 20 L227 20 C212 20 174 29 174 35 L174 35 Z " />
<glyph glyph-name="icircumflex" unicode="&#xee;" horiz-adv-x="283" d="M149 727 L292 558 L299 563 L167 765 C166 768 152 783 150 783 C147 783 134 768 132 765 L0 563 L7 558 L149 727 L149 727 Z M175 35 L175 390 L175 500 L166 500 L43 445 L43 435 C76 437 125 410 125 390 L125 35 C125 29 89 20 75 20 L45 20 L45 10 L45 0 L151 0 L258 0 L258 10 L258 20 L228 20 C213 20 175 29 175 35 L175 35 Z " />
<glyph glyph-name="idieresis" unicode="&#xef;" horiz-adv-x="283" d="M217 615 C227 615 250 638 250 647 C250 657 227 680 217 680 C208 680 185 657 185 647 C185 638 208 615 217 615 L217 615 Z M80 615 C89 615 112 638 112 647 C112 657 89 680 80 680 C70 680 47 657 47 647 C47 638 70 615 80 615 L80 615 Z M174 35 L174 390 L174 500 L165 500 L42 445 L42 435 C75 437 124 410 124 390 L124 35 C124 29 88 20 74 20 L44 20 L44 10 L44 0 L150 0 L257 0 L257 10 L257 20 L227 20 C212 20 174 29 174 35 L174 35 Z " />
<glyph glyph-name="ntilde" unicode="&#xf1;" horiz-adv-x="650" d="M185 620 C185 639 219 686 232 686 C261 686 382 621 411 621 C429 621 474 689 474 716 L472 716 C472 699 437 656 423 656 C394 656 272 721 243 721 C226 721 184 649 184 620 L185 620 L185 620 Z M490 35 C490 29 454 20 440 20 L410 20 L410 10 L410 0 L515 0 L620 0 L620 10 L620 20 L590 20 C576 20 540 29 540 35 L540 335 C540 385 425 510 372 510 C342 510 202 420 168 380 L168 400 L168 500 L159 500 L33 454 L33 444 L33 434 L63 445 C78 451 118 417 118 385 L118 35 C118 29 82 20 68 20 L38 20 L38 10 L38 0 L143 0 L248 0 L248 10 L248 20 L218 20 C203 20 168 29 168 35 L168 373 C199 409 329 487 359 487 C400 487 490 378 490 335 L490 35 L490 35 Z " />
<glyph glyph-name="ograve" unicode="&#xf2;" horiz-adv-x="578" d="M288 -8 C234 -8 98 176 98 250 C98 324 234 508 288 508 C342 508 478 324 478 250 C478 176 342 -8 288 -8 L288 -8 Z M42 250 C42 176 218 -10 288 -10 C358 -10 533 176 533 250 C533 324 358 510 288 510 C218 510 42 324 42 250 L42 250 Z M175 709 C158 729 109 779 107 779 C100 779 82 761 82 755 C82 752 132 704 152 686 L291 563 L297 570 L175 709 L175 709 Z " />
<glyph glyph-name="oacute" unicode="&#xf3;" horiz-adv-x="578" d="M294 563 L433 686 C454 704 504 753 504 755 C504 761 485 779 479 779 C477 779 429 729 411 709 L288 570 L294 563 L294 563 Z M288 -8 C234 -8 98 176 98 250 C98 324 234 508 288 508 C342 508 478 324 478 250 C478 176 342 -8 288 -8 L288 -8 Z M42 250 C42 176 218 -10 288 -10 C358 -10 533 176 533 250 C533 324 358 510 288 510 C218 510 42 324 42 250 L42 250 Z " />
<glyph glyph-name="ocircumflex" unicode="&#xf4;" horiz-adv-x="578" d="M288 -8 C234 -8 98 176 98 250 C98 324 234 508 288 508 C342 508 478 324 478 250 C478 176 342 -8 288 -8 L288 -8 Z M42 250 C42 176 218 -10 288 -10 C358 -10 533 176 533 250 C533 324 358 510 288 510 C218 510 42 324 42 250 L42 250 Z M288 727 L431 558 L438 563 L306 765 C305 768 291 783 289 783 C286 783 273 768 271 765 L140 563 L146 558 L288 727 L288 727 Z " />
<glyph glyph-name="otilde" unicode="&#xf5;" horiz-adv-x="578" d="M144 620 C144 639 178 686 191 686 C220 686 341 621 370 621 C388 621 433 689 433 716 L431 716 C431 699 396 656 382 656 C353 656 231 721 202 721 C185 721 143 649 143 620 L144 620 L144 620 Z M288 -8 C234 -8 98 176 98 250 C98 324 234 508 288 508 C342 508 478 324 478 250 C478 176 342 -8 288 -8 L288 -8 Z M42 250 C42 176 218 -10 288 -10 C358 -10 533 176 533 250 C533 324 358 510 288 510 C218 510 42 324 42 250 L42 250 Z " />
<glyph glyph-name="odieresis" unicode="&#xf6;" horiz-adv-x="578" d="M357 615 C366 615 389 638 389 647 C389 657 366 680 357 680 C347 680 324 657 324 647 C324 638 347 615 357 615 L357 615 Z M219 615 C228 615 251 638 251 647 C251 657 228 680 219 680 C210 680 187 657 187 647 C187 638 210 615 219 615 L219 615 Z M288 -8 C234 -8 98 176 98 250 C98 324 234 508 288 508 C342 508 478 324 478 250 C478 176 342 -8 288 -8 L288 -8 Z M42 250 C42 176 218 -10 288 -10 C358 -10 533 176 533 250 C533 324 358 510 288 510 C218 510 42 324 42 250 L42 250 Z " />
<glyph glyph-name="oslash" unicode="&#xf8;" horiz-adv-x="578" d="M43 -11 L140 91 C193 36 254 -10 289 -10 C359 -10 534 176 534 250 C534 287 491 352 439 408 L535 510 L533 512 L437 410 C385 465 324 511 289 511 C219 511 43 325 43 251 C43 214 86 150 138 95 L41 -7 L43 -11 L43 -11 Z M288 -6 C258 -6 203 51 160 114 L419 388 C453 338 479 284 479 252 C479 178 343 -6 289 -6 L288 -6 L288 -6 Z M159 117 C125 167 99 220 99 252 C99 326 235 510 289 510 C319 510 374 453 417 390 L159 117 L159 117 Z " />
<glyph glyph-name="ugrave" unicode="&#xf9;" horiz-adv-x="579" d="M171 709 C153 729 105 779 103 779 C96 779 78 761 78 755 C78 752 128 704 148 686 L287 563 L293 570 L171 709 L171 709 Z M424 90 L424 -10 L433 -10 L559 21 L559 31 L559 41 L529 34 C514 30 474 68 474 100 L474 465 L474 500 L416 500 L358 500 L358 490 L358 480 L388 480 C398 480 424 471 424 465 L424 135 C390 98 281 25 259 25 C226 25 143 122 143 160 L143 465 L143 500 L85 500 L27 500 L27 490 L27 480 L57 480 C67 480 93 471 93 465 L93 160 C93 112 195 -10 235 -10 C258 -10 384 86 425 132 L424 90 L424 90 Z " />
<glyph glyph-name="uacute" unicode="&#xfa;" horiz-adv-x="579" d="M290 563 L429 686 C449 704 499 753 499 755 C499 761 481 779 475 779 C473 779 424 729 406 709 L284 570 L290 563 L290 563 Z M424 90 L424 -10 L433 -10 L559 21 L559 31 L559 41 L529 34 C514 30 474 68 474 100 L474 465 L474 500 L416 500 L358 500 L358 490 L358 480 L388 480 C398 480 424 471 424 465 L424 135 C390 98 281 25 259 25 C226 25 143 122 143 160 L143 465 L143 500 L85 500 L27 500 L27 490 L27 480 L57 480 C67 480 93 471 93 465 L93 160 C93 112 195 -10 235 -10 C258 -10 384 86 425 132 L424 90 L424 90 Z " />
<glyph glyph-name="ucircumflex" unicode="&#xfb;" horiz-adv-x="579" d="M284 727 L427 558 L434 563 L302 765 C301 768 287 783 285 783 C282 783 269 768 267 765 L136 563 L142 558 L284 727 L284 727 Z M425 90 L425 -10 L434 -10 L560 21 L560 31 L560 41 L530 34 C515 30 475 68 475 100 L475 465 L475 500 L417 500 L359 500 L359 490 L359 480 L389 480 C399 480 425 471 425 465 L425 135 C391 98 282 25 260 25 C227 25 144 122 144 160 L144 465 L144 500 L86 500 L28 500 L28 490 L28 480 L58 480 C68 480 94 471 94 465 L94 160 C94 112 196 -10 236 -10 C259 -10 385 86 426 132 L425 90 L425 90 Z " />
<glyph glyph-name="udieresis" unicode="&#xfc;" horiz-adv-x="579" d="M352 615 C362 615 385 638 385 647 C385 657 362 680 352 680 C343 680 320 657 320 647 C320 638 343 615 352 615 L352 615 Z M215 615 C224 615 247 638 247 647 C247 657 224 680 215 680 C205 680 182 657 182 647 C182 638 205 615 215 615 L215 615 Z M424 90 L424 -10 L433 -10 L559 21 L559 31 L559 41 L529 34 C514 30 474 68 474 100 L474 465 L474 500 L416 500 L358 500 L358 490 L358 480 L388 480 C398 480 424 471 424 465 L424 135 C390 98 281 25 259 25 C226 25 143 122 143 160 L143 465 L143 500 L85 500 L27 500 L27 490 L27 480 L57 480 C67 480 93 471 93 465 L93 160 C93 112 195 -10 235 -10 C258 -10 384 86 425 132 L424 90 L424 90 Z " />
<glyph glyph-name="ydieresis" unicode="&#xff;" horiz-adv-x="534" d="M345 615 C354 615 377 638 377 647 C377 657 354 680 345 680 C336 680 313 657 313 647 C313 638 336 615 345 615 L345 615 Z M207 615 C217 615 240 638 240 647 C240 657 217 680 207 680 C198 680 175 657 175 647 C175 638 198 615 207 615 L207 615 Z M91 455 L246 -10 L201 -140 C198 -147 177 -165 171 -165 C165 -165 148 -147 142 -147 C134 -147 114 -165 114 -172 C114 -181 135 -203 143 -203 C157 -203 205 -168 210 -154 L260 -10 L421 436 C430 454 475 480 490 480 L521 480 L521 490 L521 500 L443 500 L423 500 L420 500 L325 500 L325 490 L325 480 L352 480 C369 480 404 463 403 451 L268 57 L144 456 C145 467 164 480 174 480 L205 480 L205 490 L205 500 L130 500 L108 500 L75 500 L12 500 L12 490 L12 480 L47 480 C56 480 83 466 90 455 L91 455 L91 455 Z " />
<glyph glyph-name="Amacron" unicode="&#x100;" horiz-adv-x="739" d="M245 901 L545 901 L545 936 L245 936 L245 901 L245 901 Z M240 296 L497 296 L544 140 L544 140 C559 92 505 20 476 20 L451 20 L451 10 L451 0 L586 0 L593 0 L645 0 L734 0 L734 10 L734 20 L704 20 C686 20 625 84 605 132 L423 733 L411 771 L405 771 C398 761 370 734 367 733 L370 723 L197 164 C174 104 78 21 49 21 L19 21 L19 11 L19 1 L147 1 L150 1 L167 1 L315 1 L315 11 L315 21 L291 21 C254 21 188 106 201 166 L240 296 L240 296 Z M242 300 L372 721 L498 300 L242 300 L242 300 Z " />
<glyph glyph-name="amacron" unicode="&#x101;" horiz-adv-x="503" d="M104 651 L404 651 L404 686 L104 686 L104 651 L104 651 Z M514 77 L503 83 C501 68 461 31 448 31 C432 31 391 67 391 81 L391 358 C391 408 293 510 254 510 C200 510 65 386 65 360 C65 350 83 325 90 325 C100 325 123 345 123 350 C123 357 103 386 103 392 C103 412 209 508 251 508 C277 508 341 420 341 377 L341 266 C225 229 45 120 45 80 C45 55 127 -10 159 -10 C181 -10 297 51 342 88 L342 81 C342 57 404 -5 429 -5 C449 -5 511 54 515 77 L514 77 L514 77 Z M342 264 L342 90 C306 62 208 17 187 17 C161 17 96 66 96 86 C96 129 245 232 342 264 L342 264 Z " />
<glyph glyph-name="Abreve" unicode="&#x102;" horiz-adv-x="739" d="M270 995 C272 965 361 889 395 889 C429 889 518 964 519 994 L509 995 C508 975 426 924 395 924 C363 924 282 976 281 996 L270 995 L270 995 Z M240 296 L497 296 L544 140 L544 140 C559 92 505 20 476 20 L451 20 L451 10 L451 0 L586 0 L593 0 L645 0 L734 0 L734 10 L734 20 L704 20 C686 20 625 84 605 132 L423 733 L411 771 L405 771 C398 761 370 734 367 733 L370 723 L197 164 C174 104 78 21 49 21 L19 21 L19 11 L19 1 L147 1 L150 1 L167 1 L315 1 L315 11 L315 21 L291 21 C254 21 188 106 201 166 L240 296 L240 296 Z M242 300 L372 721 L498 300 L242 300 L242 300 Z " />
<glyph glyph-name="abreve" unicode="&#x103;" horiz-adv-x="503" d="M130 745 C131 715 220 639 254 639 C288 639 377 714 379 744 L368 745 C367 725 285 674 254 674 C223 674 141 726 140 746 L130 745 L130 745 Z M514 77 L503 83 C501 68 461 31 448 31 C432 31 391 67 391 81 L391 358 C391 408 293 510 254 510 C200 510 65 386 65 360 C65 350 83 325 90 325 C100 325 123 345 123 350 C123 357 103 386 103 392 C103 412 209 508 251 508 C277 508 341 420 341 377 L341 266 C225 229 45 120 45 80 C45 55 127 -10 159 -10 C181 -10 297 51 342 88 L342 81 C342 57 404 -5 429 -5 C449 -5 511 54 515 77 L514 77 L514 77 Z M342 264 L342 90 C306 62 208 17 187 17 C161 17 96 66 96 86 C96 129 245 232 342 264 L342 264 Z " />
<glyph glyph-name="Cacute" unicode="&#x106;" horiz-adv-x="703" d="M390 813 L529 936 C549 954 599 1003 599 1005 C599 1011 580 1029 574 1029 C572 1029 524 979 506 959 L383 820 L390 813 L390 813 Z M498 38 L498 38 C448 12 398 -8 373 -8 C302 -8 123 266 123 375 C123 484 310 758 384 758 C404 758 436 746 471 729 L467 730 C508 711 631 576 636 552 C638 546 641 531 641 531 L649 531 L656 531 L656 627 L656 636 L656 742 L649 742 L641 742 C641 742 638 721 636 713 C634 703 568 693 539 703 C481 733 417 759 382 759 C291 759 61 484 61 374 C61 264 283 -11 372 -11 C405 -11 472 15 533 45 L533 45 C558 57 631 44 634 32 C637 23 642 2 642 2 L648 2 L654 2 L654 110 L654 121 L654 217 L647 217 L639 217 C639 217 636 202 634 196 C629 175 529 54 496 37 L498 38 L498 38 Z " />
<glyph glyph-name="Ccircumflex" unicode="&#x108;" horiz-adv-x="703" d="M498 38 L498 38 C448 12 398 -8 373 -8 C302 -8 123 266 123 375 C123 484 310 758 384 758 C404 758 436 746 471 729 L467 730 C508 711 631 576 636 552 C638 546 641 531 641 531 L649 531 L656 531 L656 627 L656 636 L656 742 L649 742 L641 742 C641 742 638 721 636 713 C634 703 568 693 539 703 C481 733 417 759 382 759 C291 759 61 484 61 374 C61 264 283 -11 372 -11 C405 -11 472 15 533 45 L533 45 C558 57 631 44 634 32 C637 23 642 2 642 2 L648 2 L654 2 L654 110 L654 121 L654 217 L647 217 L639 217 C639 217 636 202 634 196 C629 175 529 54 496 37 L498 38 L498 38 Z M381 976 L523 807 L530 812 L399 1014 C397 1017 384 1032 381 1032 C378 1032 365 1017 363 1014 L232 812 L239 807 L381 976 L381 976 Z " />
<glyph glyph-name="Cdot" unicode="&#x10a;" horiz-adv-x="703" d="M383 865 C392 865 415 888 415 897 C415 907 392 930 383 930 C374 930 351 907 351 897 C351 888 374 865 383 865 L383 865 Z M498 38 L498 38 C448 12 398 -8 373 -8 C302 -8 123 266 123 375 C123 484 310 758 384 758 C404 758 436 746 471 729 L467 730 C508 711 631 576 636 552 C638 546 641 531 641 531 L649 531 L656 531 L656 627 L656 636 L656 742 L649 742 L641 742 C641 742 638 721 636 713 C634 703 568 693 539 703 C481 733 417 759 382 759 C291 759 61 484 61 374 C61 264 283 -11 372 -11 C405 -11 472 15 533 45 L533 45 C558 57 631 44 634 32 C637 23 642 2 642 2 L648 2 L654 2 L654 110 L654 121 L654 217 L647 217 L639 217 C639 217 636 202 634 196 C629 175 529 54 496 37 L498 38 L498 38 Z " />
<glyph glyph-name="cdot" unicode="&#x10b;" horiz-adv-x="509" d="M306 615 C315 615 338 638 338 647 C338 657 315 680 306 680 C297 680 274 657 274 647 C274 638 297 615 306 615 L306 615 Z M480 128 L473 131 C455 92 317 -5 279 -5 C226 -5 94 188 94 264 C94 334 245 508 306 508 C331 508 422 434 433 405 C435 398 453 380 458 380 C467 380 485 398 483 405 C472 435 345 510 306 510 C231 510 44 316 44 239 C44 168 210 -10 276 -10 C316 -10 462 89 480 128 L480 128 Z " />
<glyph glyph-name="Ccaron" unicode="&#x10c;" horiz-adv-x="703" d="M498 38 L498 38 C448 12 398 -8 373 -8 C302 -8 123 266 123 375 C123 484 310 758 384 758 C404 758 436 746 471 729 L467 730 C508 711 631 576 636 552 C638 546 641 531 641 531 L649 531 L656 531 L656 627 L656 636 L656 742 L649 742 L641 742 C641 742 638 721 636 713 C634 703 568 693 539 703 C481 733 417 759 382 759 C291 759 61 484 61 374 C61 264 283 -11 372 -11 C405 -11 472 15 533 45 L533 45 C558 57 631 44 634 32 C637 23 642 2 642 2 L648 2 L654 2 L654 110 L654 121 L654 217 L647 217 L639 217 C639 217 636 202 634 196 C629 175 529 54 496 37 L498 38 L498 38 Z M381 872 L523 1041 L530 1036 L399 834 C397 831 384 816 381 816 C378 816 365 831 363 834 L232 1036 L239 1041 L381 872 L381 872 Z " />
<glyph glyph-name="ccaron" unicode="&#x10d;" horiz-adv-x="509" d="M480 128 L473 131 C455 92 317 -5 279 -5 C226 -5 94 188 94 264 C94 334 245 508 306 508 C331 508 422 434 433 405 C435 398 453 380 458 380 C467 380 485 398 483 405 C472 435 345 510 306 510 C231 510 44 316 44 239 C44 168 210 -10 276 -10 C316 -10 462 89 480 128 L480 128 Z M306 623 L448 792 L455 787 L324 585 C322 582 309 567 306 567 C303 567 290 582 288 585 L157 787 L164 792 L306 623 L306 623 Z " />
<glyph glyph-name="Dcaron" unicode="&#x10e;" horiz-adv-x="796" d="M413 873 L555 1042 L562 1037 L431 835 C429 832 416 817 413 817 C411 817 397 832 396 835 L264 1037 L271 1042 L413 873 L413 873 Z M146 665 L146 85 C146 59 92 20 71 20 L41 20 L41 10 L41 0 L121 0 L146 0 L202 0 L282 0 C413 0 742 257 742 375 C742 482 453 750 322 750 L202 750 L146 750 L121 750 L41 750 L41 740 L41 730 L71 730 C92 730 146 691 146 665 L146 665 Z M202 748 L315 748 C430 748 681 481 681 375 C681 258 394 2 279 2 C246 2 202 58 202 80 L202 85 L202 665 L202 748 L202 748 Z " />
<glyph glyph-name="dcaron" unicode="&#x10f;" horiz-adv-x="593" d="M600 647 C606 668 621 742 621 751 C621 754 605 759 599 759 C594 759 576 673 574 652 L562 541 L570 540 L600 647 L600 647 Z M464 90 C440 66 337 16 309 16 C251 16 105 196 105 267 C105 332 253 495 321 495 C346 495 441 422 463 390 L463 110 L464 90 L464 90 Z M463 73 L463 -10 L472 -10 L598 21 L598 31 L598 41 L568 34 C552 30 513 80 513 120 L513 665 L513 750 L504 750 L378 714 L378 704 L378 694 L408 702 C423 707 463 679 463 653 L463 431 C419 465 341 510 315 510 C233 510 54 327 54 254 C54 180 222 -5 288 -5 C321 -5 438 48 463 73 L463 73 Z " />
<glyph glyph-name="Emacron" unicode="&#x112;" horiz-adv-x="663" d="M213 901 L513 901 L513 936 L213 936 L213 901 L213 901 Z M471 0 L591 0 C592 9 599 54 600 63 C601 72 608 118 609 127 L599 127 L589 127 L585 97 C581 70 511 2 471 2 L292 2 C258 2 212 58 212 80 L212 85 L212 385 L383 385 C423 385 483 306 483 275 L483 245 L493 245 L503 245 L503 385 L503 386 L503 387 L503 527 L493 527 L483 527 L483 497 C483 466 423 387 383 387 L212 387 L212 665 L212 748 L449 748 C497 748 554 672 557 641 L558 623 L568 623 L578 623 C577 632 574 678 573 687 C573 696 570 741 569 750 L449 750 L212 750 L156 750 L131 750 L51 750 L51 740 L51 730 L81 730 C102 730 156 691 156 665 L156 85 C156 59 102 20 81 20 L51 20 L51 10 L51 0 L131 0 L156 0 L212 0 L471 0 L471 0 Z " />
<glyph glyph-name="emacron" unicode="&#x113;" horiz-adv-x="527" d="M146 651 L446 651 L446 686 L146 686 L146 651 L146 651 Z M127 340 L442 340 L483 340 L497 340 C486 398 344 510 296 510 C224 510 42 313 42 235 C42 165 209 -10 276 -10 C321 -10 471 92 486 133 L480 136 C465 95 321 -5 277 -5 C225 -5 95 181 95 255 C95 276 108 307 127 340 L127 340 Z M442 342 L128 342 C174 420 256 508 296 508 C328 508 429 400 442 342 L442 342 Z " />
<glyph glyph-name="Ebreve" unicode="&#x114;" horiz-adv-x="663" d="M238 995 C240 965 329 889 363 889 C397 889 486 964 487 994 L476 995 C475 975 394 924 363 924 C331 924 250 976 249 996 L238 995 L238 995 Z M471 0 L591 0 C592 9 599 54 600 63 C601 72 608 118 609 127 L599 127 L589 127 L585 97 C581 70 511 2 471 2 L292 2 C258 2 212 58 212 80 L212 85 L212 385 L383 385 C423 385 483 306 483 275 L483 245 L493 245 L503 245 L503 385 L503 386 L503 387 L503 527 L493 527 L483 527 L483 497 C483 466 423 387 383 387 L212 387 L212 665 L212 748 L449 748 C497 748 554 672 557 641 L558 623 L568 623 L578 623 C577 632 574 678 573 687 C573 696 570 741 569 750 L449 750 L212 750 L156 750 L131 750 L51 750 L51 740 L51 730 L81 730 C102 730 156 691 156 665 L156 85 C156 59 102 20 81 20 L51 20 L51 10 L51 0 L131 0 L156 0 L212 0 L471 0 L471 0 Z " />
<glyph glyph-name="ebreve" unicode="&#x115;" horiz-adv-x="527" d="M172 745 C173 715 262 639 296 639 C330 639 419 714 420 744 L410 745 C409 725 327 674 296 674 C265 674 183 726 182 746 L172 745 L172 745 Z M127 340 L442 340 L483 340 L497 340 C486 398 344 510 296 510 C224 510 42 313 42 235 C42 165 209 -10 276 -10 C321 -10 471 92 486 133 L480 136 C465 95 321 -5 277 -5 C225 -5 95 181 95 255 C95 276 108 307 127 340 L127 340 Z M442 342 L128 342 C174 420 256 508 296 508 C328 508 429 400 442 342 L442 342 Z " />
<glyph glyph-name="Edot" unicode="&#x116;" horiz-adv-x="663" d="M363 865 C372 865 395 888 395 897 C395 907 372 930 363 930 C353 930 330 907 330 897 C330 888 353 865 363 865 L363 865 Z M471 0 L591 0 C592 9 599 54 600 63 C601 72 608 118 609 127 L599 127 L589 127 L585 97 C581 70 511 2 471 2 L292 2 C258 2 212 58 212 80 L212 85 L212 385 L383 385 C423 385 483 306 483 275 L483 245 L493 245 L503 245 L503 385 L503 386 L503 387 L503 527 L493 527 L483 527 L483 497 C483 466 423 387 383 387 L212 387 L212 665 L212 748 L449 748 C497 748 554 672 557 641 L558 623 L568 623 L578 623 C577 632 574 678 573 687 C573 696 570 741 569 750 L449 750 L212 750 L156 750 L131 750 L51 750 L51 740 L51 730 L81 730 C102 730 156 691 156 665 L156 85 C156 59 102 20 81 20 L51 20 L51 10 L51 0 L131 0 L156 0 L212 0 L471 0 L471 0 Z " />
<glyph glyph-name="edot" unicode="&#x117;" horiz-adv-x="527" d="M296 615 C305 615 328 638 328 647 C328 657 305 680 296 680 C287 680 264 657 264 647 C264 638 287 615 296 615 L296 615 Z M127 340 L442 340 L483 340 L497 340 C486 398 344 510 296 510 C224 510 42 313 42 235 C42 165 209 -10 276 -10 C321 -10 471 92 486 133 L480 136 C465 95 321 -5 277 -5 C225 -5 95 181 95 255 C95 276 108 307 127 340 L127 340 Z M442 342 L128 342 C174 420 256 508 296 508 C328 508 429 400 442 342 L442 342 Z " />
<glyph glyph-name="Ecaron" unicode="&#x11a;" horiz-adv-x="663" d="M363 873 L506 1042 L513 1037 L381 835 C380 832 366 817 364 817 C361 817 348 832 346 835 L214 1037 L221 1042 L363 873 L363 873 Z M472 0 L592 0 C593 9 600 54 601 63 C602 72 609 118 610 127 L600 127 L590 127 L586 97 C582 70 512 2 472 2 L293 2 C259 2 213 58 213 80 L213 85 L213 385 L384 385 C424 385 484 306 484 275 L484 245 L494 245 L504 245 L504 385 L504 386 L504 387 L504 527 L494 527 L484 527 L484 497 C484 466 424 387 384 387 L213 387 L213 665 L213 748 L450 748 C498 748 555 672 558 641 L559 623 L569 623 L579 623 C578 632 575 678 574 687 C574 696 571 741 570 750 L450 750 L213 750 L157 750 L132 750 L52 750 L52 740 L52 730 L82 730 C103 730 157 691 157 665 L157 85 C157 59 103 20 82 20 L52 20 L52 10 L52 0 L132 0 L157 0 L213 0 L472 0 L472 0 Z " />
<glyph glyph-name="ecaron" unicode="&#x11b;" horiz-adv-x="527" d="M296 623 L438 792 L445 787 L314 585 C312 582 299 567 296 567 C293 567 280 582 278 585 L147 787 L154 792 L296 623 L296 623 Z M127 340 L442 340 L483 340 L497 340 C486 398 344 510 296 510 C224 510 42 313 42 235 C42 165 209 -10 276 -10 C321 -10 471 92 486 133 L480 136 C465 95 321 -5 277 -5 C225 -5 95 181 95 255 C95 276 108 307 127 340 L127 340 Z M442 342 L128 342 C174 420 256 508 296 508 C328 508 429 400 442 342 L442 342 Z " />
<glyph glyph-name="Gcircumflex" unicode="&#x11c;" horiz-adv-x="780" d="M383 977 L525 808 L532 813 L401 1015 C399 1018 386 1033 383 1033 C380 1033 367 1018 365 1015 L234 813 L241 808 L383 977 L383 977 Z M582 245 L584 32 L584 32 L583 90 C583 69 477 20 411 7 L523 20 C467 10 413 3 383 3 C309 3 124 268 124 374 C124 483 311 757 385 757 C405 757 437 745 472 728 L468 729 C509 710 632 575 637 551 C639 545 642 530 642 530 L650 530 L657 530 L657 626 L657 635 L657 741 L650 741 L642 741 C642 741 639 720 637 712 C635 702 569 692 540 702 C482 732 418 758 383 758 C292 758 62 483 62 373 C62 263 287 -12 377 -12 C443 -12 669 40 713 61 L713 62 C702 57 674 49 638 41 L638 243 C638 267 678 303 693 303 L723 303 L723 313 L723 323 L603 323 L482 323 L482 313 L482 303 L512 303 C532 303 582 267 582 243 L582 245 L582 245 Z M410 5 C399 3 389 2 381 2 L410 5 L410 5 Z " />
<glyph glyph-name="Gbreve" unicode="&#x11e;" horiz-adv-x="780" d="M259 995 C260 965 349 889 383 889 C417 889 506 964 507 994 L497 995 C496 975 414 924 383 924 C352 924 270 976 269 996 L259 995 L259 995 Z M582 245 L584 32 L584 32 L583 90 C583 69 477 20 411 7 L523 20 C467 10 413 3 383 3 C309 3 124 268 124 374 C124 483 311 757 385 757 C405 757 437 745 472 728 L468 729 C509 710 632 575 637 551 C639 545 642 530 642 530 L650 530 L657 530 L657 626 L657 635 L657 741 L650 741 L642 741 C642 741 639 720 637 712 C635 702 569 692 540 702 C482 732 418 758 383 758 C292 758 62 483 62 373 C62 263 287 -12 377 -12 C443 -12 669 40 713 61 L713 62 C702 57 674 49 638 41 L638 243 C638 267 678 303 693 303 L723 303 L723 313 L723 323 L603 323 L482 323 L482 313 L482 303 L512 303 C532 303 582 267 582 243 L582 245 L582 245 Z M410 5 C399 3 389 2 381 2 L410 5 L410 5 Z " />
<glyph glyph-name="gbreve" unicode="&#x11f;" horiz-adv-x="520" d="M126 745 C128 715 217 639 251 639 C285 639 374 714 375 744 L365 745 C364 725 282 674 251 674 C219 674 138 726 137 746 L126 745 L126 745 Z M125 350 C125 392 215 498 251 498 C286 498 376 392 376 350 C376 307 286 200 251 200 C215 200 125 307 125 350 L125 350 Z M175 18 C178 17 181 17 183 17 L296 17 C346 17 444 -60 444 -90 C444 -127 321 -219 272 -219 C221 -219 94 -120 94 -81 C94 -60 145 -1 175 17 L175 18 L175 18 Z M165 20 C127 4 53 -70 53 -94 C53 -133 207 -231 269 -231 C330 -231 485 -123 485 -80 C485 -38 364 66 301 66 L186 66 C157 66 84 105 84 121 C84 140 203 187 251 187 C301 187 426 303 426 349 C426 356 423 365 418 375 C425 403 487 474 504 474 C512 474 533 445 533 434 C533 429 549 416 556 416 C562 416 576 433 576 440 C576 456 540 495 525 495 C502 495 423 419 415 388 L418 375 C390 428 294 510 252 510 C202 510 76 396 76 350 C76 311 167 221 225 195 C162 182 56 129 56 106 C56 84 124 33 166 19 L165 20 L165 20 Z " />
<glyph glyph-name="Gdot" unicode="&#x120;" horiz-adv-x="780" d="M383 865 C392 865 415 888 415 897 C415 907 392 930 383 930 C374 930 351 907 351 897 C351 888 374 865 383 865 L383 865 Z M582 245 L584 32 L584 32 L583 90 C583 69 477 20 411 7 L523 20 C467 10 413 3 383 3 C309 3 124 268 124 374 C124 483 311 757 385 757 C405 757 437 745 472 728 L468 729 C509 710 632 575 637 551 C639 545 642 530 642 530 L650 530 L657 530 L657 626 L657 635 L657 741 L650 741 L642 741 C642 741 639 720 637 712 C635 702 569 692 540 702 C482 732 418 758 383 758 C292 758 62 483 62 373 C62 263 287 -12 377 -12 C443 -12 669 40 713 61 L713 62 C702 57 674 49 638 41 L638 243 C638 267 678 303 693 303 L723 303 L723 313 L723 323 L603 323 L482 323 L482 313 L482 303 L512 303 C532 303 582 267 582 243 L582 245 L582 245 Z M410 5 C399 3 389 2 381 2 L410 5 L410 5 Z " />
<glyph glyph-name="gdot" unicode="&#x121;" horiz-adv-x="520" d="M251 615 C260 615 283 638 283 647 C283 657 260 680 251 680 C241 680 218 657 218 647 C218 638 241 615 251 615 L251 615 Z M125 350 C125 392 215 498 251 498 C286 498 376 392 376 350 C376 307 286 200 251 200 C215 200 125 307 125 350 L125 350 Z M175 18 C178 17 181 17 183 17 L296 17 C346 17 444 -60 444 -90 C444 -127 321 -219 272 -219 C221 -219 94 -120 94 -81 C94 -60 145 -1 175 17 L175 18 L175 18 Z M165 20 C127 4 53 -70 53 -94 C53 -133 207 -231 269 -231 C330 -231 485 -123 485 -80 C485 -38 364 66 301 66 L186 66 C157 66 84 105 84 121 C84 140 203 187 251 187 C301 187 426 303 426 349 C426 356 423 365 418 375 C425 403 487 474 504 474 C512 474 533 445 533 434 C533 429 549 416 556 416 C562 416 576 433 576 440 C576 456 540 495 525 495 C502 495 423 419 415 388 L418 375 C390 428 294 510 252 510 C202 510 76 396 76 350 C76 311 167 221 225 195 C162 182 56 129 56 106 C56 84 124 33 166 19 L165 20 L165 20 Z " />
<glyph glyph-name="Hcircumflex" unicode="&#x124;" horiz-adv-x="814" d="M408 977 L551 808 L558 813 L426 1015 C425 1018 411 1033 409 1033 C406 1033 393 1018 391 1015 L260 813 L266 808 L408 977 L408 977 Z M671 80 L671 670 C671 694 724 730 746 730 L776 730 L776 740 L776 750 L643 750 L510 750 L510 740 L510 730 L540 730 C561 730 615 694 615 670 L615 384 L203 384 L203 670 C203 694 256 730 278 730 L308 730 L308 740 L308 750 L175 750 L42 750 L42 740 L42 730 L72 730 C93 730 147 694 147 670 L147 80 C147 56 93 20 72 20 L42 20 L42 10 L42 0 L175 0 L308 0 L308 10 L308 20 L278 20 C256 20 203 56 203 80 L203 382 L615 382 L615 80 C615 56 561 20 540 20 L510 20 L510 10 L510 0 L643 0 L776 0 L776 10 L776 20 L746 20 C724 20 671 56 671 80 L671 80 Z " />
<glyph glyph-name="Itilde" unicode="&#x128;" horiz-adv-x="362" d="M46 870 C46 889 80 936 93 936 C122 936 244 871 273 871 C290 871 335 939 335 966 L334 966 C334 949 298 906 284 906 C255 906 133 971 105 971 C88 971 45 899 45 870 L46 870 L46 870 Z M218 80 L218 670 C218 694 272 730 293 730 L323 730 L323 740 L323 750 L190 750 L57 750 L57 740 L57 730 L87 730 C108 730 162 694 162 670 L162 80 C162 56 108 20 87 20 L57 20 L57 10 L57 0 L190 0 L323 0 L323 10 L323 20 L293 20 C272 20 218 56 218 80 L218 80 Z " />
<glyph glyph-name="itilde" unicode="&#x129;" horiz-adv-x="283" d="M5 620 C5 639 38 686 52 686 C81 686 202 621 231 621 C249 621 293 689 293 716 L292 716 C292 699 257 656 243 656 C214 656 92 721 63 721 C46 721 4 649 4 620 L5 620 L5 620 Z M174 35 L174 390 L174 500 L165 500 L42 445 L42 435 C75 437 124 410 124 390 L124 35 C124 29 88 20 74 20 L44 20 L44 10 L44 0 L150 0 L257 0 L257 10 L257 20 L227 20 C212 20 174 29 174 35 L174 35 Z " />
<glyph glyph-name="Imacron" unicode="&#x12a;" horiz-adv-x="362" d="M40 901 L340 901 L340 936 L40 936 L40 901 L40 901 Z M218 80 L218 670 C218 694 272 730 293 730 L323 730 L323 740 L323 750 L190 750 L57 750 L57 740 L57 730 L87 730 C108 730 162 694 162 670 L162 80 C162 56 108 20 87 20 L57 20 L57 10 L57 0 L190 0 L323 0 L323 10 L323 20 L293 20 C272 20 218 56 218 80 L218 80 Z " />
<glyph glyph-name="imacron" unicode="&#x12b;" horiz-adv-x="283" d="M-2 651 L299 651 L299 686 L-1 686 L-2 651 L-2 651 Z M174 35 L174 390 L174 500 L165 500 L42 445 L42 435 C75 437 124 410 124 390 L124 35 C124 29 88 20 74 20 L44 20 L44 10 L44 0 L150 0 L257 0 L257 10 L257 20 L227 20 C212 20 174 29 174 35 L174 35 Z " />
<glyph glyph-name="Ibreve" unicode="&#x12c;" horiz-adv-x="362" d="M66 995 C67 965 156 889 190 889 C224 889 313 964 314 994 L304 995 C303 975 221 924 190 924 C159 924 77 976 76 996 L66 995 L66 995 Z M218 80 L218 670 C218 694 272 730 293 730 L323 730 L323 740 L323 750 L190 750 L57 750 L57 740 L57 730 L87 730 C108 730 162 694 162 670 L162 80 C162 56 108 20 87 20 L57 20 L57 10 L57 0 L190 0 L323 0 L323 10 L323 20 L293 20 C272 20 218 56 218 80 L218 80 Z " />
<glyph glyph-name="ibreve" unicode="&#x12d;" horiz-adv-x="283" d="M24 745 C26 715 115 639 149 639 C182 639 271 714 273 744 L262 745 C261 725 180 674 149 674 C117 674 36 726 35 746 L24 745 L24 745 Z M174 35 L174 390 L174 500 L165 500 L42 445 L42 435 C75 437 124 410 124 390 L124 35 C124 29 88 20 74 20 L44 20 L44 10 L44 0 L150 0 L257 0 L257 10 L257 20 L227 20 C212 20 174 29 174 35 L174 35 Z " />
<glyph glyph-name="Idot" unicode="&#x130;" horiz-adv-x="362" d="M190 865 C199 865 222 888 222 897 C222 907 199 930 190 930 C181 930 158 907 158 897 C158 888 181 865 190 865 L190 865 Z M218 80 L218 670 C218 694 272 730 293 730 L323 730 L323 740 L323 750 L190 750 L57 750 L57 740 L57 730 L87 730 C108 730 162 694 162 670 L162 80 C162 56 108 20 87 20 L57 20 L57 10 L57 0 L190 0 L323 0 L323 10 L323 20 L293 20 C272 20 218 56 218 80 L218 80 Z " />
<glyph glyph-name="dotlessi" unicode="&#x131;" horiz-adv-x="283" d="M174 35 L174 390 L174 500 L165 500 L42 445 L42 435 C75 437 124 410 124 390 L124 35 C124 29 88 20 74 20 L44 20 L44 10 L44 0 L150 0 L257 0 L257 10 L257 20 L227 20 C212 20 174 29 174 35 L174 35 Z " />
<glyph glyph-name="Jcircumflex" unicode="&#x134;" horiz-adv-x="362" d="M190 977 L332 808 L339 813 L208 1015 C206 1018 193 1033 190 1033 C187 1033 174 1018 172 1015 L41 813 L48 808 L190 977 L190 977 Z M162 670 L162 -31 C162 -105 64 -217 39 -217 C26 -217 8 -170 -5 -170 C-12 -170 -31 -189 -31 -196 C-31 -203 18 -220 37 -220 C73 -220 218 -43 218 75 L218 670 C218 694 272 730 293 730 L323 730 L323 740 L323 750 L190 750 L57 750 L57 740 L57 730 L87 730 C108 730 162 694 162 670 L162 670 Z " />
<glyph glyph-name="Lacute" unicode="&#x139;" horiz-adv-x="672" d="M197 813 L336 936 C356 954 406 1003 406 1005 C406 1011 387 1029 381 1029 C379 1029 331 979 313 959 L190 820 L197 813 L197 813 Z M597 1 C600 13 616 71 619 82 C622 94 637 152 640 163 C640 163 634 164 631 165 C628 165 621 166 621 166 L613 136 C603 98 478 1 412 1 L298 1 C264 1 218 57 218 80 L218 85 L218 665 C218 691 272 730 293 730 L323 730 L323 740 L323 750 L218 750 L190 750 L162 750 L57 750 L57 740 L57 730 L87 730 C108 730 162 691 162 665 L162 85 C162 59 108 20 87 20 L57 20 L57 10 L57 0 L138 0 L162 0 L218 0 L597 0 L597 1 L597 1 Z " />
<glyph glyph-name="Lcaron" unicode="&#x13d;" horiz-adv-x="672" d="M404 697 C411 718 426 792 426 801 C426 804 410 809 403 809 C398 809 381 723 378 702 L366 591 L374 590 L404 697 L404 697 Z M597 1 C600 13 616 71 619 82 C622 94 637 152 640 163 C640 163 634 164 631 165 C628 165 621 166 621 166 L613 136 C603 98 478 1 412 1 L298 1 C264 1 218 57 218 80 L218 85 L218 665 C218 691 272 730 293 730 L323 730 L323 740 L323 750 L218 750 L190 750 L162 750 L57 750 L57 740 L57 730 L87 730 C108 730 162 691 162 665 L162 85 C162 59 108 20 87 20 L57 20 L57 10 L57 0 L138 0 L162 0 L218 0 L597 0 L597 1 L597 1 Z " />
<glyph glyph-name="lcaron" unicode="&#x13e;" horiz-adv-x="283" d="M260 647 C266 668 281 742 281 751 C281 754 265 759 259 759 C254 759 236 673 234 652 L221 541 L230 540 L260 647 L260 647 Z M174 35 L174 650 L174 750 L165 750 L39 714 L39 704 L39 694 L69 702 C84 707 124 670 124 638 L124 35 C124 29 88 20 74 20 L44 20 L44 10 L44 0 L149 0 L254 0 L254 10 L254 20 L224 20 C209 20 174 29 174 35 L174 35 Z " />
<glyph glyph-name="Nacute" unicode="&#x143;" horiz-adv-x="765" d="M287 813 L426 936 C446 954 496 1003 496 1005 C496 1011 478 1029 471 1029 C470 1029 421 979 403 959 L281 820 L287 813 L287 813 Z M169 750 L155 750 L142 750 L108 750 L99 750 L48 750 L48 740 L48 730 L85 730 C93 730 127 709 136 695 L136 695 L142 686 L141 150 L141 150 C141 98 73 20 46 20 L16 20 L16 10 L16 0 L141 0 L149 0 L158 0 L283 0 L283 10 L283 20 L253 20 C226 20 163 85 157 133 L155 667 L551 80 L605 1 L616 1 L619 636 C625 676 688 731 714 731 L744 731 L744 741 L744 751 L620 751 L612 751 L603 751 L479 751 L479 741 L479 731 L509 731 C535 731 596 677 603 637 L604 101 L597 111 L169 750 L169 750 Z " />
<glyph glyph-name="Ncaron" unicode="&#x147;" horiz-adv-x="765" d="M381 873 L524 1042 L531 1037 L399 835 C397 832 384 817 381 817 C379 817 365 832 364 835 L232 1037 L239 1042 L381 873 L381 873 Z M170 750 L156 750 L143 750 L109 750 L100 750 L49 750 L49 740 L49 730 L86 730 C94 730 128 709 137 695 L137 695 L143 686 L142 150 L142 150 C142 98 74 20 47 20 L17 20 L17 10 L17 0 L142 0 L150 0 L159 0 L284 0 L284 10 L284 20 L254 20 C227 20 164 85 158 133 L156 667 L552 80 L606 1 L617 1 L620 636 C626 676 689 731 715 731 L745 731 L745 741 L745 751 L621 751 L613 751 L604 751 L480 751 L480 741 L480 731 L510 731 C536 731 597 677 604 637 L605 101 L598 111 L170 750 L170 750 Z " />
<glyph glyph-name="ncaron" unicode="&#x148;" horiz-adv-x="650" d="M329 623 L472 792 L479 787 L347 585 C346 582 332 567 330 567 C327 567 314 582 312 585 L181 787 L187 792 L329 623 L329 623 Z M491 35 C491 29 455 20 441 20 L411 20 L411 10 L411 0 L516 0 L621 0 L621 10 L621 20 L591 20 C577 20 541 29 541 35 L541 335 C541 385 426 510 373 510 C343 510 203 420 169 380 L169 400 L169 500 L160 500 L34 454 L34 444 L34 434 L64 445 C79 451 119 417 119 385 L119 35 C119 29 83 20 69 20 L39 20 L39 10 L39 0 L144 0 L249 0 L249 10 L249 20 L219 20 C204 20 169 29 169 35 L169 373 C200 409 330 487 360 487 C401 487 491 378 491 335 L491 35 L491 35 Z " />
<glyph glyph-name="Omacron" unicode="&#x14c;" horiz-adv-x="845" d="M266 901 L566 901 L566 936 L266 936 L266 901 L266 901 Z M407 -8 C324 -8 116 266 116 375 C116 484 331 758 416 758 C505 758 727 484 727 375 C727 266 498 -8 407 -8 L407 -8 Z M52 375 C52 265 305 -10 406 -10 C516 -10 791 265 791 375 C791 485 523 760 416 760 C313 760 52 485 52 375 L52 375 Z " />
<glyph glyph-name="omacron" unicode="&#x14d;" horiz-adv-x="578" d="M138 651 L438 651 L438 686 L138 686 L138 651 L138 651 Z M288 -8 C234 -8 98 176 98 250 C98 324 234 508 288 508 C342 508 478 324 478 250 C478 176 342 -8 288 -8 L288 -8 Z M42 250 C42 176 218 -10 288 -10 C358 -10 533 176 533 250 C533 324 358 510 288 510 C218 510 42 324 42 250 L42 250 Z " />
<glyph glyph-name="Obreve" unicode="&#x14e;" horiz-adv-x="845" d="M292 995 C294 965 383 889 416 889 C450 889 539 964 541 994 L530 995 C529 975 448 924 416 924 C385 924 304 976 303 996 L292 995 L292 995 Z M407 -8 C324 -8 116 266 116 375 C116 484 331 758 416 758 C505 758 727 484 727 375 C727 266 498 -8 407 -8 L407 -8 Z M52 375 C52 265 305 -10 406 -10 C516 -10 791 265 791 375 C791 485 523 760 416 760 C313 760 52 485 52 375 L52 375 Z " />
<glyph glyph-name="obreve" unicode="&#x14f;" horiz-adv-x="578" d="M163 745 C165 715 254 639 288 639 C322 639 411 714 412 744 L402 745 C401 725 319 674 288 674 C256 674 175 726 174 746 L163 745 L163 745 Z M288 -8 C234 -8 98 176 98 250 C98 324 234 508 288 508 C342 508 478 324 478 250 C478 176 342 -8 288 -8 L288 -8 Z M42 250 C42 176 218 -10 288 -10 C358 -10 533 176 533 250 C533 324 358 510 288 510 C218 510 42 324 42 250 L42 250 Z " />
<glyph glyph-name="Racute" unicode="&#x154;" horiz-adv-x="748" d="M353 813 L492 936 C512 954 562 1003 562 1005 C562 1011 544 1029 537 1029 C536 1029 487 979 469 959 L347 820 L353 813 L353 813 Z M738 0 L738 11 C687 11 600 49 579 80 C526 157 403 339 378 376 C467 406 598 493 598 540 C598 600 416 750 343 750 L212 750 L131 750 L51 750 L51 740 L51 730 L81 730 C102 730 156 691 156 665 L156 85 C156 59 102 20 81 20 L51 20 L51 10 L51 0 L184 0 L317 0 L317 10 L317 20 L287 20 C266 20 212 59 212 85 L212 366 L325 366 C348 329 465 152 514 80 C539 44 662 0 739 0 L738 0 L738 0 Z M213 739 L328 739 C388 739 538 605 538 551 C538 495 388 380 328 380 L213 380 L213 665 L213 739 L213 739 Z " />
<glyph glyph-name="Rcaron" unicode="&#x158;" horiz-adv-x="748" d="M738 0 L738 11 C687 11 600 49 579 80 C526 157 403 339 378 376 C467 406 598 493 598 540 C598 600 416 750 343 750 L212 750 L131 750 L51 750 L51 740 L51 730 L81 730 C102 730 156 691 156 665 L156 85 C156 59 102 20 81 20 L51 20 L51 10 L51 0 L184 0 L317 0 L317 10 L317 20 L287 20 C266 20 212 59 212 85 L212 366 L325 366 C348 329 465 152 514 80 C539 44 662 0 739 0 L738 0 L738 0 Z M348 873 L491 1042 L497 1037 L366 835 C364 832 351 817 348 817 C346 817 332 832 331 835 L199 1037 L206 1042 L348 873 L348 873 Z M214 739 L329 739 C389 739 539 605 539 551 C539 495 389 380 329 380 L214 380 L214 665 L214 739 L214 739 Z " />
<glyph glyph-name="rcaron" unicode="&#x159;" horiz-adv-x="392" d="M249 623 L392 792 L399 787 L267 585 C266 582 252 567 250 567 C247 567 234 582 232 585 L101 787 L107 792 L249 623 L249 623 Z M175 384 L175 400 L175 500 L166 500 L40 454 L40 444 L40 434 L70 445 C85 451 125 417 125 385 L125 35 C125 29 92 20 80 20 L50 20 L50 10 L50 0 L155 0 L260 0 L260 10 L260 20 L230 20 C214 20 175 29 175 35 L175 380 C193 416 272 487 296 487 C304 487 325 462 325 452 C325 443 346 422 354 422 C363 422 384 443 384 452 C384 468 338 510 320 510 C290 510 196 425 176 383 L175 384 L175 384 Z " />
<glyph glyph-name="Sacute" unicode="&#x15a;" horiz-adv-x="545" d="M280 813 L420 936 C440 954 490 1003 490 1005 C490 1011 471 1029 465 1029 C463 1029 415 979 397 959 L274 820 L280 813 L280 813 Z M381 705 L380 705 C330 734 271 760 245 760 C196 760 72 629 72 577 C72 539 217 377 284 346 C339 320 459 193 459 165 C459 116 346 -7 300 -7 C282 -7 244 12 204 38 L204 38 C174 57 78 195 72 219 C71 226 67 241 67 241 L59 241 L52 241 L52 148 L52 122 L52 3 L59 3 L67 3 C67 3 71 29 72 39 C74 54 135 72 156 58 L157 58 C213 22 275 -9 301 -9 C359 -9 505 128 505 182 C505 221 377 378 318 405 C255 434 117 571 117 599 C117 645 209 759 246 759 C252 759 261 757 272 753 L272 753 C273 753 274 752 275 751 C274 752 273 753 272 754 C281 751 291 747 302 742 L277 753 C320 732 436 601 443 574 C445 567 448 552 448 552 L456 552 L463 552 L463 645 L463 656 L463 760 L456 760 L448 760 C448 760 445 739 443 731 C441 720 397 699 382 708 L381 705 L381 705 Z " />
<glyph glyph-name="Scircumflex" unicode="&#x15c;" horiz-adv-x="545" d="M381 705 L380 705 C330 734 271 760 245 760 C196 760 72 629 72 577 C72 539 217 377 284 346 C339 320 459 193 459 165 C459 116 346 -7 300 -7 C282 -7 244 12 204 38 L204 38 C174 57 78 195 72 219 C71 226 67 241 67 241 L59 241 L52 241 L52 148 L52 122 L52 3 L59 3 L67 3 C67 3 71 29 72 39 C74 54 135 72 156 58 L157 58 C213 22 275 -9 301 -9 C359 -9 505 128 505 182 C505 221 377 378 318 405 C255 434 117 571 117 599 C117 645 209 759 246 759 C252 759 261 757 272 753 L272 753 C273 753 274 752 275 751 C274 752 273 753 272 754 C281 751 291 747 302 742 L277 753 C320 732 436 601 443 574 C445 567 448 552 448 552 L456 552 L463 552 L463 645 L463 656 L463 760 L456 760 L448 760 C448 760 445 739 443 731 C441 720 397 699 382 708 L381 705 L381 705 Z M275 980 L417 811 L424 816 L293 1018 C291 1021 278 1036 275 1036 C272 1036 259 1021 257 1018 L126 816 L133 811 L275 980 L275 980 Z " />
<glyph glyph-name="Scaron" unicode="&#x160;" horiz-adv-x="545" d="M381 705 L380 705 C330 734 271 760 245 760 C196 760 72 629 72 577 C72 539 217 377 284 346 C339 320 459 193 459 165 C459 116 346 -7 300 -7 C282 -7 244 12 204 38 L204 38 C174 57 78 195 72 219 C71 226 67 241 67 241 L59 241 L52 241 L52 148 L52 122 L52 3 L59 3 L67 3 C67 3 71 29 72 39 C74 54 135 72 156 58 L157 58 C213 22 275 -9 301 -9 C359 -9 505 128 505 182 C505 221 377 378 318 405 C255 434 117 571 117 599 C117 645 209 759 246 759 C252 759 261 757 272 753 L272 753 C273 753 274 752 275 751 C274 752 273 753 272 754 C281 751 291 747 302 742 L277 753 C320 732 436 601 443 574 C445 567 448 552 448 552 L456 552 L463 552 L463 645 L463 656 L463 760 L456 760 L448 760 C448 760 445 739 443 731 C441 720 397 699 382 708 L381 705 L381 705 Z M275 876 L417 1045 L424 1040 L293 838 C291 835 278 820 275 820 C272 820 259 835 257 838 L126 1040 L133 1045 L275 876 L275 876 Z " />
<glyph glyph-name="scaron" unicode="&#x161;" horiz-adv-x="435" d="M240 623 L383 792 L389 787 L258 585 C256 582 243 567 240 567 C238 567 224 582 223 585 L91 787 L98 792 L240 623 L240 623 Z M226 502 L207 508 C213 508 223 504 235 498 L226 502 L226 502 Z M225 501 C268 478 338 394 338 369 L338 352 L348 352 L358 352 L358 424 L358 431 L358 509 L348 509 L338 509 L338 480 C338 474 293 477 270 485 C244 498 219 508 206 508 C169 508 76 421 76 387 C76 357 181 246 228 229 C266 215 347 128 347 105 C347 72 270 -10 239 -10 C235 -10 229 -8 222 -5 C181 17 94 126 94 149 L94 165 L84 165 L74 165 L74 94 L74 87 L74 9 L84 9 L94 9 L94 30 C94 35 165 19 193 5 L194 5 C213 -5 230 -11 239 -11 C281 -11 385 83 385 120 C385 148 293 253 250 268 C207 284 112 380 112 405 C112 434 179 507 206 507 C211 507 217 505 224 501 L225 501 L225 501 Z " />
<glyph glyph-name="Tcaron" unicode="&#x164;" horiz-adv-x="775" d="M388 873 L531 1042 L538 1037 L406 835 C405 832 391 817 389 817 C386 817 373 832 371 835 L239 1037 L246 1042 L388 873 L388 873 Z M721 736 L721 750 L716 750 C710 767 704 784 702 790 C702 790 694 790 692 791 L681 791 L686 778 C689 770 636 751 596 751 L416 751 L361 751 L181 751 C141 751 88 770 91 778 L96 791 L85 791 C83 790 75 790 75 790 C73 785 67 768 61 751 L56 751 L56 737 C52 726 49 716 48 712 C44 701 24 645 20 634 C20 634 26 633 29 633 C32 633 39 632 39 632 L50 662 C57 683 137 737 177 737 L362 737 L362 81 C362 57 308 21 287 21 L257 21 L257 11 L257 1 L390 1 L522 1 L522 11 L522 21 L492 21 C471 21 417 57 417 81 L417 737 L602 737 C642 737 722 683 729 662 L740 632 C740 632 747 633 750 633 C753 633 759 634 759 634 C755 645 735 701 731 712 C730 716 727 726 723 737 L721 736 L721 736 Z " />
<glyph glyph-name="tcaron" unicode="&#x165;" horiz-adv-x="339" d="M299 500 L145 500 L145 620 L141 620 L30 500 L30 490 L95 490 L95 129 C95 82 179 -10 212 -10 C231 -10 315 46 329 68 L324 71 C313 55 244 14 227 14 C203 14 143 82 144 118 L145 474 L299 474 L299 500 L299 500 Z M386 647 C392 668 407 742 407 751 C407 754 391 759 384 759 C379 759 362 673 360 652 L347 541 L356 540 L386 647 L386 647 Z " />
<glyph glyph-name="Utilde" unicode="&#x168;" horiz-adv-x="777" d="M243 870 C243 889 276 936 290 936 C319 936 440 871 469 871 C487 871 532 939 532 966 L530 966 C530 949 495 906 481 906 C452 906 330 971 301 971 C284 971 242 899 242 870 L243 870 L243 870 Z M663 665 L663 750 L582 750 L502 750 L502 740 L502 730 L532 730 C553 730 607 691 607 665 L607 175 C587 132 367 26 299 26 C261 26 167 165 167 220 L167 665 L167 750 L86 750 L6 750 L6 740 L6 730 L36 730 C57 730 111 691 111 665 L111 220 C111 154 229 -10 277 -10 C349 -10 585 104 607 150 L607 110 L607 0 L616 0 L767 55 L767 65 C725 63 663 89 663 110 L663 665 L663 665 Z " />
<glyph glyph-name="utilde" unicode="&#x169;" horiz-adv-x="579" d="M140 620 C140 639 173 686 187 686 C216 686 337 621 366 621 C384 621 429 689 429 716 L427 716 C427 699 392 656 378 656 C349 656 227 721 198 721 C181 721 139 649 139 620 L140 620 L140 620 Z M424 90 L424 -10 L433 -10 L559 21 L559 31 L559 41 L529 34 C514 30 474 68 474 100 L474 465 L474 500 L416 500 L358 500 L358 490 L358 480 L388 480 C398 480 424 471 424 465 L424 135 C390 98 281 25 259 25 C226 25 143 122 143 160 L143 465 L143 500 L85 500 L27 500 L27 490 L27 480 L57 480 C67 480 93 471 93 465 L93 160 C93 112 195 -10 235 -10 C258 -10 384 86 425 132 L424 90 L424 90 Z " />
<glyph glyph-name="Umacron" unicode="&#x16a;" horiz-adv-x="777" d="M237 901 L537 901 L537 936 L237 936 L237 901 L237 901 Z M663 665 L663 750 L582 750 L502 750 L502 740 L502 730 L532 730 C553 730 607 691 607 665 L607 175 C587 132 367 26 299 26 C261 26 167 165 167 220 L167 665 L167 750 L86 750 L6 750 L6 740 L6 730 L36 730 C57 730 111 691 111 665 L111 220 C111 154 229 -10 277 -10 C349 -10 585 104 607 150 L607 110 L607 0 L616 0 L767 55 L767 65 C725 63 663 89 663 110 L663 665 L663 665 Z " />
<glyph glyph-name="umacron" unicode="&#x16b;" horiz-adv-x="579" d="M134 651 L434 651 L434 686 L134 686 L134 651 L134 651 Z M424 90 L424 -10 L433 -10 L559 21 L559 31 L559 41 L529 34 C514 30 474 68 474 100 L474 465 L474 500 L416 500 L358 500 L358 490 L358 480 L388 480 C398 480 424 471 424 465 L424 135 C390 98 281 25 259 25 C226 25 143 122 143 160 L143 465 L143 500 L85 500 L27 500 L27 490 L27 480 L57 480 C67 480 93 471 93 465 L93 160 C93 112 195 -10 235 -10 C258 -10 384 86 425 132 L424 90 L424 90 Z " />
<glyph glyph-name="Ubreve" unicode="&#x16c;" horiz-adv-x="777" d="M262 995 C264 965 353 889 387 889 C421 889 510 964 511 994 L501 995 C500 975 418 924 387 924 C355 924 274 976 273 996 L262 995 L262 995 Z M663 665 L663 750 L582 750 L502 750 L502 740 L502 730 L532 730 C553 730 607 691 607 665 L607 175 C587 132 367 26 299 26 C261 26 167 165 167 220 L167 665 L167 750 L86 750 L6 750 L6 740 L6 730 L36 730 C57 730 111 691 111 665 L111 220 C111 154 229 -10 277 -10 C349 -10 585 104 607 150 L607 110 L607 0 L616 0 L767 55 L767 65 C725 63 663 89 663 110 L663 665 L663 665 Z " />
<glyph glyph-name="ubreve" unicode="&#x16d;" horiz-adv-x="579" d="M159 745 C161 715 250 639 284 639 C318 639 407 714 408 744 L398 745 C397 725 315 674 284 674 C252 674 171 726 170 746 L159 745 L159 745 Z M424 90 L424 -10 L433 -10 L559 21 L559 31 L559 41 L529 34 C514 30 474 68 474 100 L474 465 L474 500 L416 500 L358 500 L358 490 L358 480 L388 480 C398 480 424 471 424 465 L424 135 C390 98 281 25 259 25 C226 25 143 122 143 160 L143 465 L143 500 L85 500 L27 500 L27 490 L27 480 L57 480 C67 480 93 471 93 465 L93 160 C93 112 195 -10 235 -10 C258 -10 384 86 425 132 L424 90 L424 90 Z " />
<glyph glyph-name="Uring" unicode="&#x16e;" horiz-adv-x="777" d="M387 822 C366 822 305 884 305 905 C305 929 363 988 387 988 C410 988 468 929 468 905 C468 884 408 822 387 822 L387 822 Z M290 905 C290 881 362 810 387 810 C411 810 483 881 483 905 C483 932 414 1000 387 1000 C359 1000 290 932 290 905 L290 905 Z M663 665 L663 750 L582 750 L502 750 L502 740 L502 730 L532 730 C553 730 607 691 607 665 L607 175 C587 132 367 26 299 26 C261 26 167 165 167 220 L167 665 L167 750 L86 750 L6 750 L6 740 L6 730 L36 730 C57 730 111 691 111 665 L111 220 C111 154 229 -10 277 -10 C349 -10 585 104 607 150 L607 110 L607 0 L616 0 L767 55 L767 65 C725 63 663 89 663 110 L663 665 L663 665 Z " />
<glyph glyph-name="uring" unicode="&#x16f;" horiz-adv-x="579" d="M284 572 C263 572 202 634 202 655 C202 679 260 738 284 738 C307 738 365 679 365 655 C365 634 304 572 284 572 L284 572 Z M187 655 C187 631 259 560 284 560 C308 560 380 631 380 655 C380 682 311 750 284 750 C256 750 187 682 187 655 L187 655 Z M424 90 L424 -10 L433 -10 L559 21 L559 31 L559 41 L529 34 C514 30 474 68 474 100 L474 465 L474 500 L416 500 L358 500 L358 490 L358 480 L388 480 C398 480 424 471 424 465 L424 135 C390 98 281 25 259 25 C226 25 143 122 143 160 L143 465 L143 500 L85 500 L27 500 L27 490 L27 480 L57 480 C67 480 93 471 93 465 L93 160 C93 112 195 -10 235 -10 C258 -10 384 86 425 132 L424 90 L424 90 Z " />
<glyph glyph-name="Wcircumflex" unicode="&#x174;" horiz-adv-x="1060" d="M520 977 L662 808 L669 813 L538 1015 C536 1018 523 1033 520 1033 C517 1033 504 1018 502 1015 L371 813 L378 808 L520 977 L520 977 Z M490 690 L550 500 L550 500 L365 71 L190 613 C179 661 235 730 267 730 L291 730 L291 740 L291 750 L159 750 L146 750 L85 750 L26 750 L26 740 L26 730 L63 730 C71 730 114 658 130 610 L130 610 L304 71 L330 -10 L345 -10 L558 474 L683 81 L711 -10 L726 -10 L913 610 L913 610 C927 658 995 730 1014 730 L1044 730 L1044 740 L1044 750 L955 750 L932 750 L906 750 L767 750 L767 740 L767 730 L792 730 C828 730 898 665 893 617 L737 81 L567 642 C561 678 624 729 656 729 L680 729 L680 739 L680 749 L535 749 L531 749 L470 749 L382 749 L382 739 L382 729 L412 729 C430 729 484 705 489 689 L490 690 L490 690 Z " />
<glyph glyph-name="Ycircumflex" unicode="&#x176;" horiz-adv-x="689" d="M351 977 L494 808 L500 813 L369 1015 C367 1018 354 1033 351 1033 C349 1033 335 1018 334 1015 L202 813 L209 808 L351 977 L351 977 Z M225 610 L225 610 C198 658 206 730 225 730 L250 730 L250 740 L250 750 L145 750 L138 750 L80 750 L26 750 L26 740 L26 730 L63 730 C71 730 127 665 157 617 L323 329 L323 80 C323 56 270 20 248 20 L218 20 L218 10 L218 0 L351 0 L484 0 L484 10 L484 20 L454 20 C433 20 379 56 379 80 L379 339 L530 618 C560 666 630 730 644 730 L675 730 L675 740 L675 750 L601 750 L596 750 L583 750 L491 750 L491 740 L491 730 L517 730 C535 730 550 669 529 625 L378 341 L225 610 L225 610 Z " />
<glyph glyph-name="Ydieresis" unicode="&#x178;" horiz-adv-x="689" d="M419 865 C428 865 451 888 451 897 C451 907 428 930 419 930 C410 930 387 907 387 897 C387 888 410 865 419 865 L419 865 Z M281 865 C291 865 314 888 314 897 C314 907 291 930 281 930 C272 930 249 907 249 897 C249 888 272 865 281 865 L281 865 Z M224 610 L224 610 C197 658 205 730 224 730 L249 730 L249 740 L249 750 L144 750 L137 750 L79 750 L25 750 L25 740 L25 730 L62 730 C70 730 126 665 156 617 L322 329 L322 80 C322 56 269 20 247 20 L217 20 L217 10 L217 0 L350 0 L483 0 L483 10 L483 20 L453 20 C432 20 378 56 378 80 L378 339 L529 618 C559 666 629 730 643 730 L674 730 L674 740 L674 750 L600 750 L595 750 L582 750 L490 750 L490 740 L490 730 L516 730 C534 730 549 669 528 625 L377 341 L224 610 L224 610 Z " />
<glyph glyph-name="Zacute" unicode="&#x179;" horiz-adv-x="652" d="M347 813 L486 936 C506 954 556 1003 556 1005 C556 1011 537 1029 531 1029 C529 1029 481 979 463 959 L340 820 L347 813 L347 813 Z M86 0 L446 0 L606 0 L627 84 L648 168 C648 168 641 169 638 169 C636 170 629 171 629 171 L612 127 C600 96 506 23 457 17 L95 13 L610 738 L610 750 L555 750 L240 750 L70 750 C68 737 59 672 57 659 C55 646 46 581 44 568 C44 568 54 567 57 567 C61 566 70 565 70 565 L76 595 C84 635 185 735 238 735 L238 735 L546 737 L25 11 L25 -1 L86 0 L86 0 Z " />
<glyph glyph-name="Zdot" unicode="&#x17b;" horiz-adv-x="652" d="M340 865 C349 865 372 888 372 897 C372 907 349 930 340 930 C331 930 308 907 308 897 C308 888 331 865 340 865 L340 865 Z M86 0 L446 0 L606 0 L627 84 L648 168 C648 168 641 169 638 169 C636 170 629 171 629 171 L612 127 C600 96 506 23 457 17 L95 13 L610 738 L610 750 L555 750 L240 750 L70 750 C68 737 59 672 57 659 C55 646 46 581 44 568 C44 568 54 567 57 567 C61 566 70 565 70 565 L76 595 C84 635 185 735 238 735 L238 735 L546 737 L25 11 L25 -1 L86 0 L86 0 Z " />
<glyph glyph-name="zdot" unicode="&#x17c;" horiz-adv-x="475" d="M265 615 C274 615 297 638 297 647 C297 657 274 680 265 680 C256 680 233 657 233 647 C233 638 256 615 265 615 L265 615 Z M93 0 L384 0 L430 0 C431 8 437 49 438 58 C439 66 445 107 446 115 L441 115 L436 115 L422 85 C414 66 329 21 278 15 L103 12 L436 487 L436 499 L385 499 L136 499 C131 499 115 515 117 522 L122 539 L112 539 L102 539 C99 528 84 472 81 461 L60 384 L66 384 L72 384 L88 414 C98 433 177 477 222 483 L376 486 L41 11 L41 -1 L93 0 L93 0 Z " />
<glyph glyph-name="Zcaron" unicode="&#x17d;" horiz-adv-x="652" d="M340 873 L482 1042 L489 1037 L358 835 C356 832 343 817 340 817 C337 817 324 832 322 835 L191 1037 L198 1042 L340 873 L340 873 Z M86 0 L446 0 L606 0 L627 84 L648 168 C648 168 641 169 638 169 C636 170 629 171 629 171 L612 127 C600 96 506 23 457 17 L95 13 L610 738 L610 750 L555 750 L240 750 L70 750 C68 737 59 672 57 659 C55 646 46 581 44 568 C44 568 54 567 57 567 C61 566 70 565 70 565 L76 595 C84 635 185 735 238 735 L238 735 L546 737 L25 11 L25 -1 L86 0 L86 0 Z " />
<glyph glyph-name="zcaron" unicode="&#x17e;" horiz-adv-x="475" d="M265 623 L407 792 L414 787 L283 585 C281 582 268 567 265 567 C262 567 249 582 247 585 L116 787 L123 792 L265 623 L265 623 Z M93 0 L384 0 L430 0 C431 8 437 49 438 58 C439 66 445 107 446 115 L441 115 L436 115 L422 85 C414 66 329 21 278 15 L103 12 L436 487 L436 499 L385 499 L136 499 C131 499 115 515 117 522 L122 539 L112 539 L102 539 C99 528 84 472 81 461 L60 384 L66 384 L72 384 L88 414 C98 433 177 477 222 483 L376 486 L41 11 L41 -1 L93 0 L93 0 Z " />
<glyph glyph-name="oogonek" unicode="&#x1eb;" horiz-adv-x="790" d="M1015 -54 L1014 -54 C1001 -65 818 -94 759 -94 C701 -94 469 -40 389 -10 C492 -7 741 206 741 291 C741 377 495 592 397 592 C302 592 64 377 64 291 C64 208 321 5 381 -10 C487 -56 708 -127 754 -127 C804 -127 992 -76 1016 -55 L1015 -54 L1015 -54 Z M388 -9 C350 -9 121 205 121 291 C121 376 318 590 397 590 C478 590 683 376 683 291 C683 205 472 -9 388 -9 L388 -9 Z " />
<glyph glyph-name="Adotabove" unicode="&#x226;" horiz-adv-x="739" d="M395 865 C404 865 427 888 427 897 C427 907 404 930 395 930 C385 930 362 907 362 897 C362 888 385 865 395 865 L395 865 Z M240 296 L497 296 L544 140 L544 140 C559 92 505 20 476 20 L451 20 L451 10 L451 0 L586 0 L593 0 L645 0 L734 0 L734 10 L734 20 L704 20 C686 20 625 84 605 132 L423 733 L411 771 L405 771 C398 761 370 734 367 733 L370 723 L197 164 C174 104 78 21 49 21 L19 21 L19 11 L19 1 L147 1 L150 1 L167 1 L315 1 L315 11 L315 21 L291 21 C254 21 188 106 201 166 L240 296 L240 296 Z M242 300 L372 721 L498 300 L242 300 L242 300 Z " />
<glyph glyph-name="G_sc" unicode="&#x262;" horiz-adv-x="700" d="M450 562 L449 562 C408 580 367 593 341 593 C262 593 63 378 63 292 C63 206 261 -10 340 -10 C370 -10 450 8 521 27 L558 36 L558 37 C592 47 620 56 634 62 L633 63 C621 57 593 49 558 40 L558 172 C558 196 597 232 613 232 L643 232 L643 242 L643 252 L525 252 L408 252 L408 242 L408 232 L438 232 C458 232 508 196 508 172 L509 77 C503 57 421 16 369 4 L441 14 C401 6 365 1 345 1 C281 1 119 208 119 291 C119 376 279 590 343 590 C354 590 369 587 386 581 L385 581 C426 567 552 439 558 414 C559 408 563 392 563 392 L570 392 L578 392 L578 487 L578 488 L578 582 L570 582 L563 582 C563 582 559 562 558 554 C556 546 479 549 451 561 L450 562 L450 562 Z M369 4 C360 2 352 1 345 1 L369 4 L369 4 Z " />
<glyph glyph-name="I_sc" unicode="&#x26a;" horiz-adv-x="360" d="M215 80 L215 503 C215 527 269 563 290 563 L320 563 L320 573 L320 583 L190 583 L60 583 L60 573 L60 563 L90 563 C111 563 165 527 165 503 L165 80 C165 56 111 20 90 20 L60 20 L60 10 L60 0 L190 0 L320 0 L320 10 L320 20 L290 20 C269 20 215 56 215 80 L215 80 Z " />
<glyph glyph-name="N_sc" unicode="&#x274;" horiz-adv-x="687" d="M156 140 L156 140 L155 514 L489 56 L530 0 L540 0 L543 467 C547 507 612 563 638 563 L668 563 L668 573 L668 583 L544 583 L536 583 L529 583 L404 583 L404 573 L404 563 L434 563 C461 563 529 503 529 463 L529 463 L530 66 L521 78 L167 583 L155 583 L143 583 L111 583 L105 583 L54 583 L54 573 L54 563 L92 563 C99 563 131 544 143 530 L142 149 L142 149 C142 97 74 19 47 19 L17 19 L17 9 L17 -1 L142 -1 L150 -1 L157 -1 L282 -1 L282 9 L282 19 L252 19 C225 19 157 91 157 139 L156 140 L156 140 Z " />
<glyph glyph-name="R_sc" unicode="&#x280;" horiz-adv-x="709" d="M699 0 L699 10 C648 10 564 38 544 62 C495 120 382 256 354 290 C443 313 576 383 576 420 C576 466 393 583 321 583 L207 583 L129 583 L51 583 L51 573 L51 563 L81 563 C103 563 156 524 156 498 L156 85 C156 59 103 20 81 20 L51 20 L51 10 L51 0 L182 0 L312 0 L312 10 L312 20 L282 20 C260 20 207 59 207 85 L207 283 L305 283 C329 253 438 118 484 62 C508 34 624 0 698 0 L699 0 L699 0 Z M207 573 L306 573 C367 573 520 471 520 430 C520 386 367 296 306 296 L207 296 L207 498 L207 573 L207 573 Z " />
<glyph glyph-name="Y_sc" unicode="&#x28f;" horiz-adv-x="609" d="M220 452 C197 499 202 562 221 562 L246 562 L246 572 L246 582 L141 582 L137 582 L81 582 L29 582 L29 572 L29 562 L66 562 C74 562 139 490 168 442 L169 442 L287 254 L287 79 C287 55 233 19 212 19 L182 19 L182 9 L182 -1 L312 -1 L442 -1 L442 9 L442 19 L412 19 C391 19 337 55 337 79 L337 262 L441 443 L441 442 C468 490 549 562 564 562 L595 562 L595 572 L595 582 L521 582 L518 582 L504 582 L413 582 L413 572 L413 562 L438 562 C457 562 469 496 443 452 L443 450 L337 264 L220 452 L220 452 Z " />
<glyph glyph-name="B_sc" unicode="&#x299;" horiz-adv-x="535" d="M208 582 L264 582 C329 582 432 479 432 437 C432 398 343 300 307 300 L208 300 L208 498 L208 582 L208 582 Z M317 300 C372 311 482 405 482 444 C482 484 350 584 267 584 L208 584 L130 584 L52 584 L52 574 L52 564 L82 564 C104 564 157 525 157 499 L157 86 C157 60 104 21 82 21 L52 21 L52 11 L52 1 L130 1 L208 1 L328 1 C376 1 496 93 496 151 C496 194 394 301 353 301 L317 300 L317 300 Z M308 300 L348 300 C374 300 440 194 440 151 C440 94 358 2 326 2 L276 2 C256 2 208 58 208 81 L208 86 L208 300 L308 300 L308 300 Z " />
<glyph glyph-name="H_sc" unicode="&#x29c;" horiz-adv-x="753" d="M608 80 L608 503 C608 527 662 563 683 563 L713 563 L713 573 L713 583 L583 583 L453 583 L453 573 L453 563 L483 563 C504 563 558 527 558 503 L558 299 L196 299 L196 503 C196 527 250 563 271 563 L301 563 L301 573 L301 583 L171 583 L41 583 L41 573 L41 563 L71 563 C92 563 146 527 146 503 L146 80 C146 56 92 20 71 20 L41 20 L41 10 L41 0 L171 0 L301 0 L301 10 L301 20 L271 20 C250 20 196 56 196 80 L196 297 L558 297 L558 80 C558 56 504 20 483 20 L453 20 L453 10 L453 0 L583 0 L713 0 L713 10 L713 20 L683 20 C662 20 608 56 608 80 L608 80 Z " />
<glyph glyph-name="L_sc" unicode="&#x29f;" horiz-adv-x="625" d="M550 1 C553 13 569 71 572 82 C575 94 590 152 593 163 C593 163 587 164 584 165 C581 165 574 166 574 166 L566 136 C556 98 431 1 365 1 L295 1 C261 1 215 57 215 80 L215 85 L215 498 C215 524 269 563 290 563 L320 563 L320 573 L320 583 L215 583 L190 583 L165 583 L60 583 L60 573 L60 563 L90 563 C111 563 165 524 165 498 L165 85 C165 59 111 20 90 20 L60 20 L60 10 L60 0 L138 0 L165 0 L215 0 L550 0 L550 1 L550 1 Z " />
<glyph glyph-name="A_sc" unicode="&#x1d00;" horiz-adv-x="665" d="M206 170 L206 170 L226 230 L443 230 L472 140 L472 140 C488 92 437 20 407 20 L383 20 L383 10 L383 0 L518 0 L521 0 L571 0 L659 0 L659 10 L659 20 L629 20 C612 20 549 82 528 129 L382 570 L371 602 L366 602 C360 594 336 571 332 570 L335 560 L335 560 L200 159 C172 99 76 18 48 18 L18 18 L18 8 L18 -2 L146 -2 L149 -2 L166 -2 L314 -2 L314 8 L314 18 L290 18 C252 18 185 108 206 168 L206 170 L206 170 Z M227 230 L336 556 L442 230 L227 230 L227 230 Z " />
<glyph glyph-name="C_sc" unicode="&#x1d04;" horiz-adv-x="623" d="M450 562 L449 562 C408 580 367 593 341 593 C262 593 63 378 63 292 C63 206 256 -10 333 -10 C358 -10 403 4 448 23 L448 23 C475 34 553 17 556 5 C559 -3 564 -24 564 -24 L570 -24 L576 -24 L576 83 L576 94 L576 94 L575 95 L575 189 L568 189 L560 189 C560 189 557 174 555 168 C550 147 451 36 414 16 C381 1 350 -9 332 -9 C271 -9 117 205 117 291 C117 376 277 590 341 590 C352 590 367 587 384 581 L383 581 C424 567 550 439 556 414 C557 408 561 392 561 392 L568 392 L576 392 L576 487 L576 488 L576 582 L568 582 L561 582 C561 582 557 562 556 554 C554 546 477 549 449 561 L450 562 L450 562 Z " />
<glyph glyph-name="D_sc" unicode="&#x1d05;" horiz-adv-x="714" d="M196 583 L146 583 L118 583 L41 583 L41 573 L41 563 L71 563 C92 563 146 524 146 498 L146 85 C146 59 92 20 71 20 L41 20 L41 10 L41 0 L118 0 L146 0 L196 0 L252 0 L196 583 L196 583 Z M196 582 L274 582 C377 582 604 374 604 292 C604 201 351 2 250 2 C227 2 196 58 196 80 L196 85 L196 498 L196 582 L196 582 Z " />
<glyph glyph-name="E_sc" unicode="&#x1d07;" horiz-adv-x="615" d="M423 0 L543 0 C544 9 550 54 552 63 C553 72 559 118 561 127 L551 127 L541 127 L536 97 C533 70 463 2 423 2 L288 2 C254 2 208 58 208 80 L208 85 L208 299 L335 299 C375 299 435 221 435 189 L435 159 L445 159 L455 159 L455 299 L455 300 L455 301 L455 441 L445 441 L435 441 L435 411 C435 380 375 301 335 301 L208 301 L208 498 L208 582 L401 582 C449 582 506 505 508 475 L510 457 L520 457 L530 457 C529 466 526 511 525 520 C525 529 521 574 521 583 L401 583 L208 583 L157 583 L130 583 L52 583 L52 573 L52 563 L82 563 C104 563 157 524 157 498 L157 85 C157 59 104 20 82 20 L52 20 L52 10 L52 0 L130 0 L157 0 L208 0 L423 0 L423 0 Z " />
<glyph glyph-name="J_sc" unicode="&#x1d0a;" horiz-adv-x="360" d="M165 503 L165 -26 C165 -102 77 -217 55 -217 C43 -217 28 -175 16 -175 C9 -175 -8 -192 -8 -199 C-8 -205 36 -220 53 -220 C86 -220 215 -46 215 70 L215 503 C215 527 269 563 290 563 L320 563 L320 573 L320 583 L190 583 L60 583 L60 573 L60 563 L90 563 C111 563 165 527 165 503 L165 503 Z " />
<glyph glyph-name="K_sc" unicode="&#x1d0b;" horiz-adv-x="628" d="M309 563 L313 563 L332 563 C361 563 373 491 333 443 L333 443 L208 292 L208 523 C208 539 261 563 283 563 L309 563 L309 563 Z M313 583 L309 583 L208 583 L183 583 L157 583 L52 583 L52 573 L52 563 L82 563 C104 563 157 539 157 523 L157 60 C157 44 104 20 82 20 L52 20 L52 10 L52 0 L157 0 L183 0 L208 0 L313 0 L313 10 L313 20 L283 20 C261 20 208 44 208 60 L208 292 L402 85 L402 85 C425 61 452 32 468 15 L481 1 L542 1 L545 1 L609 1 L609 11 L609 21 L571 21 C559 21 486 66 467 84 L246 325 L373 474 L373 474 C403 510 496 564 515 564 L545 564 L545 574 L545 584 L467 584 L448 584 L427 584 L313 583 L313 583 Z " />
<glyph glyph-name="M_sc" unicode="&#x1d0d;" horiz-adv-x="780" d="M679 85 L679 85 L667 415 L668 413 C666 473 716 563 737 563 L766 563 L766 573 L766 583 L690 583 L661 583 L631 583 L613 583 L418 65 L419 68 L197 583 L170 583 L158 583 L137 583 L119 583 L40 583 L40 573 L40 563 L70 563 C86 563 129 541 155 519 L142 150 L142 150 C140 98 69 20 42 20 L12 20 L12 10 L12 0 L137 0 L146 0 L154 0 L279 0 L279 10 L279 20 L250 20 C222 20 156 92 158 140 L158 140 L168 507 C171 504 173 501 174 498 L174 498 L363 68 L394 0 L406 0 L614 540 L630 85 L630 85 C631 59 577 20 555 20 L525 20 L525 10 L525 0 L633 0 L655 0 L683 0 L785 0 L785 10 L785 20 L755 20 C734 20 681 59 680 85 L679 85 L679 85 Z " />
<glyph glyph-name="O_sc" unicode="&#x1d0f;" horiz-adv-x="784" d="M376 -8 C300 -8 110 206 110 292 C110 377 307 591 386 591 C467 591 672 377 672 292 C672 206 461 -8 376 -8 L376 -8 Z M52 292 C52 206 284 -10 376 -10 C477 -10 730 206 730 292 C730 378 484 593 386 593 C291 593 52 378 52 292 L52 292 Z " />
<glyph glyph-name="P_sc" unicode="&#x1d18;" horiz-adv-x="607" d="M195 0 L220 0 L325 0 L325 10 L325 20 L295 20 C274 20 220 59 220 85 L220 273 L319 273 C396 273 587 372 587 420 C587 467 405 583 332 583 L220 583 L170 583 L143 583 L65 583 L65 573 L65 563 L95 563 C116 563 170 524 170 498 L170 85 C170 59 116 20 95 20 L65 20 L65 10 L65 0 L170 0 L195 0 L195 0 Z M220 284 L220 498 L220 575 L319 575 C382 575 540 470 540 429 C540 381 382 284 319 284 L220 284 L220 284 Z " />
<glyph glyph-name="T_sc" unicode="&#x1d1b;" horiz-adv-x="715" d="M655 583 C649 600 643 617 641 623 L631 623 L621 623 L626 610 C628 603 575 583 535 583 L383 583 L332 583 L180 583 C140 583 87 603 89 610 L94 623 L84 623 L74 623 C72 617 66 600 60 583 L55 583 L55 571 L55 571 C51 559 47 549 46 545 L18 468 C18 468 24 467 27 467 C30 467 37 466 37 466 L48 496 C56 517 135 571 175 571 L332 571 L332 80 C332 56 279 20 257 20 L227 20 L227 10 L227 0 L358 0 L488 0 L488 10 L488 20 L458 20 C436 20 383 56 383 80 L383 571 L540 571 C580 571 659 517 667 496 L678 466 C678 466 685 467 688 467 C691 467 697 468 697 468 L669 545 C668 549 664 559 660 571 L660 571 L660 583 L655 583 L655 583 Z " />
<glyph glyph-name="U_sc" unicode="&#x1d1c;" horiz-adv-x="713" d="M598 498 L598 583 L521 583 L443 583 L443 573 L443 563 L473 563 C494 563 548 524 548 498 L548 155 C530 117 317 22 249 22 C224 22 161 151 161 202 L161 498 L161 583 L83 583 L6 583 L6 573 L6 563 L36 563 C57 563 111 524 111 498 L111 202 C111 141 195 -10 229 -10 C301 -10 529 92 548 132 L548 110 L548 0 L556 0 L702 55 L702 65 C661 63 598 89 598 110 L598 498 L598 498 Z " />
<glyph glyph-name="V_sc" unicode="&#x1d20;" horiz-adv-x="673" d="M109 523 L282 76 L316 -10 L326 -10 L511 443 L511 443 C530 491 606 563 625 563 L655 563 L655 573 L655 583 L568 583 L548 583 L519 583 L383 583 L383 573 L383 563 L407 563 C445 563 512 491 493 443 L493 443 L316 -10 L349 76 L200 443 L200 443 C182 491 248 563 285 563 L308 563 L308 573 L308 583 L168 583 L143 583 L86 583 L28 583 L28 573 L28 563 L65 563 C73 563 102 539 109 523 L109 523 Z " />
<glyph glyph-name="W_sc" unicode="&#x1d21;" horiz-adv-x="933" d="M433 525 L480 388 L330 63 L330 64 L192 443 L192 443 C175 491 230 563 263 563 L286 563 L286 573 L286 583 L157 583 L141 583 L86 583 L28 583 L28 573 L28 563 L65 563 C72 563 112 502 131 455 L270 64 L296 -10 L309 -10 L487 368 L588 73 L616 -10 L629 -10 L782 443 L782 443 C797 491 868 563 887 563 L917 563 L917 573 L917 583 L829 583 L808 583 L780 583 L643 583 L643 573 L643 563 L667 563 C704 563 774 496 765 448 L644 73 L508 475 C499 511 561 563 592 563 L616 563 L616 573 L616 583 L471 583 L413 583 L325 583 L325 573 L325 563 L355 563 C373 563 423 541 433 525 L433 525 Z " />
<glyph glyph-name="Z_sc" unicode="&#x1d22;" horiz-adv-x="592" d="M80 0 L386 0 L546 0 C549 12 564 71 567 83 C570 95 585 154 587 166 C587 166 581 167 578 168 C575 168 568 169 568 169 L551 125 C540 95 447 22 397 15 L89 12 L549 573 L549 583 L500 583 L239 583 L69 583 C67 570 58 506 56 493 C55 480 45 416 44 403 C44 403 53 402 56 402 C60 401 69 400 69 400 L75 430 C84 470 184 570 237 570 L237 570 L491 572 L24 10 L24 -1 L80 0 L80 0 Z " />
<glyph glyph-name="Wgrave" unicode="&#x1e80;" horiz-adv-x="1060" d="M407 959 C390 979 342 1029 339 1029 C333 1029 314 1011 314 1005 C314 1002 364 954 384 936 L523 813 L530 820 L407 959 L407 959 Z M490 690 L550 500 L550 500 L365 71 L190 613 C179 661 235 730 267 730 L291 730 L291 740 L291 750 L159 750 L146 750 L85 750 L26 750 L26 740 L26 730 L63 730 C71 730 114 658 130 610 L130 610 L304 71 L330 -10 L345 -10 L558 474 L683 81 L711 -10 L726 -10 L913 610 L913 610 C927 658 995 730 1014 730 L1044 730 L1044 740 L1044 750 L955 750 L932 750 L906 750 L767 750 L767 740 L767 730 L792 730 C828 730 898 665 893 617 L737 81 L567 642 C561 678 624 729 656 729 L680 729 L680 739 L680 749 L535 749 L531 749 L470 749 L382 749 L382 739 L382 729 L412 729 C430 729 484 705 489 689 L490 690 L490 690 Z " />
<glyph glyph-name="Wacute" unicode="&#x1e82;" horiz-adv-x="1060" d="M527 813 L666 936 C686 954 736 1003 736 1005 C736 1011 717 1029 711 1029 C709 1029 661 979 643 959 L520 820 L527 813 L527 813 Z M490 690 L550 500 L550 500 L365 71 L190 613 C179 661 235 730 267 730 L291 730 L291 740 L291 750 L159 750 L146 750 L85 750 L26 750 L26 740 L26 730 L63 730 C71 730 114 658 130 610 L130 610 L304 71 L330 -10 L345 -10 L558 474 L683 81 L711 -10 L726 -10 L913 610 L913 610 C927 658 995 730 1014 730 L1044 730 L1044 740 L1044 750 L955 750 L932 750 L906 750 L767 750 L767 740 L767 730 L792 730 C828 730 898 665 893 617 L737 81 L567 642 C561 678 624 729 656 729 L680 729 L680 739 L680 749 L535 749 L531 749 L470 749 L382 749 L382 739 L382 729 L412 729 C430 729 484 705 489 689 L490 690 L490 690 Z " />
<glyph glyph-name="Wdieresis" unicode="&#x1e84;" horiz-adv-x="1060" d="M589 865 C598 865 621 888 621 897 C621 907 598 930 589 930 C579 930 556 907 556 897 C556 888 579 865 589 865 L589 865 Z M451 865 C461 865 484 888 484 897 C484 907 461 930 451 930 C442 930 419 907 419 897 C419 888 442 865 451 865 L451 865 Z M490 690 L550 500 L550 500 L365 71 L190 613 C179 661 235 730 267 730 L291 730 L291 740 L291 750 L159 750 L146 750 L85 750 L26 750 L26 740 L26 730 L63 730 C71 730 114 658 130 610 L130 610 L304 71 L330 -10 L345 -10 L558 474 L683 81 L711 -10 L726 -10 L913 610 L913 610 C927 658 995 730 1014 730 L1044 730 L1044 740 L1044 750 L955 750 L932 750 L906 750 L767 750 L767 740 L767 730 L792 730 C828 730 898 665 893 617 L737 81 L567 642 C561 678 624 729 656 729 L680 729 L680 739 L680 749 L535 749 L531 749 L470 749 L382 749 L382 739 L382 729 L412 729 C430 729 484 705 489 689 L490 690 L490 690 Z " />
<glyph glyph-name="Etilde" unicode="&#x1ebc;" horiz-adv-x="663" d="M219 870 C219 889 252 936 266 936 C295 936 416 871 445 871 C463 871 508 939 508 966 L506 966 C506 949 471 906 457 906 C428 906 306 971 277 971 C260 971 218 899 218 870 L219 870 L219 870 Z M471 0 L591 0 C592 9 599 54 600 63 C601 72 608 118 609 127 L599 127 L589 127 L585 97 C581 70 511 2 471 2 L292 2 C258 2 212 58 212 80 L212 85 L212 385 L383 385 C423 385 483 306 483 275 L483 245 L493 245 L503 245 L503 385 L503 386 L503 387 L503 527 L493 527 L483 527 L483 497 C483 466 423 387 383 387 L212 387 L212 665 L212 748 L449 748 C497 748 554 672 557 641 L558 623 L568 623 L578 623 C577 632 574 678 573 687 C573 696 570 741 569 750 L449 750 L212 750 L156 750 L131 750 L51 750 L51 740 L51 730 L81 730 C102 730 156 691 156 665 L156 85 C156 59 102 20 81 20 L51 20 L51 10 L51 0 L131 0 L156 0 L212 0 L471 0 L471 0 Z " />
<glyph glyph-name="Ygrave" unicode="&#x1ef2;" horiz-adv-x="689" d="M237 959 C220 979 172 1029 169 1029 C163 1029 144 1011 144 1005 C144 1002 194 954 215 936 L354 813 L360 820 L237 959 L237 959 Z M224 610 L224 610 C197 658 205 730 224 730 L249 730 L249 740 L249 750 L144 750 L137 750 L79 750 L25 750 L25 740 L25 730 L62 730 C70 730 126 665 156 617 L322 329 L322 80 C322 56 269 20 247 20 L217 20 L217 10 L217 0 L350 0 L483 0 L483 10 L483 20 L453 20 C432 20 378 56 378 80 L378 339 L529 618 C559 666 629 730 643 730 L674 730 L674 740 L674 750 L600 750 L595 750 L582 750 L490 750 L490 740 L490 730 L516 730 C534 730 549 669 528 625 L377 341 L224 610 L224 610 Z " />
<glyph glyph-name="quoteleft" unicode="&#x2018;" horiz-adv-x="225" d="M100 740 C95 740 85 733 77 725 C80 750 122 815 139 820 L136 830 C112 823 52 743 53 718 C52 704 87 669 100 669 C110 669 136 695 136 705 C136 715 110 740 100 740 L100 740 Z " />
<glyph glyph-name="quoteright" unicode="&#x2019;" horiz-adv-x="225" d="M125 689 C130 689 140 697 148 705 C146 680 104 615 87 610 L90 599 C113 606 173 686 173 712 C173 725 139 760 125 760 C115 760 90 735 90 725 C90 715 115 689 125 689 L125 689 Z " />
<glyph glyph-name="quotedblleft" unicode="&#x201c;" horiz-adv-x="355" d="M100 740 C95 740 85 733 77 725 C81 750 122 815 139 820 L136 830 C112 823 53 743 53 718 C53 704 87 669 100 669 C110 669 136 695 136 705 C136 715 110 740 100 740 L100 740 Z M231 740 C226 740 216 733 208 725 C211 750 253 815 269 820 L266 830 C242 823 183 743 183 718 C183 704 217 669 231 669 C241 669 266 695 266 705 C266 715 241 740 231 740 L231 740 Z " />
<glyph glyph-name="quotedblright" unicode="&#x201d;" horiz-adv-x="355" d="M256 689 C261 689 270 696 278 704 C275 678 235 615 218 610 L221 599 C245 606 304 686 304 712 C304 725 270 760 257 760 C246 760 221 735 221 725 C221 715 246 689 257 689 L256 689 L256 689 Z M126 689 C131 689 141 697 149 705 C147 680 105 615 88 610 L91 599 C114 606 174 686 174 712 C174 725 140 760 126 760 C116 760 91 735 91 725 C91 715 116 689 126 689 L126 689 Z " />
<glyph glyph-name="Euro" unicode="&#x20ac;" horiz-adv-x="753" d="M548 38 L548 38 C498 12 448 -8 423 -8 C363 -8 226 188 185 314 L483 314 L488 350 L176 350 C174 359 173 367 173 375 C173 383 174 391 176 400 L488 400 L493 436 L185 436 C228 562 371 758 434 758 C454 758 486 746 521 729 L517 730 C558 711 681 576 686 552 C688 546 691 531 691 531 L699 531 L706 531 L706 627 L706 636 L706 742 L699 742 L691 742 C691 742 688 721 686 713 C684 703 618 693 589 703 C531 733 467 759 432 759 C355 759 179 562 126 435 L59 435 L54 399 L114 399 C112 390 111 382 111 374 C111 366 112 358 114 349 L54 349 L49 313 L126 313 C177 186 347 -11 422 -11 C455 -11 522 15 583 45 L583 45 C608 57 681 44 684 32 C687 23 692 2 692 2 L698 2 L704 2 L704 110 L704 121 L704 217 L697 217 L689 217 C689 217 686 202 684 196 C679 175 579 54 546 37 L548 38 L548 38 Z " />
<glyph glyph-name="F_sc" unicode="&#xa730;" horiz-adv-x="593" d="M343 298 C381 289 436 226 439 200 L443 154 L449 154 L455 154 L455 298 L455 299 L455 443 L449 443 L443 443 L439 397 C436 369 373 299 335 299 L208 299 L208 498 L208 582 L321 582 C393 582 507 514 509 487 L512 457 C512 457 519 458 522 458 C525 459 532 460 532 460 C531 468 527 512 526 521 C525 530 522 574 521 583 L401 583 L208 583 L157 583 L130 583 L52 583 L52 573 L52 563 L82 563 C104 563 157 524 157 498 L157 85 C157 59 104 20 82 20 L52 20 L52 10 L52 0 L157 0 L183 0 L208 0 L313 0 L313 10 L313 20 L283 20 C261 20 208 59 208 85 L208 298 L343 298 L343 298 Z " />
<glyph glyph-name="S_sc" unicode="&#xa731;" horiz-adv-x="484" d="M312 561 L310 562 C275 580 239 594 221 594 C179 594 74 491 74 451 C74 422 197 293 253 267 C300 244 404 146 404 126 C404 88 307 -7 268 -7 C256 -7 234 2 209 15 C174 38 79 163 73 187 C72 193 68 208 68 208 L61 208 L53 208 L53 116 L53 89 L53 -29 L61 -29 L68 -29 C68 -29 72 -3 73 7 C75 21 136 41 163 32 C205 9 248 -9 268 -9 C318 -9 444 98 444 140 C444 170 333 295 283 319 C230 344 113 449 113 470 C113 505 190 592 221 592 C225 592 231 590 237 587 L221 592 C231 592 249 586 269 576 L237 587 C283 562 374 461 381 430 C382 424 386 409 386 409 L394 409 L401 409 L401 500 L401 502 L401 594 L394 594 L386 594 C386 594 382 574 381 566 C380 558 330 553 312 562 L312 561 L312 561 Z " />
<glyph glyph-name="X_sc" unicode="&#xf078;" horiz-adv-x="664" d="M244 150 L244 150 L333 272 L422 140 L422 140 C455 92 440 20 415 20 L391 20 L391 10 L391 0 L516 0 L519 0 L576 0 L648 0 L648 10 L648 20 L617 20 C602 20 520 87 486 135 L365 315 L442 414 L442 413 C484 473 594 563 613 563 L644 563 L644 573 L644 583 L574 583 L552 583 L530 583 L417 583 L417 573 L417 563 L440 563 C467 563 481 492 451 440 L363 317 L279 443 L279 443 C247 491 262 563 287 563 L310 563 L310 573 L310 583 L187 583 L185 583 L126 583 L64 583 L64 573 L64 563 L98 563 C109 563 179 498 214 450 L327 281 L206 121 L205 120 C175 80 76 20 55 20 L25 20 L25 10 L25 0 L115 0 L135 0 L173 0 L320 0 L320 10 L320 20 L298 20 C255 20 205 98 244 150 L244 150 Z " />
</font>
</svg>
