<?xml version="1.0" encoding="UTF-8"?>
<svg xmlns="http://www.w3.org/2000/svg" xmlns:xlink="http://www.w3.org/1999/xlink" version="1.2" >
<font id="Janecia- Regular">
<font-face  font-family="Janecia-" units-per-em="1024" ascent="975" descent="-300" font-style="normal" font-weight="400" font-stretch="normal" cap-height="750" x-height="500" underline-position="-125" underline-thickness="50" />
<missing-glyph  horiz-adv-x="650" d="" />
<glyph glyph-name="NULL" d="" />
<glyph glyph-name="CR" unicode="&#xd;" horiz-adv-x="256" d="" />
<glyph glyph-name="space" unicode="&#x20;" horiz-adv-x="250" d="" />
<glyph glyph-name="exclam" unicode="&#x21;" horiz-adv-x="241" d="M121 -5 C138 -5 180 37 180 54 C180 70 138 112 121 112 C104 112 62 70 62 54 C62 37 104 -5 121 -5 L121 -5 Z M121 755 C98 755 67 681 70 651 L113 210 L129 210 L172 651 C175 681 144 755 121 755 L121 755 Z " />
<glyph glyph-name="quotedbl" unicode="&#x22;" horiz-adv-x="363" d="M251 755 C236 755 211 700 215 679 L247 519 L259 519 L291 679 C296 700 270 755 256 755 L251 755 L251 755 Z M108 755 C93 755 67 700 72 679 L104 519 L116 519 L148 679 C153 700 127 755 112 755 L108 755 L108 755 Z " />
<glyph glyph-name="numbersign" unicode="&#x23;" horiz-adv-x="530" d="M390 668 L364 492 L212 492 L238 668 L233 668 L207 492 L68 492 L59 428 L198 428 L169 232 L27 232 L17 168 L160 168 L135 0 L139 0 L164 168 L316 168 L291 0 L296 0 L321 168 L455 168 L464 232 L330 232 L359 428 L502 428 L511 492 L369 492 L395 668 L390 668 L390 668 Z M202 428 L354 428 L325 232 L173 232 L202 428 L202 428 Z " />
<glyph glyph-name="dollar" unicode="&#x24;" horiz-adv-x="549" d="M299 825 L299 749 C281 756 265 760 255 760 C253 760 251 760 249 760 L249 826 L220 826 L220 749 C158 714 67 612 67 567 C67 530 154 416 220 359 L220 31 C217 33 214 35 211 37 L213 36 C180 58 77 201 71 224 C70 230 66 245 66 245 L59 245 L51 245 L51 148 L51 124 L51 3 L59 3 L66 3 C66 3 70 29 71 39 C73 53 135 71 156 56 L158 55 C179 41 201 28 221 17 L221 -75 L250 -75 L250 3 C268 -5 284 -10 294 -10 C296 -10 298 -10 300 -10 L300 -76 L329 -76 L329 -1 C401 33 511 143 511 192 C511 235 391 385 329 418 L329 711 C381 662 446 586 451 566 C452 560 456 545 456 545 L463 545 L471 545 L471 642 L471 651 L471 757 L463 757 L456 757 C456 757 452 737 451 728 C449 717 404 696 389 705 L388 705 C369 716 348 727 329 736 L329 824 L299 825 L299 825 Z M278 750 C284 747 292 742 300 735 L300 432 C285 441 267 454 249 469 L249 753 C252 754 254 754 256 754 C264 754 276 750 291 743 L278 750 L278 750 Z M278 748 L274 750 C275 750 276 749 277 748 L278 748 L278 748 Z M248 332 C254 328 259 325 264 323 C274 319 286 312 299 303 L299 -9 C297 -10 295 -10 293 -10 C284 -10 268 -3 249 8 L248 332 L248 332 Z M329 282 C381 240 437 181 437 162 C437 124 376 42 329 7 L329 282 L329 282 Z M220 494 C177 535 140 580 140 596 C140 629 183 697 220 732 L220 494 L220 494 Z " />
<glyph glyph-name="ampersand" unicode="&#x26;" horiz-adv-x="845" d="M326 466 C378 487 488 585 488 611 C488 654 364 760 315 760 C267 760 146 645 146 599 C146 581 199 498 241 440 C180 415 40 249 40 199 C40 139 187 -10 245 -10 C284 -10 378 67 473 164 L536 91 C560 63 677 -9 700 -9 C733 -9 830 103 835 147 L820 152 C817 126 756 59 735 59 C717 59 627 113 608 135 L531 225 C623 326 706 436 730 501 L710 501 C688 440 604 334 516 242 L347 440 C341 447 334 456 326 467 L326 466 L326 466 Z M318 478 C276 536 218 625 218 645 C218 673 287 742 314 742 C344 742 419 653 419 618 C419 590 352 501 317 479 L318 478 L318 478 Z M456 185 C386 118 321 69 292 69 C245 69 127 181 127 226 C127 270 205 399 247 431 C257 417 266 405 273 397 L456 185 L456 185 Z " />
<glyph glyph-name="quotesingle" unicode="&#x27;" horiz-adv-x="220" d="M108 755 C93 755 67 700 72 679 L104 519 L116 519 L148 679 C153 700 127 755 112 755 L108 755 L108 755 Z " />
<glyph glyph-name="parenleft" unicode="&#x28;" horiz-adv-x="320" d="M333 760 C264 705 90 357 90 273 C90 189 264 -159 333 -214 L340 -205 C286 -162 149 180 149 273 C149 366 286 707 340 751 L333 760 L333 760 Z " />
<glyph glyph-name="parenright" unicode="&#x29;" horiz-adv-x="312" d="M-28 751 C27 705 164 364 164 273 C164 179 27 -170 -28 -214 L-20 -223 C49 -167 223 188 223 273 C223 354 49 702 -20 760 L-28 751 L-28 751 Z " />
<glyph glyph-name="asterisk" unicode="&#x2a;" horiz-adv-x="294" d="M150 630 L175 750 C177 759 159 782 150 782 C141 782 123 759 125 750 L150 630 L150 630 Z M150 630 L241 548 C248 542 277 546 282 554 C286 562 275 589 267 592 L150 630 L150 630 Z M150 630 L59 712 C52 718 23 714 18 706 C14 698 25 671 33 668 L150 630 L150 630 Z M150 630 L267 668 C275 671 286 698 282 706 C277 714 248 718 241 712 L150 630 L150 630 Z M150 630 L33 592 C25 589 14 562 18 554 C23 546 52 542 59 548 L150 630 L150 630 Z M150 630 L125 510 C123 501 141 478 150 478 C159 478 177 501 175 510 L150 630 L150 630 Z " />
<glyph glyph-name="plus" unicode="&#x2b;" horiz-adv-x="620" d="M278 460 L278 279 L100 279 L100 221 L278 221 L278 40 L342 40 L342 221 L520 221 L520 279 L342 279 L342 460 L278 460 L278 460 Z " />
<glyph glyph-name="comma" unicode="&#x2c;" horiz-adv-x="248" d="M125 -5 C134 -5 149 6 162 19 C163 16 163 13 163 11 C163 -15 90 -103 61 -111 L66 -128 C106 -117 204 -12 204 19 C204 32 190 55 174 75 C167 85 157 95 147 102 C139 108 131 112 125 112 C108 112 66 70 66 54 C66 37 108 -5 125 -5 L125 -5 Z " />
<glyph glyph-name="hyphen" unicode="&#x2d;" horiz-adv-x="430" d="M80 252 L350 252 L350 318 L80 318 L80 252 L80 252 Z " />
<glyph glyph-name="period" unicode="&#x2e;" horiz-adv-x="248" d="M125 -5 C142 -5 184 37 184 54 C184 70 142 112 125 112 C108 112 66 70 66 54 C66 37 108 -5 125 -5 L125 -5 Z " />
<glyph glyph-name="slash" unicode="&#x2f;" horiz-adv-x="388" d="M310 770 L28 -80 L76 -80 L358 770 L310 770 L310 770 Z " />
<glyph glyph-name="zero" unicode="0" horiz-adv-x="609" d="M305 24 C248 24 84 186 84 250 C84 308 242 476 305 476 C362 476 526 314 526 250 C526 192 368 24 305 24 L305 24 Z M45 250 C45 176 238 -10 305 -10 C379 -10 565 183 565 250 C565 324 372 510 305 510 C231 510 45 317 45 250 L45 250 Z " />
<glyph glyph-name="one" unicode="1" horiz-adv-x="363" d="M223 35 L223 465 C223 471 273 480 293 480 L323 480 L323 490 L323 500 L182 500 L40 500 L40 490 L40 480 L70 480 C90 480 140 471 140 465 L140 35 C140 29 90 20 70 20 L40 20 L40 10 L40 0 L182 0 L323 0 L323 10 L323 20 L293 20 C273 20 223 29 223 35 L223 35 Z " />
<glyph glyph-name="two" unicode="2" horiz-adv-x="540" d="M61 290 C69 335 188 447 227 447 C264 447 358 360 358 326 C358 272 114 57 30 15 L30 0 L304 0 L384 0 L430 0 C433 4 441 17 449 31 L476 74 L476 74 C487 91 508 125 513 132 L505 136 C502 137 497 139 497 139 L478 109 C472 99 390 74 346 74 L155 74 L85 32 C215 116 441 300 441 344 C441 391 319 509 270 509 C217 509 56 354 44 293 L61 290 L61 290 Z " />
<glyph glyph-name="three" unicode="3" horiz-adv-x="433" d="M17 -216 L20 -232 C126 -221 393 -50 393 6 C393 50 232 183 167 192 L166 191 C258 251 380 355 380 385 C380 420 264 509 217 509 C172 509 31 396 21 350 L38 345 C45 375 149 451 184 451 C214 451 291 383 291 356 C291 320 153 192 98 168 L98 152 C158 144 306 22 306 -18 C306 -66 99 -208 17 -217 L17 -216 L17 -216 Z " />
<glyph glyph-name="four" unicode="4" horiz-adv-x="620" d="M595 2 C597 18 599 32 600 37 C602 50 611 116 613 129 L603 129 L593 129 L589 99 C587 89 518 64 474 64 L415 64 L415 385 L415 530 L404 530 L15 15 L15 0 L43 0 L332 0 L332 -220 L415 -220 L415 0 L515 0 C539 0 572 -18 571 -25 L567 -55 L577 -55 L587 -55 C588 -48 591 -23 594 -1 L594 -1 L595 2 L595 2 Z M90 63 L332 385 L332 385 L332 64 L91 64 L90 63 L90 63 Z " />
<glyph glyph-name="five" unicode="5" horiz-adv-x="435" d="M60 -234 C159 -222 405 -19 405 50 C405 114 183 276 94 276 L77 276 L104 425 L343 428 L354 491 C357 505 362 533 363 540 L353 540 L343 540 L341 527 C340 519 276 500 236 500 L89 500 L34 202 L49 189 L86 189 C156 189 333 70 333 22 C333 -37 137 -209 60 -218 L60 -234 L60 -234 Z " />
<glyph glyph-name="six" unicode="6" horiz-adv-x="567" d="M550 750 C407 720 50 392 50 291 C50 205 221 -10 290 -10 C354 -10 515 168 515 239 C515 302 356 461 292 461 C272 461 239 439 208 409 C305 551 471 721 553 739 L550 750 L550 750 Z M133 248 C133 308 246 458 291 458 C331 458 431 305 431 244 C431 173 329 -5 289 -5 C245 -5 133 176 133 248 L133 248 Z " />
<glyph glyph-name="seven" unicode="7" horiz-adv-x="438" d="M145 500 C119 500 89 518 92 525 L99 540 L89 540 L79 540 C73 528 46 466 40 454 C35 442 7 380 2 368 L12 368 L22 368 L31 388 C37 401 81 433 101 433 L403 433 L417 457 L109 -220 L172 -220 L434 485 L434 500 L432 500 L145 500 L145 500 Z " />
<glyph glyph-name="eight" unicode="8" horiz-adv-x="541" d="M223 375 C232 368 240 363 247 360 C301 338 438 206 438 154 C438 108 318 -7 270 -7 C225 -7 112 122 112 174 C112 214 178 327 223 374 L223 375 L223 375 Z M217 379 C148 331 40 210 40 174 C40 122 205 -10 270 -10 C336 -10 502 134 502 191 C502 244 384 368 310 418 C376 463 476 567 476 597 C476 643 328 759 268 759 C210 759 65 630 65 579 C65 540 157 426 217 378 L217 379 L217 379 Z M304 422 C294 428 285 433 278 436 C236 453 132 574 132 610 C132 652 230 756 268 756 C307 756 405 637 405 589 C405 557 346 465 304 422 L304 422 Z " />
<glyph glyph-name="nine" unicode="9" horiz-adv-x="567" d="M18 -250 C160 -220 518 108 518 209 C518 295 346 510 278 510 C214 510 53 332 53 261 C53 198 212 39 276 39 C296 39 329 62 361 93 C264 -49 97 -220 15 -238 L18 -250 L18 -250 Z M435 253 C435 193 322 43 277 43 C237 43 136 196 136 257 C136 328 238 506 279 506 C323 506 435 325 435 253 L435 253 Z " />
<glyph glyph-name="colon" unicode="&#x3a;" horiz-adv-x="248" d="M125 388 C142 388 184 430 184 446 C184 463 142 505 125 505 C108 505 66 463 66 446 C66 430 108 388 125 388 L125 388 Z M125 -5 C142 -5 184 37 184 54 C184 70 142 112 125 112 C108 112 66 70 66 54 C66 37 108 -5 125 -5 L125 -5 Z " />
<glyph glyph-name="semicolon" unicode="&#x3b;" horiz-adv-x="268" d="M125 385 C142 385 184 427 184 444 C184 460 142 502 125 502 C108 502 66 460 66 444 C66 427 108 385 125 385 L125 385 Z M140 -5 C149 -5 164 6 177 19 C178 16 178 13 178 11 C178 -15 105 -103 76 -111 L81 -128 C121 -117 219 -12 219 19 C219 32 205 55 189 75 C182 85 172 95 162 102 C154 108 146 112 140 112 C123 112 81 70 81 54 C81 37 123 -5 140 -5 L140 -5 Z " />
<glyph glyph-name="equal" unicode="&#x3d;" horiz-adv-x="532" d="M83 218 L83 182 L463 182 L463 218 L83 218 L83 218 Z M83 318 L83 282 L463 282 L463 318 L83 318 L83 318 Z " />
<glyph glyph-name="question" unicode="&#x3f;" horiz-adv-x="299" d="M125 -5 C142 -5 184 37 184 54 C184 70 142 112 125 112 C108 112 66 70 66 54 C66 37 108 -5 125 -5 L125 -5 Z M124 208 L125 360 C169 360 269 420 285 445 C293 457 314 536 314 555 C314 613 193 760 145 760 C123 760 67 716 67 698 C67 687 99 657 112 657 C121 657 166 672 175 672 C208 672 290 581 290 545 C290 538 273 494 266 484 C258 472 157 440 97 440 L110 208 L124 208 L124 208 Z " />
<glyph glyph-name="at" unicode="&#x40;" horiz-adv-x="1158" d="M1042 0 C1010 -67 691 -236 595 -236 C459 -236 120 118 120 259 C120 400 449 754 580 754 C711 754 1039 460 1039 343 C1039 247 908 7 856 7 C810 7 729 145 743 200 L813 480 L734 480 L711 387 C685 430 616 490 585 490 C501 490 290 277 290 192 C290 140 416 9 466 9 C509 9 629 99 670 155 C696 82 788 -21 840 -21 C916 -21 1104 239 1104 343 C1104 467 729 777 580 777 C430 777 55 407 55 259 C55 111 441 -259 595 -259 C695 -259 1035 -74 1069 0 L1042 0 L1042 0 Z M703 356 L664 200 C654 158 543 54 509 54 C473 54 381 164 381 208 C381 282 525 467 583 467 C617 467 702 388 704 355 L703 356 L703 356 Z " />
<glyph glyph-name="A" unicode="A" horiz-adv-x="770" d="M631 140 L631 140 L447 721 L431 770 L421 770 C412 757 364 722 354 721 L357 711 L357 711 L196 170 L196 170 C179 110 77 20 47 20 L17 20 L17 10 L17 0 L146 0 L150 0 L166 0 L315 0 L315 10 L315 20 L291 20 C253 20 183 110 200 170 L200 170 L237 295 L487 295 L535 140 L534 140 C549 92 497 20 467 20 L443 20 L443 10 L443 0 L578 0 L603 0 L675 0 L764 0 L764 10 L764 20 L734 20 C715 20 646 92 631 140 L631 140 Z M238 299 L358 708 L485 299 L238 299 L238 299 Z " />
<glyph glyph-name="B" unicode="B" horiz-adv-x="675" d="M240 747 L319 747 C395 747 517 613 517 560 C517 511 390 386 339 386 L240 386 L240 665 L240 747 L240 747 Z M358 386 C443 403 609 521 609 570 C609 621 433 750 324 750 L239 750 L140 750 L41 750 L41 740 L41 730 L71 730 C92 730 146 691 146 665 L146 85 C146 59 92 20 71 20 L41 20 L41 10 L41 0 L140 0 L239 0 L359 0 C437 0 634 119 634 193 C634 248 455 386 384 386 L358 386 L358 386 Z M339 384 L375 384 C420 384 532 248 532 193 C532 120 406 3 355 3 L305 3 C286 3 239 58 239 80 L239 85 L239 384 L339 384 L339 384 Z " />
<glyph glyph-name="C" unicode="C" horiz-adv-x="733" d="M570 706 L570 706 C511 735 446 760 410 760 C308 760 51 485 51 375 C51 265 301 -10 400 -10 C435 -10 505 16 568 46 L569 46 C593 58 666 43 669 31 C671 22 677 1 677 1 L683 1 L689 1 L689 113 L689 120 L689 224 L682 224 L674 224 C674 224 671 209 669 203 C664 182 557 59 522 40 L522 40 C473 14 425 -7 401 -7 C331 -7 154 266 154 375 C154 484 338 757 412 757 C430 757 461 745 495 728 C541 702 665 569 670 546 C672 540 675 525 675 525 L683 525 L690 525 L690 629 L690 634 L690 744 L683 744 L675 744 C675 744 672 723 670 715 C668 703 597 692 571 705 L570 706 L570 706 Z " />
<glyph glyph-name="D" unicode="D" horiz-adv-x="844" d="M146 665 L146 85 C146 59 93 20 71 20 L41 20 L41 10 L41 0 L140 0 L146 0 L239 0 L319 0 C453 0 790 257 790 375 C790 482 494 750 359 750 L239 750 L146 750 L140 750 L41 750 L41 740 L41 730 L71 730 C93 730 146 691 146 665 L146 665 Z M239 747 L348 747 C454 747 687 481 687 375 C687 258 421 3 315 3 C283 3 239 58 239 80 L239 85 L239 665 L239 747 L239 747 Z " />
<glyph glyph-name="E" unicode="E" horiz-adv-x="654" d="M462 0 L582 0 C583 9 590 55 591 64 C592 73 599 119 600 128 L590 128 L580 128 L576 98 C572 71 502 3 462 3 L320 3 C286 3 240 58 240 80 L240 85 L240 385 L374 385 C414 385 474 306 474 275 L474 245 L484 245 L494 245 L494 385 L494 387 L494 388 L494 528 L484 528 L474 528 L474 498 C474 467 414 388 374 388 L240 388 L240 665 L240 747 L440 747 C488 747 545 671 547 640 L549 622 L559 622 L569 622 C568 631 565 677 564 686 C564 695 560 741 560 750 L440 750 L240 750 L147 750 L141 750 L42 750 L42 740 L42 730 L72 730 C93 730 147 691 147 665 L147 85 C147 59 93 20 72 20 L42 20 L42 10 L42 0 L141 0 L147 0 L240 0 L462 0 L462 0 Z " />
<glyph glyph-name="F" unicode="F" horiz-adv-x="632" d="M389 382 C427 368 476 310 479 285 L483 239 L489 239 L495 239 L495 381 L495 382 L495 384 L495 526 L489 526 L483 526 L479 480 C476 453 413 384 375 384 L241 384 L241 664 L241 747 L361 747 C433 747 547 679 549 652 L552 622 C552 622 559 623 562 623 C565 623 572 624 572 624 C571 633 567 678 566 687 C566 696 562 740 561 749 L441 749 L241 749 L148 749 L142 749 L43 749 L43 739 L43 729 L73 729 C94 729 148 690 148 664 L148 84 C148 58 94 19 73 19 L43 19 L43 9 L43 -1 L148 -1 L194 -1 L241 -1 L346 -1 L346 9 L346 19 L316 19 C294 19 241 58 241 84 L241 381 L389 382 L389 382 Z " />
<glyph glyph-name="G" unicode="G" horiz-adv-x="814" d="M570 706 L570 706 C511 735 446 760 410 760 C308 760 51 485 51 375 C51 265 306 -10 407 -10 C474 -10 700 42 744 62 L743 65 C733 60 706 53 671 46 L671 244 C671 268 711 304 726 304 L756 304 L756 314 L756 324 L617 324 L478 324 L478 314 L478 304 L508 304 C528 304 578 268 578 244 L580 30 L580 30 L579 123 C579 92 468 17 418 12 L453 14 C438 13 424 12 413 12 C339 12 152 271 152 374 C152 483 336 756 410 756 C428 756 459 744 493 727 C539 701 663 568 668 545 C670 539 673 524 673 524 L681 524 L688 524 L688 628 L688 633 L688 743 L681 743 L673 743 C673 743 670 722 668 714 C666 702 595 691 569 704 L570 706 L570 706 Z M418 11 C416 11 415 11 414 11 L418 11 L418 11 Z " />
<glyph glyph-name="H" unicode="H" horiz-adv-x="824" d="M679 80 L679 670 C679 694 733 730 754 730 L784 730 L784 740 L784 750 L633 750 L481 750 L481 740 L481 730 L511 730 C533 730 586 694 586 670 L586 385 L239 385 L239 670 C239 694 293 730 314 730 L344 730 L344 740 L344 750 L193 750 L41 750 L41 740 L41 730 L71 730 C93 730 146 694 146 670 L146 80 C146 56 93 20 71 20 L41 20 L41 10 L41 0 L193 0 L344 0 L344 10 L344 20 L314 20 C293 20 239 56 239 80 L239 381 L586 381 L586 80 C586 56 533 20 511 20 L481 20 L481 10 L481 0 L633 0 L784 0 L784 10 L784 20 L754 20 C733 20 679 56 679 80 L679 80 Z " />
<glyph glyph-name="I" unicode="I" horiz-adv-x="381" d="M236 80 L236 670 C236 694 290 730 311 730 L341 730 L341 740 L341 750 L190 750 L39 750 L39 740 L39 730 L69 730 C90 730 144 694 144 670 L144 80 C144 56 90 20 69 20 L39 20 L39 10 L39 0 L190 0 L341 0 L341 10 L341 20 L311 20 C290 20 236 56 236 80 L236 80 Z " />
<glyph glyph-name="J" unicode="J" horiz-adv-x="381" d="M144 670 L143 -66 C143 -125 46 -215 22 -215 C-1 -215 -29 -137 -51 -137 C-64 -137 -96 -168 -96 -181 C-96 -192 -14 -220 19 -220 C62 -220 237 -22 237 110 L236 670 C236 694 290 730 311 730 L341 730 L341 740 L341 750 L190 750 L39 750 L39 740 L39 730 L69 730 C90 730 144 694 144 670 L144 670 Z " />
<glyph glyph-name="K" unicode="K" horiz-adv-x="765" d="M608 85 L608 85 L313 433 L490 640 L490 640 C520 676 613 730 632 730 L662 730 L662 740 L662 750 L584 750 L547 750 L535 750 L407 750 L407 740 L407 730 L430 730 C459 730 472 658 432 610 L433 610 L240 375 L240 690 C240 706 293 730 315 730 L345 730 L345 740 L345 750 L240 750 L193 750 L147 750 L42 750 L42 740 L42 730 L72 730 C93 730 147 706 147 690 L147 60 C147 44 93 20 72 20 L42 20 L42 10 L42 0 L147 0 L193 0 L240 0 L345 0 L345 10 L345 20 L315 20 C293 20 240 44 240 60 L240 375 L559 0 L654 0 L680 0 L748 0 L748 10 L748 20 L710 20 C697 20 621 69 608 85 L608 85 Z " />
<glyph glyph-name="L" unicode="L" horiz-adv-x="653" d="M579 2 C582 14 597 72 600 83 C603 95 619 153 622 164 C622 164 615 165 612 166 C610 166 603 167 603 167 L595 137 C584 99 459 2 394 2 L316 2 C282 2 236 58 236 80 L236 85 L236 665 C236 691 290 730 311 730 L341 730 L341 740 L341 750 L236 750 L190 750 L144 750 L39 750 L39 740 L39 730 L69 730 C90 730 144 691 144 665 L144 85 C144 59 90 20 69 20 L39 20 L39 10 L39 0 L138 0 L144 0 L236 0 L579 0 L579 2 L579 2 Z " />
<glyph glyph-name="M" unicode="M" horiz-adv-x="893" d="M795 85 L794 85 L779 587 C781 647 829 730 849 730 L879 730 L879 740 L879 750 L782 750 L774 750 L718 750 L685 750 L475 122 L243 750 L177 750 L154 750 L139 750 L132 750 L35 750 L35 740 L35 730 L65 730 C81 730 127 706 151 683 L135 150 L135 150 C134 98 63 20 36 20 L6 20 L6 10 L6 0 L131 0 L147 0 L163 0 L288 0 L288 10 L288 20 L259 20 C231 20 164 92 166 140 L165 140 L174 643 L385 121 L433 0 L457 0 L686 661 L701 82 C698 56 647 20 626 20 L596 20 L596 10 L596 0 L703 0 L747 0 L796 0 L899 0 L899 10 L899 20 L869 20 C848 20 794 59 794 85 L795 85 L795 85 Z " />
<glyph glyph-name="N" unicode="N" horiz-adv-x="781" d="M184 750 L162 750 L139 750 L101 750 L69 750 L18 750 L18 740 L18 730 L55 730 C63 730 95 711 107 697 L138 654 L137 151 L137 151 C137 99 69 21 42 21 L12 21 L12 11 L12 1 L137 1 L151 1 L165 1 L290 1 L290 11 L290 21 L260 21 C234 21 169 88 164 136 L161 622 L514 134 L609 2 L628 2 L634 632 L634 632 C633 672 701 732 729 732 L759 732 L759 742 L759 752 L635 752 L621 752 L607 752 L482 752 L482 742 L482 732 L512 732 C539 732 607 672 607 632 L607 632 L608 162 L589 188 L184 750 L184 750 Z " />
<glyph glyph-name="O" unicode="O" horiz-adv-x="854" d="M410 -6 C338 -6 156 266 156 375 C156 484 344 756 419 756 C497 756 693 484 693 375 C693 266 491 -6 410 -6 L410 -6 Z M50 375 C50 265 307 -10 410 -10 C521 -10 800 265 800 375 C800 485 528 760 420 760 C314 760 50 485 50 375 L50 375 Z " />
<glyph glyph-name="P" unicode="P" horiz-adv-x="659" d="M216 0 L263 0 L368 0 L368 10 L368 20 L338 20 C317 20 263 59 263 85 L263 345 L361 345 C441 345 640 476 640 539 C640 599 458 750 385 750 L263 750 L170 750 L164 750 L65 750 L65 740 L65 730 L95 730 C116 730 170 691 170 665 L170 85 C170 59 116 20 95 20 L65 20 L65 10 L65 0 L170 0 L216 0 L216 0 Z M263 365 L263 665 L263 734 L361 734 C416 734 553 606 553 555 C553 492 416 365 361 365 L263 365 L263 365 Z " />
<glyph glyph-name="Q" unicode="Q" horiz-adv-x="850" d="M1150 -54 L1149 -52 C1135 -64 918 -94 845 -94 C765 -94 537 -44 430 -7 C551 21 799 272 799 376 C799 486 527 761 419 761 C314 761 49 486 49 376 C49 266 358 -9 409 -9 C413 -9 417 -9 422 -8 C563 -74 777 -152 834 -152 C890 -152 1116 -82 1149 -54 L1150 -54 L1150 -54 Z M385 9 C394 4 404 -1 414 -6 C412 -6 410 -6 408 -6 C403 -6 394 -1 383 8 L385 9 L385 9 Z M376 15 C304 81 154 284 154 375 C154 484 342 756 417 756 C495 756 691 484 691 375 C691 271 506 17 419 -5 C398 2 383 9 376 15 L376 15 Z " />
<glyph glyph-name="R" unicode="R" horiz-adv-x="803" d="M794 0 L794 19 C745 19 663 52 642 80 C584 158 447 342 420 379 C510 417 620 495 620 539 C620 600 438 751 365 751 L240 751 L141 751 L42 751 L42 741 L42 731 L72 731 C93 731 147 692 147 666 L147 86 C147 60 93 21 72 21 L42 21 L42 11 L42 1 L193 1 L345 1 L345 11 L345 21 L315 21 C293 21 240 60 240 86 L240 358 L335 358 C365 314 483 149 534 82 C561 46 702 2 794 2 L794 0 L794 0 Z M240 733 L338 733 C389 733 518 608 518 559 C518 501 389 382 338 382 L240 382 L240 667 L240 733 L240 733 Z " />
<glyph glyph-name="S" unicode="S" horiz-adv-x="549" d="M388 706 L387 706 C338 734 280 759 255 759 C201 759 66 619 66 564 C66 518 202 350 264 326 C318 305 436 192 436 165 C436 116 333 -7 292 -7 C277 -7 245 11 210 35 L212 34 C179 56 76 199 70 222 C69 228 65 243 65 243 L58 243 L50 243 L50 146 L50 122 L50 1 L58 1 L65 1 C65 1 69 27 70 37 C72 51 134 69 155 54 L157 53 C210 18 268 -12 293 -12 C355 -12 511 133 511 191 C511 236 380 398 321 421 C264 443 140 568 140 598 C140 643 223 755 256 755 C264 755 276 751 291 744 L278 749 C323 728 445 593 452 565 C453 559 457 544 457 544 L464 544 L472 544 L472 641 L472 650 L472 756 L464 756 L457 756 C457 756 453 736 452 727 C450 716 405 695 390 704 L388 706 L388 706 Z M279 749 L275 751 C276 751 277 750 278 749 L279 749 L279 749 Z " />
<glyph glyph-name="T" unicode="T" horiz-adv-x="775" d="M712 750 C706 767 700 783 698 789 C698 789 691 789 688 790 L678 790 L683 777 C686 769 632 750 593 750 L435 750 L342 750 L184 750 C145 750 91 769 94 777 L99 790 L89 790 C86 789 79 789 79 789 C77 783 71 767 65 750 L57 750 L57 727 L57 727 C54 718 51 711 50 708 C45 696 24 637 20 625 C20 625 26 624 29 624 C32 624 39 623 39 623 L50 653 C58 674 137 728 177 728 L343 728 L343 81 C343 57 289 21 268 21 L238 21 L238 11 L238 1 L390 1 L541 1 L541 11 L541 21 L511 21 C490 21 436 57 436 81 L436 728 L602 728 C642 728 721 674 729 653 L740 623 C740 623 747 624 750 624 C753 624 759 625 759 625 C755 637 734 696 729 708 C728 711 725 718 722 727 L722 727 L722 750 L712 750 L712 750 Z " />
<glyph glyph-name="U" unicode="U" horiz-adv-x="805" d="M691 665 L691 750 L592 750 L493 750 L493 740 L493 730 L523 730 C544 730 598 691 598 665 L598 187 C580 148 395 50 340 50 C301 50 204 172 204 220 L204 665 L204 750 L105 750 L6 750 L6 740 L6 730 L36 730 C58 730 111 691 111 665 L111 220 C111 154 248 -10 303 -10 C366 -10 577 101 598 146 L598 110 L598 0 L613 0 L795 55 L795 65 C753 63 691 89 691 110 L691 665 L691 665 Z " />
<glyph glyph-name="V" unicode="V" horiz-adv-x="830" d="M96 692 L322 126 L376 -10 L394 -10 L638 610 L638 610 C656 658 731 730 750 730 L780 730 L780 740 L780 750 L693 750 L656 750 L636 750 L491 750 L491 740 L491 730 L514 730 C553 730 622 658 604 610 L604 610 L376 -10 L426 126 L234 614 C220 662 285 730 323 730 L346 730 L346 740 L346 750 L182 750 L181 750 L74 750 L17 750 L17 740 L17 730 L54 730 C62 730 90 708 98 692 L96 692 L96 692 Z " />
<glyph glyph-name="W" unicode="W" horiz-adv-x="1166" d="M513 692 L586 499 L439 113 L440 116 L261 609 L261 609 C243 657 298 729 331 729 L355 729 L355 739 L355 749 L210 749 L202 749 L107 749 L50 749 L50 739 L50 729 L87 729 C94 729 133 671 154 624 L344 116 L392 -11 L416 -11 L602 457 L725 134 L780 -11 L804 -11 L988 609 L989 609 C1002 657 1070 729 1089 729 L1119 729 L1119 739 L1119 749 L1030 749 L992 749 L973 749 L827 749 L827 739 L827 729 L852 729 C889 729 964 659 953 611 L819 131 L819 134 L637 643 C630 679 688 729 720 729 L744 729 L744 739 L744 749 L599 749 L574 749 L491 749 L404 749 L404 739 L404 729 L434 729 C451 729 503 707 513 691 L513 692 L513 692 Z " />
<glyph glyph-name="X" unicode="X" horiz-adv-x="862" d="M634 140 L634 140 L456 416 L608 609 C658 665 742 730 759 730 L790 730 L790 740 L790 750 L720 750 L679 750 L667 750 L544 750 L544 740 L544 730 L567 730 C595 730 611 652 575 600 L575 600 L452 422 L331 611 L332 611 C301 659 317 731 343 731 L366 731 L366 741 L366 751 L241 751 L218 751 L132 751 L70 751 L70 741 L70 731 L103 731 C115 731 189 661 221 613 L388 353 L221 121 L221 121 C192 81 96 21 74 21 L44 21 L44 11 L44 1 L135 1 L172 1 L201 1 L357 1 L357 11 L357 21 L335 21 C293 21 241 94 271 146 L401 336 L526 141 L526 141 C557 93 540 21 514 21 L491 21 L491 11 L491 1 L616 1 L645 1 L726 1 L798 1 L798 11 L798 21 L768 21 C752 21 667 93 636 141 L634 140 L634 140 Z " />
<glyph glyph-name="Y" unicode="Y" horiz-adv-x="788" d="M275 610 L275 610 C246 658 253 730 273 730 L298 730 L298 740 L298 750 L193 750 L164 750 L84 750 L31 750 L31 740 L31 730 L68 730 C76 730 139 658 167 610 L167 610 L339 322 L339 80 C339 56 285 20 264 20 L234 20 L234 10 L234 0 L386 0 L537 0 L537 10 L537 20 L507 20 C486 20 432 56 432 80 L432 338 L582 620 C612 667 680 730 694 730 L725 730 L725 740 L725 750 L651 750 L644 750 L632 750 L539 750 L539 740 L539 730 L564 730 C583 730 598 668 578 624 L430 342 L275 610 L275 610 Z " />
<glyph glyph-name="Z" unicode="Z" horiz-adv-x="700" d="M501 27 L501 27 L189 22 L659 730 L659 750 L568 750 L289 750 L119 750 C117 736 107 668 106 654 C104 640 94 572 92 558 C92 558 101 557 105 557 C108 556 118 555 118 555 L124 585 C132 625 232 725 285 725 L285 725 L554 728 L74 19 L74 -1 L175 -1 L495 -1 L655 -1 C658 12 674 76 677 88 C680 101 696 165 700 178 C700 178 693 179 690 179 C687 180 680 181 680 181 L663 136 C651 105 549 26 502 26 L501 27 L501 27 Z " />
<glyph glyph-name="bracketleft" unicode="&#x5b;" horiz-adv-x="294" d="M134 726 L344 726 L344 750 L134 750 L105 750 L105 -195 L134 -195 L344 -195 L344 -171 L134 -171 L134 726 L134 726 Z " />
<glyph glyph-name="backslash" unicode="&#x5c;" horiz-adv-x="346" d="M28 770 L288 -80 L336 -80 L76 770 L28 770 L28 770 Z " />
<glyph glyph-name="bracketright" unicode="&#x5d;" horiz-adv-x="297" d="M158 726 L158 -171 L-52 -171 L-52 -195 L158 -195 L187 -195 L187 750 L158 750 L-52 750 L-52 726 L158 726 L158 726 Z " />
<glyph glyph-name="underscore" unicode="&#x5f;" horiz-adv-x="455" d="M5 -50 L5 -96 L450 -96 L450 -50 L5 -50 L5 -50 Z " />
<glyph glyph-name="a" unicode="a" horiz-adv-x="512" d="M523 101 L509 108 C506 92 467 54 454 54 C438 54 399 88 399 101 L399 355 C399 406 299 510 259 510 C204 510 65 386 65 360 C65 343 99 301 112 301 C125 301 156 335 156 343 C156 353 136 394 136 403 C136 421 221 506 254 506 C272 506 317 425 317 386 L317 266 C210 231 46 127 46 87 C46 60 127 -10 159 -10 C177 -10 278 49 320 86 C336 51 395 -5 421 -5 C445 -5 519 71 524 101 L523 101 L523 101 Z M318 264 L317 101 C317 98 318 94 320 90 C290 67 220 35 203 35 C182 35 129 79 129 97 C129 142 242 237 317 264 L318 264 L318 264 Z " />
<glyph glyph-name="b" unicode="b" horiz-adv-x="652" d="M155 0 L160 0 L189 66 L189 66 C205 45 336 -9 371 -9 C439 -9 608 179 608 253 C608 325 445 506 380 506 C359 506 270 453 238 423 L238 651 L238 751 L224 751 L70 707 L70 697 L70 687 L100 696 C116 700 155 663 155 631 L155 196 L155 0 L155 0 Z M238 411 C266 437 338 481 355 481 C400 481 514 311 514 244 C514 175 414 2 374 2 C345 2 248 51 238 71 L238 196 L238 411 L238 411 Z " />
<glyph glyph-name="c" unicode="c" horiz-adv-x="508" d="M478 128 L466 133 C449 95 315 -2 279 -2 C236 -2 128 194 128 273 C128 340 254 507 305 507 C321 507 389 434 400 405 C404 393 434 363 441 363 C458 363 487 393 483 405 C472 435 345 510 305 510 C230 510 42 314 42 236 C42 166 208 -10 274 -10 C315 -10 461 89 478 128 L478 128 Z " />
<glyph glyph-name="d" unicode="d" horiz-adv-x="593" d="M430 96 C406 73 323 30 301 30 C253 30 132 205 132 274 C132 334 248 486 301 486 C323 486 407 424 431 393 L431 110 L430 96 L430 96 Z M431 68 L431 -10 L446 -10 L600 28 L600 38 L600 48 L570 41 C554 37 515 87 515 127 L515 665 L515 750 L500 750 L346 706 L346 696 L346 686 L376 695 C392 699 431 671 431 645 L431 452 C384 480 318 510 292 510 C215 510 48 325 48 251 C48 178 205 -5 267 -5 C298 -5 404 43 431 68 L431 68 Z " />
<glyph glyph-name="e" unicode="e" horiz-adv-x="534" d="M152 340 L413 340 L482 340 L505 340 C500 398 354 510 299 510 C226 510 41 311 41 232 C41 163 209 -10 277 -10 C323 -10 478 92 492 132 L482 136 C468 97 323 -2 280 -2 C236 -2 128 189 128 265 C128 284 137 311 151 340 L152 340 L152 340 Z M480 344 L480 344 L480 344 L480 344 Z M412 344 L153 343 C191 419 263 507 297 507 C325 507 403 402 411 344 L412 344 L412 344 Z " />
<glyph glyph-name="f" unicode="f" horiz-adv-x="365" d="M203 456 L356 456 L356 500 L203 500 C203 565 275 729 308 729 C341 729 400 635 428 635 C441 635 473 667 473 680 C473 701 376 755 338 755 C270 755 120 573 120 500 L5 466 L5 456 L120 456 L120 35 C120 29 81 20 65 20 L35 20 L35 10 L35 0 L161 0 L288 0 L288 10 L288 20 L258 20 C242 20 203 29 203 35 L203 456 L203 456 Z " />
<glyph glyph-name="g" unicode="g" horiz-adv-x="520" d="M158 350 C158 390 227 490 255 490 C282 490 351 390 351 350 C351 310 282 208 255 208 C227 208 158 310 158 350 L158 350 Z M168 1 C171 0 174 0 177 0 L291 1 C334 1 416 -63 416 -88 C416 -123 312 -211 270 -211 C226 -211 115 -114 115 -75 C115 -59 146 -17 168 1 L168 1 Z M152 7 C115 -8 45 -74 45 -95 C45 -133 202 -230 264 -230 C327 -230 484 -114 484 -68 C484 -25 362 83 299 83 L181 84 C158 84 102 117 102 130 C102 146 210 188 254 188 C305 188 434 304 434 350 C434 396 305 510 254 510 C202 510 74 396 74 350 C74 313 157 231 216 200 C151 183 53 129 53 106 C53 82 111 28 151 8 L152 7 L152 7 Z M510 431 C510 423 538 402 549 402 C558 402 583 430 583 441 C583 457 545 496 529 496 C508 496 424 438 413 415 L418 393 C428 412 483 461 495 461 C499 461 510 439 510 431 L510 431 Z " />
<glyph glyph-name="h" unicode="h" horiz-adv-x="667" d="M464 35 C464 29 425 20 409 20 L379 20 L379 10 L379 0 L505 0 L632 0 L632 10 L632 20 L602 20 C586 20 547 29 547 35 L547 335 C547 385 440 510 391 510 C361 510 232 428 199 390 L199 650 L199 750 L185 750 L31 706 L31 696 L31 686 L61 695 C77 699 116 662 116 630 L116 35 C116 29 77 20 61 20 L31 20 L31 10 L31 0 L158 0 L284 0 L284 10 L284 20 L254 20 C239 20 199 29 199 35 L199 378 C228 408 340 471 368 471 C398 471 464 374 464 335 L464 35 L464 35 Z " />
<glyph glyph-name="i" unicode="i" horiz-adv-x="318" d="M167 615 C182 615 221 653 221 669 C221 684 182 723 167 723 C151 723 113 684 113 669 C113 653 151 615 167 615 L167 615 Z M208 35 L208 400 L208 500 L194 500 L40 456 L40 446 L40 436 L70 445 C86 449 125 412 125 380 L125 35 C125 29 93 20 80 20 L50 20 L50 10 L50 0 L167 0 L283 0 L283 10 L283 20 L253 20 C240 20 208 29 208 35 L208 35 Z " />
<glyph glyph-name="j" unicode="j" horiz-adv-x="288" d="M157 615 C172 615 211 653 211 669 C211 684 172 723 157 723 C141 723 103 684 103 669 C103 653 141 615 157 615 L157 615 Z M115 380 L115 49 C115 10 79 -110 64 -119 C49 -119 -24 -100 -40 -100 C-53 -100 -85 -129 -85 -140 C-85 -154 -42 -186 -25 -185 C-22 -185 53 -145 80 -130 C114 -111 198 17 198 49 L198 400 L198 500 L184 500 L30 456 L30 446 L30 436 L60 445 C76 449 115 412 115 380 L115 380 Z " />
<glyph glyph-name="k" unicode="k" horiz-adv-x="616" d="M521 35 L521 35 L289 315 L482 466 C492 472 520 480 527 480 L564 480 L564 490 L564 500 L525 500 L490 500 L435 500 L305 500 L305 490 L305 480 L325 480 C365 480 349 390 272 330 L273 330 L208 280 L208 650 L208 750 L194 750 L40 706 L40 696 L40 686 L70 695 C86 699 125 662 125 630 L125 35 C125 29 93 20 80 20 L50 20 L50 10 L50 0 L167 0 L283 0 L283 10 L283 20 L253 20 C240 20 208 29 208 35 L208 280 L414 35 L413 35 C418 29 395 20 383 20 L358 20 L358 10 L358 0 L443 0 L473 0 L550 0 L589 0 L589 10 L589 20 L545 20 C542 20 526 29 521 35 L521 35 Z " />
<glyph glyph-name="l" unicode="l" horiz-adv-x="308" d="M198 35 L198 650 L198 750 L184 750 L30 706 L30 696 L30 686 L60 695 C76 699 115 662 115 630 L115 35 C115 29 79 20 65 20 L35 20 L35 10 L35 0 L157 0 L278 0 L278 10 L278 20 L248 20 C234 20 198 29 198 35 L198 35 Z " />
<glyph glyph-name="m" unicode="m" horiz-adv-x="957" d="M516 385 L516 373 C534 401 648 471 676 471 C703 471 764 374 764 335 L764 55 C764 41 732 20 719 20 L689 20 L689 10 L689 0 L811 0 L933 0 L933 10 L933 20 L903 20 C887 20 848 41 848 55 L848 335 C848 385 745 510 698 510 C670 510 539 420 516 385 L516 385 Z M437 55 C437 41 405 20 392 20 L362 20 L362 10 L362 0 L473 0 L585 0 L585 10 L585 20 L555 20 C545 20 520 41 520 55 L520 335 C520 385 419 510 373 510 C345 510 224 428 192 390 L192 400 L192 500 L178 500 L24 444 L24 434 L24 424 L54 435 C70 441 109 407 109 375 L109 55 C109 41 70 20 54 20 L24 20 L24 10 L24 0 L143 0 L262 0 L262 10 L262 20 L232 20 C221 20 192 41 192 55 L192 378 C219 409 323 471 349 471 C376 471 436 374 436 335 L437 55 L437 55 Z " />
<glyph glyph-name="n" unicode="n" horiz-adv-x="650" d="M457 35 C457 29 421 20 407 20 L377 20 L377 10 L377 0 L498 0 L620 0 L620 10 L620 20 L590 20 C576 20 540 29 540 35 L540 335 C540 385 433 510 384 510 C354 510 225 428 192 390 L192 400 L192 500 L178 500 L24 444 L24 434 L24 424 L54 435 C70 441 109 407 109 375 L109 35 C109 29 73 20 59 20 L29 20 L29 10 L29 0 L151 0 L272 0 L272 10 L272 20 L242 20 C228 20 192 29 192 35 L192 378 C221 408 333 471 361 471 C391 471 457 374 457 335 L457 35 L457 35 Z " />
<glyph glyph-name="o" unicode="o" horiz-adv-x="585" d="M291 -6 C246 -6 133 177 133 250 C133 323 246 506 291 506 C336 506 449 323 449 250 C449 177 336 -6 291 -6 L291 -6 Z M41 250 C41 176 219 -10 291 -10 C362 -10 541 176 541 250 C541 324 362 510 291 510 C219 510 41 324 41 250 L41 250 Z " />
<glyph glyph-name="p" unicode="p" horiz-adv-x="611" d="M193 402 C223 430 301 475 323 475 C366 475 475 300 475 230 C475 171 362 -2 317 -2 C298 -2 223 64 193 104 L193 400 L193 402 L193 402 Z M193 435 L193 500 L178 500 L25 444 L25 434 L25 424 L55 435 C71 441 110 407 110 375 L110 -150 C110 -170 71 -200 55 -200 L25 -200 L25 -210 L25 -220 L151 -220 L278 -220 L278 -210 L278 -200 L248 -200 C232 -200 193 -170 193 -150 L193 97 C225 57 298 -5 317 -5 C388 -5 566 189 566 257 C566 329 419 510 361 510 C329 510 227 463 193 435 L193 435 Z " />
<glyph glyph-name="q" unicode="q" horiz-adv-x="625" d="M495 -185 L495 391 L495 440 L495 500 L490 500 L463 440 C443 460 324 510 295 510 C216 510 44 325 44 251 C44 178 201 -5 263 -5 C289 -5 381 40 413 66 L413 -185 C413 -191 373 -200 358 -200 L328 -200 L328 -210 L328 -220 L454 -220 L581 -220 L581 -210 L581 -200 L551 -200 C535 -200 496 -191 496 -185 L495 -185 L495 -185 Z M413 391 L413 95 C386 71 317 31 300 31 C252 31 132 206 132 275 C132 337 242 492 292 492 C312 492 399 421 414 392 L413 391 L413 391 Z " />
<glyph glyph-name="r" unicode="r" horiz-adv-x="446" d="M198 387 L198 400 L198 500 L184 500 L30 444 L30 434 L30 424 L60 435 C76 441 115 407 115 375 L115 35 C115 29 83 20 70 20 L40 20 L40 10 L40 0 L162 0 L283 0 L283 10 L283 20 L253 20 C238 20 198 29 198 35 L198 379 C216 412 283 471 305 471 C314 471 339 446 339 436 C339 422 374 387 388 387 C402 387 437 422 437 436 C437 457 370 510 343 510 C314 510 220 429 198 387 L198 387 Z " />
<glyph glyph-name="s" unicode="s" horiz-adv-x="439" d="M271 491 L270 491 C247 502 226 510 214 510 C173 510 69 417 69 380 C69 345 166 230 210 218 C246 208 324 129 324 106 C324 74 256 -7 229 -7 C225 -7 219 -5 212 -2 C169 24 90 128 90 153 L90 169 L80 169 L70 169 L70 94 L70 89 L70 9 L80 9 L90 9 L90 30 C90 35 161 18 190 3 L192 3 C208 -5 221 -10 229 -10 C274 -10 389 90 389 130 C389 162 291 270 247 282 C210 292 128 382 128 409 C128 437 190 507 214 507 C217 507 222 506 228 504 L228 504 L213 508 C217 508 222 507 227 505 C227 505 228 505 229 505 L229 505 C271 484 342 396 342 370 L342 353 L352 353 L362 353 L362 429 L362 433 L362 513 L352 513 L342 513 L342 484 C342 479 290 484 269 494 L271 491 L271 491 Z M221 -3 L224 -4 C223 -4 222 -4 221 -4 L221 -3 L221 -3 Z " />
<glyph glyph-name="t" unicode="t" horiz-adv-x="376" d="M331 500 L178 500 L178 620 L172 620 L30 468 L30 458 L95 458 L95 158 C95 101 192 -10 231 -10 C258 -10 355 65 366 95 L356 99 C349 79 277 29 256 29 C233 29 176 102 176 140 L178 456 L331 456 L331 500 L331 500 Z " />
<glyph glyph-name="u" unicode="u" horiz-adv-x="587" d="M399 90 L399 -10 L414 -10 L568 28 L568 38 L568 48 L538 41 C522 37 483 75 483 107 L483 465 L483 500 L408 500 L333 500 L333 490 L333 480 L363 480 C373 480 399 471 399 465 L399 136 C371 106 288 49 269 49 C243 49 176 129 176 161 L176 466 L176 501 L101 501 L27 501 L27 491 L27 481 L57 481 C67 481 93 472 93 466 L93 161 C93 113 191 -9 230 -9 C251 -9 363 86 400 132 L399 90 L399 90 Z " />
<glyph glyph-name="v" unicode="v" horiz-adv-x="552" d="M84 453 L253 -10 L277 -10 L439 434 L439 434 C445 452 494 480 510 480 L541 480 L541 490 L541 500 L463 500 L435 500 L425 500 L330 500 L330 490 L330 480 L357 480 C374 480 412 462 408 450 L408 450 L253 -10 L290 101 L174 453 L174 453 C170 464 192 480 203 480 L233 480 L233 490 L233 500 L158 500 L119 500 L67 500 L5 500 L5 490 L5 480 L40 480 C50 480 81 464 84 453 L84 453 Z " />
<glyph glyph-name="w" unicode="w" horiz-adv-x="850" d="M372 460 L411 349 L282 -10 L306 -10 L426 306 L539 -10 L563 -10 L734 434 L734 434 C740 452 790 480 806 480 L836 480 L836 490 L836 500 L759 500 L731 500 L720 500 L625 500 L625 490 L625 480 L652 480 C669 480 707 464 703 453 L703 453 L539 -10 L578 101 L463 460 L463 460 C460 468 475 480 483 480 L516 480 L516 490 L516 500 L450 500 L407 500 L357 500 L298 500 L298 490 L298 480 L335 480 C343 480 368 468 371 460 L372 460 L372 460 Z M108 462 L282 -10 L321 101 L200 460 L201 460 C198 468 212 480 220 480 L253 480 L253 490 L253 500 L187 500 L144 500 L94 500 L36 500 L36 490 L36 480 L72 480 C80 480 102 469 107 461 L108 462 L108 462 Z " />
<glyph glyph-name="x" unicode="x" horiz-adv-x="576" d="M452 62 L452 62 L308 283 L416 436 L416 436 C427 454 476 480 488 480 L522 480 L522 490 L522 500 L461 500 L427 500 L423 500 L333 500 L333 490 L333 480 L358 480 C372 480 392 458 385 441 L296 303 L210 436 L210 436 C198 454 210 480 222 480 L248 480 L248 490 L248 500 L168 500 L136 500 L67 500 L25 500 L25 490 L25 480 L69 480 C72 480 93 459 102 445 L103 445 L240 234 L116 61 C100 43 57 20 46 20 L13 20 L13 10 L13 0 L73 0 L112 0 L212 0 L212 10 L212 20 L187 20 C169 20 143 44 152 62 L251 217 L352 61 C360 43 349 20 339 20 L312 20 L312 10 L312 0 L392 0 L429 0 L494 0 L546 0 L546 10 L546 20 L509 20 C501 20 465 45 454 62 L452 62 L452 62 Z " />
<glyph glyph-name="y" unicode="y" horiz-adv-x="572" d="M85 453 L266 -10 L221 -140 C218 -147 197 -165 191 -165 C182 -165 153 -135 143 -135 C130 -135 96 -165 96 -177 C96 -192 131 -228 145 -228 C164 -228 230 -181 236 -163 L291 -10 L459 437 C469 455 515 480 529 480 L560 480 L560 490 L560 500 L483 500 L455 500 L445 500 L350 500 L350 490 L350 480 L377 480 C394 480 432 462 427 450 L427 450 L305 101 L175 455 C174 466 193 480 203 480 L233 480 L233 490 L233 500 L158 500 L119 500 L67 500 L5 500 L5 490 L5 480 L40 480 C50 480 81 464 85 453 L85 453 Z " />
<glyph glyph-name="z" unicode="z" horiz-adv-x="475" d="M128 0 L350 0 L430 0 C431 9 438 54 439 63 C440 72 446 116 448 125 L443 125 L438 125 L423 95 C415 76 328 31 278 26 L142 23 L435 481 L435 501 L350 501 L135 501 C130 501 114 517 116 524 L121 541 L111 541 L101 541 C98 529 82 470 79 458 C75 447 60 387 56 376 L62 376 L68 376 L84 406 C94 425 173 469 218 475 L335 478 L40 21 L40 1 L128 0 L128 0 Z " />
<glyph glyph-name="bar" unicode="&#x7c;" horiz-adv-x="184" d="M60 800 L60 -250 L125 -250 L125 800 L60 800 L60 800 Z " />
<glyph glyph-name="exclamdown" unicode="&#xa1;" horiz-adv-x="241" d="M121 505 C104 505 62 463 62 446 C62 430 104 388 121 388 C138 388 180 430 180 446 C180 463 138 505 121 505 L121 505 Z M121 -255 C143 -255 175 -181 172 -151 L129 290 L113 290 L70 -151 C67 -181 98 -255 121 -255 L121 -255 Z " />
<glyph glyph-name="cent" unicode="&#xa2;" horiz-adv-x="508" d="M276 575 L276 503 C190 468 42 306 42 237 C42 167 208 -9 274 -9 C275 -9 276 -9 277 -9 L277 -74 L306 -74 L306 0 C364 25 465 97 479 129 L467 134 C453 103 359 31 307 7 L307 508 C323 508 391 435 402 406 C406 394 436 364 443 364 C460 364 489 394 485 406 C474 436 347 511 307 511 L307 576 L276 575 L276 575 Z M278 -1 C233 7 130 196 130 273 C130 329 219 456 278 495 L278 -1 L278 -1 Z " />
<glyph glyph-name="questiondown" unicode="&#xbf;" horiz-adv-x="299" d="M175 505 C158 505 116 463 116 446 C116 430 158 388 175 388 C192 388 234 430 233 446 C234 463 192 505 175 505 L175 505 Z M175 292 L175 140 C131 140 31 80 15 55 C7 43 -14 -36 -15 -55 C-14 -113 107 -260 155 -260 C177 -260 233 -216 233 -198 C233 -187 201 -157 188 -157 C179 -157 134 -172 124 -172 C92 -172 10 -81 10 -45 C10 -38 27 6 34 16 C42 28 143 60 202 60 L190 292 L175 292 L175 292 Z " />
<glyph glyph-name="Agrave" unicode="&#xc0;" horiz-adv-x="770" d="M631 140 L631 140 L447 721 L431 770 L421 770 C412 757 364 722 354 721 L357 711 L357 711 L196 170 L196 170 C179 110 77 20 47 20 L17 20 L17 10 L17 0 L146 0 L150 0 L166 0 L315 0 L315 10 L315 20 L291 20 C253 20 183 110 200 170 L200 170 L237 295 L487 295 L535 140 L534 140 C549 92 497 20 467 20 L443 20 L443 10 L443 0 L578 0 L603 0 L675 0 L764 0 L764 10 L764 20 L734 20 C715 20 646 92 631 140 L631 140 Z M299 971 C284 990 241 1038 238 1038 C227 1038 196 1007 196 996 C196 993 242 948 260 932 L402 812 L413 823 L299 971 L299 971 Z M238 299 L358 708 L485 299 L238 299 L238 299 Z " />
<glyph glyph-name="Aacute" unicode="&#xc1;" horiz-adv-x="770" d="M408 812 L550 932 C568 948 614 993 614 996 C614 1007 583 1038 572 1038 C570 1038 527 990 511 971 L397 823 L408 812 L408 812 Z M631 140 L631 140 L447 721 L431 770 L421 770 C412 757 364 722 354 721 L357 711 L357 711 L196 170 L196 170 C179 110 77 20 47 20 L17 20 L17 10 L17 0 L146 0 L150 0 L166 0 L315 0 L315 10 L315 20 L291 20 C253 20 183 110 200 170 L200 170 L237 295 L487 295 L535 140 L534 140 C549 92 497 20 467 20 L443 20 L443 10 L443 0 L578 0 L603 0 L675 0 L764 0 L764 10 L764 20 L734 20 C715 20 646 92 631 140 L631 140 Z M238 299 L358 708 L485 299 L238 299 L238 299 Z " />
<glyph glyph-name="Acircumflex" unicode="&#xc2;" horiz-adv-x="770" d="M631 140 L631 140 L447 721 L431 770 L421 770 C412 757 364 722 354 721 L357 711 L357 711 L196 170 L196 170 C179 110 77 20 47 20 L17 20 L17 10 L17 0 L146 0 L150 0 L166 0 L315 0 L315 10 L315 20 L291 20 C253 20 183 110 200 170 L200 170 L237 295 L487 295 L535 140 L534 140 C549 92 497 20 467 20 L443 20 L443 10 L443 0 L578 0 L603 0 L675 0 L764 0 L764 10 L764 20 L734 20 C715 20 646 92 631 140 L631 140 Z M400 947 L541 806 L552 816 L429 1005 C427 1009 404 1035 400 1035 C396 1035 374 1010 371 1006 L248 816 L260 806 L400 947 L400 947 Z M238 299 L358 708 L485 299 L238 299 L238 299 Z " />
<glyph glyph-name="Atilde" unicode="&#xc3;" horiz-adv-x="770" d="M257 870 C257 887 289 930 301 930 C329 930 447 865 475 865 C495 865 546 950 546 984 L543 984 C543 967 508 924 494 924 C466 924 348 989 320 989 C301 989 254 904 254 870 L257 870 L257 870 Z M631 140 L631 140 L447 721 L431 770 L421 770 C412 757 364 722 354 721 L357 711 L357 711 L196 170 L196 170 C179 110 77 20 47 20 L17 20 L17 10 L17 0 L146 0 L150 0 L166 0 L315 0 L315 10 L315 20 L291 20 C253 20 183 110 200 170 L200 170 L237 295 L487 295 L535 140 L534 140 C549 92 497 20 467 20 L443 20 L443 10 L443 0 L578 0 L603 0 L675 0 L764 0 L764 10 L764 20 L734 20 C715 20 646 92 631 140 L631 140 Z M238 299 L358 708 L485 299 L238 299 L238 299 Z " />
<glyph glyph-name="Adieresis" unicode="&#xc4;" horiz-adv-x="770" d="M475 865 C490 865 529 903 529 919 C529 934 490 973 475 973 C459 973 421 934 421 919 C421 903 459 865 475 865 L475 865 Z M325 865 C341 865 379 903 379 919 C379 934 341 973 325 973 C310 973 271 934 271 919 C271 903 310 865 325 865 L325 865 Z M631 140 L631 140 L447 721 L431 770 L421 770 C412 757 364 722 354 721 L357 711 L357 711 L196 170 L196 170 C179 110 77 20 47 20 L17 20 L17 10 L17 0 L146 0 L150 0 L166 0 L315 0 L315 10 L315 20 L291 20 C253 20 183 110 200 170 L200 170 L237 295 L487 295 L535 140 L534 140 C549 92 497 20 467 20 L443 20 L443 10 L443 0 L578 0 L603 0 L675 0 L764 0 L764 10 L764 20 L734 20 C715 20 646 92 631 140 L631 140 Z M238 299 L358 708 L485 299 L238 299 L238 299 Z " />
<glyph glyph-name="Aring" unicode="&#xc5;" horiz-adv-x="770" d="M400 830 C381 830 327 886 327 905 C327 926 379 980 400 980 C421 980 473 926 473 905 C473 886 419 830 400 830 L400 830 Z M303 905 C303 881 375 810 400 810 C425 810 497 881 497 905 C497 932 428 1000 400 1000 C372 1000 303 932 303 905 L303 905 Z M631 140 L631 140 L447 721 L431 770 L421 770 C412 757 364 722 354 721 L357 711 L357 711 L196 170 L196 170 C179 110 77 20 47 20 L17 20 L17 10 L17 0 L146 0 L150 0 L166 0 L315 0 L315 10 L315 20 L291 20 C253 20 183 110 200 170 L200 170 L237 295 L487 295 L535 140 L534 140 C549 92 497 20 467 20 L443 20 L443 10 L443 0 L578 0 L603 0 L675 0 L764 0 L764 10 L764 20 L734 20 C715 20 646 92 631 140 L631 140 Z M238 299 L358 708 L485 299 L238 299 L238 299 Z " />
<glyph glyph-name="Ccedilla" unicode="&#xc7;" horiz-adv-x="733" d="M570 706 L570 706 C511 735 446 760 410 760 C308 760 51 485 51 375 C51 266 298 -7 398 -10 L351 -102 L352 -102 C361 -98 401 -87 409 -87 C425 -87 466 -127 466 -143 C466 -164 425 -217 408 -217 C394 -217 338 -201 330 -194 L329 -195 C338 -202 395 -220 409 -220 C439 -220 515 -162 515 -138 C515 -123 441 -84 412 -84 C399 -84 365 -85 361 -85 L402 -10 C438 -9 506 16 567 45 L568 45 C592 57 665 42 668 30 C670 21 676 0 676 0 L682 0 L688 0 L688 112 L688 119 L688 223 L681 223 L673 223 C673 223 670 208 668 202 C663 181 556 58 521 39 L521 39 C472 13 424 -8 400 -8 C330 -8 153 265 153 374 C153 483 337 756 411 756 C429 756 460 744 494 727 C540 701 664 568 669 545 C671 539 674 524 674 524 L682 524 L689 524 L689 628 L689 633 L689 743 L682 743 L674 743 C674 743 671 722 669 714 C667 702 596 691 570 704 L570 706 L570 706 Z " />
<glyph glyph-name="Egrave" unicode="&#xc8;" horiz-adv-x="654" d="M252 971 C237 990 194 1038 191 1038 C180 1038 149 1007 149 996 C149 993 195 948 214 932 L356 812 L366 823 L252 971 L252 971 Z M462 0 L582 0 C583 9 590 55 591 64 C592 73 599 119 600 128 L590 128 L580 128 L576 98 C572 71 502 3 462 3 L320 3 C286 3 240 58 240 80 L240 85 L240 385 L374 385 C414 385 474 306 474 275 L474 245 L484 245 L494 245 L494 385 L494 387 L494 388 L494 528 L484 528 L474 528 L474 498 C474 467 414 388 374 388 L240 388 L240 665 L240 747 L440 747 C488 747 545 671 547 640 L549 622 L559 622 L569 622 C568 631 565 677 564 686 C564 695 560 741 560 750 L440 750 L240 750 L147 750 L141 750 L42 750 L42 740 L42 730 L72 730 C93 730 147 691 147 665 L147 85 C147 59 93 20 72 20 L42 20 L42 10 L42 0 L141 0 L147 0 L240 0 L462 0 L462 0 Z " />
<glyph glyph-name="Eacute" unicode="&#xc9;" horiz-adv-x="654" d="M361 812 L503 932 C521 948 567 993 567 996 C567 1007 536 1038 526 1038 C523 1038 480 990 465 971 L350 823 L361 812 L361 812 Z M462 0 L582 0 C583 9 590 55 591 64 C592 73 599 119 600 128 L590 128 L580 128 L576 98 C572 71 502 3 462 3 L320 3 C286 3 240 58 240 80 L240 85 L240 385 L374 385 C414 385 474 306 474 275 L474 245 L484 245 L494 245 L494 385 L494 387 L494 388 L494 528 L484 528 L474 528 L474 498 C474 467 414 388 374 388 L240 388 L240 665 L240 747 L440 747 C488 747 545 671 547 640 L549 622 L559 622 L569 622 C568 631 565 677 564 686 C564 695 560 741 560 750 L440 750 L240 750 L147 750 L141 750 L42 750 L42 740 L42 730 L72 730 C93 730 147 691 147 665 L147 85 C147 59 93 20 72 20 L42 20 L42 10 L42 0 L141 0 L147 0 L240 0 L462 0 L462 0 Z " />
<glyph glyph-name="Ecircumflex" unicode="&#xca;" horiz-adv-x="654" d="M353 947 L494 806 L505 816 L383 1005 C380 1009 357 1035 353 1035 C349 1035 327 1010 324 1006 L202 816 L213 806 L353 947 L353 947 Z M462 0 L582 0 C583 9 590 55 591 64 C592 73 599 119 600 128 L590 128 L580 128 L576 98 C572 71 502 3 462 3 L320 3 C286 3 240 58 240 80 L240 85 L240 385 L374 385 C414 385 474 306 474 275 L474 245 L484 245 L494 245 L494 385 L494 387 L494 388 L494 528 L484 528 L474 528 L474 498 C474 467 414 388 374 388 L240 388 L240 665 L240 747 L440 747 C488 747 545 671 547 640 L549 622 L559 622 L569 622 C568 631 565 677 564 686 C564 695 560 741 560 750 L440 750 L240 750 L147 750 L141 750 L42 750 L42 740 L42 730 L72 730 C93 730 147 691 147 665 L147 85 C147 59 93 20 72 20 L42 20 L42 10 L42 0 L141 0 L147 0 L240 0 L462 0 L462 0 Z " />
<glyph glyph-name="Edieresis" unicode="&#xcb;" horiz-adv-x="654" d="M428 865 C443 865 482 903 482 919 C482 934 443 973 428 973 C413 973 374 934 374 919 C374 903 413 865 428 865 L428 865 Z M279 865 C294 865 332 903 332 919 C332 934 294 973 279 973 C263 973 225 934 225 919 C225 903 263 865 279 865 L279 865 Z M462 0 L582 0 C583 9 590 55 591 64 C592 73 599 119 600 128 L590 128 L580 128 L576 98 C572 71 502 3 462 3 L320 3 C286 3 240 58 240 80 L240 85 L240 385 L374 385 C414 385 474 306 474 275 L474 245 L484 245 L494 245 L494 385 L494 387 L494 388 L494 528 L484 528 L474 528 L474 498 C474 467 414 388 374 388 L240 388 L240 665 L240 747 L440 747 C488 747 545 671 547 640 L549 622 L559 622 L569 622 C568 631 565 677 564 686 C564 695 560 741 560 750 L440 750 L240 750 L147 750 L141 750 L42 750 L42 740 L42 730 L72 730 C93 730 147 691 147 665 L147 85 C147 59 93 20 72 20 L42 20 L42 10 L42 0 L141 0 L147 0 L240 0 L462 0 L462 0 Z " />
<glyph glyph-name="Igrave" unicode="&#xcc;" horiz-adv-x="381" d="M89 971 C74 990 31 1038 28 1038 C17 1038 -14 1007 -14 996 C-14 993 32 948 50 932 L192 812 L203 823 L89 971 L89 971 Z M236 80 L236 670 C236 694 290 730 311 730 L341 730 L341 740 L341 750 L190 750 L39 750 L39 740 L39 730 L69 730 C90 730 144 694 144 670 L144 80 C144 56 90 20 69 20 L39 20 L39 10 L39 0 L190 0 L341 0 L341 10 L341 20 L311 20 C290 20 236 56 236 80 L236 80 Z " />
<glyph glyph-name="Iacute" unicode="&#xcd;" horiz-adv-x="381" d="M198 812 L340 932 C358 948 404 993 404 996 C404 1007 373 1038 362 1038 C359 1038 316 990 301 971 L187 823 L198 812 L198 812 Z M236 80 L236 670 C236 694 290 730 311 730 L341 730 L341 740 L341 750 L190 750 L39 750 L39 740 L39 730 L69 730 C90 730 144 694 144 670 L144 80 C144 56 90 20 69 20 L39 20 L39 10 L39 0 L190 0 L341 0 L341 10 L341 20 L311 20 C290 20 236 56 236 80 L236 80 Z " />
<glyph glyph-name="Icircumflex" unicode="&#xce;" horiz-adv-x="381" d="M190 947 L331 806 L342 816 L219 1005 C217 1009 194 1035 190 1035 C186 1035 164 1010 161 1006 L38 816 L49 806 L190 947 L190 947 Z M236 80 L236 670 C236 694 290 730 311 730 L341 730 L341 740 L341 750 L190 750 L39 750 L39 740 L39 730 L69 730 C90 730 144 694 144 670 L144 80 C144 56 90 20 69 20 L39 20 L39 10 L39 0 L190 0 L341 0 L341 10 L341 20 L311 20 C290 20 236 56 236 80 L236 80 Z " />
<glyph glyph-name="Idieresis" unicode="&#xcf;" horiz-adv-x="381" d="M265 865 C280 865 319 903 319 919 C319 934 280 973 265 973 C249 973 211 934 211 919 C211 903 249 865 265 865 L265 865 Z M115 865 C131 865 169 903 169 919 C169 934 131 973 115 973 C100 973 61 934 61 919 C61 903 100 865 115 865 L115 865 Z M236 80 L236 670 C236 694 290 730 311 730 L341 730 L341 740 L341 750 L190 750 L39 750 L39 740 L39 730 L69 730 C90 730 144 694 144 670 L144 80 C144 56 90 20 69 20 L39 20 L39 10 L39 0 L190 0 L341 0 L341 10 L341 20 L311 20 C290 20 236 56 236 80 L236 80 Z " />
<glyph glyph-name="Ntilde" unicode="&#xd1;" horiz-adv-x="781" d="M244 870 C244 887 276 930 289 930 C317 930 434 865 462 865 C483 865 533 950 533 984 L531 984 C531 967 496 924 481 924 C453 924 336 989 308 989 C289 989 242 904 242 870 L244 870 L244 870 Z M184 750 L162 750 L139 750 L101 750 L69 750 L18 750 L18 740 L18 730 L55 730 C63 730 95 711 107 697 L138 654 L137 151 L137 151 C137 99 69 21 42 21 L12 21 L12 11 L12 1 L137 1 L151 1 L165 1 L290 1 L290 11 L290 21 L260 21 C234 21 169 88 164 136 L161 622 L514 134 L609 2 L628 2 L634 632 L634 632 C633 672 701 732 729 732 L759 732 L759 742 L759 752 L635 752 L621 752 L607 752 L482 752 L482 742 L482 732 L512 732 C539 732 607 672 607 632 L607 632 L608 162 L589 188 L184 750 L184 750 Z " />
<glyph glyph-name="Ograve" unicode="&#xd2;" horiz-adv-x="854" d="M410 -6 C338 -6 156 266 156 375 C156 484 344 756 419 756 C497 756 693 484 693 375 C693 266 491 -6 410 -6 L410 -6 Z M50 375 C50 265 307 -10 410 -10 C521 -10 800 265 800 375 C800 485 528 760 420 760 C314 760 50 485 50 375 L50 375 Z M318 971 C304 990 261 1038 257 1038 C247 1038 216 1007 216 996 C216 993 262 948 280 932 L422 812 L433 823 L318 971 L318 971 Z " />
<glyph glyph-name="Oacute" unicode="&#xd3;" horiz-adv-x="854" d="M427 812 L569 932 C588 948 634 993 634 996 C634 1007 603 1038 592 1038 C589 1038 546 990 531 971 L417 823 L427 812 L427 812 Z M410 -6 C338 -6 156 266 156 375 C156 484 344 756 419 756 C497 756 693 484 693 375 C693 266 491 -6 410 -6 L410 -6 Z M50 375 C50 265 307 -10 410 -10 C521 -10 800 265 800 375 C800 485 528 760 420 760 C314 760 50 485 50 375 L50 375 Z " />
<glyph glyph-name="Ocircumflex" unicode="&#xd4;" horiz-adv-x="854" d="M410 -6 C338 -6 156 266 156 375 C156 484 344 756 419 756 C497 756 693 484 693 375 C693 266 491 -6 410 -6 L410 -6 Z M50 375 C50 265 307 -10 410 -10 C521 -10 800 265 800 375 C800 485 528 760 420 760 C314 760 50 485 50 375 L50 375 Z M420 947 L561 807 L572 817 L450 1006 C447 1010 425 1036 421 1036 C416 1036 394 1011 392 1007 L269 817 L280 807 L420 947 L420 947 Z " />
<glyph glyph-name="Otilde" unicode="&#xd5;" horiz-adv-x="854" d="M276 870 C276 887 308 930 321 930 C349 930 467 865 495 865 C515 865 565 950 565 984 L563 984 C563 967 528 924 514 924 C486 924 368 989 340 989 C321 989 274 904 274 870 L276 870 L276 870 Z M410 -6 C338 -6 156 266 156 375 C156 484 344 756 419 756 C497 756 693 484 693 375 C693 266 491 -6 410 -6 L410 -6 Z M50 375 C50 265 307 -10 410 -10 C521 -10 800 265 800 375 C800 485 528 760 420 760 C314 760 50 485 50 375 L50 375 Z " />
<glyph glyph-name="Odieresis" unicode="&#xd6;" horiz-adv-x="854" d="M494 865 C510 865 548 903 548 919 C548 934 510 973 494 973 C479 973 441 934 441 919 C441 903 479 865 494 865 L494 865 Z M345 865 C360 865 399 903 399 919 C399 934 360 973 345 973 C330 973 291 934 291 919 C291 903 330 865 345 865 L345 865 Z M410 -6 C338 -6 156 266 156 375 C156 484 344 756 419 756 C497 756 693 484 693 375 C693 266 491 -6 410 -6 L410 -6 Z M50 375 C50 265 307 -10 410 -10 C521 -10 800 265 800 375 C800 485 528 760 420 760 C314 760 50 485 50 375 L50 375 Z " />
<glyph glyph-name="Oslash" unicode="&#xd8;" horiz-adv-x="854" d="M52 -12 L196 136 C272 56 359 -10 409 -10 C520 -10 799 265 799 375 C799 429 733 524 653 606 L801 758 L796 762 L648 610 C567 692 473 760 419 760 C313 760 49 485 49 375 C49 320 114 223 192 140 L48 -8 L52 -12 L52 -12 Z M410 -6 C369 -6 293 81 235 176 L613 565 C658 494 692 420 692 375 C692 266 490 -6 409 -6 L410 -6 L410 -6 Z M231 181 C188 253 155 329 155 375 C155 484 343 756 418 756 C463 756 546 667 609 570 L231 181 L231 181 Z " />
<glyph glyph-name="Ugrave" unicode="&#xd9;" horiz-adv-x="805" d="M300 971 C285 990 242 1038 239 1038 C228 1038 197 1007 197 996 C197 993 243 948 262 932 L403 812 L414 823 L300 971 L300 971 Z M691 665 L691 750 L592 750 L493 750 L493 740 L493 730 L523 730 C544 730 598 691 598 665 L598 187 C580 148 395 50 340 50 C301 50 204 172 204 220 L204 665 L204 750 L105 750 L6 750 L6 740 L6 730 L36 730 C58 730 111 691 111 665 L111 220 C111 154 248 -10 303 -10 C366 -10 577 101 598 146 L598 110 L598 0 L613 0 L795 55 L795 65 C753 63 691 89 691 110 L691 665 L691 665 Z " />
<glyph glyph-name="Uacute" unicode="&#xda;" horiz-adv-x="805" d="M409 812 L551 932 C569 948 615 993 615 996 C615 1007 584 1038 573 1038 C571 1038 528 990 513 971 L398 823 L409 812 L409 812 Z M691 665 L691 750 L592 750 L493 750 L493 740 L493 730 L523 730 C544 730 598 691 598 665 L598 187 C580 148 395 50 340 50 C301 50 204 172 204 220 L204 665 L204 750 L105 750 L6 750 L6 740 L6 730 L36 730 C58 730 111 691 111 665 L111 220 C111 154 248 -10 303 -10 C366 -10 577 101 598 146 L598 110 L598 0 L613 0 L795 55 L795 65 C753 63 691 89 691 110 L691 665 L691 665 Z " />
<glyph glyph-name="Ucircumflex" unicode="&#xdb;" horiz-adv-x="805" d="M401 947 L542 806 L553 816 L431 1005 C428 1009 405 1035 401 1035 C397 1035 375 1010 372 1006 L249 816 L261 806 L401 947 L401 947 Z M691 665 L691 750 L592 750 L493 750 L493 740 L493 730 L523 730 C544 730 598 691 598 665 L598 187 C580 148 395 50 340 50 C301 50 204 172 204 220 L204 665 L204 750 L105 750 L6 750 L6 740 L6 730 L36 730 C58 730 111 691 111 665 L111 220 C111 154 248 -10 303 -10 C366 -10 577 101 598 146 L598 110 L598 0 L613 0 L795 55 L795 65 C753 63 691 89 691 110 L691 665 L691 665 Z " />
<glyph glyph-name="Udieresis" unicode="&#xdc;" horiz-adv-x="805" d="M476 865 C491 865 530 903 530 919 C530 934 491 973 476 973 C460 973 422 934 422 919 C422 903 460 865 476 865 L476 865 Z M326 865 C342 865 380 903 380 919 C380 934 342 973 326 973 C311 973 273 934 273 919 C273 903 311 865 326 865 L326 865 Z M691 665 L691 750 L592 750 L493 750 L493 740 L493 730 L523 730 C544 730 598 691 598 665 L598 187 C580 148 395 50 340 50 C301 50 204 172 204 220 L204 665 L204 750 L105 750 L6 750 L6 740 L6 730 L36 730 C58 730 111 691 111 665 L111 220 C111 154 248 -10 303 -10 C366 -10 577 101 598 146 L598 110 L598 0 L613 0 L795 55 L795 65 C753 63 691 89 691 110 L691 665 L691 665 Z " />
<glyph glyph-name="Yacute" unicode="&#xdd;" horiz-adv-x="724" d="M377 812 L519 932 C538 948 584 993 584 996 C584 1007 553 1038 542 1038 C539 1038 496 990 481 971 L367 823 L377 812 L377 812 Z M259 610 L259 610 C230 658 237 730 257 730 L282 730 L282 740 L282 750 L177 750 L148 750 L68 750 L15 750 L15 740 L15 730 L52 730 C60 730 123 658 151 610 L151 610 L323 322 L323 80 C323 56 269 20 248 20 L218 20 L218 10 L218 0 L370 0 L521 0 L521 10 L521 20 L491 20 C470 20 416 56 416 80 L416 338 L566 620 C596 667 664 730 678 730 L709 730 L709 740 L709 750 L635 750 L628 750 L616 750 L523 750 L523 740 L523 730 L548 730 C567 730 582 668 562 624 L414 342 L259 610 L259 610 Z " />
<glyph glyph-name="agrave" unicode="&#xe0;" horiz-adv-x="512" d="M523 101 L509 108 C506 92 467 54 454 54 C438 54 399 88 399 101 L399 355 C399 406 299 510 259 510 C204 510 65 386 65 360 C65 343 99 301 112 301 C125 301 156 335 156 343 C156 353 136 394 136 403 C136 421 221 506 254 506 C272 506 317 425 317 386 L317 266 C210 231 46 127 46 87 C46 60 127 -10 159 -10 C177 -10 278 49 320 86 C336 51 395 -5 421 -5 C445 -5 519 71 524 101 L523 101 L523 101 Z M158 721 C144 740 101 788 97 788 C87 788 56 757 56 746 C56 743 102 698 120 682 L262 562 L273 573 L158 721 L158 721 Z M318 264 L317 101 C317 98 318 94 320 90 C290 67 220 35 203 35 C182 35 129 79 129 97 C129 142 242 237 317 264 L318 264 L318 264 Z " />
<glyph glyph-name="aacute" unicode="&#xe1;" horiz-adv-x="512" d="M266 562 L408 682 C427 698 473 743 473 746 C473 757 442 788 431 788 C428 788 385 740 370 721 L256 573 L266 562 L266 562 Z M523 101 L509 108 C506 92 467 54 454 54 C438 54 399 88 399 101 L399 355 C399 406 299 510 259 510 C204 510 65 386 65 360 C65 343 99 301 112 301 C125 301 156 335 156 343 C156 353 136 394 136 403 C136 421 221 506 254 506 C272 506 317 425 317 386 L317 266 C210 231 46 127 46 87 C46 60 127 -10 159 -10 C177 -10 278 49 320 86 C336 51 395 -5 421 -5 C445 -5 519 71 524 101 L523 101 L523 101 Z M318 264 L317 101 C317 98 318 94 320 90 C290 67 220 35 203 35 C182 35 129 79 129 97 C129 142 242 237 317 264 L318 264 L318 264 Z " />
<glyph glyph-name="acircumflex" unicode="&#xe2;" horiz-adv-x="512" d="M523 101 L509 108 C506 92 467 54 454 54 C438 54 399 88 399 101 L399 355 C399 406 299 510 259 510 C204 510 65 386 65 360 C65 343 99 301 112 301 C125 301 156 335 156 343 C156 353 136 394 136 403 C136 421 221 506 254 506 C272 506 317 425 317 386 L317 266 C210 231 46 127 46 87 C46 60 127 -10 159 -10 C177 -10 278 49 320 86 C336 51 395 -5 421 -5 C445 -5 519 71 524 101 L523 101 L523 101 Z M260 697 L401 557 L413 567 L290 756 C288 760 265 786 261 786 C257 786 234 761 232 757 L109 567 L120 557 L260 697 L260 697 Z M319 265 L318 102 C318 99 319 95 321 91 C291 68 221 36 204 36 C183 36 130 80 130 98 C130 143 243 238 318 265 L319 265 L319 265 Z " />
<glyph glyph-name="atilde" unicode="&#xe3;" horiz-adv-x="512" d="M115 620 C115 637 147 680 160 680 C188 680 306 615 334 615 C354 615 404 700 404 734 L402 734 C402 717 367 674 353 674 C325 674 207 739 179 739 C160 739 113 654 113 620 L115 620 L115 620 Z M523 101 L509 108 C506 92 467 54 454 54 C438 54 399 88 399 101 L399 355 C399 406 299 510 259 510 C204 510 65 386 65 360 C65 343 99 301 112 301 C125 301 156 335 156 343 C156 353 136 394 136 403 C136 421 221 506 254 506 C272 506 317 425 317 386 L317 266 C210 231 46 127 46 87 C46 60 127 -10 159 -10 C177 -10 278 49 320 86 C336 51 395 -5 421 -5 C445 -5 519 71 524 101 L523 101 L523 101 Z M318 264 L317 101 C317 98 318 94 320 90 C290 67 220 35 203 35 C182 35 129 79 129 97 C129 142 242 237 317 264 L318 264 L318 264 Z " />
<glyph glyph-name="adieresis" unicode="&#xe4;" horiz-adv-x="512" d="M333 615 C349 615 387 653 387 669 C387 684 349 723 333 723 C318 723 280 684 280 669 C280 653 318 615 333 615 L333 615 Z M184 615 C199 615 238 653 238 669 C238 684 199 723 184 723 C169 723 130 684 130 669 C130 653 169 615 184 615 L184 615 Z M523 101 L509 108 C506 92 467 54 454 54 C438 54 399 88 399 101 L399 355 C399 406 299 510 259 510 C204 510 65 386 65 360 C65 343 99 301 112 301 C125 301 156 335 156 343 C156 353 136 394 136 403 C136 421 221 506 254 506 C272 506 317 425 317 386 L317 266 C210 231 46 127 46 87 C46 60 127 -10 159 -10 C177 -10 278 49 320 86 C336 51 395 -5 421 -5 C445 -5 519 71 524 101 L523 101 L523 101 Z M318 264 L317 101 C317 98 318 94 320 90 C290 67 220 35 203 35 C182 35 129 79 129 97 C129 142 242 237 317 264 L318 264 L318 264 Z " />
<glyph glyph-name="aring" unicode="&#xe5;" horiz-adv-x="512" d="M259 580 C240 580 186 636 186 655 C186 676 238 730 259 730 C280 730 332 676 332 655 C332 636 278 580 259 580 L259 580 Z M161 655 C161 631 234 560 259 560 C284 560 356 631 356 655 C356 682 287 750 259 750 C231 750 161 682 161 655 L161 655 Z M523 101 L509 108 C506 92 467 54 454 54 C438 54 399 88 399 101 L399 355 C399 406 299 510 259 510 C204 510 65 386 65 360 C65 343 99 301 112 301 C125 301 156 335 156 343 C156 353 136 394 136 403 C136 421 221 506 254 506 C272 506 317 425 317 386 L317 266 C210 231 46 127 46 87 C46 60 127 -10 159 -10 C177 -10 278 49 320 86 C336 51 395 -5 421 -5 C445 -5 519 71 524 101 L523 101 L523 101 Z M318 264 L317 101 C317 98 318 94 320 90 C290 67 220 35 203 35 C182 35 129 79 129 97 C129 142 242 237 317 264 L318 264 L318 264 Z " />
<glyph glyph-name="ccedilla" unicode="&#xe7;" horiz-adv-x="508" d="M236 -85 L276 -10 C320 -6 461 90 478 128 L466 133 C449 95 315 -2 279 -2 C236 -2 128 194 128 273 C128 340 254 507 305 507 C321 507 389 434 400 405 C404 393 434 363 441 363 C458 363 487 393 483 405 C472 435 345 510 305 510 C230 510 42 314 42 236 C42 167 206 -7 273 -10 L226 -102 L228 -102 C236 -98 277 -87 284 -87 C301 -87 341 -127 341 -143 C341 -164 300 -217 283 -217 C270 -217 214 -201 205 -194 L204 -195 C214 -202 271 -220 284 -220 C315 -220 390 -162 390 -138 C390 -123 317 -84 287 -84 C274 -84 240 -85 238 -85 L236 -85 L236 -85 Z " />
<glyph glyph-name="egrave" unicode="&#xe8;" horiz-adv-x="534" d="M198 721 C183 740 140 788 137 788 C126 788 95 757 95 746 C95 743 141 698 160 682 L301 562 L312 573 L198 721 L198 721 Z M152 340 L413 340 L482 340 L505 340 C500 398 354 510 299 510 C226 510 41 311 41 232 C41 163 209 -10 277 -10 C323 -10 478 92 492 132 L482 136 C468 97 323 -2 280 -2 C236 -2 128 189 128 265 C128 284 137 311 151 340 L152 340 L152 340 Z M480 344 L480 344 L480 344 L480 344 Z M412 344 L153 343 C191 419 263 507 297 507 C325 507 403 402 411 344 L412 344 L412 344 Z " />
<glyph glyph-name="eacute" unicode="&#xe9;" horiz-adv-x="534" d="M307 562 L449 682 C467 698 513 743 513 746 C513 757 482 788 471 788 C469 788 426 740 411 721 L296 573 L307 562 L307 562 Z M152 340 L413 340 L482 340 L505 340 C500 398 354 510 299 510 C226 510 41 311 41 232 C41 163 209 -10 277 -10 C323 -10 478 92 492 132 L482 136 C468 97 323 -2 280 -2 C236 -2 128 189 128 265 C128 284 137 311 151 340 L152 340 L152 340 Z M480 344 L480 344 L480 344 L480 344 Z M412 344 L153 343 C191 419 263 507 297 507 C325 507 403 402 411 344 L412 344 L412 344 Z " />
<glyph glyph-name="ecircumflex" unicode="&#xea;" horiz-adv-x="534" d="M299 697 L440 556 L451 566 L329 755 C326 759 303 785 299 785 C295 785 273 760 270 756 L147 566 L159 556 L299 697 L299 697 Z M152 340 L413 340 L482 340 L505 340 C500 398 354 510 299 510 C226 510 41 311 41 232 C41 163 209 -10 277 -10 C323 -10 478 92 492 132 L482 136 C468 97 323 -2 280 -2 C236 -2 128 189 128 265 C128 284 137 311 151 340 L152 340 L152 340 Z M480 344 L480 344 L480 344 L480 344 Z M412 344 L153 343 C191 419 263 507 297 507 C325 507 403 402 411 344 L412 344 L412 344 Z " />
<glyph glyph-name="edieresis" unicode="&#xeb;" horiz-adv-x="534" d="M374 615 C389 615 428 653 428 669 C428 684 389 723 374 723 C358 723 320 684 320 669 C320 653 358 615 374 615 L374 615 Z M224 615 C240 615 278 653 278 669 C278 684 240 723 224 723 C209 723 171 684 171 669 C171 653 209 615 224 615 L224 615 Z M152 340 L413 340 L482 340 L505 340 C500 398 354 510 299 510 C226 510 41 311 41 232 C41 163 209 -10 277 -10 C323 -10 478 92 492 132 L482 136 C468 97 323 -2 280 -2 C236 -2 128 189 128 265 C128 284 137 311 151 340 L152 340 L152 340 Z M480 344 L480 344 L480 344 L480 344 Z M412 344 L153 343 C191 419 263 507 297 507 C325 507 403 402 411 344 L412 344 L412 344 Z " />
<glyph glyph-name="igrave" unicode="&#xec;" horiz-adv-x="308" d="M55 721 C41 740 -2 788 -6 788 C-16 788 -47 757 -47 746 C-47 743 -1 698 17 682 L159 562 L170 573 L55 721 L55 721 Z M198 35 L198 390 L198 500 L184 500 L34 445 L34 435 C66 437 115 410 115 390 L115 35 C115 29 79 20 65 20 L35 20 L35 10 L35 0 L158 0 L281 0 L281 10 L281 20 L251 20 C236 20 198 29 198 35 L198 35 Z " />
<glyph glyph-name="iacute" unicode="&#xed;" horiz-adv-x="308" d="M55 721 C41 740 -2 788 -6 788 C-16 788 -47 757 -47 746 C-47 743 -1 698 17 682 L159 562 L170 573 L55 721 L55 721 Z M198 35 L198 390 L198 500 L184 500 L34 445 L34 435 C66 437 115 410 115 390 L115 35 C115 29 79 20 65 20 L35 20 L35 10 L35 0 L158 0 L281 0 L281 10 L281 20 L251 20 C236 20 198 29 198 35 L198 35 Z " />
<glyph glyph-name="icircumflex" unicode="&#xee;" horiz-adv-x="308" d="M157 697 L298 557 L310 567 L187 756 C185 760 162 786 158 786 C154 786 131 761 129 757 L6 567 L17 557 L157 697 L157 697 Z M199 36 L199 391 L199 501 L185 501 L35 446 L35 436 C67 438 116 411 116 391 L116 36 C116 30 80 21 66 21 L36 21 L36 11 L36 1 L159 1 L282 1 L282 11 L282 21 L252 21 C237 21 199 30 199 36 L199 36 Z " />
<glyph glyph-name="idieresis" unicode="&#xef;" horiz-adv-x="308" d="M231 615 C247 615 285 653 285 669 C285 684 247 723 231 723 C216 723 178 684 178 669 C178 653 216 615 231 615 L231 615 Z M82 615 C97 615 136 653 136 669 C136 684 97 723 82 723 C67 723 28 684 28 669 C28 653 67 615 82 615 L82 615 Z M198 35 L198 390 L198 500 L184 500 L34 445 L34 435 C66 437 115 410 115 390 L115 35 C115 29 79 20 65 20 L35 20 L35 10 L35 0 L158 0 L281 0 L281 10 L281 20 L251 20 C236 20 198 29 198 35 L198 35 Z " />
<glyph glyph-name="ntilde" unicode="&#xf1;" horiz-adv-x="650" d="M181 620 C181 637 213 680 226 680 C254 680 371 615 400 615 C420 615 470 700 470 734 L468 734 C468 717 433 674 419 674 C390 674 273 739 245 739 C226 739 179 654 179 620 L181 620 L181 620 Z M457 35 C457 29 421 20 407 20 L377 20 L377 10 L377 0 L498 0 L620 0 L620 10 L620 20 L590 20 C576 20 540 29 540 35 L540 335 C540 385 433 510 384 510 C354 510 225 428 192 390 L192 400 L192 500 L178 500 L24 444 L24 434 L24 424 L54 435 C70 441 109 407 109 375 L109 35 C109 29 73 20 59 20 L29 20 L29 10 L29 0 L151 0 L272 0 L272 10 L272 20 L242 20 C228 20 192 29 192 35 L192 378 C221 408 333 471 361 471 C391 471 457 374 457 335 L457 35 L457 35 Z " />
<glyph glyph-name="ograve" unicode="&#xf2;" horiz-adv-x="585" d="M291 -6 C246 -6 133 177 133 250 C133 323 246 506 291 506 C336 506 449 323 449 250 C449 177 336 -6 291 -6 L291 -6 Z M41 250 C41 176 219 -10 291 -10 C362 -10 541 176 541 250 C541 324 362 510 291 510 C219 510 41 324 41 250 L41 250 Z M189 721 C175 740 132 788 128 788 C118 788 87 757 87 746 C87 743 133 698 151 682 L293 562 L303 573 L189 721 L189 721 Z " />
<glyph glyph-name="oacute" unicode="&#xf3;" horiz-adv-x="585" d="M298 562 L440 682 C458 698 504 743 504 746 C504 757 473 788 463 788 C460 788 417 740 402 721 L288 573 L298 562 L298 562 Z M291 -6 C246 -6 133 177 133 250 C133 323 246 506 291 506 C336 506 449 323 449 250 C449 177 336 -6 291 -6 L291 -6 Z M41 250 C41 176 219 -10 291 -10 C362 -10 541 176 541 250 C541 324 362 510 291 510 C219 510 41 324 41 250 L41 250 Z " />
<glyph glyph-name="ocircumflex" unicode="&#xf4;" horiz-adv-x="585" d="M291 -6 C246 -6 133 177 133 250 C133 323 246 506 291 506 C336 506 449 323 449 250 C449 177 336 -6 291 -6 L291 -6 Z M41 250 C41 176 219 -10 291 -10 C362 -10 541 176 541 250 C541 324 362 510 291 510 C219 510 41 324 41 250 L41 250 Z M291 697 L432 557 L443 567 L321 756 C318 760 296 786 292 786 C287 786 265 761 262 757 L140 567 L151 557 L291 697 L291 697 Z " />
<glyph glyph-name="otilde" unicode="&#xf5;" horiz-adv-x="585" d="M147 620 C147 637 179 680 192 680 C220 680 337 615 366 615 C386 615 436 700 436 734 L434 734 C434 717 399 674 385 674 C357 674 239 739 211 739 C192 739 145 654 145 620 L147 620 L147 620 Z M291 -6 C246 -6 133 177 133 250 C133 323 246 506 291 506 C336 506 449 323 449 250 C449 177 336 -6 291 -6 L291 -6 Z M41 250 C41 176 219 -10 291 -10 C362 -10 541 176 541 250 C541 324 362 510 291 510 C219 510 41 324 41 250 L41 250 Z " />
<glyph glyph-name="odieresis" unicode="&#xf6;" horiz-adv-x="585" d="M365 615 C381 615 419 653 419 669 C419 684 381 723 365 723 C350 723 311 684 311 669 C311 653 350 615 365 615 L365 615 Z M216 615 C231 615 270 653 270 669 C270 684 231 723 216 723 C201 723 162 684 162 669 C162 653 201 615 216 615 L216 615 Z M291 -6 C246 -6 133 177 133 250 C133 323 246 506 291 506 C336 506 449 323 449 250 C449 177 336 -6 291 -6 L291 -6 Z M41 250 C41 176 219 -10 291 -10 C362 -10 541 176 541 250 C541 324 362 510 291 510 C219 510 41 324 41 250 L41 250 Z " />
<glyph glyph-name="oslash" unicode="&#xf8;" horiz-adv-x="585" d="M42 -12 L141 91 C194 36 256 -10 292 -10 C363 -10 542 176 542 250 C542 287 498 351 445 406 L543 508 L540 512 L442 410 C389 465 328 510 293 510 C221 510 43 324 43 250 C43 213 87 149 140 94 L42 -8 L42 -12 L42 -12 Z M294 -6 C267 -6 216 59 179 127 L411 368 C435 323 452 278 452 249 C452 176 339 -7 294 -7 L294 -6 L294 -6 Z M177 131 C153 175 136 220 136 248 C136 321 249 504 294 504 C321 504 372 439 409 371 L177 131 L177 131 Z " />
<glyph glyph-name="ugrave" unicode="&#xf9;" horiz-adv-x="587" d="M186 721 C172 740 129 788 125 788 C115 788 84 757 84 746 C84 743 130 698 148 682 L290 562 L300 573 L186 721 L186 721 Z M399 90 L399 -10 L414 -10 L568 28 L568 38 L568 48 L538 41 C522 37 483 75 483 107 L483 465 L483 500 L408 500 L333 500 L333 490 L333 480 L363 480 C373 480 399 471 399 465 L399 136 C371 106 288 49 269 49 C243 49 176 129 176 161 L176 466 L176 501 L101 501 L27 501 L27 491 L27 481 L57 481 C67 481 93 472 93 466 L93 161 C93 113 191 -9 230 -9 C251 -9 363 86 400 132 L399 90 L399 90 Z " />
<glyph glyph-name="uacute" unicode="&#xfa;" horiz-adv-x="587" d="M295 562 L437 682 C456 698 502 743 502 746 C502 757 471 788 460 788 C457 788 414 740 399 721 L285 573 L295 562 L295 562 Z M399 90 L399 -10 L414 -10 L568 28 L568 38 L568 48 L538 41 C522 37 483 75 483 107 L483 465 L483 500 L408 500 L333 500 L333 490 L333 480 L363 480 C373 480 399 471 399 465 L399 136 C371 106 288 49 269 49 C243 49 176 129 176 161 L176 466 L176 501 L101 501 L27 501 L27 491 L27 481 L57 481 C67 481 93 472 93 466 L93 161 C93 113 191 -9 230 -9 C251 -9 363 86 400 132 L399 90 L399 90 Z " />
<glyph glyph-name="ucircumflex" unicode="&#xfb;" horiz-adv-x="587" d="M288 697 L429 557 L440 567 L318 756 C315 760 293 786 289 786 C284 786 262 761 259 757 L137 567 L148 557 L288 697 L288 697 Z M400 91 L400 -9 L415 -9 L569 29 L569 39 L569 49 L539 42 C523 38 484 76 484 108 L484 466 L484 501 L409 501 L334 501 L334 491 L334 481 L364 481 C374 481 400 472 400 466 L400 137 C372 107 289 50 270 50 C244 50 177 130 177 162 L177 467 L177 502 L102 502 L28 502 L28 492 L28 482 L58 482 C68 482 94 473 94 467 L94 162 C94 114 192 -8 231 -8 C252 -8 364 87 401 133 L400 91 L400 91 Z " />
<glyph glyph-name="udieresis" unicode="&#xfc;" horiz-adv-x="587" d="M362 615 C378 615 416 653 416 669 C416 684 378 723 362 723 C347 723 309 684 309 669 C309 653 347 615 362 615 L362 615 Z M213 615 C228 615 267 653 267 669 C267 684 228 723 213 723 C198 723 159 684 159 669 C159 653 198 615 213 615 L213 615 Z M399 90 L399 -10 L414 -10 L568 28 L568 38 L568 48 L538 41 C522 37 483 75 483 107 L483 465 L483 500 L408 500 L333 500 L333 490 L333 480 L363 480 C373 480 399 471 399 465 L399 136 C371 106 288 49 269 49 C243 49 176 129 176 161 L176 466 L176 501 L101 501 L27 501 L27 491 L27 481 L57 481 C67 481 93 472 93 466 L93 161 C93 113 191 -9 230 -9 C251 -9 363 86 400 132 L399 90 L399 90 Z " />
<glyph glyph-name="ydieresis" unicode="&#xff;" horiz-adv-x="572" d="M376 615 C392 615 430 653 430 669 C430 684 392 723 376 723 C361 723 322 684 322 669 C322 653 361 615 376 615 L376 615 Z M227 615 C242 615 281 653 281 669 C281 684 242 723 227 723 C211 723 173 684 173 669 C173 653 211 615 227 615 L227 615 Z M85 453 L266 -10 L221 -140 C218 -147 197 -165 191 -165 C182 -165 153 -135 143 -135 C130 -135 96 -165 96 -177 C96 -192 131 -228 145 -228 C164 -228 230 -181 236 -163 L291 -10 L459 437 C469 455 515 480 529 480 L560 480 L560 490 L560 500 L483 500 L455 500 L445 500 L350 500 L350 490 L350 480 L377 480 C394 480 432 462 427 450 L427 450 L305 101 L175 455 C174 466 193 480 203 480 L233 480 L233 490 L233 500 L158 500 L119 500 L67 500 L5 500 L5 490 L5 480 L40 480 C50 480 81 464 85 453 L85 453 Z " />
<glyph glyph-name="Amacron" unicode="&#x100;" horiz-adv-x="770" d="M250 896 L550 896 L550 953 L250 953 L250 896 L250 896 Z M631 140 L631 140 L447 721 L431 770 L421 770 C412 757 364 722 354 721 L357 711 L357 711 L196 170 L196 170 C179 110 77 20 47 20 L17 20 L17 10 L17 0 L146 0 L150 0 L166 0 L315 0 L315 10 L315 20 L291 20 C253 20 183 110 200 170 L200 170 L237 295 L487 295 L535 140 L534 140 C549 92 497 20 467 20 L443 20 L443 10 L443 0 L578 0 L603 0 L675 0 L764 0 L764 10 L764 20 L734 20 C715 20 646 92 631 140 L631 140 Z M238 299 L358 708 L485 299 L238 299 L238 299 Z " />
<glyph glyph-name="amacron" unicode="&#x101;" horiz-adv-x="512" d="M109 646 L409 646 L409 703 L109 703 L109 646 L109 646 Z M523 101 L509 108 C506 92 467 54 454 54 C438 54 399 88 399 101 L399 355 C399 406 299 510 259 510 C204 510 65 386 65 360 C65 343 99 301 112 301 C125 301 156 335 156 343 C156 353 136 394 136 403 C136 421 221 506 254 506 C272 506 317 425 317 386 L317 266 C210 231 46 127 46 87 C46 60 127 -10 159 -10 C177 -10 278 49 320 86 C336 51 395 -5 421 -5 C445 -5 519 71 524 101 L523 101 L523 101 Z M318 264 L317 101 C317 98 318 94 320 90 C290 67 220 35 203 35 C182 35 129 79 129 97 C129 142 242 237 317 264 L318 264 L318 264 Z " />
<glyph glyph-name="Abreve" unicode="&#x102;" horiz-adv-x="770" d="M266 994 C269 959 365 871 400 871 C435 871 531 958 534 993 L516 995 C515 976 432 930 400 930 C368 930 285 978 284 997 L266 994 L266 994 Z M631 140 L631 140 L447 721 L431 770 L421 770 C412 757 364 722 354 721 L357 711 L357 711 L196 170 L196 170 C179 110 77 20 47 20 L17 20 L17 10 L17 0 L146 0 L150 0 L166 0 L315 0 L315 10 L315 20 L291 20 C253 20 183 110 200 170 L200 170 L237 295 L487 295 L535 140 L534 140 C549 92 497 20 467 20 L443 20 L443 10 L443 0 L578 0 L603 0 L675 0 L764 0 L764 10 L764 20 L734 20 C715 20 646 92 631 140 L631 140 Z M238 299 L358 708 L485 299 L238 299 L238 299 Z " />
<glyph glyph-name="abreve" unicode="&#x103;" horiz-adv-x="512" d="M125 744 C128 709 224 621 259 621 C294 621 390 708 393 743 L375 745 C374 726 290 680 259 680 C227 680 144 728 142 747 L125 744 L125 744 Z M523 101 L509 108 C506 92 467 54 454 54 C438 54 399 88 399 101 L399 355 C399 406 299 510 259 510 C204 510 65 386 65 360 C65 343 99 301 112 301 C125 301 156 335 156 343 C156 353 136 394 136 403 C136 421 221 506 254 506 C272 506 317 425 317 386 L317 266 C210 231 46 127 46 87 C46 60 127 -10 159 -10 C177 -10 278 49 320 86 C336 51 395 -5 421 -5 C445 -5 519 71 524 101 L523 101 L523 101 Z M318 264 L317 101 C317 98 318 94 320 90 C290 67 220 35 203 35 C182 35 129 79 129 97 C129 142 242 237 317 264 L318 264 L318 264 Z " />
<glyph glyph-name="Cacute" unicode="&#x106;" horiz-adv-x="733" d="M418 812 L560 932 C578 948 624 993 624 996 C624 1007 593 1038 583 1038 C580 1038 537 990 522 971 L408 823 L418 812 L418 812 Z M570 706 L570 706 C511 735 446 760 410 760 C308 760 51 485 51 375 C51 265 301 -10 400 -10 C435 -10 505 16 568 46 L569 46 C593 58 666 43 669 31 C671 22 677 1 677 1 L683 1 L689 1 L689 113 L689 120 L689 224 L682 224 L674 224 C674 224 671 209 669 203 C664 182 557 59 522 40 L522 40 C473 14 425 -7 401 -7 C331 -7 154 266 154 375 C154 484 338 757 412 757 C430 757 461 745 495 728 C541 702 665 569 670 546 C672 540 675 525 675 525 L683 525 L690 525 L690 629 L690 634 L690 744 L683 744 L675 744 C675 744 672 723 670 715 C668 703 597 692 571 705 L570 706 L570 706 Z " />
<glyph glyph-name="Ccircumflex" unicode="&#x108;" horiz-adv-x="733" d="M570 706 L570 706 C511 735 446 760 410 760 C308 760 51 485 51 375 C51 265 301 -10 400 -10 C435 -10 505 16 568 46 L569 46 C593 58 666 43 669 31 C671 22 677 1 677 1 L683 1 L689 1 L689 113 L689 120 L689 224 L682 224 L674 224 C674 224 671 209 669 203 C664 182 557 59 522 40 L522 40 C473 14 425 -7 401 -7 C331 -7 154 266 154 375 C154 484 338 757 412 757 C430 757 461 745 495 728 C541 702 665 569 670 546 C672 540 675 525 675 525 L683 525 L690 525 L690 629 L690 634 L690 744 L683 744 L675 744 C675 744 672 723 670 715 C668 703 597 692 571 705 L570 706 L570 706 Z M412 946 L553 806 L564 816 L442 1005 C439 1009 417 1035 412 1035 C408 1035 386 1010 383 1006 L261 816 L272 806 L412 946 L412 946 Z " />
<glyph glyph-name="Cdot" unicode="&#x10a;" horiz-adv-x="733" d="M410 865 C426 865 464 903 464 919 C464 934 426 973 410 973 C395 973 356 934 356 919 C356 903 395 865 410 865 L410 865 Z M570 706 L570 706 C511 735 446 760 410 760 C308 760 51 485 51 375 C51 265 301 -10 400 -10 C435 -10 505 16 568 46 L569 46 C593 58 666 43 669 31 C671 22 677 1 677 1 L683 1 L689 1 L689 113 L689 120 L689 224 L682 224 L674 224 C674 224 671 209 669 203 C664 182 557 59 522 40 L522 40 C473 14 425 -7 401 -7 C331 -7 154 266 154 375 C154 484 338 757 412 757 C430 757 461 745 495 728 C541 702 665 569 670 546 C672 540 675 525 675 525 L683 525 L690 525 L690 629 L690 634 L690 744 L683 744 L675 744 C675 744 672 723 670 715 C668 703 597 692 571 705 L570 706 L570 706 Z " />
<glyph glyph-name="cdot" unicode="&#x10b;" horiz-adv-x="508" d="M305 615 C321 615 359 653 359 669 C359 684 321 723 305 723 C290 723 251 684 251 669 C251 653 290 615 305 615 L305 615 Z M478 128 L466 133 C449 95 315 -2 279 -2 C236 -2 128 194 128 273 C128 340 254 507 305 507 C321 507 389 434 400 405 C404 393 434 363 441 363 C458 363 487 393 483 405 C472 435 345 510 305 510 C230 510 42 314 42 236 C42 166 208 -10 274 -10 C315 -10 461 89 478 128 L478 128 Z " />
<glyph glyph-name="Ccaron" unicode="&#x10c;" horiz-adv-x="733" d="M570 706 L570 706 C511 735 446 760 410 760 C308 760 51 485 51 375 C51 265 301 -10 400 -10 C435 -10 505 16 568 46 L569 46 C593 58 666 43 669 31 C671 22 677 1 677 1 L683 1 L689 1 L689 113 L689 120 L689 224 L682 224 L674 224 C674 224 671 209 669 203 C664 182 557 59 522 40 L522 40 C473 14 425 -7 401 -7 C331 -7 154 266 154 375 C154 484 338 757 412 757 C430 757 461 745 495 728 C541 702 665 569 670 546 C672 540 675 525 675 525 L683 525 L690 525 L690 629 L690 634 L690 744 L683 744 L675 744 C675 744 672 723 670 715 C668 703 597 692 571 705 L570 706 L570 706 Z M412 903 L553 1044 L564 1034 L442 845 C439 841 417 815 412 815 C408 815 386 840 383 844 L261 1034 L272 1044 L412 903 L412 903 Z " />
<glyph glyph-name="ccaron" unicode="&#x10d;" horiz-adv-x="508" d="M478 128 L466 133 C449 95 315 -2 279 -2 C236 -2 128 194 128 273 C128 340 254 507 305 507 C321 507 389 434 400 405 C404 393 434 363 441 363 C458 363 487 393 483 405 C472 435 345 510 305 510 C230 510 42 314 42 236 C42 166 208 -10 274 -10 C315 -10 461 89 478 128 L478 128 Z M305 653 L446 794 L457 784 L335 595 C332 591 309 565 305 565 C301 565 279 590 276 594 L154 784 L165 794 L305 653 L305 653 Z " />
<glyph glyph-name="Dcaron" unicode="&#x10e;" horiz-adv-x="844" d="M417 904 L558 1045 L570 1035 L447 846 C445 842 422 816 418 816 C414 816 391 841 389 845 L266 1035 L277 1045 L417 904 L417 904 Z M147 666 L147 86 C147 60 94 21 72 21 L42 21 L42 11 L42 1 L141 1 L147 1 L240 1 L320 1 C454 1 791 258 791 376 C791 483 495 751 360 751 L240 751 L147 751 L141 751 L42 751 L42 741 L42 731 L72 731 C94 731 147 692 147 666 L147 666 Z M240 748 L349 748 C455 748 688 482 688 376 C688 259 422 4 316 4 C284 4 240 59 240 81 L240 86 L240 666 L240 748 L240 748 Z " />
<glyph glyph-name="dcaron" unicode="&#x10f;" horiz-adv-x="593" d="M613 641 C620 660 638 735 638 746 C638 750 611 758 600 758 C592 758 571 672 570 650 L560 539 L574 536 L613 641 L613 641 Z M430 96 C406 73 323 30 301 30 C253 30 132 205 132 274 C132 334 248 486 301 486 C323 486 407 424 431 393 L431 110 L430 96 L430 96 Z M431 68 L431 -10 L446 -10 L600 28 L600 38 L600 48 L570 41 C554 37 515 87 515 127 L515 665 L515 750 L500 750 L346 706 L346 696 L346 686 L376 695 C392 699 431 671 431 645 L431 452 C384 480 318 510 292 510 C215 510 48 325 48 251 C48 178 205 -5 267 -5 C298 -5 404 43 431 68 L431 68 Z " />
<glyph glyph-name="Emacron" unicode="&#x112;" horiz-adv-x="654" d="M203 896 L503 896 L503 953 L203 953 L203 896 L203 896 Z M462 0 L582 0 C583 9 590 55 591 64 C592 73 599 119 600 128 L590 128 L580 128 L576 98 C572 71 502 3 462 3 L320 3 C286 3 240 58 240 80 L240 85 L240 385 L374 385 C414 385 474 306 474 275 L474 245 L484 245 L494 245 L494 385 L494 387 L494 388 L494 528 L484 528 L474 528 L474 498 C474 467 414 388 374 388 L240 388 L240 665 L240 747 L440 747 C488 747 545 671 547 640 L549 622 L559 622 L569 622 C568 631 565 677 564 686 C564 695 560 741 560 750 L440 750 L240 750 L147 750 L141 750 L42 750 L42 740 L42 730 L72 730 C93 730 147 691 147 665 L147 85 C147 59 93 20 72 20 L42 20 L42 10 L42 0 L141 0 L147 0 L240 0 L462 0 L462 0 Z " />
<glyph glyph-name="emacron" unicode="&#x113;" horiz-adv-x="534" d="M149 646 L449 646 L449 703 L149 703 L149 646 L149 646 Z M152 340 L413 340 L482 340 L505 340 C500 398 354 510 299 510 C226 510 41 311 41 232 C41 163 209 -10 277 -10 C323 -10 478 92 492 132 L482 136 C468 97 323 -2 280 -2 C236 -2 128 189 128 265 C128 284 137 311 151 340 L152 340 L152 340 Z M480 344 L480 344 L480 344 L480 344 Z M412 344 L153 343 C191 419 263 507 297 507 C325 507 403 402 411 344 L412 344 L412 344 Z " />
<glyph glyph-name="Ebreve" unicode="&#x114;" horiz-adv-x="654" d="M219 994 C222 959 318 871 353 871 C389 871 484 958 487 993 L470 995 C468 976 385 930 353 930 C322 930 239 978 237 997 L219 994 L219 994 Z M462 0 L582 0 C583 9 590 55 591 64 C592 73 599 119 600 128 L590 128 L580 128 L576 98 C572 71 502 3 462 3 L320 3 C286 3 240 58 240 80 L240 85 L240 385 L374 385 C414 385 474 306 474 275 L474 245 L484 245 L494 245 L494 385 L494 387 L494 388 L494 528 L484 528 L474 528 L474 498 C474 467 414 388 374 388 L240 388 L240 665 L240 747 L440 747 C488 747 545 671 547 640 L549 622 L559 622 L569 622 C568 631 565 677 564 686 C564 695 560 741 560 750 L440 750 L240 750 L147 750 L141 750 L42 750 L42 740 L42 730 L72 730 C93 730 147 691 147 665 L147 85 C147 59 93 20 72 20 L42 20 L42 10 L42 0 L141 0 L147 0 L240 0 L462 0 L462 0 Z " />
<glyph glyph-name="ebreve" unicode="&#x115;" horiz-adv-x="534" d="M165 744 C168 709 264 621 299 621 C334 621 430 708 433 743 L416 745 C414 726 331 680 299 680 C267 680 184 728 183 747 L165 744 L165 744 Z M152 340 L413 340 L482 340 L505 340 C500 398 354 510 299 510 C226 510 41 311 41 232 C41 163 209 -10 277 -10 C323 -10 478 92 492 132 L482 136 C468 97 323 -2 280 -2 C236 -2 128 189 128 265 C128 284 137 311 151 340 L152 340 L152 340 Z M480 344 L480 344 L480 344 L480 344 Z M412 344 L153 343 C191 419 263 507 297 507 C325 507 403 402 411 344 L412 344 L412 344 Z " />
<glyph glyph-name="Edot" unicode="&#x116;" horiz-adv-x="654" d="M353 865 C369 865 407 903 407 919 C407 934 369 973 353 973 C338 973 299 934 299 919 C299 903 338 865 353 865 L353 865 Z M462 0 L582 0 C583 9 590 55 591 64 C592 73 599 119 600 128 L590 128 L580 128 L576 98 C572 71 502 3 462 3 L320 3 C286 3 240 58 240 80 L240 85 L240 385 L374 385 C414 385 474 306 474 275 L474 245 L484 245 L494 245 L494 385 L494 387 L494 388 L494 528 L484 528 L474 528 L474 498 C474 467 414 388 374 388 L240 388 L240 665 L240 747 L440 747 C488 747 545 671 547 640 L549 622 L559 622 L569 622 C568 631 565 677 564 686 C564 695 560 741 560 750 L440 750 L240 750 L147 750 L141 750 L42 750 L42 740 L42 730 L72 730 C93 730 147 691 147 665 L147 85 C147 59 93 20 72 20 L42 20 L42 10 L42 0 L141 0 L147 0 L240 0 L462 0 L462 0 Z " />
<glyph glyph-name="edot" unicode="&#x117;" horiz-adv-x="534" d="M299 615 C314 615 353 653 353 669 C353 684 314 723 299 723 C284 723 245 684 245 669 C245 653 284 615 299 615 L299 615 Z M152 340 L413 340 L482 340 L505 340 C500 398 354 510 299 510 C226 510 41 311 41 232 C41 163 209 -10 277 -10 C323 -10 478 92 492 132 L482 136 C468 97 323 -2 280 -2 C236 -2 128 189 128 265 C128 284 137 311 151 340 L152 340 L152 340 Z M480 344 L480 344 L480 344 L480 344 Z M412 344 L153 343 C191 419 263 507 297 507 C325 507 403 402 411 344 L412 344 L412 344 Z " />
<glyph glyph-name="Ecaron" unicode="&#x11a;" horiz-adv-x="654" d="M353 903 L494 1044 L505 1034 L383 845 C380 841 357 815 353 815 C349 815 327 840 324 844 L202 1034 L213 1044 L353 903 L353 903 Z M462 0 L582 0 C583 9 590 55 591 64 C592 73 599 119 600 128 L590 128 L580 128 L576 98 C572 71 502 3 462 3 L320 3 C286 3 240 58 240 80 L240 85 L240 385 L374 385 C414 385 474 306 474 275 L474 245 L484 245 L494 245 L494 385 L494 387 L494 388 L494 528 L484 528 L474 528 L474 498 C474 467 414 388 374 388 L240 388 L240 665 L240 747 L440 747 C488 747 545 671 547 640 L549 622 L559 622 L569 622 C568 631 565 677 564 686 C564 695 560 741 560 750 L440 750 L240 750 L147 750 L141 750 L42 750 L42 740 L42 730 L72 730 C93 730 147 691 147 665 L147 85 C147 59 93 20 72 20 L42 20 L42 10 L42 0 L141 0 L147 0 L240 0 L462 0 L462 0 Z " />
<glyph glyph-name="ecaron" unicode="&#x11b;" horiz-adv-x="534" d="M299 653 L440 794 L451 784 L329 595 C326 591 303 565 299 565 C295 565 273 590 270 594 L147 784 L159 794 L299 653 L299 653 Z M152 340 L413 340 L482 340 L505 340 C500 398 354 510 299 510 C226 510 41 311 41 232 C41 163 209 -10 277 -10 C323 -10 478 92 492 132 L482 136 C468 97 323 -2 280 -2 C236 -2 128 189 128 265 C128 284 137 311 151 340 L152 340 L152 340 Z M480 344 L480 344 L480 344 L480 344 Z M412 344 L153 343 C191 419 263 507 297 507 C325 507 403 402 411 344 L412 344 L412 344 Z " />
<glyph glyph-name="Gcircumflex" unicode="&#x11c;" horiz-adv-x="814" d="M570 706 L570 706 C511 735 446 760 410 760 C308 760 51 485 51 375 C51 265 306 -10 407 -10 C474 -10 700 42 744 62 L743 65 C733 60 706 53 671 46 L671 244 C671 268 711 304 726 304 L756 304 L756 314 L756 324 L617 324 L478 324 L478 314 L478 304 L508 304 C528 304 578 268 578 244 L580 30 L580 30 L579 123 C579 92 468 17 418 12 L453 14 C438 13 424 12 413 12 C339 12 152 271 152 374 C152 483 336 756 410 756 C428 756 459 744 493 727 C539 701 663 568 668 545 C670 539 673 524 673 524 L681 524 L688 524 L688 628 L688 633 L688 743 L681 743 L673 743 C673 743 670 722 668 714 C666 702 595 691 569 704 L570 706 L570 706 Z M410 945 L551 805 L562 815 L440 1004 C437 1008 415 1034 410 1034 C406 1034 384 1009 381 1005 L259 815 L270 805 L410 945 L410 945 Z M419 12 C417 12 416 12 415 12 L419 12 L419 12 Z " />
<glyph glyph-name="Gbreve" unicode="&#x11e;" horiz-adv-x="814" d="M276 994 C279 959 375 871 410 871 C446 871 541 958 544 993 L527 995 C525 976 442 930 410 930 C379 930 296 978 294 997 L276 994 L276 994 Z M570 706 L570 706 C511 735 446 760 410 760 C308 760 51 485 51 375 C51 265 306 -10 407 -10 C474 -10 700 42 744 62 L743 65 C733 60 706 53 671 46 L671 244 C671 268 711 304 726 304 L756 304 L756 314 L756 324 L617 324 L478 324 L478 314 L478 304 L508 304 C528 304 578 268 578 244 L580 30 L580 30 L579 123 C579 92 468 17 418 12 L453 14 C438 13 424 12 413 12 C339 12 152 271 152 374 C152 483 336 756 410 756 C428 756 459 744 493 727 C539 701 663 568 668 545 C670 539 673 524 673 524 L681 524 L688 524 L688 628 L688 633 L688 743 L681 743 L673 743 C673 743 670 722 668 714 C666 702 595 691 569 704 L570 706 L570 706 Z M418 11 C416 11 415 11 414 11 L418 11 L418 11 Z " />
<glyph glyph-name="gbreve" unicode="&#x11f;" horiz-adv-x="520" d="M121 744 C124 709 219 621 255 621 C290 621 386 708 389 743 L371 745 C370 726 286 680 255 680 C223 680 140 728 138 747 L121 744 L121 744 Z M158 350 C158 390 227 490 255 490 C282 490 351 390 351 350 C351 310 282 208 255 208 C227 208 158 310 158 350 L158 350 Z M168 1 C171 0 174 0 177 0 L291 1 C334 1 416 -63 416 -88 C416 -123 312 -211 270 -211 C226 -211 115 -114 115 -75 C115 -59 146 -17 168 1 L168 1 Z M152 7 C115 -8 45 -74 45 -95 C45 -133 202 -230 264 -230 C327 -230 484 -114 484 -68 C484 -25 362 83 299 83 L181 84 C158 84 102 117 102 130 C102 146 210 188 254 188 C305 188 434 304 434 350 C434 396 305 510 254 510 C202 510 74 396 74 350 C74 313 157 231 216 200 C151 183 53 129 53 106 C53 82 111 28 151 8 L152 7 L152 7 Z M510 431 C510 423 538 402 549 402 C558 402 583 430 583 441 C583 457 545 496 529 496 C508 496 424 438 413 415 L418 393 C428 412 483 461 495 461 C499 461 510 439 510 431 L510 431 Z " />
<glyph glyph-name="Gdot" unicode="&#x120;" horiz-adv-x="814" d="M410 865 C426 865 464 903 464 919 C464 934 426 973 410 973 C395 973 356 934 356 919 C356 903 395 865 410 865 L410 865 Z M570 706 L570 706 C511 735 446 760 410 760 C308 760 51 485 51 375 C51 265 306 -10 407 -10 C474 -10 700 42 744 62 L743 65 C733 60 706 53 671 46 L671 244 C671 268 711 304 726 304 L756 304 L756 314 L756 324 L617 324 L478 324 L478 314 L478 304 L508 304 C528 304 578 268 578 244 L580 30 L580 30 L579 123 C579 92 468 17 418 12 L453 14 C438 13 424 12 413 12 C339 12 152 271 152 374 C152 483 336 756 410 756 C428 756 459 744 493 727 C539 701 663 568 668 545 C670 539 673 524 673 524 L681 524 L688 524 L688 628 L688 633 L688 743 L681 743 L673 743 C673 743 670 722 668 714 C666 702 595 691 569 704 L570 706 L570 706 Z M418 11 C416 11 415 11 414 11 L418 11 L418 11 Z " />
<glyph glyph-name="gdot" unicode="&#x121;" horiz-adv-x="520" d="M255 615 C270 615 308 653 308 669 C308 684 270 723 255 723 C239 723 201 684 201 669 C201 653 239 615 255 615 L255 615 Z M158 350 C158 390 227 490 255 490 C282 490 351 390 351 350 C351 310 282 208 255 208 C227 208 158 310 158 350 L158 350 Z M168 1 C171 0 174 0 177 0 L291 1 C334 1 416 -63 416 -88 C416 -123 312 -211 270 -211 C226 -211 115 -114 115 -75 C115 -59 146 -17 168 1 L168 1 Z M152 7 C115 -8 45 -74 45 -95 C45 -133 202 -230 264 -230 C327 -230 484 -114 484 -68 C484 -25 362 83 299 83 L181 84 C158 84 102 117 102 130 C102 146 210 188 254 188 C305 188 434 304 434 350 C434 396 305 510 254 510 C202 510 74 396 74 350 C74 313 157 231 216 200 C151 183 53 129 53 106 C53 82 111 28 151 8 L152 7 L152 7 Z M510 431 C510 423 538 402 549 402 C558 402 583 430 583 441 C583 457 545 496 529 496 C508 496 424 438 413 415 L418 393 C428 412 483 461 495 461 C499 461 510 439 510 431 L510 431 Z " />
<glyph glyph-name="Hcircumflex" unicode="&#x124;" horiz-adv-x="824" d="M413 947 L554 807 L566 817 L443 1006 C441 1010 418 1036 414 1036 C410 1036 387 1011 385 1007 L262 817 L273 807 L413 947 L413 947 Z M680 81 L680 671 C680 695 734 731 755 731 L785 731 L785 741 L785 751 L634 751 L482 751 L482 741 L482 731 L512 731 C534 731 587 695 587 671 L587 386 L240 386 L240 671 C240 695 294 731 315 731 L345 731 L345 741 L345 751 L194 751 L42 751 L42 741 L42 731 L72 731 C94 731 147 695 147 671 L147 81 C147 57 94 21 72 21 L42 21 L42 11 L42 1 L194 1 L345 1 L345 11 L345 21 L315 21 C294 21 240 57 240 81 L240 382 L587 382 L587 81 C587 57 534 21 512 21 L482 21 L482 11 L482 1 L634 1 L785 1 L785 11 L785 21 L755 21 C734 21 680 57 680 81 L680 81 Z " />
<glyph glyph-name="Itilde" unicode="&#x128;" horiz-adv-x="381" d="M47 870 C47 887 79 930 91 930 C119 930 237 865 265 865 C285 865 336 950 336 984 L333 984 C333 967 298 924 284 924 C256 924 138 989 110 989 C91 989 44 904 44 870 L47 870 L47 870 Z M236 80 L236 670 C236 694 290 730 311 730 L341 730 L341 740 L341 750 L190 750 L39 750 L39 740 L39 730 L69 730 C90 730 144 694 144 670 L144 80 C144 56 90 20 69 20 L39 20 L39 10 L39 0 L190 0 L341 0 L341 10 L341 20 L311 20 C290 20 236 56 236 80 L236 80 Z " />
<glyph glyph-name="itilde" unicode="&#x129;" horiz-adv-x="308" d="M13 620 C13 637 45 680 58 680 C86 680 204 615 232 615 C252 615 302 700 302 734 L300 734 C300 717 265 674 251 674 C223 674 105 739 77 739 C58 739 11 654 11 620 L13 620 L13 620 Z M198 35 L198 390 L198 500 L184 500 L34 445 L34 435 C66 437 115 410 115 390 L115 35 C115 29 79 20 65 20 L35 20 L35 10 L35 0 L158 0 L281 0 L281 10 L281 20 L251 20 C236 20 198 29 198 35 L198 35 Z " />
<glyph glyph-name="Imacron" unicode="&#x12a;" horiz-adv-x="381" d="M40 896 L340 896 L340 953 L40 953 L40 896 L40 896 Z M236 80 L236 670 C236 694 290 730 311 730 L341 730 L341 740 L341 750 L190 750 L39 750 L39 740 L39 730 L69 730 C90 730 144 694 144 670 L144 80 C144 56 90 20 69 20 L39 20 L39 10 L39 0 L190 0 L341 0 L341 10 L341 20 L311 20 C290 20 236 56 236 80 L236 80 Z " />
<glyph glyph-name="imacron" unicode="&#x12b;" horiz-adv-x="308" d="M7 646 L307 646 L307 703 L7 703 L7 646 L7 646 Z M198 35 L198 390 L198 500 L184 500 L34 445 L34 435 C66 437 115 410 115 390 L115 35 C115 29 79 20 65 20 L35 20 L35 10 L35 0 L158 0 L281 0 L281 10 L281 20 L251 20 C236 20 198 29 198 35 L198 35 Z " />
<glyph glyph-name="Ibreve" unicode="&#x12c;" horiz-adv-x="381" d="M56 994 C59 959 155 871 190 871 C225 871 321 958 324 993 L306 995 C305 976 222 930 190 930 C158 930 75 978 74 997 L56 994 L56 994 Z M236 80 L236 670 C236 694 290 730 311 730 L341 730 L341 740 L341 750 L190 750 L39 750 L39 740 L39 730 L69 730 C90 730 144 694 144 670 L144 80 C144 56 90 20 69 20 L39 20 L39 10 L39 0 L190 0 L341 0 L341 10 L341 20 L311 20 C290 20 236 56 236 80 L236 80 Z " />
<glyph glyph-name="ibreve" unicode="&#x12d;" horiz-adv-x="308" d="M23 744 C26 709 122 621 157 621 C192 621 288 708 291 743 L273 745 C272 726 188 680 157 680 C125 680 42 728 40 747 L23 744 L23 744 Z M198 35 L198 390 L198 500 L184 500 L34 445 L34 435 C66 437 115 410 115 390 L115 35 C115 29 79 20 65 20 L35 20 L35 10 L35 0 L158 0 L281 0 L281 10 L281 20 L251 20 C236 20 198 29 198 35 L198 35 Z " />
<glyph glyph-name="Idot" unicode="&#x130;" horiz-adv-x="381" d="M190 865 C205 865 244 903 244 919 C244 934 205 973 190 973 C175 973 136 934 136 919 C136 903 175 865 190 865 L190 865 Z M236 80 L236 670 C236 694 290 730 311 730 L341 730 L341 740 L341 750 L190 750 L39 750 L39 740 L39 730 L69 730 C90 730 144 694 144 670 L144 80 C144 56 90 20 69 20 L39 20 L39 10 L39 0 L190 0 L341 0 L341 10 L341 20 L311 20 C290 20 236 56 236 80 L236 80 Z " />
<glyph glyph-name="dotlessi" unicode="&#x131;" horiz-adv-x="308" d="M198 35 L198 390 L198 500 L184 500 L34 445 L34 435 C66 437 115 410 115 390 L115 35 C115 29 79 20 65 20 L35 20 L35 10 L35 0 L158 0 L281 0 L281 10 L281 20 L251 20 C236 20 198 29 198 35 L198 35 Z " />
<glyph glyph-name="Jcircumflex" unicode="&#x134;" horiz-adv-x="381" d="M190 947 L331 806 L342 816 L219 1005 C217 1009 194 1035 190 1035 C186 1035 164 1010 161 1006 L38 816 L49 806 L190 947 L190 947 Z M144 670 L143 -66 C143 -125 46 -215 22 -215 C-1 -215 -29 -137 -51 -137 C-64 -137 -96 -168 -96 -181 C-96 -192 -14 -220 19 -220 C62 -220 237 -22 237 110 L236 670 C236 694 290 730 311 730 L341 730 L341 740 L341 750 L190 750 L39 750 L39 740 L39 730 L69 730 C90 730 144 694 144 670 L144 670 Z " />
<glyph glyph-name="Lacute" unicode="&#x139;" horiz-adv-x="653" d="M198 812 L340 932 C358 948 404 993 404 996 C404 1007 373 1038 362 1038 C359 1038 316 990 301 971 L187 823 L198 812 L198 812 Z M579 2 C582 14 597 72 600 83 C603 95 619 153 622 164 C622 164 615 165 612 166 C610 166 603 167 603 167 L595 137 C584 99 459 2 394 2 L316 2 C282 2 236 58 236 80 L236 85 L236 665 C236 691 290 730 311 730 L341 730 L341 740 L341 750 L236 750 L190 750 L144 750 L39 750 L39 740 L39 730 L69 730 C90 730 144 691 144 665 L144 85 C144 59 90 20 69 20 L39 20 L39 10 L39 0 L138 0 L144 0 L236 0 L579 0 L579 2 L579 2 Z " />
<glyph glyph-name="Lcaron" unicode="&#x13d;" horiz-adv-x="653" d="M436 691 C443 710 461 785 461 796 C461 800 434 808 423 808 C415 808 394 722 393 700 L383 589 L397 586 L436 691 L436 691 Z M579 2 C582 14 597 72 600 83 C603 95 619 153 622 164 C622 164 615 165 612 166 C610 166 603 167 603 167 L595 137 C584 99 459 2 394 2 L316 2 C282 2 236 58 236 80 L236 85 L236 665 C236 691 290 730 311 730 L341 730 L341 740 L341 750 L236 750 L190 750 L144 750 L39 750 L39 740 L39 730 L69 730 C90 730 144 691 144 665 L144 85 C144 59 90 20 69 20 L39 20 L39 10 L39 0 L138 0 L144 0 L236 0 L579 0 L579 2 L579 2 Z " />
<glyph glyph-name="lcaron" unicode="&#x13e;" horiz-adv-x="308" d="M298 641 C305 660 322 735 322 746 C322 750 296 758 285 758 C277 758 256 672 255 650 L245 539 L259 536 L298 641 L298 641 Z M198 35 L198 650 L198 750 L184 750 L30 706 L30 696 L30 686 L60 695 C76 699 115 662 115 630 L115 35 C115 29 79 20 65 20 L35 20 L35 10 L35 0 L157 0 L278 0 L278 10 L278 20 L248 20 C234 20 198 29 198 35 L198 35 Z " />
<glyph glyph-name="Nacute" unicode="&#x143;" horiz-adv-x="781" d="M295 812 L437 932 C455 948 501 993 501 996 C501 1007 470 1038 460 1038 C457 1038 414 990 399 971 L285 823 L295 812 L295 812 Z M184 750 L162 750 L139 750 L101 750 L69 750 L18 750 L18 740 L18 730 L55 730 C63 730 95 711 107 697 L138 654 L137 151 L137 151 C137 99 69 21 42 21 L12 21 L12 11 L12 1 L137 1 L151 1 L165 1 L290 1 L290 11 L290 21 L260 21 C234 21 169 88 164 136 L161 622 L514 134 L609 2 L628 2 L634 632 L634 632 C633 672 701 732 729 732 L759 732 L759 742 L759 752 L635 752 L621 752 L607 752 L482 752 L482 742 L482 732 L512 732 C539 732 607 672 607 632 L607 632 L608 162 L589 188 L184 750 L184 750 Z " />
<glyph glyph-name="Ncaron" unicode="&#x147;" horiz-adv-x="781" d="M388 904 L529 1045 L540 1035 L418 846 C415 842 393 816 388 816 C384 816 362 841 359 845 L237 1035 L248 1045 L388 904 L388 904 Z M185 751 L163 751 L140 751 L102 751 L70 751 L19 751 L19 741 L19 731 L56 731 C64 731 96 712 108 698 L139 655 L138 152 L138 152 C138 100 70 22 43 22 L13 22 L13 12 L13 2 L138 2 L152 2 L166 2 L291 2 L291 12 L291 22 L261 22 C235 22 170 89 165 137 L162 623 L515 135 L610 3 L629 3 L635 633 L635 633 C634 673 702 733 730 733 L760 733 L760 743 L760 753 L636 753 L622 753 L608 753 L483 753 L483 743 L483 733 L513 733 C540 733 608 673 608 633 L608 633 L609 163 L590 189 L185 751 L185 751 Z " />
<glyph glyph-name="ncaron" unicode="&#x148;" horiz-adv-x="650" d="M325 654 L466 795 L477 785 L355 596 C352 592 330 566 326 566 C321 566 299 591 296 595 L174 785 L185 795 L325 654 L325 654 Z M458 36 C458 30 422 21 408 21 L378 21 L378 11 L378 1 L499 1 L621 1 L621 11 L621 21 L591 21 C577 21 541 30 541 36 L541 336 C541 386 434 511 385 511 C355 511 226 429 193 391 L193 401 L193 501 L179 501 L25 445 L25 435 L25 425 L55 436 C71 442 110 408 110 376 L110 36 C110 30 74 21 60 21 L30 21 L30 11 L30 1 L152 1 L273 1 L273 11 L273 21 L243 21 C229 21 193 30 193 36 L193 379 C222 409 334 472 362 472 C392 472 458 375 458 336 L458 36 L458 36 Z " />
<glyph glyph-name="Omacron" unicode="&#x14c;" horiz-adv-x="854" d="M270 896 L570 896 L570 953 L270 953 L270 896 L270 896 Z M410 -6 C338 -6 156 266 156 375 C156 484 344 756 419 756 C497 756 693 484 693 375 C693 266 491 -6 410 -6 L410 -6 Z M50 375 C50 265 307 -10 410 -10 C521 -10 800 265 800 375 C800 485 528 760 420 760 C314 760 50 485 50 375 L50 375 Z " />
<glyph glyph-name="omacron" unicode="&#x14d;" horiz-adv-x="585" d="M141 646 L441 646 L441 703 L141 703 L141 646 L141 646 Z M291 -6 C246 -6 133 177 133 250 C133 323 246 506 291 506 C336 506 449 323 449 250 C449 177 336 -6 291 -6 L291 -6 Z M41 250 C41 176 219 -10 291 -10 C362 -10 541 176 541 250 C541 324 362 510 291 510 C219 510 41 324 41 250 L41 250 Z " />
<glyph glyph-name="Obreve" unicode="&#x14e;" horiz-adv-x="854" d="M286 994 C289 959 384 871 420 871 C455 871 551 958 554 993 L536 995 C535 976 451 930 420 930 C388 930 305 978 303 997 L286 994 L286 994 Z M410 -6 C338 -6 156 266 156 375 C156 484 344 756 419 756 C497 756 693 484 693 375 C693 266 491 -6 410 -6 L410 -6 Z M50 375 C50 265 307 -10 410 -10 C521 -10 800 265 800 375 C800 485 528 760 420 760 C314 760 50 485 50 375 L50 375 Z " />
<glyph glyph-name="obreve" unicode="&#x14f;" horiz-adv-x="585" d="M157 744 C160 709 255 621 291 621 C326 621 422 708 425 743 L407 745 C406 726 322 680 291 680 C259 680 176 728 174 747 L157 744 L157 744 Z M291 -6 C246 -6 133 177 133 250 C133 323 246 506 291 506 C336 506 449 323 449 250 C449 177 336 -6 291 -6 L291 -6 Z M41 250 C41 176 219 -10 291 -10 C362 -10 541 176 541 250 C541 324 362 510 291 510 C219 510 41 324 41 250 L41 250 Z " />
<glyph glyph-name="Racute" unicode="&#x154;" horiz-adv-x="803" d="M340 812 L482 932 C500 948 546 993 546 996 C546 1007 515 1038 505 1038 C502 1038 459 990 444 971 L329 823 L340 812 L340 812 Z M794 0 L794 19 C745 19 663 52 642 80 C584 158 447 342 420 379 C510 417 620 495 620 539 C620 600 438 751 365 751 L240 751 L141 751 L42 751 L42 741 L42 731 L72 731 C93 731 147 692 147 666 L147 86 C147 60 93 21 72 21 L42 21 L42 11 L42 1 L193 1 L345 1 L345 11 L345 21 L315 21 C293 21 240 60 240 86 L240 358 L335 358 C365 314 483 149 534 82 C561 46 702 2 794 2 L794 0 L794 0 Z M240 733 L338 733 C389 733 518 608 518 559 C518 501 389 382 338 382 L240 382 L240 667 L240 733 L240 733 Z " />
<glyph glyph-name="Rcaron" unicode="&#x158;" horiz-adv-x="803" d="M794 0 L794 19 C745 19 663 52 642 80 C584 158 447 342 420 379 C510 417 620 495 620 539 C620 600 438 751 365 751 L240 751 L141 751 L42 751 L42 741 L42 731 L72 731 C93 731 147 692 147 666 L147 86 C147 60 93 21 72 21 L42 21 L42 11 L42 1 L193 1 L345 1 L345 11 L345 21 L315 21 C293 21 240 60 240 86 L240 358 L335 358 C365 314 483 149 534 82 C561 46 702 2 794 2 L794 0 L794 0 Z M333 906 L474 1047 L485 1037 L363 848 C360 844 337 818 333 818 C329 818 307 843 304 847 L182 1037 L193 1047 L333 906 L333 906 Z M241 734 L339 734 C390 734 519 609 519 560 C519 502 390 383 339 383 L241 383 L241 668 L241 734 L241 734 Z " />
<glyph glyph-name="rcaron" unicode="&#x159;" horiz-adv-x="446" d="M269 654 L410 795 L421 785 L299 596 C296 592 274 566 270 566 C265 566 243 591 240 595 L118 785 L129 795 L269 654 L269 654 Z M199 388 L199 401 L199 501 L185 501 L31 445 L31 435 L31 425 L61 436 C77 442 116 408 116 376 L116 36 C116 30 84 21 71 21 L41 21 L41 11 L41 1 L163 1 L284 1 L284 11 L284 21 L254 21 C239 21 199 30 199 36 L199 380 C217 413 284 472 306 472 C315 472 340 447 340 437 C340 423 375 388 389 388 C403 388 438 423 438 437 C438 458 371 511 344 511 C315 511 221 430 199 388 L199 388 Z " />
<glyph glyph-name="Sacute" unicode="&#x15a;" horiz-adv-x="549" d="M281 812 L423 932 C442 948 488 993 488 996 C488 1007 457 1038 446 1038 C443 1038 400 990 385 971 L271 823 L281 812 L281 812 Z M388 706 L387 706 C338 734 280 759 255 759 C201 759 66 619 66 564 C66 518 202 350 264 326 C318 305 436 192 436 165 C436 116 333 -7 292 -7 C277 -7 245 11 210 35 L212 34 C179 56 76 199 70 222 C69 228 65 243 65 243 L58 243 L50 243 L50 146 L50 122 L50 1 L58 1 L65 1 C65 1 69 27 70 37 C72 51 134 69 155 54 L157 53 C210 18 268 -12 293 -12 C355 -12 511 133 511 191 C511 236 380 398 321 421 C264 443 140 568 140 598 C140 643 223 755 256 755 C264 755 276 751 291 744 L278 749 C323 728 445 593 452 565 C453 559 457 544 457 544 L464 544 L472 544 L472 641 L472 650 L472 756 L464 756 L457 756 C457 756 453 736 452 727 C450 716 405 695 390 704 L388 706 L388 706 Z M279 749 L275 751 C276 751 277 750 278 749 L279 749 L279 749 Z " />
<glyph glyph-name="Scircumflex" unicode="&#x15c;" horiz-adv-x="549" d="M388 706 L387 706 C338 734 280 759 255 759 C201 759 66 619 66 564 C66 518 202 350 264 326 C318 305 436 192 436 165 C436 116 333 -7 292 -7 C277 -7 245 11 210 35 L212 34 C179 56 76 199 70 222 C69 228 65 243 65 243 L58 243 L50 243 L50 146 L50 122 L50 1 L58 1 L65 1 C65 1 69 27 70 37 C72 51 134 69 155 54 L157 53 C210 18 268 -12 293 -12 C355 -12 511 133 511 191 C511 236 380 398 321 421 C264 443 140 568 140 598 C140 643 223 755 256 755 C264 755 276 751 291 744 L278 749 C323 728 445 593 452 565 C453 559 457 544 457 544 L464 544 L472 544 L472 641 L472 650 L472 756 L464 756 L457 756 C457 756 453 736 452 727 C450 716 405 695 390 704 L388 706 L388 706 Z M276 945 L417 805 L428 815 L306 1004 C303 1008 281 1034 277 1034 C272 1034 250 1009 247 1005 L125 815 L136 805 L276 945 L276 945 Z M280 750 L276 752 C277 752 278 751 279 750 L280 750 L280 750 Z " />
<glyph glyph-name="Scaron" unicode="&#x160;" horiz-adv-x="549" d="M388 706 L387 706 C338 734 280 759 255 759 C201 759 66 619 66 564 C66 518 202 350 264 326 C318 305 436 192 436 165 C436 116 333 -7 292 -7 C277 -7 245 11 210 35 L212 34 C179 56 76 199 70 222 C69 228 65 243 65 243 L58 243 L50 243 L50 146 L50 122 L50 1 L58 1 L65 1 C65 1 69 27 70 37 C72 51 134 69 155 54 L157 53 C210 18 268 -12 293 -12 C355 -12 511 133 511 191 C511 236 380 398 321 421 C264 443 140 568 140 598 C140 643 223 755 256 755 C264 755 276 751 291 744 L278 749 C323 728 445 593 452 565 C453 559 457 544 457 544 L464 544 L472 544 L472 641 L472 650 L472 756 L464 756 L457 756 C457 756 453 736 452 727 C450 716 405 695 390 704 L388 706 L388 706 Z M276 902 L417 1043 L428 1033 L306 844 C303 840 281 814 277 814 C272 814 250 839 247 843 L125 1033 L136 1043 L276 902 L276 902 Z M280 750 L276 752 C277 752 278 751 279 750 L280 750 L280 750 Z " />
<glyph glyph-name="scaron" unicode="&#x161;" horiz-adv-x="439" d="M271 491 L270 491 C247 502 226 510 214 510 C173 510 69 417 69 380 C69 345 166 230 210 218 C246 208 324 129 324 106 C324 74 256 -7 229 -7 C225 -7 219 -5 212 -2 C169 24 90 128 90 153 L90 169 L80 169 L70 169 L70 94 L70 89 L70 9 L80 9 L90 9 L90 30 C90 35 161 18 190 3 L192 3 C208 -5 221 -10 229 -10 C274 -10 389 90 389 130 C389 162 291 270 247 282 C210 292 128 382 128 409 C128 437 190 507 214 507 C217 507 222 506 228 504 L228 504 L213 508 C217 508 222 507 227 505 C227 505 228 505 229 505 L229 505 C271 484 342 396 342 370 L342 353 L352 353 L362 353 L362 429 L362 433 L362 513 L352 513 L342 513 L342 484 C342 479 290 484 269 494 L271 491 L271 491 Z M228 657 L369 798 L380 788 L258 599 C255 595 233 569 229 569 C224 569 202 594 199 598 L77 788 L88 798 L228 657 L228 657 Z M222 -2 L225 -3 C224 -3 223 -3 222 -3 L222 -2 L222 -2 Z " />
<glyph glyph-name="Tcaron" unicode="&#x164;" horiz-adv-x="775" d="M388 904 L529 1045 L540 1035 L418 846 C415 842 393 816 389 816 C384 816 362 841 359 845 L237 1035 L248 1045 L388 904 L388 904 Z M713 751 C707 768 701 784 699 790 C699 790 692 790 689 791 L679 791 L684 778 C687 770 633 751 594 751 L436 751 L343 751 L185 751 C146 751 92 770 95 778 L100 791 L90 791 C87 790 80 790 80 790 C78 784 72 768 66 751 L58 751 L58 728 L58 728 C55 719 52 712 51 709 C46 697 25 638 21 626 C21 626 27 625 30 625 C33 625 40 624 40 624 L51 654 C59 675 138 729 178 729 L344 729 L344 82 C344 58 290 22 269 22 L239 22 L239 12 L239 2 L391 2 L542 2 L542 12 L542 22 L512 22 C491 22 437 58 437 82 L437 729 L603 729 C643 729 722 675 730 654 L741 624 C741 624 748 625 751 625 C754 625 760 626 760 626 C756 638 735 697 730 709 C729 712 726 719 723 728 L723 728 L723 751 L713 751 L713 751 Z " />
<glyph glyph-name="tcaron" unicode="&#x165;" horiz-adv-x="376" d="M331 500 L178 500 L178 620 L172 620 L30 468 L30 458 L95 458 L95 158 C95 101 192 -10 231 -10 C258 -10 355 65 366 95 L356 99 C349 79 277 29 256 29 C233 29 176 102 176 140 L178 456 L331 456 L331 500 L331 500 Z M435 641 C442 660 460 735 460 746 C460 750 434 758 423 758 C415 758 394 672 392 650 L383 539 L397 536 L435 641 L435 641 Z " />
<glyph glyph-name="Utilde" unicode="&#x168;" horiz-adv-x="805" d="M258 870 C258 887 290 930 302 930 C330 930 448 865 476 865 C496 865 547 950 547 984 L545 984 C545 967 509 924 495 924 C467 924 349 989 321 989 C302 989 255 904 255 870 L258 870 L258 870 Z M691 665 L691 750 L592 750 L493 750 L493 740 L493 730 L523 730 C544 730 598 691 598 665 L598 187 C580 148 395 50 340 50 C301 50 204 172 204 220 L204 665 L204 750 L105 750 L6 750 L6 740 L6 730 L36 730 C58 730 111 691 111 665 L111 220 C111 154 248 -10 303 -10 C366 -10 577 101 598 146 L598 110 L598 0 L613 0 L795 55 L795 65 C753 63 691 89 691 110 L691 665 L691 665 Z " />
<glyph glyph-name="utilde" unicode="&#x169;" horiz-adv-x="587" d="M144 620 C144 637 176 680 189 680 C217 680 334 615 363 615 C383 615 433 700 433 734 L431 734 C431 717 396 674 382 674 C354 674 236 739 208 739 C189 739 142 654 142 620 L144 620 L144 620 Z M399 90 L399 -10 L414 -10 L568 28 L568 38 L568 48 L538 41 C522 37 483 75 483 107 L483 465 L483 500 L408 500 L333 500 L333 490 L333 480 L363 480 C373 480 399 471 399 465 L399 136 C371 106 288 49 269 49 C243 49 176 129 176 161 L176 466 L176 501 L101 501 L27 501 L27 491 L27 481 L57 481 C67 481 93 472 93 466 L93 161 C93 113 191 -9 230 -9 C251 -9 363 86 400 132 L399 90 L399 90 Z " />
<glyph glyph-name="Umacron" unicode="&#x16a;" horiz-adv-x="805" d="M251 896 L551 896 L551 953 L251 953 L251 896 L251 896 Z M691 665 L691 750 L592 750 L493 750 L493 740 L493 730 L523 730 C544 730 598 691 598 665 L598 187 C580 148 395 50 340 50 C301 50 204 172 204 220 L204 665 L204 750 L105 750 L6 750 L6 740 L6 730 L36 730 C58 730 111 691 111 665 L111 220 C111 154 248 -10 303 -10 C366 -10 577 101 598 146 L598 110 L598 0 L613 0 L795 55 L795 65 C753 63 691 89 691 110 L691 665 L691 665 Z " />
<glyph glyph-name="umacron" unicode="&#x16b;" horiz-adv-x="587" d="M138 646 L438 646 L438 703 L138 703 L138 646 L138 646 Z M399 90 L399 -10 L414 -10 L568 28 L568 38 L568 48 L538 41 C522 37 483 75 483 107 L483 465 L483 500 L408 500 L333 500 L333 490 L333 480 L363 480 C373 480 399 471 399 465 L399 136 C371 106 288 49 269 49 C243 49 176 129 176 161 L176 466 L176 501 L101 501 L27 501 L27 491 L27 481 L57 481 C67 481 93 472 93 466 L93 161 C93 113 191 -9 230 -9 C251 -9 363 86 400 132 L399 90 L399 90 Z " />
<glyph glyph-name="Ubreve" unicode="&#x16c;" horiz-adv-x="805" d="M267 994 C270 959 366 871 401 871 C436 871 532 958 535 993 L518 995 C516 976 433 930 401 930 C369 930 286 978 285 997 L267 994 L267 994 Z M691 665 L691 750 L592 750 L493 750 L493 740 L493 730 L523 730 C544 730 598 691 598 665 L598 187 C580 148 395 50 340 50 C301 50 204 172 204 220 L204 665 L204 750 L105 750 L6 750 L6 740 L6 730 L36 730 C58 730 111 691 111 665 L111 220 C111 154 248 -10 303 -10 C366 -10 577 101 598 146 L598 110 L598 0 L613 0 L795 55 L795 65 C753 63 691 89 691 110 L691 665 L691 665 Z " />
<glyph glyph-name="ubreve" unicode="&#x16d;" horiz-adv-x="587" d="M154 744 C157 709 252 621 288 621 C323 621 419 708 422 743 L404 745 C403 726 319 680 288 680 C256 680 173 728 171 747 L154 744 L154 744 Z M399 90 L399 -10 L414 -10 L568 28 L568 38 L568 48 L538 41 C522 37 483 75 483 107 L483 465 L483 500 L408 500 L333 500 L333 490 L333 480 L363 480 C373 480 399 471 399 465 L399 136 C371 106 288 49 269 49 C243 49 176 129 176 161 L176 466 L176 501 L101 501 L27 501 L27 491 L27 481 L57 481 C67 481 93 472 93 466 L93 161 C93 113 191 -9 230 -9 C251 -9 363 86 400 132 L399 90 L399 90 Z " />
<glyph glyph-name="Uring" unicode="&#x16e;" horiz-adv-x="805" d="M401 830 C382 830 328 886 328 905 C328 926 380 980 401 980 C422 980 474 926 474 905 C474 886 420 830 401 830 L401 830 Z M304 905 C304 881 376 810 401 810 C426 810 499 881 499 905 C499 932 429 1000 401 1000 C373 1000 304 932 304 905 L304 905 Z M691 665 L691 750 L592 750 L493 750 L493 740 L493 730 L523 730 C544 730 598 691 598 665 L598 187 C580 148 395 50 340 50 C301 50 204 172 204 220 L204 665 L204 750 L105 750 L6 750 L6 740 L6 730 L36 730 C58 730 111 691 111 665 L111 220 C111 154 248 -10 303 -10 C366 -10 577 101 598 146 L598 110 L598 0 L613 0 L795 55 L795 65 C753 63 691 89 691 110 L691 665 L691 665 Z " />
<glyph glyph-name="uring" unicode="&#x16f;" horiz-adv-x="587" d="M288 580 C269 580 215 636 215 655 C215 676 267 730 288 730 C309 730 361 676 361 655 C361 636 306 580 288 580 L288 580 Z M190 655 C190 631 263 560 288 560 C313 560 385 631 385 655 C385 682 315 750 288 750 C260 750 190 682 190 655 L190 655 Z M399 90 L399 -10 L414 -10 L568 28 L568 38 L568 48 L538 41 C522 37 483 75 483 107 L483 465 L483 500 L408 500 L333 500 L333 490 L333 480 L363 480 C373 480 399 471 399 465 L399 136 C371 106 288 49 269 49 C243 49 176 129 176 161 L176 466 L176 501 L101 501 L27 501 L27 491 L27 481 L57 481 C67 481 93 472 93 466 L93 161 C93 113 191 -9 230 -9 C251 -9 363 86 400 132 L399 90 L399 90 Z " />
<glyph glyph-name="Wcircumflex" unicode="&#x174;" horiz-adv-x="1102" d="M536 947 L677 807 L689 817 L566 1006 C564 1010 541 1036 537 1036 C533 1036 510 1011 508 1007 L385 817 L396 807 L536 947 L536 947 Z M482 693 L555 500 L408 114 L409 117 L230 610 L230 610 C212 658 267 730 300 730 L324 730 L324 740 L324 750 L179 750 L171 750 L76 750 L19 750 L19 740 L19 730 L56 730 C63 730 102 672 123 625 L313 117 L361 -10 L385 -10 L571 458 L694 135 L749 -10 L773 -10 L957 610 L958 610 C971 658 1039 730 1058 730 L1088 730 L1088 740 L1088 750 L999 750 L961 750 L942 750 L796 750 L796 740 L796 730 L821 730 C858 730 933 660 922 612 L788 132 L788 135 L606 644 C599 680 657 730 689 730 L713 730 L713 740 L713 750 L568 750 L543 750 L460 750 L373 750 L373 740 L373 730 L403 730 C420 730 472 708 482 692 L482 693 L482 693 Z " />
<glyph glyph-name="Ycircumflex" unicode="&#x176;" horiz-adv-x="724" d="M370 947 L511 807 L522 817 L400 1006 C397 1010 375 1036 371 1036 C366 1036 344 1011 341 1007 L219 817 L230 807 L370 947 L370 947 Z M260 611 L260 611 C231 659 238 731 258 731 L283 731 L283 741 L283 751 L178 751 L149 751 L69 751 L16 751 L16 741 L16 731 L53 731 C61 731 124 659 152 611 L152 611 L324 323 L324 81 C324 57 270 21 249 21 L219 21 L219 11 L219 1 L371 1 L522 1 L522 11 L522 21 L492 21 C471 21 417 57 417 81 L417 339 L567 621 C597 668 665 731 679 731 L710 731 L710 741 L710 751 L636 751 L629 751 L617 751 L524 751 L524 741 L524 731 L549 731 C568 731 583 669 563 625 L415 343 L260 611 L260 611 Z " />
<glyph glyph-name="Ydieresis" unicode="&#x178;" horiz-adv-x="724" d="M444 865 C460 865 498 903 498 919 C498 934 460 973 444 973 C429 973 390 934 390 919 C390 903 429 865 444 865 L444 865 Z M295 865 C310 865 349 903 349 919 C349 934 310 973 295 973 C280 973 241 934 241 919 C241 903 280 865 295 865 L295 865 Z M259 610 L259 610 C230 658 237 730 257 730 L282 730 L282 740 L282 750 L177 750 L148 750 L68 750 L15 750 L15 740 L15 730 L52 730 C60 730 123 658 151 610 L151 610 L323 322 L323 80 C323 56 269 20 248 20 L218 20 L218 10 L218 0 L370 0 L521 0 L521 10 L521 20 L491 20 C470 20 416 56 416 80 L416 338 L566 620 C596 667 664 730 678 730 L709 730 L709 740 L709 750 L635 750 L628 750 L616 750 L523 750 L523 740 L523 730 L548 730 C567 730 582 668 562 624 L414 342 L259 610 L259 610 Z " />
<glyph glyph-name="Zacute" unicode="&#x179;" horiz-adv-x="652" d="M348 812 L490 932 C508 948 554 993 554 996 C554 1007 523 1038 512 1038 C509 1038 466 990 451 971 L337 823 L348 812 L348 812 Z M453 27 L453 27 L141 22 L611 730 L611 750 L520 750 L241 750 L71 750 C69 736 59 668 58 654 C56 640 46 572 44 558 C44 558 53 557 57 557 C60 556 70 555 70 555 L76 585 C84 625 184 725 237 725 L237 725 L506 728 L26 19 L26 -1 L127 -1 L447 -1 L607 -1 C610 12 626 76 629 88 C632 101 648 165 652 178 C652 178 645 179 642 179 C639 180 632 181 632 181 L615 136 C603 105 501 26 454 26 L453 27 L453 27 Z " />
<glyph glyph-name="Zdot" unicode="&#x17b;" horiz-adv-x="652" d="M340 865 C355 865 394 903 394 919 C394 934 355 973 340 973 C325 973 286 934 286 919 C286 903 325 865 340 865 L340 865 Z M453 27 L453 27 L141 22 L611 730 L611 750 L520 750 L241 750 L71 750 C69 736 59 668 58 654 C56 640 46 572 44 558 C44 558 53 557 57 557 C60 556 70 555 70 555 L76 585 C84 625 184 725 237 725 L237 725 L506 728 L26 19 L26 -1 L127 -1 L447 -1 L607 -1 C610 12 626 76 629 88 C632 101 648 165 652 178 C652 178 645 179 642 179 C639 180 632 181 632 181 L615 136 C603 105 501 26 454 26 L453 27 L453 27 Z " />
<glyph glyph-name="zdot" unicode="&#x17c;" horiz-adv-x="475" d="M265 615 C280 615 319 653 319 669 C319 684 280 723 265 723 C250 723 211 684 211 669 C211 653 250 615 265 615 L265 615 Z M128 0 L350 0 L430 0 C431 9 438 54 439 63 C440 72 446 116 448 125 L443 125 L438 125 L423 95 C415 76 328 31 278 26 L142 23 L435 481 L435 501 L350 501 L135 501 C130 501 114 517 116 524 L121 541 L111 541 L101 541 C98 529 82 470 79 458 C75 447 60 387 56 376 L62 376 L68 376 L84 406 C94 425 173 469 218 475 L335 478 L40 21 L40 1 L128 0 L128 0 Z " />
<glyph glyph-name="Zcaron" unicode="&#x17d;" horiz-adv-x="652" d="M453 27 L453 27 L141 22 L611 730 L611 750 L520 750 L241 750 L71 750 C69 736 59 668 58 654 C56 640 46 572 44 558 C44 558 53 557 57 557 C60 556 70 555 70 555 L76 585 C84 625 184 725 237 725 L237 725 L506 728 L26 19 L26 -1 L127 -1 L447 -1 L607 -1 C610 12 626 76 629 88 C632 101 648 165 652 178 C652 178 645 179 642 179 C639 180 632 181 632 181 L615 136 C603 105 501 26 454 26 L453 27 L453 27 Z M341 902 L482 1043 L493 1033 L370 844 C368 840 345 814 341 814 C337 814 315 839 312 843 L189 1033 L200 1043 L341 902 L341 902 Z " />
<glyph glyph-name="zcaron" unicode="&#x17e;" horiz-adv-x="475" d="M265 653 L406 794 L417 784 L294 595 C292 591 269 565 265 565 C261 565 239 590 236 594 L113 784 L124 794 L265 653 L265 653 Z M128 0 L350 0 L430 0 C431 9 438 54 439 63 C440 72 446 116 448 125 L443 125 L438 125 L423 95 C415 76 328 31 278 26 L142 23 L435 481 L435 501 L350 501 L135 501 C130 501 114 517 116 524 L121 541 L111 541 L101 541 C98 529 82 470 79 458 C75 447 60 387 56 376 L62 376 L68 376 L84 406 C94 425 173 469 218 475 L335 478 L40 21 L40 1 L128 0 L128 0 Z " />
<glyph glyph-name="oogonek" unicode="&#x1eb;" horiz-adv-x="790" d="M1015 -54 L1014 -53 C1000 -64 813 -94 752 -94 C690 -94 493 -44 397 -8 C507 10 740 210 740 292 C740 378 491 593 392 593 C295 593 53 378 53 292 C53 234 182 116 280 46 L278 47 C282 44 286 41 291 38 C333 9 368 -10 382 -10 L382 -10 C511 -71 701 -146 742 -146 C788 -146 983 -80 1014 -54 L1015 -54 L1015 -54 Z M344 16 C276 73 148 224 148 292 C148 377 321 590 390 590 C462 590 643 377 643 292 C643 210 469 8 389 -6 C368 2 353 9 346 15 L344 16 L344 16 Z " />
<glyph glyph-name="Adotabove" unicode="&#x226;" horiz-adv-x="770" d="M400 865 C415 865 454 903 454 919 C454 934 415 973 400 973 C385 973 346 934 346 919 C346 903 385 865 400 865 L400 865 Z M631 140 L631 140 L447 721 L431 770 L421 770 C412 757 364 722 354 721 L357 711 L357 711 L196 170 L196 170 C179 110 77 20 47 20 L17 20 L17 10 L17 0 L146 0 L150 0 L166 0 L315 0 L315 10 L315 20 L291 20 C253 20 183 110 200 170 L200 170 L237 295 L487 295 L535 140 L534 140 C549 92 497 20 467 20 L443 20 L443 10 L443 0 L578 0 L603 0 L675 0 L764 0 L764 10 L764 20 L734 20 C715 20 646 92 631 140 L631 140 Z M238 299 L358 708 L485 299 L238 299 L238 299 Z " />
<glyph glyph-name="G_sc" unicode="&#x262;" horiz-adv-x="730" d="M480 562 L479 562 C437 579 394 592 367 592 C278 592 55 377 55 291 C55 205 279 -11 368 -11 C400 -11 486 8 558 28 L590 36 L590 37 C622 47 649 56 662 62 L661 63 C651 58 624 51 590 43 L590 172 C590 196 629 232 645 232 L675 232 L675 242 L675 252 L540 252 L406 252 L406 242 L406 232 L436 232 C456 232 506 196 506 172 L507 106 C503 78 418 13 380 9 L401 10 C391 9 383 9 376 9 C310 9 147 210 147 291 C147 376 305 589 368 589 C378 589 392 585 408 579 L406 579 C450 564 580 433 586 408 C587 401 591 386 591 386 L599 386 L606 386 L606 484 L606 488 L606 581 L599 581 L591 581 C591 581 587 561 586 553 C585 545 508 548 480 560 L480 562 L480 562 Z M378 8 C377 8 376 8 375 8 L378 8 L378 8 Z " />
<glyph glyph-name="I_sc" unicode="&#x26a;" horiz-adv-x="376" d="M232 80 L232 503 C232 527 286 563 307 563 L337 563 L337 573 L337 583 L190 583 L43 583 L43 573 L43 563 L73 563 C94 563 148 527 148 503 L148 80 C148 56 94 20 73 20 L43 20 L43 10 L43 0 L190 0 L337 0 L337 10 L337 20 L307 20 C286 20 232 56 232 80 L232 80 Z " />
<glyph glyph-name="N_sc" unicode="&#x274;" horiz-adv-x="702" d="M180 583 L161 583 L140 583 L104 583 L76 583 L27 583 L27 573 L27 563 L64 563 C71 563 101 547 115 534 L140 503 L139 151 L139 151 C139 99 71 21 44 21 L14 21 L14 11 L14 1 L139 1 L151 1 L164 1 L289 1 L289 11 L289 21 L259 21 C232 21 168 87 163 135 L161 475 L461 93 L534 1 L550 1 L556 471 C563 511 625 564 650 564 L680 564 L680 574 L680 584 L557 584 L544 584 L532 584 L407 584 L407 574 L407 564 L437 564 C464 564 532 504 532 464 L532 464 L533 105 L512 133 L180 583 L180 583 Z " />
<glyph glyph-name="R_sc" unicode="&#x280;" horiz-adv-x="743" d="M733 0 L733 17 C691 17 619 42 601 62 C552 120 439 254 408 291 C498 320 611 383 611 418 C611 465 429 583 356 583 L233 583 L138 583 L44 583 L44 573 L44 563 L74 563 C95 563 149 524 149 498 L149 85 C149 59 95 20 74 20 L44 20 L44 10 L44 0 L191 0 L338 0 L338 10 L338 20 L308 20 C286 20 233 59 233 85 L233 275 L330 275 C358 239 459 115 503 63 C527 35 652 1 733 1 L733 0 L733 0 Z M233 568 C247 568 317 567 331 567 C384 567 519 473 519 436 C519 390 384 297 331 297 L233 297 L233 499 L233 568 L233 568 Z " />
<glyph glyph-name="Y_sc" unicode="&#x28f;" horiz-adv-x="640" d="M257 443 L257 443 C226 491 230 563 249 563 L274 563 L274 573 L274 583 L169 583 L146 583 L70 583 L18 583 L18 573 L18 563 L55 563 C63 563 129 491 160 443 L160 443 L285 249 L285 80 C285 56 232 20 210 20 L180 20 L180 10 L180 0 L327 0 L474 0 L474 10 L474 20 L444 20 C423 20 369 56 369 80 L369 262 L472 444 L472 443 C498 491 578 563 594 563 L624 563 L624 573 L624 583 L551 583 L544 583 L532 583 L439 583 L439 573 L439 563 L465 563 C483 563 496 502 475 458 L368 266 L257 443 L257 443 Z " />
<glyph glyph-name="B_sc" unicode="&#x299;" horiz-adv-x="578" d="M233 581 L287 581 C343 581 432 476 432 435 C432 397 361 301 332 301 L233 301 L233 498 L233 581 L233 581 Z M351 301 C410 318 515 406 515 444 C515 483 378 583 292 583 L233 583 L138 583 L44 583 L44 573 L44 563 L74 563 C95 563 149 524 149 498 L149 85 C149 59 95 20 74 20 L44 20 L44 10 L44 0 L138 0 L233 0 L353 0 C406 0 538 92 538 150 C538 193 423 301 378 301 L351 301 L351 301 Z M333 298 L370 298 C391 298 446 192 446 150 C446 93 377 2 350 2 L300 2 C281 2 233 58 233 80 L233 85 L233 298 L333 298 L333 298 Z " />
<glyph glyph-name="H_sc" unicode="&#x29c;" horiz-adv-x="762" d="M617 80 L617 503 C617 527 671 563 692 563 L722 563 L722 573 L722 583 L575 583 L428 583 L428 573 L428 563 L458 563 C480 563 533 527 533 503 L533 300 L230 300 L230 503 C230 527 283 563 305 563 L335 563 L335 573 L335 583 L188 583 L41 583 L41 573 L41 563 L71 563 C92 563 146 527 146 503 L146 80 C146 56 92 20 71 20 L41 20 L41 10 L41 0 L188 0 L335 0 L335 10 L335 20 L305 20 C283 20 230 56 230 80 L230 296 L533 296 L533 80 C533 56 480 20 458 20 L428 20 L428 10 L428 0 L575 0 L722 0 L722 10 L722 20 L692 20 C671 20 617 56 617 80 L617 80 Z " />
<glyph glyph-name="L_sc" unicode="&#x29f;" horiz-adv-x="641" d="M567 2 C570 14 585 72 589 83 C592 94 607 152 610 164 C610 164 603 165 601 165 C598 166 591 167 591 167 L583 137 C573 99 448 2 382 2 L312 2 C278 2 232 58 232 80 L232 85 L232 498 C232 524 286 563 307 563 L337 563 L337 573 L337 583 L232 583 L190 583 L148 583 L43 583 L43 573 L43 563 L73 563 C94 563 148 524 148 498 L148 85 C148 59 94 20 73 20 L43 20 L43 10 L43 0 L138 0 L148 0 L232 0 L567 0 L567 2 L567 2 Z " />
<glyph glyph-name="A_sc" unicode="&#x1d00;" horiz-adv-x="693" d="M550 140 L550 140 L404 563 L390 603 L381 603 C374 593 330 564 320 563 L323 553 L323 553 L197 160 C171 100 76 19 47 19 L17 19 L17 9 L17 -1 L146 -1 L150 -1 L166 -1 L315 -1 L315 9 L315 19 L291 19 C254 19 188 106 204 166 L224 228 L434 228 L466 134 C477 86 429 19 401 19 L376 19 L376 9 L376 -1 L511 -1 L532 -1 L599 -1 L687 -1 L687 9 L687 19 L657 19 C639 19 567 91 551 139 L550 140 L550 140 Z M225 232 L326 548 L433 232 L225 232 L225 232 Z " />
<glyph glyph-name="C_sc" unicode="&#x1d04;" horiz-adv-x="651" d="M480 562 L479 562 C437 579 394 592 367 592 C278 592 55 377 55 291 C55 205 272 -11 358 -11 C386 -11 436 5 484 25 C514 32 584 15 587 4 C589 -5 595 -26 595 -26 L601 -26 L607 -26 L607 84 L607 93 L607 195 L600 195 L592 195 C592 195 588 180 587 174 C582 152 472 33 435 17 L436 17 C404 3 375 -7 359 -7 C299 -7 147 207 147 292 C147 377 305 590 368 590 C378 590 392 586 408 580 L406 580 C450 565 580 434 586 409 C587 402 591 387 591 387 L599 387 L606 387 L606 485 L606 489 L606 582 L599 582 L591 582 C591 582 587 562 586 554 C585 546 508 549 480 561 L480 562 L480 562 Z " />
<glyph glyph-name="D_sc" unicode="&#x1d05;" horiz-adv-x="757" d="M230 583 L146 583 L135 583 L41 583 L41 573 L41 563 L71 563 C92 563 146 524 146 498 L146 85 C146 59 92 20 71 20 L41 20 L41 10 L41 0 L135 0 L146 0 L230 0 L286 0 L230 583 L230 583 Z M230 581 L304 581 C400 581 611 374 611 292 C611 201 376 3 282 3 C260 3 230 58 230 80 L230 85 L230 498 L230 581 L230 581 Z " />
<glyph glyph-name="E_sc" unicode="&#x1d07;" horiz-adv-x="640" d="M448 0 L568 0 C569 9 576 55 577 64 C578 73 585 119 586 128 L576 128 L566 128 L561 98 C558 71 488 3 448 3 L313 3 C279 3 233 58 233 80 L233 85 L233 299 L360 299 C400 299 460 221 460 189 L460 159 L470 159 L480 159 L480 299 L480 301 L480 302 L480 442 L470 442 L460 442 L460 412 C460 381 400 302 360 302 L233 302 L233 498 L233 581 L426 581 C474 581 531 504 533 474 L535 456 L545 456 L555 456 C554 465 551 511 550 519 C550 528 546 574 546 583 L426 583 L233 583 L149 583 L138 583 L44 583 L44 573 L44 563 L74 563 C95 563 149 524 149 498 L149 85 C149 59 95 20 74 20 L44 20 L44 10 L44 0 L138 0 L149 0 L233 0 L448 0 L448 0 Z " />
<glyph glyph-name="J_sc" unicode="&#x1d0a;" horiz-adv-x="376" d="M148 503 L148 -57 C148 -120 61 -216 40 -216 C20 -216 -6 -145 -26 -145 C-38 -145 -66 -173 -66 -185 C-66 -195 7 -220 37 -220 C76 -220 232 -27 232 101 L232 503 C232 527 286 563 307 563 L337 563 L337 573 L337 583 L190 583 L43 583 L43 573 L43 563 L73 563 C94 563 148 527 148 503 L148 503 Z " />
<glyph glyph-name="K_sc" unicode="&#x1d0b;" horiz-adv-x="673" d="M517 85 L516 85 L296 346 L404 472 L405 473 C434 509 527 563 546 563 L576 563 L576 573 L576 583 L498 583 L467 583 L452 583 L337 583 L327 583 L232 583 L190 583 L148 583 L43 583 L43 573 L43 563 L73 563 C94 563 148 539 148 523 L148 60 C148 44 94 20 73 20 L43 20 L43 10 L43 0 L148 0 L190 0 L232 0 L337 0 L337 10 L337 20 L307 20 C285 20 232 44 232 60 L232 292 L412 85 L412 85 C444 48 486 0 486 0 L571 0 L587 0 L656 0 L656 10 L656 20 L618 20 C605 20 529 69 516 85 L517 85 L517 85 Z M327 563 L337 563 L350 563 C378 563 392 494 356 446 L232 292 L232 523 C232 539 285 563 307 563 L327 563 L327 563 Z " />
<glyph glyph-name="M_sc" unicode="&#x1d0d;" horiz-adv-x="810" d="M710 85 L710 85 L697 414 L697 413 C695 473 745 563 766 563 L795 563 L795 573 L795 583 L703 583 L690 583 L640 583 L611 583 L438 114 L438 114 L233 583 L176 583 L155 583 L135 583 L133 583 L37 583 L37 573 L37 563 L67 563 C83 563 127 541 153 519 L139 150 L138 150 C136 98 65 20 38 20 L8 20 L8 10 L8 0 L133 0 L148 0 L162 0 L287 0 L287 10 L287 20 L257 20 C231 20 169 86 165 134 L174 493 L345 114 L396 0 L417 0 L613 513 L627 85 L627 85 C628 59 574 20 552 20 L522 20 L522 10 L522 0 L630 0 L669 0 L713 0 L815 0 L815 10 L815 20 L785 20 C764 20 711 59 710 85 L710 85 Z " />
<glyph glyph-name="O_sc" unicode="&#x1d0f;" horiz-adv-x="792" d="M380 -7 C313 -7 146 207 146 292 C146 377 319 590 388 590 C461 590 642 377 642 292 C642 207 454 -7 380 -7 L380 -7 Z M50 292 C50 206 285 -10 379 -10 C481 -10 737 206 737 292 C737 378 488 593 389 593 C292 593 50 378 50 292 L50 292 Z " />
<glyph glyph-name="P_sc" unicode="&#x1d18;" horiz-adv-x="648" d="M212 0 L254 0 L359 0 L359 10 L359 20 L329 20 C307 20 254 59 254 85 L254 266 L352 266 C431 266 628 369 628 419 C628 466 446 583 373 583 L254 583 L170 583 L159 583 L65 583 L65 573 L65 563 L95 563 C116 563 170 524 170 498 L170 85 C170 59 116 20 95 20 L65 20 L65 10 L65 0 L170 0 L212 0 L212 0 Z M254 284 L254 498 L254 569 L352 569 C408 569 550 472 550 433 C550 384 408 284 352 284 L254 284 L254 284 Z " />
<glyph glyph-name="T_sc" unicode="&#x1d1b;" horiz-adv-x="715" d="M660 563 L660 583 L653 583 C647 600 641 617 639 623 L629 623 L619 623 L624 610 C626 603 573 583 533 583 L400 583 L317 583 L184 583 C144 583 91 603 93 610 L98 623 L88 623 L78 623 C76 617 70 600 64 583 L57 583 L57 563 C53 553 50 545 49 541 C45 529 24 471 20 460 C20 460 26 459 29 458 C32 458 39 457 39 457 L50 487 C57 509 137 562 177 562 L318 562 L318 80 C318 56 264 20 243 20 L213 20 L213 10 L213 0 L360 0 L506 0 L506 10 L506 20 L476 20 C455 20 401 56 401 80 L401 562 L542 562 C582 562 662 509 669 487 L680 457 C680 457 687 458 690 458 C693 459 699 460 699 460 C695 471 674 529 670 541 C669 545 666 553 662 563 L660 563 L660 563 Z " />
<glyph glyph-name="U_sc" unicode="&#x1d1c;" horiz-adv-x="738" d="M624 498 L624 583 L530 583 L435 583 L435 573 L435 563 L465 563 C487 563 540 524 540 498 L540 166 C524 131 344 44 289 44 C262 44 195 157 195 202 L195 498 L195 583 L100 583 L6 583 L6 573 L6 563 L36 563 C57 563 111 524 111 498 L111 202 C111 141 214 -10 255 -10 C318 -10 522 89 540 128 L540 110 L540 0 L553 0 L728 55 L728 65 C686 63 624 89 624 110 L624 498 L624 498 Z " />
<glyph glyph-name="V_sc" unicode="&#x1d20;" horiz-adv-x="712" d="M102 523 L276 127 L336 -10 L353 -10 L549 449 C571 497 644 564 663 564 L693 564 L693 574 L693 584 L606 584 L573 584 L550 584 L408 584 L408 574 L408 564 L431 564 C468 564 533 495 519 447 L391 127 L238 446 C221 494 279 563 314 563 L337 563 L337 573 L337 583 L178 583 L172 583 L76 583 L20 583 L20 573 L20 563 L57 563 C65 563 95 539 102 523 L102 523 Z " />
<glyph glyph-name="W_sc" unicode="&#x1d21;" horiz-adv-x="971" d="M427 523 L483 388 L367 101 L368 105 L225 447 C211 495 259 562 290 562 L314 562 L314 572 L314 582 L169 582 L167 582 L77 582 L20 582 L20 572 L20 562 L57 562 C65 562 110 497 132 449 L274 104 L322 -12 L344 -12 L497 352 L594 120 L648 -12 L670 -12 L824 451 C845 498 908 560 926 560 L956 560 L956 570 L956 580 L868 580 L833 580 L812 580 L668 580 L668 570 L668 560 L692 560 C729 560 799 494 791 446 L690 119 L544 474 C535 510 591 560 622 560 L646 560 L646 570 L646 580 L501 580 L482 580 L404 580 L317 580 L317 570 L317 560 L347 560 C366 560 421 536 429 520 L427 523 L427 523 Z " />
<glyph glyph-name="Z_sc" unicode="&#x1d22;" horiz-adv-x="592" d="M392 24 L392 24 L131 20 L550 566 L550 583 L468 583 L240 583 L70 583 C68 570 59 502 57 489 C55 476 45 408 43 395 C43 395 53 393 56 393 C60 392 69 391 69 391 L75 421 C83 461 184 561 237 561 L237 561 L454 564 L25 17 L25 -1 L116 -1 L386 -1 L546 -1 C549 12 565 74 568 87 C571 99 587 162 590 175 C590 175 583 176 580 176 C577 177 571 178 571 178 L554 134 C541 102 439 23 392 23 L392 24 L392 24 Z " />
<glyph glyph-name="Wgrave" unicode="&#x1e80;" horiz-adv-x="1102" d="M434 971 C420 990 377 1038 374 1038 C363 1038 332 1007 332 996 C332 993 378 948 396 932 L538 812 L549 823 L434 971 L434 971 Z M481 692 L554 499 L407 113 L408 116 L229 609 L229 609 C211 657 266 729 299 729 L323 729 L323 739 L323 749 L178 749 L170 749 L75 749 L18 749 L18 739 L18 729 L55 729 C62 729 101 671 122 624 L312 116 L360 -11 L384 -11 L570 457 L693 134 L748 -11 L772 -11 L956 609 L957 609 C970 657 1038 729 1057 729 L1087 729 L1087 739 L1087 749 L998 749 L960 749 L941 749 L795 749 L795 739 L795 729 L820 729 C857 729 932 659 921 611 L787 131 L787 134 L605 643 C598 679 656 729 688 729 L712 729 L712 739 L712 749 L567 749 L542 749 L459 749 L372 749 L372 739 L372 729 L402 729 C419 729 471 707 481 691 L481 692 L481 692 Z " />
<glyph glyph-name="Wacute" unicode="&#x1e82;" horiz-adv-x="1102" d="M543 812 L685 932 C704 948 750 993 750 996 C750 1007 719 1038 708 1038 C705 1038 662 990 647 971 L533 823 L543 812 L543 812 Z M481 692 L554 499 L407 113 L408 116 L229 609 L229 609 C211 657 266 729 299 729 L323 729 L323 739 L323 749 L178 749 L170 749 L75 749 L18 749 L18 739 L18 729 L55 729 C62 729 101 671 122 624 L312 116 L360 -11 L384 -11 L570 457 L693 134 L748 -11 L772 -11 L956 609 L957 609 C970 657 1038 729 1057 729 L1087 729 L1087 739 L1087 749 L998 749 L960 749 L941 749 L795 749 L795 739 L795 729 L820 729 C857 729 932 659 921 611 L787 131 L787 134 L605 643 C598 679 656 729 688 729 L712 729 L712 739 L712 749 L567 749 L542 749 L459 749 L372 749 L372 739 L372 729 L402 729 C419 729 471 707 481 691 L481 692 L481 692 Z " />
<glyph glyph-name="Wdieresis" unicode="&#x1e84;" horiz-adv-x="1102" d="M611 865 C626 865 664 903 664 919 C664 934 626 973 611 973 C595 973 557 934 557 919 C557 903 595 865 611 865 L611 865 Z M461 865 C477 865 515 903 515 919 C515 934 477 973 461 973 C446 973 407 934 407 919 C407 903 446 865 461 865 L461 865 Z M481 692 L554 499 L407 113 L408 116 L229 609 L229 609 C211 657 266 729 299 729 L323 729 L323 739 L323 749 L178 749 L170 749 L75 749 L18 749 L18 739 L18 729 L55 729 C62 729 101 671 122 624 L312 116 L360 -11 L384 -11 L570 457 L693 134 L748 -11 L772 -11 L956 609 L957 609 C970 657 1038 729 1057 729 L1087 729 L1087 739 L1087 749 L998 749 L960 749 L941 749 L795 749 L795 739 L795 729 L820 729 C857 729 932 659 921 611 L787 131 L787 134 L605 643 C598 679 656 729 688 729 L712 729 L712 739 L712 749 L567 749 L542 749 L459 749 L372 749 L372 739 L372 729 L402 729 C419 729 471 707 481 691 L481 692 L481 692 Z " />
<glyph glyph-name="Etilde" unicode="&#x1ebc;" horiz-adv-x="654" d="M210 870 C210 887 242 930 254 930 C283 930 400 865 428 865 C448 865 499 950 499 984 L497 984 C497 967 461 924 447 924 C419 924 302 989 274 989 C255 989 208 904 208 870 L210 870 L210 870 Z M462 0 L582 0 C583 9 590 55 591 64 C592 73 599 119 600 128 L590 128 L580 128 L576 98 C572 71 502 3 462 3 L320 3 C286 3 240 58 240 80 L240 85 L240 385 L374 385 C414 385 474 306 474 275 L474 245 L484 245 L494 245 L494 385 L494 387 L494 388 L494 528 L484 528 L474 528 L474 498 C474 467 414 388 374 388 L240 388 L240 665 L240 747 L440 747 C488 747 545 671 547 640 L549 622 L559 622 L569 622 C568 631 565 677 564 686 C564 695 560 741 560 750 L440 750 L240 750 L147 750 L141 750 L42 750 L42 740 L42 730 L72 730 C93 730 147 691 147 665 L147 85 C147 59 93 20 72 20 L42 20 L42 10 L42 0 L141 0 L147 0 L240 0 L462 0 L462 0 Z " />
<glyph glyph-name="Ygrave" unicode="&#x1ef2;" horiz-adv-x="724" d="M268 971 C254 990 211 1038 207 1038 C197 1038 166 1007 166 996 C166 993 212 948 230 932 L372 812 L382 823 L268 971 L268 971 Z M259 610 L259 610 C230 658 237 730 257 730 L282 730 L282 740 L282 750 L177 750 L148 750 L68 750 L15 750 L15 740 L15 730 L52 730 C60 730 123 658 151 610 L151 610 L323 322 L323 80 C323 56 269 20 248 20 L218 20 L218 10 L218 0 L370 0 L521 0 L521 10 L521 20 L491 20 C470 20 416 56 416 80 L416 338 L566 620 C596 667 664 730 678 730 L709 730 L709 740 L709 750 L635 750 L628 750 L616 750 L523 750 L523 740 L523 730 L548 730 C567 730 582 668 562 624 L414 342 L259 610 L259 610 Z " />
<glyph glyph-name="quoteleft" unicode="&#x2018;" horiz-adv-x="248" d="M124 740 C115 740 100 729 87 716 C86 719 86 722 86 724 C86 750 158 838 187 846 L182 863 C143 852 44 747 44 716 C44 701 64 671 85 649 C87 647 89 645 91 643 C103 632 115 624 123 624 C140 624 182 666 181 682 C182 699 140 741 123 741 L124 740 L124 740 Z " />
<glyph glyph-name="quoteright" unicode="&#x2019;" horiz-adv-x="248" d="M125 643 C134 643 149 654 162 667 C163 664 163 661 163 659 C163 632 90 544 61 536 L66 519 C106 531 204 636 204 666 C204 680 189 704 172 724 C165 733 156 742 147 749 C138 756 130 760 124 760 C107 760 65 718 65 701 C65 685 107 643 124 643 L125 643 L125 643 Z " />
<glyph glyph-name="quotedblleft" unicode="&#x201c;" horiz-adv-x="426" d="M124 740 C115 740 100 729 87 716 C86 719 86 722 86 724 C86 750 158 838 187 846 L182 863 C143 852 44 747 44 716 C44 701 64 671 85 649 C87 647 89 645 91 643 C103 632 115 624 123 624 C139 624 181 666 181 682 C181 699 139 741 123 741 L124 740 L124 740 Z M300 741 C291 741 276 730 263 717 C262 720 262 723 262 725 C262 751 335 839 364 847 L359 864 C320 853 221 748 221 717 C221 705 233 684 248 665 C261 647 287 624 300 624 C317 624 359 666 359 682 C359 699 317 741 300 741 L300 741 Z " />
<glyph glyph-name="quotedblright" unicode="&#x201d;" horiz-adv-x="426" d="M302 643 C311 643 326 654 339 667 C340 664 340 661 340 659 C340 632 268 544 239 536 L244 519 C283 531 382 636 382 666 C382 693 325 760 302 760 C286 760 244 718 244 701 C244 685 286 643 302 643 L302 643 Z M125 643 C134 643 149 654 162 667 C163 664 163 661 163 659 C163 632 90 544 61 536 L66 519 C106 531 204 636 204 666 C204 680 189 704 172 724 C165 733 156 742 147 749 C138 756 130 760 124 760 C107 760 65 718 65 701 C65 685 107 643 124 643 L125 643 L125 643 Z " />
<glyph glyph-name="Euro" unicode="&#x20ac;" horiz-adv-x="783" d="M620 706 L620 706 C561 735 496 760 460 760 C379 760 200 587 130 460 L63 460 L55 400 L105 400 C103 391 102 383 102 375 C102 367 103 359 105 350 L56 350 L48 290 L130 290 C198 163 372 -10 451 -10 C486 -10 556 16 619 46 L620 46 C644 58 717 43 720 31 C722 22 728 1 728 1 L734 1 L740 1 L740 113 L740 120 L740 224 L733 224 L725 224 C725 224 722 209 720 203 C715 182 608 59 573 40 L573 40 C524 14 476 -7 452 -7 C397 -7 274 165 226 290 L510 290 L518 350 L208 350 C206 359 205 367 205 375 C205 383 206 391 208 400 L517 400 L525 460 L226 460 C276 585 404 757 463 757 C481 757 512 745 546 728 C592 702 716 569 721 546 C723 540 726 525 726 525 L734 525 L741 525 L741 629 L741 634 L741 744 L734 744 L726 744 C726 744 723 723 721 715 C719 703 648 692 622 705 L620 706 L620 706 Z " />
<glyph glyph-name="F_sc" unicode="&#xa730;" horiz-adv-x="618" d="M375 296 C413 282 462 224 465 199 L469 153 L475 153 L481 153 L481 295 L481 297 L481 298 L481 440 L475 440 L469 440 L465 395 C462 367 399 298 361 298 L234 298 L234 497 L234 580 L347 580 C419 580 533 512 535 485 L538 455 C538 455 545 456 548 456 C551 457 558 458 558 458 C557 467 553 511 552 520 C552 529 548 573 547 582 L427 582 L234 582 L150 582 L139 582 L45 582 L45 572 L45 562 L75 562 C96 562 150 523 150 497 L150 84 C150 58 96 19 75 19 L45 19 L45 9 L45 -1 L150 -1 L192 -1 L234 -1 L339 -1 L339 9 L339 19 L309 19 C287 19 234 58 234 84 L234 295 L375 296 L375 296 Z " />
<glyph glyph-name="S_sc" unicode="&#xa731;" horiz-adv-x="488" d="M318 562 L316 562 C281 579 246 592 229 592 C183 592 68 482 68 438 C68 402 182 268 234 247 C280 229 382 143 382 125 C382 87 294 -7 259 -7 C250 -7 235 -1 217 9 L218 9 C184 27 78 163 72 188 C71 194 67 209 67 209 L59 209 L52 209 L52 113 L52 88 L52 -32 L59 -32 L67 -32 C67 -32 71 -6 72 4 C74 19 142 40 166 26 L167 26 C205 5 242 -11 260 -11 C314 -11 450 104 450 149 C450 183 337 314 285 334 C238 353 134 448 134 470 C134 504 203 589 230 589 C234 589 239 587 244 584 L230 588 C237 588 248 584 261 578 L245 583 C289 560 382 454 390 423 C391 416 395 401 395 401 L402 401 L410 401 L410 496 L410 498 L410 590 L402 590 L395 590 C395 590 391 570 390 562 C388 554 339 550 320 559 L318 562 L318 562 Z " />
<glyph glyph-name="X_sc" unicode="&#xf078;" horiz-adv-x="698" d="M511 140 L511 140 L382 326 L458 413 L458 412 C459 414 460 416 461 418 L478 437 C531 494 624 562 641 562 L672 562 L672 572 L672 582 L604 582 L567 582 L552 582 L432 582 L432 572 L432 562 L455 562 C481 562 493 491 460 439 L378 330 L299 443 C267 491 280 562 305 562 L328 562 L328 572 L328 582 L203 582 L185 582 L104 582 L43 582 L43 572 L43 562 L76 562 C87 562 159 497 195 449 L318 271 L198 119 L197 118 C166 78 65 18 44 18 L14 18 L14 8 L14 -2 L103 -2 L136 -2 L168 -2 L321 -2 L321 8 L321 18 L299 18 C257 18 209 93 246 145 L248 148 L248 148 L248 148 L328 255 L416 128 C442 81 429 18 406 18 L382 18 L382 8 L382 -2 L507 -2 L530 -2 L607 -2 L678 -2 L678 8 L678 18 L647 18 C632 18 543 90 510 138 L511 140 L511 140 Z " />
</font>
</svg>
